  0
SECTION
  2
HEADER
  9
$ACADVER
  1
AC1015
  9
$ACADMAINTVER
 70
     6
  9
$DWGCODEPAGE
  3
ANSI_949
  9
$INSBASE
 10
0.0
 20
0.0
 30
0.0
  9
$EXTMIN
 10
-39.95000000000009
 20
-49.97180738881175
 30
0.0
  9
$EXTMAX
 10
93.92598381534557
 20
27.94375000000001
 30
0.0
  9
$LIMMIN
 10
0.0
 20
0.0
  9
$LIMMAX
 10
420.0
 20
297.0
  9
$ORTHOMODE
 70
     1
  9
$REGENMODE
 70
     1
  9
$FILLMODE
 70
     1
  9
$QTEXTMODE
 70
     0
  9
$MIRRTEXT
 70
     1
  9
$LTSCALE
 40
1.0
  9
$ATTMODE
 70
     1
  9
$TEXTSIZE
 40
3.5
  9
$TRACEWID
 40
1.0
  9
$TEXTSTYLE
  7
Standard
  9
$CLAYER
  8
0
  9
$CELTYPE
  6
ByLayer
  9
$CECOLOR
 62
   256
  9
$CELTSCALE
 40
1.0
  9
$DISPSILH
 70
     0
  9
$DIMSCALE
 40
1.0
  9
$DIMASZ
 40
3.302
  9
$DIMEXO
 40
1.0
  9
$DIMDLI
 40
3.75
  9
$DIMRND
 40
0.0
  9
$DIMDLE
 40
0.0
  9
$DIMEXE
 40
1.0
  9
$DIMTP
 40
0.0
  9
$DIMTM
 40
0.0
  9
$DIMTXT
 40
3.5
  9
$DIMCEN
 40
2.5
  9
$DIMTSZ
 40
0.0
  9
$DIMTOL
 70
     0
  9
$DIMLIM
 70
     0
  9
$DIMTIH
 70
     1
  9
$DIMTOH
 70
     1
  9
$DIMSE1
 70
     0
  9
$DIMSE2
 70
     0
  9
$DIMTAD
 70
     1
  9
$DIMZIN
 70
     0
  9
$DIMBLK
  1

  9
$DIMASO
 70
     1
  9
$DIMSHO
 70
     1
  9
$DIMPOST
  1

  9
$DIMAPOST
  1

  9
$DIMALT
 70
     0
  9
$DIMALTD
 70
     3
  9
$DIMALTF
 40
0.0393700787401575
  9
$DIMLFAC
 40
1.0
  9
$DIMTOFL
 70
     1
  9
$DIMTVP
 40
0.0
  9
$DIMTIX
 70
     0
  9
$DIMSOXD
 70
     0
  9
$DIMSAH
 70
     0
  9
$DIMBLK1
  1

  9
$DIMBLK2
  1

  9
$DIMSTYLE
  2
ISO-25
  9
$DIMCLRD
 70
     0
  9
$DIMCLRE
 70
     0
  9
$DIMCLRT
 70
     0
  9
$DIMTFAC
 40
1.0
  9
$DIMGAP
 40
1.524
  9
$DIMJUST
 70
     0
  9
$DIMSD1
 70
     0
  9
$DIMSD2
 70
     0
  9
$DIMTOLJ
 70
     0
  9
$DIMTZIN
 70
     0
  9
$DIMALTZ
 70
     0
  9
$DIMALTTZ
 70
     0
  9
$DIMUPT
 70
     0
  9
$DIMDEC
 70
     2
  9
$DIMTDEC
 70
     2
  9
$DIMALTU
 70
     2
  9
$DIMALTTD
 70
     3
  9
$DIMTXSTY
  7
Standard
  9
$DIMAUNIT
 70
     0
  9
$DIMADEC
 70
     2
  9
$DIMALTRND
 40
0.0
  9
$DIMAZIN
 70
     0
  9
$DIMDSEP
 70
    44
  9
$DIMATFIT
 70
     3
  9
$DIMFRAC
 70
     0
  9
$DIMLDRBLK
  1

  9
$DIMLUNIT
 70
     2
  9
$DIMLWD
 70
    -2
  9
$DIMLWE
 70
    -2
  9
$DIMTMOVE
 70
     0
  9
$LUNITS
 70
     2
  9
$LUPREC
 70
     2
  9
$SKETCHINC
 40
1.0
  9
$FILLETRAD
 40
10.0
  9
$AUNITS
 70
     0
  9
$AUPREC
 70
     2
  9
$MENU
  1
.
  9
$ELEVATION
 40
0.0
  9
$PELEVATION
 40
0.0
  9
$THICKNESS
 40
0.0
  9
$LIMCHECK
 70
     0
  9
$CHAMFERA
 40
0.0
  9
$CHAMFERB
 40
0.0
  9
$CHAMFERC
 40
0.0
  9
$CHAMFERD
 40
0.0
  9
$SKPOLY
 70
     0
  9
$TDCREATE
 40
2458319.738593889
  9
$TDUCREATE
 40
2458319.363593889
  9
$TDUPDATE
 40
2458324.497228912
  9
$TDUUPDATE
 40
2458324.122228912
  9
$TDINDWG
 40
0.000385787
  9
$TDUSRTIMER
 40
2458324.122154502
  9
$USRTIMER
 70
     1
  9
$ANGBASE
 50
0.0
  9
$ANGDIR
 70
     0
  9
$PDMODE
 70
     0
  9
$PDSIZE
 40
-1.0
  9
$PLINEWID
 40
0.0
  9
$SPLFRAME
 70
     0
  9
$SPLINETYPE
 70
     6
  9
$SPLINESEGS
 70
     8
  9
$HANDSEED
  5
285
  9
$SURFTAB1
 70
     6
  9
$SURFTAB2
 70
     6
  9
$SURFTYPE
 70
     6
  9
$SURFU
 70
     6
  9
$SURFV
 70
     6
  9
$UCSBASE
  2

  9
$UCSNAME
  2

  9
$UCSORG
 10
0.0
 20
0.0
 30
0.0
  9
$UCSXDIR
 10
1.0
 20
0.0
 30
0.0
  9
$UCSYDIR
 10
0.0
 20
1.0
 30
0.0
  9
$UCSORTHOREF
  2

  9
$UCSORTHOVIEW
 70
     0
  9
$UCSORGTOP
 10
0.0
 20
0.0
 30
0.0
  9
$UCSORGBOTTOM
 10
0.0
 20
0.0
 30
0.0
  9
$UCSORGLEFT
 10
0.0
 20
0.0
 30
0.0
  9
$UCSORGRIGHT
 10
0.0
 20
0.0
 30
0.0
  9
$UCSORGFRONT
 10
0.0
 20
0.0
 30
0.0
  9
$UCSORGBACK
 10
0.0
 20
0.0
 30
0.0
  9
$PUCSBASE
  2

  9
$PUCSNAME
  2

  9
$PUCSORG
 10
0.0
 20
0.0
 30
0.0
  9
$PUCSXDIR
 10
1.0
 20
0.0
 30
0.0
  9
$PUCSYDIR
 10
0.0
 20
1.0
 30
0.0
  9
$PUCSORTHOREF
  2

  9
$PUCSORTHOVIEW
 70
     0
  9
$PUCSORGTOP
 10
0.0
 20
0.0
 30
0.0
  9
$PUCSORGBOTTOM
 10
0.0
 20
0.0
 30
0.0
  9
$PUCSORGLEFT
 10
0.0
 20
0.0
 30
0.0
  9
$PUCSORGRIGHT
 10
0.0
 20
0.0
 30
0.0
  9
$PUCSORGFRONT
 10
0.0
 20
0.0
 30
0.0
  9
$PUCSORGBACK
 10
0.0
 20
0.0
 30
0.0
  9
$USERI1
 70
     0
  9
$USERI2
 70
     0
  9
$USERI3
 70
     0
  9
$USERI4
 70
     0
  9
$USERI5
 70
     0
  9
$USERR1
 40
0.0
  9
$USERR2
 40
0.0
  9
$USERR3
 40
0.0
  9
$USERR4
 40
0.0
  9
$USERR5
 40
0.0
  9
$WORLDVIEW
 70
     1
  9
$SHADEDGE
 70
     3
  9
$SHADEDIF
 70
    70
  9
$TILEMODE
 70
     1
  9
$MAXACTVP
 70
    64
  9
$PINSBASE
 10
0.0
 20
0.0
 30
0.0
  9
$PLIMCHECK
 70
     0
  9
$PEXTMIN
 10
1.000000000000000E+20
 20
1.000000000000000E+20
 30
1.000000000000000E+20
  9
$PEXTMAX
 10
-1.000000000000000E+20
 20
-1.000000000000000E+20
 30
-1.000000000000000E+20
  9
$PLIMMIN
 10
0.0
 20
0.0
  9
$PLIMMAX
 10
0.0
 20
0.0
  9
$UNITMODE
 70
     0
  9
$VISRETAIN
 70
     1
  9
$PLINEGEN
 70
     0
  9
$PSLTSCALE
 70
     1
  9
$TREEDEPTH
 70
  3020
  9
$CMLSTYLE
  2
Standard
  9
$CMLJUST
 70
     0
  9
$CMLSCALE
 40
20.0
  9
$PROXYGRAPHICS
 70
     1
  9
$MEASUREMENT
 70
     1
  9
$CELWEIGHT
370
    -1
  9
$ENDCAPS
280
     0
  9
$JOINSTYLE
280
     0
  9
$LWDISPLAY
290
     1
  9
$INSUNITS
 70
     4
  9
$HYPERLINKBASE
  1

  9
$STYLESHEET
  1

  9
$XEDIT
290
     1
  9
$CEPSNTYPE
380
     0
  9
$PSTYLEMODE
290
     1
  9
$FINGERPRINTGUID
  2
{3D175ADB-47E8-4BC8-A125-831D8E2EE31D}
  9
$VERSIONGUID
  2
{FAEB1C32-E019-11D5-929B-00C0DF256EC4}
  9
$EXTNAMES
290
     1
  9
$PSVPSCALE
 40
0.0
  9
$OLESTARTUP
290
     0
  0
ENDSEC
  0
SECTION
  2
CLASSES
  0
CLASS
  1
ACDBDICTIONARYWDFLT
  2
AcDbDictionaryWithDefault
  3
ObjectDBX Classes
 90
        0
280
     0
281
     0
  0
CLASS
  1
VISUALSTYLE
  2
AcDbVisualStyle
  3
ObjectDBX Classes
 90
     4095
280
     0
281
     0
  0
CLASS
  1
MATERIAL
  2
AcDbMaterial
  3
ObjectDBX Classes
 90
     1153
280
     0
281
     0
  0
CLASS
  1
SCALE
  2
AcDbScale
  3
ObjectDBX Classes
 90
     1153
280
     0
281
     0
  0
CLASS
  1
SUN
  2
AcDbSun
  3
SCENEOE
 90
     1153
280
     0
281
     0
  0
CLASS
  1
ACDBPLACEHOLDER
  2
AcDbPlaceHolder
  3
ObjectDBX Classes
 90
        0
280
     0
281
     0
  0
CLASS
  1
LAYOUT
  2
AcDbLayout
  3
ObjectDBX Classes
 90
        0
280
     0
281
     0
  0
CLASS
  1
TABLESTYLE
  2
AcDbTableStyle
  3
ObjectDBX Classes
 90
     4095
280
     0
281
     0
  0
CLASS
  1
MLEADERSTYLE
  2
AcDbMLeaderStyle
  3
ACDB_MLEADERSTYLE_CLASS
 90
     4095
280
     0
281
     0
  0
CLASS
  1
DICTIONARYVAR
  2
AcDbDictionaryVar
  3
ObjectDBX Classes
 90
        0
280
     0
281
     0
  0
CLASS
  1
RASTERVARIABLES
  2
AcDbRasterVariables
  3
ISM
 90
        0
280
     0
281
     0
  0
ENDSEC
  0
SECTION
  2
TABLES
  0
TABLE
  2
VPORT
  5
8
330
0
100
AcDbSymbolTable
 70
     1
  0
VPORT
  5
29
330
8
100
AcDbSymbolTableRecord
100
AcDbViewportTableRecord
  2
*Active
 70
     0
 10
0.0
 20
0.0
 11
1.0
 21
1.0
 12
18.49380438942893
 22
-9.654958691486858
 13
0.0
 23
0.0
 14
10.0
 24
10.0
 15
10.0
 25
10.0
 16
0.0
 26
0.0
 36
1.0
 17
0.0
 27
0.0
 37
0.0
 40
86.98048018681664
 41
1.62890625
 42
50.0
 43
0.0
 44
0.0
 50
0.0
 51
0.0
 71
    16
 72
  2000
 73
     1
 74
     3
 75
     0
 76
     0
 77
     0
 78
     0
281
     0
 65
     1
110
0.0
120
0.0
130
0.0
111
1.0
121
0.0
131
0.0
112
0.0
122
1.0
132
0.0
 79
     0
146
0.0
  0
ENDTAB
  0
TABLE
  2
LTYPE
  5
5
330
0
100
AcDbSymbolTable
 70
     6
  0
LTYPE
  5
14
330
5
100
AcDbSymbolTableRecord
100
AcDbLinetypeTableRecord
  2
ByBlock
 70
     0
  3

 72
    65
 73
     0
 40
0.0
  0
LTYPE
  5
15
330
5
100
AcDbSymbolTableRecord
100
AcDbLinetypeTableRecord
  2
ByLayer
 70
     0
  3

 72
    65
 73
     0
 40
0.0
  0
LTYPE
  5
16
330
5
100
AcDbSymbolTableRecord
100
AcDbLinetypeTableRecord
  2
Continuous
 70
     0
  3
Solid line
 72
    65
 73
     0
 40
0.0
  0
LTYPE
  5
6A
330
5
100
AcDbSymbolTableRecord
100
AcDbLinetypeTableRecord
  2
HIDDEN
 70
     0
  3
Hidden __ __ __ __ __ __ __ __ __ __ __ __ __ __
 72
    65
 73
     2
 40
1.905
 49
1.27
 74
     0
 49
-0.635
 74
     0
  0
LTYPE
  5
6B
330
5
100
AcDbSymbolTableRecord
100
AcDbLinetypeTableRecord
  2
PHANTOM
 70
     0
  3
Phantom ______  __  __  ______  __  __  ______
 72
    65
 73
     6
 40
12.7
 49
6.35
 74
     0
 49
-1.27
 74
     0
 49
1.27
 74
     0
 49
-1.27
 74
     0
 49
1.27
 74
     0
 49
-1.27
 74
     0
  0
LTYPE
  5
6C
330
5
100
AcDbSymbolTableRecord
100
AcDbLinetypeTableRecord
  2
CENTER
 70
     0
  3
Center ____ _ ____ _ ____ _ ____ _ ____ _ ____
 72
    65
 73
     4
 40
10.16
 49
6.35
 74
     0
 49
-1.27
 74
     0
 49
1.27
 74
     0
 49
-1.27
 74
     0
  0
LTYPE
  5
6D
330
5
100
AcDbSymbolTableRecord
100
AcDbLinetypeTableRecord
  2
CENTERX2
 70
     0
  3
Center (2x) ________  __  ________  __  _____
 72
    65
 73
     4
 40
20.32
 49
12.7
 74
     0
 49
-2.54
 74
     0
 49
2.54
 74
     0
 49
-2.54
 74
     0
  0
LTYPE
  5
6E
330
5
100
AcDbSymbolTableRecord
100
AcDbLinetypeTableRecord
  2
DOT2
 70
     0
  3
Dot (.5x) ........................................
 72
    65
 73
     2
 40
0.635
 49
0.0
 74
     0
 49
-0.635
 74
     0
  0
ENDTAB
  0
TABLE
  2
LAYER
  5
2
330
0
100
AcDbSymbolTable
 70
    18
  0
LAYER
  5
10
330
2
100
AcDbSymbolTableRecord
100
AcDbLayerTableRecord
  2
0
 70
     0
 62
     7
  6
Continuous
370
    -3
390
F
  0
LAYER
  5
6F
330
2
100
AcDbSymbolTableRecord
100
AcDbLayerTableRecord
  2
FORMAT
 70
     0
 62
     2
  6
Continuous
370
    -3
390
F
  0
LAYER
  5
70
330
2
100
AcDbSymbolTableRecord
100
AcDbLayerTableRecord
  2
외형선
 70
     0
 62
     4
  6
Continuous
370
    30
390
F
  0
LAYER
  5
71
330
2
100
AcDbSymbolTableRecord
100
AcDbLayerTableRecord
  2
숨은선
 70
     0
 62
     2
  6
HIDDEN
370
    15
390
F
  0
LAYER
  5
72
330
2
100
AcDbSymbolTableRecord
100
AcDbLayerTableRecord
  2
중심선
 70
     0
 62
     1
  6
CENTERX2
370
    -3
390
F
  0
LAYER
  5
73
330
2
100
AcDbSymbolTableRecord
100
AcDbLayerTableRecord
  2
파단선
 70
     0
 62
     4
  6
Continuous
370
    -3
390
F
  0
LAYER
  5
74
330
2
100
AcDbSymbolTableRecord
100
AcDbLayerTableRecord
  2
해칭선
 70
     0
 62
   100
  6
Continuous
370
    -3
390
F
  0
LAYER
  5
75
330
2
100
AcDbSymbolTableRecord
100
AcDbLayerTableRecord
  2
가는실선
 70
     0
 62
     4
  6
Continuous
370
    -3
390
F
  0
LAYER
  5
76
330
2
100
AcDbSymbolTableRecord
100
AcDbLayerTableRecord
  2
치수_보조선
 70
     0
 62
     4
  6
Continuous
370
    -3
390
F
  0
LAYER
  5
77
330
2
100
AcDbSymbolTableRecord
100
AcDbLayerTableRecord
  2
치수문자_일반주서
 70
     0
 62
     7
  6
Continuous
370
    15
390
F
  0
LAYER
  5
78
330
2
100
AcDbSymbolTableRecord
100
AcDbLayerTableRecord
  2
개별주서
 70
     0
 62
   100
  6
Continuous
370
    30
390
F
  0
LAYER
  5
79
330
2
100
AcDbSymbolTableRecord
100
AcDbLayerTableRecord
  2
중간선
 70
     0
 62
     2
  6
Continuous
370
    15
390
F
  0
LAYER
  5
7A
330
2
100
AcDbSymbolTableRecord
100
AcDbLayerTableRecord
  2
윤곽선
 70
     0
 62
     3
  6
Continuous
370
    40
390
F
  0
LAYER
  5
7B
330
2
100
AcDbSymbolTableRecord
100
AcDbLayerTableRecord
  2
중심마크
 70
     0
 62
   100
  6
Continuous
370
    30
390
F
  0
LAYER
  5
7C
330
2
100
AcDbSymbolTableRecord
100
AcDbLayerTableRecord
  2
가상선
 70
     0
 62
     4
  6
PHANTOM
370
    -3
390
F
  0
LAYER
  5
7D
330
2
100
AcDbSymbolTableRecord
100
AcDbLayerTableRecord
  2
특수지정선
 70
     0
 62
     5
  6
CENTERX2
370
    60
390
F
  0
LAYER
  5
7E
330
2
100
AcDbSymbolTableRecord
100
AcDbLayerTableRecord
  2
참조1
 70
     0
 62
    -4
  6
Continuous
370
    -3
390
F
  0
LAYER
  5
152
330
2
100
AcDbSymbolTableRecord
100
AcDbLayerTableRecord
  2
Defpoints
 70
     0
 62
     7
  6
Continuous
290
     0
370
    -3
390
F
  0
ENDTAB
  0
TABLE
  2
STYLE
  5
3
330
0
100
AcDbSymbolTable
 70
     2
  0
STYLE
  5
11
330
3
100
AcDbSymbolTableRecord
100
AcDbTextStyleTableRecord
  2
Standard
 70
     0
 40
0.0
 41
1.0
 50
0.0
 71
     0
 42
3.5
  3
txt
  4

  0
STYLE
  5
94
330
3
100
AcDbSymbolTableRecord
100
AcDbTextStyleTableRecord
  2
SLDTEXTSTYLE0
 70
     0
 40
0.0
 41
0.75
 50
0.0
 71
     0
 42
3.5
  3
TXT
  4

  0
ENDTAB
  0
TABLE
  2
VIEW
  5
6
330
0
100
AcDbSymbolTable
 70
     0
  0
ENDTAB
  0
TABLE
  2
UCS
  5
7
330
0
100
AcDbSymbolTable
 70
     0
  0
ENDTAB
  0
TABLE
  2
APPID
  5
9
330
0
100
AcDbSymbolTable
 70
     2
  0
APPID
  5
12
330
9
100
AcDbSymbolTableRecord
100
AcDbRegAppTableRecord
  2
ACAD
 70
     0
  0
APPID
  5
1AF
330
9
100
AcDbSymbolTableRecord
100
AcDbRegAppTableRecord
  2
PE_URL
 70
     0
  0
ENDTAB
  0
TABLE
  2
DIMSTYLE
  5
A
330
0
100
AcDbSymbolTable
 70
     3
100
AcDbDimStyleTable
  0
DIMSTYLE
105
27
330
A
100
AcDbSymbolTableRecord
100
AcDbDimStyleTableRecord
  2
ISO-25
 70
     0
 41
2.5
 42
0.625
 43
3.75
 44
1.25
 73
     0
 74
     0
 77
     1
 78
     8
140
2.5
141
2.5
143
0.03937007874016
147
0.625
171
     3
172
     1
178
     0
271
     2
272
     2
274
     3
278
    44
283
     0
284
     8
340
11
  0
DIMSTYLE
105
D0
102
{ACAD_REACTORS
330
CF
330
F9
330
10D
330
E5
102
}
330
A
100
AcDbSymbolTableRecord
100
AcDbDimStyleTableRecord
  2
SLDDIMSTYLE0
 70
     0
 41
3.302
 44
0.0
 45
0.000000001
 73
     0
 74
     0
 77
     1
 78
    12
 79
     3
140
3.5
143
0.0393700787401575
147
0.875
148
0.000000001
170
     1
172
     1
173
     1
178
     0
271
     2
272
     2
276
     2
284
    12
289
     0
340
94
  0
DIMSTYLE
105
E6
330
A
100
AcDbSymbolTableRecord
100
AcDbDimStyleTableRecord
  2
SLDDIMSTYLE1
 70
     0
 41
3.302
 44
0.0
 45
0.000000001
 73
     0
 74
     0
 77
     1
 78
    12
 79
     3
140
3.5
143
0.0393700787401575
147
0.875
148
0.000000001
170
     1
173
     1
178
     0
271
     2
272
     2
276
     2
284
    12
340
94
  0
ENDTAB
  0
TABLE
  2
BLOCK_RECORD
  5
1
330
0
100
AcDbSymbolTable
 70
    11
  0
BLOCK_RECORD
  5
1F
330
1
100
AcDbSymbolTableRecord
100
AcDbBlockTableRecord
  2
*Model_Space
340
22
  0
BLOCK_RECORD
  5
1B
330
1
100
AcDbSymbolTableRecord
100
AcDbBlockTableRecord
  2
*Paper_Space
340
1E
  0
BLOCK_RECORD
  5
23
330
1
100
AcDbSymbolTableRecord
100
AcDbBlockTableRecord
  2
*Paper_Space0
340
26
  0
BLOCK_RECORD
  5
7F
330
1
100
AcDbSymbolTableRecord
100
AcDbBlockTableRecord
  2
블럭10
340
0
102
{BLKREFS
331
C8
102
}
  0
BLOCK_RECORD
  5
D1
330
1
100
AcDbSymbolTableRecord
100
AcDbBlockTableRecord
  2
_D
340
0
  0
BLOCK_RECORD
  5
E7
330
1
100
AcDbSymbolTableRecord
100
AcDbBlockTableRecord
  2
_D_1
340
0
  0
BLOCK_RECORD
  5
FA
330
1
100
AcDbSymbolTableRecord
100
AcDbBlockTableRecord
  2
_D_2
340
0
  0
BLOCK_RECORD
  5
10E
330
1
100
AcDbSymbolTableRecord
100
AcDbBlockTableRecord
  2
_D_3
340
0
  0
BLOCK_RECORD
  5
128
330
1
100
AcDbSymbolTableRecord
100
AcDbBlockTableRecord
  2
SW_DOWELSYMBOL_0
340
0
102
{BLKREFS
331
12E
102
}
  0
BLOCK_RECORD
  5
189
330
1
100
AcDbSymbolTableRecord
100
AcDbBlockTableRecord
  2
*D7
340
0
  0
BLOCK_RECORD
  5
19A
330
1
100
AcDbSymbolTableRecord
100
AcDbBlockTableRecord
  2
*D8
340
0
  0
BLOCK_RECORD
  5
1E1
330
1
100
AcDbSymbolTableRecord
100
AcDbBlockTableRecord
  2
*D9
340
0
  0
BLOCK_RECORD
  5
1F3
330
1
100
AcDbSymbolTableRecord
100
AcDbBlockTableRecord
  2
*D10
340
0
  0
ENDTAB
  0
ENDSEC
  0
SECTION
  2
BLOCKS
  0
BLOCK
  5
20
330
1F
100
AcDbEntity
  8
0
100
AcDbBlockBegin
  2
*Model_Space
 70
     0
 10
0.0
 20
0.0
 30
0.0
  3
*Model_Space
  1
*Model_Space
  0
ENDBLK
  5
21
330
1F
100
AcDbEntity
  8
0
100
AcDbBlockEnd
  0
BLOCK
  5
1C
330
1B
100
AcDbEntity
 67
     1
  8
0
100
AcDbBlockBegin
  2
*Paper_Space
 70
     0
 10
0.0
 20
0.0
 30
0.0
  3
*Paper_Space
  1
*Paper_Space
  0
ENDBLK
  5
1D
330
1B
100
AcDbEntity
 67
     1
  8
0
100
AcDbBlockEnd
  0
BLOCK
  5
24
330
23
100
AcDbEntity
  8
0
100
AcDbBlockBegin
  2
*Paper_Space0
 70
     0
 10
0.0
 20
0.0
 30
0.0
  3
*Paper_Space0
  1
*Paper_Space0
  0
ENDBLK
  5
25
330
23
100
AcDbEntity
  8
0
100
AcDbBlockEnd
  0
BLOCK
  5
80
330
7F
100
AcDbEntity
  8
0
100
AcDbBlockBegin
  2
블럭10
 70
     2
 10
0.0
 20
0.0
 30
0.0
  3
블럭10
  1
블럭10
  0
ELLIPSE
  5
82
330
7F
100
AcDbEntity
  8
중심선
100
AcDbEllipse
 10
20.54032771741204
 20
12.0471743016438
 30
0.0
 11
6.600054785286829
 21
-1.261213355974178E-13
 31
0.0
210
0.0
220
0.0
230
1.0
 40
0.636358354079598
 41
0.9219305317359503
 42
6.513795318482858
  0
ELLIPSE
  5
83
330
7F
100
AcDbEntity
  8
중심선
100
AcDbEllipse
 10
20.54032771746488
 20
12.04717430159265
 30
0.0
 11
3.960054785062283
 21
1.540847449632565E-10
 31
0.0
210
0.0
220
0.0
230
1.0
 40
0.3939339440162632
 41
1.131841032648279
 42
5.62031148352944
  0
LINE
  5
84
330
7F
100
AcDbEntity
  8
중심선
100
AcDbLine
 10
2.268634060543552
 20
16.24717430164393
 30
0.0
 11
5.714909304380834
 21
16.24717430164393
 31
0.0
  0
LINE
  5
85
330
7F
100
AcDbEntity
  8
중심선
100
AcDbLine
 10
5.245725140726316
 20
7.84717430164391
 30
0.0
 11
8.692000384563599
 21
7.84717430164391
 31
0.0
  0
LINE
  5
86
330
7F
100
AcDbEntity
  8
중심선
100
AcDbLine
 10
15.74043728645272
 20
16.24717430164393
 30
0.0
 11
8.692000384563599
 21
7.84717430164391
 31
0.0
  0
LINE
  5
87
330
7F
100
AcDbEntity
  8
중심선
100
AcDbLine
 10
0.1404042013395286
 20
13.71084872107135
 30
0.0
 11
3.58671253028996
 21
13.71088815037384
 31
0.0
  0
LINE
  5
88
330
7F
100
AcDbEntity
  8
중심선
100
AcDbLine
 10
2.750260043222114
 20
10.84717430164391
 30
0.0
 11
6.196535287059397
 21
10.84717430164391
 31
0.0
  0
LINE
  5
89
330
7F
100
AcDbEntity
  8
중심선
100
AcDbLine
 10
12.29416204261559
 20
16.24717430164393
 30
0.0
 11
5.245725140726316
 21
7.84717430164391
 31
0.0
  0
LINE
  5
8A
330
7F
100
AcDbEntity
  8
중심선
100
AcDbLine
 10
10.72767329541681
 20
16.24717430164393
 30
0.0
 11
6.196535287059397
 21
10.84717430164391
 31
0.0
  0
LINE
  5
8B
330
7F
100
AcDbEntity
  8
중심선
100
AcDbLine
 10
7.28139805157953
 20
16.24717430164393
 30
0.0
 11
2.750260043222114
 21
10.84717430164391
 31
0.0
  0
LINE
  5
8C
330
7F
100
AcDbEntity
  8
중심선
100
AcDbLine
 10
5.714909304380834
 20
16.24717430164393
 30
0.0
 11
3.58671253028996
 21
13.71088815037384
 31
0.0
  0
LINE
  5
8D
330
7F
100
AcDbEntity
  8
중심선
100
AcDbLine
 10
2.268634060543552
 20
16.24717430164393
 30
0.0
 11
0.1404042013395286
 21
13.71084872107135
 31
0.0
  0
LINE
  5
8E
330
7F
100
AcDbEntity
  8
중심선
100
AcDbLine
 10
7.28139805157953
 20
16.24717430164393
 30
0.0
 11
10.72767329541681
 21
16.24717430164393
 31
0.0
  0
LINE
  5
8F
330
7F
100
AcDbEntity
  8
중심선
100
AcDbLine
 10
12.29416204261559
 20
16.24717430164393
 30
0.0
 11
15.74043728645272
 21
16.24717430164393
 31
0.0
  0
LINE
  5
90
330
7F
100
AcDbEntity
  8
중심선
100
AcDbLine
 10
19.22036997980202
 20
11.08717430171403
 30
0.0
 11
23.66174974927406
 21
11.08717430171406
 31
0.0
  0
LINE
  5
91
330
7F
100
AcDbEntity
  8
중심선
100
AcDbLine
 10
19.22039502424796
 20
13.00717430171391
 30
0.0
 11
19.22036997980202
 21
11.08717430171403
 31
0.0
  0
LINE
  5
92
330
7F
100
AcDbEntity
  8
중심선
100
AcDbLine
 10
19.22039502424796
 20
13.00717430171391
 30
0.0
 11
26.96566020931264
 21
13.00717430171391
 31
0.0
  0
LINE
  5
93
330
7F
100
AcDbEntity
  8
중심선
100
AcDbLine
 10
22.22332737316547
 20
13.45928029700563
 30
0.0
 11
24.52862924686651
 21
15.39360700705356
 31
0.0
  0
ATTDEF
  5
95
330
7F
100
AcDbEntity
  8
FORMAT
 62
     2
100
AcDbText
 10
4.408487351596664
 20
2.075366912832191
 30
0.0
 40
4.233333333333333
  1
E1013006
 41
0.75
  7
SLDTEXTSTYLE0
 11
4.408487351596664
 21
-0.0412997538344756
 31
0.0
100
AcDbAttributeDefinition
  3

  2
AUTOATTR0
 70
     0
 74
     1
  0
ENDBLK
  5
81
330
7F
100
AcDbEntity
  8
0
100
AcDbBlockEnd
  0
BLOCK
  5
D2
330
D1
100
AcDbEntity
  8
0
100
AcDbBlockBegin
  2
_D
 70
     0
 10
0.0
 20
0.0
 30
0.0
  3
_D
  1
_D
  0
LINE
  5
D4
330
D1
100
AcDbEntity
  8
치수문자_일반주서
 62
     0
370
    -2
100
AcDbLine
 10
28.57499999999999
 20
1.253125000000004
 30
0.0
 11
28.57499999999999
 21
10.38125
 31
0.0
  0
LINE
  5
D5
330
D1
100
AcDbEntity
  8
치수문자_일반주서
 62
     0
370
    -2
100
AcDbLine
 10
21.43125
 20
1.253125000000001
 30
0.0
 11
21.43125
 21
10.38125
 31
0.0
  0
LINE
  5
D6
330
D1
100
AcDbEntity
  8
치수문자_일반주서
 62
     0
370
    -2
100
AcDbLine
 10
28.57499999999999
 20
10.38125
 30
0.0
 11
52.2
 21
10.38125
 31
0.0
  0
LINE
  5
D7
330
D1
100
AcDbEntity
  8
치수문자_일반주서
 62
     0
370
    -2
100
AcDbLine
 10
28.57499999999999
 20
10.38125
 30
0.0
 11
21.43125
 21
10.38125
 31
0.0
  0
LINE
  5
D8
330
D1
100
AcDbEntity
  8
치수문자_일반주서
 62
     0
370
    -2
100
AcDbLine
 10
31.07499999999999
 20
10.38125
 30
0.0
 11
33.57499999999999
 21
10.38125
 31
0.0
  0
LINE
  5
D9
330
D1
100
AcDbEntity
  8
치수문자_일반주서
 62
     0
370
    -2
100
AcDbLine
 10
18.93125
 20
10.38125
 30
0.0
 11
16.43125
 21
10.38125
 31
0.0
  0
SOLID
  5
DA
330
D1
100
AcDbEntity
  8
치수문자_일반주서
 62
     0
100
AcDbTrace
 10
31.07499999999999
 20
10.79791666666667
 30
0.0
 11
31.07499999999999
 21
9.964583333333337
 31
0.0
 12
28.57499999999999
 22
10.38125
 32
0.0
 13
28.57499999999999
 23
10.38125
 33
0.0
  0
SOLID
  5
DB
330
D1
100
AcDbEntity
  8
치수문자_일반주서
 62
     0
100
AcDbTrace
 10
18.93125
 20
9.964583333333337
 30
0.0
 11
18.93125
 21
10.79791666666667
 31
0.0
 12
21.43125
 22
10.38125
 32
0.0
 13
21.43125
 23
10.38125
 33
0.0
  0
MTEXT
  5
DC
330
D1
100
AcDbEntity
  8
치수문자_일반주서
 62
     0
100
AcDbMText
 10
42.8875
 20
13.75625
 30
0.0
 40
2.5
 41
0.0
 71
     2
 72
     1
  1
\A1;7.14 [9/32]
  7
SLDTEXTSTYLE0
 73
     1
 44
1.0
  0
POINT
  5
DD
330
D1
100
AcDbEntity
  8
Defpoints
 62
     0
100
AcDbPoint
 10
28.57499999999999
 20
1.190625000000004
 30
0.0
  0
POINT
  5
DE
330
D1
100
AcDbEntity
  8
Defpoints
 62
     0
100
AcDbPoint
 10
21.43125
 20
1.190625000000001
 30
0.0
  0
POINT
  5
DF
330
D1
100
AcDbEntity
  8
Defpoints
 62
     0
100
AcDbPoint
 10
21.43125
 20
10.38125
 30
0.0
  0
ENDBLK
  5
D3
330
D1
100
AcDbEntity
  8
0
100
AcDbBlockEnd
  0
BLOCK
  5
E8
330
E7
100
AcDbEntity
  8
0
100
AcDbBlockBegin
  2
_D_1
 70
     0
 10
0.0
 20
0.0
 30
0.0
  3
_D_1
  1
_D_1
  0
LINE
  5
EA
330
E7
100
AcDbEntity
  8
치수문자_일반주서
 62
     0
370
    -2
100
AcDbLine
 10
28.57499999999999
 20
1.253125000000004
 30
0.0
 11
28.57499999999999
 21
18.38125
 31
0.0
  0
LINE
  5
EB
330
E7
100
AcDbEntity
  8
치수문자_일반주서
 62
     0
370
    -2
100
AcDbLine
 10
-28.575
 20
1.253125000000003
 30
0.0
 11
-28.575
 21
18.38125
 31
0.0
  0
LINE
  5
EC
330
E7
100
AcDbEntity
  8
치수문자_일반주서
 62
     0
370
    -2
100
AcDbLine
 10
26.07499999999999
 20
18.38125
 30
0.0
 11
-26.075
 21
18.38125
 31
0.0
  0
SOLID
  5
ED
330
E7
100
AcDbEntity
  8
치수문자_일반주서
 62
     0
100
AcDbTrace
 10
26.07499999999999
 20
17.96458333333333
 30
0.0
 11
26.07499999999999
 21
18.79791666666667
 31
0.0
 12
28.57499999999999
 22
18.38125
 32
0.0
 13
28.57499999999999
 23
18.38125
 33
0.0
  0
SOLID
  5
EE
330
E7
100
AcDbEntity
  8
치수문자_일반주서
 62
     0
100
AcDbTrace
 10
-26.075
 20
18.79791666666667
 30
0.0
 11
-26.075
 21
17.96458333333333
 31
0.0
 12
-28.575
 22
18.38125
 32
0.0
 13
-28.575
 23
18.38125
 33
0.0
  0
MTEXT
  5
EF
330
E7
100
AcDbEntity
  8
치수문자_일반주서
 62
     0
100
AcDbMText
 10
0.2501241026247349
 20
21.75625
 30
0.0
 40
2.5
 41
0.0
 71
     2
 72
     1
  1
\A1;57.15 [2 1/4]
  7
SLDTEXTSTYLE0
 73
     1
 44
1.0
  0
POINT
  5
F0
330
E7
100
AcDbEntity
  8
Defpoints
 62
     0
100
AcDbPoint
 10
28.57499999999999
 20
1.190625000000004
 30
0.0
  0
POINT
  5
F1
330
E7
100
AcDbEntity
  8
Defpoints
 62
     0
100
AcDbPoint
 10
-28.575
 20
1.190625000000003
 30
0.0
  0
POINT
  5
F2
330
E7
100
AcDbEntity
  8
Defpoints
 62
     0
100
AcDbPoint
 10
-28.575
 20
18.38125
 30
0.0
  0
ENDBLK
  5
E9
330
E7
100
AcDbEntity
  8
0
100
AcDbBlockEnd
  0
BLOCK
  5
FB
330
FA
100
AcDbEntity
  8
0
100
AcDbBlockBegin
  2
_D_2
 70
     0
 10
0.0
 20
0.0
 30
0.0
  3
_D_2
  1
_D_2
  0
LINE
  5
FD
330
FA
100
AcDbEntity
  8
치수문자_일반주서
 62
     0
370
    -2
100
AcDbLine
 10
-16.05027700723829
 20
2.381249999999999
 30
0.0
 11
-36.57500000000002
 21
2.381249999999921
 31
0.0
  0
LINE
  5
FE
330
FA
100
AcDbEntity
  8
치수문자_일반주서
 62
     0
370
    -2
100
AcDbLine
 10
-16.0502770072383
 20
-2.381250000000002
 30
0.0
 11
-36.575
 21
-2.38125000000008
 31
0.0
  0
LINE
  5
FF
330
FA
100
AcDbEntity
  8
치수문자_일반주서
 62
     0
370
    -2
100
AcDbLine
 10
-36.57500000000002
 20
2.381249999999921
 30
0.0
 11
-36.57500000000009
 21
27.94375000000001
 31
0.0
  0
LINE
  5
100
330
FA
100
AcDbEntity
  8
치수문자_일반주서
 62
     0
370
    -2
100
AcDbLine
 10
-36.57500000000002
 20
2.381249999999921
 30
0.0
 11
-36.575
 21
-2.38125000000008
 31
0.0
  0
LINE
  5
101
330
FA
100
AcDbEntity
  8
치수문자_일반주서
 62
     0
370
    -2
100
AcDbLine
 10
-36.57500000000002
 20
4.881249999999921
 30
0.0
 11
-36.57500000000003
 21
7.381249999999921
 31
0.0
  0
LINE
  5
102
330
FA
100
AcDbEntity
  8
치수문자_일반주서
 62
     0
370
    -2
100
AcDbLine
 10
-36.575
 20
-4.88125000000008
 30
0.0
 11
-36.57499999999999
 21
-7.38125000000008
 31
0.0
  0
SOLID
  5
103
330
FA
100
AcDbEntity
  8
치수문자_일반주서
 62
     0
100
AcDbTrace
 10
-36.99166666666669
 20
4.881249999999921
 30
0.0
 11
-36.15833333333336
 21
4.881249999999922
 31
0.0
 12
-36.57500000000002
 22
2.381249999999921
 32
0.0
 13
-36.57500000000002
 23
2.381249999999921
 33
0.0
  0
SOLID
  5
104
330
FA
100
AcDbEntity
  8
치수문자_일반주서
 62
     0
100
AcDbTrace
 10
-36.15833333333333
 20
-4.881250000000079
 30
0.0
 11
-36.99166666666666
 21
-4.88125000000008
 31
0.0
 12
-36.575
 22
-2.38125000000008
 32
0.0
 13
-36.575
 23
-2.38125000000008
 33
0.0
  0
MTEXT
  5
105
330
FA
100
AcDbEntity
  8
치수문자_일반주서
 62
     0
100
AcDbMText
 10
-39.95000000000006
 20
17.69375
 30
0.0
 40
2.5
 41
0.0
 71
     2
 72
     1
  1
\A1;%%c4.76 [3/16]
  7
SLDTEXTSTYLE0
 11
-2.983906501879686E-15
 21
1.0
 31
0.0
 73
     1
 44
1.0
  0
POINT
  5
25B
330
FA
100
AcDbEntity
  8
Defpoints
 62
     0
100
AcDbPoint
 10
-15.98777700723829
 20
2.38125
 30
0.0
  0
POINT
  5
25C
330
FA
100
AcDbEntity
  8
Defpoints
 62
     0
100
AcDbPoint
 10
-15.9877770072383
 20
-2.381250000000001
 30
0.0
  0
POINT
  5
25D
330
FA
100
AcDbEntity
  8
Defpoints
 62
     0
100
AcDbPoint
 10
-36.575
 20
-2.381250000000078
 30
0.0
  0
ENDBLK
  5
FC
330
FA
100
AcDbEntity
  8
0
100
AcDbBlockEnd
  0
BLOCK
  5
10F
330
10E
100
AcDbEntity
  8
0
100
AcDbBlockBegin
  2
_D_3
 70
     0
 10
0.0
 20
0.0
 30
0.0
  3
_D_3
  1
_D_3
  0
LINE
  5
111
330
10E
100
AcDbEntity
  8
치수문자_일반주서
 62
     0
370
    -2
100
AcDbLine
 10
28.63749999999999
 20
1.190625000000004
 30
0.0
 11
57.2617911181438
 21
1.190625000000111
 31
0.0
  0
LINE
  5
112
330
10E
100
AcDbEntity
  8
치수문자_일반주서
 62
     0
370
    -2
100
AcDbLine
 10
28.63749999999999
 20
-1.190624999999996
 30
0.0
 11
57.26179111814381
 21
-1.190624999999891
 31
0.0
  0
LINE
  5
113
330
10E
100
AcDbEntity
  8
치수문자_일반주서
 62
     0
370
    -2
100
AcDbLine
 10
57.2617911181438
 20
1.190625000000111
 30
0.0
 11
57.26179111814373
 21
27.31562500000011
 31
0.0
  0
LINE
  5
114
330
10E
100
AcDbEntity
  8
치수문자_일반주서
 62
     0
370
    -2
100
AcDbLine
 10
57.2617911181438
 20
1.190625000000111
 30
0.0
 11
57.26179111814381
 21
-1.190624999999891
 31
0.0
  0
LINE
  5
115
330
10E
100
AcDbEntity
  8
치수문자_일반주서
 62
     0
370
    -2
100
AcDbLine
 10
57.2617911181438
 20
3.690625000000111
 30
0.0
 11
57.26179111814379
 21
6.190625000000111
 31
0.0
  0
LINE
  5
116
330
10E
100
AcDbEntity
  8
치수문자_일반주서
 62
     0
370
    -2
100
AcDbLine
 10
57.26179111814382
 20
-3.690624999999891
 30
0.0
 11
57.26179111814383
 21
-6.190624999999891
 31
0.0
  0
SOLID
  5
117
330
10E
100
AcDbEntity
  8
치수문자_일반주서
 62
     0
100
AcDbTrace
 10
56.84512445147713
 20
3.69062500000011
 30
0.0
 11
57.67845778481046
 21
3.690625000000112
 31
0.0
 12
57.2617911181438
 22
1.190625000000111
 32
0.0
 13
57.2617911181438
 23
1.190625000000111
 33
0.0
  0
SOLID
  5
118
330
10E
100
AcDbEntity
  8
치수문자_일반주서
 62
     0
100
AcDbTrace
 10
57.67845778481048
 20
-3.690624999999889
 30
0.0
 11
56.84512445147715
 21
-3.690624999999892
 31
0.0
 12
57.26179111814381
 22
-1.190624999999891
 32
0.0
 13
57.26179111814381
 23
-1.190624999999891
 33
0.0
  0
MTEXT
  5
119
330
10E
100
AcDbEntity
  8
치수문자_일반주서
 62
     0
100
AcDbMText
 10
53.88679111814375
 20
16.7531250000001
 30
0.0
 40
2.5
 41
0.0
 71
     2
 72
     1
  1
\A1;%%c2.38 [3/32]
  7
SLDTEXTSTYLE0
 11
-2.983906501879686E-15
 21
1.0
 31
0.0
 73
     1
 44
1.0
  0
POINT
  5
11A
330
10E
100
AcDbEntity
  8
Defpoints
 62
     0
100
AcDbPoint
 10
28.57499999999999
 20
1.190625000000004
 30
0.0
  0
POINT
  5
11B
330
10E
100
AcDbEntity
  8
Defpoints
 62
     0
100
AcDbPoint
 10
28.57499999999999
 20
-1.190624999999996
 30
0.0
  0
POINT
  5
11C
330
10E
100
AcDbEntity
  8
Defpoints
 62
     0
100
AcDbPoint
 10
57.26179111814381
 20
-1.190624999999889
 30
0.0
  0
ENDBLK
  5
110
330
10E
100
AcDbEntity
  8
0
100
AcDbBlockEnd
  0
BLOCK
  5
129
330
128
100
AcDbEntity
  8
0
100
AcDbBlockBegin
  2
SW_DOWELSYMBOL_0
 70
     0
 10
0.0
 20
0.0
 30
0.0
  3
SW_DOWELSYMBOL_0
  1
SW_DOWELSYMBOL_0
  0
CIRCLE
  5
12B
330
128
100
AcDbEntity
  8
해칭선
 62
     0
100
AcDbCircle
 10
0.0
 20
0.0
 30
0.0
 40
3.0
  0
HATCH
  5
12C
330
128
100
AcDbEntity
  8
0
  6
Continuous
 62
     0
370
     0
100
AcDbHatch
 10
0.0
 20
0.0
 30
0.0
210
0.0
220
0.0
230
1.0
  2
SOLID
 70
     1
 71
     0
 91
        1
 92
        0
 93
        3
 72
     2
 10
0.0
 20
0.0
 40
3.0
 50
0.0
 51
90.0
 73
     1
 72
     1
 10
0.0
 20
3.0
 11
0.0
 21
0.0
 72
     1
 10
0.0
 20
0.0
 11
2.999999999999999
 21
0.0
 97
        0
 75
     0
 76
     1
 98
        1
 10
0.0
 20
0.0
  0
HATCH
  5
12D
330
128
100
AcDbEntity
  8
0
  6
Continuous
 62
     0
370
     0
100
AcDbHatch
 10
0.0
 20
0.0
 30
0.0
210
0.0
220
0.0
230
1.0
  2
SOLID
 70
     1
 71
     0
 91
        1
 92
        0
 93
        3
 72
     2
 10
0.0
 20
0.0
 40
3.0
 50
180.0
 51
270.0000000000007
 73
     1
 72
     1
 10
0.0
 20
-3.0
 11
0.0
 21
0.0
 72
     1
 10
0.0
 20
0.0
 11
-3.0
 21
0.0
 97
        0
 75
     0
 76
     1
 98
        1
 10
0.0
 20
0.0
  0
ENDBLK
  5
12A
330
128
100
AcDbEntity
  8
0
100
AcDbBlockEnd
  0
BLOCK
  5
18A
330
189
100
AcDbEntity
  8
0
100
AcDbBlockBegin
  2
*D7
 70
     1
 10
0.0
 20
0.0
 30
0.0
  3
*D7
  1
*D7
  0
LINE
  5
18C
330
189
100
AcDbEntity
  8
치수문자_일반주서
 62
     0
370
    -2
100
AcDbLine
 10
4.999999999999998
 20
0.9414100773884738
 30
0.0
 11
4.999999999999998
 21
11.72482837997612
 31
0.0
  0
LINE
  5
18D
330
189
100
AcDbEntity
  8
치수문자_일반주서
 62
     0
370
    -2
100
AcDbLine
 10
10.99999999999999
 20
0.9786074100472517
 30
0.0
 11
10.99999999999999
 21
11.72482837997612
 31
0.0
  0
LINE
  5
18E
330
189
100
AcDbEntity
  8
치수문자_일반주서
 62
     0
370
    -2
100
AcDbLine
 10
4.999999999999998
 20
11.72482837997612
 30
0.0
 11
10.99999999999999
 21
11.72482837997612
 31
0.0
  0
LINE
  5
18F
330
189
100
AcDbEntity
  8
치수문자_일반주서
 62
     0
370
    -2
100
AcDbLine
 10
2.499999999999998
 20
11.72482837997612
 30
0.0
 11
-0.0000000000000018
 21
11.72482837997612
 31
0.0
  0
LINE
  5
190
330
189
100
AcDbEntity
  8
치수문자_일반주서
 62
     0
370
    -2
100
AcDbLine
 10
13.49999999999999
 20
11.72482837997612
 30
0.0
 11
15.99999999999999
 21
11.72482837997612
 31
0.0
  0
SOLID
  5
191
330
189
100
AcDbEntity
  8
치수문자_일반주서
 62
     0
100
AcDbTrace
 10
2.499999999999998
 20
11.30816171330945
 30
0.0
 11
2.499999999999998
 21
12.14149504664279
 31
0.0
 12
4.999999999999998
 22
11.72482837997612
 32
0.0
 13
4.999999999999998
 23
11.72482837997612
 33
0.0
  0
SOLID
  5
192
330
189
100
AcDbEntity
  8
치수문자_일반주서
 62
     0
100
AcDbTrace
 10
13.49999999999999
 20
12.14149504664279
 30
0.0
 11
13.49999999999999
 21
11.30816171330945
 31
0.0
 12
10.99999999999999
 22
11.72482837997612
 32
0.0
 13
10.99999999999999
 23
11.72482837997612
 33
0.0
  0
MTEXT
  5
193
330
189
100
AcDbEntity
  8
치수문자_일반주서
 62
     0
100
AcDbMText
 10
7.999999999999995
 20
15.09982837997612
 30
0.0
 40
2.5
 41
0.0
 71
     2
 72
     1
  1
\A1;6 [0.24]
  7
SLDTEXTSTYLE0
 73
     1
 44
1.0
  0
POINT
  5
194
330
189
100
AcDbEntity
  8
Defpoints
 62
     0
100
AcDbPoint
 10
4.999999999999998
 20
0.8789100773884738
 30
0.0
  0
POINT
  5
195
330
189
100
AcDbEntity
  8
Defpoints
 62
     0
100
AcDbPoint
 10
10.99999999999999
 20
0.9161074100472517
 30
0.0
  0
POINT
  5
196
330
189
100
AcDbEntity
  8
Defpoints
 62
     0
100
AcDbPoint
 10
10.99999999999999
 20
11.72482837997612
 30
0.0
  0
ENDBLK
  5
18B
330
189
100
AcDbEntity
  8
0
100
AcDbBlockEnd
  0
BLOCK
  5
19B
330
19A
100
AcDbEntity
  8
0
100
AcDbBlockBegin
  2
*D8
 70
     1
 10
0.0
 20
0.0
 30
0.0
  3
*D8
  1
*D8
  0
LINE
  5
19D
330
19A
100
AcDbEntity
  8
치수문자_일반주서
 62
     0
370
    -2
100
AcDbLine
 10
65.21806764632288
 20
-20.43412204909563
 30
0.0
 11
65.21806764632288
 21
-9.65070374650799
 31
0.0
  0
LINE
  5
19E
330
19A
100
AcDbEntity
  8
치수문자_일반주서
 62
     0
370
    -2
100
AcDbLine
 10
71.21806764632288
 20
-20.39692471643686
 30
0.0
 11
71.21806764632288
 21
-9.65070374650799
 31
0.0
  0
LINE
  5
19F
330
19A
100
AcDbEntity
  8
치수문자_일반주서
 62
     0
370
    -2
100
AcDbLine
 10
65.21806764632288
 20
-9.65070374650799
 30
0.0
 11
71.21806764632288
 21
-9.65070374650799
 31
0.0
  0
LINE
  5
1A0
330
19A
100
AcDbEntity
  8
치수문자_일반주서
 62
     0
370
    -2
100
AcDbLine
 10
62.71806764632288
 20
-9.65070374650799
 30
0.0
 11
60.21806764632288
 21
-9.65070374650799
 31
0.0
  0
LINE
  5
1A1
330
19A
100
AcDbEntity
  8
치수문자_일반주서
 62
     0
370
    -2
100
AcDbLine
 10
73.71806764632288
 20
-9.65070374650799
 30
0.0
 11
76.21806764632288
 21
-9.65070374650799
 31
0.0
  0
SOLID
  5
1A2
330
19A
100
AcDbEntity
  8
치수문자_일반주서
 62
     0
100
AcDbTrace
 10
62.71806764632288
 20
-10.06737041317466
 30
0.0
 11
62.71806764632288
 21
-9.234037079841324
 31
0.0
 12
65.21806764632288
 22
-9.65070374650799
 32
0.0
 13
65.21806764632288
 23
-9.65070374650799
 33
0.0
  0
SOLID
  5
1A3
330
19A
100
AcDbEntity
  8
치수문자_일반주서
 62
     0
100
AcDbTrace
 10
73.71806764632288
 20
-9.234037079841324
 30
0.0
 11
73.71806764632288
 21
-10.06737041317466
 31
0.0
 12
71.21806764632288
 22
-9.65070374650799
 32
0.0
 13
71.21806764632288
 23
-9.65070374650799
 33
0.0
  0
MTEXT
  5
1A4
330
19A
100
AcDbEntity
  8
치수문자_일반주서
 62
     0
100
AcDbMText
 10
68.21806764632288
 20
-6.27570374650799
 30
0.0
 40
2.5
 41
0.0
 71
     2
 72
     1
  1
\A1;6 [0.24]
  7
SLDTEXTSTYLE0
 73
     1
 44
1.0
  0
POINT
  5
1A5
330
19A
100
AcDbEntity
  8
Defpoints
 62
     0
100
AcDbPoint
 10
65.21806764632288
 20
-20.49662204909563
 30
0.0
  0
POINT
  5
1A6
330
19A
100
AcDbEntity
  8
Defpoints
 62
     0
100
AcDbPoint
 10
71.21806764632288
 20
-20.45942471643686
 30
0.0
  0
POINT
  5
1A7
330
19A
100
AcDbEntity
  8
Defpoints
 62
     0
100
AcDbPoint
 10
71.21806764632288
 20
-9.65070374650799
 30
0.0
  0
ENDBLK
  5
19C
330
19A
100
AcDbEntity
  8
0
100
AcDbBlockEnd
  0
BLOCK
  5
1E2
330
1E1
100
AcDbEntity
  8
0
100
AcDbBlockBegin
  2
*D9
 70
     1
 10
0.0
 20
0.0
 30
0.0
  3
*D9
  1
*D9
  0
LINE
  5
1E4
330
1E1
100
AcDbEntity
  8
치수문자_일반주서
 62
     0
370
    -2
100
AcDbLine
 10
7.381249999999987
 20
0.6249837474663138
 30
0.0
 11
7.381249999999987
 21
10.54685874746631
 31
0.0
  0
LINE
  5
1E5
330
1E1
100
AcDbEntity
  8
치수문자_일반주서
 62
     0
370
    -2
100
AcDbLine
 10
5.0
 20
0.6249837474663014
 30
0.0
 11
5.0
 21
10.54685874746631
 31
0.0
  0
LINE
  5
1E6
330
1E1
100
AcDbEntity
  8
치수문자_일반주서
 62
     0
370
    -2
100
AcDbLine
 10
7.381249999999987
 20
10.54685874746631
 30
0.0
 11
31.63125
 21
10.54685874746631
 31
0.0
  0
LINE
  5
1E7
330
1E1
100
AcDbEntity
  8
치수문자_일반주서
 62
     0
370
    -2
100
AcDbLine
 10
7.381249999999987
 20
10.54685874746631
 30
0.0
 11
5.0
 21
10.54685874746631
 31
0.0
  0
LINE
  5
1E8
330
1E1
100
AcDbEntity
  8
치수문자_일반주서
 62
     0
370
    -2
100
AcDbLine
 10
9.881249999999987
 20
10.54685874746631
 30
0.0
 11
12.38124999999999
 21
10.54685874746631
 31
0.0
  0
LINE
  5
1E9
330
1E1
100
AcDbEntity
  8
치수문자_일반주서
 62
     0
370
    -2
100
AcDbLine
 10
2.5
 20
10.54685874746631
 30
0.0
 11
0.0
 21
10.54685874746631
 31
0.0
  0
SOLID
  5
1EA
330
1E1
100
AcDbEntity
  8
치수문자_일반주서
 62
     0
100
AcDbTrace
 10
9.881249999999987
 20
10.96352541413298
 30
0.0
 11
9.881249999999987
 21
10.13019208079964
 31
0.0
 12
7.381249999999987
 22
10.54685874746631
 32
0.0
 13
7.381249999999987
 23
10.54685874746631
 33
0.0
  0
SOLID
  5
1EB
330
1E1
100
AcDbEntity
  8
치수문자_일반주서
 62
     0
100
AcDbTrace
 10
2.5
 20
10.13019208079964
 30
0.0
 11
2.5
 21
10.96352541413298
 31
0.0
 12
5.0
 22
10.54685874746631
 32
0.0
 13
5.0
 23
10.54685874746631
 33
0.0
  0
MTEXT
  5
1EC
330
1E1
100
AcDbEntity
  8
치수문자_일반주서
 62
     0
100
AcDbMText
 10
22.00625
 20
13.92185874746631
 30
0.0
 40
2.5
 41
0.0
 71
     2
 72
     1
  1
\A1;2.38 [3/32]
  7
SLDTEXTSTYLE0
 73
     1
 44
1.0
  0
POINT
  5
1ED
330
1E1
100
AcDbEntity
  8
Defpoints
 62
     0
100
AcDbPoint
 10
7.381249999999987
 20
0.5624837474663138
 30
0.0
  0
POINT
  5
1EE
330
1E1
100
AcDbEntity
  8
Defpoints
 62
     0
100
AcDbPoint
 10
5.0
 20
0.5624837474663014
 30
0.0
  0
POINT
  5
1EF
330
1E1
100
AcDbEntity
  8
Defpoints
 62
     0
100
AcDbPoint
 10
5.0
 20
10.54685874746631
 30
0.0
  0
ENDBLK
  5
1E3
330
1E1
100
AcDbEntity
  8
0
100
AcDbBlockEnd
  0
BLOCK
  5
1F4
330
1F3
100
AcDbEntity
  8
0
100
AcDbBlockBegin
  2
*D10
 70
     1
 10
0.0
 20
0.0
 30
0.0
  3
*D10
  1
*D10
  0
LINE
  5
1F6
330
1F3
100
AcDbEntity
  8
치수문자_일반주서
 62
     0
370
    -2
100
AcDbLine
 10
58.6087268106132
 20
-25.07935137398912
 30
0.0
 11
58.6087268106132
 21
-15.15747637398913
 31
0.0
  0
LINE
  5
1F7
330
1F3
100
AcDbEntity
  8
치수문자_일반주서
 62
     0
370
    -2
100
AcDbLine
 10
56.22747681061321
 20
-25.07935137398913
 30
0.0
 11
56.22747681061321
 21
-15.15747637398913
 31
0.0
  0
LINE
  5
1F8
330
1F3
100
AcDbEntity
  8
치수문자_일반주서
 62
     0
370
    -2
100
AcDbLine
 10
58.6087268106132
 20
-15.15747637398913
 30
0.0
 11
82.8587268106132
 21
-15.15747637398913
 31
0.0
  0
LINE
  5
1F9
330
1F3
100
AcDbEntity
  8
치수문자_일반주서
 62
     0
370
    -2
100
AcDbLine
 10
58.6087268106132
 20
-15.15747637398913
 30
0.0
 11
56.22747681061321
 21
-15.15747637398913
 31
0.0
  0
LINE
  5
1FA
330
1F3
100
AcDbEntity
  8
치수문자_일반주서
 62
     0
370
    -2
100
AcDbLine
 10
61.1087268106132
 20
-15.15747637398913
 30
0.0
 11
63.6087268106132
 21
-15.15747637398913
 31
0.0
  0
LINE
  5
1FB
330
1F3
100
AcDbEntity
  8
치수문자_일반주서
 62
     0
370
    -2
100
AcDbLine
 10
53.72747681061321
 20
-15.15747637398913
 30
0.0
 11
51.22747681061321
 21
-15.15747637398913
 31
0.0
  0
SOLID
  5
1FC
330
1F3
100
AcDbEntity
  8
치수문자_일반주서
 62
     0
100
AcDbTrace
 10
61.1087268106132
 20
-14.74080970732246
 30
0.0
 11
61.1087268106132
 21
-15.57414304065579
 31
0.0
 12
58.6087268106132
 22
-15.15747637398913
 32
0.0
 13
58.6087268106132
 23
-15.15747637398913
 33
0.0
  0
SOLID
  5
1FD
330
1F3
100
AcDbEntity
  8
치수문자_일반주서
 62
     0
100
AcDbTrace
 10
53.72747681061321
 20
-15.57414304065579
 30
0.0
 11
53.72747681061321
 21
-14.74080970732246
 31
0.0
 12
56.22747681061321
 22
-15.15747637398913
 32
0.0
 13
56.22747681061321
 23
-15.15747637398913
 33
0.0
  0
MTEXT
  5
1FE
330
1F3
100
AcDbEntity
  8
치수문자_일반주서
 62
     0
100
AcDbMText
 10
73.2337268106132
 20
-11.78247637398913
 30
0.0
 40
2.5
 41
0.0
 71
     2
 72
     1
  1
\A1;2.38 [3/32]
  7
SLDTEXTSTYLE0
 73
     1
 44
1.0
  0
POINT
  5
1FF
330
1F3
100
AcDbEntity
  8
Defpoints
 62
     0
100
AcDbPoint
 10
58.6087268106132
 20
-25.14185137398912
 30
0.0
  0
POINT
  5
200
330
1F3
100
AcDbEntity
  8
Defpoints
 62
     0
100
AcDbPoint
 10
56.22747681061321
 20
-25.14185137398913
 30
0.0
  0
POINT
  5
201
330
1F3
100
AcDbEntity
  8
Defpoints
 62
     0
100
AcDbPoint
 10
56.22747681061321
 20
-15.15747637398913
 30
0.0
  0
ENDBLK
  5
1F5
330
1F3
100
AcDbEntity
  8
0
100
AcDbBlockEnd
  0
ENDSEC
  0
SECTION
  2
ENTITIES
  0
LINE
  5
96
330
1F
100
AcDbEntity
  8
외형선
  6
Continuous
370
    15
100
AcDbLine
 10
15.98777700723831
 20
-2.381249999999998
 30
0.0
 11
20.43124999999999
 21
-1.190624999999997
 31
0.0
  0
LINE
  5
97
330
1F
100
AcDbEntity
  8
외형선
  6
Continuous
370
    15
100
AcDbLine
 10
20.43124999999999
 20
1.190625000000004
 30
0.0
 11
15.98777700723831
 21
2.381250000000003
 31
0.0
  0
LINE
  5
98
330
1F
100
AcDbEntity
  8
외형선
  6
Continuous
370
    15
100
AcDbLine
 10
15.98777700723831
 20
2.381250000000003
 30
0.0
 11
-15.98777700723829
 21
2.38125
 31
0.0
  0
LINE
  5
99
330
1F
100
AcDbEntity
  8
외형선
  6
Continuous
370
    15
100
AcDbLine
 10
-15.9877770072383
 20
-2.381250000000001
 30
0.0
 11
15.98777700723831
 21
-2.381249999999998
 31
0.0
  0
LINE
  5
9C
330
1F
100
AcDbEntity
  8
외형선
  6
Continuous
370
    15
100
AcDbLine
 10
20.54154600926177
 20
1.190625000000004
 30
0.0
 11
20.43124999999999
 21
1.190625000000004
 31
0.0
  0
LINE
  5
9D
330
1F
100
AcDbEntity
  8
외형선
  6
Continuous
370
    15
100
AcDbLine
 10
21.43124999999999
 20
1.190625000000004
 30
0.0
 11
20.66787989819544
 21
1.190625000000004
 31
0.0
  0
LINE
  5
9E
330
1F
100
AcDbEntity
  8
외형선
  6
Continuous
370
    15
100
AcDbLine
 10
20.66787989819544
 20
-1.190624999999997
 30
0.0
 11
21.43124999999999
 21
-1.190624999999997
 31
0.0
  0
LINE
  5
9F
330
1F
100
AcDbEntity
  8
외형선
  6
Continuous
370
    15
100
AcDbLine
 10
20.43124999999999
 20
-1.190624999999997
 30
0.0
 11
20.54154600926177
 21
-1.190624999999997
 31
0.0
  0
LINE
  5
A0
330
1F
100
AcDbEntity
  8
0
  6
Continuous
 62
     1
370
    25
100
AcDbLine
 10
27.14618073977564
 20
-1.190624999999996
 30
0.0
 11
27.38437499999999
 21
-1.190624999999996
 31
0.0
1001
PE_URL
1000

  0
LINE
  5
A1
330
1F
100
AcDbEntity
  8
0
  6
Continuous
 62
     1
370
    25
100
AcDbLine
 10
23.25571494406867
 20
1.190625000000003
 30
0.0
 11
21.43124999999999
 21
1.190625000000003
 31
0.0
1001
PE_URL
1000

  0
ARC
  5
A2
330
1F
100
AcDbEntity
  8
0
  6
Continuous
 62
     1
370
    25
100
AcDbCircle
 10
27.38437499999999
 20
0.0000000000000035
 30
0.0
 40
1.190625000000001
100
AcDbArc
 50
270.0000000000009
 51
0.0
1001
PE_URL
1000

  0
ARC
  5
A3
330
1F
100
AcDbEntity
  8
0
  6
Continuous
 62
     1
370
    25
100
AcDbCircle
 10
27.38437499999999
 20
0.0000000000000035
 30
0.0
 40
1.190625000000001
100
AcDbArc
 50
0.0
 51
90.0
1001
PE_URL
1000

  0
LINE
  5
A4
330
1F
100
AcDbEntity
  8
0
  6
Continuous
 62
     1
370
    25
100
AcDbLine
 10
21.43124999999999
 20
-1.190624999999996
 30
0.0
 11
23.25440310560937
 21
-1.190624999999996
 31
0.0
1001
PE_URL
1000

  0
LINE
  5
A5
330
1F
100
AcDbEntity
  8
0
  6
Continuous
 62
     1
370
    25
100
AcDbLine
 10
27.38437499999999
 20
1.190625000000003
 30
0.0
 11
27.14618073977564
 21
1.190625000000003
 31
0.0
1001
PE_URL
1000

  0
LINE
  5
A6
330
1F
100
AcDbEntity
  8
외형선
  6
Continuous
370
    15
100
AcDbLine
 10
20.43124999999999
 20
1.190625000000004
 30
0.0
 11
20.43124999999999
 21
-1.190624999999996
 31
0.0
  0
LINE
  5
A7
330
1F
100
AcDbEntity
  8
외형선
  6
Continuous
370
    15
100
AcDbLine
 10
15.98777700723831
 20
2.381250000000003
 30
0.0
 11
15.98777700723831
 21
-2.38125
 31
0.0
  0
LINE
  5
AA
330
1F
100
AcDbEntity
  8
외형선
  6
Continuous
370
    15
100
AcDbLine
 10
20.54134004937121
 20
-1.188371212061422
 30
0.0
 11
20.66787989819544
 21
-1.184036398300639
 31
0.0
  0
LINE
  5
AB
330
1F
100
AcDbEntity
  8
외형선
  6
Continuous
370
    15
100
AcDbLine
 10
20.54154600926177
 20
-1.190624999999997
 30
0.0
 11
20.54154600926177
 21
-1.188367807885021
 31
0.0
  0
LINE
  5
AC
330
1F
100
AcDbEntity
  8
외형선
  6
Continuous
370
    15
100
AcDbLine
 10
21.43124999999999
 20
1.190625000000004
 30
0.0
 11
21.43124999999999
 21
1.109824437707357
 31
0.0
  0
SPLINE
  5
AD
330
1F
100
AcDbEntity
  8
외형선
  6
Continuous
370
    15
100
AcDbSpline
210
0.0
220
0.0
230
1.0
 70
     8
 71
     3
 72
    10
 73
     6
 74
     0
 42
0.000000001
 43
0.00000001
 40
0.0
 40
0.0
 40
0.0
 40
0.0
 40
0.5
 40
0.5
 40
1.0
 40
1.0
 40
1.0
 40
1.0
 10
21.43124999999999
 20
1.109824437707357
 30
0.0
 10
21.28395524718456
 20
1.140799813191675
 30
0.0
 10
21.135598535037
 20
1.163226857522056
 30
0.0
 10
20.83618099915608
 20
1.18968499615522
 30
0.0
 10
20.68950724945788
 20
1.193642403761345
 30
0.0
 10
20.5413400493712
 20
1.18837121206143
 30
0.0
  0
SPLINE
  5
AE
330
1F
100
AcDbEntity
  8
외형선
  6
Continuous
370
    15
100
AcDbSpline
210
0.0
220
0.0
230
1.0
 70
     8
 71
     3
 72
    10
 73
     6
 74
     0
 42
0.000000001
 43
0.00000001
 40
0.0
 40
0.0
 40
0.0
 40
0.0
 40
0.5
 40
0.5
 40
1.0
 40
1.0
 40
1.0
 40
1.0
 10
21.43125000000306
 20
-0.7545632389546385
 30
0.0
 10
21.28398937201533
 20
-0.6884090675881246
 30
0.0
 10
21.13566806980854
 20
-0.6162350696117896
 30
0.0
 10
20.83631956910591
 20
-0.4629377730488266
 30
0.0
 10
20.68967624166453
 20
-0.382602109847067
 30
0.0
 10
20.54154600926177
 20
-0.2996712648071668
 30
0.0
  0
LINE
  5
AF
330
1F
100
AcDbEntity
  8
외형선
  6
Continuous
370
    15
100
AcDbLine
 10
21.43124999999999
 20
-0.754563238956465
 30
0.0
 11
21.43124999999999
 21
-1.190624999999997
 31
0.0
  0
LINE
  5
B0
330
1F
100
AcDbEntity
  8
외형선
  6
Continuous
370
    15
100
AcDbLine
 10
20.54154600926177
 20
-0.2997468038322643
 30
0.0
 11
20.54154600926177
 21
1.190625000000004
 31
0.0
  0
SPLINE
  5
B1
330
1F
100
AcDbEntity
  8
외형선
  6
Continuous
370
    15
100
AcDbSpline
210
0.0
220
0.0
230
1.0
 70
    24
 71
     3
 72
    14
 73
    10
 74
     0
 42
0.000000001
 43
0.00000001
 40
0.0
 40
0.0
 40
0.0
 40
0.0
 40
0.25
 40
0.25
 40
0.5
 40
0.5
 40
0.75
 40
0.75
 40
1.0
 40
1.0
 40
1.0
 40
1.0
 10
21.43124999999861
 20
0.2568179862294578
 30
0.0
 10
21.43124999999861
 20
0.1975257514096944
 30
0.0
 10
21.43124999999861
 20
0.1270563846967985
 30
0.0
 10
21.43124999999861
 20
-0.0350258315720545
 30
0.0
 10
21.43124999999861
 20
-0.1267991411042172
 30
0.0
 10
21.43124999999861
 20
-0.318979213292257
 30
0.0
 10
21.43124999999861
 20
-0.4191084481823472
 30
0.0
 10
21.43124999999862
 20
-0.6040550870431474
 30
0.0
 10
21.43124999999861
 20
-0.6882465275592939
 30
0.0
 10
21.43124999999861
 20
-0.7545632389561049
 30
0.0
  0
SPLINE
  5
B2
330
1F
100
AcDbEntity
  8
외형선
  6
Continuous
370
    15
100
AcDbSpline
210
0.0
220
0.0
230
1.0
 70
     8
 71
     3
 72
    10
 73
     6
 74
     0
 42
0.000000001
 43
0.00000001
 40
0.0
 40
0.0
 40
0.0
 40
0.0
 40
0.5
 40
0.5
 40
1.0
 40
1.0
 40
1.0
 40
1.0
 10
21.43125000001827
 20
0.2568179862220832
 30
0.0
 10
21.28398937202776
 20
0.3120588074470958
 30
0.0
 10
21.13566806981885
 20
0.3654384914698175
 30
0.0
 10
20.83631956911103
 20
0.4659849631008804
 30
0.0
 10
20.68967624166715
 20
0.5126728105674186
 30
0.0
 10
20.54154600926177
 20
0.5551995033258668
 30
0.0
  0
SPLINE
  5
B3
330
1F
100
AcDbEntity
  8
외형선
  6
Continuous
370
    15
100
AcDbSpline
210
0.0
220
0.0
230
1.0
 70
    24
 71
     3
 72
    14
 73
    10
 74
     0
 42
0.000000001
 43
0.00000001
 40
0.0
 40
0.0
 40
0.0
 40
0.0
 40
0.25
 40
0.25
 40
0.5
 40
0.5
 40
0.75
 40
0.75
 40
1.0
 40
1.0
 40
1.0
 40
1.0
 10
21.43124999999999
 20
1.10982443771139
 30
0.0
 10
21.43124999999999
 20
1.02268966713124
 30
0.0
 10
21.43124999999999
 20
0.9284431773566804
 30
0.0
 10
21.43124999999999
 20
0.7456333927576557
 30
0.0
 10
21.43124999999999
 20
0.6574848490096544
 30
0.0
 10
21.43124999999999
 20
0.5028846941258841
 30
0.0
 10
21.43124999999999
 20
0.4364535717556933
 30
0.0
 10
21.43124999999999
 20
0.3289854931980321
 30
0.0
 10
21.43124999999999
 20
0.2877374698942777
 30
0.0
 10
21.43124999999999
 20
0.2568179862289412
 30
0.0
  0
SPLINE
  5
B4
330
1F
100
AcDbEntity
  8
0
  6
Continuous
 62
     1
370
    25
100
AcDbSpline
210
0.0
220
0.0
230
1.0
 70
     8
 71
     3
 72
    14
 73
    10
 74
     0
 42
0.000000001
 43
0.00000001
 40
0.0
 40
0.0
 40
0.0
 40
0.0
 40
0.0509725901868029
 40
0.2183104110941685
 40
0.3856362890133165
 40
0.5529605748695972
 40
0.7202936242373345
 40
0.8599259119559424
 40
1.0
 40
1.0
 40
1.0
 40
1.0
 10
25.43040671419795
 20
-0.8009449045785115
 30
0.0
 10
25.36245586672071
 20
-0.8047463788344787
 30
0.0
 10
25.07142930925937
 20
-0.8210277058092849
 30
0.0
 10
24.55735393185773
 20
-0.7632634514152205
 30
0.0
 10
23.8881702345131
 20
-0.6311777077458814
 30
0.0
 10
23.2190183304428
 20
-0.4269150341525142
 30
0.0
 10
22.58669440136558
 20
-0.1938391041299327
 30
0.0
 10
21.99096733118441
 20
0.0431655156568075
 30
0.0
 10
21.61801880296473
 20
0.1855255427830107
 30
0.0
 10
21.43125000001806
 20
0.2568179862221634
 30
0.0
1001
PE_URL
1000

  0
SPLINE
  5
B5
330
1F
100
AcDbEntity
  8
외형선
  6
Continuous
370
    15
100
AcDbSpline
210
0.0
220
0.0
230
1.0
 70
    24
 71
     3
 72
    14
 73
    10
 74
     0
 42
0.000000001
 43
0.00000001
 40
0.0
 40
0.0
 40
0.0
 40
0.0
 40
0.25
 40
0.25
 40
0.5
 40
0.5
 40
0.75
 40
0.75
 40
1.0
 40
1.0
 40
1.0
 40
1.0
 10
21.43124999999999
 20
1.109824437711389
 30
0.0
 10
21.43124999999999
 20
1.022689667131239
 30
0.0
 10
21.43124999999999
 20
0.928443177356679
 30
0.0
 10
21.43124999999999
 20
0.7456333927576545
 30
0.0
 10
21.43124999999999
 20
0.6574848490096536
 30
0.0
 10
21.43124999999999
 20
0.5028846941258837
 30
0.0
 10
21.43124999999999
 20
0.4364535717556928
 30
0.0
 10
21.43124999999999
 20
0.3289854931980319
 30
0.0
 10
21.43124999999999
 20
0.2877374698942775
 30
0.0
 10
21.43124999999999
 20
0.2568179862289412
 30
0.0
  0
SPLINE
  5
B6
330
1F
100
AcDbEntity
  8
0
  6
Continuous
 62
     1
370
    25
100
AcDbSpline
210
0.0
220
0.0
230
1.0
 70
     8
 71
     3
 72
    16
 73
    12
 74
     0
 42
0.000000001
 43
0.00000001
 40
0.0
 40
0.0
 40
0.0
 40
0.0
 40
0.1167594307957252
 40
0.2335229778626588
 40
0.3502420567743146
 40
0.4669240131350371
 40
0.5835764084944078
 40
0.6981171971619285
 40
0.8126393373118201
 40
0.92715709917749
 40
1.0
 40
1.0
 40
1.0
 40
1.0
 10
21.43124999999971
 20
1.109824437707415
 30
0.0
 10
21.65371044167873
 20
1.05207736996415
 30
0.0
 10
22.0986391677224
 20
0.9365811986455629
 30
0.0
 10
22.765976425335
 20
0.6354471536679335
 30
0.0
 10
23.43309426034524
 20
0.2766974667451243
 30
0.0
 10
24.09995928277249
 20
-0.1129892869409294
 30
0.0
 10
24.7626569322315
 20
-0.4877208391883547
 30
0.0
 10
25.42115172711369
 20
-0.8119397346900593
 30
0.0
 10
26.07557334051822
 20
-1.048140979807622
 30
0.0
 10
26.65056219785033
 20
-1.179549352788438
 30
0.0
 10
27.00743439899473
 20
-1.17754800645385
 30
0.0
 10
27.14618073977564
 20
-1.176769914241374
 30
0.0
1001
PE_URL
1000

  0
SPLINE
  5
B7
330
1F
100
AcDbEntity
  8
0
  6
Continuous
 62
     1
370
    25
100
AcDbSpline
210
0.0
220
0.0
230
1.0
 70
     8
 71
     3
 72
    19
 73
    15
 74
     0
 42
0.000000001
 43
0.00000001
 40
0.0
 40
0.0
 40
0.0
 40
0.0
 40
0.1076081263892471
 40
0.2164729737952127
 40
0.2992949920663887
 40
0.3826911742494077
 40
0.4655131310873265
 40
0.5489081083405948
 40
0.6317300717365145
 40
0.7151240487325226
 40
0.7979460271440497
 40
0.8813392058481025
 40
0.9641611634143061
 40
1.0
 40
1.0
 40
1.0
 40
1.0
 10
27.38437499999999
 20
-0.4980560447424334
 30
0.0
 10
27.23643016624265
 20
-0.4178548557082344
 30
0.0
 10
26.93881269815996
 20
-0.2565158335107443
 30
0.0
 10
26.52599915938254
 20
-0.0186802519207873
 30
0.0
 10
26.14821304944765
 20
0.2008710760903158
 30
0.0
 10
25.80466493137833
 20
0.3919375650513437
 30
0.0
 10
25.46204157820797
 20
0.5752137607284697
 30
0.0
 10
25.11836142185813
 20
0.7395140782248698
 30
0.0
 10
24.77584055970535
 20
0.8863272454209623
 30
0.0
 10
24.43210096825292
 20
1.005955370628277
 30
0.0
 10
24.08961035685286
 20
1.100412221532653
 30
0.0
 10
23.74587440287202
 20
1.160978906050356
 30
0.0
 10
23.46862010456751
 20
1.190716651627999
 30
0.0
 10
23.30510194401774
 20
1.187541578970676
 30
0.0
 10
23.25571494406867
 20
1.186582619350299
 30
0.0
1001
PE_URL
1000

  0
SPLINE
  5
B8
330
1F
100
AcDbEntity
  8
0
  6
Continuous
 62
     1
370
    25
100
AcDbSpline
210
0.0
220
0.0
230
1.0
 70
     8
 71
     3
 72
    12
 73
     8
 74
     0
 42
0.000000001
 43
0.00000001
 40
0.0
 40
0.0
 40
0.0
 40
0.0
 40
0.2590360107441992
 40
0.5179416103210335
 40
0.7230876623975486
 40
0.928193871848529
 40
1.0
 40
1.0
 40
1.0
 40
1.0
 10
28.25626144318255
 20
0.1248999932060652
 30
0.0
 10
27.97436650479835
 20
0.2321577490563779
 30
0.0
 10
27.41071854747923
 20
0.446619262051923
 30
0.0
 10
26.62373254456343
 20
0.6738603216480196
 30
0.0
 10
25.89592842964146
 20
0.7913787111149565
 30
0.0
 10
25.37154847898623
 20
0.8272431975211001
 30
0.0
 10
25.07034143285951
 20
0.7977531766661025
 30
0.0
 10
24.9922354447278
 20
0.7901061204351028
 30
0.0
1001
PE_URL
1000

  0
SPLINE
  5
B9
330
1F
100
AcDbEntity
  8
0
  6
Continuous
 62
     1
370
    25
100
AcDbSpline
210
0.0
220
0.0
230
1.0
 70
     8
 71
     3
 72
    20
 73
    16
 74
     0
 42
0.000000001
 43
0.00000001
 40
0.0
 40
0.0
 40
0.0
 40
0.0
 40
0.25
 40
0.25
 40
0.375
 40
0.375
 40
0.5
 40
0.5
 40
0.625
 40
0.625
 40
0.75
 40
0.75
 40
0.875
 40
0.875
 40
1.0
 40
1.0
 40
1.0
 40
1.0
 10
27.38437499999999
 20
-0.4980560447413392
 30
0.0
 10
27.51672555117625
 20
-0.5672089209967195
 30
0.0
 10
27.64651284320802
 20
-0.62320068335717
 30
0.0
 10
27.84020327908834
 20
-0.6650062666270102
 30
0.0
 10
27.90340536970432
 20
-0.6716598284050109
 30
0.0
 10
28.0304254200672
 20
-0.6623066671758182
 30
0.0
 10
28.09232462340434
 20
-0.6464166853092566
 30
0.0
 10
28.20907888278382
 20
-0.5831647827831218
 30
0.0
 10
28.26335919798088
 20
-0.5352835635322301
 30
0.0
 10
28.34589583983834
 20
-0.408195645006232
 30
0.0
 10
28.37075795808747
 20
-0.3328613861634144
 30
0.0
 10
28.38330473797155
 20
-0.1856118124177516
 30
0.0
 10
28.37199882334919
 20
-0.1161957558486845
 30
0.0
 10
28.32826018027504
 20
0.0109297493681395
 30
0.0
 10
28.29586994344627
 20
0.0692877014379488
 30
0.0
 10
28.25626144314521
 20
0.124899993220505
 30
0.0
1001
PE_URL
1000

  0
SPLINE
  5
BA
330
1F
100
AcDbEntity
  8
0
  6
Continuous
 62
     1
370
    25
100
AcDbSpline
210
0.0
220
0.0
230
1.0
 70
     8
 71
     3
 72
    10
 73
     6
 74
     0
 42
0.000000001
 43
0.00000001
 40
0.0
 40
0.0
 40
0.0
 40
0.0
 40
0.5
 40
0.5
 40
1.0
 40
1.0
 40
1.0
 40
1.0
 10
28.2562614431452
 20
0.1248999932213026
 30
0.0
 10
28.28362181862035
 20
0.1414263909085507
 30
0.0
 10
28.30547130557013
 20
0.166529332413608
 30
0.0
 10
28.33470784540919
 20
0.2301613533301371
 30
0.0
 10
28.34195801268911
 20
0.2684927825847721
 30
0.0
 10
28.34264273271755
 20
0.3083627019017227
 30
0.0
1001
PE_URL
1000

  0
ARC
  5
BB
330
1F
100
AcDbEntity
  8
0
  6
Continuous
 62
     1
370
    25
100
AcDbCircle
 10
28.00535998941751
 20
-0.2069727863339208
 30
0.0
 40
0.6158979739860297
100
AcDbArc
 50
23.84133846476418
 51
56.79559028330571
1001
PE_URL
1000

  0
ARC
  5
BC
330
1F
100
AcDbEntity
  8
0
  6
Continuous
 62
     1
370
    25
100
AcDbCircle
 10
27.50419936791841
 20
0.0220942250394823
 30
0.0
 40
1.064688617660047
100
AcDbArc
 50
1.07001626977005
 51
71.1559256913566
1001
PE_URL
1000

  0
SPLINE
  5
BD
330
1F
100
AcDbEntity
  8
0
  6
Continuous
 62
     1
370
    25
100
AcDbSpline
210
0.0
220
0.0
230
1.0
 70
     8
 71
     3
 72
     8
 73
     4
 74
     0
 42
0.000000001
 43
0.00000001
 40
0.0
 40
0.0
 40
0.0
 40
0.0
 40
1.0
 40
1.0
 40
1.0
 40
1.0
 10
27.84808719247531
 20
1.029716682459112
 30
0.0
 10
27.70104830786972
 20
1.119622365734641
 30
0.0
 10
27.54412069882348
 20
1.172051510147731
 30
0.0
 10
27.38437499999971
 20
1.182661800274159
 30
0.0
1001
PE_URL
1000

  0
SPLINE
  5
BE
330
1F
100
AcDbEntity
  8
0
  6
Continuous
 62
     1
370
    25
100
AcDbSpline
210
0.0
220
0.0
230
1.0
 70
     8
 71
     3
 72
    10
 73
     6
 74
     0
 42
0.000000001
 43
0.00000001
 40
0.0
 40
0.0
 40
0.0
 40
0.0
 40
0.3301862370802233
 40
0.6650786243022309
 40
1.0
 40
1.0
 40
1.0
 40
1.0
 10
25.43040671419795
 20
0.8009449045785196
 30
0.0
 10
25.64546506371448
 20
0.8849878346730153
 30
0.0
 10
26.0786469931188
 20
1.054271560196667
 30
0.0
 10
26.72995888090749
 20
1.190641390016183
 30
0.0
 10
27.1662299999288
 20
1.185321740263485
 30
0.0
 10
27.38437499999999
 20
1.18266180027414
 30
0.0
1001
PE_URL
1000

  0
SPLINE
  5
BF
330
1F
100
AcDbEntity
  8
0
  6
Continuous
 62
     1
370
    25
100
AcDbSpline
210
0.0
220
0.0
230
1.0
 70
     8
 71
     3
 72
    13
 73
     9
 74
     0
 42
0.000000001
 43
0.00000001
 40
0.0
 40
0.0
 40
0.0
 40
0.0
 40
0.1550371977332241
 40
0.3482538178797204
 40
0.5414697246522535
 40
0.7346851102590441
 40
0.8664887142544937
 40
1.0
 40
1.0
 40
1.0
 40
1.0
 10
24.98229336186793
 20
-0.7892756483518323
 30
0.0
 10
24.79874735718954
 20
-0.8655374689728974
 30
0.0
 10
24.38645535359043
 20
-1.036841327518148
 30
0.0
 10
23.74539957865155
 20
-1.176910035372845
 30
0.0
 10
23.05929590381287
 20
-1.207994689920899
 30
0.0
 10
22.44541313428864
 20
-1.113848852472277
 30
0.0
 10
21.90358557203905
 20
-0.9533367427261811
 30
0.0
 10
21.58936933469406
 20
-0.8211047743217033
 30
0.0
 10
21.43125000000084
 20
-0.7545632389575246
 30
0.0
1001
PE_URL
1000

  0
SPLINE
  5
C0
330
1F
100
AcDbEntity
  8
외형선
  6
Continuous
370
    15
100
AcDbSpline
210
0.0
220
0.0
230
1.0
 70
    24
 71
     3
 72
    14
 73
    10
 74
     0
 42
0.000000001
 43
0.00000001
 40
0.0
 40
0.0
 40
0.0
 40
0.0
 40
0.25
 40
0.25
 40
0.5
 40
0.5
 40
0.75
 40
0.75
 40
1.0
 40
1.0
 40
1.0
 40
1.0
 10
21.43125
 20
0.2568179862289385
 30
0.0
 10
21.43125
 20
0.1975257514092014
 30
0.0
 10
21.43125
 20
0.1270563846963289
 30
0.0
 10
21.43125
 20
-0.0350258315724919
 30
0.0
 10
21.43125
 20
-0.1267991411046458
 30
0.0
 10
21.43125
 20
-0.3189792132926939
 30
0.0
 10
21.43125
 20
-0.4191084481828005
 30
0.0
 10
21.43125
 20
-0.604055087043663
 30
0.0
 10
21.43125
 20
-0.688246527559855
 30
0.0
 10
21.43125
 20
-0.7545632389567198
 30
0.0
  0
SPLINE
  5
C1
330
1F
100
AcDbEntity
  8
0
  6
Continuous
 62
     1
370
    25
100
AcDbSpline
210
0.0
220
0.0
230
1.0
 70
     8
 71
     3
 72
     8
 73
     4
 74
     0
 42
0.000000001
 43
0.00000001
 40
0.0
 40
0.0
 40
0.0
 40
0.0
 40
1.0
 40
1.0
 40
1.0
 40
1.0
 10
27.60646938131148
 20
0.5329726066309562
 30
0.0
 10
27.84851232688357
 20
0.4656974624848987
 30
0.0
 10
28.09528866945835
 20
0.3899118237834892
 30
0.0
 10
28.3426427327141
 20
0.3083627019010888
 30
0.0
1001
PE_URL
1000

  0
SPLINE
  5
C2
330
1F
100
AcDbEntity
  8
0
  6
Continuous
 62
     1
370
    25
100
AcDbSpline
210
0.0
220
0.0
230
1.0
 70
     8
 71
     3
 72
    12
 73
     8
 74
     0
 42
0.000000001
 43
0.00000001
 40
0.0
 40
0.0
 40
0.0
 40
0.0
 40
0.5000000000000009
 40
0.5000000000000009
 40
0.7500000000000004
 40
0.7500000000000004
 40
1.0
 40
1.0
 40
1.0
 40
1.0
 10
27.84808719247531
 20
1.029716682459114
 30
0.0
 10
27.8649023035473
 20
0.9296849684393138
 30
0.0
 10
27.86243599495949
 20
0.8211300873919926
 30
0.0
 10
27.79957470035946
 20
0.6825618976570466
 30
0.0
 10
27.76890982496801
 20
0.641404474122436
 30
0.0
 10
27.69483324584315
 20
0.5757575840469487
 30
0.0
 10
27.6514305193643
 20
0.550815254992617
 30
0.0
 10
27.60646938131158
 20
0.5329726066311882
 30
0.0
1001
PE_URL
1000

  0
LINE
  5
C3
330
1F
100
AcDbEntity
  8
중심선
 62
     1
100
AcDbLine
 10
-30.075
 20
-0.0000000000000042
 30
0.0
 11
30.07500000000001
 21
0.0000000000000042
 31
0.0
  0
LINE
  5
C4
330
1F
100
AcDbEntity
  8
참조1
100
AcDbLine
 10
-0.0000000000000036
 20
-0.0000000000000039
 30
0.0
 11
0.0000000000000036
 21
-40.00000000000001
 31
0.0
  0
LINE
  5
C5
330
1F
100
AcDbEntity
  8
참조1
100
AcDbLine
 10
28.575
 20
-0.0000000000000039
 30
0.0
 11
28.575
 21
0.6309734778393064
 31
0.0
  0
LINE
  5
C6
330
1F
100
AcDbEntity
  8
참조1
100
AcDbLine
 10
0.0000000000000036
 20
-40.00000000000001
 30
0.0
 11
-16.74635681430868
 21
-40.0
 31
0.0
  0
CIRCLE
  5
C7
330
1F
100
AcDbEntity
  8
해칭선
100
AcDbCircle
 10
0.0
 20
0.0
 30
0.0
 40
3.0
  0
INSERT
  5
C8
330
1F
100
AcDbEntity
  8
0
  6
Continuous
 62
     7
100
AcDbBlockReference
 66
     1
  2
블럭10
 10
-13.94027293212521
 20
-52.04717430164393
 30
0.0
  0
ATTRIB
  5
C9
330
C8
100
AcDbEntity
  8
FORMAT
 62
     2
100
AcDbText
 10
-23.12156822086649
 20
-49.97180738881174
 30
0.0
 40
4.233333333333333
  1
E2013006 [ 2 FLUTE ]
 41
0.75
  7
SLDTEXTSTYLE0
 11
-23.12156822086649
 21
-52.08847405547841
 31
0.0
100
AcDbAttribute
  2
AUTOATTR0
 70
     0
 74
     1
  0
SEQEND
  5
CA
330
C8
100
AcDbEntity
  8
0
  6
Continuous
 62
     7
  0
HATCH
  5
CB
330
1F
100
AcDbEntity
  8
중심선
100
AcDbHatch
 10
0.0
 20
0.0
 30
0.0
210
0.0
220
0.0
230
1.0
  2
SOLID
 70
     1
 71
     0
 91
        1
 92
        0
 93
        4
 72
     1
 10
-8.225363627744358
 20
-35.8
 11
-11.67163887158164
 21
-35.8
 72
     1
 10
-11.67163887158164
 20
-35.8
 11
-13.79986873078566
 21
-38.3363255805726
 72
     1
 10
-13.79986873078566
 20
-38.3363255805726
 11
-10.35356040183523
 21
-38.33628615127011
 72
     1
 10
-10.35356040183523
 20
-38.33628615127011
 11
-8.225363627744358
 21
-35.8
 97
        0
 75
     0
 76
     1
 98
        1
 10
12.50661934298443
 20
-0.0010749287238931
  0
HATCH
  5
CC
330
1F
100
AcDbEntity
  8
중심선
100
AcDbHatch
 10
0.0
 20
0.0
 30
0.0
210
0.0
220
0.0
230
1.0
  2
SOLID
 70
     1
 71
     0
 91
        1
 92
        0
 93
        4
 72
     1
 10
-3.212599636708378
 20
-35.8
 11
-6.65887488054566
 21
-35.8
 72
     1
 10
-6.65887488054566
 20
-35.8
 11
-11.19001288890308
 21
-41.20000000000002
 72
     1
 10
-11.19001288890308
 20
-41.20000000000002
 11
-7.743737645065792
 21
-41.20000000000002
 72
     1
 10
-7.743737645065792
 20
-41.20000000000002
 11
-3.212599636708378
 21
-35.8
 97
        0
 75
     0
 76
     1
 98
        1
 10
12.50661934298443
 20
-0.0010749287238931
  0
HATCH
  5
CD
330
1F
100
AcDbEntity
  8
중심선
100
AcDbHatch
 10
0.0
 20
0.0
 30
0.0
210
0.0
220
0.0
230
1.0
  2
SOLID
 70
     1
 71
     0
 91
        1
 92
        0
 93
        4
 72
     1
 10
1.800164354327464
 20
-35.80000000000003
 11
-1.646110889509625
 21
-35.79999999999998
 72
     1
 10
-1.646110889509625
 20
-35.79999999999998
 11
-8.694547791398875
 21
-44.20000000000002
 72
     1
 10
-8.694547791398875
 20
-44.20000000000002
 11
-5.248272547561591
 21
-44.20000000000002
 72
     1
 10
-5.248272547561591
 20
-44.20000000000002
 11
1.800164354327464
 21
-35.80000000000003
 97
        0
 75
     0
 76
     1
 98
        1
 10
12.50661934298443
 20
-0.0010749287238931
  0
HATCH
  5
CE
330
1F
100
AcDbEntity
  8
중심선
100
AcDbHatch
 10
0.0
 20
0.0
 30
0.0
210
0.0
220
0.0
230
1.0
  2
SOLID
 70
     1
 71
     0
 91
        1
 92
        0
 93
        6
 72
     3
 10
6.60005478533969
 20
-40.00000000005127
 11
3.960054785062283
 21
1.540882976769353E-10
 40
0.3939339440162628
 50
17.09539180608436
 51
320.0019657685081
 73
     0
 72
     1
 10
8.283054441040285
 20
-38.5878940046383
 11
10.58835631474135
 21
-36.65356729459035
 72
     3
 10
6.600054785286844
 20
-40.00000000000015
 11
6.600054785286829
 21
-1.278976924368180E-13
 40
0.636358354079598
 50
39.99873849337413
 51
368.4976242363724
 73
     1
 72
     1
 10
13.02538727718745
 20
-39.03999999993002
 11
5.280122092122792
 21
-39.03999999993002
 72
     1
 10
5.280122092122793
 20
-39.03999999993002
 11
5.280097047676832
 21
-40.95999999992991
 72
     1
 10
5.280097047676832
 20
-40.95999999992991
 11
9.721476817148869
 21
-40.95999999992988
 97
        0
 75
     0
 76
     1
 98
        1
 10
12.50661934298443
 20
-0.0010749287238931
  0
DIMENSION
  5
CF
330
1F
100
AcDbEntity
  8
치수문자_일반주서
100
AcDbDimension
  2
_D
 10
21.43125
 20
10.38125
 30
0.0
 11
42.8875
 21
10.38125
 31
0.0
 70
   160
  1
<>
 71
     2
 42
7.14374999999999
  3
SLDDIMSTYLE0
100
AcDbAlignedDimension
 13
28.57499999999999
 23
1.190625000000004
 33
0.0
 14
21.43125
 24
1.190625000000001
 34
0.0
 50
0.0000000000000142
100
AcDbRotatedDimension
1001
PE_URL
1000

1001
ACAD
1000
DSTYLE
1002
{
1070
   171
1070
     8
1070
   273
1070
     7
1070
    41
1040
2.5
1070
   140
1040
2.5
1002
}
  0
DIMENSION
  5
E5
330
1F
100
AcDbEntity
  8
치수문자_일반주서
100
AcDbDimension
  2
_D_1
 10
-28.575
 20
18.38125
 30
0.0
 11
0.2501241026247349
 21
18.38125
 31
0.0
 70
   160
  1
<>
 71
     2
 42
57.14999999999999
  3
SLDDIMSTYLE0
100
AcDbAlignedDimension
 13
28.57499999999999
 23
1.190625000000004
 33
0.0
 14
-28.575
 24
1.190625000000003
 34
0.0
100
AcDbRotatedDimension
1001
PE_URL
1000

1001
ACAD
1000
DSTYLE
1002
{
1070
   171
1070
     8
1070
   273
1070
     7
1070
    41
1040
2.5
1070
   140
1040
2.5
1002
}
  0
DIMENSION
  5
F9
330
1F
100
AcDbEntity
  8
치수문자_일반주서
100
AcDbDimension
  2
_D_2
 10
-36.575
 20
-2.38125000000008
 30
0.0
 11
-36.57500000000006
 21
17.69375000000001
 31
0.0
 70
   160
  1
%%c<>
 71
     2
 42
4.762500000000001
 52
-270.0
  3
SLDDIMSTYLE0
100
AcDbAlignedDimension
 13
-15.98777700723829
 23
2.38125
 33
0.0
 14
-15.9877770072383
 24
-2.381250000000001
 34
0.0
 50
90.0000000000002
100
AcDbRotatedDimension
1001
PE_URL
1000

1001
ACAD
1000
DSTYLE
1002
{
1070
   171
1070
     8
1070
   273
1070
     7
1070
    41
1040
2.5
1070
   140
1040
2.5
1002
}
  0
DIMENSION
  5
10D
330
1F
100
AcDbEntity
  8
치수문자_일반주서
100
AcDbDimension
  2
_D_3
 10
57.26179111814381
 20
-1.190624999999891
 30
0.0
 11
57.26179111814375
 21
16.75312500000011
 31
0.0
 70
   160
  1
%%c<>
 71
     2
 42
2.38125
 52
-270.0
  3
SLDDIMSTYLE0
100
AcDbAlignedDimension
 13
28.57499999999999
 23
1.190625000000004
 33
0.0
 14
28.57499999999999
 24
-1.190624999999996
 34
0.0
 50
90.0000000000002
100
AcDbRotatedDimension
1001
PE_URL
1000

1001
ACAD
1000
DSTYLE
1002
{
1070
   171
1070
     8
1070
   273
1070
     7
1070
    41
1040
2.5
1070
   140
1040
2.5
1002
}
  0
LINE
  5
121
330
1F
100
AcDbEntity
  8
참조1
100
AcDbLine
 10
81.22598381534559
 20
7.440000000000002
 30
0.0
 11
81.22598381534559
 21
-7.440000000000002
 31
0.0
  0
LINE
  5
122
330
1F
100
AcDbEntity
  8
참조1
100
AcDbLine
 10
93.92598381534557
 20
5.440000000000002
 30
0.0
 11
81.22598381534559
 21
5.440000000000002
 31
0.0
  0
SOLID
  5
123
330
1F
100
AcDbEntity
  8
참조1
100
AcDbTrace
 10
81.22598381534559
 20
5.440000000000002
 30
0.0
 11
87.57598381534558
 21
4.424000000000002
 31
0.0
 12
87.57598381534558
 22
6.456000000000002
 32
0.0
 13
87.57598381534558
 23
6.456000000000002
 33
0.0
  0
LINE
  5
124
330
1F
100
AcDbEntity
  8
참조1
100
AcDbLine
 10
93.92598381534557
 20
-5.440000000000002
 30
0.0
 11
81.22598381534559
 21
-5.440000000000002
 31
0.0
  0
SOLID
  5
125
330
1F
100
AcDbEntity
  8
참조1
100
AcDbTrace
 10
81.22598381534559
 20
-5.440000000000002
 30
0.0
 11
87.57598381534558
 21
-6.456000000000002
 31
0.0
 12
87.57598381534558
 22
-4.424000000000002
 32
0.0
 13
87.57598381534558
 23
-4.424000000000002
 33
0.0
  0
MTEXT
  5
126
330
1F
100
AcDbEntity
  8
참조1
100
AcDbMText
 10
90.62347390781585
 20
10.98821664464994
 30
0.0
 40
3.5
 41
0.0
 71
     1
 72
     1
  1
A
  7
SLDTEXTSTYLE0
 73
     1
 44
1.0
  0
MTEXT
  5
127
330
1F
100
AcDbEntity
  8
참조1
100
AcDbMText
 10
90.62347390781585
 20
0.108216644649932
 30
0.0
 40
3.5
 41
0.0
 71
     1
 72
     1
  1
A
  7
SLDTEXTSTYLE0
 73
     1
 44
1.0
  0
INSERT
  5
12E
330
1F
100
AcDbEntity
  8
해칭선
100
AcDbBlockReference
  2
SW_DOWELSYMBOL_0
 10
0.0
 20
0.0
 30
0.0
  0
LINE
  5
230
330
1F
100
AcDbEntity
  8
외형선
  6
Continuous
370
    15
100
AcDbLine
 10
-15.9877770072383
 20
2.38125
 30
0.0
 11
-20.43124999999998
 21
1.190624999999995
 31
0.0
  0
LINE
  5
231
330
1F
100
AcDbEntity
  8
외형선
  6
Continuous
370
    15
100
AcDbLine
 10
-20.43124999999998
 20
-1.190625000000004
 30
0.0
 11
-15.9877770072383
 21
-2.381250000000001
 31
0.0
  0
LINE
  5
232
330
1F
100
AcDbEntity
  8
외형선
  6
Continuous
370
    15
100
AcDbLine
 10
-20.54154600926176
 20
-1.190625000000004
 30
0.0
 11
-20.43124999999998
 21
-1.190625000000004
 31
0.0
  0
LINE
  5
233
330
1F
100
AcDbEntity
  8
외형선
  6
Continuous
370
    15
100
AcDbLine
 10
-21.43124999999998
 20
-1.190625000000006
 30
0.0
 11
-20.66787989819543
 21
-1.190625000000004
 31
0.0
  0
LINE
  5
234
330
1F
100
AcDbEntity
  8
외형선
  6
Continuous
370
    15
100
AcDbLine
 10
-20.66787989819543
 20
1.190624999999995
 30
0.0
 11
-21.43124999999998
 21
1.190624999999995
 31
0.0
  0
LINE
  5
235
330
1F
100
AcDbEntity
  8
외형선
  6
Continuous
370
    15
100
AcDbLine
 10
-20.43124999999998
 20
1.190624999999995
 30
0.0
 11
-20.54154600926176
 21
1.190624999999995
 31
0.0
  0
LINE
  5
236
330
1F
100
AcDbEntity
  8
0
  6
Continuous
 62
     1
370
    25
100
AcDbLine
 10
-27.14618073977563
 20
1.19062499999999
 30
0.0
 11
-27.38437499999998
 21
1.19062499999999
 31
0.0
1001
PE_URL
1000

  0
LINE
  5
237
330
1F
100
AcDbEntity
  8
0
  6
Continuous
 62
     1
370
    25
100
AcDbLine
 10
-23.25571494406866
 20
-1.190625000000008
 30
0.0
 11
-21.43124999999998
 21
-1.190625000000004
 31
0.0
1001
PE_URL
1000

  0
ARC
  5
238
330
1F
100
AcDbEntity
  8
0
  6
Continuous
 62
     1
370
    25
100
AcDbCircle
 10
-27.38437499999998
 20
-0.0000000000000107
 30
0.0
 40
1.190625000000001
100
AcDbArc
 50
90.00000000000085
 51
180.0
1001
PE_URL
1000

  0
ARC
  5
239
330
1F
100
AcDbEntity
  8
0
  6
Continuous
 62
     1
370
    25
100
AcDbCircle
 10
-27.38437499999998
 20
-0.0000000000000107
 30
0.0
 40
1.190625000000001
100
AcDbArc
 50
180.0
 51
270.0
1001
PE_URL
1000

  0
LINE
  5
23A
330
1F
100
AcDbEntity
  8
0
  6
Continuous
 62
     1
370
    25
100
AcDbLine
 10
-21.43124999999998
 20
1.190624999999995
 30
0.0
 11
-23.25440310560936
 21
1.190624999999994
 31
0.0
1001
PE_URL
1000

  0
LINE
  5
23B
330
1F
100
AcDbEntity
  8
0
  6
Continuous
 62
     1
370
    25
100
AcDbLine
 10
-27.38437499999998
 20
-1.19062500000001
 30
0.0
 11
-27.14618073977563
 21
-1.19062500000001
 31
0.0
1001
PE_URL
1000

  0
LINE
  5
23C
330
1F
100
AcDbEntity
  8
외형선
  6
Continuous
370
    15
100
AcDbLine
 10
-20.43124999999998
 20
-1.190625000000004
 30
0.0
 11
-20.43124999999998
 21
1.190624999999995
 31
0.0
  0
LINE
  5
23D
330
1F
100
AcDbEntity
  8
외형선
  6
Continuous
370
    15
100
AcDbLine
 10
-15.9877770072383
 20
-2.381250000000001
 30
0.0
 11
-15.9877770072383
 21
2.381250000000001
 31
0.0
  0
LINE
  5
23E
330
1F
100
AcDbEntity
  8
외형선
  6
Continuous
370
    15
100
AcDbLine
 10
-20.5413400493712
 20
1.188371212061421
 30
0.0
 11
-20.66787989819543
 21
1.184036398300638
 31
0.0
  0
LINE
  5
23F
330
1F
100
AcDbEntity
  8
외형선
  6
Continuous
370
    15
100
AcDbLine
 10
-20.54154600926176
 20
1.190624999999995
 30
0.0
 11
-20.54154600926176
 21
1.188367807885021
 31
0.0
  0
LINE
  5
240
330
1F
100
AcDbEntity
  8
외형선
  6
Continuous
370
    15
100
AcDbLine
 10
-21.43124999999998
 20
-1.190625000000006
 30
0.0
 11
-21.43124999999998
 21
-1.109824437707358
 31
0.0
  0
SPLINE
  5
241
330
1F
100
AcDbEntity
  8
외형선
  6
Continuous
370
    15
100
AcDbSpline
210
0.0
220
0.0
230
1.0
 70
     8
 71
     3
 72
    10
 73
     6
 74
     0
 42
0.000000001
 43
0.00000001
 40
0.0
 40
0.0
 40
0.0
 40
0.0
 40
0.5
 40
0.5
 40
1.0
 40
1.0
 40
1.0
 40
1.0
 10
-21.43124999999998
 20
-1.109824437707358
 30
0.0
 10
-21.28395524718455
 20
-1.140799813191677
 30
0.0
 10
-21.13559853503699
 20
-1.163226857522057
 30
0.0
 10
-20.83618099915607
 20
-1.189684996155222
 30
0.0
 10
-20.68950724945786
 20
-1.193642403761347
 30
0.0
 10
-20.54134004937119
 20
-1.18837121206143
 30
0.0
  0
SPLINE
  5
242
330
1F
100
AcDbEntity
  8
외형선
  6
Continuous
370
    15
100
AcDbSpline
210
0.0
220
0.0
230
1.0
 70
     8
 71
     3
 72
    10
 73
     6
 74
     0
 42
0.000000001
 43
0.00000001
 40
0.0
 40
0.0
 40
0.0
 40
0.0
 40
0.5
 40
0.5
 40
1.0
 40
1.0
 40
1.0
 40
1.0
 10
-21.43125000000305
 20
0.7545632389546366
 30
0.0
 10
-21.28398937201532
 20
0.6884090675881236
 30
0.0
 10
-21.13566806980853
 20
0.616235069611788
 30
0.0
 10
-20.8363195691059
 20
0.4629377730488251
 30
0.0
 10
-20.68967624166451
 20
0.3826021098470651
 30
0.0
 10
-20.54154600926176
 20
0.2996712648071664
 30
0.0
  0
LINE
  5
243
330
1F
100
AcDbEntity
  8
외형선
  6
Continuous
370
    15
100
AcDbLine
 10
-21.43124999999998
 20
0.7545632389564645
 30
0.0
 11
-21.43124999999998
 21
1.190624999999995
 31
0.0
  0
LINE
  5
244
330
1F
100
AcDbEntity
  8
외형선
  6
Continuous
370
    15
100
AcDbLine
 10
-20.54154600926176
 20
0.2997468038322637
 30
0.0
 11
-20.54154600926176
 21
-1.190625000000004
 31
0.0
  0
SPLINE
  5
245
330
1F
100
AcDbEntity
  8
외형선
  6
Continuous
370
    15
100
AcDbSpline
210
0.0
220
0.0
230
1.0
 70
    24
 71
     3
 72
    14
 73
    10
 74
     0
 42
0.000000001
 43
0.00000001
 40
0.0
 40
0.0
 40
0.0
 40
0.0
 40
0.25
 40
0.25
 40
0.5
 40
0.5
 40
0.75
 40
0.75
 40
1.0
 40
1.0
 40
1.0
 40
1.0
 10
-21.4312499999986
 20
-0.2568179862294588
 30
0.0
 10
-21.4312499999986
 20
-0.197525751409696
 30
0.0
 10
-21.4312499999986
 20
-0.1270563846968003
 30
0.0
 10
-21.4312499999986
 20
0.0350258315720531
 30
0.0
 10
-21.4312499999986
 20
0.1267991411042164
 30
0.0
 10
-21.4312499999986
 20
0.3189792132922555
 30
0.0
 10
-21.4312499999986
 20
0.4191084481823459
 30
0.0
 10
-21.43124999999861
 20
0.6040550870431467
 30
0.0
 10
-21.4312499999986
 20
0.6882465275592935
 30
0.0
 10
-21.4312499999986
 20
0.7545632389561039
 30
0.0
  0
SPLINE
  5
246
330
1F
100
AcDbEntity
  8
외형선
  6
Continuous
370
    15
100
AcDbSpline
210
0.0
220
0.0
230
1.0
 70
     8
 71
     3
 72
    10
 73
     6
 74
     0
 42
0.000000001
 43
0.00000001
 40
0.0
 40
0.0
 40
0.0
 40
0.0
 40
0.5
 40
0.5
 40
1.0
 40
1.0
 40
1.0
 40
1.0
 10
-21.43125000001826
 20
-0.2568179862220852
 30
0.0
 10
-21.28398937202775
 20
-0.3120588074470962
 30
0.0
 10
-21.13566806981884
 20
-0.3654384914698188
 30
0.0
 10
-20.83631956911102
 20
-0.4659849631008814
 30
0.0
 10
-20.68967624166714
 20
-0.5126728105674196
 30
0.0
 10
-20.54154600926176
 20
-0.5551995033258681
 30
0.0
  0
SPLINE
  5
247
330
1F
100
AcDbEntity
  8
외형선
  6
Continuous
370
    15
100
AcDbSpline
210
0.0
220
0.0
230
1.0
 70
    24
 71
     3
 72
    14
 73
    10
 74
     0
 42
0.000000001
 43
0.00000001
 40
0.0
 40
0.0
 40
0.0
 40
0.0
 40
0.25
 40
0.25
 40
0.5
 40
0.5
 40
0.75
 40
0.75
 40
1.0
 40
1.0
 40
1.0
 40
1.0
 10
-21.43124999999998
 20
-1.109824437711392
 30
0.0
 10
-21.43124999999998
 20
-1.022689667131241
 30
0.0
 10
-21.43124999999998
 20
-0.9284431773566819
 30
0.0
 10
-21.43124999999998
 20
-0.7456333927576573
 30
0.0
 10
-21.43124999999998
 20
-0.6574848490096556
 30
0.0
 10
-21.43124999999998
 20
-0.5028846941258855
 30
0.0
 10
-21.43124999999998
 20
-0.4364535717556954
 30
0.0
 10
-21.43124999999998
 20
-0.3289854931980329
 30
0.0
 10
-21.43124999999998
 20
-0.2877374698942798
 30
0.0
 10
-21.43124999999998
 20
-0.2568179862289419
 30
0.0
  0
SPLINE
  5
248
330
1F
100
AcDbEntity
  8
0
  6
Continuous
 62
     1
370
    25
100
AcDbSpline
210
0.0
220
0.0
230
1.0
 70
     8
 71
     3
 72
    14
 73
    10
 74
     0
 42
0.000000001
 43
0.00000001
 40
0.0
 40
0.0
 40
0.0
 40
0.0
 40
0.0509725901868029
 40
0.2183104110941685
 40
0.3856362890133165
 40
0.5529605748695972
 40
0.7202936242373345
 40
0.8599259119559424
 40
1.0
 40
1.0
 40
1.0
 40
1.0
 10
-25.43040671419794
 20
0.8009449045785075
 30
0.0
 10
-25.3624558667207
 20
0.8047463788344746
 30
0.0
 10
-25.07142930925936
 20
0.8210277058092803
 30
0.0
 10
-24.55735393185772
 20
0.7632634514152166
 30
0.0
 10
-23.88817023451309
 20
0.6311777077458771
 30
0.0
 10
-23.21901833044279
 20
0.4269150341525112
 30
0.0
 10
-22.58669440136557
 20
0.1938391041299301
 30
0.0
 10
-21.9909673311844
 20
-0.0431655156568116
 30
0.0
 10
-21.61801880296472
 20
-0.1855255427830134
 30
0.0
 10
-21.43125000001805
 20
-0.2568179862221651
 30
0.0
1001
PE_URL
1000

  0
SPLINE
  5
249
330
1F
100
AcDbEntity
  8
외형선
  6
Continuous
370
    15
100
AcDbSpline
210
0.0
220
0.0
230
1.0
 70
    24
 71
     3
 72
    14
 73
    10
 74
     0
 42
0.000000001
 43
0.00000001
 40
0.0
 40
0.0
 40
0.0
 40
0.0
 40
0.25
 40
0.25
 40
0.5
 40
0.5
 40
0.75
 40
0.75
 40
1.0
 40
1.0
 40
1.0
 40
1.0
 10
-21.43124999999998
 20
-1.10982443771139
 30
0.0
 10
-21.43124999999998
 20
-1.022689667131241
 30
0.0
 10
-21.43124999999998
 20
-0.9284431773566801
 30
0.0
 10
-21.43124999999998
 20
-0.7456333927576555
 30
0.0
 10
-21.43124999999998
 20
-0.6574848490096556
 30
0.0
 10
-21.43124999999998
 20
-0.5028846941258855
 30
0.0
 10
-21.43124999999998
 20
-0.4364535717556937
 30
0.0
 10
-21.43124999999998
 20
-0.3289854931980329
 30
0.0
 10
-21.43124999999998
 20
-0.2877374698942781
 30
0.0
 10
-21.43124999999998
 20
-0.2568179862289419
 30
0.0
  0
SPLINE
  5
24A
330
1F
100
AcDbEntity
  8
0
  6
Continuous
 62
     1
370
    25
100
AcDbSpline
210
0.0
220
0.0
230
1.0
 70
     8
 71
     3
 72
    16
 73
    12
 74
     0
 42
0.000000001
 43
0.00000001
 40
0.0
 40
0.0
 40
0.0
 40
0.0
 40
0.1167594307957252
 40
0.2335229778626588
 40
0.3502420567743146
 40
0.4669240131350371
 40
0.5835764084944078
 40
0.6981171971619285
 40
0.8126393373118201
 40
0.92715709917749
 40
1.0
 40
1.0
 40
1.0
 40
1.0
 10
-21.4312499999997
 20
-1.109824437707417
 30
0.0
 10
-21.65371044167872
 20
-1.052077369964154
 30
0.0
 10
-22.09863916772239
 20
-0.9365811986455661
 30
0.0
 10
-22.76597642533499
 20
-0.6354471536679362
 30
0.0
 10
-23.43309426034523
 20
-0.2766974667451283
 30
0.0
 10
-24.09995928277248
 20
0.112989286940925
 30
0.0
 10
-24.76265693223149
 20
0.4877208391883503
 30
0.0
 10
-25.42115172711368
 20
0.8119397346900552
 30
0.0
 10
-26.07557334051821
 20
1.048140979807618
 30
0.0
 10
-26.65056219785032
 20
1.179549352788433
 30
0.0
 10
-27.00743439899471
 20
1.177548006453843
 30
0.0
 10
-27.14618073977563
 20
1.176769914241367
 30
0.0
1001
PE_URL
1000

  0
SPLINE
  5
24B
330
1F
100
AcDbEntity
  8
0
  6
Continuous
 62
     1
370
    25
100
AcDbSpline
210
0.0
220
0.0
230
1.0
 70
     8
 71
     3
 72
    19
 73
    15
 74
     0
 42
0.000000001
 43
0.00000001
 40
0.0
 40
0.0
 40
0.0
 40
0.0
 40
0.1076081263892471
 40
0.2164729737952127
 40
0.2992949920663887
 40
0.3826911742494077
 40
0.4655131310873265
 40
0.5489081083405948
 40
0.6317300717365145
 40
0.7151240487325226
 40
0.7979460271440497
 40
0.8813392058481025
 40
0.9641611634143061
 40
1.0
 40
1.0
 40
1.0
 40
1.0
 10
-27.38437499999998
 20
0.4980560447424267
 30
0.0
 10
-27.23643016624264
 20
0.417854855708228
 30
0.0
 10
-26.93881269815995
 20
0.256515833510738
 30
0.0
 10
-26.52599915938253
 20
0.0186802519207809
 30
0.0
 10
-26.14821304944764
 20
-0.200871076090321
 30
0.0
 10
-25.80466493137832
 20
-0.3919375650513484
 30
0.0
 10
-25.46204157820796
 20
-0.5752137607284737
 30
0.0
 10
-25.11836142185811
 20
-0.7395140782248735
 30
0.0
 10
-24.77584055970534
 20
-0.8863272454209667
 30
0.0
 10
-24.43210096825291
 20
-1.00595537062828
 30
0.0
 10
-24.08961035685285
 20
-1.100412221532657
 30
0.0
 10
-23.74587440287201
 20
-1.16097890605036
 30
0.0
 10
-23.4686201045675
 20
-1.190716651628001
 30
0.0
 10
-23.30510194401773
 20
-1.187541578970679
 30
0.0
 10
-23.25571494406866
 20
-1.186582619350302
 30
0.0
1001
PE_URL
1000

  0
SPLINE
  5
24C
330
1F
100
AcDbEntity
  8
0
  6
Continuous
 62
     1
370
    25
100
AcDbSpline
210
0.0
220
0.0
230
1.0
 70
     8
 71
     3
 72
    12
 73
     8
 74
     0
 42
0.000000001
 43
0.00000001
 40
0.0
 40
0.0
 40
0.0
 40
0.0
 40
0.2590360107441992
 40
0.5179416103210335
 40
0.7230876623975486
 40
0.928193871848529
 40
1.0
 40
1.0
 40
1.0
 40
1.0
 10
-28.25626144318254
 20
-0.1248999932060713
 30
0.0
 10
-27.97436650479834
 20
-0.232157749056384
 30
0.0
 10
-27.41071854747922
 20
-0.4466192620519305
 30
0.0
 10
-26.62373254456342
 20
-0.6738603216480268
 30
0.0
 10
-25.89592842964145
 20
-0.7913787111149606
 30
0.0
 10
-25.37154847898622
 20
-0.8272431975211045
 30
0.0
 10
-25.0703414328595
 20
-0.7977531766661059
 30
0.0
 10
-24.99223544472779
 20
-0.790106120435107
 30
0.0
1001
PE_URL
1000

  0
SPLINE
  5
24D
330
1F
100
AcDbEntity
  8
0
  6
Continuous
 62
     1
370
    25
100
AcDbSpline
210
0.0
220
0.0
230
1.0
 70
     8
 71
     3
 72
    20
 73
    16
 74
     0
 42
0.000000001
 43
0.00000001
 40
0.0
 40
0.0
 40
0.0
 40
0.0
 40
0.25
 40
0.25
 40
0.375
 40
0.375
 40
0.5
 40
0.5
 40
0.625
 40
0.625
 40
0.75
 40
0.75
 40
0.875
 40
0.875
 40
1.0
 40
1.0
 40
1.0
 40
1.0
 10
-27.38437499999998
 20
0.4980560447413325
 30
0.0
 10
-27.51672555117624
 20
0.5672089209967126
 30
0.0
 10
-27.64651284320801
 20
0.6232006833571635
 30
0.0
 10
-27.84020327908832
 20
0.6650062666270031
 30
0.0
 10
-27.90340536970431
 20
0.6716598284050033
 30
0.0
 10
-28.03042542006719
 20
0.6623066671758107
 30
0.0
 10
-28.09232462340433
 20
0.6464166853092497
 30
0.0
 10
-28.20907888278381
 20
0.5831647827831148
 30
0.0
 10
-28.26335919798087
 20
0.5352835635322233
 30
0.0
 10
-28.34589583983833
 20
0.4081956450062254
 30
0.0
 10
-28.37075795808746
 20
0.3328613861634082
 30
0.0
 10
-28.38330473797154
 20
0.1856118124177453
 30
0.0
 10
-28.37199882334918
 20
0.1161957558486773
 30
0.0
 10
-28.32826018027503
 20
-0.0109297493681471
 30
0.0
 10
-28.29586994344626
 20
-0.0692877014379558
 30
0.0
 10
-28.2562614431452
 20
-0.1248999932205113
 30
0.0
1001
PE_URL
1000

  0
SPLINE
  5
24E
330
1F
100
AcDbEntity
  8
0
  6
Continuous
 62
     1
370
    25
100
AcDbSpline
210
0.0
220
0.0
230
1.0
 70
     8
 71
     3
 72
    10
 73
     6
 74
     0
 42
0.000000001
 43
0.00000001
 40
0.0
 40
0.0
 40
0.0
 40
0.0
 40
0.5
 40
0.5
 40
1.0
 40
1.0
 40
1.0
 40
1.0
 10
-28.25626144314519
 20
-0.1248999932213088
 30
0.0
 10
-28.28362181862034
 20
-0.141426390908558
 30
0.0
 10
-28.30547130557012
 20
-0.1665293324136154
 30
0.0
 10
-28.33470784540918
 20
-0.2301613533301445
 30
0.0
 10
-28.3419580126891
 20
-0.2684927825847794
 30
0.0
 10
-28.34264273271754
 20
-0.3083627019017303
 30
0.0
1001
PE_URL
1000

  0
ARC
  5
24F
330
1F
100
AcDbEntity
  8
0
  6
Continuous
 62
     1
370
    25
100
AcDbCircle
 10
-28.0053599894175
 20
0.2069727863339139
 30
0.0
 40
0.6158979739860297
100
AcDbArc
 50
203.8413384647642
 51
236.7955902833057
1001
PE_URL
1000

  0
ARC
  5
250
330
1F
100
AcDbEntity
  8
0
  6
Continuous
 62
     1
370
    25
100
AcDbCircle
 10
-27.5041993679184
 20
-0.0220942250394884
 30
0.0
 40
1.064688617660047
100
AcDbArc
 50
181.0700162697701
 51
251.1559256913566
1001
PE_URL
1000

  0
SPLINE
  5
251
330
1F
100
AcDbEntity
  8
0
  6
Continuous
 62
     1
370
    25
100
AcDbSpline
210
0.0
220
0.0
230
1.0
 70
     8
 71
     3
 72
     8
 73
     4
 74
     0
 42
0.000000001
 43
0.00000001
 40
0.0
 40
0.0
 40
0.0
 40
0.0
 40
1.0
 40
1.0
 40
1.0
 40
1.0
 10
-27.8480871924753
 20
-1.029716682459119
 30
0.0
 10
-27.70104830786971
 20
-1.119622365734648
 30
0.0
 10
-27.54412069882347
 20
-1.172051510147737
 30
0.0
 10
-27.3843749999997
 20
-1.182661800274166
 30
0.0
1001
PE_URL
1000

  0
SPLINE
  5
252
330
1F
100
AcDbEntity
  8
0
  6
Continuous
 62
     1
370
    25
100
AcDbSpline
210
0.0
220
0.0
230
1.0
 70
     8
 71
     3
 72
    10
 73
     6
 74
     0
 42
0.000000001
 43
0.00000001
 40
0.0
 40
0.0
 40
0.0
 40
0.0
 40
0.3301862370802233
 40
0.6650786243022309
 40
1.0
 40
1.0
 40
1.0
 40
1.0
 10
-25.43040671419794
 20
-0.8009449045785235
 30
0.0
 10
-25.64546506371447
 20
-0.8849878346730193
 30
0.0
 10
-26.07864699311879
 20
-1.054271560196671
 30
0.0
 10
-26.72995888090748
 20
-1.190641390016189
 30
0.0
 10
-27.16622999992878
 20
-1.185321740263491
 30
0.0
 10
-27.38437499999998
 20
-1.182661800274147
 30
0.0
1001
PE_URL
1000

  0
SPLINE
  5
253
330
1F
100
AcDbEntity
  8
0
  6
Continuous
 62
     1
370
    25
100
AcDbSpline
210
0.0
220
0.0
230
1.0
 70
     8
 71
     3
 72
    13
 73
     9
 74
     0
 42
0.000000001
 43
0.00000001
 40
0.0
 40
0.0
 40
0.0
 40
0.0
 40
0.1550371977332241
 40
0.3482538178797204
 40
0.5414697246522535
 40
0.7346851102590441
 40
0.8664887142544937
 40
1.0
 40
1.0
 40
1.0
 40
1.0
 10
-24.98229336186792
 20
0.7892756483518291
 30
0.0
 10
-24.79874735718953
 20
0.8655374689728941
 30
0.0
 10
-24.38645535359042
 20
1.036841327518143
 30
0.0
 10
-23.74539957865154
 20
1.176910035372842
 30
0.0
 10
-23.05929590381286
 20
1.207994689920895
 30
0.0
 10
-22.44541313428863
 20
1.113848852472273
 30
0.0
 10
-21.90358557203903
 20
0.9533367427261776
 30
0.0
 10
-21.58936933469404
 20
0.8211047743217001
 30
0.0
 10
-21.43125000000083
 20
0.7545632389575232
 30
0.0
1001
PE_URL
1000

  0
SPLINE
  5
254
330
1F
100
AcDbEntity
  8
외형선
  6
Continuous
370
    15
100
AcDbSpline
210
0.0
220
0.0
230
1.0
 70
    24
 71
     3
 72
    14
 73
    10
 74
     0
 42
0.000000001
 43
0.00000001
 40
0.0
 40
0.0
 40
0.0
 40
0.0
 40
0.25
 40
0.25
 40
0.5
 40
0.5
 40
0.75
 40
0.75
 40
1.0
 40
1.0
 40
1.0
 40
1.0
 10
-21.43124999999999
 20
-0.2568179862289401
 30
0.0
 10
-21.43124999999999
 20
-0.1975257514092021
 30
0.0
 10
-21.43124999999999
 20
-0.1270563846963295
 30
0.0
 10
-21.43124999999999
 20
0.0350258315724901
 30
0.0
 10
-21.43124999999999
 20
0.1267991411046445
 30
0.0
 10
-21.43124999999999
 20
0.3189792132926925
 30
0.0
 10
-21.43124999999999
 20
0.4191084481827989
 30
0.0
 10
-21.43124999999999
 20
0.6040550870436618
 30
0.0
 10
-21.43124999999999
 20
0.688246527559853
 30
0.0
 10
-21.43124999999999
 20
0.7545632389567185
 30
0.0
  0
SPLINE
  5
255
330
1F
100
AcDbEntity
  8
0
  6
Continuous
 62
     1
370
    25
100
AcDbSpline
210
0.0
220
0.0
230
1.0
 70
     8
 71
     3
 72
     8
 73
     4
 74
     0
 42
0.000000001
 43
0.00000001
 40
0.0
 40
0.0
 40
0.0
 40
0.0
 40
1.0
 40
1.0
 40
1.0
 40
1.0
 10
-27.60646938131147
 20
-0.5329726066309632
 30
0.0
 10
-27.84851232688356
 20
-0.465697462484906
 30
0.0
 10
-28.09528866945834
 20
-0.3899118237834962
 30
0.0
 10
-28.34264273271409
 20
-0.3083627019010962
 30
0.0
1001
PE_URL
1000

  0
SPLINE
  5
256
330
1F
100
AcDbEntity
  8
0
  6
Continuous
 62
     1
370
    25
100
AcDbSpline
210
0.0
220
0.0
230
1.0
 70
     8
 71
     3
 72
    12
 73
     8
 74
     0
 42
0.000000001
 43
0.00000001
 40
0.0
 40
0.0
 40
0.0
 40
0.0
 40
0.5000000000000009
 40
0.5000000000000009
 40
0.7500000000000004
 40
0.7500000000000004
 40
1.0
 40
1.0
 40
1.0
 40
1.0
 10
-27.8480871924753
 20
-1.029716682459121
 30
0.0
 10
-27.86490230354729
 20
-0.9296849684393198
 30
0.0
 10
-27.86243599495948
 20
-0.8211300873919996
 30
0.0
 10
-27.79957470035945
 20
-0.6825618976570542
 30
0.0
 10
-27.768909824968
 20
-0.6414044741224423
 30
0.0
 10
-27.69483324584314
 20
-0.575757584046956
 30
0.0
 10
-27.65143051936429
 20
-0.5508152549926244
 30
0.0
 10
-27.60646938131157
 20
-0.5329726066311942
 30
0.0
1001
PE_URL
1000

  0
ENDSEC
  0
SECTION
  2
OBJECTS
  0
DICTIONARY
  5
C
330
0
100
AcDbDictionary
281
     1
  3
ACAD_DETAILVIEWSTYLE
350
207
  3
ACAD_GROUP
350
D
  3
ACAD_IMAGE_VARS
350
283
  3
ACAD_LAYOUT
350
1A
  3
ACAD_MLINESTYLE
350
17
  3
ACAD_PLOTSETTINGS
350
19
  3
ACAD_PLOTSTYLENAME
350
E
  3
ACAD_SCALELIST
350
47
  3
ACAD_SECTIONVIEWSTYLE
350
208
  3
AcDbVariableDictionary
350
202
  3
APPDATA
350
150
  3
DWGPROPS
350
284
  0
DICTIONARY
  5
207
102
{ACAD_REACTORS
330
C
102
}
330
C
100
AcDbDictionary
281
     1
  0
DICTIONARY
  5
D
102
{ACAD_REACTORS
330
C
102
}
330
C
100
AcDbDictionary
281
     1
  0
RASTERVARIABLES
  5
283
102
{ACAD_REACTORS
330
C
102
}
330
C
100
AcDbRasterVariables
 90
        0
 70
     1
 71
     1
 72
     1
  0
DICTIONARY
  5
1A
102
{ACAD_REACTORS
330
C
102
}
330
C
100
AcDbDictionary
281
     1
  3
Layout1
350
1E
  3
Layout2
350
26
  3
Model
350
22
  0
DICTIONARY
  5
17
102
{ACAD_REACTORS
330
C
102
}
330
C
100
AcDbDictionary
281
     1
  3
Standard
350
18
  0
DICTIONARY
  5
19
102
{ACAD_REACTORS
330
C
102
}
330
C
100
AcDbDictionary
281
     1
  0
ACDBDICTIONARYWDFLT
  5
E
102
{ACAD_REACTORS
330
C
102
}
330
C
100
AcDbDictionary
281
     1
  3
Normal
350
F
100
AcDbDictionaryWithDefault
340
F
  0
DICTIONARY
  5
47
102
{ACAD_REACTORS
330
C
102
}
330
C
100
AcDbDictionary
281
     1
  3
A0
350
48
  3
A1
350
49
  3
A2
350
4A
  3
A3
350
4B
  3
A4
350
4C
  3
A5
350
4D
  3
A6
350
4E
  3
A7
350
4F
  3
A8
350
50
  3
A9
350
51
  3
B0
350
52
  3
B1
350
53
  3
B2
350
54
  3
B3
350
55
  3
B4
350
56
  3
B5
350
57
  3
B6
350
58
  3
B7
350
59
  3
B8
350
5A
  3
B9
350
5B
  3
C0
350
5C
  3
C1
350
5D
  3
C2
350
5E
  3
C3
350
5F
  3
C4
350
60
  3
C5
350
61
  3
C6
350
62
  3
C7
350
63
  3
C8
350
64
  3
C9
350
65
  3
D0
350
66
  3
D1
350
67
  3
D2
350
68
  0
DICTIONARY
  5
208
102
{ACAD_REACTORS
330
C
102
}
330
C
100
AcDbDictionary
281
     1
  0
DICTIONARY
  5
202
102
{ACAD_REACTORS
330
C
102
}
330
C
100
AcDbDictionary
281
     1
  0
DICTIONARY
  5
150
102
{ACAD_REACTORS
330
C
102
}
330
C
100
AcDbDictionary
281
     1
  0
XRECORD
  5
284
102
{ACAD_REACTORS
330
C
102
}
330
C
100
AcDbXrecord
280
     1
  1
DWGPROPS COOKIE
  2

  3

  4

  6

  7

  8
12017012
  9

300
=
301
=
302
=
303
=
304
=
305
=
306
=
307
=
308
=
309
=
 40
0.0
 41
2458319.363593889
 42
2458324.122228912
  1

 90
        0
  0
LAYOUT
  5
1E
102
{ACAD_REACTORS
330
1A
102
}
330
1A
100
AcDbPlotSettings
  1

  2
none_device
  4

  6

 40
0.0
 41
0.0
 42
0.0
 43
0.0
 44
0.0
 45
0.0
 46
0.0
 47
0.0
 48
0.0
 49
0.0
140
0.0
141
0.0
142
1.0
143
1.0
 70
   688
 72
     1
 73
     0
 74
     5
  7

 75
    16
147
1.0
148
0.0
149
0.0
100
AcDbLayout
  1
Layout1
 70
     1
 71
     1
 10
0.0
 20
0.0
 11
420.0
 21
297.0
 12
0.0
 22
0.0
 32
0.0
 14
1.000000000000000E+20
 24
1.000000000000000E+20
 34
1.000000000000000E+20
 15
-1.000000000000000E+20
 25
-1.000000000000000E+20
 35
-1.000000000000000E+20
146
0.0
 13
0.0
 23
0.0
 33
0.0
 16
1.0
 26
0.0
 36
0.0
 17
0.0
 27
1.0
 37
0.0
 76
     0
330
1B
  0
LAYOUT
  5
26
102
{ACAD_REACTORS
330
1A
102
}
330
1A
100
AcDbPlotSettings
  1

  2
none_device
  4

  6

 40
0.0
 41
0.0
 42
0.0
 43
0.0
 44
0.0
 45
0.0
 46
0.0
 47
0.0
 48
0.0
 49
0.0
140
0.0
141
0.0
142
1.0
143
1.0
 70
   688
 72
     1
 73
     0
 74
     5
  7

 75
    16
147
1.0
148
0.0
149
0.0
100
AcDbLayout
  1
Layout2
 70
     1
 71
     2
 10
0.0
 20
0.0
 11
0.0
 21
0.0
 12
0.0
 22
0.0
 32
0.0
 14
0.0
 24
0.0
 34
0.0
 15
0.0
 25
0.0
 35
0.0
146
0.0
 13
0.0
 23
0.0
 33
0.0
 16
1.0
 26
0.0
 36
0.0
 17
0.0
 27
1.0
 37
0.0
 76
     0
330
23
  0
LAYOUT
  5
22
102
{ACAD_REACTORS
330
1A
102
}
330
1A
100
AcDbPlotSettings
  1

  2
none_device
  4
ANSI_A_(11.00_x_8.50_Inches)
  6

 40
6.35
 41
19.05
 42
6.35000508
 43
19.05000254
 44
279.4
 45
215.9
 46
117.7088478031583
 47
98.95197839222644
 48
0.0
 49
0.0
140
0.0
141
0.0
142
0.0744392115174745
143
1.0
 70
  1696
 72
     0
 73
     0
 74
     0
  7

 75
     0
147
0.0235690232323232
148
0.0
149
0.0
100
AcDbLayout
  1
Model
 70
     1
 71
     0
 10
0.0
 20
0.0
 11
420.0
 21
297.0
 12
0.0
 22
0.0
 32
0.0
 14
-39.95000000000009
 24
-49.97180738881175
 34
0.0
 15
93.92598381534557
 25
27.94375000000001
 35
0.0
146
0.0
 13
0.0
 23
0.0
 33
0.0
 16
1.0
 26
0.0
 36
0.0
 17
0.0
 27
1.0
 37
0.0
 76
     0
330
1F
331
29
  0
MLINESTYLE
  5
18
102
{ACAD_REACTORS
330
17
102
}
330
17
100
AcDbMlineStyle
  2
Standard
 70
     0
  3

 62
   256
 51
90.0
 52
90.0
 71
     2
 49
0.5
 62
   256
  6
BYLAYER
 49
-0.5
 62
   256
  6
BYLAYER
  0
ACDBPLACEHOLDER
  5
F
102
{ACAD_REACTORS
330
E
102
}
330
E
  0
SCALE
  5
48
102
{ACAD_REACTORS
330
47
102
}
330
47
100
AcDbScale
 70
     0
300
1:1
140
1.0
141
1.0
290
     1
  0
SCALE
  5
49
102
{ACAD_REACTORS
330
47
102
}
330
47
100
AcDbScale
 70
     0
300
1:2
140
1.0
141
2.0
290
     0
  0
SCALE
  5
4A
102
{ACAD_REACTORS
330
47
102
}
330
47
100
AcDbScale
 70
     0
300
1:4
140
1.0
141
4.0
290
     0
  0
SCALE
  5
4B
102
{ACAD_REACTORS
330
47
102
}
330
47
100
AcDbScale
 70
     0
300
1:5
140
1.0
141
5.0
290
     0
  0
SCALE
  5
4C
102
{ACAD_REACTORS
330
47
102
}
330
47
100
AcDbScale
 70
     0
300
1:8
140
1.0
141
8.0
290
     0
  0
SCALE
  5
4D
102
{ACAD_REACTORS
330
47
102
}
330
47
100
AcDbScale
 70
     0
300
1:10
140
1.0
141
10.0
290
     0
  0
SCALE
  5
4E
102
{ACAD_REACTORS
330
47
102
}
330
47
100
AcDbScale
 70
     0
300
1:16
140
1.0
141
16.0
290
     0
  0
SCALE
  5
4F
102
{ACAD_REACTORS
330
47
102
}
330
47
100
AcDbScale
 70
     0
300
1:20
140
1.0
141
20.0
290
     0
  0
SCALE
  5
50
102
{ACAD_REACTORS
330
47
102
}
330
47
100
AcDbScale
 70
     0
300
1:30
140
1.0
141
30.0
290
     0
  0
SCALE
  5
51
102
{ACAD_REACTORS
330
47
102
}
330
47
100
AcDbScale
 70
     0
300
1:40
140
1.0
141
40.0
290
     0
  0
SCALE
  5
52
102
{ACAD_REACTORS
330
47
102
}
330
47
100
AcDbScale
 70
     0
300
1:50
140
1.0
141
50.0
290
     0
  0
SCALE
  5
53
102
{ACAD_REACTORS
330
47
102
}
330
47
100
AcDbScale
 70
     0
300
1:100
140
1.0
141
100.0
290
     0
  0
SCALE
  5
54
102
{ACAD_REACTORS
330
47
102
}
330
47
100
AcDbScale
 70
     0
300
2:1
140
2.0
141
1.0
290
     0
  0
SCALE
  5
55
102
{ACAD_REACTORS
330
47
102
}
330
47
100
AcDbScale
 70
     0
300
4:1
140
4.0
141
1.0
290
     0
  0
SCALE
  5
56
102
{ACAD_REACTORS
330
47
102
}
330
47
100
AcDbScale
 70
     0
300
8:1
140
8.0
141
1.0
290
     0
  0
SCALE
  5
57
102
{ACAD_REACTORS
330
47
102
}
330
47
100
AcDbScale
 70
     0
300
10:1
140
10.0
141
1.0
290
     0
  0
SCALE
  5
58
102
{ACAD_REACTORS
330
47
102
}
330
47
100
AcDbScale
 70
     0
300
100:1
140
100.0
141
1.0
290
     0
  0
SCALE
  5
59
102
{ACAD_REACTORS
330
47
102
}
330
47
100
AcDbScale
 70
     0
300
1/128" = 1'-0"
140
0.0078125
141
12.0
290
     0
  0
SCALE
  5
5A
102
{ACAD_REACTORS
330
47
102
}
330
47
100
AcDbScale
 70
     0
300
1/64" = 1'-0"
140
0.015625
141
12.0
290
     0
  0
SCALE
  5
5B
102
{ACAD_REACTORS
330
47
102
}
330
47
100
AcDbScale
 70
     0
300
1/32" = 1'-0"
140
0.03125
141
12.0
290
     0
  0
SCALE
  5
5C
102
{ACAD_REACTORS
330
47
102
}
330
47
100
AcDbScale
 70
     0
300
1/16" = 1'-0"
140
0.0625
141
12.0
290
     0
  0
SCALE
  5
5D
102
{ACAD_REACTORS
330
47
102
}
330
47
100
AcDbScale
 70
     0
300
3/32" = 1'-0"
140
0.09375
141
12.0
290
     0
  0
SCALE
  5
5E
102
{ACAD_REACTORS
330
47
102
}
330
47
100
AcDbScale
 70
     0
300
1/8" = 1'-0"
140
0.125
141
12.0
290
     0
  0
SCALE
  5
5F
102
{ACAD_REACTORS
330
47
102
}
330
47
100
AcDbScale
 70
     0
300
3/16" = 1'-0"
140
0.1875
141
12.0
290
     0
  0
SCALE
  5
60
102
{ACAD_REACTORS
330
47
102
}
330
47
100
AcDbScale
 70
     0
300
1/4" = 1'-0"
140
0.25
141
12.0
290
     0
  0
SCALE
  5
61
102
{ACAD_REACTORS
330
47
102
}
330
47
100
AcDbScale
 70
     0
300
3/8" = 1'-0"
140
0.375
141
12.0
290
     0
  0
SCALE
  5
62
102
{ACAD_REACTORS
330
47
102
}
330
47
100
AcDbScale
 70
     0
300
1/2" = 1'-0"
140
0.5
141
12.0
290
     0
  0
SCALE
  5
63
102
{ACAD_REACTORS
330
47
102
}
330
47
100
AcDbScale
 70
     0
300
3/4" = 1'-0"
140
0.75
141
12.0
290
     0
  0
SCALE
  5
64
102
{ACAD_REACTORS
330
47
102
}
330
47
100
AcDbScale
 70
     0
300
1" = 1'-0"
140
1.0
141
12.0
290
     0
  0
SCALE
  5
65
102
{ACAD_REACTORS
330
47
102
}
330
47
100
AcDbScale
 70
     0
300
1-1/2" = 1'-0"
140
1.5
141
12.0
290
     0
  0
SCALE
  5
66
102
{ACAD_REACTORS
330
47
102
}
330
47
100
AcDbScale
 70
     0
300
3" = 1'-0"
140
3.0
141
12.0
290
     0
  0
SCALE
  5
67
102
{ACAD_REACTORS
330
47
102
}
330
47
100
AcDbScale
 70
     0
300
6" = 1'-0"
140
6.0
141
12.0
290
     0
  0
SCALE
  5
68
102
{ACAD_REACTORS
330
47
102
}
330
47
100
AcDbScale
 70
     0
300
1'-0" = 1'-0"
140
12.0
141
12.0
290
     0
  0
ENDSEC
  0
EOF
