  0
SECTION
  2
HEADER
  9
$ACADVER
  1
AC1015
  9
$ACADMAINTVER
 70
     6
  9
$DWGCODEPAGE
  3
ANSI_949
  9
$INSBASE
 10
0.0
 20
0.0
 30
0.0
  9
$EXTMIN
 10
-36.77500000000009
 20
-49.97180738881173
 30
0.0
  9
$EXTMAX
 10
95.51348381534558
 20
27.88124999999999
 30
0.0
  9
$LIMMIN
 10
0.0
 20
0.0
  9
$LIMMAX
 10
420.0
 20
297.0
  9
$ORTHOMODE
 70
     1
  9
$REGENMODE
 70
     1
  9
$FILLMODE
 70
     1
  9
$QTEXTMODE
 70
     0
  9
$MIRRTEXT
 70
     1
  9
$LTSCALE
 40
1.0
  9
$ATTMODE
 70
     1
  9
$TEXTSIZE
 40
3.5
  9
$TRACEWID
 40
1.0
  9
$TEXTSTYLE
  7
Standard
  9
$CLAYER
  8
0
  9
$CELTYPE
  6
ByLayer
  9
$CECOLOR
 62
   256
  9
$CELTSCALE
 40
1.0
  9
$DISPSILH
 70
     0
  9
$DIMSCALE
 40
1.0
  9
$DIMASZ
 40
3.302
  9
$DIMEXO
 40
1.0
  9
$DIMDLI
 40
3.75
  9
$DIMRND
 40
0.0
  9
$DIMDLE
 40
0.0
  9
$DIMEXE
 40
1.0
  9
$DIMTP
 40
0.0
  9
$DIMTM
 40
0.0
  9
$DIMTXT
 40
3.5
  9
$DIMCEN
 40
2.5
  9
$DIMTSZ
 40
0.0
  9
$DIMTOL
 70
     0
  9
$DIMLIM
 70
     0
  9
$DIMTIH
 70
     1
  9
$DIMTOH
 70
     1
  9
$DIMSE1
 70
     0
  9
$DIMSE2
 70
     0
  9
$DIMTAD
 70
     1
  9
$DIMZIN
 70
     0
  9
$DIMBLK
  1

  9
$DIMASO
 70
     1
  9
$DIMSHO
 70
     1
  9
$DIMPOST
  1

  9
$DIMAPOST
  1

  9
$DIMALT
 70
     0
  9
$DIMALTD
 70
     3
  9
$DIMALTF
 40
0.0393700787401575
  9
$DIMLFAC
 40
1.0
  9
$DIMTOFL
 70
     1
  9
$DIMTVP
 40
0.0
  9
$DIMTIX
 70
     0
  9
$DIMSOXD
 70
     0
  9
$DIMSAH
 70
     0
  9
$DIMBLK1
  1

  9
$DIMBLK2
  1

  9
$DIMSTYLE
  2
ISO-25
  9
$DIMCLRD
 70
     0
  9
$DIMCLRE
 70
     0
  9
$DIMCLRT
 70
     0
  9
$DIMTFAC
 40
1.0
  9
$DIMGAP
 40
1.524
  9
$DIMJUST
 70
     0
  9
$DIMSD1
 70
     0
  9
$DIMSD2
 70
     0
  9
$DIMTOLJ
 70
     0
  9
$DIMTZIN
 70
     0
  9
$DIMALTZ
 70
     0
  9
$DIMALTTZ
 70
     0
  9
$DIMUPT
 70
     0
  9
$DIMDEC
 70
     2
  9
$DIMTDEC
 70
     2
  9
$DIMALTU
 70
     2
  9
$DIMALTTD
 70
     3
  9
$DIMTXSTY
  7
Standard
  9
$DIMAUNIT
 70
     0
  9
$DIMADEC
 70
     2
  9
$DIMALTRND
 40
0.0
  9
$DIMAZIN
 70
     0
  9
$DIMDSEP
 70
    44
  9
$DIMATFIT
 70
     3
  9
$DIMFRAC
 70
     0
  9
$DIMLDRBLK
  1

  9
$DIMLUNIT
 70
     2
  9
$DIMLWD
 70
    -2
  9
$DIMLWE
 70
    -2
  9
$DIMTMOVE
 70
     0
  9
$LUNITS
 70
     2
  9
$LUPREC
 70
     2
  9
$SKETCHINC
 40
1.0
  9
$FILLETRAD
 40
10.0
  9
$AUNITS
 70
     0
  9
$AUPREC
 70
     2
  9
$MENU
  1
.
  9
$ELEVATION
 40
0.0
  9
$PELEVATION
 40
0.0
  9
$THICKNESS
 40
0.0
  9
$LIMCHECK
 70
     0
  9
$CHAMFERA
 40
0.0
  9
$CHAMFERB
 40
0.0
  9
$CHAMFERC
 40
0.0
  9
$CHAMFERD
 40
0.0
  9
$SKPOLY
 70
     0
  9
$TDCREATE
 40
2458319.736688253
  9
$TDUCREATE
 40
2458319.361688253
  9
$TDUPDATE
 40
2458324.493780197
  9
$TDUUPDATE
 40
2458324.118780197
  9
$TDINDWG
 40
0.002873206
  9
$TDUSRTIMER
 40
2458324.118716019
  9
$USRTIMER
 70
     1
  9
$ANGBASE
 50
0.0
  9
$ANGDIR
 70
     0
  9
$PDMODE
 70
     0
  9
$PDSIZE
 40
-1.0
  9
$PLINEWID
 40
0.0
  9
$SPLFRAME
 70
     0
  9
$SPLINETYPE
 70
     6
  9
$SPLINESEGS
 70
     8
  9
$HANDSEED
  5
27E
  9
$SURFTAB1
 70
     6
  9
$SURFTAB2
 70
     6
  9
$SURFTYPE
 70
     6
  9
$SURFU
 70
     6
  9
$SURFV
 70
     6
  9
$UCSBASE
  2

  9
$UCSNAME
  2

  9
$UCSORG
 10
0.0
 20
0.0
 30
0.0
  9
$UCSXDIR
 10
1.0
 20
0.0
 30
0.0
  9
$UCSYDIR
 10
0.0
 20
1.0
 30
0.0
  9
$UCSORTHOREF
  2

  9
$UCSORTHOVIEW
 70
     0
  9
$UCSORGTOP
 10
0.0
 20
0.0
 30
0.0
  9
$UCSORGBOTTOM
 10
0.0
 20
0.0
 30
0.0
  9
$UCSORGLEFT
 10
0.0
 20
0.0
 30
0.0
  9
$UCSORGRIGHT
 10
0.0
 20
0.0
 30
0.0
  9
$UCSORGFRONT
 10
0.0
 20
0.0
 30
0.0
  9
$UCSORGBACK
 10
0.0
 20
0.0
 30
0.0
  9
$PUCSBASE
  2

  9
$PUCSNAME
  2

  9
$PUCSORG
 10
0.0
 20
0.0
 30
0.0
  9
$PUCSXDIR
 10
1.0
 20
0.0
 30
0.0
  9
$PUCSYDIR
 10
0.0
 20
1.0
 30
0.0
  9
$PUCSORTHOREF
  2

  9
$PUCSORTHOVIEW
 70
     0
  9
$PUCSORGTOP
 10
0.0
 20
0.0
 30
0.0
  9
$PUCSORGBOTTOM
 10
0.0
 20
0.0
 30
0.0
  9
$PUCSORGLEFT
 10
0.0
 20
0.0
 30
0.0
  9
$PUCSORGRIGHT
 10
0.0
 20
0.0
 30
0.0
  9
$PUCSORGFRONT
 10
0.0
 20
0.0
 30
0.0
  9
$PUCSORGBACK
 10
0.0
 20
0.0
 30
0.0
  9
$USERI1
 70
     0
  9
$USERI2
 70
     0
  9
$USERI3
 70
     0
  9
$USERI4
 70
     0
  9
$USERI5
 70
     0
  9
$USERR1
 40
0.0
  9
$USERR2
 40
0.0
  9
$USERR3
 40
0.0
  9
$USERR4
 40
0.0
  9
$USERR5
 40
0.0
  9
$WORLDVIEW
 70
     1
  9
$SHADEDGE
 70
     3
  9
$SHADEDIF
 70
    70
  9
$TILEMODE
 70
     1
  9
$MAXACTVP
 70
    64
  9
$PINSBASE
 10
0.0
 20
0.0
 30
0.0
  9
$PLIMCHECK
 70
     0
  9
$PEXTMIN
 10
1.000000000000000E+20
 20
1.000000000000000E+20
 30
1.000000000000000E+20
  9
$PEXTMAX
 10
-1.000000000000000E+20
 20
-1.000000000000000E+20
 30
-1.000000000000000E+20
  9
$PLIMMIN
 10
0.0
 20
0.0
  9
$PLIMMAX
 10
0.0
 20
0.0
  9
$UNITMODE
 70
     0
  9
$VISRETAIN
 70
     1
  9
$PLINEGEN
 70
     0
  9
$PSLTSCALE
 70
     1
  9
$TREEDEPTH
 70
  3020
  9
$CMLSTYLE
  2
Standard
  9
$CMLJUST
 70
     0
  9
$CMLSCALE
 40
20.0
  9
$PROXYGRAPHICS
 70
     1
  9
$MEASUREMENT
 70
     1
  9
$CELWEIGHT
370
    -1
  9
$ENDCAPS
280
     0
  9
$JOINSTYLE
280
     0
  9
$LWDISPLAY
290
     1
  9
$INSUNITS
 70
     4
  9
$HYPERLINKBASE
  1

  9
$STYLESHEET
  1

  9
$XEDIT
290
     1
  9
$CEPSNTYPE
380
     0
  9
$PSTYLEMODE
290
     1
  9
$FINGERPRINTGUID
  2
{B3CC41BE-7E62-42B4-9AD4-5FD5CB767495}
  9
$VERSIONGUID
  2
{FAEB1C32-E019-11D5-929B-00C0DF256EC4}
  9
$EXTNAMES
290
     1
  9
$PSVPSCALE
 40
0.0
  9
$OLESTARTUP
290
     0
  0
ENDSEC
  0
SECTION
  2
CLASSES
  0
CLASS
  1
ACDBDICTIONARYWDFLT
  2
AcDbDictionaryWithDefault
  3
ObjectDBX Classes
 90
        0
280
     0
281
     0
  0
CLASS
  1
VISUALSTYLE
  2
AcDbVisualStyle
  3
ObjectDBX Classes
 90
     4095
280
     0
281
     0
  0
CLASS
  1
MATERIAL
  2
AcDbMaterial
  3
ObjectDBX Classes
 90
     1153
280
     0
281
     0
  0
CLASS
  1
SCALE
  2
AcDbScale
  3
ObjectDBX Classes
 90
     1153
280
     0
281
     0
  0
CLASS
  1
SUN
  2
AcDbSun
  3
SCENEOE
 90
     1153
280
     0
281
     0
  0
CLASS
  1
ACDBPLACEHOLDER
  2
AcDbPlaceHolder
  3
ObjectDBX Classes
 90
        0
280
     0
281
     0
  0
CLASS
  1
LAYOUT
  2
AcDbLayout
  3
ObjectDBX Classes
 90
        0
280
     0
281
     0
  0
CLASS
  1
TABLESTYLE
  2
AcDbTableStyle
  3
ObjectDBX Classes
 90
     4095
280
     0
281
     0
  0
CLASS
  1
MLEADERSTYLE
  2
AcDbMLeaderStyle
  3
ACDB_MLEADERSTYLE_CLASS
 90
     4095
280
     0
281
     0
  0
CLASS
  1
DICTIONARYVAR
  2
AcDbDictionaryVar
  3
ObjectDBX Classes
 90
        0
280
     0
281
     0
  0
CLASS
  1
RASTERVARIABLES
  2
AcDbRasterVariables
  3
ISM
 90
        0
280
     0
281
     0
  0
ENDSEC
  0
SECTION
  2
TABLES
  0
TABLE
  2
VPORT
  5
8
330
0
100
AcDbSymbolTable
 70
     1
  0
VPORT
  5
29
330
8
100
AcDbSymbolTableRecord
100
AcDbViewportTableRecord
  2
*Active
 70
     0
 10
0.0
 20
0.0
 11
1.0
 21
1.0
 12
29.36924190767274
 22
-11.04527869440587
 13
0.0
 23
0.0
 14
10.0
 24
10.0
 15
10.0
 25
10.0
 16
0.0
 26
0.0
 36
1.0
 17
0.0
 27
0.0
 37
0.0
 40
79.41011853658793
 41
1.782762691853601
 42
50.0
 43
0.0
 44
0.0
 50
0.0
 51
0.0
 71
    16
 72
  2000
 73
     1
 74
     3
 75
     0
 76
     0
 77
     0
 78
     0
281
     0
 65
     1
110
0.0
120
0.0
130
0.0
111
1.0
121
0.0
131
0.0
112
0.0
122
1.0
132
0.0
 79
     0
146
0.0
  0
ENDTAB
  0
TABLE
  2
LTYPE
  5
5
330
0
100
AcDbSymbolTable
 70
     6
  0
LTYPE
  5
14
330
5
100
AcDbSymbolTableRecord
100
AcDbLinetypeTableRecord
  2
ByBlock
 70
     0
  3

 72
    65
 73
     0
 40
0.0
  0
LTYPE
  5
15
330
5
100
AcDbSymbolTableRecord
100
AcDbLinetypeTableRecord
  2
ByLayer
 70
     0
  3

 72
    65
 73
     0
 40
0.0
  0
LTYPE
  5
16
330
5
100
AcDbSymbolTableRecord
100
AcDbLinetypeTableRecord
  2
Continuous
 70
     0
  3
Solid line
 72
    65
 73
     0
 40
0.0
  0
LTYPE
  5
6A
330
5
100
AcDbSymbolTableRecord
100
AcDbLinetypeTableRecord
  2
HIDDEN
 70
     0
  3
Hidden __ __ __ __ __ __ __ __ __ __ __ __ __ __
 72
    65
 73
     2
 40
1.905
 49
1.27
 74
     0
 49
-0.635
 74
     0
  0
LTYPE
  5
6B
330
5
100
AcDbSymbolTableRecord
100
AcDbLinetypeTableRecord
  2
PHANTOM
 70
     0
  3
Phantom ______  __  __  ______  __  __  ______
 72
    65
 73
     6
 40
12.7
 49
6.35
 74
     0
 49
-1.27
 74
     0
 49
1.27
 74
     0
 49
-1.27
 74
     0
 49
1.27
 74
     0
 49
-1.27
 74
     0
  0
LTYPE
  5
6C
330
5
100
AcDbSymbolTableRecord
100
AcDbLinetypeTableRecord
  2
CENTER
 70
     0
  3
Center ____ _ ____ _ ____ _ ____ _ ____ _ ____
 72
    65
 73
     4
 40
10.16
 49
6.35
 74
     0
 49
-1.27
 74
     0
 49
1.27
 74
     0
 49
-1.27
 74
     0
  0
LTYPE
  5
6D
330
5
100
AcDbSymbolTableRecord
100
AcDbLinetypeTableRecord
  2
CENTERX2
 70
     0
  3
Center (2x) ________  __  ________  __  _____
 72
    65
 73
     4
 40
20.32
 49
12.7
 74
     0
 49
-2.54
 74
     0
 49
2.54
 74
     0
 49
-2.54
 74
     0
  0
LTYPE
  5
6E
330
5
100
AcDbSymbolTableRecord
100
AcDbLinetypeTableRecord
  2
DOT2
 70
     0
  3
Dot (.5x) ........................................
 72
    65
 73
     2
 40
0.635
 49
0.0
 74
     0
 49
-0.635
 74
     0
  0
ENDTAB
  0
TABLE
  2
LAYER
  5
2
330
0
100
AcDbSymbolTable
 70
    18
  0
LAYER
  5
10
330
2
100
AcDbSymbolTableRecord
100
AcDbLayerTableRecord
  2
0
 70
     0
 62
     7
  6
Continuous
370
    -3
390
F
  0
LAYER
  5
6F
330
2
100
AcDbSymbolTableRecord
100
AcDbLayerTableRecord
  2
FORMAT
 70
     0
 62
     2
  6
Continuous
370
    -3
390
F
  0
LAYER
  5
70
330
2
100
AcDbSymbolTableRecord
100
AcDbLayerTableRecord
  2
외형선
 70
     0
 62
     4
  6
Continuous
370
    30
390
F
  0
LAYER
  5
71
330
2
100
AcDbSymbolTableRecord
100
AcDbLayerTableRecord
  2
숨은선
 70
     0
 62
     2
  6
HIDDEN
370
    15
390
F
  0
LAYER
  5
72
330
2
100
AcDbSymbolTableRecord
100
AcDbLayerTableRecord
  2
중심선
 70
     0
 62
     1
  6
CENTERX2
370
    -3
390
F
  0
LAYER
  5
73
330
2
100
AcDbSymbolTableRecord
100
AcDbLayerTableRecord
  2
파단선
 70
     0
 62
     4
  6
Continuous
370
    -3
390
F
  0
LAYER
  5
74
330
2
100
AcDbSymbolTableRecord
100
AcDbLayerTableRecord
  2
해칭선
 70
     0
 62
   100
  6
Continuous
370
    -3
390
F
  0
LAYER
  5
75
330
2
100
AcDbSymbolTableRecord
100
AcDbLayerTableRecord
  2
가는실선
 70
     0
 62
     4
  6
Continuous
370
    -3
390
F
  0
LAYER
  5
76
330
2
100
AcDbSymbolTableRecord
100
AcDbLayerTableRecord
  2
치수_보조선
 70
     0
 62
     4
  6
Continuous
370
    -3
390
F
  0
LAYER
  5
77
330
2
100
AcDbSymbolTableRecord
100
AcDbLayerTableRecord
  2
치수문자_일반주서
 70
     0
 62
     7
  6
Continuous
370
    15
390
F
  0
LAYER
  5
78
330
2
100
AcDbSymbolTableRecord
100
AcDbLayerTableRecord
  2
개별주서
 70
     0
 62
   100
  6
Continuous
370
    30
390
F
  0
LAYER
  5
79
330
2
100
AcDbSymbolTableRecord
100
AcDbLayerTableRecord
  2
중간선
 70
     0
 62
     2
  6
Continuous
370
    15
390
F
  0
LAYER
  5
7A
330
2
100
AcDbSymbolTableRecord
100
AcDbLayerTableRecord
  2
윤곽선
 70
     0
 62
     3
  6
Continuous
370
    40
390
F
  0
LAYER
  5
7B
330
2
100
AcDbSymbolTableRecord
100
AcDbLayerTableRecord
  2
중심마크
 70
     0
 62
   100
  6
Continuous
370
    30
390
F
  0
LAYER
  5
7C
330
2
100
AcDbSymbolTableRecord
100
AcDbLayerTableRecord
  2
가상선
 70
     0
 62
     4
  6
PHANTOM
370
    -3
390
F
  0
LAYER
  5
7D
330
2
100
AcDbSymbolTableRecord
100
AcDbLayerTableRecord
  2
특수지정선
 70
     0
 62
     5
  6
CENTERX2
370
    60
390
F
  0
LAYER
  5
7E
330
2
100
AcDbSymbolTableRecord
100
AcDbLayerTableRecord
  2
참조1
 70
     0
 62
    -4
  6
Continuous
370
    -3
390
F
  0
LAYER
  5
151
330
2
100
AcDbSymbolTableRecord
100
AcDbLayerTableRecord
  2
Defpoints
 70
     0
 62
     7
  6
Continuous
290
     0
370
    -3
390
F
  0
ENDTAB
  0
TABLE
  2
STYLE
  5
3
330
0
100
AcDbSymbolTable
 70
     2
  0
STYLE
  5
11
330
3
100
AcDbSymbolTableRecord
100
AcDbTextStyleTableRecord
  2
Standard
 70
     0
 40
0.0
 41
1.0
 50
0.0
 71
     0
 42
3.5
  3
txt
  4

  0
STYLE
  5
94
330
3
100
AcDbSymbolTableRecord
100
AcDbTextStyleTableRecord
  2
SLDTEXTSTYLE0
 70
     0
 40
0.0
 41
0.75
 50
0.0
 71
     0
 42
3.5
  3
TXT
  4

  0
ENDTAB
  0
TABLE
  2
VIEW
  5
6
330
0
100
AcDbSymbolTable
 70
     0
  0
ENDTAB
  0
TABLE
  2
UCS
  5
7
330
0
100
AcDbSymbolTable
 70
     0
  0
ENDTAB
  0
TABLE
  2
APPID
  5
9
330
0
100
AcDbSymbolTable
 70
     2
  0
APPID
  5
12
330
9
100
AcDbSymbolTableRecord
100
AcDbRegAppTableRecord
  2
ACAD
 70
     0
  0
APPID
  5
1A7
330
9
100
AcDbSymbolTableRecord
100
AcDbRegAppTableRecord
  2
PE_URL
 70
     0
  0
ENDTAB
  0
TABLE
  2
DIMSTYLE
  5
A
330
0
100
AcDbSymbolTable
 70
     3
100
AcDbDimStyleTable
  0
DIMSTYLE
105
27
330
A
100
AcDbSymbolTableRecord
100
AcDbDimStyleTableRecord
  2
ISO-25
 70
     0
 41
2.5
 42
0.625
 43
3.75
 44
1.25
 73
     0
 74
     0
 77
     1
 78
     8
140
2.5
141
2.5
143
0.03937007874016
147
0.625
171
     3
172
     1
178
     0
271
     2
272
     2
274
     3
278
    44
283
     0
284
     8
340
11
  0
DIMSTYLE
105
C8
102
{ACAD_REACTORS
330
C7
330
F1
330
105
330
DD
102
}
330
A
100
AcDbSymbolTableRecord
100
AcDbDimStyleTableRecord
  2
SLDDIMSTYLE0
 70
     0
 41
3.302
 44
0.0
 45
0.000000001
 73
     0
 74
     0
 77
     1
 78
    12
 79
     3
140
3.5
143
0.0393700787401575
147
0.875
148
0.000000001
170
     1
172
     1
173
     1
178
     0
271
     2
272
     2
276
     2
284
    12
289
     0
340
94
  0
DIMSTYLE
105
DE
330
A
100
AcDbSymbolTableRecord
100
AcDbDimStyleTableRecord
  2
SLDDIMSTYLE1
 70
     0
 41
3.302
 44
0.0
 45
0.000000001
 73
     0
 74
     0
 77
     1
 78
     4
 79
     1
140
3.5
143
0.0393700787401575
147
0.875
148
0.000000001
170
     1
173
     1
178
     0
271
     2
272
     2
276
     2
284
    12
340
94
  0
ENDTAB
  0
TABLE
  2
BLOCK_RECORD
  5
1
330
0
100
AcDbSymbolTable
 70
     9
  0
BLOCK_RECORD
  5
1F
330
1
100
AcDbSymbolTableRecord
100
AcDbBlockTableRecord
  2
*Model_Space
340
22
  0
BLOCK_RECORD
  5
1B
330
1
100
AcDbSymbolTableRecord
100
AcDbBlockTableRecord
  2
*Paper_Space
340
1E
  0
BLOCK_RECORD
  5
23
330
1
100
AcDbSymbolTableRecord
100
AcDbBlockTableRecord
  2
*Paper_Space0
340
26
  0
BLOCK_RECORD
  5
7F
330
1
100
AcDbSymbolTableRecord
100
AcDbBlockTableRecord
  2
블럭10
340
0
102
{BLKREFS
331
C0
102
}
  0
BLOCK_RECORD
  5
C9
330
1
100
AcDbSymbolTableRecord
100
AcDbBlockTableRecord
  2
_D
340
0
  0
BLOCK_RECORD
  5
DF
330
1
100
AcDbSymbolTableRecord
100
AcDbBlockTableRecord
  2
_D_1
340
0
  0
BLOCK_RECORD
  5
F2
330
1
100
AcDbSymbolTableRecord
100
AcDbBlockTableRecord
  2
_D_2
340
0
  0
BLOCK_RECORD
  5
106
330
1
100
AcDbSymbolTableRecord
100
AcDbBlockTableRecord
  2
_D_3
340
0
  0
BLOCK_RECORD
  5
120
330
1
100
AcDbSymbolTableRecord
100
AcDbBlockTableRecord
  2
SW_DOWELSYMBOL_0
340
0
102
{BLKREFS
331
126
102
}
  0
BLOCK_RECORD
  5
188
330
1
100
AcDbSymbolTableRecord
100
AcDbBlockTableRecord
  2
*D7
340
0
  0
BLOCK_RECORD
  5
199
330
1
100
AcDbSymbolTableRecord
100
AcDbBlockTableRecord
  2
*D8
340
0
  0
ENDTAB
  0
ENDSEC
  0
SECTION
  2
BLOCKS
  0
BLOCK
  5
20
330
1F
100
AcDbEntity
  8
0
100
AcDbBlockBegin
  2
*Model_Space
 70
     0
 10
0.0
 20
0.0
 30
0.0
  3
*Model_Space
  1
*Model_Space
  0
ENDBLK
  5
21
330
1F
100
AcDbEntity
  8
0
100
AcDbBlockEnd
  0
BLOCK
  5
1C
330
1B
100
AcDbEntity
 67
     1
  8
0
100
AcDbBlockBegin
  2
*Paper_Space
 70
     0
 10
0.0
 20
0.0
 30
0.0
  3
*Paper_Space
  1
*Paper_Space
  0
ENDBLK
  5
1D
330
1B
100
AcDbEntity
 67
     1
  8
0
100
AcDbBlockEnd
  0
BLOCK
  5
24
330
23
100
AcDbEntity
  8
0
100
AcDbBlockBegin
  2
*Paper_Space0
 70
     0
 10
0.0
 20
0.0
 30
0.0
  3
*Paper_Space0
  1
*Paper_Space0
  0
ENDBLK
  5
25
330
23
100
AcDbEntity
  8
0
100
AcDbBlockEnd
  0
BLOCK
  5
80
330
7F
100
AcDbEntity
  8
0
100
AcDbBlockBegin
  2
블럭10
 70
     2
 10
0.0
 20
0.0
 30
0.0
  3
블럭10
  1
블럭10
  0
ELLIPSE
  5
82
330
7F
100
AcDbEntity
  8
중심선
100
AcDbEllipse
 10
20.54032771741204
 20
12.0471743016438
 30
0.0
 11
6.600054785286829
 21
-1.261213355974178E-13
 31
0.0
210
0.0
220
0.0
230
1.0
 40
0.636358354079598
 41
0.9219305317359503
 42
6.513795318482858
  0
ELLIPSE
  5
83
330
7F
100
AcDbEntity
  8
중심선
100
AcDbEllipse
 10
20.54032771746488
 20
12.04717430159265
 30
0.0
 11
3.960054785062283
 21
1.540847449632565E-10
 31
0.0
210
0.0
220
0.0
230
1.0
 40
0.3939339440162632
 41
1.131841032648279
 42
5.62031148352944
  0
LINE
  5
84
330
7F
100
AcDbEntity
  8
중심선
100
AcDbLine
 10
2.268634060543552
 20
16.24717430164393
 30
0.0
 11
5.714909304380834
 21
16.24717430164393
 31
0.0
  0
LINE
  5
85
330
7F
100
AcDbEntity
  8
중심선
100
AcDbLine
 10
5.245725140726316
 20
7.84717430164391
 30
0.0
 11
8.692000384563599
 21
7.84717430164391
 31
0.0
  0
LINE
  5
86
330
7F
100
AcDbEntity
  8
중심선
100
AcDbLine
 10
15.74043728645272
 20
16.24717430164393
 30
0.0
 11
8.692000384563599
 21
7.84717430164391
 31
0.0
  0
LINE
  5
87
330
7F
100
AcDbEntity
  8
중심선
100
AcDbLine
 10
0.1404042013395286
 20
13.71084872107135
 30
0.0
 11
3.58671253028996
 21
13.71088815037384
 31
0.0
  0
LINE
  5
88
330
7F
100
AcDbEntity
  8
중심선
100
AcDbLine
 10
2.750260043222114
 20
10.84717430164391
 30
0.0
 11
6.196535287059397
 21
10.84717430164391
 31
0.0
  0
LINE
  5
89
330
7F
100
AcDbEntity
  8
중심선
100
AcDbLine
 10
12.29416204261559
 20
16.24717430164393
 30
0.0
 11
5.245725140726316
 21
7.84717430164391
 31
0.0
  0
LINE
  5
8A
330
7F
100
AcDbEntity
  8
중심선
100
AcDbLine
 10
10.72767329541681
 20
16.24717430164393
 30
0.0
 11
6.196535287059397
 21
10.84717430164391
 31
0.0
  0
LINE
  5
8B
330
7F
100
AcDbEntity
  8
중심선
100
AcDbLine
 10
7.28139805157953
 20
16.24717430164393
 30
0.0
 11
2.750260043222114
 21
10.84717430164391
 31
0.0
  0
LINE
  5
8C
330
7F
100
AcDbEntity
  8
중심선
100
AcDbLine
 10
5.714909304380834
 20
16.24717430164393
 30
0.0
 11
3.58671253028996
 21
13.71088815037384
 31
0.0
  0
LINE
  5
8D
330
7F
100
AcDbEntity
  8
중심선
100
AcDbLine
 10
2.268634060543552
 20
16.24717430164393
 30
0.0
 11
0.1404042013395286
 21
13.71084872107135
 31
0.0
  0
LINE
  5
8E
330
7F
100
AcDbEntity
  8
중심선
100
AcDbLine
 10
7.28139805157953
 20
16.24717430164393
 30
0.0
 11
10.72767329541681
 21
16.24717430164393
 31
0.0
  0
LINE
  5
8F
330
7F
100
AcDbEntity
  8
중심선
100
AcDbLine
 10
12.29416204261559
 20
16.24717430164393
 30
0.0
 11
15.74043728645272
 21
16.24717430164393
 31
0.0
  0
LINE
  5
90
330
7F
100
AcDbEntity
  8
중심선
100
AcDbLine
 10
19.22036997980202
 20
11.08717430171403
 30
0.0
 11
23.66174974927406
 21
11.08717430171406
 31
0.0
  0
LINE
  5
91
330
7F
100
AcDbEntity
  8
중심선
100
AcDbLine
 10
19.22039502424796
 20
13.00717430171391
 30
0.0
 11
19.22036997980202
 21
11.08717430171403
 31
0.0
  0
LINE
  5
92
330
7F
100
AcDbEntity
  8
중심선
100
AcDbLine
 10
19.22039502424796
 20
13.00717430171391
 30
0.0
 11
26.96566020931264
 21
13.00717430171391
 31
0.0
  0
LINE
  5
93
330
7F
100
AcDbEntity
  8
중심선
100
AcDbLine
 10
22.22332737316547
 20
13.45928029700563
 30
0.0
 11
24.52862924686651
 21
15.39360700705356
 31
0.0
  0
ATTDEF
  5
95
330
7F
100
AcDbEntity
  8
FORMAT
 62
     2
100
AcDbText
 10
4.408487351596664
 20
2.075366912832191
 30
0.0
 40
4.233333333333333
  1
E1008004
 41
0.75
  7
SLDTEXTSTYLE0
 11
4.408487351596664
 21
-0.0412997538344756
 31
0.0
100
AcDbAttributeDefinition
  3

  2
AUTOATTR0
 70
     0
 74
     1
  0
ENDBLK
  5
81
330
7F
100
AcDbEntity
  8
0
100
AcDbBlockEnd
  0
BLOCK
  5
CA
330
C9
100
AcDbEntity
  8
0
100
AcDbBlockBegin
  2
_D
 70
     0
 10
0.0
 20
0.0
 30
0.0
  3
_D
  1
_D
  0
LINE
  5
CC
330
C9
100
AcDbEntity
  8
치수문자_일반주서
 62
     0
370
    -2
100
AcDbLine
 10
25.39999999999999
 20
0.8562500000000052
 30
0.0
 11
25.39999999999999
 21
10.38125
 31
0.0
  0
LINE
  5
CD
330
C9
100
AcDbEntity
  8
치수문자_일반주서
 62
     0
370
    -2
100
AcDbLine
 10
23.01875
 20
0.5880173791887409
 30
0.0
 11
23.01875
 21
10.38125
 31
0.0
  0
LINE
  5
CE
330
C9
100
AcDbEntity
  8
치수문자_일반주서
 62
     0
370
    -2
100
AcDbLine
 10
25.39999999999999
 20
10.38125
 30
0.0
 11
49.64999999999999
 21
10.38125
 31
0.0
  0
LINE
  5
CF
330
C9
100
AcDbEntity
  8
치수문자_일반주서
 62
     0
370
    -2
100
AcDbLine
 10
25.39999999999999
 20
10.38125
 30
0.0
 11
23.01875
 21
10.38125
 31
0.0
  0
LINE
  5
D0
330
C9
100
AcDbEntity
  8
치수문자_일반주서
 62
     0
370
    -2
100
AcDbLine
 10
27.89999999999999
 20
10.38125
 30
0.0
 11
30.39999999999999
 21
10.38125
 31
0.0
  0
LINE
  5
D1
330
C9
100
AcDbEntity
  8
치수문자_일반주서
 62
     0
370
    -2
100
AcDbLine
 10
20.51875
 20
10.38125
 30
0.0
 11
18.01875
 21
10.38125
 31
0.0
  0
SOLID
  5
D2
330
C9
100
AcDbEntity
  8
치수문자_일반주서
 62
     0
100
AcDbTrace
 10
27.89999999999999
 20
10.79791666666666
 30
0.0
 11
27.89999999999999
 21
9.964583333333332
 31
0.0
 12
25.39999999999999
 22
10.38125
 32
0.0
 13
25.39999999999999
 23
10.38125
 33
0.0
  0
SOLID
  5
D3
330
C9
100
AcDbEntity
  8
치수문자_일반주서
 62
     0
100
AcDbTrace
 10
20.51875
 20
9.964583333333332
 30
0.0
 11
20.51875
 21
10.79791666666666
 31
0.0
 12
23.01875
 22
10.38125
 32
0.0
 13
23.01875
 23
10.38125
 33
0.0
  0
MTEXT
  5
D4
330
C9
100
AcDbEntity
  8
치수문자_일반주서
 62
     0
100
AcDbMText
 10
40.02499999999999
 20
13.75625
 30
0.0
 40
2.5
 41
0.0
 71
     2
 72
     1
  1
\A1;2.38 [3/32]
  7
SLDTEXTSTYLE0
 73
     1
 44
1.0
  0
POINT
  5
D5
330
C9
100
AcDbEntity
  8
Defpoints
 62
     0
100
AcDbPoint
 10
25.39999999999999
 20
0.7937500000000052
 30
0.0
  0
POINT
  5
D6
330
C9
100
AcDbEntity
  8
Defpoints
 62
     0
100
AcDbPoint
 10
23.01875
 20
0.5255173791887409
 30
0.0
  0
POINT
  5
D7
330
C9
100
AcDbEntity
  8
Defpoints
 62
     0
100
AcDbPoint
 10
23.01875
 20
10.38125
 30
0.0
  0
ENDBLK
  5
CB
330
C9
100
AcDbEntity
  8
0
100
AcDbBlockEnd
  0
BLOCK
  5
E0
330
DF
100
AcDbEntity
  8
0
100
AcDbBlockBegin
  2
_D_1
 70
     0
 10
0.0
 20
0.0
 30
0.0
  3
_D_1
  1
_D_1
  0
LINE
  5
E2
330
DF
100
AcDbEntity
  8
치수문자_일반주서
 62
     0
370
    -2
100
AcDbLine
 10
25.39999999999999
 20
0.8562500000000052
 30
0.0
 11
25.39999999999999
 21
18.38125
 31
0.0
  0
LINE
  5
E3
330
DF
100
AcDbEntity
  8
치수문자_일반주서
 62
     0
370
    -2
100
AcDbLine
 10
-25.39999999999998
 20
0.8562500000000062
 30
0.0
 11
-25.39999999999998
 21
18.38125
 31
0.0
  0
LINE
  5
E4
330
DF
100
AcDbEntity
  8
치수문자_일반주서
 62
     0
370
    -2
100
AcDbLine
 10
22.89999999999999
 20
18.38125
 30
0.0
 11
-22.89999999999998
 21
18.38125
 31
0.0
  0
SOLID
  5
E5
330
DF
100
AcDbEntity
  8
치수문자_일반주서
 62
     0
100
AcDbTrace
 10
22.89999999999999
 20
17.96458333333333
 30
0.0
 11
22.89999999999999
 21
18.79791666666667
 31
0.0
 12
25.39999999999999
 22
18.38125
 32
0.0
 13
25.39999999999999
 23
18.38125
 33
0.0
  0
SOLID
  5
E6
330
DF
100
AcDbEntity
  8
치수문자_일반주서
 62
     0
100
AcDbTrace
 10
-22.89999999999998
 20
18.79791666666667
 30
0.0
 11
-22.89999999999998
 21
17.96458333333333
 31
0.0
 12
-25.39999999999998
 22
18.38125
 32
0.0
 13
-25.39999999999998
 23
18.38125
 33
0.0
  0
MTEXT
  5
E7
330
DF
100
AcDbEntity
  8
치수문자_일반주서
 62
     0
100
AcDbMText
 10
0.2223325356664301
 20
21.75625
 30
0.0
 40
2.5
 41
0.0
 71
     2
 72
     1
  1
\A1;50.8 [2]
  7
SLDTEXTSTYLE0
 73
     1
 44
1.0
  0
POINT
  5
E8
330
DF
100
AcDbEntity
  8
Defpoints
 62
     0
100
AcDbPoint
 10
25.39999999999999
 20
0.7937500000000052
 30
0.0
  0
POINT
  5
E9
330
DF
100
AcDbEntity
  8
Defpoints
 62
     0
100
AcDbPoint
 10
-25.39999999999998
 20
0.7937500000000062
 30
0.0
  0
POINT
  5
EA
330
DF
100
AcDbEntity
  8
Defpoints
 62
     0
100
AcDbPoint
 10
-25.39999999999998
 20
18.38125
 30
0.0
  0
ENDBLK
  5
E1
330
DF
100
AcDbEntity
  8
0
100
AcDbBlockEnd
  0
BLOCK
  5
F3
330
F2
100
AcDbEntity
  8
0
100
AcDbBlockBegin
  2
_D_2
 70
     0
 10
0.0
 20
0.0
 30
0.0
  3
_D_2
  1
_D_2
  0
LINE
  5
F5
330
F2
100
AcDbEntity
  8
치수문자_일반주서
 62
     0
370
    -2
100
AcDbLine
 10
-16.15661934298441
 20
2.38125
 30
0.0
 11
-33.40000000000002
 21
2.381249999999936
 31
0.0
  0
LINE
  5
F6
330
F2
100
AcDbEntity
  8
치수문자_일반주서
 62
     0
370
    -2
100
AcDbLine
 10
-16.15661934298441
 20
-2.381250000000002
 30
0.0
 11
-33.40000000000001
 21
-2.381250000000065
 31
0.0
  0
LINE
  5
F7
330
F2
100
AcDbEntity
  8
치수문자_일반주서
 62
     0
370
    -2
100
AcDbLine
 10
-33.40000000000002
 20
2.381249999999936
 30
0.0
 11
-33.40000000000009
 21
27.88124999999998
 31
0.0
  0
LINE
  5
F8
330
F2
100
AcDbEntity
  8
치수문자_일반주서
 62
     0
370
    -2
100
AcDbLine
 10
-33.40000000000002
 20
2.381249999999936
 30
0.0
 11
-33.40000000000001
 21
-2.381250000000065
 31
0.0
  0
LINE
  5
F9
330
F2
100
AcDbEntity
  8
치수문자_일반주서
 62
     0
370
    -2
100
AcDbLine
 10
-33.40000000000003
 20
4.881249999999936
 30
0.0
 11
-33.40000000000003
 21
7.381249999999936
 31
0.0
  0
LINE
  5
FA
330
F2
100
AcDbEntity
  8
치수문자_일반주서
 62
     0
370
    -2
100
AcDbLine
 10
-33.4
 20
-4.881250000000065
 30
0.0
 11
-33.39999999999999
 21
-7.381250000000065
 31
0.0
  0
SOLID
  5
FB
330
F2
100
AcDbEntity
  8
치수문자_일반주서
 62
     0
100
AcDbTrace
 10
-33.81666666666669
 20
4.881249999999935
 30
0.0
 11
-32.98333333333336
 21
4.881249999999937
 31
0.0
 12
-33.40000000000002
 22
2.381249999999936
 32
0.0
 13
-33.40000000000002
 23
2.381249999999936
 33
0.0
  0
SOLID
  5
FC
330
F2
100
AcDbEntity
  8
치수문자_일반주서
 62
     0
100
AcDbTrace
 10
-32.98333333333333
 20
-4.881250000000064
 30
0.0
 11
-33.81666666666666
 21
-4.881250000000066
 31
0.0
 12
-33.40000000000001
 22
-2.381250000000065
 32
0.0
 13
-33.40000000000001
 23
-2.381250000000065
 33
0.0
  0
MTEXT
  5
FD
330
F2
100
AcDbEntity
  8
치수문자_일반주서
 62
     0
100
AcDbMText
 10
-36.77500000000006
 20
17.63124999999997
 30
0.0
 40
2.5
 41
0.0
 71
     2
 72
     1
  1
\A1;%%c4.76 [3/16]
  7
SLDTEXTSTYLE0
 11
-2.983906501879685E-15
 21
1.0
 31
0.0
 73
     1
 44
1.0
  0
POINT
  5
1D3
330
F2
100
AcDbEntity
  8
Defpoints
 62
     0
100
AcDbPoint
 10
-16.09411934298441
 20
2.381250000000001
 30
0.0
  0
POINT
  5
1D4
330
F2
100
AcDbEntity
  8
Defpoints
 62
     0
100
AcDbPoint
 10
-16.09411934298441
 20
-2.381250000000001
 30
0.0
  0
POINT
  5
1D5
330
F2
100
AcDbEntity
  8
Defpoints
 62
     0
100
AcDbPoint
 10
-33.40000000000001
 20
-2.381250000000066
 30
0.0
  0
ENDBLK
  5
F4
330
F2
100
AcDbEntity
  8
0
100
AcDbBlockEnd
  0
BLOCK
  5
107
330
106
100
AcDbEntity
  8
0
100
AcDbBlockBegin
  2
_D_3
 70
     0
 10
0.0
 20
0.0
 30
0.0
  3
_D_3
  1
_D_3
  0
LINE
  5
109
330
106
100
AcDbEntity
  8
치수문자_일반주서
 62
     0
370
    -2
100
AcDbLine
 10
25.46249999999999
 20
0.7937500000000054
 30
0.0
 11
54.52447714815231
 21
0.793750000000113
 31
0.0
  0
LINE
  5
10A
330
106
100
AcDbEntity
  8
치수문자_일반주서
 62
     0
370
    -2
100
AcDbLine
 10
25.46249999999999
 20
-0.7937499999999945
 30
0.0
 11
54.52447714815232
 21
-0.7937499999998838
 31
0.0
  0
LINE
  5
10B
330
106
100
AcDbEntity
  8
치수문자_일반주서
 62
     0
370
    -2
100
AcDbLine
 10
54.52447714815231
 20
0.793750000000113
 30
0.0
 11
54.52447714815221
 21
25.04375000000012
 31
0.0
  0
LINE
  5
10C
330
106
100
AcDbEntity
  8
치수문자_일반주서
 62
     0
370
    -2
100
AcDbLine
 10
54.52447714815231
 20
0.793750000000113
 30
0.0
 11
54.52447714815232
 21
-0.7937499999998838
 31
0.0
  0
LINE
  5
10D
330
106
100
AcDbEntity
  8
치수문자_일반주서
 62
     0
370
    -2
100
AcDbLine
 10
54.5244771481523
 20
3.293750000000113
 30
0.0
 11
54.52447714815229
 21
5.793750000000113
 31
0.0
  0
LINE
  5
10E
330
106
100
AcDbEntity
  8
치수문자_일반주서
 62
     0
370
    -2
100
AcDbLine
 10
54.52447714815234
 20
-3.293749999999884
 30
0.0
 11
54.52447714815235
 21
-5.793749999999884
 31
0.0
  0
SOLID
  5
10F
330
106
100
AcDbEntity
  8
치수문자_일반주서
 62
     0
100
AcDbTrace
 10
54.10781048148564
 20
3.293750000000111
 30
0.0
 11
54.94114381481896
 21
3.293750000000115
 31
0.0
 12
54.52447714815231
 22
0.793750000000113
 32
0.0
 13
54.52447714815231
 23
0.793750000000113
 33
0.0
  0
SOLID
  5
110
330
106
100
AcDbEntity
  8
치수문자_일반주서
 62
     0
100
AcDbTrace
 10
54.941143814819
 20
-3.293749999999882
 30
0.0
 11
54.10781048148567
 21
-3.293749999999886
 31
0.0
 12
54.52447714815232
 22
-0.7937499999998838
 32
0.0
 13
54.52447714815232
 23
-0.7937499999998838
 33
0.0
  0
MTEXT
  5
111
330
106
100
AcDbEntity
  8
치수문자_일반주서
 62
     0
100
AcDbMText
 10
51.14947714815225
 20
15.4187500000001
 30
0.0
 40
2.5
 41
0.0
 71
     2
 72
     1
  1
\A1;%%c1.59 [1/16]
  7
SLDTEXTSTYLE0
 11
-4.475859752819529E-15
 21
1.0
 31
0.0
 73
     1
 44
1.0
  0
POINT
  5
112
330
106
100
AcDbEntity
  8
Defpoints
 62
     0
100
AcDbPoint
 10
25.39999999999999
 20
0.7937500000000052
 30
0.0
  0
POINT
  5
113
330
106
100
AcDbEntity
  8
Defpoints
 62
     0
100
AcDbPoint
 10
25.39999999999999
 20
-0.7937499999999947
 30
0.0
  0
POINT
  5
114
330
106
100
AcDbEntity
  8
Defpoints
 62
     0
100
AcDbPoint
 10
54.52447714815232
 20
-0.7937499999998859
 30
0.0
  0
ENDBLK
  5
108
330
106
100
AcDbEntity
  8
0
100
AcDbBlockEnd
  0
BLOCK
  5
121
330
120
100
AcDbEntity
  8
0
100
AcDbBlockBegin
  2
SW_DOWELSYMBOL_0
 70
     0
 10
0.0
 20
0.0
 30
0.0
  3
SW_DOWELSYMBOL_0
  1
SW_DOWELSYMBOL_0
  0
CIRCLE
  5
123
330
120
100
AcDbEntity
  8
해칭선
 62
     0
100
AcDbCircle
 10
0.0
 20
0.0
 30
0.0
 40
3.000000000000001
  0
HATCH
  5
124
330
120
100
AcDbEntity
  8
0
  6
Continuous
 62
     0
370
     0
100
AcDbHatch
 10
0.0
 20
0.0
 30
0.0
210
0.0
220
0.0
230
1.0
  2
SOLID
 70
     1
 71
     0
 91
        1
 92
        0
 93
        3
 72
     2
 10
-0.0000000000000069
 20
0.0
 40
3.000000000000001
 50
0.0
 51
90.0
 73
     1
 72
     1
 10
-0.0000000000000069
 20
3.000000000000001
 11
-0.0000000000000069
 21
0.0
 72
     1
 10
-0.0000000000000069
 20
0.0
 11
2.999999999999994
 21
0.0
 97
        0
 75
     0
 76
     1
 98
        1
 10
0.0
 20
0.0
  0
HATCH
  5
125
330
120
100
AcDbEntity
  8
0
  6
Continuous
 62
     0
370
     0
100
AcDbHatch
 10
0.0
 20
0.0
 30
0.0
210
0.0
220
0.0
230
1.0
  2
SOLID
 70
     1
 71
     0
 91
        1
 92
        0
 93
        3
 72
     2
 10
-0.0000000000000069
 20
0.0
 40
3.000000000000001
 50
180.0
 51
270.0000000000007
 73
     1
 72
     1
 10
-0.0000000000000069
 20
-3.000000000000001
 11
-0.0000000000000069
 21
0.0
 72
     1
 10
-0.0000000000000069
 20
0.0
 11
-3.000000000000008
 21
0.0
 97
        0
 75
     0
 76
     1
 98
        1
 10
0.0
 20
0.0
  0
ENDBLK
  5
122
330
120
100
AcDbEntity
  8
0
100
AcDbBlockEnd
  0
BLOCK
  5
189
330
188
100
AcDbEntity
  8
0
100
AcDbBlockBegin
  2
*D7
 70
     1
 10
0.0
 20
0.0
 30
0.0
  3
*D7
  1
*D7
  0
LINE
  5
18B
330
188
100
AcDbEntity
  8
치수문자_일반주서
 62
     0
370
    -2
100
AcDbLine
 10
4.999999999999998
 20
1.518600912039116
 30
0.0
 11
4.999999999999998
 21
12.30201921462676
 31
0.0
  0
LINE
  5
18C
330
188
100
AcDbEntity
  8
치수문자_일반주서
 62
     0
370
    -2
100
AcDbLine
 10
10.99999999999999
 20
1.555798244697894
 30
0.0
 11
10.99999999999999
 21
12.30201921462676
 31
0.0
  0
LINE
  5
18D
330
188
100
AcDbEntity
  8
치수문자_일반주서
 62
     0
370
    -2
100
AcDbLine
 10
4.999999999999998
 20
12.30201921462676
 30
0.0
 11
10.99999999999999
 21
12.30201921462676
 31
0.0
  0
LINE
  5
18E
330
188
100
AcDbEntity
  8
치수문자_일반주서
 62
     0
370
    -2
100
AcDbLine
 10
2.499999999999998
 20
12.30201921462676
 30
0.0
 11
-0.0000000000000018
 21
12.30201921462676
 31
0.0
  0
LINE
  5
18F
330
188
100
AcDbEntity
  8
치수문자_일반주서
 62
     0
370
    -2
100
AcDbLine
 10
13.49999999999999
 20
12.30201921462676
 30
0.0
 11
15.99999999999999
 21
12.30201921462676
 31
0.0
  0
SOLID
  5
190
330
188
100
AcDbEntity
  8
치수문자_일반주서
 62
     0
100
AcDbTrace
 10
2.499999999999998
 20
11.8853525479601
 30
0.0
 11
2.499999999999998
 21
12.71868588129343
 31
0.0
 12
4.999999999999998
 22
12.30201921462676
 32
0.0
 13
4.999999999999998
 23
12.30201921462676
 33
0.0
  0
SOLID
  5
191
330
188
100
AcDbEntity
  8
치수문자_일반주서
 62
     0
100
AcDbTrace
 10
13.49999999999999
 20
12.71868588129343
 30
0.0
 11
13.49999999999999
 21
11.8853525479601
 31
0.0
 12
10.99999999999999
 22
12.30201921462676
 32
0.0
 13
10.99999999999999
 23
12.30201921462676
 33
0.0
  0
MTEXT
  5
192
330
188
100
AcDbEntity
  8
치수문자_일반주서
 62
     0
100
AcDbMText
 10
7.999999999999995
 20
15.67701921462676
 30
0.0
 40
2.5
 41
0.0
 71
     2
 72
     1
  1
\A1;6 [0.24]
  7
SLDTEXTSTYLE0
 73
     1
 44
1.0
  0
POINT
  5
193
330
188
100
AcDbEntity
  8
Defpoints
 62
     0
100
AcDbPoint
 10
4.999999999999998
 20
1.456100912039116
 30
0.0
  0
POINT
  5
194
330
188
100
AcDbEntity
  8
Defpoints
 62
     0
100
AcDbPoint
 10
10.99999999999999
 20
1.493298244697894
 30
0.0
  0
POINT
  5
195
330
188
100
AcDbEntity
  8
Defpoints
 62
     0
100
AcDbPoint
 10
10.99999999999999
 20
12.30201921462676
 30
0.0
  0
ENDBLK
  5
18A
330
188
100
AcDbEntity
  8
0
100
AcDbBlockEnd
  0
BLOCK
  5
19A
330
199
100
AcDbEntity
  8
0
100
AcDbBlockBegin
  2
*D8
 70
     1
 10
0.0
 20
0.0
 30
0.0
  3
*D8
  1
*D8
  0
LINE
  5
19C
330
199
100
AcDbEntity
  8
치수문자_일반주서
 62
     0
370
    -2
100
AcDbLine
 10
57.35239538352408
 20
-4.693434325130319
 30
0.0
 11
57.35239538352408
 21
6.089983977457328
 31
0.0
  0
LINE
  5
19D
330
199
100
AcDbEntity
  8
치수문자_일반주서
 62
     0
370
    -2
100
AcDbLine
 10
63.35239538352408
 20
-4.656236992471541
 30
0.0
 11
63.35239538352408
 21
6.089983977457328
 31
0.0
  0
LINE
  5
19E
330
199
100
AcDbEntity
  8
치수문자_일반주서
 62
     0
370
    -2
100
AcDbLine
 10
57.35239538352408
 20
6.089983977457328
 30
0.0
 11
63.35239538352408
 21
6.089983977457328
 31
0.0
  0
LINE
  5
19F
330
199
100
AcDbEntity
  8
치수문자_일반주서
 62
     0
370
    -2
100
AcDbLine
 10
54.85239538352408
 20
6.089983977457328
 30
0.0
 11
52.35239538352408
 21
6.089983977457328
 31
0.0
  0
LINE
  5
1A0
330
199
100
AcDbEntity
  8
치수문자_일반주서
 62
     0
370
    -2
100
AcDbLine
 10
65.85239538352408
 20
6.089983977457328
 30
0.0
 11
68.35239538352408
 21
6.089983977457328
 31
0.0
  0
SOLID
  5
1A1
330
199
100
AcDbEntity
  8
치수문자_일반주서
 62
     0
100
AcDbTrace
 10
54.85239538352408
 20
5.673317310790661
 30
0.0
 11
54.85239538352408
 21
6.506650644123995
 31
0.0
 12
57.35239538352408
 22
6.089983977457328
 32
0.0
 13
57.35239538352408
 23
6.089983977457328
 33
0.0
  0
SOLID
  5
1A2
330
199
100
AcDbEntity
  8
치수문자_일반주서
 62
     0
100
AcDbTrace
 10
65.85239538352408
 20
6.506650644123995
 30
0.0
 11
65.85239538352408
 21
5.673317310790661
 31
0.0
 12
63.35239538352408
 22
6.089983977457328
 32
0.0
 13
63.35239538352408
 23
6.089983977457328
 33
0.0
  0
MTEXT
  5
1A3
330
199
100
AcDbEntity
  8
치수문자_일반주서
 62
     0
100
AcDbMText
 10
60.35239538352408
 20
9.464983977457328
 30
0.0
 40
2.5
 41
0.0
 71
     2
 72
     1
  1
\A1;6 [0.24]
  7
SLDTEXTSTYLE0
 73
     1
 44
1.0
  0
POINT
  5
1A4
330
199
100
AcDbEntity
  8
Defpoints
 62
     0
100
AcDbPoint
 10
57.35239538352408
 20
-4.755934325130319
 30
0.0
  0
POINT
  5
1A5
330
199
100
AcDbEntity
  8
Defpoints
 62
     0
100
AcDbPoint
 10
63.35239538352408
 20
-4.718736992471541
 30
0.0
  0
POINT
  5
1A6
330
199
100
AcDbEntity
  8
Defpoints
 62
     0
100
AcDbPoint
 10
63.35239538352408
 20
6.089983977457328
 30
0.0
  0
ENDBLK
  5
19B
330
199
100
AcDbEntity
  8
0
100
AcDbBlockEnd
  0
ENDSEC
  0
SECTION
  2
ENTITIES
  0
LINE
  5
96
330
1F
100
AcDbEntity
  8
외형선
  6
Continuous
370
    15
100
AcDbLine
 10
16.09411934298441
 20
2.381250000000005
 30
0.0
 11
-16.09411934298441
 21
2.381250000000001
 31
0.0
  0
LINE
  5
97
330
1F
100
AcDbEntity
  8
외형선
  6
Continuous
370
    15
100
AcDbLine
 10
-16.09411934298441
 20
-2.38125
 30
0.0
 11
16.09411934298441
 21
-2.381249999999997
 31
0.0
  0
LINE
  5
9A
330
1F
100
AcDbEntity
  8
외형선
  6
Continuous
370
    15
100
AcDbLine
 10
16.09411934298441
 20
-2.381249999999996
 30
0.0
 11
22.01874999999999
 21
-0.793749999999995
 31
0.0
  0
LINE
  5
9B
330
1F
100
AcDbEntity
  8
외형선
  6
Continuous
370
    15
100
AcDbLine
 10
22.01874999999999
 20
0.7937500000000052
 30
0.0
 11
16.09411934298441
 21
2.381250000000003
 31
0.0
  0
LINE
  5
9C
330
1F
100
AcDbEntity
  8
외형선
  6
Continuous
370
    15
100
AcDbLine
 10
22.21851746417774
 20
0.7937500000000051
 30
0.0
 11
22.01874999999999
 21
0.7937500000000051
 31
0.0
  0
LINE
  5
9D
330
1F
100
AcDbEntity
  8
외형선
  6
Continuous
370
    15
100
AcDbLine
 10
22.01874999999999
 20
-0.7937499999999948
 30
0.0
 11
22.21851746417774
 21
-0.7937499999999948
 31
0.0
  0
LINE
  5
9E
330
1F
100
AcDbEntity
  8
0
  6
Continuous
 62
     1
370
    25
100
AcDbLine
 10
24.44696839916733
 20
-0.7937499999999947
 30
0.0
 11
24.60624999999999
 21
-0.7937499999999947
 31
0.0
1001
PE_URL
1000

  0
ARC
  5
9F
330
1F
100
AcDbEntity
  8
0
  6
Continuous
 62
     1
370
    25
100
AcDbCircle
 10
24.60624999999999
 20
0.0000000000000052
 30
0.0
 40
0.7937500000000002
100
AcDbArc
 50
270.0000000000007
 51
0.0
1001
PE_URL
1000

  0
ARC
  5
A0
330
1F
100
AcDbEntity
  8
0
  6
Continuous
 62
     1
370
    25
100
AcDbCircle
 10
24.60624999999999
 20
0.0000000000000052
 30
0.0
 40
0.7937500000000002
100
AcDbArc
 50
0.0
 51
90.0
1001
PE_URL
1000

  0
LINE
  5
A1
330
1F
100
AcDbEntity
  8
0
  6
Continuous
 62
     1
370
    25
100
AcDbLine
 10
24.60624999999999
 20
0.7937500000000052
 30
0.0
 11
24.44696839916733
 21
0.7937500000000052
 31
0.0
1001
PE_URL
1000

  0
LINE
  5
A2
330
1F
100
AcDbEntity
  8
외형선
  6
Continuous
370
    15
100
AcDbLine
 10
16.09411934298441
 20
2.381250000000005
 30
0.0
 11
16.09411934298441
 21
-2.381249999999997
 31
0.0
  0
LINE
  5
A5
330
1F
100
AcDbEntity
  8
외형선
  6
Continuous
370
    15
100
AcDbLine
 10
22.01874999999999
 20
0.7937500000000052
 30
0.0
 11
22.01874999999999
 21
-0.793749999999995
 31
0.0
  0
SPLINE
  5
A6
330
1F
100
AcDbEntity
  8
외형선
  6
Continuous
370
    15
100
AcDbSpline
210
0.0
220
0.0
230
1.0
 70
    24
 71
     3
 72
     9
 73
     5
 74
     0
 42
0.000000001
 43
0.00000001
 40
0.0
 40
0.0
 40
0.0
 40
0.0
 40
0.2806570100834007
 40
1.0
 40
1.0
 40
1.0
 40
1.0
 10
23.01874999999999
 20
-0.4021928005655044
 30
0.0
 10
23.01874999999999
 20
-0.4095117199711038
 30
0.0
 10
23.01874999999999
 20
-0.4355895271971715
 30
0.0
 10
23.01874999999999
 20
-0.4925383074466561
 30
0.0
 10
23.01874999999999
 20
-0.5335040133034235
 30
0.0
  0
SPLINE
  5
A7
330
1F
100
AcDbEntity
  8
외형선
  6
Continuous
370
    15
100
AcDbSpline
210
0.0
220
0.0
230
1.0
 70
     8
 71
     3
 72
    12
 73
     8
 74
     0
 42
0.000000001
 43
0.00000001
 40
0.0
 40
0.0
 40
0.0
 40
0.0
 40
0.25
 40
0.25
 40
0.5
 40
0.5
 40
1.0
 40
1.0
 40
1.0
 40
1.0
 10
23.01874999999986
 20
-0.5335040133034146
 30
0.0
 10
22.95158255660306
 20
-0.5292829843896242
 30
0.0
 10
22.88416053505983
 20
-0.5231588062250632
 30
0.0
 10
22.7509364811816
 20
-0.5073284436153315
 30
0.0
 10
22.68602298912137
 20
-0.4976826179093442
 30
0.0
 10
22.48716708569689
 20
-0.4634364835370622
 30
0.0
 10
22.35060093988832
 20
-0.4334173829062769
 30
0.0
 10
22.21851746417774
 20
-0.3980961913376393
 30
0.0
  0
SPLINE
  5
A8
330
1F
100
AcDbEntity
  8
외형선
  6
Continuous
370
    15
100
AcDbSpline
210
0.0
220
0.0
230
1.0
 70
     8
 71
     3
 72
    12
 73
     8
 74
     0
 42
0.000000001
 43
0.00000001
 40
0.0
 40
0.0
 40
0.0
 40
0.0
 40
0.4999999999999999
 40
0.4999999999999999
 40
0.75
 40
0.75
 40
1.0
 40
1.0
 40
1.0
 40
1.0
 10
22.21867910737135
 20
0.0396664758613917
 30
0.0
 10
22.35073926667017
 20
-0.0368982862871665
 30
0.0
 10
22.48727686448859
 20
-0.1148701154822108
 30
0.0
 10
22.68608977680332
 20
-0.2266742894184404
 30
0.0
 10
22.75099049794437
 20
-0.2630284604567056
 30
0.0
 10
22.88418803687145
 20
-0.3342587551474641
 30
0.0
 10
22.95159625627293
 20
-0.3689613955482487
 30
0.0
 10
23.01874999998475
 20
-0.4021928005579834
 30
0.0
  0
LINE
  5
A9
330
1F
100
AcDbEntity
  8
외형선
  6
Continuous
370
    15
100
AcDbLine
 10
22.21851746417774
 20
0.7658700739954794
 30
0.0
 11
22.21851746417774
 21
0.7937500000000051
 31
0.0
  0
SPLINE
  5
AA
330
1F
100
AcDbEntity
  8
외형선
  6
Continuous
370
    15
100
AcDbSpline
210
0.0
220
0.0
230
1.0
 70
     8
 71
     3
 72
    12
 73
     8
 74
     0
 42
0.000000001
 43
0.00000001
 40
0.0
 40
0.0
 40
0.0
 40
0.0
 40
0.25
 40
0.25
 40
0.5
 40
0.5
 40
1.0
 40
1.0
 40
1.0
 40
1.0
 10
23.01874999999997
 20
0.5255173791887097
 30
0.0
 10
22.95158255660317
 20
0.5544113140830224
 30
0.0
 10
22.88416053505993
 20
0.5814713992529655
 30
0.0
 10
22.75093648118168
 20
0.631101144229829
 30
0.0
 10
22.68602298912143
 20
0.6535895210189463
 30
0.0
 10
22.48716708569693
 20
0.7144408115793048
 30
0.0
 10
22.35060093988834
 20
0.7457470462235605
 30
0.0
 10
22.21851746417774
 20
0.7658849477612634
 30
0.0
  0
LINE
  5
AB
330
1F
100
AcDbEntity
  8
외형선
  6
Continuous
370
    15
100
AcDbLine
 10
23.01874999999999
 20
0.5255173791887007
 30
0.0
 11
23.01874999999999
 21
-0.4021928005655244
 31
0.0
  0
SPLINE
  5
AC
330
1F
100
AcDbEntity
  8
외형선
  6
Continuous
370
    15
100
AcDbSpline
210
0.0
220
0.0
230
1.0
 70
     8
 71
     3
 72
    12
 73
     8
 74
     0
 42
0.000000001
 43
0.00000001
 40
0.0
 40
0.0
 40
0.0
 40
0.0
 40
0.25
 40
0.25
 40
0.5
 40
0.5
 40
1.0
 40
1.0
 40
1.0
 40
1.0
 10
23.01874999999997
 20
-0.5255173791886988
 30
0.0
 10
22.95158255660317
 20
-0.5544113140830114
 30
0.0
 10
22.88416053505993
 20
-0.5814713992529548
 30
0.0
 10
22.75093648118168
 20
-0.6311011442298183
 30
0.0
 10
22.68602298912143
 20
-0.6535895210189356
 30
0.0
 10
22.48716708569693
 20
-0.7144408115792944
 30
0.0
 10
22.35060093988834
 20
-0.7457470462235498
 30
0.0
 10
22.21851746417774
 20
-0.7658849477612529
 30
0.0
  0
LINE
  5
AD
330
1F
100
AcDbEntity
  8
외형선
  6
Continuous
370
    15
100
AcDbLine
 10
22.21851746417774
 20
-0.7937499999999948
 30
0.0
 11
22.21851746417774
 21
0.0401821453872911
 31
0.0
  0
SPLINE
  5
AE
330
1F
100
AcDbEntity
  8
0
  6
Continuous
 62
     1
370
    25
100
AcDbSpline
210
0.0
220
0.0
230
1.0
 70
     8
 71
     3
 72
    16
 73
    12
 74
     0
 42
0.000000001
 43
0.00000001
 40
0.0
 40
0.0
 40
0.0
 40
0.0
 40
0.1249999999999998
 40
0.1249999999999998
 40
0.2499999999999995
 40
0.2499999999999995
 40
0.4999999999999997
 40
0.4999999999999997
 40
0.7499999999999998
 40
0.7499999999999998
 40
1.0
 40
1.0
 40
1.0
 40
1.0
 10
24.60624999999999
 20
-0.3318054003195597
 30
0.0
 10
24.53945687155613
 20
-0.2969956442954767
 30
0.0
 10
24.47258232334173
 20
-0.2610070029392327
 30
0.0
 10
24.34074740264052
 20
-0.1878192630144275
 30
0.0
 10
24.27628155013284
 20
-0.1507219604823103
 30
0.0
 10
24.07789057098104
 20
-0.0373134066425877
 30
0.0
 10
23.94230245557027
 20
0.0404996520871501
 30
0.0
 10
23.68107612795533
 20
0.1910038476017791
 30
0.0
 10
23.54756026535438
 20
0.2651902513771826
 30
0.0
 10
23.28132463368828
 20
0.4040167872110326
 30
0.0
 10
23.15222794724981
 20
0.4680981456639286
 30
0.0
 10
23.01874999999997
 20
0.5255173791887091
 30
0.0
1001
PE_URL
1000

  0
SPLINE
  5
AF
330
1F
100
AcDbEntity
  8
0
  6
Continuous
 62
     1
370
    25
100
AcDbSpline
210
0.0
220
0.0
230
1.0
 70
     8
 71
     3
 72
    22
 73
    18
 74
     0
 42
0.000000001
 43
0.00000001
 40
0.0
 40
0.0
 40
0.0
 40
0.0
 40
0.125
 40
0.125
 40
0.25
 40
0.25
 40
0.375
 40
0.375
 40
0.5
 40
0.5
 40
0.625
 40
0.625
 40
0.75
 40
0.75
 40
0.875
 40
0.875
 40
1.0
 40
1.0
 40
1.0
 40
1.0
 10
25.18750762876
 20
0.0833500437369038
 30
0.0
 10
25.09638742305758
 20
0.1185505987181934
 30
0.0
 10
25.00471394790548
 20
0.1532705138625189
 30
0.0
 10
24.82554620655899
 20
0.2197701704097002
 30
0.0
 10
24.73644802160848
 20
0.2517639896093245
 30
0.0
 10
24.55418908946373
 20
0.3125417761183845
 30
0.0
 10
24.46252915398183
 20
0.341130167545351
 30
0.0
 10
24.28343153952
 20
0.3931255379412536
 30
0.0
 10
24.19426760206501
 20
0.4167289815280406
 30
0.0
 10
24.01199090455567
 20
0.4585519949927073
 30
0.0
 10
23.92034489364121
 20
0.4766206138113861
 30
0.0
 10
23.74131811817134
 20
0.506134686941696
 30
0.0
 10
23.65208658524504
 20
0.5177197315365404
 30
0.0
 10
23.46979287799218
 20
0.534165962123581
 30
0.0
 10
23.37816117634524
 20
0.5389420214998756
 30
0.0
 10
23.19920595101572
 20
0.5414506174781718
 30
0.0
 10
23.10990498056985
 20
0.5392325000399079
 30
0.0
 10
23.01874999999986
 20
0.5335040133034255
 30
0.0
1001
PE_URL
1000

  0
SPLINE
  5
B0
330
1F
100
AcDbEntity
  8
0
  6
Continuous
 62
     1
370
    25
100
AcDbSpline
210
0.0
220
0.0
230
1.0
 70
     8
 71
     3
 72
    18
 73
    14
 74
     0
 42
0.000000001
 43
0.00000001
 40
0.0
 40
0.0
 40
0.0
 40
0.0
 40
0.2500000000000005
 40
0.2500000000000005
 40
0.500000000000001
 40
0.500000000000001
 40
0.6250000000000008
 40
0.6250000000000008
 40
0.7500000000000006
 40
0.7500000000000006
 40
0.8750000000000003
 40
0.8750000000000003
 40
1.0
 40
1.0
 40
1.0
 40
1.0
 10
24.60624999999999
 20
-0.3318054003196031
 30
0.0
 10
24.69456756378585
 20
-0.3778327824718088
 30
0.0
 10
24.78099175824961
 20
-0.4153638588685764
 30
0.0
 10
24.95293128233759
 20
-0.4530848913587716
 30
0.0
 10
25.0392430639059
 20
-0.4520401155009501
 30
0.0
 10
25.15601788385029
 20
-0.388741850972755
 30
0.0
 10
25.19220840655999
 20
-0.3568244623680398
 30
0.0
 10
25.24724748764703
 20
-0.2721039480784979
 30
0.0
 10
25.26383151461625
 20
-0.2218770058071576
 30
0.0
 10
25.27220552721125
 20
-0.1236993027694508
 30
0.0
 10
25.26467020148714
 20
-0.0774106442533833
 30
0.0
 10
25.23551192743659
 20
0.0073585254712562
 30
0.0
 10
25.21391821735921
 20
0.0462716933615854
 30
0.0
 10
25.18750762876346
 20
0.0833500437355647
 30
0.0
1001
PE_URL
1000

  0
SPLINE
  5
B1
330
1F
100
AcDbEntity
  8
0
  6
Continuous
 62
     1
370
    25
100
AcDbSpline
210
0.0
220
0.0
230
1.0
 70
     8
 71
     3
 72
    17
 73
    13
 74
     0
 42
0.000000001
 43
0.00000001
 40
0.0
 40
0.0
 40
0.0
 40
0.0
 40
0.0971368923714781
 40
0.1945246003179722
 40
0.2926545039852712
 40
0.3910397695712771
 40
0.5674506729595805
 40
0.6560528701650357
 40
0.7450264335644222
 40
0.8361069574793233
 40
0.9273936749139251
 40
1.0
 40
1.0
 40
1.0
 40
1.0
 10
23.01874999999989
 20
-0.4021928005654577
 30
0.0
 10
23.06506520028341
 20
-0.4247281070294421
 30
0.0
 10
23.15781519056872
 20
-0.4698569080022513
 30
0.0
 10
23.29665682589857
 20
-0.5327847032578661
 30
0.0
 10
23.43666687642899
 20
-0.5899531491359769
 30
0.0
 10
23.61463044463285
 20
-0.6543665639221982
 30
0.0
 10
23.78733580575195
 20
-0.7065058434486776
 30
0.0
 10
23.95582239567373
 20
-0.7447106284361036
 30
0.0
 10
24.0839698168863
 20
-0.7672647359091296
 30
0.0
 10
24.21337321280644
 20
-0.7832044708826779
 30
0.0
 10
24.33439199833943
 20
-0.7925267715087274
 30
0.0
 10
24.41240695894766
 20
-0.792957148004981
 30
0.0
 10
24.44696839916733
 20
-0.7931478092759892
 30
0.0
1001
PE_URL
1000

  0
SPLINE
  5
B2
330
1F
100
AcDbEntity
  8
0
  6
Continuous
 62
     1
370
    25
100
AcDbSpline
210
0.0
220
0.0
230
1.0
 70
     8
 71
     3
 72
     8
 73
     4
 74
     0
 42
0.000000001
 43
0.00000001
 40
0.0
 40
0.0
 40
0.0
 40
0.0
 40
1.0
 40
1.0
 40
1.0
 40
1.0
 10
25.18750762876346
 20
0.0833500437355651
 30
0.0
 10
25.22396960831869
 20
0.1053769935627981
 30
0.0
 10
25.24416675377477
 20
0.1524478564115713
 30
0.0
 10
25.24509395390986
 20
0.2055760650343282
 30
0.0
1001
PE_URL
1000

  0
ARC
  5
B3
330
1F
100
AcDbEntity
  8
0
  6
Continuous
 62
     1
370
    25
100
AcDbCircle
 10
25.02023833881276
 20
-0.137982982248874
 30
0.0
 40
0.4106006169133349
100
AcDbArc
 50
23.84138871527481
 51
56.79569445020616
1001
PE_URL
1000

  0
ARC
  5
B4
330
1F
100
AcDbEntity
  8
0
  6
Continuous
 62
     1
370
    25
100
AcDbCircle
 10
24.68616425058232
 20
0.014743739216635
 30
0.0
 40
0.7097608125160048
100
AcDbArc
 50
1.068912902142555
 51
71.18739922808967
1001
PE_URL
1000

  0
SPLINE
  5
B5
330
1F
100
AcDbEntity
  8
0
  6
Continuous
 62
     1
370
    25
100
AcDbSpline
210
0.0
220
0.0
230
1.0
 70
     8
 71
     3
 72
     8
 73
     4
 74
     0
 42
0.000000001
 43
0.00000001
 40
0.0
 40
0.0
 40
0.0
 40
0.0
 40
1.0
 40
1.0
 40
1.0
 40
1.0
 10
24.91504357312279
 20
0.6865879672165456
 30
0.0
 10
24.81693449399107
 20
0.7464542051279522
 30
0.0
 10
24.71277157043755
 20
0.7814342145610114
 30
0.0
 10
24.60624999999999
 20
0.7884706442928673
 30
0.0
1001
PE_URL
1000

  0
LINE
  5
B6
330
1F
100
AcDbEntity
  8
0
  6
Continuous
 62
     1
370
    25
100
AcDbLine
 10
23.30588835681796
 20
-0.5355022017806516
 30
0.0
 11
23.01874999999986
 21
-0.5335040133034146
 31
0.0
1001
PE_URL
1000

  0
SPLINE
  5
B7
330
1F
100
AcDbEntity
  8
외형선
  6
Continuous
370
    15
100
AcDbSpline
210
0.0
220
0.0
230
1.0
 70
    24
 71
     3
 72
    10
 73
     6
 74
     0
 42
0.000000001
 43
0.00000001
 40
0.0
 40
0.0
 40
0.0
 40
0.0
 40
0.2462136511222307
 40
0.6179157478283148
 40
1.0
 40
1.0
 40
1.0
 40
1.0
 10
23.01874999999999
 20
-0.4021928005655044
 30
0.0
 10
23.01874999999999
 20
-0.4099106390698304
 30
0.0
 10
23.01874999999999
 20
-0.4292798898375357
 30
0.0
 10
23.01874999999999
 20
-0.4732134002212561
 30
0.0
 10
23.01874999999999
 20
-0.5132234515993097
 30
0.0
 10
23.01874999999999
 20
-0.5335040133034235
 30
0.0
  0
SPLINE
  5
B8
330
1F
100
AcDbEntity
  8
0
  6
Continuous
 62
     1
370
    25
100
AcDbSpline
210
0.0
220
0.0
230
1.0
 70
     8
 71
     3
 72
     8
 73
     4
 74
     0
 42
0.000000001
 43
0.00000001
 40
0.0
 40
0.0
 40
0.0
 40
0.0
 40
1.0
 40
1.0
 40
1.0
 40
1.0
 10
24.75432476607293
 20
0.3553090268680228
 30
0.0
 10
24.91567636104768
 20
0.3104695672277395
 30
0.0
 10
25.08018303455575
 20
0.2599444812256254
 30
0.0
 10
25.24509395390774
 20
0.2055760650339291
 30
0.0
1001
PE_URL
1000

  0
SPLINE
  5
B9
330
1F
100
AcDbEntity
  8
0
  6
Continuous
 62
     1
370
    25
100
AcDbSpline
210
0.0
220
0.0
230
1.0
 70
     8
 71
     3
 72
    16
 73
    12
 74
     0
 42
0.000000001
 43
0.00000001
 40
0.0
 40
0.0
 40
0.0
 40
0.0
 40
0.1005102033822258
 40
0.2085979303184377
 40
0.3053252417111073
 40
0.4997453550587267
 40
0.5974932258193921
 40
0.6975558392552931
 40
0.7978449804006096
 40
0.8988061055254454
 40
1.0
 40
1.0
 40
1.0
 40
1.0
 10
23.30588835681796
 20
0.5355022017806623
 30
0.0
 10
23.34943660215054
 20
0.5536799671189344
 30
0.0
 10
23.43981622073344
 20
0.5914059302528262
 30
0.0
 10
23.57243694443922
 20
0.639061485930163
 30
0.0
 10
23.74553696819531
 20
0.6945489210483498
 30
0.0
 10
23.91364413418945
 20
0.7373657805083242
 30
0.0
 10
24.08397664364031
 20
0.7672143102299098
 30
0.0
 10
24.2133658708411
 20
0.7833664720724993
 30
0.0
 10
24.34357117701863
 20
0.7926330611425829
 30
0.0
 10
24.47455358987831
 20
0.7951073995018262
 30
0.0
 10
24.5623175116665
 20
0.7906845935608878
 30
0.0
 10
24.60624999999999
 20
0.7884706442928673
 30
0.0
1001
PE_URL
1000

  0
SPLINE
  5
BA
330
1F
100
AcDbEntity
  8
0
  6
Continuous
 62
     1
370
    25
100
AcDbSpline
210
0.0
220
0.0
230
1.0
 70
     8
 71
     3
 72
    10
 73
     6
 74
     0
 42
0.000000001
 43
0.00000001
 40
0.0
 40
0.0
 40
0.0
 40
0.0
 40
0.4999999999999998
 40
0.4999999999999998
 40
1.0
 40
1.0
 40
1.0
 40
1.0
 10
24.91504357312279
 20
0.6865879672165455
 30
0.0
 10
24.92630913406296
 20
0.6199186467491931
 30
0.0
 10
24.92467584626584
 20
0.5475788240011167
 30
0.0
 10
24.86895229067248
 20
0.4243498863252121
 30
0.0
 10
24.81426653401
 20
0.3790710383202879
 30
0.0
 10
24.75432476607277
 20
0.3553090268682854
 30
0.0
1001
PE_URL
1000

  0
LINE
  5
BB
330
1F
100
AcDbEntity
  8
중심선
 62
     1
100
AcDbLine
 10
-26.89999999999999
 20
-0.0000000000000018
 30
0.0
 11
26.89999999999999
 21
0.0000000000000018
 31
0.0
  0
LINE
  5
BC
330
1F
100
AcDbEntity
  8
참조1
100
AcDbLine
 10
0.0
 20
0.0000000000000017
 30
0.0
 11
0.0000000000000107
 21
-39.99999999999999
 31
0.0
  0
LINE
  5
BD
330
1F
100
AcDbEntity
  8
참조1
100
AcDbLine
 10
25.39999999999999
 20
0.0000000000000017
 30
0.0
 11
25.39999999999999
 21
0.6309734778393081
 31
0.0
  0
LINE
  5
BE
330
1F
100
AcDbEntity
  8
참조1
100
AcDbLine
 10
0.0000000000000107
 20
-39.99999999999999
 30
0.0
 11
-15.15885681430868
 21
-39.99999999999999
 31
0.0
  0
CIRCLE
  5
BF
330
1F
100
AcDbEntity
  8
해칭선
100
AcDbCircle
 10
0.0
 20
0.0
 30
0.0
 40
3.000000000000001
  0
INSERT
  5
C0
330
1F
100
AcDbEntity
  8
0
  6
Continuous
 62
     7
100
AcDbBlockReference
 66
     1
  2
블럭10
 10
-13.9402729321252
 20
-52.04717430164392
 30
0.0
  0
ATTRIB
  5
C1
330
C0
100
AcDbEntity
  8
FORMAT
 62
     2
100
AcDbText
 10
-23.12156822086648
 20
-49.97180738881173
 30
0.0
 40
4.233333333333333
  1
E2008004 [ 2 FLUTE ]
 41
0.75
  7
SLDTEXTSTYLE0
 11
-23.12156822086648
 21
-52.0884740554784
 31
0.0
100
AcDbAttribute
  2
AUTOATTR0
 70
     0
 74
     1
  0
SEQEND
  5
C2
330
C0
100
AcDbEntity
  8
0
  6
Continuous
 62
     7
  0
HATCH
  5
C3
330
1F
100
AcDbEntity
  8
중심선
100
AcDbHatch
 10
0.0
 20
0.0
 30
0.0
210
0.0
220
0.0
230
1.0
  2
SOLID
 70
     1
 71
     0
 91
        1
 92
        0
 93
        4
 72
     1
 10
-8.22536362774435
 20
-35.79999999999999
 11
-11.67163887158163
 21
-35.79999999999999
 72
     1
 10
-11.67163887158163
 20
-35.79999999999999
 11
-13.79986873078565
 21
-38.33632558057259
 72
     1
 10
-13.79986873078565
 20
-38.33632558057259
 11
-10.35356040183523
 21
-38.33628615127009
 72
     1
 10
-10.35356040183523
 20
-38.33628615127009
 11
-8.22536362774435
 21
-35.79999999999999
 97
        0
 75
     0
 76
     1
 98
        1
 10
14.09411934298443
 20
-0.0010749287238914
  0
HATCH
  5
C4
330
1F
100
AcDbEntity
  8
중심선
100
AcDbHatch
 10
0.0
 20
0.0
 30
0.0
210
0.0
220
0.0
230
1.0
  2
SOLID
 70
     1
 71
     0
 91
        1
 92
        0
 93
        4
 72
     1
 10
-3.212599636708369
 20
-35.80000000000002
 11
-6.658874880545628
 21
-35.79999999999997
 72
     1
 10
-6.658874880545628
 20
-35.79999999999997
 11
-11.19001288890307
 21
-41.20000000000001
 72
     1
 10
-11.19001288890307
 20
-41.20000000000001
 11
-7.743737645065789
 21
-41.20000000000001
 72
     1
 10
-7.743737645065789
 20
-41.20000000000001
 11
-3.212599636708369
 21
-35.80000000000002
 97
        0
 75
     0
 76
     1
 98
        1
 10
14.09411934298443
 20
-0.0010749287238914
  0
HATCH
  5
C5
330
1F
100
AcDbEntity
  8
중심선
100
AcDbHatch
 10
0.0
 20
0.0
 30
0.0
210
0.0
220
0.0
230
1.0
  2
SOLID
 70
     1
 71
     0
 91
        1
 92
        0
 93
        4
 72
     1
 10
1.800164354327501
 20
-35.80000000000002
 11
-1.64611088950962
 21
-35.79999999999999
 72
     1
 10
-1.64611088950962
 20
-35.79999999999999
 11
-8.694547791398868
 21
-44.20000000000001
 72
     1
 10
-8.694547791398868
 20
-44.20000000000001
 11
-5.24827254756158
 21
-44.20000000000001
 72
     1
 10
-5.24827254756158
 20
-44.20000000000001
 11
1.800164354327501
 21
-35.80000000000002
 97
        0
 75
     0
 76
     1
 98
        1
 10
14.09411934298443
 20
-0.0010749287238914
  0
HATCH
  5
C6
330
1F
100
AcDbEntity
  8
중심선
100
AcDbHatch
 10
0.0
 20
0.0
 30
0.0
210
0.0
220
0.0
230
1.0
  2
SOLID
 70
     1
 71
     0
 91
        1
 92
        0
 93
        6
 72
     3
 10
6.600054785339697
 20
-40.00000000005127
 11
3.960054785062283
 21
1.540882976769353E-10
 40
0.3939339440162628
 50
17.09539180608439
 51
320.0019657685081
 73
     0
 72
     1
 10
8.283054441040292
 20
-38.5878940046383
 11
10.58835631474133
 21
-36.6535672945904
 72
     3
 10
6.600054785286851
 20
-40.00000000000014
 11
6.600054785286829
 21
-1.278976924368180E-13
 40
0.636358354079598
 50
39.99873849337381
 51
368.4976242363724
 73
     1
 72
     1
 10
13.02538727718746
 20
-39.03999999993002
 11
5.280122092122772
 21
-39.03999999992999
 72
     1
 10
5.280122092122772
 20
-39.03999999992999
 11
5.28009704767684
 21
-40.95999999992991
 72
     1
 10
5.28009704767684
 20
-40.95999999992991
 11
9.721476817148876
 21
-40.95999999992988
 97
        0
 75
     0
 76
     1
 98
        1
 10
14.09411934298443
 20
-0.0010749287238914
  0
DIMENSION
  5
C7
330
1F
100
AcDbEntity
  8
치수문자_일반주서
100
AcDbDimension
  2
_D
 10
23.01875
 20
10.38125
 30
0.0
 11
40.02499999999999
 21
10.38125
 31
0.0
 70
   160
  1
<>
 71
     2
 42
2.381249999999994
  3
SLDDIMSTYLE0
100
AcDbAlignedDimension
 13
25.39999999999999
 23
0.7937500000000052
 33
0.0
 14
23.01875
 24
0.5255173791887409
 34
0.0
100
AcDbRotatedDimension
1001
PE_URL
1000

1001
ACAD
1000
DSTYLE
1002
{
1070
   171
1070
     8
1070
   273
1070
     7
1070
    41
1040
2.5
1070
   140
1040
2.5
1002
}
  0
DIMENSION
  5
DD
330
1F
100
AcDbEntity
  8
치수문자_일반주서
100
AcDbDimension
  2
_D_1
 10
-25.39999999999998
 20
18.38125
 30
0.0
 11
0.2223325356664301
 21
18.38125
 31
0.0
 70
   160
  1
<>
 71
     2
 42
50.79999999999997
  3
SLDDIMSTYLE0
100
AcDbAlignedDimension
 13
25.39999999999999
 23
0.7937500000000052
 33
0.0
 14
-25.39999999999998
 24
0.7937500000000062
 34
0.0
100
AcDbRotatedDimension
1001
PE_URL
1000

1001
ACAD
1000
DSTYLE
1002
{
1070
   171
1070
     8
1070
   273
1070
     7
1070
    41
1040
2.5
1070
   140
1040
2.5
1002
}
  0
DIMENSION
  5
F1
330
1F
100
AcDbEntity
  8
치수문자_일반주서
100
AcDbDimension
  2
_D_2
 10
-33.40000000000001
 20
-2.381250000000065
 30
0.0
 11
-33.40000000000006
 21
17.63124999999998
 31
0.0
 70
   160
  1
%%c<>
 71
     2
 42
4.762500000000002
 52
-270.0
  3
SLDDIMSTYLE0
100
AcDbAlignedDimension
 13
-16.09411934298441
 23
2.381250000000001
 33
0.0
 14
-16.09411934298441
 24
-2.381250000000001
 34
0.0
 50
90.0000000000002
100
AcDbRotatedDimension
1001
PE_URL
1000

1001
ACAD
1000
DSTYLE
1002
{
1070
   171
1070
     8
1070
   273
1070
     7
1070
    41
1040
2.5
1070
   140
1040
2.5
1002
}
  0
DIMENSION
  5
105
330
1F
100
AcDbEntity
  8
치수문자_일반주서
100
AcDbDimension
  2
_D_3
 10
54.52447714815232
 20
-0.7937499999998838
 30
0.0
 11
54.52447714815225
 21
15.41875000000012
 31
0.0
 70
   160
  1
%%c<>
 71
     2
 42
1.5875
 52
-270.0
  3
SLDDIMSTYLE0
100
AcDbAlignedDimension
 13
25.39999999999999
 23
0.7937500000000052
 33
0.0
 14
25.39999999999999
 24
-0.7937499999999947
 34
0.0
 50
90.0000000000002
100
AcDbRotatedDimension
1001
PE_URL
1000

1001
ACAD
1000
DSTYLE
1002
{
1070
   171
1070
     8
1070
   273
1070
     7
1070
    41
1040
2.5
1070
   140
1040
2.5
1002
}
  0
LINE
  5
119
330
1F
100
AcDbEntity
  8
참조1
100
AcDbLine
 10
82.81348381534556
 20
7.440000000000005
 30
0.0
 11
82.81348381534556
 21
-7.44
 31
0.0
  0
LINE
  5
11A
330
1F
100
AcDbEntity
  8
참조1
100
AcDbLine
 10
95.51348381534558
 20
5.440000000000005
 30
0.0
 11
82.81348381534556
 21
5.440000000000005
 31
0.0
  0
SOLID
  5
11B
330
1F
100
AcDbEntity
  8
참조1
100
AcDbTrace
 10
82.81348381534556
 20
5.440000000000005
 30
0.0
 11
89.16348381534556
 21
4.424000000000005
 31
0.0
 12
89.16348381534556
 22
6.456000000000005
 32
0.0
 13
89.16348381534556
 23
6.456000000000005
 33
0.0
  0
LINE
  5
11C
330
1F
100
AcDbEntity
  8
참조1
100
AcDbLine
 10
95.51348381534558
 20
-5.44
 30
0.0
 11
82.81348381534556
 21
-5.44
 31
0.0
  0
SOLID
  5
11D
330
1F
100
AcDbEntity
  8
참조1
100
AcDbTrace
 10
82.81348381534556
 20
-5.44
 30
0.0
 11
89.16348381534556
 21
-6.456
 31
0.0
 12
89.16348381534556
 22
-4.424
 32
0.0
 13
89.16348381534556
 23
-4.424
 33
0.0
  0
MTEXT
  5
11E
330
1F
100
AcDbEntity
  8
참조1
100
AcDbMText
 10
92.21097390781586
 20
10.98821664464994
 30
0.0
 40
3.5
 41
0.0
 71
     1
 72
     1
  1
A
  7
SLDTEXTSTYLE0
 73
     1
 44
1.0
  0
MTEXT
  5
11F
330
1F
100
AcDbEntity
  8
참조1
100
AcDbMText
 10
92.21097390781586
 20
0.1082166446499337
 30
0.0
 40
3.5
 41
0.0
 71
     1
 72
     1
  1
A
  7
SLDTEXTSTYLE0
 73
     1
 44
1.0
  0
INSERT
  5
126
330
1F
100
AcDbEntity
  8
해칭선
100
AcDbBlockReference
  2
SW_DOWELSYMBOL_0
 10
0.0
 20
0.0
 30
0.0
  0
LINE
  5
217
330
1F
100
AcDbEntity
  8
외형선
  6
Continuous
370
    15
100
AcDbLine
 10
-16.09411934298441
 20
2.38125
 30
0.0
 11
-22.01874999999999
 21
0.7937499999999993
 31
0.0
  0
LINE
  5
218
330
1F
100
AcDbEntity
  8
외형선
  6
Continuous
370
    15
100
AcDbLine
 10
-22.01874999999999
 20
-0.7937500000000011
 30
0.0
 11
-16.09411934298441
 21
-2.381250000000001
 31
0.0
  0
LINE
  5
219
330
1F
100
AcDbEntity
  8
외형선
  6
Continuous
370
    15
100
AcDbLine
 10
-22.21851746417774
 20
-0.7937500000000011
 30
0.0
 11
-22.01874999999999
 21
-0.7937500000000011
 31
0.0
  0
LINE
  5
21A
330
1F
100
AcDbEntity
  8
외형선
  6
Continuous
370
    15
100
AcDbLine
 10
-22.01874999999999
 20
0.7937499999999993
 30
0.0
 11
-22.21851746417774
 21
0.7937499999999993
 31
0.0
  0
LINE
  5
21B
330
1F
100
AcDbEntity
  8
0
  6
Continuous
 62
     1
370
    25
100
AcDbLine
 10
-24.44696839916733
 20
0.7937499999999975
 30
0.0
 11
-24.60624999999999
 21
0.7937499999999975
 31
0.0
1001
PE_URL
1000

  0
ARC
  5
21C
330
1F
100
AcDbEntity
  8
0
  6
Continuous
 62
     1
370
    25
100
AcDbCircle
 10
-24.60624999999999
 20
-0.0000000000000018
 30
0.0
 40
0.7937500000000002
100
AcDbArc
 50
90.00000000000078
 51
180.0
1001
PE_URL
1000

  0
ARC
  5
21D
330
1F
100
AcDbEntity
  8
0
  6
Continuous
 62
     1
370
    25
100
AcDbCircle
 10
-24.60624999999999
 20
-0.0000000000000018
 30
0.0
 40
0.7937500000000002
100
AcDbArc
 50
180.0
 51
270.0
1001
PE_URL
1000

  0
LINE
  5
21E
330
1F
100
AcDbEntity
  8
0
  6
Continuous
 62
     1
370
    25
100
AcDbLine
 10
-24.60624999999999
 20
-0.7937500000000011
 30
0.0
 11
-24.44696839916733
 21
-0.7937500000000011
 31
0.0
1001
PE_URL
1000

  0
LINE
  5
21F
330
1F
100
AcDbEntity
  8
외형선
  6
Continuous
370
    15
100
AcDbLine
 10
-16.09411934298441
 20
-2.381250000000001
 30
0.0
 11
-16.09411934298441
 21
2.38125
 31
0.0
  0
LINE
  5
220
330
1F
100
AcDbEntity
  8
외형선
  6
Continuous
370
    15
100
AcDbLine
 10
-22.01874999999999
 20
-0.7937500000000011
 30
0.0
 11
-22.01874999999999
 21
0.7937499999999993
 31
0.0
  0
SPLINE
  5
221
330
1F
100
AcDbEntity
  8
외형선
  6
Continuous
370
    15
100
AcDbSpline
210
0.0
220
0.0
230
1.0
 70
    24
 71
     3
 72
     9
 73
     5
 74
     0
 42
0.000000001
 43
0.00000001
 40
0.0
 40
0.0
 40
0.0
 40
0.0
 40
0.2806570100834007
 40
1.0
 40
1.0
 40
1.0
 40
1.0
 10
-23.01874999999999
 20
0.4021928005655084
 30
0.0
 10
-23.01874999999999
 20
0.4095117199711069
 30
0.0
 10
-23.01874999999999
 20
0.435589527197175
 30
0.0
 10
-23.01874999999999
 20
0.4925383074466598
 30
0.0
 10
-23.01874999999999
 20
0.5335040133034266
 30
0.0
  0
SPLINE
  5
222
330
1F
100
AcDbEntity
  8
외형선
  6
Continuous
370
    15
100
AcDbSpline
210
0.0
220
0.0
230
1.0
 70
     8
 71
     3
 72
    12
 73
     8
 74
     0
 42
0.000000001
 43
0.00000001
 40
0.0
 40
0.0
 40
0.0
 40
0.0
 40
0.25
 40
0.25
 40
0.5
 40
0.5
 40
1.0
 40
1.0
 40
1.0
 40
1.0
 10
-23.01874999999986
 20
0.5335040133034177
 30
0.0
 10
-22.95158255660306
 20
0.5292829843896278
 30
0.0
 10
-22.88416053505983
 20
0.5231588062250658
 30
0.0
 10
-22.7509364811816
 20
0.5073284436153358
 30
0.0
 10
-22.68602298912137
 20
0.4976826179093479
 30
0.0
 10
-22.48716708569689
 20
0.4634364835370661
 30
0.0
 10
-22.35060093988832
 20
0.4334173829062813
 30
0.0
 10
-22.21851746417774
 20
0.3980961913376433
 30
0.0
  0
SPLINE
  5
223
330
1F
100
AcDbEntity
  8
외형선
  6
Continuous
370
    15
100
AcDbSpline
210
0.0
220
0.0
230
1.0
 70
     8
 71
     3
 72
    12
 73
     8
 74
     0
 42
0.000000001
 43
0.00000001
 40
0.0
 40
0.0
 40
0.0
 40
0.0
 40
0.4999999999999999
 40
0.4999999999999999
 40
0.75
 40
0.75
 40
1.0
 40
1.0
 40
1.0
 40
1.0
 10
-22.21867910737135
 20
-0.0396664758613881
 30
0.0
 10
-22.35073926667017
 20
0.0368982862871707
 30
0.0
 10
-22.48727686448859
 20
0.1148701154822138
 30
0.0
 10
-22.68608977680332
 20
0.2266742894184439
 30
0.0
 10
-22.75099049794437
 20
0.2630284604567095
 30
0.0
 10
-22.88418803687145
 20
0.3342587551474683
 30
0.0
 10
-22.95159625627293
 20
0.3689613955482525
 30
0.0
 10
-23.01874999998475
 20
0.4021928005579873
 30
0.0
  0
LINE
  5
224
330
1F
100
AcDbEntity
  8
외형선
  6
Continuous
370
    15
100
AcDbLine
 10
-22.21851746417774
 20
-0.765870073995476
 30
0.0
 11
-22.21851746417774
 21
-0.7937500000000011
 31
0.0
  0
SPLINE
  5
225
330
1F
100
AcDbEntity
  8
외형선
  6
Continuous
370
    15
100
AcDbSpline
210
0.0
220
0.0
230
1.0
 70
     8
 71
     3
 72
    12
 73
     8
 74
     0
 42
0.000000001
 43
0.00000001
 40
0.0
 40
0.0
 40
0.0
 40
0.0
 40
0.25
 40
0.25
 40
0.5
 40
0.5
 40
1.0
 40
1.0
 40
1.0
 40
1.0
 10
-23.01874999999997
 20
-0.525517379188706
 30
0.0
 10
-22.95158255660317
 20
-0.5544113140830191
 30
0.0
 10
-22.88416053505993
 20
-0.5814713992529619
 30
0.0
 10
-22.75093648118168
 20
-0.6311011442298256
 30
0.0
 10
-22.68602298912143
 20
-0.653589521018942
 30
0.0
 10
-22.48716708569693
 20
-0.7144408115793013
 30
0.0
 10
-22.35060093988834
 20
-0.7457470462235563
 30
0.0
 10
-22.21851746417774
 20
-0.7658849477612595
 30
0.0
  0
LINE
  5
226
330
1F
100
AcDbEntity
  8
외형선
  6
Continuous
370
    15
100
AcDbLine
 10
-23.01874999999999
 20
-0.5255173791886971
 30
0.0
 11
-23.01874999999999
 21
0.402192800565528
 31
0.0
  0
SPLINE
  5
227
330
1F
100
AcDbEntity
  8
외형선
  6
Continuous
370
    15
100
AcDbSpline
210
0.0
220
0.0
230
1.0
 70
     8
 71
     3
 72
    12
 73
     8
 74
     0
 42
0.000000001
 43
0.00000001
 40
0.0
 40
0.0
 40
0.0
 40
0.0
 40
0.25
 40
0.25
 40
0.5
 40
0.5
 40
1.0
 40
1.0
 40
1.0
 40
1.0
 10
-23.01874999999997
 20
0.5255173791887024
 30
0.0
 10
-22.95158255660317
 20
0.5544113140830156
 30
0.0
 10
-22.88416053505993
 20
0.5814713992529583
 30
0.0
 10
-22.75093648118168
 20
0.631101144229822
 30
0.0
 10
-22.68602298912143
 20
0.6535895210189384
 30
0.0
 10
-22.48716708569693
 20
0.7144408115792977
 30
0.0
 10
-22.35060093988834
 20
0.7457470462235527
 30
0.0
 10
-22.21851746417774
 20
0.7658849477612559
 30
0.0
  0
LINE
  5
228
330
1F
100
AcDbEntity
  8
외형선
  6
Continuous
370
    15
100
AcDbLine
 10
-22.21851746417774
 20
0.7937499999999993
 30
0.0
 11
-22.21851746417774
 21
-0.0401821453872877
 31
0.0
  0
SPLINE
  5
229
330
1F
100
AcDbEntity
  8
0
  6
Continuous
 62
     1
370
    25
100
AcDbSpline
210
0.0
220
0.0
230
1.0
 70
     8
 71
     3
 72
    16
 73
    12
 74
     0
 42
0.000000001
 43
0.00000001
 40
0.0
 40
0.0
 40
0.0
 40
0.0
 40
0.1249999999999998
 40
0.1249999999999998
 40
0.2499999999999995
 40
0.2499999999999995
 40
0.4999999999999997
 40
0.4999999999999997
 40
0.7499999999999998
 40
0.7499999999999998
 40
1.0
 40
1.0
 40
1.0
 40
1.0
 10
-24.60624999999999
 20
0.3318054003195634
 30
0.0
 10
-24.53945687155613
 20
0.29699564429548
 30
0.0
 10
-24.47258232334173
 20
0.2610070029392357
 30
0.0
 10
-24.34074740264052
 20
0.1878192630144309
 30
0.0
 10
-24.27628155013284
 20
0.1507219604823131
 30
0.0
 10
-24.07789057098104
 20
0.0373134066425909
 30
0.0
 10
-23.94230245557027
 20
-0.0404996520871457
 30
0.0
 10
-23.68107612795533
 20
-0.1910038476017757
 30
0.0
 10
-23.54756026535438
 20
-0.2651902513771791
 30
0.0
 10
-23.28132463368828
 20
-0.4040167872110292
 30
0.0
 10
-23.15222794724981
 20
-0.4680981456639248
 30
0.0
 10
-23.01874999999997
 20
-0.525517379188706
 30
0.0
1001
PE_URL
1000

  0
SPLINE
  5
22A
330
1F
100
AcDbEntity
  8
0
  6
Continuous
 62
     1
370
    25
100
AcDbSpline
210
0.0
220
0.0
230
1.0
 70
     8
 71
     3
 72
    22
 73
    18
 74
     0
 42
0.000000001
 43
0.00000001
 40
0.0
 40
0.0
 40
0.0
 40
0.0
 40
0.125
 40
0.125
 40
0.25
 40
0.25
 40
0.375
 40
0.375
 40
0.5
 40
0.5
 40
0.625
 40
0.625
 40
0.75
 40
0.75
 40
0.875
 40
0.875
 40
1.0
 40
1.0
 40
1.0
 40
1.0
 10
-25.18750762876
 20
-0.0833500437368997
 30
0.0
 10
-25.09638742305758
 20
-0.1185505987181905
 30
0.0
 10
-25.00471394790548
 20
-0.1532705138625161
 30
0.0
 10
-24.82554620655899
 20
-0.2197701704096975
 30
0.0
 10
-24.73644802160848
 20
-0.2517639896093211
 30
0.0
 10
-24.55418908946373
 20
-0.3125417761183815
 30
0.0
 10
-24.46252915398183
 20
-0.341130167545348
 30
0.0
 10
-24.28343153952
 20
-0.3931255379412502
 30
0.0
 10
-24.19426760206501
 20
-0.4167289815280366
 30
0.0
 10
-24.01199090455567
 20
-0.4585519949927033
 30
0.0
 10
-23.92034489364121
 20
-0.4766206138113827
 30
0.0
 10
-23.74131811817134
 20
-0.5061346869416923
 30
0.0
 10
-23.65208658524504
 20
-0.5177197315365376
 30
0.0
 10
-23.46979287799218
 20
-0.534165962123577
 30
0.0
 10
-23.37816117634524
 20
-0.5389420214998726
 30
0.0
 10
-23.19920595101572
 20
-0.5414506174781675
 30
0.0
 10
-23.10990498056985
 20
-0.5392325000399047
 30
0.0
 10
-23.01874999999986
 20
-0.5335040133034212
 30
0.0
1001
PE_URL
1000

  0
SPLINE
  5
22B
330
1F
100
AcDbEntity
  8
0
  6
Continuous
 62
     1
370
    25
100
AcDbSpline
210
0.0
220
0.0
230
1.0
 70
     8
 71
     3
 72
    18
 73
    14
 74
     0
 42
0.000000001
 43
0.00000001
 40
0.0
 40
0.0
 40
0.0
 40
0.0
 40
0.2500000000000005
 40
0.2500000000000005
 40
0.500000000000001
 40
0.500000000000001
 40
0.6250000000000008
 40
0.6250000000000008
 40
0.7500000000000006
 40
0.7500000000000006
 40
0.8750000000000003
 40
0.8750000000000003
 40
1.0
 40
1.0
 40
1.0
 40
1.0
 10
-24.60624999999999
 20
0.331805400319606
 30
0.0
 10
-24.69456756378585
 20
0.3778327824718133
 30
0.0
 10
-24.78099175824961
 20
0.4153638588685808
 30
0.0
 10
-24.95293128233759
 20
0.4530848913587757
 30
0.0
 10
-25.0392430639059
 20
0.452040115500953
 30
0.0
 10
-25.15601788385029
 20
0.3887418509727585
 30
0.0
 10
-25.19220840655999
 20
0.3568244623680439
 30
0.0
 10
-25.24724748764703
 20
0.2721039480785024
 30
0.0
 10
-25.26383151461625
 20
0.221877005807162
 30
0.0
 10
-25.27220552721125
 20
0.1236993027694542
 30
0.0
 10
-25.26467020148714
 20
0.0774106442533871
 30
0.0
 10
-25.23551192743659
 20
-0.0073585254712523
 30
0.0
 10
-25.21391821735921
 20
-0.0462716933615823
 30
0.0
 10
-25.18750762876346
 20
-0.0833500437355603
 30
0.0
1001
PE_URL
1000

  0
SPLINE
  5
22C
330
1F
100
AcDbEntity
  8
0
  6
Continuous
 62
     1
370
    25
100
AcDbSpline
210
0.0
220
0.0
230
1.0
 70
     8
 71
     3
 72
    17
 73
    13
 74
     0
 42
0.000000001
 43
0.00000001
 40
0.0
 40
0.0
 40
0.0
 40
0.0
 40
0.0971368923714781
 40
0.1945246003179722
 40
0.2926545039852712
 40
0.3910397695712771
 40
0.5674506729595805
 40
0.6560528701650357
 40
0.7450264335644222
 40
0.8361069574793233
 40
0.9273936749139251
 40
1.0
 40
1.0
 40
1.0
 40
1.0
 10
-23.01874999999989
 20
0.4021928005654605
 30
0.0
 10
-23.06506520028341
 20
0.4247281070294449
 30
0.0
 10
-23.15781519056872
 20
0.4698569080022548
 30
0.0
 10
-23.29665682589857
 20
0.5327847032578692
 30
0.0
 10
-23.43666687642899
 20
0.5899531491359795
 30
0.0
 10
-23.61463044463285
 20
0.6543665639222009
 30
0.0
 10
-23.78733580575195
 20
0.7065058434486815
 30
0.0
 10
-23.95582239567373
 20
0.7447106284361062
 30
0.0
 10
-24.0839698168863
 20
0.7672647359091336
 30
0.0
 10
-24.21337321280644
 20
0.7832044708826817
 30
0.0
 10
-24.33439199833943
 20
0.7925267715087312
 30
0.0
 10
-24.41240695894766
 20
0.7929571480049837
 30
0.0
 10
-24.44696839916733
 20
0.7931478092759932
 30
0.0
1001
PE_URL
1000

  0
SPLINE
  5
22D
330
1F
100
AcDbEntity
  8
0
  6
Continuous
 62
     1
370
    25
100
AcDbSpline
210
0.0
220
0.0
230
1.0
 70
     8
 71
     3
 72
     8
 73
     4
 74
     0
 42
0.000000001
 43
0.00000001
 40
0.0
 40
0.0
 40
0.0
 40
0.0
 40
1.0
 40
1.0
 40
1.0
 40
1.0
 10
-25.18750762876346
 20
-0.0833500437355621
 30
0.0
 10
-25.22396960831869
 20
-0.1053769935627944
 30
0.0
 10
-25.24416675377477
 20
-0.1524478564115679
 30
0.0
 10
-25.24509395390986
 20
-0.2055760650343252
 30
0.0
1001
PE_URL
1000

  0
ARC
  5
22E
330
1F
100
AcDbEntity
  8
0
  6
Continuous
 62
     1
370
    25
100
AcDbCircle
 10
-25.02023833881276
 20
0.137982982248877
 30
0.0
 40
0.4106006169133349
100
AcDbArc
 50
203.8413887152748
 51
236.7956944502061
1001
PE_URL
1000

  0
ARC
  5
22F
330
1F
100
AcDbEntity
  8
0
  6
Continuous
 62
     1
370
    25
100
AcDbCircle
 10
-24.68616425058232
 20
-0.0147437392166321
 30
0.0
 40
0.7097608125160048
100
AcDbArc
 50
181.0689129021425
 51
251.1873992280897
1001
PE_URL
1000

  0
SPLINE
  5
230
330
1F
100
AcDbEntity
  8
0
  6
Continuous
 62
     1
370
    25
100
AcDbSpline
210
0.0
220
0.0
230
1.0
 70
     8
 71
     3
 72
     8
 73
     4
 74
     0
 42
0.000000001
 43
0.00000001
 40
0.0
 40
0.0
 40
0.0
 40
0.0
 40
1.0
 40
1.0
 40
1.0
 40
1.0
 10
-24.91504357312279
 20
-0.6865879672165427
 30
0.0
 10
-24.81693449399107
 20
-0.7464542051279484
 30
0.0
 10
-24.71277157043755
 20
-0.781434214561008
 30
0.0
 10
-24.60624999999999
 20
-0.7884706442928646
 30
0.0
1001
PE_URL
1000

  0
LINE
  5
231
330
1F
100
AcDbEntity
  8
0
  6
Continuous
 62
     1
370
    25
100
AcDbLine
 10
-23.30588835681796
 20
0.5355022017806554
 30
0.0
 11
-23.01874999999986
 21
0.5335040133034177
 31
0.0
1001
PE_URL
1000

  0
SPLINE
  5
232
330
1F
100
AcDbEntity
  8
외형선
  6
Continuous
370
    15
100
AcDbSpline
210
0.0
220
0.0
230
1.0
 70
    24
 71
     3
 72
    10
 73
     6
 74
     0
 42
0.000000001
 43
0.00000001
 40
0.0
 40
0.0
 40
0.0
 40
0.0
 40
0.2462136511222307
 40
0.6179157478283148
 40
1.0
 40
1.0
 40
1.0
 40
1.0
 10
-23.01874999999999
 20
0.4021928005655084
 30
0.0
 10
-23.01874999999999
 20
0.4099106390698335
 30
0.0
 10
-23.01874999999999
 20
0.4292798898375398
 30
0.0
 10
-23.01874999999999
 20
0.47321340022126
 30
0.0
 10
-23.01874999999999
 20
0.5132234515993126
 30
0.0
 10
-23.01874999999999
 20
0.5335040133034266
 30
0.0
  0
SPLINE
  5
233
330
1F
100
AcDbEntity
  8
0
  6
Continuous
 62
     1
370
    25
100
AcDbSpline
210
0.0
220
0.0
230
1.0
 70
     8
 71
     3
 72
     8
 73
     4
 74
     0
 42
0.000000001
 43
0.00000001
 40
0.0
 40
0.0
 40
0.0
 40
0.0
 40
1.0
 40
1.0
 40
1.0
 40
1.0
 10
-24.75432476607293
 20
-0.355309026868019
 30
0.0
 10
-24.91567636104768
 20
-0.3104695672277362
 30
0.0
 10
-25.08018303455575
 20
-0.259944481225622
 30
0.0
 10
-25.24509395390774
 20
-0.2055760650339256
 30
0.0
1001
PE_URL
1000

  0
SPLINE
  5
234
330
1F
100
AcDbEntity
  8
0
  6
Continuous
 62
     1
370
    25
100
AcDbSpline
210
0.0
220
0.0
230
1.0
 70
     8
 71
     3
 72
    16
 73
    12
 74
     0
 42
0.000000001
 43
0.00000001
 40
0.0
 40
0.0
 40
0.0
 40
0.0
 40
0.1005102033822258
 40
0.2085979303184377
 40
0.3053252417111073
 40
0.4997453550587267
 40
0.5974932258193921
 40
0.6975558392552931
 40
0.7978449804006096
 40
0.8988061055254454
 40
1.0
 40
1.0
 40
1.0
 40
1.0
 10
-23.30588835681796
 20
-0.535502201780659
 30
0.0
 10
-23.34943660215054
 20
-0.5536799671189314
 30
0.0
 10
-23.43981622073344
 20
-0.5914059302528223
 30
0.0
 10
-23.57243694443922
 20
-0.63906148593016
 30
0.0
 10
-23.74553696819531
 20
-0.6945489210483462
 30
0.0
 10
-23.91364413418945
 20
-0.7373657805083198
 30
0.0
 10
-24.08397664364031
 20
-0.7672143102299067
 30
0.0
 10
-24.2133658708411
 20
-0.7833664720724958
 30
0.0
 10
-24.34357117701863
 20
-0.7926330611425794
 30
0.0
 10
-24.47455358987831
 20
-0.7951073995018234
 30
0.0
 10
-24.5623175116665
 20
-0.7906845935608846
 30
0.0
 10
-24.60624999999999
 20
-0.7884706442928646
 30
0.0
1001
PE_URL
1000

  0
SPLINE
  5
235
330
1F
100
AcDbEntity
  8
0
  6
Continuous
 62
     1
370
    25
100
AcDbSpline
210
0.0
220
0.0
230
1.0
 70
     8
 71
     3
 72
    10
 73
     6
 74
     0
 42
0.000000001
 43
0.00000001
 40
0.0
 40
0.0
 40
0.0
 40
0.0
 40
0.4999999999999998
 40
0.4999999999999998
 40
1.0
 40
1.0
 40
1.0
 40
1.0
 10
-24.91504357312279
 20
-0.6865879672165427
 30
0.0
 10
-24.92630913406296
 20
-0.6199186467491895
 30
0.0
 10
-24.92467584626584
 20
-0.5475788240011124
 30
0.0
 10
-24.86895229067248
 20
-0.4243498863252082
 30
0.0
 10
-24.81426653401
 20
-0.3790710383202835
 30
0.0
 10
-24.75432476607277
 20
-0.3553090268682819
 30
0.0
1001
PE_URL
1000

  0
ENDSEC
  0
SECTION
  2
OBJECTS
  0
DICTIONARY
  5
C
330
0
100
AcDbDictionary
281
     1
  3
ACAD_DETAILVIEWSTYLE
350
14E
  3
ACAD_GROUP
350
D
  3
ACAD_IMAGE_VARS
350
27C
  3
ACAD_LAYOUT
350
1A
  3
ACAD_MLINESTYLE
350
17
  3
ACAD_PLOTSETTINGS
350
19
  3
ACAD_PLOTSTYLENAME
350
E
  3
ACAD_SCALELIST
350
47
  3
ACAD_SECTIONVIEWSTYLE
350
14F
  3
AcDbVariableDictionary
350
149
  3
APPDATA
350
148
  3
DWGPROPS
350
27D
  0
DICTIONARY
  5
14E
102
{ACAD_REACTORS
330
C
102
}
330
C
100
AcDbDictionary
281
     1
  0
DICTIONARY
  5
D
102
{ACAD_REACTORS
330
C
102
}
330
C
100
AcDbDictionary
281
     1
  0
RASTERVARIABLES
  5
27C
102
{ACAD_REACTORS
330
C
102
}
330
C
100
AcDbRasterVariables
 90
        0
 70
     1
 71
     1
 72
     1
  0
DICTIONARY
  5
1A
102
{ACAD_REACTORS
330
C
102
}
330
C
100
AcDbDictionary
281
     1
  3
Layout1
350
1E
  3
Layout2
350
26
  3
Model
350
22
  0
DICTIONARY
  5
17
102
{ACAD_REACTORS
330
C
102
}
330
C
100
AcDbDictionary
281
     1
  3
Standard
350
18
  0
DICTIONARY
  5
19
102
{ACAD_REACTORS
330
C
102
}
330
C
100
AcDbDictionary
281
     1
  0
ACDBDICTIONARYWDFLT
  5
E
102
{ACAD_REACTORS
330
C
102
}
330
C
100
AcDbDictionary
281
     1
  3
Normal
350
F
100
AcDbDictionaryWithDefault
340
F
  0
DICTIONARY
  5
47
102
{ACAD_REACTORS
330
C
102
}
330
C
100
AcDbDictionary
281
     1
  3
A0
350
48
  3
A1
350
49
  3
A2
350
4A
  3
A3
350
4B
  3
A4
350
4C
  3
A5
350
4D
  3
A6
350
4E
  3
A7
350
4F
  3
A8
350
50
  3
A9
350
51
  3
B0
350
52
  3
B1
350
53
  3
B2
350
54
  3
B3
350
55
  3
B4
350
56
  3
B5
350
57
  3
B6
350
58
  3
B7
350
59
  3
B8
350
5A
  3
B9
350
5B
  3
C0
350
5C
  3
C1
350
5D
  3
C2
350
5E
  3
C3
350
5F
  3
C4
350
60
  3
C5
350
61
  3
C6
350
62
  3
C7
350
63
  3
C8
350
64
  3
C9
350
65
  3
D0
350
66
  3
D1
350
67
  3
D2
350
68
  0
DICTIONARY
  5
14F
102
{ACAD_REACTORS
330
C
102
}
330
C
100
AcDbDictionary
281
     1
  0
DICTIONARY
  5
149
102
{ACAD_REACTORS
330
C
102
}
330
C
100
AcDbDictionary
281
     1
  0
DICTIONARY
  5
148
102
{ACAD_REACTORS
330
C
102
}
330
C
100
AcDbDictionary
281
     1
  0
XRECORD
  5
27D
102
{ACAD_REACTORS
330
C
102
}
330
C
100
AcDbXrecord
280
     1
  1
DWGPROPS COOKIE
  2

  3

  4

  6

  7

  8
12017012
  9

300
=
301
=
302
=
303
=
304
=
305
=
306
=
307
=
308
=
309
=
 40
0.0
 41
2458319.361688253
 42
2458324.118780197
  1

 90
        0
  0
LAYOUT
  5
1E
102
{ACAD_REACTORS
330
1A
102
}
330
1A
100
AcDbPlotSettings
  1

  2
none_device
  4

  6

 40
0.0
 41
0.0
 42
0.0
 43
0.0
 44
0.0
 45
0.0
 46
0.0
 47
0.0
 48
0.0
 49
0.0
140
0.0
141
0.0
142
1.0
143
1.0
 70
   688
 72
     1
 73
     0
 74
     5
  7

 75
    16
147
1.0
148
0.0
149
0.0
100
AcDbLayout
  1
Layout1
 70
     1
 71
     1
 10
0.0
 20
0.0
 11
420.0
 21
297.0
 12
0.0
 22
0.0
 32
0.0
 14
1.000000000000000E+20
 24
1.000000000000000E+20
 34
1.000000000000000E+20
 15
-1.000000000000000E+20
 25
-1.000000000000000E+20
 35
-1.000000000000000E+20
146
0.0
 13
0.0
 23
0.0
 33
0.0
 16
1.0
 26
0.0
 36
0.0
 17
0.0
 27
1.0
 37
0.0
 76
     0
330
1B
  0
LAYOUT
  5
26
102
{ACAD_REACTORS
330
1A
102
}
330
1A
100
AcDbPlotSettings
  1

  2
none_device
  4

  6

 40
0.0
 41
0.0
 42
0.0
 43
0.0
 44
0.0
 45
0.0
 46
0.0
 47
0.0
 48
0.0
 49
0.0
140
0.0
141
0.0
142
1.0
143
1.0
 70
   688
 72
     1
 73
     0
 74
     5
  7

 75
    16
147
1.0
148
0.0
149
0.0
100
AcDbLayout
  1
Layout2
 70
     1
 71
     2
 10
0.0
 20
0.0
 11
0.0
 21
0.0
 12
0.0
 22
0.0
 32
0.0
 14
0.0
 24
0.0
 34
0.0
 15
0.0
 25
0.0
 35
0.0
146
0.0
 13
0.0
 23
0.0
 33
0.0
 16
1.0
 26
0.0
 36
0.0
 17
0.0
 27
1.0
 37
0.0
 76
     0
330
23
  0
LAYOUT
  5
22
102
{ACAD_REACTORS
330
1A
102
}
330
1A
100
AcDbPlotSettings
  1

  2
none_device
  4
ANSI_A_(11.00_x_8.50_Inches)
  6

 40
6.35
 41
19.05
 42
6.35000508
 43
19.05000254
 44
279.4
 45
215.9
 46
116.0200047679345
 47
99.06225355292987
 48
0.0
 49
0.0
140
0.0
141
0.0
142
0.0752558462788414
143
1.0
 70
  1696
 72
     0
 73
     0
 74
     0
  7

 75
     0
147
0.0235690232323232
148
0.0
149
0.0
100
AcDbLayout
  1
Model
 70
     1
 71
     0
 10
0.0
 20
0.0
 11
420.0
 21
297.0
 12
0.0
 22
0.0
 32
0.0
 14
-36.77500000000009
 24
-49.97180738881173
 34
0.0
 15
95.51348381534558
 25
27.88124999999999
 35
0.0
146
0.0
 13
0.0
 23
0.0
 33
0.0
 16
1.0
 26
0.0
 36
0.0
 17
0.0
 27
1.0
 37
0.0
 76
     0
330
1F
331
29
  0
MLINESTYLE
  5
18
102
{ACAD_REACTORS
330
17
102
}
330
17
100
AcDbMlineStyle
  2
Standard
 70
     0
  3

 62
   256
 51
90.0
 52
90.0
 71
     2
 49
0.5
 62
   256
  6
BYLAYER
 49
-0.5
 62
   256
  6
BYLAYER
  0
ACDBPLACEHOLDER
  5
F
102
{ACAD_REACTORS
330
E
102
}
330
E
  0
SCALE
  5
48
102
{ACAD_REACTORS
330
47
102
}
330
47
100
AcDbScale
 70
     0
300
1:1
140
1.0
141
1.0
290
     1
  0
SCALE
  5
49
102
{ACAD_REACTORS
330
47
102
}
330
47
100
AcDbScale
 70
     0
300
1:2
140
1.0
141
2.0
290
     0
  0
SCALE
  5
4A
102
{ACAD_REACTORS
330
47
102
}
330
47
100
AcDbScale
 70
     0
300
1:4
140
1.0
141
4.0
290
     0
  0
SCALE
  5
4B
102
{ACAD_REACTORS
330
47
102
}
330
47
100
AcDbScale
 70
     0
300
1:5
140
1.0
141
5.0
290
     0
  0
SCALE
  5
4C
102
{ACAD_REACTORS
330
47
102
}
330
47
100
AcDbScale
 70
     0
300
1:8
140
1.0
141
8.0
290
     0
  0
SCALE
  5
4D
102
{ACAD_REACTORS
330
47
102
}
330
47
100
AcDbScale
 70
     0
300
1:10
140
1.0
141
10.0
290
     0
  0
SCALE
  5
4E
102
{ACAD_REACTORS
330
47
102
}
330
47
100
AcDbScale
 70
     0
300
1:16
140
1.0
141
16.0
290
     0
  0
SCALE
  5
4F
102
{ACAD_REACTORS
330
47
102
}
330
47
100
AcDbScale
 70
     0
300
1:20
140
1.0
141
20.0
290
     0
  0
SCALE
  5
50
102
{ACAD_REACTORS
330
47
102
}
330
47
100
AcDbScale
 70
     0
300
1:30
140
1.0
141
30.0
290
     0
  0
SCALE
  5
51
102
{ACAD_REACTORS
330
47
102
}
330
47
100
AcDbScale
 70
     0
300
1:40
140
1.0
141
40.0
290
     0
  0
SCALE
  5
52
102
{ACAD_REACTORS
330
47
102
}
330
47
100
AcDbScale
 70
     0
300
1:50
140
1.0
141
50.0
290
     0
  0
SCALE
  5
53
102
{ACAD_REACTORS
330
47
102
}
330
47
100
AcDbScale
 70
     0
300
1:100
140
1.0
141
100.0
290
     0
  0
SCALE
  5
54
102
{ACAD_REACTORS
330
47
102
}
330
47
100
AcDbScale
 70
     0
300
2:1
140
2.0
141
1.0
290
     0
  0
SCALE
  5
55
102
{ACAD_REACTORS
330
47
102
}
330
47
100
AcDbScale
 70
     0
300
4:1
140
4.0
141
1.0
290
     0
  0
SCALE
  5
56
102
{ACAD_REACTORS
330
47
102
}
330
47
100
AcDbScale
 70
     0
300
8:1
140
8.0
141
1.0
290
     0
  0
SCALE
  5
57
102
{ACAD_REACTORS
330
47
102
}
330
47
100
AcDbScale
 70
     0
300
10:1
140
10.0
141
1.0
290
     0
  0
SCALE
  5
58
102
{ACAD_REACTORS
330
47
102
}
330
47
100
AcDbScale
 70
     0
300
100:1
140
100.0
141
1.0
290
     0
  0
SCALE
  5
59
102
{ACAD_REACTORS
330
47
102
}
330
47
100
AcDbScale
 70
     0
300
1/128" = 1'-0"
140
0.0078125
141
12.0
290
     0
  0
SCALE
  5
5A
102
{ACAD_REACTORS
330
47
102
}
330
47
100
AcDbScale
 70
     0
300
1/64" = 1'-0"
140
0.015625
141
12.0
290
     0
  0
SCALE
  5
5B
102
{ACAD_REACTORS
330
47
102
}
330
47
100
AcDbScale
 70
     0
300
1/32" = 1'-0"
140
0.03125
141
12.0
290
     0
  0
SCALE
  5
5C
102
{ACAD_REACTORS
330
47
102
}
330
47
100
AcDbScale
 70
     0
300
1/16" = 1'-0"
140
0.0625
141
12.0
290
     0
  0
SCALE
  5
5D
102
{ACAD_REACTORS
330
47
102
}
330
47
100
AcDbScale
 70
     0
300
3/32" = 1'-0"
140
0.09375
141
12.0
290
     0
  0
SCALE
  5
5E
102
{ACAD_REACTORS
330
47
102
}
330
47
100
AcDbScale
 70
     0
300
1/8" = 1'-0"
140
0.125
141
12.0
290
     0
  0
SCALE
  5
5F
102
{ACAD_REACTORS
330
47
102
}
330
47
100
AcDbScale
 70
     0
300
3/16" = 1'-0"
140
0.1875
141
12.0
290
     0
  0
SCALE
  5
60
102
{ACAD_REACTORS
330
47
102
}
330
47
100
AcDbScale
 70
     0
300
1/4" = 1'-0"
140
0.25
141
12.0
290
     0
  0
SCALE
  5
61
102
{ACAD_REACTORS
330
47
102
}
330
47
100
AcDbScale
 70
     0
300
3/8" = 1'-0"
140
0.375
141
12.0
290
     0
  0
SCALE
  5
62
102
{ACAD_REACTORS
330
47
102
}
330
47
100
AcDbScale
 70
     0
300
1/2" = 1'-0"
140
0.5
141
12.0
290
     0
  0
SCALE
  5
63
102
{ACAD_REACTORS
330
47
102
}
330
47
100
AcDbScale
 70
     0
300
3/4" = 1'-0"
140
0.75
141
12.0
290
     0
  0
SCALE
  5
64
102
{ACAD_REACTORS
330
47
102
}
330
47
100
AcDbScale
 70
     0
300
1" = 1'-0"
140
1.0
141
12.0
290
     0
  0
SCALE
  5
65
102
{ACAD_REACTORS
330
47
102
}
330
47
100
AcDbScale
 70
     0
300
1-1/2" = 1'-0"
140
1.5
141
12.0
290
     0
  0
SCALE
  5
66
102
{ACAD_REACTORS
330
47
102
}
330
47
100
AcDbScale
 70
     0
300
3" = 1'-0"
140
3.0
141
12.0
290
     0
  0
SCALE
  5
67
102
{ACAD_REACTORS
330
47
102
}
330
47
100
AcDbScale
 70
     0
300
6" = 1'-0"
140
6.0
141
12.0
290
     0
  0
SCALE
  5
68
102
{ACAD_REACTORS
330
47
102
}
330
47
100
AcDbScale
 70
     0
300
1'-0" = 1'-0"
140
12.0
141
12.0
290
     0
  0
ENDSEC
  0
EOF
