  0
SECTION
  2
HEADER
  9
$ACADVER
  1
AC1015
  9
$ACADMAINTVER
 70
     6
  9
$DWGCODEPAGE
  3
ANSI_949
  9
$INSBASE
 10
0.0
 20
0.0
 30
0.0
  9
$EXTMIN
 10
1.000000000000000E+20
 20
1.000000000000000E+20
 30
1.000000000000000E+20
  9
$EXTMAX
 10
-1.000000000000000E+20
 20
-1.000000000000000E+20
 30
-1.000000000000000E+20
  9
$LIMMIN
 10
0.0
 20
0.0
  9
$LIMMAX
 10
420.0
 20
297.0
  9
$ORTHOMODE
 70
     1
  9
$REGENMODE
 70
     1
  9
$FILLMODE
 70
     1
  9
$QTEXTMODE
 70
     0
  9
$MIRRTEXT
 70
     1
  9
$LTSCALE
 40
1.0
  9
$ATTMODE
 70
     1
  9
$TEXTSIZE
 40
3.5
  9
$TRACEWID
 40
1.0
  9
$TEXTSTYLE
  7
Standard
  9
$CLAYER
  8
0
  9
$CELTYPE
  6
ByLayer
  9
$CECOLOR
 62
   256
  9
$CELTSCALE
 40
1.0
  9
$DISPSILH
 70
     0
  9
$DIMSCALE
 40
1.0
  9
$DIMASZ
 40
3.302
  9
$DIMEXO
 40
1.0
  9
$DIMDLI
 40
3.75
  9
$DIMRND
 40
0.0
  9
$DIMDLE
 40
0.0
  9
$DIMEXE
 40
1.0
  9
$DIMTP
 40
0.0
  9
$DIMTM
 40
0.0
  9
$DIMTXT
 40
3.5
  9
$DIMCEN
 40
2.5
  9
$DIMTSZ
 40
0.0
  9
$DIMTOL
 70
     0
  9
$DIMLIM
 70
     0
  9
$DIMTIH
 70
     1
  9
$DIMTOH
 70
     1
  9
$DIMSE1
 70
     0
  9
$DIMSE2
 70
     0
  9
$DIMTAD
 70
     1
  9
$DIMZIN
 70
     0
  9
$DIMBLK
  1

  9
$DIMASO
 70
     1
  9
$DIMSHO
 70
     1
  9
$DIMPOST
  1

  9
$DIMAPOST
  1

  9
$DIMALT
 70
     0
  9
$DIMALTD
 70
     3
  9
$DIMALTF
 40
0.0393700787401575
  9
$DIMLFAC
 40
1.0
  9
$DIMTOFL
 70
     1
  9
$DIMTVP
 40
0.0
  9
$DIMTIX
 70
     0
  9
$DIMSOXD
 70
     0
  9
$DIMSAH
 70
     0
  9
$DIMBLK1
  1

  9
$DIMBLK2
  1

  9
$DIMSTYLE
  2
ISO-25
  9
$DIMCLRD
 70
     0
  9
$DIMCLRE
 70
     0
  9
$DIMCLRT
 70
     0
  9
$DIMTFAC
 40
1.0
  9
$DIMGAP
 40
1.524
  9
$DIMJUST
 70
     0
  9
$DIMSD1
 70
     0
  9
$DIMSD2
 70
     0
  9
$DIMTOLJ
 70
     0
  9
$DIMTZIN
 70
     0
  9
$DIMALTZ
 70
     0
  9
$DIMALTTZ
 70
     0
  9
$DIMUPT
 70
     0
  9
$DIMDEC
 70
     2
  9
$DIMTDEC
 70
     2
  9
$DIMALTU
 70
     2
  9
$DIMALTTD
 70
     3
  9
$DIMTXSTY
  7
Standard
  9
$DIMAUNIT
 70
     0
  9
$DIMADEC
 70
     2
  9
$DIMALTRND
 40
0.0
  9
$DIMAZIN
 70
     0
  9
$DIMDSEP
 70
    44
  9
$DIMATFIT
 70
     3
  9
$DIMFRAC
 70
     0
  9
$DIMLDRBLK
  1

  9
$DIMLUNIT
 70
     2
  9
$DIMLWD
 70
    -2
  9
$DIMLWE
 70
    -2
  9
$DIMTMOVE
 70
     0
  9
$LUNITS
 70
     2
  9
$LUPREC
 70
     2
  9
$SKETCHINC
 40
1.0
  9
$FILLETRAD
 40
10.0
  9
$AUNITS
 70
     0
  9
$AUPREC
 70
     2
  9
$MENU
  1
.
  9
$ELEVATION
 40
0.0
  9
$PELEVATION
 40
0.0
  9
$THICKNESS
 40
0.0
  9
$LIMCHECK
 70
     0
  9
$CHAMFERA
 40
0.0
  9
$CHAMFERB
 40
0.0
  9
$CHAMFERC
 40
0.0
  9
$CHAMFERD
 40
0.0
  9
$SKPOLY
 70
     0
  9
$TDCREATE
 40
2458313.480767986
  9
$TDUCREATE
 40
2458313.105767986
  9
$TDUPDATE
 40
2458320.38866103
  9
$TDUUPDATE
 40
2458320.01366103
  9
$TDINDWG
 40
0.0020016435
  9
$TDUSRTIMER
 40
2458320.011269016
  9
$USRTIMER
 70
     1
  9
$ANGBASE
 50
0.0
  9
$ANGDIR
 70
     0
  9
$PDMODE
 70
     0
  9
$PDSIZE
 40
-1.0
  9
$PLINEWID
 40
0.0
  9
$SPLFRAME
 70
     0
  9
$SPLINETYPE
 70
     6
  9
$SPLINESEGS
 70
     8
  9
$HANDSEED
  5
44B
  9
$SURFTAB1
 70
     6
  9
$SURFTAB2
 70
     6
  9
$SURFTYPE
 70
     6
  9
$SURFU
 70
     6
  9
$SURFV
 70
     6
  9
$UCSBASE
  2

  9
$UCSNAME
  2

  9
$UCSORG
 10
0.0
 20
0.0
 30
0.0
  9
$UCSXDIR
 10
1.0
 20
0.0
 30
0.0
  9
$UCSYDIR
 10
0.0
 20
1.0
 30
0.0
  9
$UCSORTHOREF
  2

  9
$UCSORTHOVIEW
 70
     0
  9
$UCSORGTOP
 10
0.0
 20
0.0
 30
0.0
  9
$UCSORGBOTTOM
 10
0.0
 20
0.0
 30
0.0
  9
$UCSORGLEFT
 10
0.0
 20
0.0
 30
0.0
  9
$UCSORGRIGHT
 10
0.0
 20
0.0
 30
0.0
  9
$UCSORGFRONT
 10
0.0
 20
0.0
 30
0.0
  9
$UCSORGBACK
 10
0.0
 20
0.0
 30
0.0
  9
$PUCSBASE
  2

  9
$PUCSNAME
  2

  9
$PUCSORG
 10
0.0
 20
0.0
 30
0.0
  9
$PUCSXDIR
 10
1.0
 20
0.0
 30
0.0
  9
$PUCSYDIR
 10
0.0
 20
1.0
 30
0.0
  9
$PUCSORTHOREF
  2

  9
$PUCSORTHOVIEW
 70
     0
  9
$PUCSORGTOP
 10
0.0
 20
0.0
 30
0.0
  9
$PUCSORGBOTTOM
 10
0.0
 20
0.0
 30
0.0
  9
$PUCSORGLEFT
 10
0.0
 20
0.0
 30
0.0
  9
$PUCSORGRIGHT
 10
0.0
 20
0.0
 30
0.0
  9
$PUCSORGFRONT
 10
0.0
 20
0.0
 30
0.0
  9
$PUCSORGBACK
 10
0.0
 20
0.0
 30
0.0
  9
$USERI1
 70
     0
  9
$USERI2
 70
     0
  9
$USERI3
 70
     0
  9
$USERI4
 70
     0
  9
$USERI5
 70
     0
  9
$USERR1
 40
0.0
  9
$USERR2
 40
0.0
  9
$USERR3
 40
0.0
  9
$USERR4
 40
0.0
  9
$USERR5
 40
0.0
  9
$WORLDVIEW
 70
     1
  9
$SHADEDGE
 70
     3
  9
$SHADEDIF
 70
    70
  9
$TILEMODE
 70
     1
  9
$MAXACTVP
 70
    64
  9
$PINSBASE
 10
0.0
 20
0.0
 30
0.0
  9
$PLIMCHECK
 70
     0
  9
$PEXTMIN
 10
1.000000000000000E+20
 20
1.000000000000000E+20
 30
1.000000000000000E+20
  9
$PEXTMAX
 10
-1.000000000000000E+20
 20
-1.000000000000000E+20
 30
-1.000000000000000E+20
  9
$PLIMMIN
 10
0.0
 20
0.0
  9
$PLIMMAX
 10
0.0
 20
0.0
  9
$UNITMODE
 70
     0
  9
$VISRETAIN
 70
     1
  9
$PLINEGEN
 70
     0
  9
$PSLTSCALE
 70
     1
  9
$TREEDEPTH
 70
  3020
  9
$CMLSTYLE
  2
Standard
  9
$CMLJUST
 70
     0
  9
$CMLSCALE
 40
20.0
  9
$PROXYGRAPHICS
 70
     1
  9
$MEASUREMENT
 70
     1
  9
$CELWEIGHT
370
    -1
  9
$ENDCAPS
280
     0
  9
$JOINSTYLE
280
     0
  9
$LWDISPLAY
290
     1
  9
$INSUNITS
 70
     4
  9
$HYPERLINKBASE
  1

  9
$STYLESHEET
  1

  9
$XEDIT
290
     1
  9
$CEPSNTYPE
380
     0
  9
$PSTYLEMODE
290
     1
  9
$FINGERPRINTGUID
  2
{73AA31F6-9AC0-4A8D-A927-868720AB8D73}
  9
$VERSIONGUID
  2
{FAEB1C32-E019-11D5-929B-00C0DF256EC4}
  9
$EXTNAMES
290
     1
  9
$PSVPSCALE
 40
0.0
  9
$OLESTARTUP
290
     0
  0
ENDSEC
  0
SECTION
  2
CLASSES
  0
CLASS
  1
ACDBDICTIONARYWDFLT
  2
AcDbDictionaryWithDefault
  3
ObjectDBX Classes
 90
        0
280
     0
281
     0
  0
CLASS
  1
VISUALSTYLE
  2
AcDbVisualStyle
  3
ObjectDBX Classes
 90
     4095
280
     0
281
     0
  0
CLASS
  1
MATERIAL
  2
AcDbMaterial
  3
ObjectDBX Classes
 90
     1153
280
     0
281
     0
  0
CLASS
  1
SCALE
  2
AcDbScale
  3
ObjectDBX Classes
 90
     1153
280
     0
281
     0
  0
CLASS
  1
SUN
  2
AcDbSun
  3
SCENEOE
 90
     1153
280
     0
281
     0
  0
CLASS
  1
ACDBPLACEHOLDER
  2
AcDbPlaceHolder
  3
ObjectDBX Classes
 90
        0
280
     0
281
     0
  0
CLASS
  1
LAYOUT
  2
AcDbLayout
  3
ObjectDBX Classes
 90
        0
280
     0
281
     0
  0
CLASS
  1
TABLESTYLE
  2
AcDbTableStyle
  3
ObjectDBX Classes
 90
     4095
280
     0
281
     0
  0
CLASS
  1
MLEADERSTYLE
  2
AcDbMLeaderStyle
  3
ACDB_MLEADERSTYLE_CLASS
 90
     4095
280
     0
281
     0
  0
CLASS
  1
RASTERVARIABLES
  2
AcDbRasterVariables
  3
ISM
 90
        0
280
     0
281
     0
  0
ENDSEC
  0
SECTION
  2
TABLES
  0
TABLE
  2
VPORT
  5
8
330
0
100
AcDbSymbolTable
 70
     1
  0
VPORT
  5
29
330
8
100
AcDbSymbolTableRecord
100
AcDbViewportTableRecord
  2
*Active
 70
     0
 10
0.0
 20
0.0
 11
1.0
 21
1.0
 12
5.469550494335273
 22
-2.262972487456189
 13
0.0
 23
0.0
 14
10.0
 24
10.0
 15
10.0
 25
10.0
 16
0.0
 26
0.0
 36
1.0
 17
0.0
 27
0.0
 37
0.0
 40
127.807605788701
 41
1.632093933463796
 42
50.0
 43
0.0
 44
0.0
 50
0.0
 51
0.0
 71
    16
 72
  2000
 73
     1
 74
     3
 75
     0
 76
     0
 77
     0
 78
     0
281
     0
 65
     1
110
0.0
120
0.0
130
0.0
111
1.0
121
0.0
131
0.0
112
0.0
122
1.0
132
0.0
 79
     0
146
0.0
  0
ENDTAB
  0
TABLE
  2
LTYPE
  5
5
330
0
100
AcDbSymbolTable
 70
     6
  0
LTYPE
  5
14
330
5
100
AcDbSymbolTableRecord
100
AcDbLinetypeTableRecord
  2
ByBlock
 70
     0
  3

 72
    65
 73
     0
 40
0.0
  0
LTYPE
  5
15
330
5
100
AcDbSymbolTableRecord
100
AcDbLinetypeTableRecord
  2
ByLayer
 70
     0
  3

 72
    65
 73
     0
 40
0.0
  0
LTYPE
  5
16
330
5
100
AcDbSymbolTableRecord
100
AcDbLinetypeTableRecord
  2
Continuous
 70
     0
  3
Solid line
 72
    65
 73
     0
 40
0.0
  0
LTYPE
  5
6A
330
5
100
AcDbSymbolTableRecord
100
AcDbLinetypeTableRecord
  2
HIDDEN
 70
     0
  3
Hidden __ __ __ __ __ __ __ __ __ __ __ __ __ __
 72
    65
 73
     2
 40
1.905
 49
1.27
 74
     0
 49
-0.635
 74
     0
  0
LTYPE
  5
6B
330
5
100
AcDbSymbolTableRecord
100
AcDbLinetypeTableRecord
  2
PHANTOM
 70
     0
  3
Phantom ______  __  __  ______  __  __  ______
 72
    65
 73
     6
 40
12.7
 49
6.35
 74
     0
 49
-1.27
 74
     0
 49
1.27
 74
     0
 49
-1.27
 74
     0
 49
1.27
 74
     0
 49
-1.27
 74
     0
  0
LTYPE
  5
6C
330
5
100
AcDbSymbolTableRecord
100
AcDbLinetypeTableRecord
  2
CENTER
 70
     0
  3
Center ____ _ ____ _ ____ _ ____ _ ____ _ ____
 72
    65
 73
     4
 40
10.16
 49
6.35
 74
     0
 49
-1.27
 74
     0
 49
1.27
 74
     0
 49
-1.27
 74
     0
  0
LTYPE
  5
6D
330
5
100
AcDbSymbolTableRecord
100
AcDbLinetypeTableRecord
  2
CENTERX2
 70
     0
  3
Center (2x) ________  __  ________  __  _____
 72
    65
 73
     4
 40
20.32
 49
12.7
 74
     0
 49
-2.54
 74
     0
 49
2.54
 74
     0
 49
-2.54
 74
     0
  0
LTYPE
  5
6E
330
5
100
AcDbSymbolTableRecord
100
AcDbLinetypeTableRecord
  2
DOT2
 70
     0
  3
Dot (.5x) ........................................
 72
    65
 73
     2
 40
0.635
 49
0.0
 74
     0
 49
-0.635
 74
     0
  0
ENDTAB
  0
TABLE
  2
LAYER
  5
2
102
{ACAD_XDICTIONARY
360
224
102
}
330
0
100
AcDbSymbolTable
 70
    18
  0
LAYER
  5
10
330
2
100
AcDbSymbolTableRecord
100
AcDbLayerTableRecord
  2
0
 70
     0
 62
     7
  6
Continuous
370
    -3
390
F
  0
LAYER
  5
6F
330
2
100
AcDbSymbolTableRecord
100
AcDbLayerTableRecord
  2
FORMAT
 70
     0
 62
     2
  6
Continuous
370
    -3
390
F
  0
LAYER
  5
70
330
2
100
AcDbSymbolTableRecord
100
AcDbLayerTableRecord
  2
외형선
 70
     0
 62
     4
  6
Continuous
370
    30
390
F
  0
LAYER
  5
71
330
2
100
AcDbSymbolTableRecord
100
AcDbLayerTableRecord
  2
숨은선
 70
     0
 62
     2
  6
HIDDEN
370
    15
390
F
  0
LAYER
  5
72
330
2
100
AcDbSymbolTableRecord
100
AcDbLayerTableRecord
  2
중심선
 70
     0
 62
     1
  6
CENTERX2
370
    -3
390
F
  0
LAYER
  5
73
330
2
100
AcDbSymbolTableRecord
100
AcDbLayerTableRecord
  2
파단선
 70
     0
 62
     4
  6
Continuous
370
    -3
390
F
  0
LAYER
  5
74
330
2
100
AcDbSymbolTableRecord
100
AcDbLayerTableRecord
  2
해칭선
 70
     0
 62
   100
  6
Continuous
370
    -3
390
F
  0
LAYER
  5
75
330
2
100
AcDbSymbolTableRecord
100
AcDbLayerTableRecord
  2
가는실선
 70
     0
 62
     4
  6
Continuous
370
    -3
390
F
  0
LAYER
  5
76
330
2
100
AcDbSymbolTableRecord
100
AcDbLayerTableRecord
  2
치수_보조선
 70
     0
 62
     4
  6
Continuous
370
    -3
390
F
  0
LAYER
  5
77
330
2
100
AcDbSymbolTableRecord
100
AcDbLayerTableRecord
  2
치수문자_일반주서
 70
     0
 62
     7
  6
Continuous
370
    15
390
F
  0
LAYER
  5
78
330
2
100
AcDbSymbolTableRecord
100
AcDbLayerTableRecord
  2
개별주서
 70
     0
 62
   100
  6
Continuous
370
    30
390
F
  0
LAYER
  5
79
330
2
100
AcDbSymbolTableRecord
100
AcDbLayerTableRecord
  2
중간선
 70
     0
 62
     2
  6
Continuous
370
    15
390
F
  0
LAYER
  5
7A
330
2
100
AcDbSymbolTableRecord
100
AcDbLayerTableRecord
  2
윤곽선
 70
     0
 62
     3
  6
Continuous
370
    40
390
F
  0
LAYER
  5
7B
330
2
100
AcDbSymbolTableRecord
100
AcDbLayerTableRecord
  2
중심마크
 70
     0
 62
   100
  6
Continuous
370
    30
390
F
  0
LAYER
  5
7C
330
2
100
AcDbSymbolTableRecord
100
AcDbLayerTableRecord
  2
가상선
 70
     0
 62
     4
  6
PHANTOM
370
    -3
390
F
  0
LAYER
  5
7D
330
2
100
AcDbSymbolTableRecord
100
AcDbLayerTableRecord
  2
특수지정선
 70
     0
 62
     5
  6
CENTERX2
370
    60
390
F
  0
LAYER
  5
7E
330
2
100
AcDbSymbolTableRecord
100
AcDbLayerTableRecord
  2
참조1
 70
     0
 62
    -4
  6
Continuous
370
    -3
390
F
  0
LAYER
  5
160
330
2
100
AcDbSymbolTableRecord
100
AcDbLayerTableRecord
  2
Defpoints
 70
     0
 62
     7
  6
Continuous
290
     0
370
    -3
390
F
  0
ENDTAB
  0
TABLE
  2
STYLE
  5
3
330
0
100
AcDbSymbolTable
 70
     2
  0
STYLE
  5
11
330
3
100
AcDbSymbolTableRecord
100
AcDbTextStyleTableRecord
  2
Standard
 70
     0
 40
0.0
 41
1.0
 50
0.0
 71
     0
 42
3.5
  3
txt
  4

  0
STYLE
  5
94
330
3
100
AcDbSymbolTableRecord
100
AcDbTextStyleTableRecord
  2
SLDTEXTSTYLE0
 70
     0
 40
0.0
 41
0.75
 50
0.0
 71
     0
 42
3.5
  3
TXT
  4

  0
ENDTAB
  0
TABLE
  2
VIEW
  5
6
330
0
100
AcDbSymbolTable
 70
     0
  0
ENDTAB
  0
TABLE
  2
UCS
  5
7
330
0
100
AcDbSymbolTable
 70
     0
  0
ENDTAB
  0
TABLE
  2
APPID
  5
9
330
0
100
AcDbSymbolTable
 70
     1
  0
APPID
  5
12
330
9
100
AcDbSymbolTableRecord
100
AcDbRegAppTableRecord
  2
ACAD
 70
     0
  0
ENDTAB
  0
TABLE
  2
DIMSTYLE
  5
A
330
0
100
AcDbSymbolTable
 70
     3
100
AcDbDimStyleTable
  0
DIMSTYLE
105
27
330
A
100
AcDbSymbolTableRecord
100
AcDbDimStyleTableRecord
  2
ISO-25
 70
     0
 41
2.5
 42
0.625
 43
3.75
 44
1.25
 73
     0
 74
     0
 77
     1
 78
     8
140
2.5
141
2.5
143
0.03937007874016
147
0.625
171
     3
172
     1
178
     0
271
     2
272
     2
274
     3
278
    44
283
     0
284
     8
340
11
  0
DIMSTYLE
105
DD
102
{ACAD_REACTORS
330
DC
330
119
330
1B6
330
1C6
330
1D6
330
1E3
330
F1
330
106
330
384
330
394
330
3A4
102
}
330
A
100
AcDbSymbolTableRecord
100
AcDbDimStyleTableRecord
  2
SLDDIMSTYLE0
 70
     0
 41
3.302
 44
0.0
 45
0.000000001
 73
     0
 74
     0
 77
     1
 78
    12
 79
     3
140
3.5
143
0.0393700787401575
147
0.875
148
0.000000001
170
     1
172
     1
173
     1
178
     0
271
     2
272
     2
276
     2
284
    12
289
     0
340
94
  0
DIMSTYLE
105
F2
330
A
100
AcDbSymbolTableRecord
100
AcDbDimStyleTableRecord
  2
SLDDIMSTYLE1
 70
     0
 41
3.302
 44
0.0
 45
0.000000001
 73
     0
 74
     0
 77
     1
 78
    12
 79
     3
140
3.5
143
0.0393700787401575
147
0.875
148
0.000000001
170
     1
173
     1
178
     0
271
     2
272
     2
276
     2
284
    12
340
94
  0
ENDTAB
  0
TABLE
  2
BLOCK_RECORD
  5
1
330
0
100
AcDbSymbolTable
 70
    24
  0
BLOCK_RECORD
  5
1F
330
1
100
AcDbSymbolTableRecord
100
AcDbBlockTableRecord
  2
*Model_Space
340
22
  0
BLOCK_RECORD
  5
1B
330
1
100
AcDbSymbolTableRecord
100
AcDbBlockTableRecord
  2
*Paper_Space
340
1E
  0
BLOCK_RECORD
  5
23
330
1
100
AcDbSymbolTableRecord
100
AcDbBlockTableRecord
  2
*Paper_Space0
340
26
  0
BLOCK_RECORD
  5
7F
330
1
100
AcDbSymbolTableRecord
100
AcDbBlockTableRecord
  2
블럭10
340
0
102
{BLKREFS
331
D5
102
}
  0
BLOCK_RECORD
  5
DE
330
1
100
AcDbSymbolTableRecord
100
AcDbBlockTableRecord
  2
_D
340
0
  0
BLOCK_RECORD
  5
F3
330
1
100
AcDbSymbolTableRecord
100
AcDbBlockTableRecord
  2
_D_1
340
0
  0
BLOCK_RECORD
  5
107
330
1
100
AcDbSymbolTableRecord
100
AcDbBlockTableRecord
  2
_D_2
340
0
  0
BLOCK_RECORD
  5
11A
330
1
100
AcDbSymbolTableRecord
100
AcDbBlockTableRecord
  2
_D_3
340
0
  0
BLOCK_RECORD
  5
134
330
1
100
AcDbSymbolTableRecord
100
AcDbBlockTableRecord
  2
SW_DOWELSYMBOL_0
340
0
102
{BLKREFS
331
13A
331
1F0
331
0
331
3B1
331
0
102
}
  0
BLOCK_RECORD
  5
228
330
1
100
AcDbSymbolTableRecord
100
AcDbBlockTableRecord
  2
*D8
340
0
  0
BLOCK_RECORD
  5
237
330
1
100
AcDbSymbolTableRecord
100
AcDbBlockTableRecord
  2
*D9
340
0
  0
BLOCK_RECORD
  5
246
330
1
100
AcDbSymbolTableRecord
100
AcDbBlockTableRecord
  2
*D10
340
0
  0
BLOCK_RECORD
  5
252
330
1
100
AcDbSymbolTableRecord
100
AcDbBlockTableRecord
  2
*D11
340
0
  0
BLOCK_RECORD
  5
2BE
330
1
100
AcDbSymbolTableRecord
100
AcDbBlockTableRecord
  2
*D12
340
0
  0
BLOCK_RECORD
  5
2CD
330
1
100
AcDbSymbolTableRecord
100
AcDbBlockTableRecord
  2
*D13
340
0
  0
BLOCK_RECORD
  5
2DC
330
1
100
AcDbSymbolTableRecord
100
AcDbBlockTableRecord
  2
*D14
340
0
  0
BLOCK_RECORD
  5
2E8
330
1
100
AcDbSymbolTableRecord
100
AcDbBlockTableRecord
  2
*D15
340
0
  0
BLOCK_RECORD
  5
3BA
330
1
100
AcDbSymbolTableRecord
100
AcDbBlockTableRecord
  2
*D18
340
0
  0
BLOCK_RECORD
  5
3C9
330
1
100
AcDbSymbolTableRecord
100
AcDbBlockTableRecord
  2
*D19
340
0
  0
BLOCK_RECORD
  5
3D8
330
1
100
AcDbSymbolTableRecord
100
AcDbBlockTableRecord
  2
*D20
340
0
  0
BLOCK_RECORD
  5
420
330
1
100
AcDbSymbolTableRecord
100
AcDbBlockTableRecord
  2
*D21
340
0
  0
BLOCK_RECORD
  5
42F
330
1
100
AcDbSymbolTableRecord
100
AcDbBlockTableRecord
  2
*D22
340
0
  0
BLOCK_RECORD
  5
43E
330
1
100
AcDbSymbolTableRecord
100
AcDbBlockTableRecord
  2
*D23
340
0
  0
ENDTAB
  0
ENDSEC
  0
SECTION
  2
BLOCKS
  0
BLOCK
  5
20
330
1F
100
AcDbEntity
  8
0
100
AcDbBlockBegin
  2
*Model_Space
 70
     0
 10
0.0
 20
0.0
 30
0.0
  3
*Model_Space
  1
*Model_Space
  0
ENDBLK
  5
21
330
1F
100
AcDbEntity
  8
0
100
AcDbBlockEnd
  0
BLOCK
  5
1C
330
1B
100
AcDbEntity
 67
     1
  8
0
100
AcDbBlockBegin
  2
*Paper_Space
 70
     0
 10
0.0
 20
0.0
 30
0.0
  3
*Paper_Space
  1
*Paper_Space
  0
ENDBLK
  5
1D
330
1B
100
AcDbEntity
 67
     1
  8
0
100
AcDbBlockEnd
  0
BLOCK
  5
24
330
23
100
AcDbEntity
  8
0
100
AcDbBlockBegin
  2
*Paper_Space0
 70
     0
 10
0.0
 20
0.0
 30
0.0
  3
*Paper_Space0
  1
*Paper_Space0
  0
ENDBLK
  5
25
330
23
100
AcDbEntity
  8
0
100
AcDbBlockEnd
  0
BLOCK
  5
80
330
7F
100
AcDbEntity
  8
0
100
AcDbBlockBegin
  2
블럭10
 70
     2
 10
0.0
 20
0.0
 30
0.0
  3
블럭10
  1
블럭10
  0
ELLIPSE
  5
82
330
7F
100
AcDbEntity
  8
중심선
100
AcDbEllipse
 10
20.54032771741204
 20
12.0471743016438
 30
0.0
 11
6.600054785286829
 21
-1.261213355974178E-13
 31
0.0
210
0.0
220
0.0
230
1.0
 40
0.636358354079598
 41
0.9219305317359503
 42
6.513795318482858
  0
ELLIPSE
  5
83
330
7F
100
AcDbEntity
  8
중심선
100
AcDbEllipse
 10
20.54032771746488
 20
12.04717430159265
 30
0.0
 11
3.960054785062283
 21
1.540847449632565E-10
 31
0.0
210
0.0
220
0.0
230
1.0
 40
0.3939339440162632
 41
1.131841032648279
 42
5.62031148352944
  0
LINE
  5
84
330
7F
100
AcDbEntity
  8
중심선
100
AcDbLine
 10
2.268634060543552
 20
16.24717430164393
 30
0.0
 11
5.714909304380834
 21
16.24717430164393
 31
0.0
  0
LINE
  5
85
330
7F
100
AcDbEntity
  8
중심선
100
AcDbLine
 10
5.245725140726316
 20
7.84717430164391
 30
0.0
 11
8.692000384563599
 21
7.84717430164391
 31
0.0
  0
LINE
  5
86
330
7F
100
AcDbEntity
  8
중심선
100
AcDbLine
 10
15.74043728645272
 20
16.24717430164393
 30
0.0
 11
8.692000384563599
 21
7.84717430164391
 31
0.0
  0
LINE
  5
87
330
7F
100
AcDbEntity
  8
중심선
100
AcDbLine
 10
0.1404042013395286
 20
13.71084872107135
 30
0.0
 11
3.58671253028996
 21
13.71088815037384
 31
0.0
  0
LINE
  5
88
330
7F
100
AcDbEntity
  8
중심선
100
AcDbLine
 10
2.750260043222114
 20
10.84717430164391
 30
0.0
 11
6.196535287059397
 21
10.84717430164391
 31
0.0
  0
LINE
  5
89
330
7F
100
AcDbEntity
  8
중심선
100
AcDbLine
 10
12.29416204261559
 20
16.24717430164393
 30
0.0
 11
5.245725140726316
 21
7.84717430164391
 31
0.0
  0
LINE
  5
8A
330
7F
100
AcDbEntity
  8
중심선
100
AcDbLine
 10
10.72767329541681
 20
16.24717430164393
 30
0.0
 11
6.196535287059397
 21
10.84717430164391
 31
0.0
  0
LINE
  5
8B
330
7F
100
AcDbEntity
  8
중심선
100
AcDbLine
 10
7.28139805157953
 20
16.24717430164393
 30
0.0
 11
2.750260043222114
 21
10.84717430164391
 31
0.0
  0
LINE
  5
8C
330
7F
100
AcDbEntity
  8
중심선
100
AcDbLine
 10
5.714909304380834
 20
16.24717430164393
 30
0.0
 11
3.58671253028996
 21
13.71088815037384
 31
0.0
  0
LINE
  5
8D
330
7F
100
AcDbEntity
  8
중심선
100
AcDbLine
 10
2.268634060543552
 20
16.24717430164393
 30
0.0
 11
0.1404042013395286
 21
13.71084872107135
 31
0.0
  0
LINE
  5
8E
330
7F
100
AcDbEntity
  8
중심선
100
AcDbLine
 10
7.28139805157953
 20
16.24717430164393
 30
0.0
 11
10.72767329541681
 21
16.24717430164393
 31
0.0
  0
LINE
  5
8F
330
7F
100
AcDbEntity
  8
중심선
100
AcDbLine
 10
12.29416204261559
 20
16.24717430164393
 30
0.0
 11
15.74043728645272
 21
16.24717430164393
 31
0.0
  0
LINE
  5
90
330
7F
100
AcDbEntity
  8
중심선
100
AcDbLine
 10
19.22036997980202
 20
11.08717430171403
 30
0.0
 11
23.66174974927406
 21
11.08717430171406
 31
0.0
  0
LINE
  5
91
330
7F
100
AcDbEntity
  8
중심선
100
AcDbLine
 10
19.22039502424796
 20
13.00717430171391
 30
0.0
 11
19.22036997980202
 21
11.08717430171403
 31
0.0
  0
LINE
  5
92
330
7F
100
AcDbEntity
  8
중심선
100
AcDbLine
 10
19.22039502424796
 20
13.00717430171391
 30
0.0
 11
26.96566020931264
 21
13.00717430171391
 31
0.0
  0
LINE
  5
93
330
7F
100
AcDbEntity
  8
중심선
100
AcDbLine
 10
22.22332737316547
 20
13.45928029700563
 30
0.0
 11
24.52862924686651
 21
15.39360700705356
 31
0.0
  0
ATTDEF
  5
95
330
7F
100
AcDbEntity
  8
FORMAT
 62
     2
100
AcDbText
 10
4.408487351596664
 20
2.075366912832191
 30
0.0
 40
4.233333333333333
  1
E2006008
 41
0.75
  7
SLDTEXTSTYLE0
 11
4.408487351596664
 21
-0.0412997538344756
 31
0.0
100
AcDbAttributeDefinition
  3

  2
AUTOATTR0
 70
     0
 74
     1
  0
ENDBLK
  5
81
330
7F
100
AcDbEntity
  8
0
100
AcDbBlockEnd
  0
BLOCK
  5
DF
330
DE
100
AcDbEntity
  8
0
100
AcDbBlockBegin
  2
_D
 70
     0
 10
0.0
 20
0.0
 30
0.0
  3
_D
  1
_D
  0
LINE
  5
E1
330
DE
100
AcDbEntity
  8
치수문자_일반주서
 62
     0
370
    -2
100
AcDbLine
 10
39.75
 20
1.587500000000005
 30
0.0
 11
51.19128697670768
 21
1.587500000000048
 31
0.0
  0
LINE
  5
E2
330
DE
100
AcDbEntity
  8
치수문자_일반주서
 62
     0
370
    -2
100
AcDbLine
 10
39.75000000000001
 20
-1.587499999999995
 30
0.0
 11
51.19128697670769
 21
-1.587499999999952
 31
0.0
  0
LINE
  5
E3
330
DE
100
AcDbEntity
  8
치수문자_일반주서
 62
     0
370
    -2
100
AcDbLine
 10
51.19128697670768
 20
1.587500000000048
 30
0.0
 11
51.19128697670753
 21
34.87316211405125
 31
0.0
  0
LINE
  5
E4
330
DE
100
AcDbEntity
  8
치수문자_일반주서
 62
     0
370
    -2
100
AcDbLine
 10
51.19128697670768
 20
1.587500000000048
 30
0.0
 11
51.19128697670769
 21
-1.587499999999952
 31
0.0
  0
LINE
  5
E5
330
DE
100
AcDbEntity
  8
치수문자_일반주서
 62
     0
370
    -2
100
AcDbLine
 10
51.19128697670767
 20
4.889500000000048
 30
0.0
 11
51.19128697670765
 21
8.191500000000048
 31
0.0
  0
LINE
  5
E6
330
DE
100
AcDbEntity
  8
치수문자_일반주서
 62
     0
370
    -2
100
AcDbLine
 10
51.19128697670771
 20
-4.889499999999952
 30
0.0
 11
51.19128697670772
 21
-8.191499999999952
 31
0.0
  0
SOLID
  5
E7
330
DE
100
AcDbEntity
  8
치수문자_일반주서
 62
     0
100
AcDbTrace
 10
50.64095364337433
 20
4.889500000000045
 30
0.0
 11
51.741620310041
 21
4.889500000000051
 31
0.0
 12
51.19128697670768
 22
1.587500000000048
 32
0.0
 13
51.19128697670768
 23
1.587500000000048
 33
0.0
  0
SOLID
  5
E8
330
DE
100
AcDbEntity
  8
치수문자_일반주서
 62
     0
100
AcDbTrace
 10
51.74162031004104
 20
-4.889499999999949
 30
0.0
 11
50.64095364337437
 21
-4.889499999999955
 31
0.0
 12
51.19128697670769
 22
-1.587499999999952
 32
0.0
 13
51.19128697670769
 23
-1.587499999999952
 33
0.0
  0
MTEXT
  5
E9
330
DE
100
AcDbEntity
  8
치수문자_일반주서
 62
     0
100
AcDbMText
 10
46.81628697670759
 20
22.62316211405123
 30
0.0
 40
3.5
 41
0.0
 71
     2
 72
     1
  1
\A1;%%c3.18 [1/8]
  7
SLDTEXTSTYLE0
 11
-4.475859752819529E-15
 21
1.0
 31
0.0
 73
     1
 44
1.0
  0
POINT
  5
EA
330
DE
100
AcDbEntity
  8
Defpoints
 62
     0
100
AcDbPoint
 10
39.6875
 20
1.587500000000005
 30
0.0
  0
POINT
  5
EB
330
DE
100
AcDbEntity
  8
Defpoints
 62
     0
100
AcDbPoint
 10
39.68750000000001
 20
-1.587499999999995
 30
0.0
  0
POINT
  5
EC
330
DE
100
AcDbEntity
  8
Defpoints
 62
     0
100
AcDbPoint
 10
51.19128697670769
 20
-1.587499999999952
 30
0.0
  0
ENDBLK
  5
E0
330
DE
100
AcDbEntity
  8
0
100
AcDbBlockEnd
  0
BLOCK
  5
F4
330
F3
100
AcDbEntity
  8
0
100
AcDbBlockBegin
  2
_D_1
 70
     0
 10
0.0
 20
0.0
 30
0.0
  3
_D_1
  1
_D_1
  0
LINE
  5
F6
330
F3
100
AcDbEntity
  8
치수문자_일반주서
 62
     0
370
    -2
100
AcDbLine
 10
39.6875
 20
1.650000000000005
 30
0.0
 11
39.6875
 21
12.34138415910722
 31
0.0
  0
LINE
  5
F7
330
F3
100
AcDbEntity
  8
치수문자_일반주서
 62
     0
370
    -2
100
AcDbLine
 10
20.63750000000002
 20
1.464807189042017
 30
0.0
 11
20.63750000000002
 21
12.34138415910722
 31
0.0
  0
LINE
  5
F8
330
F3
100
AcDbEntity
  8
치수문자_일반주서
 62
     0
370
    -2
100
AcDbLine
 10
20.63750000000002
 20
12.34138415910722
 30
0.0
 11
-10.90399999999998
 21
12.34138415910722
 31
0.0
  0
LINE
  5
F9
330
F3
100
AcDbEntity
  8
치수문자_일반주서
 62
     0
370
    -2
100
AcDbLine
 10
39.6875
 20
12.34138415910722
 30
0.0
 11
20.63750000000002
 21
12.34138415910722
 31
0.0
  0
LINE
  5
FA
330
F3
100
AcDbEntity
  8
치수문자_일반주서
 62
     0
370
    -2
100
AcDbLine
 10
42.9895
 20
12.34138415910722
 30
0.0
 11
46.2915
 21
12.34138415910722
 31
0.0
  0
LINE
  5
FB
330
F3
100
AcDbEntity
  8
치수문자_일반주서
 62
     0
370
    -2
100
AcDbLine
 10
17.33550000000002
 20
12.34138415910722
 30
0.0
 11
14.03350000000002
 21
12.34138415910722
 31
0.0
  0
SOLID
  5
FC
330
F3
100
AcDbEntity
  8
치수문자_일반주서
 62
     0
100
AcDbTrace
 10
42.9895
 20
12.89171749244055
 30
0.0
 11
42.9895
 21
11.79105082577389
 31
0.0
 12
39.6875
 22
12.34138415910722
 32
0.0
 13
39.6875
 23
12.34138415910722
 33
0.0
  0
SOLID
  5
FD
330
F3
100
AcDbEntity
  8
치수문자_일반주서
 62
     0
100
AcDbTrace
 10
17.33550000000002
 20
11.79105082577389
 30
0.0
 11
17.33550000000002
 21
12.89171749244055
 31
0.0
 12
20.63750000000002
 22
12.34138415910722
 32
0.0
 13
20.63750000000002
 23
12.34138415910722
 33
0.0
  0
MTEXT
  5
FE
330
F3
100
AcDbEntity
  8
치수문자_일반주서
 62
     0
100
AcDbMText
 10
1.564750000000025
 20
16.71638415910722
 30
0.0
 40
3.5
 41
0.0
 71
     2
 72
     1
  1
\A1;19.05 [3/4]
  7
SLDTEXTSTYLE0
 73
     1
 44
1.0
  0
POINT
  5
FF
330
F3
100
AcDbEntity
  8
Defpoints
 62
     0
100
AcDbPoint
 10
39.6875
 20
1.587500000000005
 30
0.0
  0
POINT
  5
2F4
330
F3
100
AcDbEntity
  8
Defpoints
 62
     0
100
AcDbPoint
 10
20.63750000000002
 20
1.402307189042017
 30
0.0
  0
POINT
  5
2F5
330
F3
100
AcDbEntity
  8
Defpoints
 62
     0
100
AcDbPoint
 10
20.63750000000002
 20
12.34138415910722
 30
0.0
  0
ENDBLK
  5
F5
330
F3
100
AcDbEntity
  8
0
100
AcDbBlockEnd
  0
BLOCK
  5
108
330
107
100
AcDbEntity
  8
0
100
AcDbBlockBegin
  2
_D_2
 70
     0
 10
0.0
 20
0.0
 30
0.0
  3
_D_2
  1
_D_2
  0
LINE
  5
10A
330
107
100
AcDbEntity
  8
치수문자_일반주서
 62
     0
370
    -2
100
AcDbLine
 10
39.6875
 20
1.650000000000005
 30
0.0
 11
39.6875
 21
26.4102253051237
 31
0.0
  0
LINE
  5
10B
330
107
100
AcDbEntity
  8
치수문자_일반주서
 62
     0
370
    -2
100
AcDbLine
 10
-39.68750000000003
 20
1.649999999999992
 30
0.0
 11
-39.68750000000003
 21
26.4102253051237
 31
0.0
  0
LINE
  5
10C
330
107
100
AcDbEntity
  8
치수문자_일반주서
 62
     0
370
    -2
100
AcDbLine
 10
36.3855
 20
26.4102253051237
 30
0.0
 11
-36.38550000000003
 21
26.4102253051237
 31
0.0
  0
SOLID
  5
10D
330
107
100
AcDbEntity
  8
치수문자_일반주서
 62
     0
100
AcDbTrace
 10
36.3855
 20
25.85989197179037
 30
0.0
 11
36.3855
 21
26.96055863845704
 31
0.0
 12
39.6875
 22
26.4102253051237
 32
0.0
 13
39.6875
 23
26.4102253051237
 33
0.0
  0
SOLID
  5
10E
330
107
100
AcDbEntity
  8
치수문자_일반주서
 62
     0
100
AcDbTrace
 10
-36.38550000000003
 20
26.96055863845704
 30
0.0
 11
-36.38550000000003
 21
25.85989197179037
 31
0.0
 12
-39.68750000000003
 22
26.4102253051237
 32
0.0
 13
-39.68750000000003
 23
26.4102253051237
 33
0.0
  0
MTEXT
  5
10F
330
107
100
AcDbEntity
  8
치수문자_일반주서
 62
     0
100
AcDbMText
 10
2.831990344133672
 20
30.7852253051237
 30
0.0
 40
3.5
 41
0.0
 71
     2
 72
     1
  1
\A1;79.38 [3 1/8]
  7
SLDTEXTSTYLE0
 73
     1
 44
1.0
  0
POINT
  5
110
330
107
100
AcDbEntity
  8
Defpoints
 62
     0
100
AcDbPoint
 10
39.6875
 20
1.587500000000005
 30
0.0
  0
POINT
  5
111
330
107
100
AcDbEntity
  8
Defpoints
 62
     0
100
AcDbPoint
 10
-39.68750000000003
 20
1.587499999999992
 30
0.0
  0
POINT
  5
112
330
107
100
AcDbEntity
  8
Defpoints
 62
     0
100
AcDbPoint
 10
-39.68750000000003
 20
26.4102253051237
 30
0.0
  0
ENDBLK
  5
109
330
107
100
AcDbEntity
  8
0
100
AcDbBlockEnd
  0
BLOCK
  5
11B
330
11A
100
AcDbEntity
  8
0
100
AcDbBlockBegin
  2
_D_3
 70
     0
 10
0.0
 20
0.0
 30
0.0
  3
_D_3
  1
_D_3
  0
LINE
  5
11D
330
11A
100
AcDbEntity
  8
치수문자_일반주서
 62
     0
370
    -2
100
AcDbLine
 10
-16.73768467149222
 20
2.381250000000002
 30
0.0
 11
-52.6875
 21
2.381249999999869
 31
0.0
  0
LINE
  5
11E
330
11A
100
AcDbEntity
  8
치수문자_일반주서
 62
     0
370
    -2
100
AcDbLine
 10
-16.73768467149222
 20
-2.381250000000008
 30
0.0
 11
-52.68749999999999
 21
-2.381250000000141
 31
0.0
  0
LINE
  5
11F
330
11A
100
AcDbEntity
  8
치수문자_일반주서
 62
     0
370
    -2
100
AcDbLine
 10
-52.68749999999999
 20
-0.920750000000131
 30
0.0
 11
-52.68749999999999
 21
0.9207499999998583
 31
0.0
  0
SOLID
  5
120
330
11A
100
AcDbEntity
  8
치수문자_일반주서
 62
     0
100
AcDbTrace
 10
-52.13716666666666
 20
-0.9207500000001293
 30
0.0
 11
-53.23783333333333
 21
-0.9207500000001326
 31
0.0
 12
-52.6875
 22
2.381249999999869
 32
0.0
 13
-52.6875
 23
2.381249999999869
 33
0.0
  0
SOLID
  5
121
330
11A
100
AcDbEntity
  8
치수문자_일반주서
 62
     0
100
AcDbTrace
 10
-53.23783333333333
 20
0.9207499999998566
 30
0.0
 11
-52.13716666666666
 21
0.92074999999986
 31
0.0
 12
-52.68749999999999
 22
-2.381250000000141
 32
0.0
 13
-52.68749999999999
 23
-2.381250000000141
 33
0.0
  0
MTEXT
  5
122
330
11A
100
AcDbEntity
  8
치수문자_일반주서
 62
     0
100
AcDbMText
 10
-57.06249999999999
 20
-0.0000000000000131
 30
0.0
 40
3.5
 41
0.0
 71
     2
 72
     1
  1
\A1;%%c4.76 [3/16]
  7
SLDTEXTSTYLE0
 11
-2.983906501879679E-15
 21
1.0
 31
0.0
 73
     1
 44
1.0
  0
POINT
  5
123
330
11A
100
AcDbEntity
  8
Defpoints
 62
     0
100
AcDbPoint
 10
-16.67518467149222
 20
2.381250000000002
 30
0.0
  0
POINT
  5
124
330
11A
100
AcDbEntity
  8
Defpoints
 62
     0
100
AcDbPoint
 10
-16.67518467149222
 20
-2.381250000000008
 30
0.0
  0
POINT
  5
125
330
11A
100
AcDbEntity
  8
Defpoints
 62
     0
100
AcDbPoint
 10
-52.68749999999999
 20
-2.381250000000142
 30
0.0
  0
ENDBLK
  5
11C
330
11A
100
AcDbEntity
  8
0
100
AcDbBlockEnd
  0
BLOCK
  5
135
330
134
100
AcDbEntity
  8
0
100
AcDbBlockBegin
  2
SW_DOWELSYMBOL_0
 70
     0
 10
0.0
 20
0.0
 30
0.0
  3
SW_DOWELSYMBOL_0
  1
SW_DOWELSYMBOL_0
  0
CIRCLE
  5
137
330
134
100
AcDbEntity
  8
해칭선
 62
     0
100
AcDbCircle
 10
0.0
 20
0.0
 30
0.0
 40
3.000000000000001
  0
HATCH
  5
138
330
134
100
AcDbEntity
  8
0
  6
Continuous
 62
     0
370
     0
100
AcDbHatch
 10
0.0
 20
0.0
 30
0.0
210
0.0
220
0.0
230
1.0
  2
SOLID
 70
     1
 71
     0
 91
        1
 92
        0
 93
        3
 72
     2
 10
0.0
 20
0.0
 40
3.000000000000001
 50
0.0
 51
90.0
 73
     1
 72
     1
 10
0.0
 20
3.000000000000001
 11
0.0
 21
0.0
 72
     1
 10
0.0
 20
0.0
 11
3.000000000000003
 21
0.0
 97
        0
 75
     0
 76
     1
 98
        1
 10
0.0
 20
0.0
  0
HATCH
  5
139
330
134
100
AcDbEntity
  8
0
  6
Continuous
 62
     0
370
     0
100
AcDbHatch
 10
0.0
 20
0.0
 30
0.0
210
0.0
220
0.0
230
1.0
  2
SOLID
 70
     1
 71
     0
 91
        1
 92
        0
 93
        3
 72
     2
 10
0.0
 20
0.0
 40
3.000000000000001
 50
180.0
 51
270.0000000000008
 73
     1
 72
     1
 10
0.0
 20
-3.000000000000001
 11
0.0
 21
0.0
 72
     1
 10
0.0
 20
0.0
 11
-3.000000000000001
 21
0.0
 97
        0
 75
     0
 76
     1
 98
        1
 10
0.0
 20
0.0
  0
ENDBLK
  5
136
330
134
100
AcDbEntity
  8
0
100
AcDbBlockEnd
  0
BLOCK
  5
229
330
228
100
AcDbEntity
  8
0
100
AcDbBlockBegin
  2
*D8
 70
     1
 10
0.0
 20
0.0
 30
0.0
  3
*D8
  1
*D8
  0
LINE
  5
22B
330
228
100
AcDbEntity
  8
치수문자_일반주서
 62
     0
370
    -2
100
AcDbLine
 10
84.11250000000004
 20
14.51406250000002
 30
0.0
 11
101.1774551921826
 21
14.51406250000009
 31
0.0
  0
LINE
  5
22C
330
228
100
AcDbEntity
  8
치수문자_일반주서
 62
     0
370
    -2
100
AcDbLine
 10
84.11250000000004
 20
11.73593750000002
 30
0.0
 11
101.1774551921826
 21
11.73593750000008
 31
0.0
  0
LINE
  5
22D
330
228
100
AcDbEntity
  8
치수문자_일반주서
 62
     0
370
    -2
100
AcDbLine
 10
101.1774551921826
 20
14.51406250000009
 30
0.0
 11
101.1774551921824
 21
49.99306250000009
 31
0.0
  0
LINE
  5
22E
330
228
100
AcDbEntity
  8
치수문자_일반주서
 62
     0
370
    -2
100
AcDbLine
 10
101.1774551921826
 20
14.51406250000009
 30
0.0
 11
101.1774551921826
 21
11.73593750000008
 31
0.0
  0
LINE
  5
22F
330
228
100
AcDbEntity
  8
치수문자_일반주서
 62
     0
370
    -2
100
AcDbLine
 10
101.1774551921826
 20
17.81606250000009
 30
0.0
 11
101.1774551921825
 21
21.11806250000009
 31
0.0
  0
LINE
  5
230
330
228
100
AcDbEntity
  8
치수문자_일반주서
 62
     0
370
    -2
100
AcDbLine
 10
101.1774551921826
 20
8.433937500000084
 30
0.0
 11
101.1774551921826
 21
5.131937500000085
 31
0.0
  0
SOLID
  5
231
330
228
100
AcDbEntity
  8
치수문자_일반주서
 62
     0
100
AcDbTrace
 10
100.6271218588492
 20
17.81606250000008
 30
0.0
 11
101.7277885255159
 21
17.81606250000009
 31
0.0
 12
101.1774551921826
 22
14.51406250000009
 32
0.0
 13
101.1774551921826
 23
14.51406250000009
 33
0.0
  0
SOLID
  5
232
330
228
100
AcDbEntity
  8
치수문자_일반주서
 62
     0
100
AcDbTrace
 10
101.7277885255159
 20
8.433937500000088
 30
0.0
 11
100.6271218588493
 21
8.43393750000008
 31
0.0
 12
101.1774551921826
 22
11.73593750000008
 32
0.0
 13
101.1774551921826
 23
11.73593750000008
 33
0.0
  0
MTEXT
  5
233
330
228
100
AcDbEntity
  8
치수문자_일반주서
 62
     0
100
AcDbMText
 10
96.80245519218246
 20
35.55556250000006
 30
0.0
 40
3.5
 41
0.0
 71
     2
 72
     1
  1
\A1;%%c2.78 [7/64]
  7
SLDTEXTSTYLE0
 11
-5.115268288936602E-15
 21
1.0
 31
0.0
 73
     1
 44
1.0
  0
POINT
  5
234
330
228
100
AcDbEntity
  8
Defpoints
 62
     0
100
AcDbPoint
 10
84.05000000000004
 20
14.51406250000002
 30
0.0
  0
POINT
  5
235
330
228
100
AcDbEntity
  8
Defpoints
 62
     0
100
AcDbPoint
 10
84.05000000000004
 20
11.73593750000002
 30
0.0
  0
POINT
  5
236
330
228
100
AcDbEntity
  8
Defpoints
 62
     0
100
AcDbPoint
 10
101.1774551921825
 20
11.73593750000009
 30
0.0
  0
ENDBLK
  5
22A
330
228
100
AcDbEntity
  8
0
100
AcDbBlockEnd
  0
BLOCK
  5
238
330
237
100
AcDbEntity
  8
0
100
AcDbBlockBegin
  2
*D9
 70
     1
 10
0.0
 20
0.0
 30
0.0
  3
*D9
  1
*D9
  0
LINE
  5
23A
330
237
100
AcDbEntity
  8
치수문자_일반주서
 62
     0
370
    -2
100
AcDbLine
 10
84.05000000000004
 20
14.57656250000002
 30
0.0
 11
84.05000000000004
 21
32.45200659513948
 31
0.0
  0
LINE
  5
23B
330
237
100
AcDbEntity
  8
치수문자_일반주서
 62
     0
370
    -2
100
AcDbLine
 10
76.90625000000001
 20
14.5713586175503
 30
0.0
 11
76.90625000000001
 21
32.45200659513948
 31
0.0
  0
LINE
  5
23C
330
237
100
AcDbEntity
  8
치수문자_일반주서
 62
     0
370
    -2
100
AcDbLine
 10
76.90625000000001
 20
32.45200659513948
 30
0.0
 11
44.92725000000002
 21
32.45200659513948
 31
0.0
  0
LINE
  5
23D
330
237
100
AcDbEntity
  8
치수문자_일반주서
 62
     0
370
    -2
100
AcDbLine
 10
84.05000000000004
 20
32.45200659513948
 30
0.0
 11
76.90625000000001
 21
32.45200659513948
 31
0.0
  0
LINE
  5
23E
330
237
100
AcDbEntity
  8
치수문자_일반주서
 62
     0
370
    -2
100
AcDbLine
 10
87.35200000000003
 20
32.45200659513948
 30
0.0
 11
90.65400000000002
 21
32.45200659513948
 31
0.0
  0
LINE
  5
23F
330
237
100
AcDbEntity
  8
치수문자_일반주서
 62
     0
370
    -2
100
AcDbLine
 10
73.60425000000001
 20
32.45200659513948
 30
0.0
 11
70.30225000000002
 21
32.45200659513948
 31
0.0
  0
SOLID
  5
240
330
237
100
AcDbEntity
  8
치수문자_일반주서
 62
     0
100
AcDbTrace
 10
87.35200000000003
 20
33.00233992847281
 30
0.0
 11
87.35200000000003
 21
31.90167326180615
 31
0.0
 12
84.05000000000004
 22
32.45200659513948
 32
0.0
 13
84.05000000000004
 23
32.45200659513948
 33
0.0
  0
SOLID
  5
241
330
237
100
AcDbEntity
  8
치수문자_일반주서
 62
     0
100
AcDbTrace
 10
73.60425000000001
 20
31.90167326180615
 30
0.0
 11
73.60425000000001
 21
33.00233992847281
 31
0.0
 12
76.90625000000001
 22
32.45200659513948
 32
0.0
 13
76.90625000000001
 23
32.45200659513948
 33
0.0
  0
MTEXT
  5
242
330
237
100
AcDbEntity
  8
치수문자_일반주서
 62
     0
100
AcDbMText
 10
57.61475000000002
 20
36.82700659513948
 30
0.0
 40
3.5
 41
0.0
 71
     2
 72
     1
  1
\A1;7.14 [9/32]
  7
SLDTEXTSTYLE0
 73
     1
 44
1.0
  0
POINT
  5
243
330
237
100
AcDbEntity
  8
Defpoints
 62
     0
100
AcDbPoint
 10
84.05000000000004
 20
14.51406250000002
 30
0.0
  0
POINT
  5
244
330
237
100
AcDbEntity
  8
Defpoints
 62
     0
100
AcDbPoint
 10
76.90625000000001
 20
14.5088586175503
 30
0.0
  0
POINT
  5
245
330
237
100
AcDbEntity
  8
Defpoints
 62
     0
100
AcDbPoint
 10
76.90625000000001
 20
32.45200659513948
 30
0.0
  0
ENDBLK
  5
239
330
237
100
AcDbEntity
  8
0
100
AcDbBlockEnd
  0
BLOCK
  5
247
330
246
100
AcDbEntity
  8
0
100
AcDbBlockBegin
  2
*D10
 70
     1
 10
0.0
 20
0.0
 30
0.0
  3
*D10
  1
*D10
  0
LINE
  5
249
330
246
100
AcDbEntity
  8
치수문자_일반주서
 62
     0
370
    -2
100
AcDbLine
 10
84.05000000000004
 20
14.57656250000002
 30
0.0
 11
84.05000000000004
 21
44.73205825953613
 31
0.0
  0
LINE
  5
24A
330
246
100
AcDbEntity
  8
치수문자_일반주서
 62
     0
370
    -2
100
AcDbLine
 10
17.37500000000003
 20
14.57656250000002
 30
0.0
 11
17.37500000000003
 21
44.73205825953613
 31
0.0
  0
LINE
  5
24B
330
246
100
AcDbEntity
  8
치수문자_일반주서
 62
     0
370
    -2
100
AcDbLine
 10
80.74800000000005
 20
44.73205825953613
 30
0.0
 11
20.67700000000003
 21
44.73205825953613
 31
0.0
  0
SOLID
  5
24C
330
246
100
AcDbEntity
  8
치수문자_일반주서
 62
     0
100
AcDbTrace
 10
80.74800000000005
 20
44.1817249262028
 30
0.0
 11
80.74800000000005
 21
45.28239159286947
 31
0.0
 12
84.05000000000004
 22
44.73205825953613
 32
0.0
 13
84.05000000000004
 23
44.73205825953613
 33
0.0
  0
SOLID
  5
24D
330
246
100
AcDbEntity
  8
치수문자_일반주서
 62
     0
100
AcDbTrace
 10
20.67700000000003
 20
45.28239159286947
 30
0.0
 11
20.67700000000003
 21
44.1817249262028
 31
0.0
 12
17.37500000000003
 22
44.73205825953613
 32
0.0
 13
17.37500000000003
 23
44.73205825953613
 33
0.0
  0
MTEXT
  5
24E
330
246
100
AcDbEntity
  8
치수문자_일반주서
 62
     0
100
AcDbMText
 10
49.01129059952541
 20
49.10705825953613
 30
0.0
 40
3.5
 41
0.0
 71
     2
 72
     1
  1
\A1;66.68 [2 5/8]
  7
SLDTEXTSTYLE0
 73
     1
 44
1.0
  0
POINT
  5
24F
330
246
100
AcDbEntity
  8
Defpoints
 62
     0
100
AcDbPoint
 10
84.05000000000004
 20
14.51406250000002
 30
0.0
  0
POINT
  5
250
330
246
100
AcDbEntity
  8
Defpoints
 62
     0
100
AcDbPoint
 10
17.37500000000003
 20
14.51406250000002
 30
0.0
  0
POINT
  5
251
330
246
100
AcDbEntity
  8
Defpoints
 62
     0
100
AcDbPoint
 10
17.37500000000003
 20
44.73205825953613
 30
0.0
  0
ENDBLK
  5
248
330
246
100
AcDbEntity
  8
0
100
AcDbBlockEnd
  0
BLOCK
  5
253
330
252
100
AcDbEntity
  8
0
100
AcDbBlockBegin
  2
*D11
 70
     1
 10
0.0
 20
0.0
 30
0.0
  3
*D11
  1
*D11
  0
LINE
  5
255
330
252
100
AcDbEntity
  8
치수문자_일반주서
 62
     0
370
    -2
100
AcDbLine
 10
29.1591441606348
 20
15.50625000000002
 30
0.0
 11
4.375000000000028
 21
15.50624999999993
 31
0.0
  0
LINE
  5
256
330
252
100
AcDbEntity
  8
치수문자_일반주서
 62
     0
370
    -2
100
AcDbLine
 10
29.1591441606348
 20
10.74375000000001
 30
0.0
 11
4.375000000000044
 21
10.74374999999992
 31
0.0
  0
LINE
  5
257
330
252
100
AcDbEntity
  8
치수문자_일반주서
 62
     0
370
    -2
100
AcDbLine
 10
4.375000000000039
 20
12.20424999999993
 30
0.0
 11
4.375000000000033
 21
14.04574999999992
 31
0.0
  0
SOLID
  5
258
330
252
100
AcDbEntity
  8
치수문자_일반주서
 62
     0
100
AcDbTrace
 10
4.925333333333373
 20
12.20424999999993
 30
0.0
 11
3.824666666666706
 21
12.20424999999993
 31
0.0
 12
4.375000000000028
 22
15.50624999999993
 32
0.0
 13
4.375000000000028
 23
15.50624999999993
 33
0.0
  0
SOLID
  5
259
330
252
100
AcDbEntity
  8
치수문자_일반주서
 62
     0
100
AcDbTrace
 10
3.8246666666667
 20
14.04574999999992
 30
0.0
 11
4.925333333333366
 21
14.04574999999992
 31
0.0
 12
4.375000000000044
 22
10.74374999999992
 32
0.0
 13
4.375000000000044
 23
10.74374999999992
 33
0.0
  0
MTEXT
  5
25A
330
252
100
AcDbEntity
  8
치수문자_일반주서
 62
     0
100
AcDbMText
 10
0.0000000000000355
 20
13.125
 30
0.0
 40
3.5
 41
0.0
 71
     2
 72
     1
  1
\A1;%%c4.76 [3/16]
  7
SLDTEXTSTYLE0
 11
-3.543388970982122E-15
 21
1.0
 31
0.0
 73
     1
 44
1.0
  0
POINT
  5
25B
330
252
100
AcDbEntity
  8
Defpoints
 62
     0
100
AcDbPoint
 10
29.2216441606348
 20
15.50625000000002
 30
0.0
  0
POINT
  5
25C
330
252
100
AcDbEntity
  8
Defpoints
 62
     0
100
AcDbPoint
 10
29.2216441606348
 20
10.74375000000001
 30
0.0
  0
POINT
  5
25D
330
252
100
AcDbEntity
  8
Defpoints
 62
     0
100
AcDbPoint
 10
4.375000000000043
 20
10.74374999999992
 30
0.0
  0
ENDBLK
  5
254
330
252
100
AcDbEntity
  8
0
100
AcDbBlockEnd
  0
BLOCK
  5
2BF
330
2BE
100
AcDbEntity
  8
0
100
AcDbBlockBegin
  2
*D12
 70
     1
 10
0.0
 20
0.0
 30
0.0
  3
*D12
  1
*D12
  0
LINE
  5
2C1
330
2BE
100
AcDbEntity
  8
치수문자_일반주서
 62
     0
370
    -2
100
AcDbLine
 10
154.5760406987394
 20
-31.72548496660657
 30
0.0
 11
171.6409958909218
 21
-31.72548496660651
 31
0.0
  0
LINE
  5
2C2
330
2BE
100
AcDbEntity
  8
치수문자_일반주서
 62
     0
370
    -2
100
AcDbLine
 10
154.5760406987394
 20
-34.50360996660658
 30
0.0
 11
171.6409958909218
 21
-34.50360996660651
 31
0.0
  0
LINE
  5
2C3
330
2BE
100
AcDbEntity
  8
치수문자_일반주서
 62
     0
370
    -2
100
AcDbLine
 10
171.6409958909218
 20
-31.72548496660651
 30
0.0
 11
171.6409958909218
 21
3.753515033393491
 31
0.0
  0
LINE
  5
2C4
330
2BE
100
AcDbEntity
  8
치수문자_일반주서
 62
     0
370
    -2
100
AcDbLine
 10
171.6409958909218
 20
-31.72548496660651
 30
0.0
 11
171.6409958909218
 21
-34.50360996660651
 31
0.0
  0
LINE
  5
2C5
330
2BE
100
AcDbEntity
  8
치수문자_일반주서
 62
     0
370
    -2
100
AcDbLine
 10
171.6409958909218
 20
-28.42348496660651
 30
0.0
 11
171.6409958909218
 21
-25.12148496660651
 31
0.0
  0
LINE
  5
2C6
330
2BE
100
AcDbEntity
  8
치수문자_일반주서
 62
     0
370
    -2
100
AcDbLine
 10
171.6409958909218
 20
-37.80560996660651
 30
0.0
 11
171.6409958909218
 21
-41.10760996660651
 31
0.0
  0
SOLID
  5
2C7
330
2BE
100
AcDbEntity
  8
치수문자_일반주서
 62
     0
100
AcDbTrace
 10
171.0906625575885
 20
-28.42348496660651
 30
0.0
 11
172.1913292242551
 21
-28.42348496660651
 31
0.0
 12
171.6409958909218
 22
-31.72548496660651
 32
0.0
 13
171.6409958909218
 23
-31.72548496660651
 33
0.0
  0
SOLID
  5
2C8
330
2BE
100
AcDbEntity
  8
치수문자_일반주서
 62
     0
100
AcDbTrace
 10
172.1913292242551
 20
-37.80560996660651
 30
0.0
 11
171.0906625575885
 21
-37.80560996660651
 31
0.0
 12
171.6409958909218
 22
-34.50360996660651
 32
0.0
 13
171.6409958909218
 23
-34.50360996660651
 33
0.0
  0
MTEXT
  5
2C9
330
2BE
100
AcDbEntity
  8
치수문자_일반주서
 62
     0
100
AcDbMText
 10
167.2659958909218
 20
-10.68398496660651
 30
0.0
 40
3.5
 41
0.0
 71
     2
 72
     1
  1
\A1;%%c2.78 [7/64]
  7
SLDTEXTSTYLE0
 11
0.0
 21
1.0
 31
0.0
 73
     1
 44
1.0
  0
POINT
  5
2CA
330
2BE
100
AcDbEntity
  8
Defpoints
 62
     0
100
AcDbPoint
 10
154.5135406987394
 20
-31.72548496660657
 30
0.0
  0
POINT
  5
2CB
330
2BE
100
AcDbEntity
  8
Defpoints
 62
     0
100
AcDbPoint
 10
154.5135406987394
 20
-34.50360996660658
 30
0.0
  0
POINT
  5
2CC
330
2BE
100
AcDbEntity
  8
Defpoints
 62
     0
100
AcDbPoint
 10
171.6409958909219
 20
-34.50360996660651
 30
0.0
  0
ENDBLK
  5
2C0
330
2BE
100
AcDbEntity
  8
0
100
AcDbBlockEnd
  0
BLOCK
  5
2CE
330
2CD
100
AcDbEntity
  8
0
100
AcDbBlockBegin
  2
*D13
 70
     1
 10
0.0
 20
0.0
 30
0.0
  3
*D13
  1
*D13
  0
LINE
  5
2D0
330
2CD
100
AcDbEntity
  8
치수문자_일반주서
 62
     0
370
    -2
100
AcDbLine
 10
154.5135406987394
 20
-31.66298496660657
 30
0.0
 11
154.5135406987394
 21
-13.78754087146712
 31
0.0
  0
LINE
  5
2D1
330
2CD
100
AcDbEntity
  8
치수문자_일반주서
 62
     0
370
    -2
100
AcDbLine
 10
147.3697906987393
 20
-31.6681888490563
 30
0.0
 11
147.3697906987393
 21
-13.78754087146712
 31
0.0
  0
LINE
  5
2D2
330
2CD
100
AcDbEntity
  8
치수문자_일반주서
 62
     0
370
    -2
100
AcDbLine
 10
147.3697906987393
 20
-13.78754087146712
 30
0.0
 11
115.3907906987394
 21
-13.78754087146712
 31
0.0
  0
LINE
  5
2D3
330
2CD
100
AcDbEntity
  8
치수문자_일반주서
 62
     0
370
    -2
100
AcDbLine
 10
154.5135406987394
 20
-13.78754087146712
 30
0.0
 11
147.3697906987393
 21
-13.78754087146712
 31
0.0
  0
LINE
  5
2D4
330
2CD
100
AcDbEntity
  8
치수문자_일반주서
 62
     0
370
    -2
100
AcDbLine
 10
157.8155406987394
 20
-13.78754087146712
 30
0.0
 11
161.1175406987394
 21
-13.78754087146712
 31
0.0
  0
LINE
  5
2D5
330
2CD
100
AcDbEntity
  8
치수문자_일반주서
 62
     0
370
    -2
100
AcDbLine
 10
144.0677906987393
 20
-13.78754087146712
 30
0.0
 11
140.7657906987394
 21
-13.78754087146712
 31
0.0
  0
SOLID
  5
2D6
330
2CD
100
AcDbEntity
  8
치수문자_일반주서
 62
     0
100
AcDbTrace
 10
157.8155406987394
 20
-13.23720753813378
 30
0.0
 11
157.8155406987394
 21
-14.33787420480045
 31
0.0
 12
154.5135406987394
 22
-13.78754087146712
 32
0.0
 13
154.5135406987394
 23
-13.78754087146712
 33
0.0
  0
SOLID
  5
2D7
330
2CD
100
AcDbEntity
  8
치수문자_일반주서
 62
     0
100
AcDbTrace
 10
144.0677906987393
 20
-14.33787420480045
 30
0.0
 11
144.0677906987393
 21
-13.23720753813378
 31
0.0
 12
147.3697906987393
 22
-13.78754087146712
 32
0.0
 13
147.3697906987393
 23
-13.78754087146712
 33
0.0
  0
MTEXT
  5
2D8
330
2CD
100
AcDbEntity
  8
치수문자_일반주서
 62
     0
100
AcDbMText
 10
128.0782906987394
 20
-9.412540871467115
 30
0.0
 40
3.5
 41
0.0
 71
     2
 72
     1
  1
\A1;7.14 [9/32]
  7
SLDTEXTSTYLE0
 73
     1
 44
1.0
  0
POINT
  5
2D9
330
2CD
100
AcDbEntity
  8
Defpoints
 62
     0
100
AcDbPoint
 10
154.5135406987394
 20
-31.72548496660657
 30
0.0
  0
POINT
  5
2DA
330
2CD
100
AcDbEntity
  8
Defpoints
 62
     0
100
AcDbPoint
 10
147.3697906987393
 20
-31.7306888490563
 30
0.0
  0
POINT
  5
2DB
330
2CD
100
AcDbEntity
  8
Defpoints
 62
     0
100
AcDbPoint
 10
147.3697906987393
 20
-13.78754087146712
 30
0.0
  0
ENDBLK
  5
2CF
330
2CD
100
AcDbEntity
  8
0
100
AcDbBlockEnd
  0
BLOCK
  5
2DD
330
2DC
100
AcDbEntity
  8
0
100
AcDbBlockBegin
  2
*D14
 70
     1
 10
0.0
 20
0.0
 30
0.0
  3
*D14
  1
*D14
  0
LINE
  5
2DF
330
2DC
100
AcDbEntity
  8
치수문자_일반주서
 62
     0
370
    -2
100
AcDbLine
 10
154.5135406987394
 20
-31.66298496660657
 30
0.0
 11
154.5135406987394
 21
-1.507489207070464
 31
0.0
  0
LINE
  5
2E0
330
2DC
100
AcDbEntity
  8
치수문자_일반주서
 62
     0
370
    -2
100
AcDbLine
 10
87.83854069873937
 20
-31.66298496660658
 30
0.0
 11
87.83854069873937
 21
-1.507489207070464
 31
0.0
  0
LINE
  5
2E1
330
2DC
100
AcDbEntity
  8
치수문자_일반주서
 62
     0
370
    -2
100
AcDbLine
 10
151.2115406987394
 20
-1.507489207070464
 30
0.0
 11
91.14054069873936
 21
-1.507489207070464
 31
0.0
  0
SOLID
  5
2E2
330
2DC
100
AcDbEntity
  8
치수문자_일반주서
 62
     0
100
AcDbTrace
 10
151.2115406987394
 20
-2.057822540403797
 30
0.0
 11
151.2115406987394
 21
-0.9571558737371303
 31
0.0
 12
154.5135406987394
 22
-1.507489207070464
 32
0.0
 13
154.5135406987394
 23
-1.507489207070464
 33
0.0
  0
SOLID
  5
2E3
330
2DC
100
AcDbEntity
  8
치수문자_일반주서
 62
     0
100
AcDbTrace
 10
91.14054069873936
 20
-0.9571558737371303
 30
0.0
 11
91.14054069873936
 21
-2.057822540403797
 31
0.0
 12
87.83854069873937
 22
-1.507489207070464
 32
0.0
 13
87.83854069873937
 23
-1.507489207070464
 33
0.0
  0
MTEXT
  5
2E4
330
2DC
100
AcDbEntity
  8
치수문자_일반주서
 62
     0
100
AcDbMText
 10
119.4748312982647
 20
2.867510792929536
 30
0.0
 40
3.5
 41
0.0
 71
     2
 72
     1
  1
\A1;66.68 [2 5/8]
  7
SLDTEXTSTYLE0
 73
     1
 44
1.0
  0
POINT
  5
2E5
330
2DC
100
AcDbEntity
  8
Defpoints
 62
     0
100
AcDbPoint
 10
154.5135406987394
 20
-31.72548496660657
 30
0.0
  0
POINT
  5
2E6
330
2DC
100
AcDbEntity
  8
Defpoints
 62
     0
100
AcDbPoint
 10
87.83854069873937
 20
-31.72548496660658
 30
0.0
  0
POINT
  5
2E7
330
2DC
100
AcDbEntity
  8
Defpoints
 62
     0
100
AcDbPoint
 10
87.83854069873937
 20
-1.507489207070464
 30
0.0
  0
ENDBLK
  5
2DE
330
2DC
100
AcDbEntity
  8
0
100
AcDbBlockEnd
  0
BLOCK
  5
2E9
330
2E8
100
AcDbEntity
  8
0
100
AcDbBlockBegin
  2
*D15
 70
     1
 10
0.0
 20
0.0
 30
0.0
  3
*D15
  1
*D15
  0
LINE
  5
2EB
330
2E8
100
AcDbEntity
  8
치수문자_일반주서
 62
     0
370
    -2
100
AcDbLine
 10
99.62268485937413
 20
-30.73329746660657
 30
0.0
 11
74.83854069873937
 21
-30.73329746660666
 31
0.0
  0
LINE
  5
2EC
330
2E8
100
AcDbEntity
  8
치수문자_일반주서
 62
     0
370
    -2
100
AcDbLine
 10
99.62268485937413
 20
-35.49579746660658
 30
0.0
 11
74.83854069873938
 21
-35.49579746660667
 31
0.0
  0
LINE
  5
2ED
330
2E8
100
AcDbEntity
  8
치수문자_일반주서
 62
     0
370
    -2
100
AcDbLine
 10
74.83854069873938
 20
-34.03529746660666
 30
0.0
 11
74.83854069873937
 21
-32.19379746660668
 31
0.0
  0
SOLID
  5
2EE
330
2E8
100
AcDbEntity
  8
치수문자_일반주서
 62
     0
100
AcDbTrace
 10
75.3888740320727
 20
-34.03529746660666
 30
0.0
 11
74.28820736540605
 21
-34.03529746660666
 31
0.0
 12
74.83854069873937
 22
-30.73329746660666
 32
0.0
 13
74.83854069873937
 23
-30.73329746660666
 33
0.0
  0
SOLID
  5
2EF
330
2E8
100
AcDbEntity
  8
치수문자_일반주서
 62
     0
100
AcDbTrace
 10
74.28820736540604
 20
-32.19379746660668
 30
0.0
 11
75.38887403207269
 21
-32.19379746660668
 31
0.0
 12
74.83854069873938
 22
-35.49579746660667
 32
0.0
 13
74.83854069873938
 23
-35.49579746660667
 33
0.0
  0
MTEXT
  5
2F0
330
2E8
100
AcDbEntity
  8
치수문자_일반주서
 62
     0
100
AcDbMText
 10
70.46354069873937
 20
-33.1145474666066
 30
0.0
 40
3.5
 41
0.0
 71
     2
 72
     1
  1
\A1;%%c4.76 [3/16]
  7
SLDTEXTSTYLE0
 11
-2.983906501879679E-15
 21
1.0
 31
0.0
 73
     1
 44
1.0
  0
POINT
  5
2F1
330
2E8
100
AcDbEntity
  8
Defpoints
 62
     0
100
AcDbPoint
 10
99.68518485937413
 20
-30.73329746660657
 30
0.0
  0
POINT
  5
2F2
330
2E8
100
AcDbEntity
  8
Defpoints
 62
     0
100
AcDbPoint
 10
99.68518485937413
 20
-35.49579746660658
 30
0.0
  0
POINT
  5
2F3
330
2E8
100
AcDbEntity
  8
Defpoints
 62
     0
100
AcDbPoint
 10
74.83854069873938
 20
-35.49579746660667
 30
0.0
  0
ENDBLK
  5
2EA
330
2E8
100
AcDbEntity
  8
0
100
AcDbBlockEnd
  0
BLOCK
  5
3BB
330
3BA
100
AcDbEntity
  8
0
100
AcDbBlockBegin
  2
*D18
 70
     1
 10
0.0
 20
0.0
 30
0.0
  3
*D18
  1
*D18
  0
LINE
  5
3BD
330
3BA
100
AcDbEntity
  8
치수문자_일반주서
 62
     0
370
    -2
100
AcDbLine
 10
82.4375
 20
9.778999999999956
 30
0.0
 11
93.87878697670769
 21
9.778999999999996
 31
0.0
  0
LINE
  5
3BE
330
3BA
100
AcDbEntity
  8
치수문자_일반주서
 62
     0
370
    -2
100
AcDbLine
 10
82.43750000000001
 20
6.603999999999956
 30
0.0
 11
93.8787869767077
 21
6.603999999999999
 31
0.0
  0
LINE
  5
3BF
330
3BA
100
AcDbEntity
  8
치수문자_일반주서
 62
     0
370
    -2
100
AcDbLine
 10
93.87878697670769
 20
9.778999999999996
 30
0.0
 11
93.87878697670753
 21
43.0646621140512
 31
0.0
  0
LINE
  5
3C0
330
3BA
100
AcDbEntity
  8
치수문자_일반주서
 62
     0
370
    -2
100
AcDbLine
 10
93.87878697670769
 20
9.778999999999996
 30
0.0
 11
93.8787869767077
 21
6.603999999999999
 31
0.0
  0
LINE
  5
3C1
330
3BA
100
AcDbEntity
  8
치수문자_일반주서
 62
     0
370
    -2
100
AcDbLine
 10
93.87878697670767
 20
13.081
 30
0.0
 11
93.87878697670766
 21
16.383
 31
0.0
  0
LINE
  5
3C2
330
3BA
100
AcDbEntity
  8
치수문자_일반주서
 62
     0
370
    -2
100
AcDbLine
 10
93.87878697670772
 20
3.302
 30
0.0
 11
93.87878697670773
 21
0.0
 31
0.0
  0
SOLID
  5
3C3
330
3BA
100
AcDbEntity
  8
치수문자_일반주서
 62
     0
100
AcDbTrace
 10
93.32845364337435
 20
13.08099999999999
 30
0.0
 11
94.429120310041
 21
13.081
 31
0.0
 12
93.87878697670769
 22
9.778999999999996
 32
0.0
 13
93.87878697670769
 23
9.778999999999996
 33
0.0
  0
SOLID
  5
3C4
330
3BA
100
AcDbEntity
  8
치수문자_일반주서
 62
     0
100
AcDbTrace
 10
94.42912031004104
 20
3.302000000000002
 30
0.0
 11
93.32845364337439
 21
3.301999999999997
 31
0.0
 12
93.8787869767077
 22
6.603999999999999
 32
0.0
 13
93.8787869767077
 23
6.603999999999999
 33
0.0
  0
MTEXT
  5
3C5
330
3BA
100
AcDbEntity
  8
치수문자_일반주서
 62
     0
100
AcDbMText
 10
89.50378697670759
 20
30.81466211405118
 30
0.0
 40
3.5
 41
0.0
 71
     2
 72
     1
  1
\A1;%%c3.18 [1/8]
  7
SLDTEXTSTYLE0
 11
-4.475859752819529E-15
 21
1.0
 31
0.0
 73
     1
 44
1.0
  0
POINT
  5
3C6
330
3BA
100
AcDbEntity
  8
Defpoints
 62
     0
100
AcDbPoint
 10
82.375
 20
9.778999999999956
 30
0.0
  0
POINT
  5
3C7
330
3BA
100
AcDbEntity
  8
Defpoints
 62
     0
100
AcDbPoint
 10
82.37500000000001
 20
6.603999999999956
 30
0.0
  0
POINT
  5
3C8
330
3BA
100
AcDbEntity
  8
Defpoints
 62
     0
100
AcDbPoint
 10
93.87878697670769
 20
6.603999999999998
 30
0.0
  0
ENDBLK
  5
3BC
330
3BA
100
AcDbEntity
  8
0
100
AcDbBlockEnd
  0
BLOCK
  5
3CA
330
3C9
100
AcDbEntity
  8
0
100
AcDbBlockBegin
  2
*D19
 70
     1
 10
0.0
 20
0.0
 30
0.0
  3
*D19
  1
*D19
  0
LINE
  5
3CC
330
3C9
100
AcDbEntity
  8
치수문자_일반주서
 62
     0
370
    -2
100
AcDbLine
 10
82.375
 20
9.841499999999956
 30
0.0
 11
82.375
 21
20.53288415910717
 31
0.0
  0
LINE
  5
3CD
330
3C9
100
AcDbEntity
  8
치수문자_일반주서
 62
     0
370
    -2
100
AcDbLine
 10
63.32500000000002
 20
9.656307189041968
 30
0.0
 11
63.32500000000002
 21
20.53288415910717
 31
0.0
  0
LINE
  5
3CE
330
3C9
100
AcDbEntity
  8
치수문자_일반주서
 62
     0
370
    -2
100
AcDbLine
 10
63.32500000000002
 20
20.53288415910717
 30
0.0
 11
31.78350000000002
 21
20.53288415910717
 31
0.0
  0
LINE
  5
3CF
330
3C9
100
AcDbEntity
  8
치수문자_일반주서
 62
     0
370
    -2
100
AcDbLine
 10
82.375
 20
20.53288415910717
 30
0.0
 11
63.32500000000002
 21
20.53288415910717
 31
0.0
  0
LINE
  5
3D0
330
3C9
100
AcDbEntity
  8
치수문자_일반주서
 62
     0
370
    -2
100
AcDbLine
 10
85.67699999999999
 20
20.53288415910717
 30
0.0
 11
88.97899999999998
 21
20.53288415910717
 31
0.0
  0
LINE
  5
3D1
330
3C9
100
AcDbEntity
  8
치수문자_일반주서
 62
     0
370
    -2
100
AcDbLine
 10
60.02300000000002
 20
20.53288415910717
 30
0.0
 11
56.72100000000002
 21
20.53288415910717
 31
0.0
  0
SOLID
  5
3D2
330
3C9
100
AcDbEntity
  8
치수문자_일반주서
 62
     0
100
AcDbTrace
 10
85.67699999999999
 20
21.08321749244051
 30
0.0
 11
85.67699999999999
 21
19.98255082577384
 31
0.0
 12
82.375
 22
20.53288415910717
 32
0.0
 13
82.375
 23
20.53288415910717
 33
0.0
  0
SOLID
  5
3D3
330
3C9
100
AcDbEntity
  8
치수문자_일반주서
 62
     0
100
AcDbTrace
 10
60.02300000000002
 20
19.98255082577384
 30
0.0
 11
60.02300000000002
 21
21.08321749244051
 31
0.0
 12
63.32500000000002
 22
20.53288415910717
 32
0.0
 13
63.32500000000002
 23
20.53288415910717
 33
0.0
  0
MTEXT
  5
3D4
330
3C9
100
AcDbEntity
  8
치수문자_일반주서
 62
     0
100
AcDbMText
 10
44.25225000000002
 20
24.90788415910717
 30
0.0
 40
3.5
 41
0.0
 71
     2
 72
     1
  1
\A1;19.05 [3/4]
  7
SLDTEXTSTYLE0
 73
     1
 44
1.0
  0
POINT
  5
3D5
330
3C9
100
AcDbEntity
  8
Defpoints
 62
     0
100
AcDbPoint
 10
82.375
 20
9.778999999999956
 30
0.0
  0
POINT
  5
3D6
330
3C9
100
AcDbEntity
  8
Defpoints
 62
     0
100
AcDbPoint
 10
63.32500000000002
 20
9.593807189041968
 30
0.0
  0
POINT
  5
3D7
330
3C9
100
AcDbEntity
  8
Defpoints
 62
     0
100
AcDbPoint
 10
63.32500000000002
 20
20.53288415910717
 30
0.0
  0
ENDBLK
  5
3CB
330
3C9
100
AcDbEntity
  8
0
100
AcDbBlockEnd
  0
BLOCK
  5
3D9
330
3D8
100
AcDbEntity
  8
0
100
AcDbBlockBegin
  2
*D20
 70
     1
 10
0.0
 20
0.0
 30
0.0
  3
*D20
  1
*D20
  0
LINE
  5
3DB
330
3D8
100
AcDbEntity
  8
치수문자_일반주서
 62
     0
370
    -2
100
AcDbLine
 10
82.375
 20
9.841499999999956
 30
0.0
 11
82.375
 21
34.60172530512365
 31
0.0
  0
LINE
  5
3DC
330
3D8
100
AcDbEntity
  8
치수문자_일반주서
 62
     0
370
    -2
100
AcDbLine
 10
3.000000000000007
 20
10.15899999999995
 30
0.0
 11
3.000000000000007
 21
34.60172530512365
 31
0.0
  0
LINE
  5
3DD
330
3D8
100
AcDbEntity
  8
치수문자_일반주서
 62
     0
370
    -2
100
AcDbLine
 10
79.07300000000001
 20
34.60172530512365
 30
0.0
 11
6.302000000000007
 21
34.60172530512365
 31
0.0
  0
SOLID
  5
3DE
330
3D8
100
AcDbEntity
  8
치수문자_일반주서
 62
     0
100
AcDbTrace
 10
79.07300000000001
 20
34.05139197179032
 30
0.0
 11
79.07300000000001
 21
35.15205863845699
 31
0.0
 12
82.375
 22
34.60172530512365
 32
0.0
 13
82.375
 23
34.60172530512365
 33
0.0
  0
SOLID
  5
3DF
330
3D8
100
AcDbEntity
  8
치수문자_일반주서
 62
     0
100
AcDbTrace
 10
6.302000000000007
 20
35.15205863845699
 30
0.0
 11
6.302000000000007
 21
34.05139197179032
 31
0.0
 12
3.000000000000007
 22
34.60172530512365
 32
0.0
 13
3.000000000000007
 23
34.60172530512365
 33
0.0
  0
MTEXT
  5
3E0
330
3D8
100
AcDbEntity
  8
치수문자_일반주서
 62
     0
100
AcDbMText
 10
45.51949034413367
 20
38.97672530512365
 30
0.0
 40
3.5
 41
0.0
 71
     2
 72
     1
  1
\A1;79.38 [3 1/8]
  7
SLDTEXTSTYLE0
 73
     1
 44
1.0
  0
POINT
  5
3E1
330
3D8
100
AcDbEntity
  8
Defpoints
 62
     0
100
AcDbPoint
 10
82.375
 20
9.778999999999956
 30
0.0
  0
POINT
  5
3E2
330
3D8
100
AcDbEntity
  8
Defpoints
 62
     0
100
AcDbPoint
 10
3.000000000000007
 20
10.09649999999995
 30
0.0
  0
POINT
  5
3E3
330
3D8
100
AcDbEntity
  8
Defpoints
 62
     0
100
AcDbPoint
 10
3.000000000000007
 20
34.60172530512365
 30
0.0
  0
ENDBLK
  5
3DA
330
3D8
100
AcDbEntity
  8
0
100
AcDbBlockEnd
  0
BLOCK
  5
421
330
420
100
AcDbEntity
  8
0
100
AcDbBlockBegin
  2
*D21
 70
     1
 10
0.0
 20
0.0
 30
0.0
  3
*D21
  1
*D21
  0
LINE
  5
423
330
420
100
AcDbEntity
  8
치수문자_일반주서
 62
     0
370
    -2
100
AcDbLine
 10
202.7909642787087
 20
-45.24530594153997
 30
0.0
 11
214.2322512554163
 21
-45.24530594153993
 31
0.0
  0
LINE
  5
424
330
420
100
AcDbEntity
  8
치수문자_일반주서
 62
     0
370
    -2
100
AcDbLine
 10
202.7909642787087
 20
-48.42030594153997
 30
0.0
 11
214.2322512554163
 21
-48.42030594153993
 31
0.0
  0
LINE
  5
425
330
420
100
AcDbEntity
  8
치수문자_일반주서
 62
     0
370
    -2
100
AcDbLine
 10
214.2322512554163
 20
-45.24530594153993
 30
0.0
 11
214.2322512554163
 21
-11.95964382748873
 31
0.0
  0
LINE
  5
426
330
420
100
AcDbEntity
  8
치수문자_일반주서
 62
     0
370
    -2
100
AcDbLine
 10
214.2322512554163
 20
-45.24530594153993
 30
0.0
 11
214.2322512554163
 21
-48.42030594153993
 31
0.0
  0
LINE
  5
427
330
420
100
AcDbEntity
  8
치수문자_일반주서
 62
     0
370
    -2
100
AcDbLine
 10
214.2322512554163
 20
-41.94330594153993
 30
0.0
 11
214.2322512554163
 21
-38.64130594153993
 31
0.0
  0
LINE
  5
428
330
420
100
AcDbEntity
  8
치수문자_일반주서
 62
     0
370
    -2
100
AcDbLine
 10
214.2322512554163
 20
-51.72230594153993
 30
0.0
 11
214.2322512554163
 21
-55.02430594153993
 31
0.0
  0
SOLID
  5
429
330
420
100
AcDbEntity
  8
치수문자_일반주서
 62
     0
100
AcDbTrace
 10
213.6819179220829
 20
-41.94330594153993
 30
0.0
 11
214.7825845887496
 21
-41.94330594153993
 31
0.0
 12
214.2322512554163
 22
-45.24530594153993
 32
0.0
 13
214.2322512554163
 23
-45.24530594153993
 33
0.0
  0
SOLID
  5
42A
330
420
100
AcDbEntity
  8
치수문자_일반주서
 62
     0
100
AcDbTrace
 10
214.7825845887496
 20
-51.72230594153993
 30
0.0
 11
213.6819179220829
 21
-51.72230594153993
 31
0.0
 12
214.2322512554163
 22
-48.42030594153993
 32
0.0
 13
214.2322512554163
 23
-48.42030594153993
 33
0.0
  0
MTEXT
  5
42B
330
420
100
AcDbEntity
  8
치수문자_일반주서
 62
     0
100
AcDbMText
 10
209.8572512554163
 20
-24.20964382748873
 30
0.0
 40
3.5
 41
0.0
 71
     2
 72
     1
  1
\A1;%%c3.18 [1/8]
  7
SLDTEXTSTYLE0
 11
0.0
 21
1.0
 31
0.0
 73
     1
 44
1.0
  0
POINT
  5
42C
330
420
100
AcDbEntity
  8
Defpoints
 62
     0
100
AcDbPoint
 10
202.7284642787087
 20
-45.24530594153997
 30
0.0
  0
POINT
  5
42D
330
420
100
AcDbEntity
  8
Defpoints
 62
     0
100
AcDbPoint
 10
202.7284642787087
 20
-48.42030594153997
 30
0.0
  0
POINT
  5
42E
330
420
100
AcDbEntity
  8
Defpoints
 62
     0
100
AcDbPoint
 10
214.2322512554164
 20
-48.42030594153993
 30
0.0
  0
ENDBLK
  5
422
330
420
100
AcDbEntity
  8
0
100
AcDbBlockEnd
  0
BLOCK
  5
430
330
42F
100
AcDbEntity
  8
0
100
AcDbBlockBegin
  2
*D22
 70
     1
 10
0.0
 20
0.0
 30
0.0
  3
*D22
  1
*D22
  0
LINE
  5
432
330
42F
100
AcDbEntity
  8
치수문자_일반주서
 62
     0
370
    -2
100
AcDbLine
 10
202.7284642787087
 20
-45.18280594153997
 30
0.0
 11
202.7284642787087
 21
-34.49142178243275
 31
0.0
  0
LINE
  5
433
330
42F
100
AcDbEntity
  8
치수문자_일반주서
 62
     0
370
    -2
100
AcDbLine
 10
183.6784642787087
 20
-45.36799875249796
 30
0.0
 11
183.6784642787087
 21
-34.49142178243275
 31
0.0
  0
LINE
  5
434
330
42F
100
AcDbEntity
  8
치수문자_일반주서
 62
     0
370
    -2
100
AcDbLine
 10
183.6784642787087
 20
-34.49142178243275
 30
0.0
 11
152.1369642787087
 21
-34.49142178243275
 31
0.0
  0
LINE
  5
435
330
42F
100
AcDbEntity
  8
치수문자_일반주서
 62
     0
370
    -2
100
AcDbLine
 10
202.7284642787087
 20
-34.49142178243275
 30
0.0
 11
183.6784642787087
 21
-34.49142178243275
 31
0.0
  0
LINE
  5
436
330
42F
100
AcDbEntity
  8
치수문자_일반주서
 62
     0
370
    -2
100
AcDbLine
 10
206.0304642787086
 20
-34.49142178243275
 30
0.0
 11
209.3324642787086
 21
-34.49142178243275
 31
0.0
  0
LINE
  5
437
330
42F
100
AcDbEntity
  8
치수문자_일반주서
 62
     0
370
    -2
100
AcDbLine
 10
180.3764642787087
 20
-34.49142178243275
 30
0.0
 11
177.0744642787087
 21
-34.49142178243275
 31
0.0
  0
SOLID
  5
438
330
42F
100
AcDbEntity
  8
치수문자_일반주서
 62
     0
100
AcDbTrace
 10
206.0304642787086
 20
-33.94108844909942
 30
0.0
 11
206.0304642787086
 21
-35.04175511576609
 31
0.0
 12
202.7284642787087
 22
-34.49142178243275
 32
0.0
 13
202.7284642787087
 23
-34.49142178243275
 33
0.0
  0
SOLID
  5
439
330
42F
100
AcDbEntity
  8
치수문자_일반주서
 62
     0
100
AcDbTrace
 10
180.3764642787087
 20
-35.04175511576609
 30
0.0
 11
180.3764642787087
 21
-33.94108844909942
 31
0.0
 12
183.6784642787087
 22
-34.49142178243275
 32
0.0
 13
183.6784642787087
 23
-34.49142178243275
 33
0.0
  0
MTEXT
  5
43A
330
42F
100
AcDbEntity
  8
치수문자_일반주서
 62
     0
100
AcDbMText
 10
164.6057142787087
 20
-30.11642178243275
 30
0.0
 40
3.5
 41
0.0
 71
     2
 72
     1
  1
\A1;19.05 [3/4]
  7
SLDTEXTSTYLE0
 73
     1
 44
1.0
  0
POINT
  5
43B
330
42F
100
AcDbEntity
  8
Defpoints
 62
     0
100
AcDbPoint
 10
202.7284642787087
 20
-45.24530594153997
 30
0.0
  0
POINT
  5
43C
330
42F
100
AcDbEntity
  8
Defpoints
 62
     0
100
AcDbPoint
 10
183.6784642787087
 20
-45.43049875249796
 30
0.0
  0
POINT
  5
43D
330
42F
100
AcDbEntity
  8
Defpoints
 62
     0
100
AcDbPoint
 10
183.6784642787087
 20
-34.49142178243275
 30
0.0
  0
ENDBLK
  5
431
330
42F
100
AcDbEntity
  8
0
100
AcDbBlockEnd
  0
BLOCK
  5
43F
330
43E
100
AcDbEntity
  8
0
100
AcDbBlockBegin
  2
*D23
 70
     1
 10
0.0
 20
0.0
 30
0.0
  3
*D23
  1
*D23
  0
LINE
  5
441
330
43E
100
AcDbEntity
  8
치수문자_일반주서
 62
     0
370
    -2
100
AcDbLine
 10
202.7284642787087
 20
-45.18280594153997
 30
0.0
 11
202.7284642787087
 21
-20.42258063641628
 31
0.0
  0
LINE
  5
442
330
43E
100
AcDbEntity
  8
치수문자_일반주서
 62
     0
370
    -2
100
AcDbLine
 10
123.3534642787087
 20
-44.86530594153998
 30
0.0
 11
123.3534642787087
 21
-20.42258063641628
 31
0.0
  0
LINE
  5
443
330
43E
100
AcDbEntity
  8
치수문자_일반주서
 62
     0
370
    -2
100
AcDbLine
 10
199.4264642787087
 20
-20.42258063641628
 30
0.0
 11
126.6554642787087
 21
-20.42258063641628
 31
0.0
  0
SOLID
  5
444
330
43E
100
AcDbEntity
  8
치수문자_일반주서
 62
     0
100
AcDbTrace
 10
199.4264642787087
 20
-20.97291396974961
 30
0.0
 11
199.4264642787087
 21
-19.87224730308294
 31
0.0
 12
202.7284642787087
 22
-20.42258063641628
 32
0.0
 13
202.7284642787087
 23
-20.42258063641628
 33
0.0
  0
SOLID
  5
445
330
43E
100
AcDbEntity
  8
치수문자_일반주서
 62
     0
100
AcDbTrace
 10
126.6554642787087
 20
-19.87224730308294
 30
0.0
 11
126.6554642787087
 21
-20.97291396974961
 31
0.0
 12
123.3534642787087
 22
-20.42258063641628
 32
0.0
 13
123.3534642787087
 23
-20.42258063641628
 33
0.0
  0
MTEXT
  5
446
330
43E
100
AcDbEntity
  8
치수문자_일반주서
 62
     0
100
AcDbMText
 10
165.8729546228423
 20
-16.04758063641628
 30
0.0
 40
3.5
 41
0.0
 71
     2
 72
     1
  1
\A1;79.38 [3 1/8]
  7
SLDTEXTSTYLE0
 73
     1
 44
1.0
  0
POINT
  5
447
330
43E
100
AcDbEntity
  8
Defpoints
 62
     0
100
AcDbPoint
 10
202.7284642787087
 20
-45.24530594153997
 30
0.0
  0
POINT
  5
448
330
43E
100
AcDbEntity
  8
Defpoints
 62
     0
100
AcDbPoint
 10
123.3534642787087
 20
-44.92780594153998
 30
0.0
  0
POINT
  5
449
330
43E
100
AcDbEntity
  8
Defpoints
 62
     0
100
AcDbPoint
 10
123.3534642787087
 20
-20.42258063641628
 30
0.0
  0
ENDBLK
  5
440
330
43E
100
AcDbEntity
  8
0
100
AcDbBlockEnd
  0
ENDSEC
  0
SECTION
  2
ENTITIES
  0
LINE
  5
96
330
1F
100
AcDbEntity
  8
0
  6
Continuous
 62
     1
370
    25
100
AcDbLine
 10
39.13208177578147
 20
0.4507038913432527
 30
0.0
 11
39.08704089486787
 21
0.4751264809169868
 31
0.0
  0
LINE
  5
97
330
1F
100
AcDbEntity
  8
0
  6
Continuous
 62
     1
370
    25
100
AcDbLine
 10
37.35158336887979
 20
-0.4453049596384892
 30
0.0
 11
37.40998694724826
 21
-0.4764874661820769
 31
0.0
  0
LINE
  5
98
330
1F
100
AcDbEntity
  8
0
  6
Continuous
 62
     1
370
    25
100
AcDbLine
 10
30.49408023432755
 20
0.4510093430512029
 30
0.0
 11
30.4467409646311
 21
0.4762698913268953
 31
0.0
  0
LINE
  5
99
330
1F
100
AcDbEntity
  8
0
  6
Continuous
 62
     1
370
    25
100
AcDbLine
 10
35.60507775501381
 20
-1.587500000000002
 30
0.0
 11
36.57347066068583
 21
-1.587500000000002
 31
0.0
  0
LINE
  5
9A
330
1F
100
AcDbEntity
  8
0
  6
Continuous
 62
     1
370
    25
100
AcDbLine
 10
27.93394269628688
 20
1.587499999999999
 30
0.0
 11
26.9655759618805
 21
1.587499999999999
 31
0.0
  0
LINE
  5
9B
330
1F
100
AcDbEntity
  8
0
  6
Continuous
 62
     1
370
    25
100
AcDbLine
 10
31.28521386752952
 20
-1.587500000000002
 30
0.0
 11
32.25260155458118
 21
-1.587500000000002
 31
0.0
  0
LINE
  5
9C
330
1F
100
AcDbEntity
  8
0
  6
Continuous
 62
     1
370
    25
100
AcDbLine
 10
23.61449660111128
 20
1.587499999999999
 30
0.0
 11
22.64640947359924
 21
1.587499999999999
 31
0.0
  0
LINE
  5
9D
330
1F
100
AcDbEntity
  8
0
  6
Continuous
 62
     1
370
    25
100
AcDbLine
 10
22.64640947359926
 20
-1.587500000000002
 30
0.0
 11
23.61449660111129
 21
-1.587500000000002
 31
0.0
  0
LINE
  5
9E
330
1F
100
AcDbEntity
  8
0
  6
Continuous
 62
     1
370
    25
100
AcDbLine
 10
32.2526015545812
 20
1.587499999999999
 30
0.0
 11
31.28521386752951
 21
1.587499999999999
 31
0.0
  0
LINE
  5
9F
330
1F
100
AcDbEntity
  8
0
  6
Continuous
 62
     1
370
    25
100
AcDbLine
 10
26.9655759618805
 20
-1.587500000000002
 30
0.0
 11
27.9339426962869
 21
-1.587500000000002
 31
0.0
  0
LINE
  5
A0
330
1F
100
AcDbEntity
  8
0
  6
Continuous
 62
     1
370
    25
100
AcDbLine
 10
36.57347066068583
 20
1.587499999999999
 30
0.0
 11
35.60507775501384
 21
1.587499999999999
 31
0.0
  0
LINE
  5
A1
330
1F
100
AcDbEntity
  8
외형선
  6
Continuous
370
    15
100
AcDbLine
 10
16.67518467149219
 20
-2.381250000000008
 30
0.0
 11
19.63750000000001
 21
-1.587500000000001
 31
0.0
  0
LINE
  5
A2
330
1F
100
AcDbEntity
  8
외형선
  6
Continuous
370
    15
100
AcDbLine
 10
19.63750000000001
 20
1.587499999999999
 30
0.0
 11
16.67518467149219
 21
2.381250000000006
 31
0.0
  0
LINE
  5
A3
330
1F
100
AcDbEntity
  8
외형선
  6
Continuous
370
    15
100
AcDbLine
 10
-16.67518467149222
 20
-2.381250000000005
 30
0.0
 11
16.67518467149219
 21
-2.381250000000005
 31
0.0
  0
LINE
  5
A4
330
1F
100
AcDbEntity
  8
외형선
  6
Continuous
370
    15
100
AcDbLine
 10
16.67518467149219
 20
2.381250000000002
 30
0.0
 11
-16.67518467149223
 21
2.381250000000002
 31
0.0
  0
LINE
  5
A7
330
1F
100
AcDbEntity
  8
외형선
  6
Continuous
370
    15
100
AcDbLine
 10
19.63750000000001
 20
-1.587500000000001
 30
0.0
 11
20.13741205107849
 21
-1.587500000000001
 31
0.0
  0
LINE
  5
A8
330
1F
100
AcDbEntity
  8
외형선
  6
Continuous
370
    15
100
AcDbLine
 10
20.13741205107849
 20
1.587499999999999
 30
0.0
 11
19.63750000000001
 21
1.587499999999999
 31
0.0
  0
LINE
  5
A9
330
1F
100
AcDbEntity
  8
0
  6
Continuous
 62
     1
370
    25
100
AcDbLine
 10
39.68750000000001
 20
-1.437769141943498
 30
0.0
 11
39.68750000000001
 21
0.1360191419435146
 31
0.0
  0
SPLINE
  5
AA
330
1F
100
AcDbEntity
  8
0
  6
Continuous
 62
     1
370
    25
100
AcDbSpline
210
0.0
220
0.0
230
1.0
 70
     8
 71
     3
 72
    13
 73
     9
 74
     0
 42
0.000000001
 43
0.00000001
 40
0.0
 40
0.0
 40
0.0
 40
0.0
 40
0.1885386649611499
 40
0.3770746230159765
 40
0.5656077835653297
 40
0.7541392976978668
 40
0.9426733188865131
 40
1.0
 40
1.0
 40
1.0
 40
1.0
 10
20.63749999999944
 20
-0.7441040233466208
 30
0.0
 10
20.93001848416857
 20
-0.8859762493843039
 30
0.0
 10
21.51505125273096
 20
-1.169718664557447
 30
0.0
 10
22.39259253561727
 20
-1.456330712188063
 30
0.0
 10
23.27011338531863
 20
-1.604036355553556
 30
0.0
 10
24.14765445661048
 20
-1.577729475053363
 30
0.0
 10
24.82155405307982
 20
-1.465626921972892
 30
0.0
 10
25.20307550520753
 20
-1.319553802746048
 30
0.0
 10
25.29203383982254
 20
-1.285494324973633
 30
0.0
  0
SPLINE
  5
AB
330
1F
100
AcDbEntity
  8
0
  6
Continuous
 62
     1
370
    25
100
AcDbSpline
210
0.0
220
0.0
230
1.0
 70
     8
 71
     3
 72
    15
 73
    11
 74
     0
 42
0.000000001
 43
0.00000001
 40
0.0
 40
0.0
 40
0.0
 40
0.0
 40
0.0796321309700946
 40
0.2110607916487634
 40
0.3425614775762882
 40
0.4741016299890441
 40
0.6056483628011928
 40
0.7371687352281343
 40
0.8686300253909751
 40
1.0
 40
1.0
 40
1.0
 40
1.0
 10
32.2526015545812
 20
1.563645356266845
 30
0.0
 10
32.44991191196005
 20
1.565894018305036
 30
0.0
 10
32.97287267819294
 20
1.571853979242278
 30
0.0
 10
33.8218051317394
 20
1.358869343505595
 30
0.0
 10
34.79946911384662
 20
0.9755110881997028
 30
0.0
 10
35.77748773504852
 20
0.4618194146311824
 30
0.0
 10
36.75556490287126
 20
-0.1082909626559875
 30
0.0
 10
37.73340418364793
 20
-0.6619611691891862
 30
0.0
 10
38.71073066284763
 20
-1.145510063345794
 30
0.0
 10
39.36198564286072
 20
-1.340372016061964
 30
0.0
 10
39.68750000000004
 20
-1.437769141943498
 30
0.0
  0
SPLINE
  5
AC
330
1F
100
AcDbEntity
  8
외형선
  6
Continuous
370
    15
100
AcDbSpline
210
0.0
220
0.0
230
1.0
 70
    24
 71
     3
 72
    22
 73
    18
 74
     0
 42
0.000000001
 43
0.00000001
 40
0.0
 40
0.0
 40
0.0
 40
0.0
 40
0.125
 40
0.125
 40
0.25
 40
0.25
 40
0.375
 40
0.375
 40
0.5
 40
0.5
 40
0.625
 40
0.625
 40
0.75
 40
0.75
 40
0.875
 40
0.875
 40
1.0
 40
1.0
 40
1.0
 40
1.0
 10
20.63750000000001
 20
1.059745280005077
 30
0.0
 10
20.63750000000002
 20
1.028043667571942
 30
0.0
 10
20.63750000000002
 20
0.9912195387166767
 30
0.0
 10
20.63750000000002
 20
0.9153891380148579
 30
0.0
 10
20.6375
 20
0.868699296935335
 30
0.0
 10
20.6375
 20
0.751892033430806
 30
0.0
 10
20.63750000000002
 20
0.6816042556567449
 30
0.0
 10
20.63750000000004
 20
0.5143600159021045
 30
0.0
 10
20.63750000000001
 20
0.4171530761784102
 30
0.0
 10
20.6375
 20
0.2022228349489769
 30
0.0
 10
20.6375
 20
0.0844788922679834
 30
0.0
 10
20.6375
 20
-0.1503896270475323
 30
0.0
 10
20.63750000000001
 20
-0.266963385105467
 30
0.0
 10
20.63750000000001
 20
-0.4705533514063629
 30
0.0
 10
20.6375
 20
-0.5569733363068049
 30
0.0
 10
20.63750000000001
 20
-0.6837265870041488
 30
0.0
 10
20.63750000000002
 20
-0.7241763895355379
 30
0.0
 10
20.63750000000002
 20
-0.7441040233469114
 30
0.0
  0
SPLINE
  5
AD
330
1F
100
AcDbEntity
  8
0
  6
Continuous
 62
     1
370
    25
100
AcDbSpline
210
0.0
220
0.0
230
1.0
 70
     8
 71
     3
 72
    13
 73
     9
 74
     0
 42
0.000000001
 43
0.00000001
 40
0.0
 40
0.0
 40
0.0
 40
0.0
 40
0.1696366917747743
 40
0.3393912983813263
 40
0.5092221973054679
 40
0.6790871351228535
 40
0.8489435757384443
 40
1.0
 40
1.0
 40
1.0
 40
1.0
 10
39.68750000000001
 20
0.1360191419435143
 30
0.0
 10
39.36198563474904
 20
0.3217277759927702
 30
0.0
 10
38.71073063850693
 20
0.6932741305649361
 30
0.0
 10
37.73340428110789
 20
1.158934246590157
 30
0.0
 10
36.75556453719037
 20
1.482090413764893
 30
0.0
 10
35.77748910051017
 20
1.615462217793214
 30
0.0
 10
34.83545239604973
 20
1.564120665235345
 30
0.0
 10
34.21952261953709
 20
1.3802695739913
 30
0.0
 10
33.92959921720843
 20
1.293729296303952
 30
0.0
  0
SPLINE
  5
AE
330
1F
100
AcDbEntity
  8
0
  6
Continuous
 62
     1
370
    25
100
AcDbSpline
210
0.0
220
0.0
230
1.0
 70
     8
 71
     3
 72
    14
 73
    10
 74
     0
 42
0.000000001
 43
0.00000001
 40
0.0
 40
0.0
 40
0.0
 40
0.0
 40
0.1522482097232388
 40
0.3065875230156085
 40
0.4452695457365504
 40
0.5839497243149331
 40
0.7226311139660668
 40
0.8613145614087567
 40
1.0
 40
1.0
 40
1.0
 40
1.0
 10
26.9655759618805
 20
-1.586111277817186
 30
0.0
 10
26.64435181907374
 20
-1.567766686487958
 30
0.0
 10
25.99749157385341
 20
-1.530825543951139
 30
0.0
 10
25.05815690486737
 20
-1.24134443128221
 30
0.0
 10
24.14764651051072
 20
-0.8388648333845947
 30
0.0
 10
23.2701155137458
 20
-0.3623005535806642
 30
0.0
 10
22.39259196802545
 20
0.1478923466009497
 30
0.0
 10
21.51505139463215
 20
0.6510756932694682
 30
0.0
 10
20.93001853146919
 20
0.923521432491117
 30
0.0
 10
20.63749999999944
 20
1.059745280005316
 30
0.0
  0
SPLINE
  5
AF
330
1F
100
AcDbEntity
  8
0
  6
Continuous
 62
     1
370
    25
100
AcDbSpline
210
0.0
220
0.0
230
1.0
 70
     8
 71
     3
 72
    19
 73
    15
 74
     0
 42
0.000000001
 43
0.00000001
 40
0.0
 40
0.0
 40
0.0
 40
0.0
 40
0.0516973586334131
 40
0.136789366657638
 40
0.2314883177362011
 40
0.326248440638373
 40
0.4210464171511051
 40
0.515858615680122
 40
0.6106612864730177
 40
0.7054307589601015
 40
0.8001436376754617
 40
0.8948089480929557
 40
0.9895350912209893
 40
1.0
 40
1.0
 40
1.0
 40
1.0
 10
23.61449660111129
 20
1.568265961558641
 30
0.0
 10
23.79221056860947
 20
1.570042995054944
 30
0.0
 10
24.26243538672199
 20
1.574744962291077
 30
0.0
 10
25.05815555202
 20
1.395387407441514
 30
0.0
 10
26.00211723761641
 20
1.048703328147543
 30
0.0
 10
26.97955897715041
 20
0.5508070893790572
 30
0.0
 10
27.95747273704534
 20
-0.0139331973185147
 30
0.0
 10
28.93556092230078
 20
-0.577460939163838
 30
0.0
 10
29.91353172307311
 20
-1.06887993846218
 30
0.0
 10
30.89109263910742
 20
-1.425504252624326
 30
0.0
 10
31.86806402047994
 20
-1.607981138135272
 30
0.0
 10
32.84472500944464
 20
-1.574117499382688
 30
0.0
 10
33.5318916940927
 20
-1.452043642627784
 30
0.0
 10
33.89361341132823
 20
-1.308054067659103
 30
0.0
 10
33.9295992172084
 20
-1.293729296303956
 30
0.0
  0
SPLINE
  5
B0
330
1F
100
AcDbEntity
  8
0
  6
Continuous
 62
     1
370
    25
100
AcDbSpline
210
0.0
220
0.0
230
1.0
 70
     8
 71
     3
 72
    18
 73
    14
 74
     0
 42
0.000000001
 43
0.00000001
 40
0.0
 40
0.0
 40
0.0
 40
0.0
 40
0.078116013146006
 40
0.1729181052862063
 40
0.2676682726457133
 40
0.3623575918664185
 40
0.4570944914491585
 40
0.5518879991568055
 40
0.6467147135899438
 40
0.7415509581756075
 40
0.8363729771380316
 40
0.9311571328895439
 40
1.0
 40
1.0
 40
1.0
 40
1.0
 10
35.60507775501381
 20
-1.573015740676894
 30
0.0
 10
35.33650968270784
 20
-1.565706882467984
 30
0.0
 10
34.74200568367861
 20
-1.549527947286947
 30
0.0
 10
33.82180565275806
 20
-1.289075183047038
 30
0.0
 10
32.84471970118422
 20
-0.8722960521269663
 30
0.0
 10
31.86806543788218
 20
-0.3406265106389086
 30
0.0
 10
30.89109227886482
 20
0.2319151319679344
 30
0.0
 10
29.91353174541533
 20
0.7760469570994514
 30
0.0
 10
28.93556119351704
 20
1.2226824574463
 30
0.0
 10
27.95747162980355
 20
1.517960272638339
 30
0.0
 10
26.9795631334745
 20
1.617642695549033
 30
0.0
 10
26.09107185781256
 20
1.543748764582218
 30
0.0
 10
25.52865832523528
 20
1.361972943640195
 30
0.0
 10
25.29203383982252
 20
1.285494324973631
 30
0.0
  0
LINE
  5
B1
330
1F
100
AcDbEntity
  8
0
  6
Continuous
 62
     1
370
    25
100
AcDbLine
 10
20.63749999999944
 20
-1.402307189042172
 30
0.0
 11
20.97248746742272
 21
-1.286138793728687
 31
0.0
  0
SPLINE
  5
B2
330
1F
100
AcDbEntity
  8
0
  6
Continuous
 62
     1
370
    25
100
AcDbSpline
210
0.0
220
0.0
230
1.0
 70
     8
 71
     3
 72
    19
 73
    15
 74
     0
 42
0.000000001
 43
0.00000001
 40
0.0
 40
0.0
 40
0.0
 40
0.0
 40
0.0022768872363584
 40
0.0971042358997901
 40
0.1919220553046542
 40
0.2867066710989166
 40
0.3814346840782809
 40
0.4761151211587941
 40
0.5708564006703651
 40
0.6656496000919355
 40
0.7604712492084911
 40
0.8552976418524855
 40
0.950105032426383
 40
0.9999999999999999
 40
0.9999999999999999
 40
0.9999999999999999
 40
0.9999999999999999
 10
27.93394269628688
 20
1.585171051348795
 30
0.0
 10
27.94177129862069
 20
1.585944747135683
 30
0.0
 10
28.27564398043374
 20
1.618941171817996
 30
0.0
 10
28.93556434310086
 20
1.500251208938085
 30
0.0
 10
29.91353090021167
 20
1.223154608006157
 30
0.0
 10
30.8910925112067
 20
0.769986108970777
 30
0.0
 10
31.86806535311617
 20
0.2268143461627134
 30
0.0
 10
32.84471980808411
 20
-0.3465306179595138
 30
0.0
 10
33.82180530961692
 20
-0.8760470696766687
 30
0.0
 10
34.79946879320019
 20
-1.295682143479364
 30
0.0
 10
35.77748884001391
 20
-1.555442110719764
 30
0.0
 10
36.75556080392575
 20
-1.612579733323507
 30
0.0
 10
37.57914178334801
 20
-1.516221250867018
 30
0.0
 10
38.07661286565581
 20
-1.34153395861035
 30
0.0
 10
38.24814637650059
 20
-1.281299855350028
 30
0.0
  0
LINE
  5
B3
330
1F
100
AcDbEntity
  8
외형선
  6
Continuous
370
    15
100
AcDbLine
 10
20.63750000000004
 20
-1.236356348708773
 30
0.0
 11
20.63750000000002
 21
-1.40230718904202
 31
0.0
  0
SPLINE
  5
B4
330
1F
100
AcDbEntity
  8
0
  6
Continuous
 62
     1
370
    25
100
AcDbSpline
210
0.0
220
0.0
230
1.0
 70
     8
 71
     3
 72
    18
 73
    14
 74
     0
 42
0.000000001
 43
0.00000001
 40
0.0
 40
0.0
 40
0.0
 40
0.0
 40
0.0969042044179767
 40
0.193875767158277
 40
0.2908909115451062
 40
0.3879255004980521
 40
0.4849552354623293
 40
0.5819558582313425
 40
0.6789033520455967
 40
0.7757885866077092
 40
0.8727225049556407
 40
0.969714344212761
 40
1.0
 40
1.0
 40
1.0
 40
1.0
 10
39.68750000000001
 20
-1.587499999999995
 30
0.0
 10
39.36198564279864
 20
-1.546114436241125
 30
0.0
 10
38.71073066266131
 20
-1.474994371353122
 30
0.0
 10
37.73340418439393
 20
-1.130951655748907
 30
0.0
 10
36.75556490007209
 20
-0.659633102406909
 30
0.0
 10
35.77748774550065
 20
-0.1019433525364415
 30
0.0
 10
34.79946907484518
 20
0.4674068580420617
 30
0.0
 10
33.82180527721277
 20
0.9787241320944814
 30
0.0
 10
32.84471965638936
 20
1.366717509711288
 30
0.0
 10
31.86806599195005
 20
1.586958848647183
 30
0.0
 10
30.89109010546976
 20
1.597436928073931
 30
0.0
 10
30.13777603162906
 20
1.484036887992794
 30
0.0
 10
29.71011056773003
 20
1.32256986056374
 30
0.0
 10
29.60834765177053
 20
1.284148812035085
 30
0.0
  0
SPLINE
  5
B5
330
1F
100
AcDbEntity
  8
0
  6
Continuous
 62
     1
370
    25
100
AcDbSpline
210
0.0
220
0.0
230
1.0
 70
     8
 71
     3
 72
    10
 73
     6
 74
     0
 42
0.000000001
 43
0.00000001
 40
0.0
 40
0.0
 40
0.0
 40
0.0
 40
0.126344730691329
 40
0.5631692294902869
 40
1.0
 40
1.0
 40
1.0
 40
1.0
 10
22.64640947359926
 20
-1.570929714359535
 30
0.0
 10
22.56180477909734
 20
-1.575660526730968
 30
0.0
 10
22.18468766188005
 20
-1.59674765829162
 30
0.0
 10
21.51505143081745
 20
-1.478367293257525
 30
0.0
 10
20.93001854353103
 20
-1.280781728301356
 30
0.0
 10
20.63749999999944
 20
-1.181988236619334
 30
0.0
  0
LINE
  5
B6
330
1F
100
AcDbEntity
  8
0
  6
Continuous
 62
     1
370
    25
100
AcDbLine
 10
39.68750000000001
 20
0.6730350247015703
 30
0.0
 11
39.6875
 21
1.587500000000005
 31
0.0
  0
SPLINE
  5
B7
330
1F
100
AcDbEntity
  8
0
  6
Continuous
 62
     1
370
    25
100
AcDbSpline
210
0.0
220
0.0
230
1.0
 70
     8
 71
     3
 72
    17
 73
    13
 74
     0
 42
0.000000001
 43
0.00000001
 40
0.0
 40
0.0
 40
0.0
 40
0.0
 40
0.0978383641609547
 40
0.1956753236270864
 40
0.2935108313837806
 40
0.3913454847654422
 40
0.4891814391336609
 40
0.5980631363878005
 40
0.7070151669656233
 40
0.8160107203630553
 40
0.9250226257607348
 40
1.0
 40
1.0
 40
1.0
 40
1.0
 10
20.63749999999944
 20
1.40230718904217
 30
0.0
 10
20.93001853010277
 20
1.309278902487637
 30
0.0
 10
21.51505139053285
 20
1.123223665013663
 30
0.0
 10
22.39259198442229
 20
0.6927210618555051
 30
0.0
 10
23.27011545225901
 20
0.2024130125209406
 30
0.0
 10
24.14764674006053
 20
-0.3110611157975904
 30
0.0
 10
25.05815600726125
 20
-0.8105237891650486
 30
0.0
 10
26.00211703240309
 20
-1.237359119435231
 30
0.0
 10
26.97955931962243
 20
-1.525759811039855
 30
0.0
 10
27.95747157196599
 20
-1.617350996683767
 30
0.0
 10
28.83379952504875
 20
-1.538638551909974
 30
0.0
 10
29.38409644454252
 20
-1.357830006818465
 30
0.0
 10
29.60834765177051
 20
-1.284148812035087
 30
0.0
  0
SPLINE
  5
B8
330
1F
100
AcDbEntity
  8
0
  6
Continuous
 62
     1
370
    25
100
AcDbSpline
210
0.0
220
0.0
230
1.0
 70
     8
 71
     3
 72
    11
 73
     7
 74
     0
 42
0.000000001
 43
0.00000001
 40
0.0
 40
0.0
 40
0.0
 40
0.0
 40
0.0584861168301284
 40
0.3724907890034838
 40
0.6863544023687786
 40
0.9999999999999999
 40
0.9999999999999999
 40
0.9999999999999999
 40
0.9999999999999999
 10
36.57347066068583
 20
1.572378370244515
 30
0.0
 10
36.63418829899475
 20
1.577121258159251
 30
0.0
 10
37.0208913701835
 20
1.607328120185095
 30
0.0
 10
37.73340293267328
 20
1.466894903890263
 30
0.0
 10
38.71073097527938
 20
1.162065542426256
 30
0.0
 10
39.36198574698053
 20
0.8360074364510311
 30
0.0
 10
39.68750000000002
 20
0.6730350247015704
 30
0.0
  0
SPLINE
  5
B9
330
1F
100
AcDbEntity
  8
0
  6
Continuous
 62
     1
370
    25
100
AcDbSpline
210
0.0
220
0.0
230
1.0
 70
     8
 71
     3
 72
     9
 73
     5
 74
     0
 42
0.000000001
 43
0.00000001
 40
0.0
 40
0.0
 40
0.0
 40
0.0
 40
0.6785110251022742
 40
1.0
 40
1.0
 40
1.0
 40
1.0
 10
39.6875
 20
1.587500000000005
 30
0.0
 10
39.36199071009475
 20
1.55321639906635
 30
0.0
 10
38.88225010476533
 20
1.511292666168163
 30
0.0
 10
38.40240975777052
 20
1.337252008102183
 30
0.0
 10
38.24814637650059
 20
1.281299855350026
 30
0.0
  0
SPLINE
  5
BA
330
1F
100
AcDbEntity
  8
0
  6
Continuous
 62
     1
370
    25
100
AcDbSpline
210
0.0
220
0.0
230
1.0
 70
     8
 71
     3
 72
    19
 73
    15
 74
     0
 42
0.000000001
 43
0.00000001
 40
0.0
 40
0.0
 40
0.0
 40
0.0
 40
0.0381999193245534
 40
0.1329871318496453
 40
0.227807548894989
 40
0.322637495459966
 40
0.417453217346419
 40
0.5122310785364343
 40
0.6069477564520047
 40
0.6920556929753211
 40
0.777162497764583
 40
0.8622700457785313
 40
0.9473788566410425
 40
1.0
 40
1.0
 40
1.0
 40
1.0
 10
31.28521386752952
 20
-1.563440826530428
 30
0.0
 10
31.15390060727861
 20
-1.569388864933216
 30
0.0
 10
30.69675372939577
 20
-1.590096043935288
 30
0.0
 10
29.91352641571166
 20
-1.415841452033872
 30
0.0
 10
28.93556234696754
 20
-1.06649712057309
 30
0.0
 10
27.95747234719305
 20
-0.5716112679905042
 30
0.0
 10
26.97955911198792
 20
-0.0084954314052179
 30
0.0
 10
26.00211708804178
 20
0.5563936157848046
 30
0.0
 10
25.05815599455256
 20
1.035008815961739
 30
0.0
 10
24.14764674160039
 20
1.379807645953013
 30
0.0
 10
23.27011545829117
 20
1.574352869708674
 30
0.0
 10
22.39259195875328
 20
1.604228048805971
 30
0.0
 10
21.62671372148067
 20
1.507122668785849
 30
0.0
 10
21.15334344325671
 20
1.347228140295166
 30
0.0
 10
20.97248746742272
 20
1.286138793728684
 30
0.0
  0
LINE
  5
BB
330
1F
100
AcDbEntity
  8
0
  6
Continuous
 62
     1
370
    25
100
AcDbLine
 10
39.6875
 20
-1.587499999999995
 30
0.0
 11
39.68750000000001
 21
-1.437769141943498
 31
0.0
  0
LINE
  5
BC
330
1F
100
AcDbEntity
  8
외형선
  6
Continuous
370
    15
100
AcDbLine
 10
20.63750000000002
 20
-1.181988236619548
 30
0.0
 11
20.63750000000002
 21
-0.7441040233469098
 31
0.0
  0
LINE
  5
BD
330
1F
100
AcDbEntity
  8
외형선
  6
Continuous
370
    15
100
AcDbLine
 10
20.63750000000002
 20
1.059745280005074
 30
0.0
 11
20.63750000000002
 21
1.402307189042017
 31
0.0
  0
LINE
  5
BE
330
1F
100
AcDbEntity
  8
0
  6
Continuous
 62
     1
370
    25
100
AcDbLine
 10
39.68750000000001
 20
0.1360191419435145
 30
0.0
 11
39.68750000000001
 21
0.6730350247015703
 31
0.0
  0
LINE
  5
BF
330
1F
100
AcDbEntity
  8
외형선
  6
Continuous
370
    15
100
AcDbLine
 10
19.63750000000001
 20
-0.0000000000000013
 30
0.0
 11
19.63750000000001
 21
1.587499999999999
 31
0.0
  0
LINE
  5
C0
330
1F
100
AcDbEntity
  8
외형선
  6
Continuous
370
    15
100
AcDbLine
 10
19.63750000000001
 20
-1.587500000000001
 30
0.0
 11
19.63750000000001
 21
-0.0000000000000013
 31
0.0
  0
LINE
  5
C1
330
1F
100
AcDbEntity
  8
외형선
  6
Continuous
370
    15
100
AcDbLine
 10
16.67518467149219
 20
-0.0000000000000013
 30
0.0
 11
16.67518467149219
 21
2.381250000000006
 31
0.0
  0
LINE
  5
C2
330
1F
100
AcDbEntity
  8
외형선
  6
Continuous
370
    15
100
AcDbLine
 10
16.67518467149219
 20
-2.381250000000008
 30
0.0
 11
16.67518467149219
 21
-0.0000000000000013
 31
0.0
  0
SPLINE
  5
C7
330
1F
100
AcDbEntity
  8
외형선
  6
Continuous
370
    15
100
AcDbSpline
210
0.0
220
0.0
230
1.0
 70
     8
 71
     3
 72
     8
 73
     4
 74
     0
 42
0.000000001
 43
0.00000001
 40
0.0
 40
0.0
 40
0.0
 40
0.0
 40
1.0
 40
1.0
 40
1.0
 40
1.0
 10
20.63749999999944
 20
-0.7441040233466111
 30
0.0
 10
20.47261000043665
 20
-0.659525156634801
 30
0.0
 10
20.30454483325462
 20
-0.5703129843576888
 30
0.0
 10
20.13741205107847
 20
-0.4786081783723394
 30
0.0
  0
SPLINE
  5
C8
330
1F
100
AcDbEntity
  8
외형선
  6
Continuous
370
    15
100
AcDbSpline
210
0.0
220
0.0
230
1.0
 70
     8
 71
     3
 72
     8
 73
     4
 74
     0
 42
0.000000001
 43
0.00000001
 40
0.0
 40
0.0
 40
0.0
 40
0.0
 40
1.0
 40
1.0
 40
1.0
 40
1.0
 10
20.63749999999947
 20
-1.181988236619336
 30
0.0
 10
20.47261000043669
 20
-1.118070675983234
 30
0.0
 10
20.30454483325465
 20
-1.047242386685022
 30
0.0
 10
20.13741205107849
 20
-0.9711593903729083
 30
0.0
  0
LINE
  5
C9
330
1F
100
AcDbEntity
  8
외형선
  6
Continuous
370
    15
100
AcDbLine
 10
20.13741205107849
 20
-1.587500000000001
 30
0.0
 11
20.13741205107849
 21
-0.9711520273417743
 31
0.0
  0
SPLINE
  5
CA
330
1F
100
AcDbEntity
  8
외형선
  6
Continuous
370
    15
100
AcDbSpline
210
0.0
220
0.0
230
1.0
 70
     8
 71
     3
 72
     8
 73
     4
 74
     0
 42
0.000000001
 43
0.00000001
 40
0.0
 40
0.0
 40
0.0
 40
0.0
 40
1.0
 40
1.0
 40
1.0
 40
1.0
 10
20.63749999999944
 20
-1.402307189042177
 30
0.0
 10
20.47261000043665
 20
-1.44718713795932
 30
0.0
 10
20.30454483325462
 20
-1.484637982699555
 30
0.0
 10
20.13741205107847
 20
-1.513634850812805
 30
0.0
  0
LINE
  5
CB
330
1F
100
AcDbEntity
  8
외형선
  6
Continuous
370
    15
100
AcDbLine
 10
20.13741205107849
 20
1.51363484525017
 30
0.0
 11
20.13741205107849
 21
1.587499999999999
 31
0.0
  0
SPLINE
  5
CC
330
1F
100
AcDbEntity
  8
외형선
  6
Continuous
370
    15
100
AcDbSpline
210
0.0
220
0.0
230
1.0
 70
     8
 71
     3
 72
     8
 73
     4
 74
     0
 42
0.000000001
 43
0.00000001
 40
0.0
 40
0.0
 40
0.0
 40
0.0
 40
1.0
 40
1.0
 40
1.0
 40
1.0
 10
20.63749999999944
 20
1.402307189042174
 30
0.0
 10
20.47261000043665
 20
1.447187137959317
 30
0.0
 10
20.30454483325462
 20
1.484637982699552
 30
0.0
 10
20.13741205107847
 20
1.513634850812802
 30
0.0
  0
SPLINE
  5
CD
330
1F
100
AcDbEntity
  8
외형선
  6
Continuous
370
    15
100
AcDbSpline
210
0.0
220
0.0
230
1.0
 70
     8
 71
     3
 72
     8
 73
     4
 74
     0
 42
0.000000001
 43
0.00000001
 40
0.0
 40
0.0
 40
0.0
 40
0.0
 40
1.0
 40
1.0
 40
1.0
 40
1.0
 10
20.63749999999947
 20
1.059745280005313
 30
0.0
 10
20.47261000043669
 20
1.131035811995129
 30
0.0
 10
20.30454483325465
 20
1.19695038465739
 30
0.0
 10
20.13741205107849
 20
1.255788870985305
 30
0.0
  0
LINE
  5
CE
330
1F
100
AcDbEntity
  8
외형선
  6
Continuous
370
    15
100
AcDbLine
 10
20.13741205107849
 20
-0.4786081959645869
 30
0.0
 11
20.13741205107849
 21
1.255794565122013
 31
0.0
  0
SPLINE
  5
CF
330
1F
100
AcDbEntity
  8
외형선
  6
Continuous
370
    15
100
AcDbSpline
210
0.0
220
0.0
230
1.0
 70
    24
 71
     3
 72
    22
 73
    18
 74
     0
 42
0.000000001
 43
0.00000001
 40
0.0
 40
0.0
 40
0.0
 40
0.0
 40
0.125
 40
0.125
 40
0.2499999999999999
 40
0.2499999999999999
 40
0.3749999999999999
 40
0.3749999999999999
 40
0.4999999999999999
 40
0.4999999999999999
 40
0.6249999999999999
 40
0.6249999999999999
 40
0.7499999999999998
 40
0.7499999999999998
 40
0.8749999999999998
 40
0.8749999999999998
 40
1.0
 40
1.0
 40
1.0
 40
1.0
 10
20.6375
 20
-0.7441040233469052
 30
0.0
 10
20.63750000000001
 20
-0.7241763895356836
 30
0.0
 10
20.63750000000002
 20
-0.6837265870047722
 30
0.0
 10
20.63750000000001
 20
-0.5569733363090736
 30
0.0
 10
20.63750000000001
 20
-0.4705533514097975
 30
0.0
 10
20.6375
 20
-0.2669633851113459
 30
0.0
 10
20.6375
 20
-0.1503896270546587
 30
0.0
 10
20.63749999999998
 20
0.0844788922589868
 30
0.0
 10
20.6375
 20
0.202222834939368
 30
0.0
 10
20.6375
 20
0.4171530761683432
 30
0.0
 10
20.63750000000001
 20
0.5143600158921761
 30
0.0
 10
20.63750000000004
 20
0.6816042556475339
 30
0.0
 10
20.63750000000001
 20
0.7518920334221637
 30
0.0
 10
20.6375
 20
0.868699296927939
 30
0.0
 10
20.63750000000001
 20
0.9153891380081386
 30
0.0
 10
20.6375
 20
0.9912195387112507
 30
0.0
 10
20.63750000000002
 20
1.028043667565726
 30
0.0
 10
20.63750000000001
 20
1.059745279999275
 30
0.0
  0
SPLINE
  5
D0
330
1F
100
AcDbEntity
  8
외형선
  6
Continuous
370
    15
100
AcDbSpline
210
0.0
220
0.0
230
1.0
 70
    24
 71
     3
 72
    10
 73
     6
 74
     0
 42
0.000000001
 43
0.00000001
 40
0.0
 40
0.0
 40
0.0
 40
0.0
 40
0.4216381060120547
 40
0.84578381052521
 40
1.0
 40
1.0
 40
1.0
 40
1.0
 10
20.6375
 20
-1.402307189042017
 30
0.0
 10
20.63750000000002
 20
-1.378516672653156
 30
0.0
 10
20.63750000000006
 20
-1.330794151090651
 30
0.0
 10
20.63750000000001
 20
-1.274760887356437
 30
0.0
 10
20.63750000000001
 20
-1.24444094984888
 30
0.0
 10
20.63750000000001
 20
-1.236356348708773
 30
0.0
  0
LINE
  5
D1
330
1F
100
AcDbEntity
  8
중심선
 48
0.8
100
AcDbLine
 10
-42.6875
 20
-0.0000000000000052
 30
0.0
 11
42.68750000000001
 21
0.0000000000000052
 31
0.0
  0
LINE
  5
D2
330
1F
100
AcDbEntity
  8
참조1
100
AcDbLine
 10
0.1933806570156155
 20
0.0010749287238892
 30
0.0
 11
0.1933806570156224
 21
-39.99892507127611
 31
0.0
  0
LINE
  5
D3
330
1F
100
AcDbEntity
  8
참조1
100
AcDbLine
 10
0.1933806570156224
 20
-39.99892507127611
 30
0.0
 11
-29.25297615729306
 21
-39.9989250712761
 31
0.0
  0
CIRCLE
  5
D4
330
1F
100
AcDbEntity
  8
해칭선
100
AcDbCircle
 10
0.0
 20
0.0
 30
0.0
 40
3.000000000000003
  0
INSERT
  5
D5
330
1F
100
AcDbEntity
  8
0
  6
Continuous
 62
     7
100
AcDbBlockReference
 66
     1
  2
블럭10
 10
-13.9402729321252
 20
-52.04717430164393
 30
0.0
  0
ATTRIB
  5
D6
330
D5
100
AcDbEntity
  8
FORMAT
 62
     2
100
AcDbText
 10
-23.12156822086648
 20
-49.97180738881175
 30
0.0
 40
4.233333333333333
  1
E2006008 [ 4 FLUTE ]
 41
0.75
  7
SLDTEXTSTYLE0
 11
-23.12156822086648
 21
-52.08847405547841
 31
0.0
100
AcDbAttribute
  2
AUTOATTR0
 70
     0
 74
     1
  0
SEQEND
  5
D7
330
D5
100
AcDbEntity
  8
0
  6
Continuous
 62
     7
  0
HATCH
  5
D8
330
1F
100
AcDbEntity
  8
중심선
100
AcDbHatch
 10
0.0
 20
0.0
 30
0.0
210
0.0
220
0.0
230
1.0
  2
SOLID
 70
     1
 71
     0
 91
        1
 92
        0
 93
        4
 72
     1
 10
-8.22536362774435
 20
-35.8
 11
-11.67163887158163
 21
-35.8
 72
     1
 10
-11.67163887158163
 20
-35.8
 11
-13.79986873078565
 21
-38.33632558057263
 72
     1
 10
-13.79986873078565
 20
-38.33632558057263
 11
-10.35356040183522
 21
-38.33628615127014
 72
     1
 10
-10.35356040183522
 20
-38.33628615127014
 11
-8.22536362774435
 21
-35.8
 97
        0
 75
     0
 76
     1
 98
        1
 10
-0.1933806570156094
 20
-0.0010749287238945
  0
HATCH
  5
D9
330
1F
100
AcDbEntity
  8
중심선
100
AcDbHatch
 10
0.0
 20
0.0
 30
0.0
210
0.0
220
0.0
230
1.0
  2
SOLID
 70
     1
 71
     0
 91
        1
 92
        0
 93
        4
 72
     1
 10
-3.212599636708371
 20
-35.8
 11
-6.658874880545653
 21
-35.8
 72
     1
 10
-6.658874880545653
 20
-35.8
 11
-11.19001288890307
 21
-41.20000000000002
 72
     1
 10
-11.19001288890307
 20
-41.20000000000002
 11
-7.743737645065787
 21
-41.20000000000002
 72
     1
 10
-7.743737645065787
 20
-41.20000000000002
 11
-3.21259963670837
 21
-35.8
 97
        0
 75
     0
 76
     1
 98
        1
 10
-0.1933806570156094
 20
-0.0010749287238945
  0
HATCH
  5
DA
330
1F
100
AcDbEntity
  8
중심선
100
AcDbHatch
 10
0.0
 20
0.0
 30
0.0
210
0.0
220
0.0
230
1.0
  2
SOLID
 70
     1
 71
     0
 91
        1
 92
        0
 93
        4
 72
     1
 10
1.800164354327525
 20
-35.8
 11
-1.646110889509564
 21
-35.79999999999998
 72
     1
 10
-1.646110889509563
 20
-35.79999999999998
 11
-8.694547791398868
 21
-44.20000000000002
 72
     1
 10
-8.694547791398868
 20
-44.20000000000002
 11
-5.248272547561585
 21
-44.20000000000002
 72
     1
 10
-5.248272547561585
 20
-44.20000000000002
 11
1.800164354327524
 21
-35.8
 97
        0
 75
     0
 76
     1
 98
        1
 10
-0.1933806570156094
 20
-0.0010749287238945
  0
HATCH
  5
DB
330
1F
100
AcDbEntity
  8
중심선
100
AcDbHatch
 10
0.0
 20
0.0
 30
0.0
210
0.0
220
0.0
230
1.0
  2
SOLID
 70
     1
 71
     0
 91
        1
 92
        0
 93
        6
 72
     3
 10
6.600054785339696
 20
-40.00000000005127
 11
3.960054785062284
 21
1.540882976769353E-10
 40
0.3939339440162627
 50
17.09539180608437
 51
320.0019657685081
 73
     0
 72
     1
 10
8.283054441040292
 20
-38.5878940046383
 11
10.58835631474136
 21
-36.65356729459035
 72
     3
 10
6.60005478528685
 20
-40.00000000000015
 11
6.60005478528683
 21
-1.278976924368180E-13
 40
0.636358354079598
 50
39.99873849337413
 51
368.4976242363725
 73
     1
 72
     1
 10
13.02538727718746
 20
-39.03999999993002
 11
5.280122092122772
 21
-39.03999999993002
 72
     1
 10
5.280122092122772
 20
-39.03999999993002
 11
5.280097047676838
 21
-40.95999999992991
 72
     1
 10
5.280097047676838
 20
-40.95999999992991
 11
9.721476817148876
 21
-40.95999999992988
 97
        0
 75
     0
 76
     1
 98
        1
 10
-0.1933806570156094
 20
-0.0010749287238945
  0
DIMENSION
  5
DC
330
1F
100
AcDbEntity
  8
치수문자_일반주서
100
AcDbDimension
  2
_D
 10
51.19128697670769
 20
-1.587499999999952
 30
0.0
 11
51.19128697670759
 21
22.62316211405125
 31
0.0
 70
   160
  1
%%c<>
 71
     2
 42
3.175
 52
-270.0
  3
SLDDIMSTYLE0
100
AcDbAlignedDimension
 13
39.6875
 23
1.587500000000005
 33
0.0
 14
39.68750000000001
 24
-1.587499999999995
 34
0.0
 50
90.0000000000002
100
AcDbRotatedDimension
1001
ACAD
1000
DSTYLE
1002
{
1070
   171
1070
     6
1070
   273
1070
     7
1002
}
  0
DIMENSION
  5
F1
330
1F
100
AcDbEntity
  8
치수문자_일반주서
100
AcDbDimension
  2
_D_1
 10
20.63750000000002
 20
12.34138415910722
 30
0.0
 11
1.564750000000025
 21
12.34138415910722
 31
0.0
 70
   160
  1
<>
 71
     2
 42
19.04999999999998
  3
SLDDIMSTYLE0
100
AcDbAlignedDimension
 13
39.6875
 23
1.587500000000005
 33
0.0
 14
20.63750000000002
 24
1.402307189042017
 34
0.0
100
AcDbRotatedDimension
1001
ACAD
1000
DSTYLE
1002
{
1070
   171
1070
     6
1070
   273
1070
     7
1002
}
  0
DIMENSION
  5
106
330
1F
100
AcDbEntity
  8
치수문자_일반주서
100
AcDbDimension
  2
_D_2
 10
-39.68750000000003
 20
26.4102253051237
 30
0.0
 11
2.831990344133672
 21
26.4102253051237
 31
0.0
 70
   160
  1
<>
 71
     2
 42
79.37500000000003
  3
SLDDIMSTYLE0
100
AcDbAlignedDimension
 13
39.6875
 23
1.587500000000005
 33
0.0
 14
-39.68750000000003
 24
1.587499999999992
 34
0.0
100
AcDbRotatedDimension
1001
ACAD
1000
DSTYLE
1002
{
1070
   171
1070
     6
1070
   273
1070
     7
1002
}
  0
DIMENSION
  5
119
330
1F
100
AcDbEntity
  8
치수문자_일반주서
100
AcDbDimension
  2
_D_3
 10
-52.68749999999999
 20
-2.381250000000141
 30
0.0
 11
-52.68749999999999
 21
0.0
 31
0.0
 70
   160
  1
%%c<>
 71
     2
 42
4.76250000000001
 52
-270.0
  3
SLDDIMSTYLE0
100
AcDbAlignedDimension
 13
-16.67518467149222
 23
2.381250000000002
 33
0.0
 14
-16.67518467149222
 24
-2.381250000000008
 34
0.0
 50
90.0000000000002
100
AcDbRotatedDimension
1001
ACAD
1000
DSTYLE
1002
{
1070
   171
1070
     6
1070
   273
1070
     7
1002
}
  0
LINE
  5
12D
330
1F
100
AcDbEntity
  8
참조1
100
AcDbLine
 10
68.7193644723612
 20
7.441074928723896
 30
0.0
 11
68.7193644723612
 21
-7.438925071276109
 31
0.0
  0
LINE
  5
12E
330
1F
100
AcDbEntity
  8
참조1
100
AcDbLine
 10
81.41936447236121
 20
5.441074928723896
 30
0.0
 11
68.7193644723612
 21
5.441074928723896
 31
0.0
  0
SOLID
  5
12F
330
1F
100
AcDbEntity
  8
참조1
100
AcDbTrace
 10
68.7193644723612
 20
5.441074928723896
 30
0.0
 11
75.0693644723612
 21
4.425074928723896
 31
0.0
 12
75.0693644723612
 22
6.457074928723896
 32
0.0
 13
75.0693644723612
 23
6.457074928723896
 33
0.0
  0
LINE
  5
130
330
1F
100
AcDbEntity
  8
참조1
100
AcDbLine
 10
81.41936447236121
 20
-5.438925071276109
 30
0.0
 11
68.7193644723612
 21
-5.438925071276109
 31
0.0
  0
SOLID
  5
131
330
1F
100
AcDbEntity
  8
참조1
100
AcDbTrace
 10
68.7193644723612
 20
-5.438925071276109
 30
0.0
 11
75.0693644723612
 21
-6.454925071276109
 31
0.0
 12
75.0693644723612
 22
-4.422925071276109
 32
0.0
 13
75.0693644723612
 23
-4.422925071276109
 33
0.0
  0
MTEXT
  5
132
330
1F
100
AcDbEntity
  8
참조1
100
AcDbMText
 10
78.1037146049872
 20
11.01136670591223
 30
0.0
 40
3.5
 41
0.0
 71
     1
 72
     1
  1
A
  7
SLDTEXTSTYLE0
 73
     1
 44
1.0
  0
MTEXT
  5
133
330
1F
100
AcDbEntity
  8
참조1
100
AcDbMText
 10
78.1037146049872
 20
0.1313667059122219
 30
0.0
 40
3.5
 41
0.0
 71
     1
 72
     1
  1
A
  7
SLDTEXTSTYLE0
 73
     1
 44
1.0
  0
INSERT
  5
13A
330
1F
100
AcDbEntity
  8
해칭선
100
AcDbBlockReference
  2
SW_DOWELSYMBOL_0
 10
0.0
 20
0.0
 30
0.0
  0
LINE
  5
3E5
330
1F
100
AcDbEntity
  8
0
  6
Continuous
 62
     1
370
    25
100
AcDbLine
 10
-39.1320817757815
 20
-0.4507038913432588
 30
0.0
 11
-39.08704089486787
 21
-0.4751264809169904
 31
0.0
  0
LINE
  5
3E6
330
1F
100
AcDbEntity
  8
0
  6
Continuous
 62
     1
370
    25
100
AcDbLine
 10
-37.3515833688798
 20
0.445304959638485
 30
0.0
 11
-37.40998694724829
 21
0.4764874661820719
 31
0.0
  0
LINE
  5
3E7
330
1F
100
AcDbEntity
  8
0
  6
Continuous
 62
     1
370
    25
100
AcDbLine
 10
-30.49408023432755
 20
-0.4510093430512037
 30
0.0
 11
-30.44674096463112
 21
-0.4762698913268999
 31
0.0
  0
LINE
  5
3E8
330
1F
100
AcDbEntity
  8
0
  6
Continuous
 62
     1
370
    25
100
AcDbLine
 10
-35.60507775501384
 20
1.587499999999999
 30
0.0
 11
-36.57347066068584
 21
1.587499999999999
 31
0.0
  0
LINE
  5
3E9
330
1F
100
AcDbEntity
  8
0
  6
Continuous
 62
     1
370
    25
100
AcDbLine
 10
-27.93394269628692
 20
-1.587499999999998
 30
0.0
 11
-26.96557596188052
 21
-1.587499999999998
 31
0.0
  0
LINE
  5
3EA
330
1F
100
AcDbEntity
  8
0
  6
Continuous
 62
     1
370
    25
100
AcDbLine
 10
-31.28521386752954
 20
1.587499999999999
 30
0.0
 11
-32.25260155458119
 21
1.587499999999999
 31
0.0
  0
LINE
  5
3EB
330
1F
100
AcDbEntity
  8
0
  6
Continuous
 62
     1
370
    25
100
AcDbLine
 10
-23.61449660111128
 20
-1.587499999999998
 30
0.0
 11
-22.64640947359925
 21
-1.587499999999998
 31
0.0
  0
LINE
  5
3EC
330
1F
100
AcDbEntity
  8
0
  6
Continuous
 62
     1
370
    25
100
AcDbLine
 10
-22.64640947359925
 20
1.587499999999999
 30
0.0
 11
-23.61449660111128
 21
1.587499999999999
 31
0.0
  0
LINE
  5
3ED
330
1F
100
AcDbEntity
  8
0
  6
Continuous
 62
     1
370
    25
100
AcDbLine
 10
-32.25260155458119
 20
-1.587499999999998
 30
0.0
 11
-31.28521386752954
 21
-1.587499999999998
 31
0.0
  0
LINE
  5
3EE
330
1F
100
AcDbEntity
  8
0
  6
Continuous
 62
     1
370
    25
100
AcDbLine
 10
-26.96557596188052
 20
1.587499999999999
 30
0.0
 11
-27.93394269628692
 21
1.587499999999999
 31
0.0
  0
LINE
  5
3EF
330
1F
100
AcDbEntity
  8
0
  6
Continuous
 62
     1
370
    25
100
AcDbLine
 10
-36.57347066068584
 20
-1.587499999999998
 30
0.0
 11
-35.60507775501384
 21
-1.587499999999998
 31
0.0
  0
LINE
  5
3F0
330
1F
100
AcDbEntity
  8
외형선
  6
Continuous
370
    15
100
AcDbLine
 10
-16.67518467149222
 20
2.381250000000002
 30
0.0
 11
-19.63750000000002
 21
1.587499999999999
 31
0.0
  0
LINE
  5
3F1
330
1F
100
AcDbEntity
  8
외형선
  6
Continuous
370
    15
100
AcDbLine
 10
-19.63750000000002
 20
-1.587499999999998
 30
0.0
 11
-16.67518467149222
 21
-2.381250000000008
 31
0.0
  0
LINE
  5
3F4
330
1F
100
AcDbEntity
  8
외형선
  6
Continuous
370
    15
100
AcDbLine
 10
-19.63750000000002
 20
1.587499999999999
 30
0.0
 11
-20.13741205107851
 21
1.587499999999999
 31
0.0
  0
LINE
  5
3F5
330
1F
100
AcDbEntity
  8
외형선
  6
Continuous
370
    15
100
AcDbLine
 10
-20.13741205107851
 20
-1.587499999999998
 30
0.0
 11
-19.63750000000002
 21
-1.587499999999998
 31
0.0
  0
LINE
  5
3F6
330
1F
100
AcDbEntity
  8
0
  6
Continuous
 62
     1
370
    25
100
AcDbLine
 10
-39.6875
 20
1.437769141943499
 30
0.0
 11
-39.6875
 21
-0.1360191419435133
 31
0.0
  0
SPLINE
  5
3F7
330
1F
100
AcDbEntity
  8
0
  6
Continuous
 62
     1
370
    25
100
AcDbSpline
210
0.0
220
0.0
230
1.0
 70
     8
 71
     3
 72
    13
 73
     9
 74
     0
 42
0.000000001
 43
0.00000001
 40
0.0
 40
0.0
 40
0.0
 40
0.0
 40
0.1885386649611499
 40
0.3770746230159765
 40
0.5656077835653297
 40
0.7541392976978668
 40
0.9426733188865131
 40
1.0
 40
1.0
 40
1.0
 40
1.0
 10
-20.63749999999945
 20
0.7441040233466161
 30
0.0
 10
-20.93001848416858
 20
0.8859762493843
 30
0.0
 10
-21.51505125273098
 20
1.169718664557444
 30
0.0
 10
-22.39259253561727
 20
1.456330712188063
 30
0.0
 10
-23.27011338531864
 20
1.604036355553554
 30
0.0
 10
-24.1476544566105
 20
1.577729475053361
 30
0.0
 10
-24.82155405307984
 20
1.465626921972892
 30
0.0
 10
-25.20307550520755
 20
1.319553802746044
 30
0.0
 10
-25.29203383982258
 20
1.285494324973634
 30
0.0
  0
SPLINE
  5
3F8
330
1F
100
AcDbEntity
  8
0
  6
Continuous
 62
     1
370
    25
100
AcDbSpline
210
0.0
220
0.0
230
1.0
 70
     8
 71
     3
 72
    15
 73
    11
 74
     0
 42
0.000000001
 43
0.00000001
 40
0.0
 40
0.0
 40
0.0
 40
0.0
 40
0.0796321309700946
 40
0.2110607916487634
 40
0.3425614775762882
 40
0.4741016299890441
 40
0.6056483628011928
 40
0.7371687352281343
 40
0.8686300253909751
 40
1.0
 40
1.0
 40
1.0
 40
1.0
 10
-32.25260155458119
 20
-1.563645356266846
 30
0.0
 10
-32.44991191196004
 20
-1.565894018305037
 30
0.0
 10
-32.97287267819297
 20
-1.571853979242284
 30
0.0
 10
-33.82180513173944
 20
-1.358869343505595
 30
0.0
 10
-34.79946911384661
 20
-0.975511088199702
 30
0.0
 10
-35.77748773504854
 20
-0.4618194146311858
 30
0.0
 10
-36.7555649028713
 20
0.108290962655986
 30
0.0
 10
-37.73340418364796
 20
0.661961169189184
 30
0.0
 10
-38.71073066284765
 20
1.14551006334579
 30
0.0
 10
-39.36198564286073
 20
1.340372016061963
 30
0.0
 10
-39.68750000000006
 20
1.437769141943499
 30
0.0
  0
SPLINE
  5
3F9
330
1F
100
AcDbEntity
  8
외형선
  6
Continuous
370
    15
100
AcDbSpline
210
0.0
220
0.0
230
1.0
 70
    24
 71
     3
 72
    22
 73
    18
 74
     0
 42
0.000000001
 43
0.00000001
 40
0.0
 40
0.0
 40
0.0
 40
0.0
 40
0.125
 40
0.125
 40
0.25
 40
0.25
 40
0.375
 40
0.375
 40
0.5
 40
0.5
 40
0.625
 40
0.625
 40
0.75
 40
0.75
 40
0.875
 40
0.875
 40
1.0
 40
1.0
 40
1.0
 40
1.0
 10
-20.63750000000002
 20
-1.059745280005081
 30
0.0
 10
-20.63750000000005
 20
-1.028043667571942
 30
0.0
 10
-20.63750000000005
 20
-0.9912195387166769
 30
0.0
 10
-20.63750000000005
 20
-0.9153891380148587
 30
0.0
 10
-20.63750000000002
 20
-0.8686992969353391
 30
0.0
 10
-20.63750000000002
 20
-0.7518920334308057
 30
0.0
 10
-20.63750000000005
 20
-0.6816042556567432
 30
0.0
 10
-20.63750000000005
 20
-0.5143600159021056
 30
0.0
 10
-20.63750000000002
 20
-0.4171530761784148
 30
0.0
 10
-20.63750000000002
 20
-0.2022228349489759
 30
0.0
 10
-20.63750000000002
 20
-0.0844788922679875
 30
0.0
 10
-20.63750000000002
 20
0.1503896270475316
 30
0.0
 10
-20.63750000000002
 20
0.2669633851054634
 30
0.0
 10
-20.63750000000002
 20
0.4705533514063596
 30
0.0
 10
-20.63750000000002
 20
0.5569733363068046
 30
0.0
 10
-20.63750000000002
 20
0.6837265870041456
 30
0.0
 10
-20.63750000000005
 20
0.7241763895355369
 30
0.0
 10
-20.63750000000005
 20
0.7441040233469074
 30
0.0
  0
SPLINE
  5
3FA
330
1F
100
AcDbEntity
  8
0
  6
Continuous
 62
     1
370
    25
100
AcDbSpline
210
0.0
220
0.0
230
1.0
 70
     8
 71
     3
 72
    13
 73
     9
 74
     0
 42
0.000000001
 43
0.00000001
 40
0.0
 40
0.0
 40
0.0
 40
0.0
 40
0.1696366917747743
 40
0.3393912983813263
 40
0.5092221973054679
 40
0.6790871351228535
 40
0.8489435757384443
 40
1.0
 40
1.0
 40
1.0
 40
1.0
 10
-39.6875
 20
-0.1360191419435133
 30
0.0
 10
-39.36198563474903
 20
-0.3217277759927761
 30
0.0
 10
-38.71073063850696
 20
-0.6932741305649366
 30
0.0
 10
-37.73340428110791
 20
-1.158934246590156
 30
0.0
 10
-36.75556453719037
 20
-1.482090413764893
 30
0.0
 10
-35.77748910051019
 20
-1.615462217793215
 30
0.0
 10
-34.83545239604973
 20
-1.564120665235343
 30
0.0
 10
-34.21952261953709
 20
-1.380269573991306
 30
0.0
 10
-33.92959921720842
 20
-1.293729296303957
 30
0.0
  0
SPLINE
  5
3FB
330
1F
100
AcDbEntity
  8
0
  6
Continuous
 62
     1
370
    25
100
AcDbSpline
210
0.0
220
0.0
230
1.0
 70
     8
 71
     3
 72
    14
 73
    10
 74
     0
 42
0.000000001
 43
0.00000001
 40
0.0
 40
0.0
 40
0.0
 40
0.0
 40
0.1522482097232388
 40
0.3065875230156085
 40
0.4452695457365504
 40
0.5839497243149331
 40
0.7226311139660668
 40
0.8613145614087567
 40
1.0
 40
1.0
 40
1.0
 40
1.0
 10
-26.96557596188052
 20
1.586111277817182
 30
0.0
 10
-26.64435181907373
 20
1.567766686487958
 30
0.0
 10
-25.99749157385344
 20
1.530825543951139
 30
0.0
 10
-25.05815690486736
 20
1.241344431282209
 30
0.0
 10
-24.14764651051075
 20
0.8388648333845914
 30
0.0
 10
-23.27011551374579
 20
0.3623005535806605
 30
0.0
 10
-22.39259196802544
 20
-0.1478923466009541
 30
0.0
 10
-21.51505139463217
 20
-0.6510756932694683
 30
0.0
 10
-20.93001853146922
 20
-0.9235214324911205
 30
0.0
 10
-20.63749999999945
 20
-1.059745280005323
 30
0.0
  0
SPLINE
  5
3FC
330
1F
100
AcDbEntity
  8
0
  6
Continuous
 62
     1
370
    25
100
AcDbSpline
210
0.0
220
0.0
230
1.0
 70
     8
 71
     3
 72
    19
 73
    15
 74
     0
 42
0.000000001
 43
0.00000001
 40
0.0
 40
0.0
 40
0.0
 40
0.0
 40
0.0516973586334131
 40
0.136789366657638
 40
0.2314883177362011
 40
0.326248440638373
 40
0.4210464171511051
 40
0.515858615680122
 40
0.6106612864730177
 40
0.7054307589601015
 40
0.8001436376754617
 40
0.8948089480929557
 40
0.9895350912209893
 40
1.0
 40
1.0
 40
1.0
 40
1.0
 10
-23.61449660111128
 20
-1.568265961558644
 30
0.0
 10
-23.79221056860948
 20
-1.570042995054947
 30
0.0
 10
-24.26243538672202
 20
-1.574744962291077
 30
0.0
 10
-25.05815555202003
 20
-1.395387407441518
 30
0.0
 10
-26.0021172376164
 20
-1.048703328147546
 30
0.0
 10
-26.97955897715042
 20
-0.5508070893790553
 30
0.0
 10
-27.95747273704535
 20
0.0139331973185157
 30
0.0
 10
-28.93556092230079
 20
0.5774609391638357
 30
0.0
 10
-29.91353172307311
 20
1.068879938462175
 30
0.0
 10
-30.89109263910746
 20
1.425504252624322
 30
0.0
 10
-31.86806402047995
 20
1.607981138135266
 30
0.0
 10
-32.84472500944463
 20
1.574117499382688
 30
0.0
 10
-33.53189169409274
 20
1.452043642627779
 30
0.0
 10
-33.89361341132826
 20
1.308054067659101
 30
0.0
 10
-33.92959921720842
 20
1.293729296303952
 30
0.0
  0
SPLINE
  5
3FD
330
1F
100
AcDbEntity
  8
0
  6
Continuous
 62
     1
370
    25
100
AcDbSpline
210
0.0
220
0.0
230
1.0
 70
     8
 71
     3
 72
    18
 73
    14
 74
     0
 42
0.000000001
 43
0.00000001
 40
0.0
 40
0.0
 40
0.0
 40
0.0
 40
0.078116013146006
 40
0.1729181052862063
 40
0.2676682726457133
 40
0.3623575918664185
 40
0.4570944914491585
 40
0.5518879991568055
 40
0.6467147135899438
 40
0.7415509581756075
 40
0.8363729771380316
 40
0.9311571328895439
 40
1.0
 40
1.0
 40
1.0
 40
1.0
 10
-35.60507775501384
 20
1.573015740676895
 30
0.0
 10
-35.33650968270786
 20
1.565706882467986
 30
0.0
 10
-34.74200568367863
 20
1.549527947286948
 30
0.0
 10
-33.82180565275809
 20
1.28907518304704
 30
0.0
 10
-32.84471970118426
 20
0.8722960521269634
 30
0.0
 10
-31.86806543788219
 20
0.3406265106389064
 30
0.0
 10
-30.89109227886485
 20
-0.2319151319679371
 30
0.0
 10
-29.91353174541536
 20
-0.7760469570994524
 30
0.0
 10
-28.93556119351706
 20
-1.222682457446303
 30
0.0
 10
-27.95747162980356
 20
-1.51796027263834
 30
0.0
 10
-26.97956313347453
 20
-1.617642695549036
 30
0.0
 10
-26.09107185781255
 20
-1.543748764582218
 30
0.0
 10
-25.52865832523531
 20
-1.361972943640196
 30
0.0
 10
-25.29203383982252
 20
-1.285494324973633
 30
0.0
  0
LINE
  5
3FE
330
1F
100
AcDbEntity
  8
0
  6
Continuous
 62
     1
370
    25
100
AcDbLine
 10
-20.63749999999945
 20
1.40230718904217
 30
0.0
 11
-20.97248746742272
 21
1.286138793728683
 31
0.0
  0
SPLINE
  5
3FF
330
1F
100
AcDbEntity
  8
0
  6
Continuous
 62
     1
370
    25
100
AcDbSpline
210
0.0
220
0.0
230
1.0
 70
     8
 71
     3
 72
    19
 73
    15
 74
     0
 42
0.000000001
 43
0.00000001
 40
0.0
 40
0.0
 40
0.0
 40
0.0
 40
0.0022768872363584
 40
0.0971042358997901
 40
0.1919220553046542
 40
0.2867066710989166
 40
0.3814346840782809
 40
0.4761151211587941
 40
0.5708564006703651
 40
0.6656496000919355
 40
0.7604712492084911
 40
0.8552976418524855
 40
0.950105032426383
 40
0.9999999999999999
 40
0.9999999999999999
 40
0.9999999999999999
 40
0.9999999999999999
 10
-27.93394269628692
 20
-1.585171051348801
 30
0.0
 10
-27.94177129862072
 20
-1.585944747135684
 30
0.0
 10
-28.27564398043376
 20
-1.618941171818
 30
0.0
 10
-28.93556434310085
 20
-1.500251208938088
 30
0.0
 10
-29.9135309002117
 20
-1.223154608006161
 30
0.0
 10
-30.89109251120672
 20
-0.769986108970776
 30
0.0
 10
-31.86806535311618
 20
-0.2268143461627183
 30
0.0
 10
-32.84471980808411
 20
0.3465306179595096
 30
0.0
 10
-33.82180530961693
 20
0.8760470696766667
 30
0.0
 10
-34.79946879320022
 20
1.295682143479362
 30
0.0
 10
-35.77748884001392
 20
1.55544211071976
 30
0.0
 10
-36.75556080392576
 20
1.612579733323508
 30
0.0
 10
-37.57914178334801
 20
1.516221250867013
 30
0.0
 10
-38.07661286565582
 20
1.341533958610349
 30
0.0
 10
-38.24814637650059
 20
1.281299855350029
 30
0.0
  0
LINE
  5
400
330
1F
100
AcDbEntity
  8
외형선
  6
Continuous
370
    15
100
AcDbLine
 10
-20.63750000000005
 20
1.236356348708768
 30
0.0
 11
-20.63750000000005
 21
1.402307189042013
 31
0.0
  0
SPLINE
  5
401
330
1F
100
AcDbEntity
  8
0
  6
Continuous
 62
     1
370
    25
100
AcDbSpline
210
0.0
220
0.0
230
1.0
 70
     8
 71
     3
 72
    18
 73
    14
 74
     0
 42
0.000000001
 43
0.00000001
 40
0.0
 40
0.0
 40
0.0
 40
0.0
 40
0.0969042044179767
 40
0.193875767158277
 40
0.2908909115451062
 40
0.3879255004980521
 40
0.4849552354623293
 40
0.5819558582313425
 40
0.6789033520455967
 40
0.7757885866077092
 40
0.8727225049556407
 40
0.969714344212761
 40
1.0
 40
1.0
 40
1.0
 40
1.0
 10
-39.68750000000003
 20
1.587499999999992
 30
0.0
 10
-39.36198564279866
 20
1.54611443624112
 30
0.0
 10
-38.71073066266132
 20
1.47499437135312
 30
0.0
 10
-37.73340418439395
 20
1.130951655748903
 30
0.0
 10
-36.7555649000721
 20
0.659633102406908
 30
0.0
 10
-35.77748774550065
 20
0.1019433525364384
 30
0.0
 10
-34.79946907484521
 20
-0.4674068580420603
 30
0.0
 10
-33.82180527721277
 20
-0.9787241320944837
 30
0.0
 10
-32.84471965638937
 20
-1.366717509711292
 30
0.0
 10
-31.86806599195006
 20
-1.586958848647185
 30
0.0
 10
-30.89109010546977
 20
-1.597436928073932
 30
0.0
 10
-30.13777603162907
 20
-1.484036887992793
 30
0.0
 10
-29.71011056773006
 20
-1.322569860563738
 30
0.0
 10
-29.60834765177054
 20
-1.284148812035091
 30
0.0
  0
SPLINE
  5
402
330
1F
100
AcDbEntity
  8
0
  6
Continuous
 62
     1
370
    25
100
AcDbSpline
210
0.0
220
0.0
230
1.0
 70
     8
 71
     3
 72
    10
 73
     6
 74
     0
 42
0.000000001
 43
0.00000001
 40
0.0
 40
0.0
 40
0.0
 40
0.0
 40
0.126344730691329
 40
0.5631692294902869
 40
1.0
 40
1.0
 40
1.0
 40
1.0
 10
-22.64640947359925
 20
1.57092971435953
 30
0.0
 10
-22.56180477909737
 20
1.575660526730964
 30
0.0
 10
-22.18468766188005
 20
1.59674765829162
 30
0.0
 10
-21.51505143081746
 20
1.478367293257521
 30
0.0
 10
-20.93001854353105
 20
1.280781728301357
 30
0.0
 10
-20.63749999999945
 20
1.181988236619333
 30
0.0
  0
LINE
  5
403
330
1F
100
AcDbEntity
  8
0
  6
Continuous
 62
     1
370
    25
100
AcDbLine
 10
-39.6875
 20
-0.6730350247015686
 30
0.0
 11
-39.6875
 21
-1.587500000000005
 31
0.0
  0
SPLINE
  5
404
330
1F
100
AcDbEntity
  8
0
  6
Continuous
 62
     1
370
    25
100
AcDbSpline
210
0.0
220
0.0
230
1.0
 70
     8
 71
     3
 72
    17
 73
    13
 74
     0
 42
0.000000001
 43
0.00000001
 40
0.0
 40
0.0
 40
0.0
 40
0.0
 40
0.0978383641609547
 40
0.1956753236270864
 40
0.2935108313837806
 40
0.3913454847654422
 40
0.4891814391336609
 40
0.5980631363878005
 40
0.7070151669656233
 40
0.8160107203630553
 40
0.9250226257607348
 40
1.0
 40
1.0
 40
1.0
 40
1.0
 10
-20.63749999999945
 20
-1.402307189042168
 30
0.0
 10
-20.93001853010279
 20
-1.30927890248764
 30
0.0
 10
-21.51505139053285
 20
-1.123223665013661
 30
0.0
 10
-22.39259198442232
 20
-0.6927210618555073
 30
0.0
 10
-23.27011545225901
 20
-0.2024130125209418
 30
0.0
 10
-24.14764674006054
 20
0.311061115797586
 30
0.0
 10
-25.05815600726126
 20
0.8105237891650467
 30
0.0
 10
-26.00211703240311
 20
1.237359119435226
 30
0.0
 10
-26.97955931962247
 20
1.525759811039855
 30
0.0
 10
-27.95747157196601
 20
1.617350996683762
 30
0.0
 10
-28.83379952504879
 20
1.53863855190997
 30
0.0
 10
-29.38409644454254
 20
1.357830006818461
 30
0.0
 10
-29.60834765177054
 20
1.284148812035085
 30
0.0
  0
SPLINE
  5
405
330
1F
100
AcDbEntity
  8
0
  6
Continuous
 62
     1
370
    25
100
AcDbSpline
210
0.0
220
0.0
230
1.0
 70
     8
 71
     3
 72
    11
 73
     7
 74
     0
 42
0.000000001
 43
0.00000001
 40
0.0
 40
0.0
 40
0.0
 40
0.0
 40
0.0584861168301284
 40
0.3724907890034838
 40
0.6863544023687786
 40
0.9999999999999999
 40
0.9999999999999999
 40
0.9999999999999999
 40
0.9999999999999999
 10
-36.57347066068584
 20
-1.572378370244514
 30
0.0
 10
-36.63418829899479
 20
-1.577121258159252
 30
0.0
 10
-37.02089137018351
 20
-1.607328120185094
 30
0.0
 10
-37.7334029326733
 20
-1.466894903890263
 30
0.0
 10
-38.71073097527938
 20
-1.162065542426254
 30
0.0
 10
-39.36198574698057
 20
-0.8360074364510333
 30
0.0
 10
-39.68750000000006
 20
-0.6730350247015686
 30
0.0
  0
SPLINE
  5
406
330
1F
100
AcDbEntity
  8
0
  6
Continuous
 62
     1
370
    25
100
AcDbSpline
210
0.0
220
0.0
230
1.0
 70
     8
 71
     3
 72
     9
 73
     5
 74
     0
 42
0.000000001
 43
0.00000001
 40
0.0
 40
0.0
 40
0.0
 40
0.0
 40
0.6785110251022742
 40
1.0
 40
1.0
 40
1.0
 40
1.0
 10
-39.6875
 20
-1.587500000000005
 30
0.0
 10
-39.36199071009474
 20
-1.55321639906635
 30
0.0
 10
-38.88225010476535
 20
-1.511292666168166
 30
0.0
 10
-38.40240975777056
 20
-1.33725200810219
 30
0.0
 10
-38.24814637650059
 20
-1.281299855350027
 30
0.0
  0
SPLINE
  5
407
330
1F
100
AcDbEntity
  8
0
  6
Continuous
 62
     1
370
    25
100
AcDbSpline
210
0.0
220
0.0
230
1.0
 70
     8
 71
     3
 72
    19
 73
    15
 74
     0
 42
0.000000001
 43
0.00000001
 40
0.0
 40
0.0
 40
0.0
 40
0.0
 40
0.0381999193245534
 40
0.1329871318496453
 40
0.227807548894989
 40
0.322637495459966
 40
0.417453217346419
 40
0.5122310785364343
 40
0.6069477564520047
 40
0.6920556929753211
 40
0.777162497764583
 40
0.8622700457785313
 40
0.9473788566410425
 40
1.0
 40
1.0
 40
1.0
 40
1.0
 10
-31.28521386752954
 20
1.563440826530425
 30
0.0
 10
-31.15390060727862
 20
1.56938886493321
 30
0.0
 10
-30.69675372939577
 20
1.590096043935284
 30
0.0
 10
-29.91352641571166
 20
1.415841452033867
 30
0.0
 10
-28.93556234696757
 20
1.06649712057309
 30
0.0
 10
-27.95747234719306
 20
0.5716112679904988
 30
0.0
 10
-26.97955911198795
 20
0.0084954314052161
 30
0.0
 10
-26.00211708804181
 20
-0.5563936157848055
 30
0.0
 10
-25.05815599455258
 20
-1.035008815961738
 30
0.0
 10
-24.1476467416004
 20
-1.379807645953014
 30
0.0
 10
-23.27011545829117
 20
-1.574352869708675
 30
0.0
 10
-22.39259195875331
 20
-1.604228048805971
 30
0.0
 10
-21.62671372148068
 20
-1.507122668785846
 30
0.0
 10
-21.15334344325672
 20
-1.347228140295164
 30
0.0
 10
-20.97248746742272
 20
-1.286138793728689
 30
0.0
  0
LINE
  5
408
330
1F
100
AcDbEntity
  8
0
  6
Continuous
 62
     1
370
    25
100
AcDbLine
 10
-39.6875
 20
1.587499999999992
 30
0.0
 11
-39.6875
 21
1.437769141943499
 31
0.0
  0
LINE
  5
409
330
1F
100
AcDbEntity
  8
외형선
  6
Continuous
370
    15
100
AcDbLine
 10
-20.63750000000005
 20
1.181988236619546
 30
0.0
 11
-20.63750000000005
 21
0.7441040233469074
 31
0.0
  0
LINE
  5
40A
330
1F
100
AcDbEntity
  8
외형선
  6
Continuous
370
    15
100
AcDbLine
 10
-20.63750000000005
 20
-1.059745280005074
 30
0.0
 11
-20.63750000000005
 21
-1.402307189042019
 31
0.0
  0
LINE
  5
40B
330
1F
100
AcDbEntity
  8
0
  6
Continuous
 62
     1
370
    25
100
AcDbLine
 10
-39.6875
 20
-0.1360191419435133
 30
0.0
 11
-39.6875
 21
-0.6730350247015686
 31
0.0
  0
LINE
  5
40C
330
1F
100
AcDbEntity
  8
외형선
  6
Continuous
370
    15
100
AcDbLine
 10
-19.63750000000002
 20
0.0000000000000007
 30
0.0
 11
-19.63750000000002
 21
-1.587499999999998
 31
0.0
  0
LINE
  5
40D
330
1F
100
AcDbEntity
  8
외형선
  6
Continuous
370
    15
100
AcDbLine
 10
-19.63750000000002
 20
1.587499999999999
 30
0.0
 11
-19.63750000000002
 21
0.0000000000000007
 31
0.0
  0
LINE
  5
40E
330
1F
100
AcDbEntity
  8
외형선
  6
Continuous
370
    15
100
AcDbLine
 10
-16.67518467149222
 20
0.0000000000000007
 30
0.0
 11
-16.67518467149222
 21
-2.381250000000008
 31
0.0
  0
LINE
  5
40F
330
1F
100
AcDbEntity
  8
외형선
  6
Continuous
370
    15
100
AcDbLine
 10
-16.67518467149222
 20
2.381250000000002
 30
0.0
 11
-16.67518467149222
 21
0.0000000000000007
 31
0.0
  0
SPLINE
  5
410
330
1F
100
AcDbEntity
  8
외형선
  6
Continuous
370
    15
100
AcDbSpline
210
0.0
220
0.0
230
1.0
 70
     8
 71
     3
 72
     8
 73
     4
 74
     0
 42
0.000000001
 43
0.00000001
 40
0.0
 40
0.0
 40
0.0
 40
0.0
 40
1.0
 40
1.0
 40
1.0
 40
1.0
 10
-20.63749999999945
 20
0.744104023346609
 30
0.0
 10
-20.47261000043665
 20
0.6595251566348004
 30
0.0
 10
-20.30454483325462
 20
0.5703129843576853
 30
0.0
 10
-20.13741205107848
 20
0.4786081783723339
 30
0.0
  0
SPLINE
  5
411
330
1F
100
AcDbEntity
  8
외형선
  6
Continuous
370
    15
100
AcDbSpline
210
0.0
220
0.0
230
1.0
 70
     8
 71
     3
 72
     8
 73
     4
 74
     0
 42
0.000000001
 43
0.00000001
 40
0.0
 40
0.0
 40
0.0
 40
0.0
 40
1.0
 40
1.0
 40
1.0
 40
1.0
 10
-20.63749999999948
 20
1.181988236619333
 30
0.0
 10
-20.4726100004367
 20
1.118070675983234
 30
0.0
 10
-20.30454483325465
 20
1.047242386685021
 30
0.0
 10
-20.13741205107851
 20
0.9711593903729046
 30
0.0
  0
LINE
  5
412
330
1F
100
AcDbEntity
  8
외형선
  6
Continuous
370
    15
100
AcDbLine
 10
-20.13741205107851
 20
1.587499999999999
 30
0.0
 11
-20.13741205107851
 21
0.971152027341774
 31
0.0
  0
SPLINE
  5
413
330
1F
100
AcDbEntity
  8
외형선
  6
Continuous
370
    15
100
AcDbSpline
210
0.0
220
0.0
230
1.0
 70
     8
 71
     3
 72
     8
 73
     4
 74
     0
 42
0.000000001
 43
0.00000001
 40
0.0
 40
0.0
 40
0.0
 40
0.0
 40
1.0
 40
1.0
 40
1.0
 40
1.0
 10
-20.63749999999945
 20
1.402307189042177
 30
0.0
 10
-20.47261000043665
 20
1.447187137959319
 30
0.0
 10
-20.30454483325462
 20
1.484637982699554
 30
0.0
 10
-20.13741205107848
 20
1.5136348508128
 30
0.0
  0
LINE
  5
414
330
1F
100
AcDbEntity
  8
외형선
  6
Continuous
370
    15
100
AcDbLine
 10
-20.13741205107851
 20
-1.513634845250173
 30
0.0
 11
-20.13741205107851
 21
-1.587499999999998
 31
0.0
  0
SPLINE
  5
415
330
1F
100
AcDbEntity
  8
외형선
  6
Continuous
370
    15
100
AcDbSpline
210
0.0
220
0.0
230
1.0
 70
     8
 71
     3
 72
     8
 73
     4
 74
     0
 42
0.000000001
 43
0.00000001
 40
0.0
 40
0.0
 40
0.0
 40
0.0
 40
1.0
 40
1.0
 40
1.0
 40
1.0
 10
-20.63749999999945
 20
-1.402307189042175
 30
0.0
 10
-20.47261000043665
 20
-1.447187137959318
 30
0.0
 10
-20.30454483325462
 20
-1.484637982699552
 30
0.0
 10
-20.13741205107848
 20
-1.513634850812806
 30
0.0
  0
SPLINE
  5
416
330
1F
100
AcDbEntity
  8
외형선
  6
Continuous
370
    15
100
AcDbSpline
210
0.0
220
0.0
230
1.0
 70
     8
 71
     3
 72
     8
 73
     4
 74
     0
 42
0.000000001
 43
0.00000001
 40
0.0
 40
0.0
 40
0.0
 40
0.0
 40
1.0
 40
1.0
 40
1.0
 40
1.0
 10
-20.63749999999948
 20
-1.059745280005316
 30
0.0
 10
-20.4726100004367
 20
-1.131035811995132
 30
0.0
 10
-20.30454483325465
 20
-1.196950384657391
 30
0.0
 10
-20.13741205107851
 20
-1.255788870985305
 30
0.0
  0
LINE
  5
417
330
1F
100
AcDbEntity
  8
외형선
  6
Continuous
370
    15
100
AcDbLine
 10
-20.13741205107851
 20
0.4786081959645834
 30
0.0
 11
-20.13741205107851
 21
-1.255794565122016
 31
0.0
  0
SPLINE
  5
418
330
1F
100
AcDbEntity
  8
외형선
  6
Continuous
370
    15
100
AcDbSpline
210
0.0
220
0.0
230
1.0
 70
    24
 71
     3
 72
    22
 73
    18
 74
     0
 42
0.000000001
 43
0.00000001
 40
0.0
 40
0.0
 40
0.0
 40
0.0
 40
0.125
 40
0.125
 40
0.2499999999999999
 40
0.2499999999999999
 40
0.3749999999999999
 40
0.3749999999999999
 40
0.4999999999999999
 40
0.4999999999999999
 40
0.6249999999999999
 40
0.6249999999999999
 40
0.7499999999999998
 40
0.7499999999999998
 40
0.8749999999999998
 40
0.8749999999999998
 40
1.0
 40
1.0
 40
1.0
 40
1.0
 10
-20.63750000000002
 20
0.7441040233469003
 30
0.0
 10
-20.63750000000002
 20
0.724176389535679
 30
0.0
 10
-20.63750000000005
 20
0.6837265870047708
 30
0.0
 10
-20.63750000000002
 20
0.5569733363090712
 30
0.0
 10
-20.63750000000002
 20
0.4705533514097986
 30
0.0
 10
-20.63750000000002
 20
0.2669633851113467
 30
0.0
 10
-20.63750000000002
 20
0.1503896270546583
 30
0.0
 10
-20.63749999999999
 20
-0.0844788922589921
 30
0.0
 10
-20.63750000000002
 20
-0.2022228349393693
 30
0.0
 10
-20.63750000000002
 20
-0.4171530761683464
 30
0.0
 10
-20.63750000000002
 20
-0.5143600158921793
 30
0.0
 10
-20.63750000000005
 20
-0.6816042556475346
 30
0.0
 10
-20.63750000000002
 20
-0.7518920334221655
 30
0.0
 10
-20.63750000000002
 20
-0.8686992969279423
 30
0.0
 10
-20.63750000000002
 20
-0.915389138008144
 30
0.0
 10
-20.63750000000002
 20
-0.9912195387112555
 30
0.0
 10
-20.63750000000005
 20
-1.028043667565732
 30
0.0
 10
-20.63750000000002
 20
-1.059745279999276
 30
0.0
  0
SPLINE
  5
419
330
1F
100
AcDbEntity
  8
외형선
  6
Continuous
370
    15
100
AcDbSpline
210
0.0
220
0.0
230
1.0
 70
    24
 71
     3
 72
    10
 73
     6
 74
     0
 42
0.000000001
 43
0.00000001
 40
0.0
 40
0.0
 40
0.0
 40
0.0
 40
0.4216381060120547
 40
0.84578381052521
 40
1.0
 40
1.0
 40
1.0
 40
1.0
 10
-20.63750000000002
 20
1.402307189042013
 30
0.0
 10
-20.63750000000005
 20
1.378516672653156
 30
0.0
 10
-20.63750000000007
 20
1.330794151090651
 30
0.0
 10
-20.63750000000002
 20
1.274760887356437
 30
0.0
 10
-20.63750000000002
 20
1.24444094984888
 30
0.0
 10
-20.63750000000002
 20
1.236356348708768
 30
0.0
  0
ENDSEC
  0
SECTION
  2
OBJECTS
  0
DICTIONARY
  5
C
330
0
100
AcDbDictionary
281
     1
  3
ACAD_GROUP
350
D
  3
ACAD_IMAGE_VARS
350
15E
  3
ACAD_LAYOUT
350
1A
  3
ACAD_MLINESTYLE
350
17
  3
ACAD_PLOTSETTINGS
350
19
  3
ACAD_PLOTSTYLENAME
350
E
  3
ACAD_SCALELIST
350
47
  3
APPDATA
350
15C
  3
DWGPROPS
350
44A
  0
DICTIONARY
  5
224
330
2
100
AcDbDictionary
280
     1
281
     1
  3
ACAD_LAYERSTATES
360
225
  0
DICTIONARY
  5
D
102
{ACAD_REACTORS
330
C
102
}
330
C
100
AcDbDictionary
281
     1
  0
RASTERVARIABLES
  5
15E
102
{ACAD_REACTORS
330
C
102
}
330
C
100
AcDbRasterVariables
 90
        0
 70
     1
 71
     1
 72
     1
  0
DICTIONARY
  5
1A
102
{ACAD_REACTORS
330
C
102
}
330
C
100
AcDbDictionary
281
     1
  3
Layout1
350
1E
  3
Layout2
350
26
  3
Model
350
22
  0
DICTIONARY
  5
17
102
{ACAD_REACTORS
330
C
102
}
330
C
100
AcDbDictionary
281
     1
  3
Standard
350
18
  0
DICTIONARY
  5
19
102
{ACAD_REACTORS
330
C
102
}
330
C
100
AcDbDictionary
281
     1
  0
ACDBDICTIONARYWDFLT
  5
E
102
{ACAD_REACTORS
330
C
102
}
330
C
100
AcDbDictionary
281
     1
  3
Normal
350
F
100
AcDbDictionaryWithDefault
340
F
  0
DICTIONARY
  5
47
102
{ACAD_REACTORS
330
C
102
}
330
C
100
AcDbDictionary
281
     1
  3
A0
350
48
  3
A1
350
49
  3
A2
350
4A
  3
A3
350
4B
  3
A4
350
4C
  3
A5
350
4D
  3
A6
350
4E
  3
A7
350
4F
  3
A8
350
50
  3
A9
350
51
  3
B0
350
52
  3
B1
350
53
  3
B2
350
54
  3
B3
350
55
  3
B4
350
56
  3
B5
350
57
  3
B6
350
58
  3
B7
350
59
  3
B8
350
5A
  3
B9
350
5B
  3
C0
350
5C
  3
C1
350
5D
  3
C2
350
5E
  3
C3
350
5F
  3
C4
350
60
  3
C5
350
61
  3
C6
350
62
  3
C7
350
63
  3
C8
350
64
  3
C9
350
65
  3
D0
350
66
  3
D1
350
67
  3
D2
350
68
  0
DICTIONARY
  5
15C
102
{ACAD_REACTORS
330
C
102
}
330
C
100
AcDbDictionary
281
     1
  0
XRECORD
  5
44A
102
{ACAD_REACTORS
330
C
102
}
330
C
100
AcDbXrecord
280
     1
  1
DWGPROPS COOKIE
  2

  3

  4

  6

  7

  8
12017012
  9

300
=
301
=
302
=
303
=
304
=
305
=
306
=
307
=
308
=
309
=
 40
0.0
 41
2458313.105767986
 42
2458320.01366103
  1

 90
        0
  0
DICTIONARY
  5
225
102
{ACAD_REACTORS
330
224
102
}
330
224
100
AcDbDictionary
281
     1
  0
LAYOUT
  5
1E
102
{ACAD_REACTORS
330
1A
102
}
330
1A
100
AcDbPlotSettings
  1

  2
none_device
  4

  6

 40
0.0
 41
0.0
 42
0.0
 43
0.0
 44
0.0
 45
0.0
 46
0.0
 47
0.0
 48
0.0
 49
0.0
140
0.0
141
0.0
142
1.0
143
1.0
 70
   688
 72
     1
 73
     0
 74
     5
  7

 75
    16
147
1.0
148
0.0
149
0.0
100
AcDbLayout
  1
Layout1
 70
     1
 71
     1
 10
0.0
 20
0.0
 11
420.0
 21
297.0
 12
0.0
 22
0.0
 32
0.0
 14
1.000000000000000E+20
 24
1.000000000000000E+20
 34
1.000000000000000E+20
 15
-1.000000000000000E+20
 25
-1.000000000000000E+20
 35
-1.000000000000000E+20
146
0.0
 13
0.0
 23
0.0
 33
0.0
 16
1.0
 26
0.0
 36
0.0
 17
0.0
 27
1.0
 37
0.0
 76
     0
330
1B
  0
LAYOUT
  5
26
102
{ACAD_REACTORS
330
1A
102
}
330
1A
100
AcDbPlotSettings
  1

  2
none_device
  4

  6

 40
0.0
 41
0.0
 42
0.0
 43
0.0
 44
0.0
 45
0.0
 46
0.0
 47
0.0
 48
0.0
 49
0.0
140
0.0
141
0.0
142
1.0
143
1.0
 70
   688
 72
     1
 73
     0
 74
     5
  7

 75
    16
147
1.0
148
0.0
149
0.0
100
AcDbLayout
  1
Layout2
 70
     1
 71
     2
 10
0.0
 20
0.0
 11
0.0
 21
0.0
 12
0.0
 22
0.0
 32
0.0
 14
0.0
 24
0.0
 34
0.0
 15
0.0
 25
0.0
 35
0.0
146
0.0
 13
0.0
 23
0.0
 33
0.0
 16
1.0
 26
0.0
 36
0.0
 17
0.0
 27
1.0
 37
0.0
 76
     0
330
23
  0
LAYOUT
  5
22
102
{ACAD_REACTORS
330
1A
102
}
330
1A
100
AcDbPlotSettings
  1

  2
none_device
  4
ANSI_A_(11.00_x_8.50_Inches)
  6

 40
6.35
 41
19.05
 42
6.35000508
 43
19.05000254
 44
279.4
 45
215.9
 46
80.64712955124685
 47
82.64345417663876
 48
0.0
 49
0.0
140
0.0
141
0.0
142
0.0532508079732997
143
1.0
 70
  1696
 72
     0
 73
     0
 74
     0
  7

 75
     0
147
0.0235690232323232
148
0.0
149
0.0
100
AcDbLayout
  1
Model
 70
     1
 71
     0
 10
0.0
 20
0.0
 11
420.0
 21
297.0
 12
0.0
 22
0.0
 32
0.0
 14
1.000000000000000E+20
 24
1.000000000000000E+20
 34
1.000000000000000E+20
 15
-1.000000000000000E+20
 25
-1.000000000000000E+20
 35
-1.000000000000000E+20
146
0.0
 13
0.0
 23
0.0
 33
0.0
 16
1.0
 26
0.0
 36
0.0
 17
0.0
 27
1.0
 37
0.0
 76
     0
330
1F
331
29
  0
MLINESTYLE
  5
18
102
{ACAD_REACTORS
330
17
102
}
330
17
100
AcDbMlineStyle
  2
Standard
 70
     0
  3

 62
   256
 51
90.0
 52
90.0
 71
     2
 49
0.5
 62
   256
  6
BYLAYER
 49
-0.5
 62
   256
  6
BYLAYER
  0
ACDBPLACEHOLDER
  5
F
102
{ACAD_REACTORS
330
E
102
}
330
E
  0
SCALE
  5
48
102
{ACAD_REACTORS
330
47
102
}
330
47
100
AcDbScale
 70
     0
300
1:1
140
1.0
141
1.0
290
     1
  0
SCALE
  5
49
102
{ACAD_REACTORS
330
47
102
}
330
47
100
AcDbScale
 70
     0
300
1:2
140
1.0
141
2.0
290
     0
  0
SCALE
  5
4A
102
{ACAD_REACTORS
330
47
102
}
330
47
100
AcDbScale
 70
     0
300
1:4
140
1.0
141
4.0
290
     0
  0
SCALE
  5
4B
102
{ACAD_REACTORS
330
47
102
}
330
47
100
AcDbScale
 70
     0
300
1:5
140
1.0
141
5.0
290
     0
  0
SCALE
  5
4C
102
{ACAD_REACTORS
330
47
102
}
330
47
100
AcDbScale
 70
     0
300
1:8
140
1.0
141
8.0
290
     0
  0
SCALE
  5
4D
102
{ACAD_REACTORS
330
47
102
}
330
47
100
AcDbScale
 70
     0
300
1:10
140
1.0
141
10.0
290
     0
  0
SCALE
  5
4E
102
{ACAD_REACTORS
330
47
102
}
330
47
100
AcDbScale
 70
     0
300
1:16
140
1.0
141
16.0
290
     0
  0
SCALE
  5
4F
102
{ACAD_REACTORS
330
47
102
}
330
47
100
AcDbScale
 70
     0
300
1:20
140
1.0
141
20.0
290
     0
  0
SCALE
  5
50
102
{ACAD_REACTORS
330
47
102
}
330
47
100
AcDbScale
 70
     0
300
1:30
140
1.0
141
30.0
290
     0
  0
SCALE
  5
51
102
{ACAD_REACTORS
330
47
102
}
330
47
100
AcDbScale
 70
     0
300
1:40
140
1.0
141
40.0
290
     0
  0
SCALE
  5
52
102
{ACAD_REACTORS
330
47
102
}
330
47
100
AcDbScale
 70
     0
300
1:50
140
1.0
141
50.0
290
     0
  0
SCALE
  5
53
102
{ACAD_REACTORS
330
47
102
}
330
47
100
AcDbScale
 70
     0
300
1:100
140
1.0
141
100.0
290
     0
  0
SCALE
  5
54
102
{ACAD_REACTORS
330
47
102
}
330
47
100
AcDbScale
 70
     0
300
2:1
140
2.0
141
1.0
290
     0
  0
SCALE
  5
55
102
{ACAD_REACTORS
330
47
102
}
330
47
100
AcDbScale
 70
     0
300
4:1
140
4.0
141
1.0
290
     0
  0
SCALE
  5
56
102
{ACAD_REACTORS
330
47
102
}
330
47
100
AcDbScale
 70
     0
300
8:1
140
8.0
141
1.0
290
     0
  0
SCALE
  5
57
102
{ACAD_REACTORS
330
47
102
}
330
47
100
AcDbScale
 70
     0
300
10:1
140
10.0
141
1.0
290
     0
  0
SCALE
  5
58
102
{ACAD_REACTORS
330
47
102
}
330
47
100
AcDbScale
 70
     0
300
100:1
140
100.0
141
1.0
290
     0
  0
SCALE
  5
59
102
{ACAD_REACTORS
330
47
102
}
330
47
100
AcDbScale
 70
     0
300
1/128" = 1'-0"
140
0.0078125
141
12.0
290
     0
  0
SCALE
  5
5A
102
{ACAD_REACTORS
330
47
102
}
330
47
100
AcDbScale
 70
     0
300
1/64" = 1'-0"
140
0.015625
141
12.0
290
     0
  0
SCALE
  5
5B
102
{ACAD_REACTORS
330
47
102
}
330
47
100
AcDbScale
 70
     0
300
1/32" = 1'-0"
140
0.03125
141
12.0
290
     0
  0
SCALE
  5
5C
102
{ACAD_REACTORS
330
47
102
}
330
47
100
AcDbScale
 70
     0
300
1/16" = 1'-0"
140
0.0625
141
12.0
290
     0
  0
SCALE
  5
5D
102
{ACAD_REACTORS
330
47
102
}
330
47
100
AcDbScale
 70
     0
300
3/32" = 1'-0"
140
0.09375
141
12.0
290
     0
  0
SCALE
  5
5E
102
{ACAD_REACTORS
330
47
102
}
330
47
100
AcDbScale
 70
     0
300
1/8" = 1'-0"
140
0.125
141
12.0
290
     0
  0
SCALE
  5
5F
102
{ACAD_REACTORS
330
47
102
}
330
47
100
AcDbScale
 70
     0
300
3/16" = 1'-0"
140
0.1875
141
12.0
290
     0
  0
SCALE
  5
60
102
{ACAD_REACTORS
330
47
102
}
330
47
100
AcDbScale
 70
     0
300
1/4" = 1'-0"
140
0.25
141
12.0
290
     0
  0
SCALE
  5
61
102
{ACAD_REACTORS
330
47
102
}
330
47
100
AcDbScale
 70
     0
300
3/8" = 1'-0"
140
0.375
141
12.0
290
     0
  0
SCALE
  5
62
102
{ACAD_REACTORS
330
47
102
}
330
47
100
AcDbScale
 70
     0
300
1/2" = 1'-0"
140
0.5
141
12.0
290
     0
  0
SCALE
  5
63
102
{ACAD_REACTORS
330
47
102
}
330
47
100
AcDbScale
 70
     0
300
3/4" = 1'-0"
140
0.75
141
12.0
290
     0
  0
SCALE
  5
64
102
{ACAD_REACTORS
330
47
102
}
330
47
100
AcDbScale
 70
     0
300
1" = 1'-0"
140
1.0
141
12.0
290
     0
  0
SCALE
  5
65
102
{ACAD_REACTORS
330
47
102
}
330
47
100
AcDbScale
 70
     0
300
1-1/2" = 1'-0"
140
1.5
141
12.0
290
     0
  0
SCALE
  5
66
102
{ACAD_REACTORS
330
47
102
}
330
47
100
AcDbScale
 70
     0
300
3" = 1'-0"
140
3.0
141
12.0
290
     0
  0
SCALE
  5
67
102
{ACAD_REACTORS
330
47
102
}
330
47
100
AcDbScale
 70
     0
300
6" = 1'-0"
140
6.0
141
12.0
290
     0
  0
SCALE
  5
68
102
{ACAD_REACTORS
330
47
102
}
330
47
100
AcDbScale
 70
     0
300
1'-0" = 1'-0"
140
12.0
141
12.0
290
     0
  0
ENDSEC
  0
EOF
