  0
SECTION
  2
HEADER
  9
$ACADVER
  1
AC1015
  9
$ACADMAINTVER
 70
     6
  9
$DWGCODEPAGE
  3
ANSI_949
  9
$INSBASE
 10
0.0
 20
0.0
 30
0.0
  9
$EXTMIN
 10
1.000000000000000E+20
 20
1.000000000000000E+20
 30
1.000000000000000E+20
  9
$EXTMAX
 10
-1.000000000000000E+20
 20
-1.000000000000000E+20
 30
-1.000000000000000E+20
  9
$LIMMIN
 10
0.0
 20
0.0
  9
$LIMMAX
 10
420.0
 20
297.0
  9
$ORTHOMODE
 70
     1
  9
$REGENMODE
 70
     1
  9
$FILLMODE
 70
     1
  9
$QTEXTMODE
 70
     0
  9
$MIRRTEXT
 70
     1
  9
$LTSCALE
 40
1.0
  9
$ATTMODE
 70
     1
  9
$TEXTSIZE
 40
3.5
  9
$TRACEWID
 40
1.0
  9
$TEXTSTYLE
  7
Standard
  9
$CLAYER
  8
0
  9
$CELTYPE
  6
ByLayer
  9
$CECOLOR
 62
   256
  9
$CELTSCALE
 40
1.0
  9
$DISPSILH
 70
     0
  9
$DIMSCALE
 40
1.0
  9
$DIMASZ
 40
3.302
  9
$DIMEXO
 40
1.0
  9
$DIMDLI
 40
3.75
  9
$DIMRND
 40
0.0
  9
$DIMDLE
 40
0.0
  9
$DIMEXE
 40
1.0
  9
$DIMTP
 40
0.0
  9
$DIMTM
 40
0.0
  9
$DIMTXT
 40
3.5
  9
$DIMCEN
 40
2.5
  9
$DIMTSZ
 40
0.0
  9
$DIMTOL
 70
     0
  9
$DIMLIM
 70
     0
  9
$DIMTIH
 70
     1
  9
$DIMTOH
 70
     1
  9
$DIMSE1
 70
     0
  9
$DIMSE2
 70
     0
  9
$DIMTAD
 70
     1
  9
$DIMZIN
 70
     0
  9
$DIMBLK
  1

  9
$DIMASO
 70
     1
  9
$DIMSHO
 70
     1
  9
$DIMPOST
  1

  9
$DIMAPOST
  1

  9
$DIMALT
 70
     0
  9
$DIMALTD
 70
     3
  9
$DIMALTF
 40
0.0393700787401575
  9
$DIMLFAC
 40
1.0
  9
$DIMTOFL
 70
     1
  9
$DIMTVP
 40
0.0
  9
$DIMTIX
 70
     0
  9
$DIMSOXD
 70
     0
  9
$DIMSAH
 70
     0
  9
$DIMBLK1
  1

  9
$DIMBLK2
  1

  9
$DIMSTYLE
  2
ISO-25
  9
$DIMCLRD
 70
     0
  9
$DIMCLRE
 70
     0
  9
$DIMCLRT
 70
     0
  9
$DIMTFAC
 40
1.0
  9
$DIMGAP
 40
1.524
  9
$DIMJUST
 70
     0
  9
$DIMSD1
 70
     0
  9
$DIMSD2
 70
     0
  9
$DIMTOLJ
 70
     0
  9
$DIMTZIN
 70
     0
  9
$DIMALTZ
 70
     0
  9
$DIMALTTZ
 70
     0
  9
$DIMUPT
 70
     0
  9
$DIMDEC
 70
     2
  9
$DIMTDEC
 70
     2
  9
$DIMALTU
 70
     2
  9
$DIMALTTD
 70
     3
  9
$DIMTXSTY
  7
Standard
  9
$DIMAUNIT
 70
     0
  9
$DIMADEC
 70
     2
  9
$DIMALTRND
 40
0.0
  9
$DIMAZIN
 70
     0
  9
$DIMDSEP
 70
    44
  9
$DIMATFIT
 70
     3
  9
$DIMFRAC
 70
     0
  9
$DIMLDRBLK
  1

  9
$DIMLUNIT
 70
     2
  9
$DIMLWD
 70
    -2
  9
$DIMLWE
 70
    -2
  9
$DIMTMOVE
 70
     0
  9
$LUNITS
 70
     2
  9
$LUPREC
 70
     2
  9
$SKETCHINC
 40
1.0
  9
$FILLETRAD
 40
10.0
  9
$AUNITS
 70
     0
  9
$AUPREC
 70
     2
  9
$MENU
  1
.
  9
$ELEVATION
 40
0.0
  9
$PELEVATION
 40
0.0
  9
$THICKNESS
 40
0.0
  9
$LIMCHECK
 70
     0
  9
$CHAMFERA
 40
0.0
  9
$CHAMFERB
 40
0.0
  9
$CHAMFERC
 40
0.0
  9
$CHAMFERD
 40
0.0
  9
$SKPOLY
 70
     0
  9
$TDCREATE
 40
2458313.480555289
  9
$TDUCREATE
 40
2458313.105555289
  9
$TDUPDATE
 40
2458320.384730127
  9
$TDUUPDATE
 40
2458320.009730127
  9
$TDINDWG
 40
0.0020806366
  9
$TDUSRTIMER
 40
2458320.007650069
  9
$USRTIMER
 70
     1
  9
$ANGBASE
 50
0.0
  9
$ANGDIR
 70
     0
  9
$PDMODE
 70
     0
  9
$PDSIZE
 40
-1.0
  9
$PLINEWID
 40
0.0
  9
$SPLFRAME
 70
     0
  9
$SPLINETYPE
 70
     6
  9
$SPLINESEGS
 70
     8
  9
$HANDSEED
  5
51D
  9
$SURFTAB1
 70
     6
  9
$SURFTAB2
 70
     6
  9
$SURFTYPE
 70
     6
  9
$SURFU
 70
     6
  9
$SURFV
 70
     6
  9
$UCSBASE
  2

  9
$UCSNAME
  2

  9
$UCSORG
 10
0.0
 20
0.0
 30
0.0
  9
$UCSXDIR
 10
1.0
 20
0.0
 30
0.0
  9
$UCSYDIR
 10
0.0
 20
1.0
 30
0.0
  9
$UCSORTHOREF
  2

  9
$UCSORTHOVIEW
 70
     0
  9
$UCSORGTOP
 10
0.0
 20
0.0
 30
0.0
  9
$UCSORGBOTTOM
 10
0.0
 20
0.0
 30
0.0
  9
$UCSORGLEFT
 10
0.0
 20
0.0
 30
0.0
  9
$UCSORGRIGHT
 10
0.0
 20
0.0
 30
0.0
  9
$UCSORGFRONT
 10
0.0
 20
0.0
 30
0.0
  9
$UCSORGBACK
 10
0.0
 20
0.0
 30
0.0
  9
$PUCSBASE
  2

  9
$PUCSNAME
  2

  9
$PUCSORG
 10
0.0
 20
0.0
 30
0.0
  9
$PUCSXDIR
 10
1.0
 20
0.0
 30
0.0
  9
$PUCSYDIR
 10
0.0
 20
1.0
 30
0.0
  9
$PUCSORTHOREF
  2

  9
$PUCSORTHOVIEW
 70
     0
  9
$PUCSORGTOP
 10
0.0
 20
0.0
 30
0.0
  9
$PUCSORGBOTTOM
 10
0.0
 20
0.0
 30
0.0
  9
$PUCSORGLEFT
 10
0.0
 20
0.0
 30
0.0
  9
$PUCSORGRIGHT
 10
0.0
 20
0.0
 30
0.0
  9
$PUCSORGFRONT
 10
0.0
 20
0.0
 30
0.0
  9
$PUCSORGBACK
 10
0.0
 20
0.0
 30
0.0
  9
$USERI1
 70
     0
  9
$USERI2
 70
     0
  9
$USERI3
 70
     0
  9
$USERI4
 70
     0
  9
$USERI5
 70
     0
  9
$USERR1
 40
0.0
  9
$USERR2
 40
0.0
  9
$USERR3
 40
0.0
  9
$USERR4
 40
0.0
  9
$USERR5
 40
0.0
  9
$WORLDVIEW
 70
     1
  9
$SHADEDGE
 70
     3
  9
$SHADEDIF
 70
    70
  9
$TILEMODE
 70
     1
  9
$MAXACTVP
 70
    64
  9
$PINSBASE
 10
0.0
 20
0.0
 30
0.0
  9
$PLIMCHECK
 70
     0
  9
$PEXTMIN
 10
1.000000000000000E+20
 20
1.000000000000000E+20
 30
1.000000000000000E+20
  9
$PEXTMAX
 10
-1.000000000000000E+20
 20
-1.000000000000000E+20
 30
-1.000000000000000E+20
  9
$PLIMMIN
 10
0.0
 20
0.0
  9
$PLIMMAX
 10
0.0
 20
0.0
  9
$UNITMODE
 70
     0
  9
$VISRETAIN
 70
     1
  9
$PLINEGEN
 70
     0
  9
$PSLTSCALE
 70
     1
  9
$TREEDEPTH
 70
  3020
  9
$CMLSTYLE
  2
Standard
  9
$CMLJUST
 70
     0
  9
$CMLSCALE
 40
20.0
  9
$PROXYGRAPHICS
 70
     1
  9
$MEASUREMENT
 70
     1
  9
$CELWEIGHT
370
    -1
  9
$ENDCAPS
280
     0
  9
$JOINSTYLE
280
     0
  9
$LWDISPLAY
290
     1
  9
$INSUNITS
 70
     4
  9
$HYPERLINKBASE
  1

  9
$STYLESHEET
  1

  9
$XEDIT
290
     1
  9
$CEPSNTYPE
380
     0
  9
$PSTYLEMODE
290
     1
  9
$FINGERPRINTGUID
  2
{4F1D2638-7D6F-4682-940E-6DA181211291}
  9
$VERSIONGUID
  2
{FAEB1C32-E019-11D5-929B-00C0DF256EC4}
  9
$EXTNAMES
290
     1
  9
$PSVPSCALE
 40
0.0
  9
$OLESTARTUP
290
     0
  0
ENDSEC
  0
SECTION
  2
CLASSES
  0
CLASS
  1
ACDBDICTIONARYWDFLT
  2
AcDbDictionaryWithDefault
  3
ObjectDBX Classes
 90
        0
280
     0
281
     0
  0
CLASS
  1
VISUALSTYLE
  2
AcDbVisualStyle
  3
ObjectDBX Classes
 90
     4095
280
     0
281
     0
  0
CLASS
  1
MATERIAL
  2
AcDbMaterial
  3
ObjectDBX Classes
 90
     1153
280
     0
281
     0
  0
CLASS
  1
SCALE
  2
AcDbScale
  3
ObjectDBX Classes
 90
     1153
280
     0
281
     0
  0
CLASS
  1
SUN
  2
AcDbSun
  3
SCENEOE
 90
     1153
280
     0
281
     0
  0
CLASS
  1
ACDBPLACEHOLDER
  2
AcDbPlaceHolder
  3
ObjectDBX Classes
 90
        0
280
     0
281
     0
  0
CLASS
  1
LAYOUT
  2
AcDbLayout
  3
ObjectDBX Classes
 90
        0
280
     0
281
     0
  0
CLASS
  1
TABLESTYLE
  2
AcDbTableStyle
  3
ObjectDBX Classes
 90
     4095
280
     0
281
     0
  0
CLASS
  1
MLEADERSTYLE
  2
AcDbMLeaderStyle
  3
ACDB_MLEADERSTYLE_CLASS
 90
     4095
280
     0
281
     0
  0
CLASS
  1
RASTERVARIABLES
  2
AcDbRasterVariables
  3
ISM
 90
        0
280
     0
281
     0
  0
ENDSEC
  0
SECTION
  2
TABLES
  0
TABLE
  2
VPORT
  5
8
330
0
100
AcDbSymbolTable
 70
     1
  0
VPORT
  5
29
330
8
100
AcDbSymbolTableRecord
100
AcDbViewportTableRecord
  2
*Active
 70
     0
 10
0.0
 20
0.0
 11
1.0
 21
1.0
 12
2.485991265273114
 22
2.994451206222834
 13
0.0
 23
0.0
 14
10.0
 24
10.0
 15
10.0
 25
10.0
 16
0.0
 26
0.0
 36
1.0
 17
0.0
 27
0.0
 37
0.0
 40
114.0928436455762
 41
1.632093933463796
 42
50.0
 43
0.0
 44
0.0
 50
0.0
 51
0.0
 71
    16
 72
  2000
 73
     1
 74
     3
 75
     0
 76
     0
 77
     0
 78
     0
281
     0
 65
     1
110
0.0
120
0.0
130
0.0
111
1.0
121
0.0
131
0.0
112
0.0
122
1.0
132
0.0
 79
     0
146
0.0
  0
ENDTAB
  0
TABLE
  2
LTYPE
  5
5
330
0
100
AcDbSymbolTable
 70
     6
  0
LTYPE
  5
14
330
5
100
AcDbSymbolTableRecord
100
AcDbLinetypeTableRecord
  2
ByBlock
 70
     0
  3

 72
    65
 73
     0
 40
0.0
  0
LTYPE
  5
15
330
5
100
AcDbSymbolTableRecord
100
AcDbLinetypeTableRecord
  2
ByLayer
 70
     0
  3

 72
    65
 73
     0
 40
0.0
  0
LTYPE
  5
16
330
5
100
AcDbSymbolTableRecord
100
AcDbLinetypeTableRecord
  2
Continuous
 70
     0
  3
Solid line
 72
    65
 73
     0
 40
0.0
  0
LTYPE
  5
6A
330
5
100
AcDbSymbolTableRecord
100
AcDbLinetypeTableRecord
  2
HIDDEN
 70
     0
  3
Hidden __ __ __ __ __ __ __ __ __ __ __ __ __ __
 72
    65
 73
     2
 40
1.905
 49
1.27
 74
     0
 49
-0.635
 74
     0
  0
LTYPE
  5
6B
330
5
100
AcDbSymbolTableRecord
100
AcDbLinetypeTableRecord
  2
PHANTOM
 70
     0
  3
Phantom ______  __  __  ______  __  __  ______
 72
    65
 73
     6
 40
12.7
 49
6.35
 74
     0
 49
-1.27
 74
     0
 49
1.27
 74
     0
 49
-1.27
 74
     0
 49
1.27
 74
     0
 49
-1.27
 74
     0
  0
LTYPE
  5
6C
330
5
100
AcDbSymbolTableRecord
100
AcDbLinetypeTableRecord
  2
CENTER
 70
     0
  3
Center ____ _ ____ _ ____ _ ____ _ ____ _ ____
 72
    65
 73
     4
 40
10.16
 49
6.35
 74
     0
 49
-1.27
 74
     0
 49
1.27
 74
     0
 49
-1.27
 74
     0
  0
LTYPE
  5
6D
330
5
100
AcDbSymbolTableRecord
100
AcDbLinetypeTableRecord
  2
CENTERX2
 70
     0
  3
Center (2x) ________  __  ________  __  _____
 72
    65
 73
     4
 40
20.32
 49
12.7
 74
     0
 49
-2.54
 74
     0
 49
2.54
 74
     0
 49
-2.54
 74
     0
  0
LTYPE
  5
6E
330
5
100
AcDbSymbolTableRecord
100
AcDbLinetypeTableRecord
  2
DOT2
 70
     0
  3
Dot (.5x) ........................................
 72
    65
 73
     2
 40
0.635
 49
0.0
 74
     0
 49
-0.635
 74
     0
  0
ENDTAB
  0
TABLE
  2
LAYER
  5
2
102
{ACAD_XDICTIONARY
360
21D
102
}
330
0
100
AcDbSymbolTable
 70
    18
  0
LAYER
  5
10
330
2
100
AcDbSymbolTableRecord
100
AcDbLayerTableRecord
  2
0
 70
     0
 62
     7
  6
Continuous
370
    -3
390
F
  0
LAYER
  5
6F
330
2
100
AcDbSymbolTableRecord
100
AcDbLayerTableRecord
  2
FORMAT
 70
     0
 62
     2
  6
Continuous
370
    -3
390
F
  0
LAYER
  5
70
330
2
100
AcDbSymbolTableRecord
100
AcDbLayerTableRecord
  2
외형선
 70
     0
 62
     4
  6
Continuous
370
    30
390
F
  0
LAYER
  5
71
330
2
100
AcDbSymbolTableRecord
100
AcDbLayerTableRecord
  2
숨은선
 70
     0
 62
     2
  6
HIDDEN
370
    15
390
F
  0
LAYER
  5
72
330
2
100
AcDbSymbolTableRecord
100
AcDbLayerTableRecord
  2
중심선
 70
     0
 62
     1
  6
CENTERX2
370
    -3
390
F
  0
LAYER
  5
73
330
2
100
AcDbSymbolTableRecord
100
AcDbLayerTableRecord
  2
파단선
 70
     0
 62
     4
  6
Continuous
370
    -3
390
F
  0
LAYER
  5
74
330
2
100
AcDbSymbolTableRecord
100
AcDbLayerTableRecord
  2
해칭선
 70
     0
 62
   100
  6
Continuous
370
    -3
390
F
  0
LAYER
  5
75
330
2
100
AcDbSymbolTableRecord
100
AcDbLayerTableRecord
  2
가는실선
 70
     0
 62
     4
  6
Continuous
370
    -3
390
F
  0
LAYER
  5
76
330
2
100
AcDbSymbolTableRecord
100
AcDbLayerTableRecord
  2
치수_보조선
 70
     0
 62
     4
  6
Continuous
370
    -3
390
F
  0
LAYER
  5
77
330
2
100
AcDbSymbolTableRecord
100
AcDbLayerTableRecord
  2
치수문자_일반주서
 70
     0
 62
     7
  6
Continuous
370
    15
390
F
  0
LAYER
  5
78
330
2
100
AcDbSymbolTableRecord
100
AcDbLayerTableRecord
  2
개별주서
 70
     0
 62
   100
  6
Continuous
370
    30
390
F
  0
LAYER
  5
79
330
2
100
AcDbSymbolTableRecord
100
AcDbLayerTableRecord
  2
중간선
 70
     0
 62
     2
  6
Continuous
370
    15
390
F
  0
LAYER
  5
7A
330
2
100
AcDbSymbolTableRecord
100
AcDbLayerTableRecord
  2
윤곽선
 70
     0
 62
     3
  6
Continuous
370
    40
390
F
  0
LAYER
  5
7B
330
2
100
AcDbSymbolTableRecord
100
AcDbLayerTableRecord
  2
중심마크
 70
     0
 62
   100
  6
Continuous
370
    30
390
F
  0
LAYER
  5
7C
330
2
100
AcDbSymbolTableRecord
100
AcDbLayerTableRecord
  2
가상선
 70
     0
 62
     4
  6
PHANTOM
370
    -3
390
F
  0
LAYER
  5
7D
330
2
100
AcDbSymbolTableRecord
100
AcDbLayerTableRecord
  2
특수지정선
 70
     0
 62
     5
  6
CENTERX2
370
    60
390
F
  0
LAYER
  5
7E
330
2
100
AcDbSymbolTableRecord
100
AcDbLayerTableRecord
  2
참조1
 70
     0
 62
    -4
  6
Continuous
370
    -3
390
F
  0
LAYER
  5
159
330
2
100
AcDbSymbolTableRecord
100
AcDbLayerTableRecord
  2
Defpoints
 70
     0
 62
     7
  6
Continuous
290
     0
370
    -3
390
F
  0
ENDTAB
  0
TABLE
  2
STYLE
  5
3
330
0
100
AcDbSymbolTable
 70
     2
  0
STYLE
  5
11
330
3
100
AcDbSymbolTableRecord
100
AcDbTextStyleTableRecord
  2
Standard
 70
     0
 40
0.0
 41
1.0
 50
0.0
 71
     0
 42
3.5
  3
txt
  4

  0
STYLE
  5
94
330
3
100
AcDbSymbolTableRecord
100
AcDbTextStyleTableRecord
  2
SLDTEXTSTYLE0
 70
     0
 40
0.0
 41
0.75
 50
0.0
 71
     0
 42
3.5
  3
TXT
  4

  0
ENDTAB
  0
TABLE
  2
VIEW
  5
6
330
0
100
AcDbSymbolTable
 70
     0
  0
ENDTAB
  0
TABLE
  2
UCS
  5
7
330
0
100
AcDbSymbolTable
 70
     0
  0
ENDTAB
  0
TABLE
  2
APPID
  5
9
330
0
100
AcDbSymbolTable
 70
     1
  0
APPID
  5
12
330
9
100
AcDbSymbolTableRecord
100
AcDbRegAppTableRecord
  2
ACAD
 70
     0
  0
ENDTAB
  0
TABLE
  2
DIMSTYLE
  5
A
330
0
100
AcDbSymbolTable
 70
     3
100
AcDbDimStyleTable
  0
DIMSTYLE
105
27
330
A
100
AcDbSymbolTableRecord
100
AcDbDimStyleTableRecord
  2
ISO-25
 70
     0
 41
2.5
 42
0.625
 43
3.75
 44
1.25
 73
     0
 74
     0
 77
     1
 78
     8
140
2.5
141
2.5
143
0.03937007874016
147
0.625
171
     3
172
     1
178
     0
271
     2
272
     2
274
     3
278
    44
283
     0
284
     8
340
11
  0
DIMSTYLE
105
D5
102
{ACAD_REACTORS
330
D4
330
E9
330
112
330
1AF
330
1BF
330
1CF
330
1DC
330
FE
330
346
330
356
330
366
330
45E
330
46E
330
47E
102
}
330
A
100
AcDbSymbolTableRecord
100
AcDbDimStyleTableRecord
  2
SLDDIMSTYLE0
 70
     0
 41
3.302
 44
0.0
 45
0.000000001
 73
     0
 74
     0
 77
     1
 78
    12
 79
     3
140
3.5
143
0.0393700787401575
147
0.875
148
0.000000001
170
     1
172
     1
173
     1
178
     0
271
     2
272
     2
276
     2
284
    12
289
     0
340
94
  0
DIMSTYLE
105
FF
330
A
100
AcDbSymbolTableRecord
100
AcDbDimStyleTableRecord
  2
SLDDIMSTYLE1
 70
     0
 41
3.302
 44
0.0
 45
0.000000001
 73
     0
 74
     0
 77
     1
 78
    12
 79
     3
140
3.5
143
0.0393700787401575
147
0.875
148
0.000000001
170
     1
173
     1
178
     0
271
     2
272
     2
276
     2
284
    12
340
94
  0
ENDTAB
  0
TABLE
  2
BLOCK_RECORD
  5
1
330
0
100
AcDbSymbolTable
 70
    30
  0
BLOCK_RECORD
  5
1F
330
1
100
AcDbSymbolTableRecord
100
AcDbBlockTableRecord
  2
*Model_Space
340
22
  0
BLOCK_RECORD
  5
1B
330
1
100
AcDbSymbolTableRecord
100
AcDbBlockTableRecord
  2
*Paper_Space
340
1E
  0
BLOCK_RECORD
  5
23
330
1
100
AcDbSymbolTableRecord
100
AcDbBlockTableRecord
  2
*Paper_Space0
340
26
  0
BLOCK_RECORD
  5
7F
330
1
100
AcDbSymbolTableRecord
100
AcDbBlockTableRecord
  2
블럭10
340
0
102
{BLKREFS
331
CD
102
}
  0
BLOCK_RECORD
  5
D6
330
1
100
AcDbSymbolTableRecord
100
AcDbBlockTableRecord
  2
_D
340
0
  0
BLOCK_RECORD
  5
EA
330
1
100
AcDbSymbolTableRecord
100
AcDbBlockTableRecord
  2
_D_1
340
0
  0
BLOCK_RECORD
  5
100
330
1
100
AcDbSymbolTableRecord
100
AcDbBlockTableRecord
  2
_D_2
340
0
  0
BLOCK_RECORD
  5
113
330
1
100
AcDbSymbolTableRecord
100
AcDbBlockTableRecord
  2
_D_3
340
0
  0
BLOCK_RECORD
  5
12D
330
1
100
AcDbSymbolTableRecord
100
AcDbBlockTableRecord
  2
SW_DOWELSYMBOL_0
340
0
102
{BLKREFS
331
133
331
1E9
331
0
331
373
331
0
331
48B
331
0
102
}
  0
BLOCK_RECORD
  5
221
330
1
100
AcDbSymbolTableRecord
100
AcDbBlockTableRecord
  2
*D8
340
0
  0
BLOCK_RECORD
  5
230
330
1
100
AcDbSymbolTableRecord
100
AcDbBlockTableRecord
  2
*D9
340
0
  0
BLOCK_RECORD
  5
23F
330
1
100
AcDbSymbolTableRecord
100
AcDbBlockTableRecord
  2
*D10
340
0
  0
BLOCK_RECORD
  5
24B
330
1
100
AcDbSymbolTableRecord
100
AcDbBlockTableRecord
  2
*D11
340
0
  0
BLOCK_RECORD
  5
2B7
330
1
100
AcDbSymbolTableRecord
100
AcDbBlockTableRecord
  2
*D12
340
0
  0
BLOCK_RECORD
  5
2C6
330
1
100
AcDbSymbolTableRecord
100
AcDbBlockTableRecord
  2
*D13
340
0
  0
BLOCK_RECORD
  5
2D5
330
1
100
AcDbSymbolTableRecord
100
AcDbBlockTableRecord
  2
*D14
340
0
  0
BLOCK_RECORD
  5
2E1
330
1
100
AcDbSymbolTableRecord
100
AcDbBlockTableRecord
  2
*D15
340
0
  0
BLOCK_RECORD
  5
37C
330
1
100
AcDbSymbolTableRecord
100
AcDbBlockTableRecord
  2
*D17
340
0
  0
BLOCK_RECORD
  5
38B
330
1
100
AcDbSymbolTableRecord
100
AcDbBlockTableRecord
  2
*D18
340
0
  0
BLOCK_RECORD
  5
39A
330
1
100
AcDbSymbolTableRecord
100
AcDbBlockTableRecord
  2
*D19
340
0
  0
BLOCK_RECORD
  5
3DA
330
1
100
AcDbSymbolTableRecord
100
AcDbBlockTableRecord
  2
*D20
340
0
  0
BLOCK_RECORD
  5
3E9
330
1
100
AcDbSymbolTableRecord
100
AcDbBlockTableRecord
  2
*D21
340
0
  0
BLOCK_RECORD
  5
3F8
330
1
100
AcDbSymbolTableRecord
100
AcDbBlockTableRecord
  2
*D22
340
0
  0
BLOCK_RECORD
  5
494
330
1
100
AcDbSymbolTableRecord
100
AcDbBlockTableRecord
  2
*D24
340
0
  0
BLOCK_RECORD
  5
4A3
330
1
100
AcDbSymbolTableRecord
100
AcDbBlockTableRecord
  2
*D25
340
0
  0
BLOCK_RECORD
  5
4B2
330
1
100
AcDbSymbolTableRecord
100
AcDbBlockTableRecord
  2
*D26
340
0
  0
BLOCK_RECORD
  5
4F2
330
1
100
AcDbSymbolTableRecord
100
AcDbBlockTableRecord
  2
*D27
340
0
  0
BLOCK_RECORD
  5
501
330
1
100
AcDbSymbolTableRecord
100
AcDbBlockTableRecord
  2
*D28
340
0
  0
BLOCK_RECORD
  5
510
330
1
100
AcDbSymbolTableRecord
100
AcDbBlockTableRecord
  2
*D29
340
0
  0
ENDTAB
  0
ENDSEC
  0
SECTION
  2
BLOCKS
  0
BLOCK
  5
20
330
1F
100
AcDbEntity
  8
0
100
AcDbBlockBegin
  2
*Model_Space
 70
     0
 10
0.0
 20
0.0
 30
0.0
  3
*Model_Space
  1
*Model_Space
  0
ENDBLK
  5
21
330
1F
100
AcDbEntity
  8
0
100
AcDbBlockEnd
  0
BLOCK
  5
1C
330
1B
100
AcDbEntity
 67
     1
  8
0
100
AcDbBlockBegin
  2
*Paper_Space
 70
     0
 10
0.0
 20
0.0
 30
0.0
  3
*Paper_Space
  1
*Paper_Space
  0
ENDBLK
  5
1D
330
1B
100
AcDbEntity
 67
     1
  8
0
100
AcDbBlockEnd
  0
BLOCK
  5
24
330
23
100
AcDbEntity
  8
0
100
AcDbBlockBegin
  2
*Paper_Space0
 70
     0
 10
0.0
 20
0.0
 30
0.0
  3
*Paper_Space0
  1
*Paper_Space0
  0
ENDBLK
  5
25
330
23
100
AcDbEntity
  8
0
100
AcDbBlockEnd
  0
BLOCK
  5
80
330
7F
100
AcDbEntity
  8
0
100
AcDbBlockBegin
  2
블럭10
 70
     2
 10
0.0
 20
0.0
 30
0.0
  3
블럭10
  1
블럭10
  0
ELLIPSE
  5
82
330
7F
100
AcDbEntity
  8
중심선
100
AcDbEllipse
 10
20.54032771741204
 20
12.0471743016438
 30
0.0
 11
6.600054785286829
 21
-1.261213355974178E-13
 31
0.0
210
0.0
220
0.0
230
1.0
 40
0.636358354079598
 41
0.9219305317359503
 42
6.513795318482858
  0
ELLIPSE
  5
83
330
7F
100
AcDbEntity
  8
중심선
100
AcDbEllipse
 10
20.54032771746488
 20
12.04717430159265
 30
0.0
 11
3.960054785062283
 21
1.540847449632565E-10
 31
0.0
210
0.0
220
0.0
230
1.0
 40
0.3939339440162632
 41
1.131841032648279
 42
5.62031148352944
  0
LINE
  5
84
330
7F
100
AcDbEntity
  8
중심선
100
AcDbLine
 10
2.268634060543552
 20
16.24717430164393
 30
0.0
 11
5.714909304380834
 21
16.24717430164393
 31
0.0
  0
LINE
  5
85
330
7F
100
AcDbEntity
  8
중심선
100
AcDbLine
 10
5.245725140726316
 20
7.84717430164391
 30
0.0
 11
8.692000384563599
 21
7.84717430164391
 31
0.0
  0
LINE
  5
86
330
7F
100
AcDbEntity
  8
중심선
100
AcDbLine
 10
15.74043728645272
 20
16.24717430164393
 30
0.0
 11
8.692000384563599
 21
7.84717430164391
 31
0.0
  0
LINE
  5
87
330
7F
100
AcDbEntity
  8
중심선
100
AcDbLine
 10
0.1404042013395286
 20
13.71084872107135
 30
0.0
 11
3.58671253028996
 21
13.71088815037384
 31
0.0
  0
LINE
  5
88
330
7F
100
AcDbEntity
  8
중심선
100
AcDbLine
 10
2.750260043222114
 20
10.84717430164391
 30
0.0
 11
6.196535287059397
 21
10.84717430164391
 31
0.0
  0
LINE
  5
89
330
7F
100
AcDbEntity
  8
중심선
100
AcDbLine
 10
12.29416204261559
 20
16.24717430164393
 30
0.0
 11
5.245725140726316
 21
7.84717430164391
 31
0.0
  0
LINE
  5
8A
330
7F
100
AcDbEntity
  8
중심선
100
AcDbLine
 10
10.72767329541681
 20
16.24717430164393
 30
0.0
 11
6.196535287059397
 21
10.84717430164391
 31
0.0
  0
LINE
  5
8B
330
7F
100
AcDbEntity
  8
중심선
100
AcDbLine
 10
7.28139805157953
 20
16.24717430164393
 30
0.0
 11
2.750260043222114
 21
10.84717430164391
 31
0.0
  0
LINE
  5
8C
330
7F
100
AcDbEntity
  8
중심선
100
AcDbLine
 10
5.714909304380834
 20
16.24717430164393
 30
0.0
 11
3.58671253028996
 21
13.71088815037384
 31
0.0
  0
LINE
  5
8D
330
7F
100
AcDbEntity
  8
중심선
100
AcDbLine
 10
2.268634060543552
 20
16.24717430164393
 30
0.0
 11
0.1404042013395286
 21
13.71084872107135
 31
0.0
  0
LINE
  5
8E
330
7F
100
AcDbEntity
  8
중심선
100
AcDbLine
 10
7.28139805157953
 20
16.24717430164393
 30
0.0
 11
10.72767329541681
 21
16.24717430164393
 31
0.0
  0
LINE
  5
8F
330
7F
100
AcDbEntity
  8
중심선
100
AcDbLine
 10
12.29416204261559
 20
16.24717430164393
 30
0.0
 11
15.74043728645272
 21
16.24717430164393
 31
0.0
  0
LINE
  5
90
330
7F
100
AcDbEntity
  8
중심선
100
AcDbLine
 10
19.22036997980202
 20
11.08717430171403
 30
0.0
 11
23.66174974927406
 21
11.08717430171406
 31
0.0
  0
LINE
  5
91
330
7F
100
AcDbEntity
  8
중심선
100
AcDbLine
 10
19.22039502424796
 20
13.00717430171391
 30
0.0
 11
19.22036997980202
 21
11.08717430171403
 31
0.0
  0
LINE
  5
92
330
7F
100
AcDbEntity
  8
중심선
100
AcDbLine
 10
19.22039502424796
 20
13.00717430171391
 30
0.0
 11
26.96566020931264
 21
13.00717430171391
 31
0.0
  0
LINE
  5
93
330
7F
100
AcDbEntity
  8
중심선
100
AcDbLine
 10
22.22332737316547
 20
13.45928029700563
 30
0.0
 11
24.52862924686651
 21
15.39360700705356
 31
0.0
  0
ATTDEF
  5
95
330
7F
100
AcDbEntity
  8
FORMAT
 62
     2
100
AcDbText
 10
4.408487351596664
 20
2.075366912832191
 30
0.0
 40
4.233333333333333
  1
E2006007
 41
0.75
  7
SLDTEXTSTYLE0
 11
4.408487351596664
 21
-0.0412997538344756
 31
0.0
100
AcDbAttributeDefinition
  3

  2
AUTOATTR0
 70
     0
 74
     1
  0
ENDBLK
  5
81
330
7F
100
AcDbEntity
  8
0
100
AcDbBlockEnd
  0
BLOCK
  5
D7
330
D6
100
AcDbEntity
  8
0
100
AcDbBlockBegin
  2
_D
 70
     0
 10
0.0
 20
0.0
 30
0.0
  3
_D
  1
_D
  0
LINE
  5
D9
330
D6
100
AcDbEntity
  8
치수문자_일반주서
 62
     0
370
    -2
100
AcDbLine
 10
33.40000000000001
 20
1.389062500000004
 30
0.0
 11
50.46495519218249
 21
1.389062500000069
 31
0.0
  0
LINE
  5
DA
330
D6
100
AcDbEntity
  8
치수문자_일반주서
 62
     0
370
    -2
100
AcDbLine
 10
33.40000000000001
 20
-1.389062499999996
 30
0.0
 11
50.4649551921825
 21
-1.38906249999993
 31
0.0
  0
LINE
  5
DB
330
D6
100
AcDbEntity
  8
치수문자_일반주서
 62
     0
370
    -2
100
AcDbLine
 10
50.46495519218249
 20
1.389062500000069
 30
0.0
 11
50.4649551921824
 21
36.86806250000006
 31
0.0
  0
LINE
  5
DC
330
D6
100
AcDbEntity
  8
치수문자_일반주서
 62
     0
370
    -2
100
AcDbLine
 10
50.46495519218249
 20
1.389062500000069
 30
0.0
 11
50.4649551921825
 21
-1.38906249999993
 31
0.0
  0
LINE
  5
DD
330
D6
100
AcDbEntity
  8
치수문자_일반주서
 62
     0
370
    -2
100
AcDbLine
 10
50.46495519218249
 20
4.691062500000069
 30
0.0
 11
50.46495519218248
 21
7.993062500000068
 31
0.0
  0
LINE
  5
DE
330
D6
100
AcDbEntity
  8
치수문자_일반주서
 62
     0
370
    -2
100
AcDbLine
 10
50.46495519218251
 20
-4.69106249999993
 30
0.0
 11
50.46495519218252
 21
-7.99306249999993
 31
0.0
  0
SOLID
  5
DF
330
D6
100
AcDbEntity
  8
치수문자_일반주서
 62
     0
100
AcDbTrace
 10
49.91462185884915
 20
4.691062500000067
 30
0.0
 11
51.01528852551582
 21
4.69106250000007
 31
0.0
 12
50.46495519218249
 22
1.389062500000069
 32
0.0
 13
50.46495519218249
 23
1.389062500000069
 33
0.0
  0
SOLID
  5
E0
330
D6
100
AcDbEntity
  8
치수문자_일반주서
 62
     0
100
AcDbTrace
 10
51.01528852551584
 20
-4.691062499999928
 30
0.0
 11
49.91462185884917
 21
-4.691062499999932
 31
0.0
 12
50.4649551921825
 22
-1.38906249999993
 32
0.0
 13
50.4649551921825
 23
-1.38906249999993
 33
0.0
  0
MTEXT
  5
E1
330
D6
100
AcDbEntity
  8
치수문자_일반주서
 62
     0
100
AcDbMText
 10
46.08995519218244
 20
22.43056250000005
 30
0.0
 40
3.5
 41
0.0
 71
     2
 72
     1
  1
\A1;%%c2.78 [7/64]
  7
SLDTEXTSTYLE0
 11
-2.557634144468302E-15
 21
1.0
 31
0.0
 73
     1
 44
1.0
  0
POINT
  5
E2
330
D6
100
AcDbEntity
  8
Defpoints
 62
     0
100
AcDbPoint
 10
33.33750000000001
 20
1.389062500000004
 30
0.0
  0
POINT
  5
E3
330
D6
100
AcDbEntity
  8
Defpoints
 62
     0
100
AcDbPoint
 10
33.33750000000001
 20
-1.389062499999996
 30
0.0
  0
POINT
  5
E4
330
D6
100
AcDbEntity
  8
Defpoints
 62
     0
100
AcDbPoint
 10
50.4649551921825
 20
-1.389062499999932
 30
0.0
  0
ENDBLK
  5
D8
330
D6
100
AcDbEntity
  8
0
100
AcDbBlockEnd
  0
BLOCK
  5
EB
330
EA
100
AcDbEntity
  8
0
100
AcDbBlockBegin
  2
_D_1
 70
     0
 10
0.0
 20
0.0
 30
0.0
  3
_D_1
  1
_D_1
  0
LINE
  5
ED
330
EA
100
AcDbEntity
  8
치수문자_일반주서
 62
     0
370
    -2
100
AcDbLine
 10
33.33750000000001
 20
1.451562500000004
 30
0.0
 11
33.33750000000001
 21
19.32700659513947
 31
0.0
  0
LINE
  5
EE
330
EA
100
AcDbEntity
  8
치수문자_일반주서
 62
     0
370
    -2
100
AcDbLine
 10
26.19374999999999
 20
1.446358617550281
 30
0.0
 11
26.19374999999999
 21
19.32700659513947
 31
0.0
  0
LINE
  5
EF
330
EA
100
AcDbEntity
  8
치수문자_일반주서
 62
     0
370
    -2
100
AcDbLine
 10
26.19374999999999
 20
19.32700659513947
 30
0.0
 11
-5.785250000000012
 21
19.32700659513947
 31
0.0
  0
LINE
  5
F0
330
EA
100
AcDbEntity
  8
치수문자_일반주서
 62
     0
370
    -2
100
AcDbLine
 10
33.33750000000001
 20
19.32700659513947
 30
0.0
 11
26.19374999999999
 21
19.32700659513947
 31
0.0
  0
LINE
  5
F1
330
EA
100
AcDbEntity
  8
치수문자_일반주서
 62
     0
370
    -2
100
AcDbLine
 10
36.63950000000001
 20
19.32700659513947
 30
0.0
 11
39.94150000000001
 21
19.32700659513947
 31
0.0
  0
LINE
  5
F2
330
EA
100
AcDbEntity
  8
치수문자_일반주서
 62
     0
370
    -2
100
AcDbLine
 10
22.89174999999999
 20
19.32700659513947
 30
0.0
 11
19.58974999999999
 21
19.32700659513947
 31
0.0
  0
SOLID
  5
F3
330
EA
100
AcDbEntity
  8
치수문자_일반주서
 62
     0
100
AcDbTrace
 10
36.63950000000001
 20
19.8773399284728
 30
0.0
 11
36.63950000000001
 21
18.77667326180613
 31
0.0
 12
33.33750000000001
 22
19.32700659513947
 32
0.0
 13
33.33750000000001
 23
19.32700659513947
 33
0.0
  0
SOLID
  5
F4
330
EA
100
AcDbEntity
  8
치수문자_일반주서
 62
     0
100
AcDbTrace
 10
22.89174999999999
 20
18.77667326180613
 30
0.0
 11
22.89174999999999
 21
19.8773399284728
 31
0.0
 12
26.19374999999999
 22
19.32700659513947
 32
0.0
 13
26.19374999999999
 23
19.32700659513947
 33
0.0
  0
MTEXT
  5
F5
330
EA
100
AcDbEntity
  8
치수문자_일반주서
 62
     0
100
AcDbMText
 10
6.902249999999988
 20
23.70200659513947
 30
0.0
 40
3.5
 41
0.0
 71
     2
 72
     1
  1
\A1;7.14 [9/32]
  7
SLDTEXTSTYLE0
 73
     1
 44
1.0
  0
POINT
  5
F6
330
EA
100
AcDbEntity
  8
Defpoints
 62
     0
100
AcDbPoint
 10
33.33750000000001
 20
1.389062500000004
 30
0.0
  0
POINT
  5
F7
330
EA
100
AcDbEntity
  8
Defpoints
 62
     0
100
AcDbPoint
 10
26.19374999999999
 20
1.383858617550281
 30
0.0
  0
POINT
  5
F8
330
EA
100
AcDbEntity
  8
Defpoints
 62
     0
100
AcDbPoint
 10
26.19374999999999
 20
19.32700659513947
 30
0.0
  0
ENDBLK
  5
EC
330
EA
100
AcDbEntity
  8
0
100
AcDbBlockEnd
  0
BLOCK
  5
101
330
100
100
AcDbEntity
  8
0
100
AcDbBlockBegin
  2
_D_2
 70
     0
 10
0.0
 20
0.0
 30
0.0
  3
_D_2
  1
_D_2
  0
LINE
  5
103
330
100
100
AcDbEntity
  8
치수문자_일반주서
 62
     0
370
    -2
100
AcDbLine
 10
33.33750000000001
 20
1.451562500000004
 30
0.0
 11
33.33750000000001
 21
31.60705825953612
 31
0.0
  0
LINE
  5
104
330
100
100
AcDbEntity
  8
치수문자_일반주서
 62
     0
370
    -2
100
AcDbLine
 10
-33.3375
 20
1.451562499999999
 30
0.0
 11
-33.3375
 21
31.60705825953612
 31
0.0
  0
LINE
  5
105
330
100
100
AcDbEntity
  8
치수문자_일반주서
 62
     0
370
    -2
100
AcDbLine
 10
30.03550000000001
 20
31.60705825953612
 30
0.0
 11
-30.0355
 21
31.60705825953612
 31
0.0
  0
SOLID
  5
106
330
100
100
AcDbEntity
  8
치수문자_일반주서
 62
     0
100
AcDbTrace
 10
30.03550000000001
 20
31.05672492620278
 30
0.0
 11
30.03550000000001
 21
32.15739159286945
 31
0.0
 12
33.33750000000001
 22
31.60705825953612
 32
0.0
 13
33.33750000000001
 23
31.60705825953612
 33
0.0
  0
SOLID
  5
107
330
100
100
AcDbEntity
  8
치수문자_일반주서
 62
     0
100
AcDbTrace
 10
-30.0355
 20
32.15739159286945
 30
0.0
 11
-30.0355
 21
31.05672492620278
 31
0.0
 12
-33.3375
 22
31.60705825953612
 32
0.0
 13
-33.3375
 23
31.60705825953612
 33
0.0
  0
MTEXT
  5
108
330
100
100
AcDbEntity
  8
치수문자_일반주서
 62
     0
100
AcDbMText
 10
-1.701209400474615
 20
35.98205825953612
 30
0.0
 40
3.5
 41
0.0
 71
     2
 72
     1
  1
\A1;66.68 [2 5/8]
  7
SLDTEXTSTYLE0
 73
     1
 44
1.0
  0
POINT
  5
109
330
100
100
AcDbEntity
  8
Defpoints
 62
     0
100
AcDbPoint
 10
33.33750000000001
 20
1.389062500000004
 30
0.0
  0
POINT
  5
10A
330
100
100
AcDbEntity
  8
Defpoints
 62
     0
100
AcDbPoint
 10
-33.3375
 20
1.389062499999999
 30
0.0
  0
POINT
  5
10B
330
100
100
AcDbEntity
  8
Defpoints
 62
     0
100
AcDbPoint
 10
-33.3375
 20
31.60705825953612
 30
0.0
  0
ENDBLK
  5
102
330
100
100
AcDbEntity
  8
0
100
AcDbBlockEnd
  0
BLOCK
  5
114
330
113
100
AcDbEntity
  8
0
100
AcDbBlockBegin
  2
_D_3
 70
     0
 10
0.0
 20
0.0
 30
0.0
  3
_D_3
  1
_D_3
  0
LINE
  5
116
330
113
100
AcDbEntity
  8
치수문자_일반주서
 62
     0
370
    -2
100
AcDbLine
 10
-21.55335583936523
 20
2.381250000000002
 30
0.0
 11
-46.3375
 21
2.381249999999909
 31
0.0
  0
LINE
  5
117
330
113
100
AcDbEntity
  8
치수문자_일반주서
 62
     0
370
    -2
100
AcDbLine
 10
-21.55335583936523
 20
-2.381250000000005
 30
0.0
 11
-46.33749999999998
 21
-2.381250000000097
 31
0.0
  0
LINE
  5
118
330
113
100
AcDbEntity
  8
치수문자_일반주서
 62
     0
370
    -2
100
AcDbLine
 10
-46.33749999999999
 20
-0.9207500000000901
 30
0.0
 11
-46.33749999999999
 21
0.9207499999999023
 31
0.0
  0
SOLID
  5
119
330
113
100
AcDbEntity
  8
치수문자_일반주서
 62
     0
100
AcDbTrace
 10
-45.78716666666666
 20
-0.9207500000000884
 30
0.0
 11
-46.88783333333333
 21
-0.9207500000000918
 31
0.0
 12
-46.3375
 22
2.381249999999909
 32
0.0
 13
-46.3375
 23
2.381249999999909
 33
0.0
  0
SOLID
  5
11A
330
113
100
AcDbEntity
  8
치수문자_일반주서
 62
     0
100
AcDbTrace
 10
-46.88783333333333
 20
0.9207499999999006
 30
0.0
 11
-45.78716666666666
 21
0.9207499999999039
 31
0.0
 12
-46.33749999999998
 22
-2.381250000000097
 32
0.0
 13
-46.33749999999998
 23
-2.381250000000097
 33
0.0
  0
MTEXT
  5
11B
330
113
100
AcDbEntity
  8
치수문자_일반주서
 62
     0
100
AcDbMText
 10
-50.71249999999999
 20
-0.0000000000000124
 30
0.0
 40
3.5
 41
0.0
 71
     2
 72
     1
  1
\A1;%%c4.76 [3/16]
  7
SLDTEXTSTYLE0
 11
-2.983906501879682E-15
 21
1.0
 31
0.0
 73
     1
 44
1.0
  0
POINT
  5
11C
330
113
100
AcDbEntity
  8
Defpoints
 62
     0
100
AcDbPoint
 10
-21.49085583936523
 20
2.381250000000003
 30
0.0
  0
POINT
  5
11D
330
113
100
AcDbEntity
  8
Defpoints
 62
     0
100
AcDbPoint
 10
-21.49085583936523
 20
-2.381250000000004
 30
0.0
  0
POINT
  5
11E
330
113
100
AcDbEntity
  8
Defpoints
 62
     0
100
AcDbPoint
 10
-46.33749999999998
 20
-2.381250000000097
 30
0.0
  0
ENDBLK
  5
115
330
113
100
AcDbEntity
  8
0
100
AcDbBlockEnd
  0
BLOCK
  5
12E
330
12D
100
AcDbEntity
  8
0
100
AcDbBlockBegin
  2
SW_DOWELSYMBOL_0
 70
     0
 10
0.0
 20
0.0
 30
0.0
  3
SW_DOWELSYMBOL_0
  1
SW_DOWELSYMBOL_0
  0
CIRCLE
  5
130
330
12D
100
AcDbEntity
  8
해칭선
 62
     0
100
AcDbCircle
 10
0.0
 20
0.0
 30
0.0
 40
3.000000000000005
  0
HATCH
  5
131
330
12D
100
AcDbEntity
  8
0
  6
Continuous
 62
     0
370
     0
100
AcDbHatch
 10
0.0
 20
0.0
 30
0.0
210
0.0
220
0.0
230
1.0
  2
SOLID
 70
     1
 71
     0
 91
        1
 92
        0
 93
        3
 72
     2
 10
0.0
 20
0.0
 40
3.000000000000005
 50
0.0
 51
90.0
 73
     1
 72
     1
 10
0.0
 20
3.000000000000005
 11
0.0
 21
0.0
 72
     1
 10
0.0
 20
0.0
 11
3.000000000000006
 21
0.0
 97
        0
 75
     0
 76
     1
 98
        1
 10
0.0
 20
0.0
  0
HATCH
  5
132
330
12D
100
AcDbEntity
  8
0
  6
Continuous
 62
     0
370
     0
100
AcDbHatch
 10
0.0
 20
0.0
 30
0.0
210
0.0
220
0.0
230
1.0
  2
SOLID
 70
     1
 71
     0
 91
        1
 92
        0
 93
        3
 72
     2
 10
0.0
 20
0.0
 40
3.000000000000005
 50
180.0
 51
270.0000000000008
 73
     1
 72
     1
 10
0.0
 20
-3.000000000000005
 11
0.0
 21
0.0
 72
     1
 10
0.0
 20
0.0
 11
-3.000000000000004
 21
0.0
 97
        0
 75
     0
 76
     1
 98
        1
 10
0.0
 20
0.0
  0
ENDBLK
  5
12F
330
12D
100
AcDbEntity
  8
0
100
AcDbBlockEnd
  0
BLOCK
  5
222
330
221
100
AcDbEntity
  8
0
100
AcDbBlockBegin
  2
*D8
 70
     1
 10
0.0
 20
0.0
 30
0.0
  3
*D8
  1
*D8
  0
LINE
  5
224
330
221
100
AcDbEntity
  8
치수문자_일반주서
 62
     0
370
    -2
100
AcDbLine
 10
84.11250000000003
 20
14.31562500000002
 30
0.0
 11
101.5667509789293
 21
14.31562500000009
 31
0.0
  0
LINE
  5
225
330
221
100
AcDbEntity
  8
치수문자_일반주서
 62
     0
370
    -2
100
AcDbLine
 10
84.11250000000003
 20
11.93437500000002
 30
0.0
 11
101.5667509789293
 21
11.93437500000009
 31
0.0
  0
LINE
  5
226
330
221
100
AcDbEntity
  8
치수문자_일반주서
 62
     0
370
    -2
100
AcDbLine
 10
101.5667509789293
 20
14.31562500000009
 30
0.0
 11
101.5667509789291
 21
49.79462500000008
 31
0.0
  0
LINE
  5
227
330
221
100
AcDbEntity
  8
치수문자_일반주서
 62
     0
370
    -2
100
AcDbLine
 10
101.5667509789293
 20
14.31562500000009
 30
0.0
 11
101.5667509789293
 21
11.93437500000009
 31
0.0
  0
LINE
  5
228
330
221
100
AcDbEntity
  8
치수문자_일반주서
 62
     0
370
    -2
100
AcDbLine
 10
101.5667509789293
 20
17.61762500000009
 30
0.0
 11
101.5667509789293
 21
20.91962500000009
 31
0.0
  0
LINE
  5
229
330
221
100
AcDbEntity
  8
치수문자_일반주서
 62
     0
370
    -2
100
AcDbLine
 10
101.5667509789293
 20
8.632375000000089
 30
0.0
 11
101.5667509789293
 21
5.330375000000089
 31
0.0
  0
SOLID
  5
22A
330
221
100
AcDbEntity
  8
치수문자_일반주서
 62
     0
100
AcDbTrace
 10
101.016417645596
 20
17.61762500000008
 30
0.0
 11
102.1170843122626
 21
17.61762500000009
 31
0.0
 12
101.5667509789293
 22
14.31562500000009
 32
0.0
 13
101.5667509789293
 23
14.31562500000009
 33
0.0
  0
SOLID
  5
22B
330
221
100
AcDbEntity
  8
치수문자_일반주서
 62
     0
100
AcDbTrace
 10
102.1170843122627
 20
8.632375000000092
 30
0.0
 11
101.016417645596
 21
8.632375000000085
 31
0.0
 12
101.5667509789293
 22
11.93437500000009
 32
0.0
 13
101.5667509789293
 23
11.93437500000009
 33
0.0
  0
MTEXT
  5
22C
330
221
100
AcDbEntity
  8
치수문자_일반주서
 62
     0
100
AcDbMText
 10
97.19175097892918
 20
35.35712500000006
 30
0.0
 40
3.5
 41
0.0
 71
     2
 72
     1
  1
\A1;%%c2.38 [3/32]
  7
SLDTEXTSTYLE0
 11
-5.967813003759372E-15
 21
1.0
 31
0.0
 73
     1
 44
1.0
  0
POINT
  5
22D
330
221
100
AcDbEntity
  8
Defpoints
 62
     0
100
AcDbPoint
 10
84.05000000000003
 20
14.31562500000002
 30
0.0
  0
POINT
  5
22E
330
221
100
AcDbEntity
  8
Defpoints
 62
     0
100
AcDbPoint
 10
84.05000000000003
 20
11.93437500000002
 30
0.0
  0
POINT
  5
22F
330
221
100
AcDbEntity
  8
Defpoints
 62
     0
100
AcDbPoint
 10
101.5667509789292
 20
11.93437500000009
 30
0.0
  0
ENDBLK
  5
223
330
221
100
AcDbEntity
  8
0
100
AcDbBlockEnd
  0
BLOCK
  5
231
330
230
100
AcDbEntity
  8
0
100
AcDbBlockBegin
  2
*D9
 70
     1
 10
0.0
 20
0.0
 30
0.0
  3
*D9
  1
*D9
  0
LINE
  5
233
330
230
100
AcDbEntity
  8
치수문자_일반주서
 62
     0
370
    -2
100
AcDbLine
 10
84.05000000000003
 20
14.37812500000002
 30
0.0
 11
84.05000000000003
 21
30.05640229384485
 31
0.0
  0
LINE
  5
234
330
230
100
AcDbEntity
  8
치수문자_일반주서
 62
     0
370
    -2
100
AcDbLine
 10
76.90625000000007
 20
14.28035501070599
 30
0.0
 11
76.90625000000007
 21
30.05640229384485
 31
0.0
  0
LINE
  5
235
330
230
100
AcDbEntity
  8
치수문자_일반주서
 62
     0
370
    -2
100
AcDbLine
 10
76.90625000000007
 20
30.05640229384485
 30
0.0
 11
29.79202255854575
 21
30.05640229384485
 31
0.0
  0
LINE
  5
236
330
230
100
AcDbEntity
  8
치수문자_일반주서
 62
     0
370
    -2
100
AcDbLine
 10
84.05000000000003
 20
30.05640229384485
 30
0.0
 11
76.90625000000007
 21
30.05640229384485
 31
0.0
  0
LINE
  5
237
330
230
100
AcDbEntity
  8
치수문자_일반주서
 62
     0
370
    -2
100
AcDbLine
 10
87.35200000000003
 20
30.05640229384485
 30
0.0
 11
90.65400000000002
 21
30.05640229384485
 31
0.0
  0
LINE
  5
238
330
230
100
AcDbEntity
  8
치수문자_일반주서
 62
     0
370
    -2
100
AcDbLine
 10
73.60425000000006
 20
30.05640229384485
 30
0.0
 11
70.30225000000007
 21
30.05640229384485
 31
0.0
  0
SOLID
  5
239
330
230
100
AcDbEntity
  8
치수문자_일반주서
 62
     0
100
AcDbTrace
 10
87.35200000000003
 20
30.60673562717818
 30
0.0
 11
87.35200000000003
 21
29.50606896051151
 31
0.0
 12
84.05000000000003
 22
30.05640229384485
 32
0.0
 13
84.05000000000003
 23
30.05640229384485
 33
0.0
  0
SOLID
  5
23A
330
230
100
AcDbEntity
  8
치수문자_일반주서
 62
     0
100
AcDbTrace
 10
73.60425000000006
 20
29.50606896051151
 30
0.0
 11
73.60425000000006
 21
30.60673562717818
 31
0.0
 12
76.90625000000007
 22
30.05640229384485
 32
0.0
 13
76.90625000000007
 23
30.05640229384485
 33
0.0
  0
MTEXT
  5
23B
330
230
100
AcDbEntity
  8
치수문자_일반주서
 62
     0
100
AcDbMText
 10
42.47952255854575
 20
34.43140229384485
 30
0.0
 40
3.5
 41
0.0
 71
     2
 72
     1
  1
\A1;7.14 [9/32]
  7
SLDTEXTSTYLE0
 73
     1
 44
1.0
  0
POINT
  5
23C
330
230
100
AcDbEntity
  8
Defpoints
 62
     0
100
AcDbPoint
 10
84.05000000000003
 20
14.31562500000002
 30
0.0
  0
POINT
  5
23D
330
230
100
AcDbEntity
  8
Defpoints
 62
     0
100
AcDbPoint
 10
76.90625000000007
 20
14.21785501070599
 30
0.0
  0
POINT
  5
23E
330
230
100
AcDbEntity
  8
Defpoints
 62
     0
100
AcDbPoint
 10
76.90625000000007
 20
30.05640229384485
 30
0.0
  0
ENDBLK
  5
232
330
230
100
AcDbEntity
  8
0
100
AcDbBlockEnd
  0
BLOCK
  5
240
330
23F
100
AcDbEntity
  8
0
100
AcDbBlockBegin
  2
*D10
 70
     1
 10
0.0
 20
0.0
 30
0.0
  3
*D10
  1
*D10
  0
LINE
  5
242
330
23F
100
AcDbEntity
  8
치수문자_일반주서
 62
     0
370
    -2
100
AcDbLine
 10
84.05000000000003
 20
14.37812500000002
 30
0.0
 11
84.05000000000003
 21
43.98634135035594
 31
0.0
  0
LINE
  5
243
330
23F
100
AcDbEntity
  8
치수문자_일반주서
 62
     0
370
    -2
100
AcDbLine
 10
17.37500000000003
 20
14.37812500000002
 30
0.0
 11
17.37500000000003
 21
43.98634135035594
 31
0.0
  0
LINE
  5
244
330
23F
100
AcDbEntity
  8
치수문자_일반주서
 62
     0
370
    -2
100
AcDbLine
 10
80.74800000000002
 20
43.98634135035594
 30
0.0
 11
20.67700000000003
 21
43.98634135035594
 31
0.0
  0
SOLID
  5
245
330
23F
100
AcDbEntity
  8
치수문자_일반주서
 62
     0
100
AcDbTrace
 10
80.74800000000002
 20
43.4360080170226
 30
0.0
 11
80.74800000000002
 21
44.53667468368927
 31
0.0
 12
84.05000000000003
 22
43.98634135035594
 32
0.0
 13
84.05000000000003
 23
43.98634135035594
 33
0.0
  0
SOLID
  5
246
330
23F
100
AcDbEntity
  8
치수문자_일반주서
 62
     0
100
AcDbTrace
 10
20.67700000000003
 20
44.53667468368927
 30
0.0
 11
20.67700000000003
 21
43.4360080170226
 31
0.0
 12
17.37500000000003
 22
43.98634135035594
 32
0.0
 13
17.37500000000003
 23
43.98634135035594
 33
0.0
  0
MTEXT
  5
247
330
23F
100
AcDbEntity
  8
치수문자_일반주서
 62
     0
100
AcDbMText
 10
49.72309086793152
 20
48.36134135035594
 30
0.0
 40
3.5
 41
0.0
 71
     2
 72
     1
  1
\A1;66.68 [2 5/8]
  7
SLDTEXTSTYLE0
 73
     1
 44
1.0
  0
POINT
  5
248
330
23F
100
AcDbEntity
  8
Defpoints
 62
     0
100
AcDbPoint
 10
84.05000000000003
 20
14.31562500000002
 30
0.0
  0
POINT
  5
249
330
23F
100
AcDbEntity
  8
Defpoints
 62
     0
100
AcDbPoint
 10
17.37500000000003
 20
14.31562500000002
 30
0.0
  0
POINT
  5
24A
330
23F
100
AcDbEntity
  8
Defpoints
 62
     0
100
AcDbPoint
 10
17.37500000000003
 20
43.98634135035594
 30
0.0
  0
ENDBLK
  5
241
330
23F
100
AcDbEntity
  8
0
100
AcDbBlockEnd
  0
BLOCK
  5
24C
330
24B
100
AcDbEntity
  8
0
100
AcDbBlockBegin
  2
*D11
 70
     1
 10
0.0
 20
0.0
 30
0.0
  3
*D11
  1
*D11
  0
LINE
  5
24E
330
24B
100
AcDbEntity
  8
치수문자_일반주서
 62
     0
370
    -2
100
AcDbLine
 10
29.89972299276176
 20
15.50625000000002
 30
0.0
 11
4.375000000000028
 21
15.50624999999993
 31
0.0
  0
LINE
  5
24F
330
24B
100
AcDbEntity
  8
치수문자_일반주서
 62
     0
370
    -2
100
AcDbLine
 10
29.89972299276175
 20
10.74375000000001
 30
0.0
 11
4.375000000000044
 21
10.74374999999992
 31
0.0
  0
LINE
  5
250
330
24B
100
AcDbEntity
  8
치수문자_일반주서
 62
     0
370
    -2
100
AcDbLine
 10
4.375000000000039
 20
12.20424999999993
 30
0.0
 11
4.375000000000033
 21
14.04574999999992
 31
0.0
  0
SOLID
  5
251
330
24B
100
AcDbEntity
  8
치수문자_일반주서
 62
     0
100
AcDbTrace
 10
4.925333333333373
 20
12.20424999999993
 30
0.0
 11
3.824666666666706
 21
12.20424999999992
 31
0.0
 12
4.375000000000028
 22
15.50624999999993
 32
0.0
 13
4.375000000000028
 23
15.50624999999993
 33
0.0
  0
SOLID
  5
252
330
24B
100
AcDbEntity
  8
치수문자_일반주서
 62
     0
100
AcDbTrace
 10
3.8246666666667
 20
14.04574999999991
 30
0.0
 11
4.925333333333366
 21
14.04574999999992
 31
0.0
 12
4.375000000000044
 22
10.74374999999992
 32
0.0
 13
4.375000000000044
 23
10.74374999999992
 33
0.0
  0
MTEXT
  5
253
330
24B
100
AcDbEntity
  8
치수문자_일반주서
 62
     0
100
AcDbMText
 10
0.0000000000000355
 20
13.125
 30
0.0
 40
3.5
 41
0.0
 71
     2
 72
     1
  1
\A1;%%c4.76 [3/16]
  7
SLDTEXTSTYLE0
 11
-3.543388970982121E-15
 21
1.0
 31
0.0
 73
     1
 44
1.0
  0
POINT
  5
254
330
24B
100
AcDbEntity
  8
Defpoints
 62
     0
100
AcDbPoint
 10
29.96222299276176
 20
15.50625000000002
 30
0.0
  0
POINT
  5
255
330
24B
100
AcDbEntity
  8
Defpoints
 62
     0
100
AcDbPoint
 10
29.96222299276175
 20
10.74375000000001
 30
0.0
  0
POINT
  5
256
330
24B
100
AcDbEntity
  8
Defpoints
 62
     0
100
AcDbPoint
 10
4.375000000000043
 20
10.74374999999992
 30
0.0
  0
ENDBLK
  5
24D
330
24B
100
AcDbEntity
  8
0
100
AcDbBlockEnd
  0
BLOCK
  5
2B8
330
2B7
100
AcDbEntity
  8
0
100
AcDbBlockBegin
  2
*D12
 70
     1
 10
0.0
 20
0.0
 30
0.0
  3
*D12
  1
*D12
  0
LINE
  5
2BA
330
2B7
100
AcDbEntity
  8
치수문자_일반주서
 62
     0
370
    -2
100
AcDbLine
 10
141.6290673643775
 20
-17.679333087985
 30
0.0
 11
159.0833183433066
 21
-17.67933308798494
 31
0.0
  0
LINE
  5
2BB
330
2B7
100
AcDbEntity
  8
치수문자_일반주서
 62
     0
370
    -2
100
AcDbLine
 10
141.6290673643775
 20
-20.060583087985
 30
0.0
 11
159.0833183433066
 21
-20.06058308798494
 31
0.0
  0
LINE
  5
2BC
330
2B7
100
AcDbEntity
  8
치수문자_일반주서
 62
     0
370
    -2
100
AcDbLine
 10
159.0833183433066
 20
-17.67933308798494
 30
0.0
 11
159.0833183433066
 21
17.79966691201506
 31
0.0
  0
LINE
  5
2BD
330
2B7
100
AcDbEntity
  8
치수문자_일반주서
 62
     0
370
    -2
100
AcDbLine
 10
159.0833183433066
 20
-17.67933308798494
 30
0.0
 11
159.0833183433066
 21
-20.06058308798494
 31
0.0
  0
LINE
  5
2BE
330
2B7
100
AcDbEntity
  8
치수문자_일반주서
 62
     0
370
    -2
100
AcDbLine
 10
159.0833183433066
 20
-14.37733308798494
 30
0.0
 11
159.0833183433066
 21
-11.07533308798494
 31
0.0
  0
LINE
  5
2BF
330
2B7
100
AcDbEntity
  8
치수문자_일반주서
 62
     0
370
    -2
100
AcDbLine
 10
159.0833183433066
 20
-23.36258308798494
 30
0.0
 11
159.0833183433066
 21
-26.66458308798494
 31
0.0
  0
SOLID
  5
2C0
330
2B7
100
AcDbEntity
  8
치수문자_일반주서
 62
     0
100
AcDbTrace
 10
158.5329850099733
 20
-14.37733308798494
 30
0.0
 11
159.6336516766399
 21
-14.37733308798494
 31
0.0
 12
159.0833183433066
 22
-17.67933308798494
 32
0.0
 13
159.0833183433066
 23
-17.67933308798494
 33
0.0
  0
SOLID
  5
2C1
330
2B7
100
AcDbEntity
  8
치수문자_일반주서
 62
     0
100
AcDbTrace
 10
159.6336516766399
 20
-23.36258308798494
 30
0.0
 11
158.5329850099733
 21
-23.36258308798494
 31
0.0
 12
159.0833183433066
 22
-20.06058308798494
 32
0.0
 13
159.0833183433066
 23
-20.06058308798494
 33
0.0
  0
MTEXT
  5
2C2
330
2B7
100
AcDbEntity
  8
치수문자_일반주서
 62
     0
100
AcDbMText
 10
154.7083183433066
 20
3.362166912015059
 30
0.0
 40
3.5
 41
0.0
 71
     2
 72
     1
  1
\A1;%%c2.38 [3/32]
  7
SLDTEXTSTYLE0
 11
0.0
 21
1.0
 31
0.0
 73
     1
 44
1.0
  0
POINT
  5
2C3
330
2B7
100
AcDbEntity
  8
Defpoints
 62
     0
100
AcDbPoint
 10
141.5665673643775
 20
-17.679333087985
 30
0.0
  0
POINT
  5
2C4
330
2B7
100
AcDbEntity
  8
Defpoints
 62
     0
100
AcDbPoint
 10
141.5665673643775
 20
-20.060583087985
 30
0.0
  0
POINT
  5
2C5
330
2B7
100
AcDbEntity
  8
Defpoints
 62
     0
100
AcDbPoint
 10
159.0833183433068
 20
-20.06058308798494
 30
0.0
  0
ENDBLK
  5
2B9
330
2B7
100
AcDbEntity
  8
0
100
AcDbBlockEnd
  0
BLOCK
  5
2C7
330
2C6
100
AcDbEntity
  8
0
100
AcDbBlockBegin
  2
*D13
 70
     1
 10
0.0
 20
0.0
 30
0.0
  3
*D13
  1
*D13
  0
LINE
  5
2C9
330
2C6
100
AcDbEntity
  8
치수문자_일반주서
 62
     0
370
    -2
100
AcDbLine
 10
141.5665673643775
 20
-17.616833087985
 30
0.0
 11
141.5665673643775
 21
-1.938555794140179
 31
0.0
  0
LINE
  5
2CA
330
2C6
100
AcDbEntity
  8
치수문자_일반주서
 62
     0
370
    -2
100
AcDbLine
 10
134.4228173643775
 20
-17.71460307727903
 30
0.0
 11
134.4228173643775
 21
-1.938555794140179
 31
0.0
  0
LINE
  5
2CB
330
2C6
100
AcDbEntity
  8
치수문자_일반주서
 62
     0
370
    -2
100
AcDbLine
 10
134.4228173643775
 20
-1.938555794140179
 30
0.0
 11
87.30858992292319
 21
-1.938555794140179
 31
0.0
  0
LINE
  5
2CC
330
2C6
100
AcDbEntity
  8
치수문자_일반주서
 62
     0
370
    -2
100
AcDbLine
 10
141.5665673643775
 20
-1.938555794140179
 30
0.0
 11
134.4228173643775
 21
-1.938555794140179
 31
0.0
  0
LINE
  5
2CD
330
2C6
100
AcDbEntity
  8
치수문자_일반주서
 62
     0
370
    -2
100
AcDbLine
 10
144.8685673643775
 20
-1.938555794140179
 30
0.0
 11
148.1705673643775
 21
-1.938555794140179
 31
0.0
  0
LINE
  5
2CE
330
2C6
100
AcDbEntity
  8
치수문자_일반주서
 62
     0
370
    -2
100
AcDbLine
 10
131.1208173643775
 20
-1.938555794140179
 30
0.0
 11
127.8188173643775
 21
-1.938555794140179
 31
0.0
  0
SOLID
  5
2CF
330
2C6
100
AcDbEntity
  8
치수문자_일반주서
 62
     0
100
AcDbTrace
 10
144.8685673643775
 20
-1.388222460806845
 30
0.0
 11
144.8685673643775
 21
-2.488889127473512
 31
0.0
 12
141.5665673643775
 22
-1.938555794140179
 32
0.0
 13
141.5665673643775
 23
-1.938555794140179
 33
0.0
  0
SOLID
  5
2D0
330
2C6
100
AcDbEntity
  8
치수문자_일반주서
 62
     0
100
AcDbTrace
 10
131.1208173643775
 20
-2.488889127473512
 30
0.0
 11
131.1208173643775
 21
-1.388222460806845
 31
0.0
 12
134.4228173643775
 22
-1.938555794140179
 32
0.0
 13
134.4228173643775
 23
-1.938555794140179
 33
0.0
  0
MTEXT
  5
2D1
330
2C6
100
AcDbEntity
  8
치수문자_일반주서
 62
     0
100
AcDbMText
 10
99.99608992292319
 20
2.436444205859821
 30
0.0
 40
3.5
 41
0.0
 71
     2
 72
     1
  1
\A1;7.14 [9/32]
  7
SLDTEXTSTYLE0
 73
     1
 44
1.0
  0
POINT
  5
2D2
330
2C6
100
AcDbEntity
  8
Defpoints
 62
     0
100
AcDbPoint
 10
141.5665673643775
 20
-17.679333087985
 30
0.0
  0
POINT
  5
2D3
330
2C6
100
AcDbEntity
  8
Defpoints
 62
     0
100
AcDbPoint
 10
134.4228173643775
 20
-17.77710307727903
 30
0.0
  0
POINT
  5
2D4
330
2C6
100
AcDbEntity
  8
Defpoints
 62
     0
100
AcDbPoint
 10
134.4228173643775
 20
-1.938555794140179
 30
0.0
  0
ENDBLK
  5
2C8
330
2C6
100
AcDbEntity
  8
0
100
AcDbBlockEnd
  0
BLOCK
  5
2D6
330
2D5
100
AcDbEntity
  8
0
100
AcDbBlockBegin
  2
*D14
 70
     1
 10
0.0
 20
0.0
 30
0.0
  3
*D14
  1
*D14
  0
LINE
  5
2D8
330
2D5
100
AcDbEntity
  8
치수문자_일반주서
 62
     0
370
    -2
100
AcDbLine
 10
141.5665673643775
 20
-17.616833087985
 30
0.0
 11
141.5665673643775
 21
11.99138326237091
 31
0.0
  0
LINE
  5
2D9
330
2D5
100
AcDbEntity
  8
치수문자_일반주서
 62
     0
370
    -2
100
AcDbLine
 10
74.89156736437747
 20
-17.616833087985
 30
0.0
 11
74.89156736437747
 21
11.99138326237091
 31
0.0
  0
LINE
  5
2DA
330
2D5
100
AcDbEntity
  8
치수문자_일반주서
 62
     0
370
    -2
100
AcDbLine
 10
138.2645673643775
 20
11.99138326237091
 30
0.0
 11
78.19356736437746
 21
11.99138326237091
 31
0.0
  0
SOLID
  5
2DB
330
2D5
100
AcDbEntity
  8
치수문자_일반주서
 62
     0
100
AcDbTrace
 10
138.2645673643775
 20
11.44104992903758
 30
0.0
 11
138.2645673643775
 21
12.54171659570424
 31
0.0
 12
141.5665673643775
 22
11.99138326237091
 32
0.0
 13
141.5665673643775
 23
11.99138326237091
 33
0.0
  0
SOLID
  5
2DC
330
2D5
100
AcDbEntity
  8
치수문자_일반주서
 62
     0
100
AcDbTrace
 10
78.19356736437746
 20
12.54171659570424
 30
0.0
 11
78.19356736437746
 21
11.44104992903758
 31
0.0
 12
74.89156736437747
 22
11.99138326237091
 32
0.0
 13
74.89156736437747
 23
11.99138326237091
 33
0.0
  0
MTEXT
  5
2DD
330
2D5
100
AcDbEntity
  8
치수문자_일반주서
 62
     0
100
AcDbMText
 10
107.239658232309
 20
16.36638326237091
 30
0.0
 40
3.5
 41
0.0
 71
     2
 72
     1
  1
\A1;66.68 [2 5/8]
  7
SLDTEXTSTYLE0
 73
     1
 44
1.0
  0
POINT
  5
2DE
330
2D5
100
AcDbEntity
  8
Defpoints
 62
     0
100
AcDbPoint
 10
141.5665673643775
 20
-17.679333087985
 30
0.0
  0
POINT
  5
2DF
330
2D5
100
AcDbEntity
  8
Defpoints
 62
     0
100
AcDbPoint
 10
74.89156736437747
 20
-17.679333087985
 30
0.0
  0
POINT
  5
2E0
330
2D5
100
AcDbEntity
  8
Defpoints
 62
     0
100
AcDbPoint
 10
74.89156736437747
 20
11.99138326237091
 30
0.0
  0
ENDBLK
  5
2D7
330
2D5
100
AcDbEntity
  8
0
100
AcDbBlockEnd
  0
BLOCK
  5
2E2
330
2E1
100
AcDbEntity
  8
0
100
AcDbBlockBegin
  2
*D15
 70
     1
 10
0.0
 20
0.0
 30
0.0
  3
*D15
  1
*D15
  0
LINE
  5
2E4
330
2E1
100
AcDbEntity
  8
치수문자_일반주서
 62
     0
370
    -2
100
AcDbLine
 10
87.41629035713919
 20
-16.488708087985
 30
0.0
 11
61.89156736437747
 21
-16.4887080879851
 31
0.0
  0
LINE
  5
2E5
330
2E1
100
AcDbEntity
  8
치수문자_일반주서
 62
     0
370
    -2
100
AcDbLine
 10
87.41629035713919
 20
-21.25120808798501
 30
0.0
 11
61.89156736437748
 21
-21.25120808798511
 31
0.0
  0
LINE
  5
2E6
330
2E1
100
AcDbEntity
  8
치수문자_일반주서
 62
     0
370
    -2
100
AcDbLine
 10
61.89156736437747
 20
-19.7907080879851
 30
0.0
 11
61.89156736437747
 21
-17.94920808798511
 31
0.0
  0
SOLID
  5
2E7
330
2E1
100
AcDbEntity
  8
치수문자_일반주서
 62
     0
100
AcDbTrace
 10
62.44190069771081
 20
-19.7907080879851
 30
0.0
 11
61.34123403104414
 21
-19.7907080879851
 31
0.0
 12
61.89156736437747
 22
-16.4887080879851
 32
0.0
 13
61.89156736437747
 23
-16.4887080879851
 33
0.0
  0
SOLID
  5
2E8
330
2E1
100
AcDbEntity
  8
치수문자_일반주서
 62
     0
100
AcDbTrace
 10
61.34123403104414
 20
-17.94920808798511
 30
0.0
 11
62.44190069771081
 21
-17.94920808798511
 31
0.0
 12
61.89156736437748
 22
-21.25120808798511
 32
0.0
 13
61.89156736437748
 23
-21.25120808798511
 33
0.0
  0
MTEXT
  5
2E9
330
2E1
100
AcDbEntity
  8
치수문자_일반주서
 62
     0
100
AcDbMText
 10
57.51656736437747
 20
-18.86995808798502
 30
0.0
 40
3.5
 41
0.0
 71
     2
 72
     1
  1
\A1;%%c4.76 [3/16]
  7
SLDTEXTSTYLE0
 11
-2.983906501879679E-15
 21
1.0
 31
0.0
 73
     1
 44
1.0
  0
POINT
  5
2EA
330
2E1
100
AcDbEntity
  8
Defpoints
 62
     0
100
AcDbPoint
 10
87.47879035713919
 20
-16.488708087985
 30
0.0
  0
POINT
  5
2EB
330
2E1
100
AcDbEntity
  8
Defpoints
 62
     0
100
AcDbPoint
 10
87.47879035713919
 20
-21.25120808798501
 30
0.0
  0
POINT
  5
2EC
330
2E1
100
AcDbEntity
  8
Defpoints
 62
     0
100
AcDbPoint
 10
61.89156736437748
 20
-21.25120808798511
 30
0.0
  0
ENDBLK
  5
2E3
330
2E1
100
AcDbEntity
  8
0
100
AcDbBlockEnd
  0
BLOCK
  5
37D
330
37C
100
AcDbEntity
  8
0
100
AcDbBlockBegin
  2
*D17
 70
     1
 10
0.0
 20
0.0
 30
0.0
  3
*D17
  1
*D17
  0
LINE
  5
37F
330
37C
100
AcDbEntity
  8
치수문자_일반주서
 62
     0
370
    -2
100
AcDbLine
 10
67.01242949277284
 20
9.382124999999924
 30
0.0
 11
86.80245519218255
 21
9.382124999999998
 31
0.0
  0
LINE
  5
380
330
37C
100
AcDbEntity
  8
치수문자_일반주서
 62
     0
370
    -2
100
AcDbLine
 10
67.01242949277284
 20
6.603999999999924
 30
0.0
 11
86.80245519218256
 21
6.603999999999999
 31
0.0
  0
LINE
  5
381
330
37C
100
AcDbEntity
  8
치수문자_일반주서
 62
     0
370
    -2
100
AcDbLine
 10
86.80245519218255
 20
9.382124999999998
 30
0.0
 11
86.80245519218236
 21
44.861125
 31
0.0
  0
LINE
  5
382
330
37C
100
AcDbEntity
  8
치수문자_일반주서
 62
     0
370
    -2
100
AcDbLine
 10
86.80245519218255
 20
9.382124999999998
 30
0.0
 11
86.80245519218256
 21
6.603999999999999
 31
0.0
  0
LINE
  5
383
330
37C
100
AcDbEntity
  8
치수문자_일반주서
 62
     0
370
    -2
100
AcDbLine
 10
86.80245519218253
 20
12.684125
 30
0.0
 11
86.80245519218252
 21
15.986125
 31
0.0
  0
LINE
  5
384
330
37C
100
AcDbEntity
  8
치수문자_일반주서
 62
     0
370
    -2
100
AcDbLine
 10
86.80245519218258
 20
3.302
 30
0.0
 11
86.80245519218259
 21
0.0
 31
0.0
  0
SOLID
  5
385
330
37C
100
AcDbEntity
  8
치수문자_일반주서
 62
     0
100
AcDbTrace
 10
86.25212185884921
 20
12.68412499999999
 30
0.0
 11
87.35278852551586
 21
12.684125
 31
0.0
 12
86.80245519218255
 22
9.382124999999998
 32
0.0
 13
86.80245519218255
 23
9.382124999999998
 33
0.0
  0
SOLID
  5
386
330
37C
100
AcDbEntity
  8
치수문자_일반주서
 62
     0
100
AcDbTrace
 10
87.3527885255159
 20
3.302000000000002
 30
0.0
 11
86.25212185884925
 21
3.301999999999997
 31
0.0
 12
86.80245519218256
 22
6.603999999999999
 32
0.0
 13
86.80245519218256
 23
6.603999999999999
 33
0.0
  0
MTEXT
  5
387
330
37C
100
AcDbEntity
  8
치수문자_일반주서
 62
     0
100
AcDbMText
 10
82.42745519218244
 20
30.42362499999998
 30
0.0
 40
3.5
 41
0.0
 71
     2
 72
     1
  1
\A1;%%c2.78 [7/64]
  7
SLDTEXTSTYLE0
 11
-5.115268288936604E-15
 21
1.0
 31
0.0
 73
     1
 44
1.0
  0
POINT
  5
388
330
37C
100
AcDbEntity
  8
Defpoints
 62
     0
100
AcDbPoint
 10
66.94992949277284
 20
9.382124999999924
 30
0.0
  0
POINT
  5
389
330
37C
100
AcDbEntity
  8
Defpoints
 62
     0
100
AcDbPoint
 10
66.94992949277284
 20
6.603999999999924
 30
0.0
  0
POINT
  5
38A
330
37C
100
AcDbEntity
  8
Defpoints
 62
     0
100
AcDbPoint
 10
86.80245519218249
 20
6.603999999999998
 30
0.0
  0
ENDBLK
  5
37E
330
37C
100
AcDbEntity
  8
0
100
AcDbBlockEnd
  0
BLOCK
  5
38C
330
38B
100
AcDbEntity
  8
0
100
AcDbBlockBegin
  2
*D18
 70
     1
 10
0.0
 20
0.0
 30
0.0
  3
*D18
  1
*D18
  0
LINE
  5
38E
330
38B
100
AcDbEntity
  8
치수문자_일반주서
 62
     0
370
    -2
100
AcDbLine
 10
69.67500000000001
 20
9.439516849794735
 30
0.0
 11
69.67500000000001
 21
27.32006909513939
 31
0.0
  0
LINE
  5
38F
330
38B
100
AcDbEntity
  8
치수문자_일반주서
 62
     0
370
    -2
100
AcDbLine
 10
62.53124999999999
 20
9.439421117550205
 30
0.0
 11
62.53124999999999
 21
27.32006909513939
 31
0.0
  0
LINE
  5
390
330
38B
100
AcDbEntity
  8
치수문자_일반주서
 62
     0
370
    -2
100
AcDbLine
 10
62.53124999999999
 20
27.32006909513939
 30
0.0
 11
30.55224999999999
 21
27.32006909513939
 31
0.0
  0
LINE
  5
391
330
38B
100
AcDbEntity
  8
치수문자_일반주서
 62
     0
370
    -2
100
AcDbLine
 10
69.67500000000001
 20
27.32006909513939
 30
0.0
 11
62.53124999999999
 21
27.32006909513939
 31
0.0
  0
LINE
  5
392
330
38B
100
AcDbEntity
  8
치수문자_일반주서
 62
     0
370
    -2
100
AcDbLine
 10
72.977
 20
27.32006909513939
 30
0.0
 11
76.279
 21
27.32006909513939
 31
0.0
  0
LINE
  5
393
330
38B
100
AcDbEntity
  8
치수문자_일반주서
 62
     0
370
    -2
100
AcDbLine
 10
59.22924999999999
 20
27.32006909513939
 30
0.0
 11
55.92724999999999
 21
27.32006909513939
 31
0.0
  0
SOLID
  5
394
330
38B
100
AcDbEntity
  8
치수문자_일반주서
 62
     0
100
AcDbTrace
 10
72.977
 20
27.87040242847273
 30
0.0
 11
72.977
 21
26.76973576180606
 31
0.0
 12
69.67500000000001
 22
27.32006909513939
 32
0.0
 13
69.67500000000001
 23
27.32006909513939
 33
0.0
  0
SOLID
  5
395
330
38B
100
AcDbEntity
  8
치수문자_일반주서
 62
     0
100
AcDbTrace
 10
59.22924999999999
 20
26.76973576180606
 30
0.0
 11
59.22924999999999
 21
27.87040242847273
 31
0.0
 12
62.53124999999999
 22
27.32006909513939
 32
0.0
 13
62.53124999999999
 23
27.32006909513939
 33
0.0
  0
MTEXT
  5
396
330
38B
100
AcDbEntity
  8
치수문자_일반주서
 62
     0
100
AcDbMText
 10
43.23974999999999
 20
31.69506909513939
 30
0.0
 40
3.5
 41
0.0
 71
     2
 72
     1
  1
\A1;7.14 [9/32]
  7
SLDTEXTSTYLE0
 73
     1
 44
1.0
  0
POINT
  5
397
330
38B
100
AcDbEntity
  8
Defpoints
 62
     0
100
AcDbPoint
 10
69.67500000000001
 20
9.377016849794735
 30
0.0
  0
POINT
  5
398
330
38B
100
AcDbEntity
  8
Defpoints
 62
     0
100
AcDbPoint
 10
62.53124999999999
 20
9.376921117550205
 30
0.0
  0
POINT
  5
399
330
38B
100
AcDbEntity
  8
Defpoints
 62
     0
100
AcDbPoint
 10
62.53124999999999
 20
27.32006909513939
 30
0.0
  0
ENDBLK
  5
38D
330
38B
100
AcDbEntity
  8
0
100
AcDbBlockEnd
  0
BLOCK
  5
39B
330
39A
100
AcDbEntity
  8
0
100
AcDbBlockBegin
  2
*D19
 70
     1
 10
0.0
 20
0.0
 30
0.0
  3
*D19
  1
*D19
  0
LINE
  5
39D
330
39A
100
AcDbEntity
  8
치수문자_일반주서
 62
     0
370
    -2
100
AcDbLine
 10
69.67500000000001
 20
9.439516849794735
 30
0.0
 11
69.67500000000001
 21
39.60012075953604
 31
0.0
  0
LINE
  5
39E
330
39A
100
AcDbEntity
  8
치수문자_일반주서
 62
     0
370
    -2
100
AcDbLine
 10
3.000000000000007
 20
9.960562499999925
 30
0.0
 11
3.000000000000007
 21
39.60012075953604
 31
0.0
  0
LINE
  5
39F
330
39A
100
AcDbEntity
  8
치수문자_일반주서
 62
     0
370
    -2
100
AcDbLine
 10
66.37300000000002
 20
39.60012075953604
 30
0.0
 11
6.302000000000007
 21
39.60012075953604
 31
0.0
  0
SOLID
  5
3A0
330
39A
100
AcDbEntity
  8
치수문자_일반주서
 62
     0
100
AcDbTrace
 10
66.37300000000002
 20
39.04978742620271
 30
0.0
 11
66.37300000000002
 21
40.15045409286937
 31
0.0
 12
69.67500000000001
 22
39.60012075953604
 32
0.0
 13
69.67500000000001
 23
39.60012075953604
 33
0.0
  0
SOLID
  5
3A1
330
39A
100
AcDbEntity
  8
치수문자_일반주서
 62
     0
100
AcDbTrace
 10
6.302000000000007
 20
40.15045409286937
 30
0.0
 11
6.302000000000007
 21
39.04978742620271
 31
0.0
 12
3.000000000000007
 22
39.60012075953604
 32
0.0
 13
3.000000000000007
 23
39.60012075953604
 33
0.0
  0
MTEXT
  5
3A2
330
39A
100
AcDbEntity
  8
치수문자_일반주서
 62
     0
100
AcDbMText
 10
34.63629059952538
 20
43.97512075953604
 30
0.0
 40
3.5
 41
0.0
 71
     2
 72
     1
  1
\A1;66.68 [2 5/8]
  7
SLDTEXTSTYLE0
 73
     1
 44
1.0
  0
POINT
  5
3A3
330
39A
100
AcDbEntity
  8
Defpoints
 62
     0
100
AcDbPoint
 10
69.67500000000001
 20
9.377016849794735
 30
0.0
  0
POINT
  5
3A4
330
39A
100
AcDbEntity
  8
Defpoints
 62
     0
100
AcDbPoint
 10
3.000000000000007
 20
9.898062499999925
 30
0.0
  0
POINT
  5
3A5
330
39A
100
AcDbEntity
  8
Defpoints
 62
     0
100
AcDbPoint
 10
3.000000000000007
 20
39.60012075953604
 30
0.0
  0
ENDBLK
  5
39C
330
39A
100
AcDbEntity
  8
0
100
AcDbBlockEnd
  0
BLOCK
  5
3DB
330
3DA
100
AcDbEntity
  8
0
100
AcDbBlockBegin
  2
*D20
 70
     1
 10
0.0
 20
0.0
 30
0.0
  3
*D20
  1
*D20
  0
LINE
  5
3DD
330
3DA
100
AcDbEntity
  8
치수문자_일반주서
 62
     0
370
    -2
100
AcDbLine
 10
144.3235244739167
 20
-12.85584517720932
 30
0.0
 11
164.1135501733263
 21
-12.85584517720925
 31
0.0
  0
LINE
  5
3DE
330
3DA
100
AcDbEntity
  8
치수문자_일반주서
 62
     0
370
    -2
100
AcDbLine
 10
144.3235244739167
 20
-15.63397017720932
 30
0.0
 11
164.1135501733263
 21
-15.63397017720925
 31
0.0
  0
LINE
  5
3DF
330
3DA
100
AcDbEntity
  8
치수문자_일반주서
 62
     0
370
    -2
100
AcDbLine
 10
164.1135501733263
 20
-12.85584517720925
 30
0.0
 11
164.1135501733263
 21
22.62315482279075
 31
0.0
  0
LINE
  5
3E0
330
3DA
100
AcDbEntity
  8
치수문자_일반주서
 62
     0
370
    -2
100
AcDbLine
 10
164.1135501733263
 20
-12.85584517720925
 30
0.0
 11
164.1135501733263
 21
-15.63397017720925
 31
0.0
  0
LINE
  5
3E1
330
3DA
100
AcDbEntity
  8
치수문자_일반주서
 62
     0
370
    -2
100
AcDbLine
 10
164.1135501733263
 20
-9.553845177209247
 30
0.0
 11
164.1135501733263
 21
-6.251845177209248
 31
0.0
  0
LINE
  5
3E2
330
3DA
100
AcDbEntity
  8
치수문자_일반주서
 62
     0
370
    -2
100
AcDbLine
 10
164.1135501733263
 20
-18.93597017720925
 30
0.0
 11
164.1135501733263
 21
-22.23797017720925
 31
0.0
  0
SOLID
  5
3E3
330
3DA
100
AcDbEntity
  8
치수문자_일반주서
 62
     0
100
AcDbTrace
 10
163.5632168399929
 20
-9.553845177209247
 30
0.0
 11
164.6638835066596
 21
-9.553845177209247
 31
0.0
 12
164.1135501733263
 22
-12.85584517720925
 32
0.0
 13
164.1135501733263
 23
-12.85584517720925
 33
0.0
  0
SOLID
  5
3E4
330
3DA
100
AcDbEntity
  8
치수문자_일반주서
 62
     0
100
AcDbTrace
 10
164.6638835066596
 20
-18.93597017720925
 30
0.0
 11
163.5632168399929
 21
-18.93597017720925
 31
0.0
 12
164.1135501733263
 22
-15.63397017720925
 32
0.0
 13
164.1135501733263
 23
-15.63397017720925
 33
0.0
  0
MTEXT
  5
3E5
330
3DA
100
AcDbEntity
  8
치수문자_일반주서
 62
     0
100
AcDbMText
 10
159.7385501733263
 20
8.185654822790752
 30
0.0
 40
3.5
 41
0.0
 71
     2
 72
     1
  1
\A1;%%c2.78 [7/64]
  7
SLDTEXTSTYLE0
 11
0.0
 21
1.0
 31
0.0
 73
     1
 44
1.0
  0
POINT
  5
3E6
330
3DA
100
AcDbEntity
  8
Defpoints
 62
     0
100
AcDbPoint
 10
144.2610244739167
 20
-12.85584517720932
 30
0.0
  0
POINT
  5
3E7
330
3DA
100
AcDbEntity
  8
Defpoints
 62
     0
100
AcDbPoint
 10
144.2610244739167
 20
-15.63397017720932
 30
0.0
  0
POINT
  5
3E8
330
3DA
100
AcDbEntity
  8
Defpoints
 62
     0
100
AcDbPoint
 10
164.1135501733264
 20
-15.63397017720925
 30
0.0
  0
ENDBLK
  5
3DC
330
3DA
100
AcDbEntity
  8
0
100
AcDbBlockEnd
  0
BLOCK
  5
3EA
330
3E9
100
AcDbEntity
  8
0
100
AcDbBlockBegin
  2
*D21
 70
     1
 10
0.0
 20
0.0
 30
0.0
  3
*D21
  1
*D21
  0
LINE
  5
3EC
330
3E9
100
AcDbEntity
  8
치수문자_일반주서
 62
     0
370
    -2
100
AcDbLine
 10
146.9860949811439
 20
-12.79845332741451
 30
0.0
 11
146.9860949811439
 21
5.082098917930146
 31
0.0
  0
LINE
  5
3ED
330
3E9
100
AcDbEntity
  8
치수문자_일반주서
 62
     0
370
    -2
100
AcDbLine
 10
139.8423449811438
 20
-12.79854905965904
 30
0.0
 11
139.8423449811438
 21
5.082098917930146
 31
0.0
  0
LINE
  5
3EE
330
3E9
100
AcDbEntity
  8
치수문자_일반주서
 62
     0
370
    -2
100
AcDbLine
 10
139.8423449811438
 20
5.082098917930146
 30
0.0
 11
107.8633449811438
 21
5.082098917930146
 31
0.0
  0
LINE
  5
3EF
330
3E9
100
AcDbEntity
  8
치수문자_일반주서
 62
     0
370
    -2
100
AcDbLine
 10
146.9860949811439
 20
5.082098917930146
 30
0.0
 11
139.8423449811438
 21
5.082098917930146
 31
0.0
  0
LINE
  5
3F0
330
3E9
100
AcDbEntity
  8
치수문자_일반주서
 62
     0
370
    -2
100
AcDbLine
 10
150.2880949811438
 20
5.082098917930146
 30
0.0
 11
153.5900949811438
 21
5.082098917930146
 31
0.0
  0
LINE
  5
3F1
330
3E9
100
AcDbEntity
  8
치수문자_일반주서
 62
     0
370
    -2
100
AcDbLine
 10
136.5403449811438
 20
5.082098917930146
 30
0.0
 11
133.2383449811438
 21
5.082098917930146
 31
0.0
  0
SOLID
  5
3F2
330
3E9
100
AcDbEntity
  8
치수문자_일반주서
 62
     0
100
AcDbTrace
 10
150.2880949811438
 20
5.63243225126348
 30
0.0
 11
150.2880949811438
 21
4.531765584596813
 31
0.0
 12
146.9860949811439
 22
5.082098917930146
 32
0.0
 13
146.9860949811439
 23
5.082098917930146
 33
0.0
  0
SOLID
  5
3F3
330
3E9
100
AcDbEntity
  8
치수문자_일반주서
 62
     0
100
AcDbTrace
 10
136.5403449811438
 20
4.531765584596813
 30
0.0
 11
136.5403449811438
 21
5.63243225126348
 31
0.0
 12
139.8423449811438
 22
5.082098917930146
 32
0.0
 13
139.8423449811438
 23
5.082098917930146
 33
0.0
  0
MTEXT
  5
3F4
330
3E9
100
AcDbEntity
  8
치수문자_일반주서
 62
     0
100
AcDbMText
 10
120.5508449811438
 20
9.457098917930146
 30
0.0
 40
3.5
 41
0.0
 71
     2
 72
     1
  1
\A1;7.14 [9/32]
  7
SLDTEXTSTYLE0
 73
     1
 44
1.0
  0
POINT
  5
3F5
330
3E9
100
AcDbEntity
  8
Defpoints
 62
     0
100
AcDbPoint
 10
146.9860949811439
 20
-12.86095332741451
 30
0.0
  0
POINT
  5
3F6
330
3E9
100
AcDbEntity
  8
Defpoints
 62
     0
100
AcDbPoint
 10
139.8423449811438
 20
-12.86104905965904
 30
0.0
  0
POINT
  5
3F7
330
3E9
100
AcDbEntity
  8
Defpoints
 62
     0
100
AcDbPoint
 10
139.8423449811438
 20
5.082098917930146
 30
0.0
  0
ENDBLK
  5
3EB
330
3E9
100
AcDbEntity
  8
0
100
AcDbBlockEnd
  0
BLOCK
  5
3F9
330
3F8
100
AcDbEntity
  8
0
100
AcDbBlockBegin
  2
*D22
 70
     1
 10
0.0
 20
0.0
 30
0.0
  3
*D22
  1
*D22
  0
LINE
  5
3FB
330
3F8
100
AcDbEntity
  8
치수문자_일반주서
 62
     0
370
    -2
100
AcDbLine
 10
146.9860949811439
 20
-12.79845332741451
 30
0.0
 11
146.9860949811439
 21
17.36215058232679
 31
0.0
  0
LINE
  5
3FC
330
3F8
100
AcDbEntity
  8
치수문자_일반주서
 62
     0
370
    -2
100
AcDbLine
 10
80.31109498114384
 20
-12.27740767720932
 30
0.0
 11
80.31109498114384
 21
17.36215058232679
 31
0.0
  0
LINE
  5
3FD
330
3F8
100
AcDbEntity
  8
치수문자_일반주서
 62
     0
370
    -2
100
AcDbLine
 10
143.6840949811439
 20
17.36215058232679
 30
0.0
 11
83.61309498114383
 21
17.36215058232679
 31
0.0
  0
SOLID
  5
3FE
330
3F8
100
AcDbEntity
  8
치수문자_일반주서
 62
     0
100
AcDbTrace
 10
143.6840949811439
 20
16.81181724899346
 30
0.0
 11
143.6840949811439
 21
17.91248391566013
 31
0.0
 12
146.9860949811439
 22
17.36215058232679
 32
0.0
 13
146.9860949811439
 23
17.36215058232679
 33
0.0
  0
SOLID
  5
3FF
330
3F8
100
AcDbEntity
  8
치수문자_일반주서
 62
     0
100
AcDbTrace
 10
83.61309498114383
 20
17.91248391566013
 30
0.0
 11
83.61309498114383
 21
16.81181724899346
 31
0.0
 12
80.31109498114384
 22
17.36215058232679
 32
0.0
 13
80.31109498114384
 23
17.36215058232679
 33
0.0
  0
MTEXT
  5
400
330
3F8
100
AcDbEntity
  8
치수문자_일반주서
 62
     0
100
AcDbMText
 10
111.9473855806692
 20
21.73715058232679
 30
0.0
 40
3.5
 41
0.0
 71
     2
 72
     1
  1
\A1;66.68 [2 5/8]
  7
SLDTEXTSTYLE0
 73
     1
 44
1.0
  0
POINT
  5
401
330
3F8
100
AcDbEntity
  8
Defpoints
 62
     0
100
AcDbPoint
 10
146.9860949811439
 20
-12.86095332741451
 30
0.0
  0
POINT
  5
402
330
3F8
100
AcDbEntity
  8
Defpoints
 62
     0
100
AcDbPoint
 10
80.31109498114384
 20
-12.33990767720932
 30
0.0
  0
POINT
  5
403
330
3F8
100
AcDbEntity
  8
Defpoints
 62
     0
100
AcDbPoint
 10
80.31109498114384
 20
17.36215058232679
 30
0.0
  0
ENDBLK
  5
3FA
330
3F8
100
AcDbEntity
  8
0
100
AcDbBlockEnd
  0
BLOCK
  5
495
330
494
100
AcDbEntity
  8
0
100
AcDbBlockBegin
  2
*D24
 70
     1
 10
0.0
 20
0.0
 30
0.0
  3
*D24
  1
*D24
  0
LINE
  5
497
330
494
100
AcDbEntity
  8
치수문자_일반주서
 62
     0
370
    -2
100
AcDbLine
 10
69.73750000000001
 20
9.382124999999936
 30
0.0
 11
86.80245519218255
 21
9.382124999999998
 31
0.0
  0
LINE
  5
498
330
494
100
AcDbEntity
  8
치수문자_일반주서
 62
     0
370
    -2
100
AcDbLine
 10
69.73750000000001
 20
6.603999999999935
 30
0.0
 11
86.80245519218256
 21
6.603999999999999
 31
0.0
  0
LINE
  5
499
330
494
100
AcDbEntity
  8
치수문자_일반주서
 62
     0
370
    -2
100
AcDbLine
 10
86.80245519218255
 20
9.382124999999998
 30
0.0
 11
86.80245519218236
 21
44.861125
 31
0.0
  0
LINE
  5
49A
330
494
100
AcDbEntity
  8
치수문자_일반주서
 62
     0
370
    -2
100
AcDbLine
 10
86.80245519218255
 20
9.382124999999998
 30
0.0
 11
86.80245519218256
 21
6.603999999999999
 31
0.0
  0
LINE
  5
49B
330
494
100
AcDbEntity
  8
치수문자_일반주서
 62
     0
370
    -2
100
AcDbLine
 10
86.80245519218253
 20
12.684125
 30
0.0
 11
86.80245519218252
 21
15.986125
 31
0.0
  0
LINE
  5
49C
330
494
100
AcDbEntity
  8
치수문자_일반주서
 62
     0
370
    -2
100
AcDbLine
 10
86.80245519218258
 20
3.302
 30
0.0
 11
86.80245519218259
 21
0.0
 31
0.0
  0
SOLID
  5
49D
330
494
100
AcDbEntity
  8
치수문자_일반주서
 62
     0
100
AcDbTrace
 10
86.25212185884921
 20
12.68412499999999
 30
0.0
 11
87.35278852551586
 21
12.684125
 31
0.0
 12
86.80245519218255
 22
9.382124999999998
 32
0.0
 13
86.80245519218255
 23
9.382124999999998
 33
0.0
  0
SOLID
  5
49E
330
494
100
AcDbEntity
  8
치수문자_일반주서
 62
     0
100
AcDbTrace
 10
87.3527885255159
 20
3.302000000000002
 30
0.0
 11
86.25212185884925
 21
3.301999999999997
 31
0.0
 12
86.80245519218256
 22
6.603999999999999
 32
0.0
 13
86.80245519218256
 23
6.603999999999999
 33
0.0
  0
MTEXT
  5
49F
330
494
100
AcDbEntity
  8
치수문자_일반주서
 62
     0
100
AcDbMText
 10
82.42745519218244
 20
30.42362499999998
 30
0.0
 40
3.5
 41
0.0
 71
     2
 72
     1
  1
\A1;%%c2.78 [7/64]
  7
SLDTEXTSTYLE0
 11
-5.115268288936602E-15
 21
1.0
 31
0.0
 73
     1
 44
1.0
  0
POINT
  5
4A0
330
494
100
AcDbEntity
  8
Defpoints
 62
     0
100
AcDbPoint
 10
69.67500000000001
 20
9.382124999999936
 30
0.0
  0
POINT
  5
4A1
330
494
100
AcDbEntity
  8
Defpoints
 62
     0
100
AcDbPoint
 10
69.67500000000001
 20
6.603999999999935
 30
0.0
  0
POINT
  5
4A2
330
494
100
AcDbEntity
  8
Defpoints
 62
     0
100
AcDbPoint
 10
86.80245519218249
 20
6.603999999999999
 30
0.0
  0
ENDBLK
  5
496
330
494
100
AcDbEntity
  8
0
100
AcDbBlockEnd
  0
BLOCK
  5
4A4
330
4A3
100
AcDbEntity
  8
0
100
AcDbBlockBegin
  2
*D25
 70
     1
 10
0.0
 20
0.0
 30
0.0
  3
*D25
  1
*D25
  0
LINE
  5
4A6
330
4A3
100
AcDbEntity
  8
치수문자_일반주서
 62
     0
370
    -2
100
AcDbLine
 10
69.67500000000001
 20
9.444624999999936
 30
0.0
 11
69.67500000000001
 21
27.3200690951394
 31
0.0
  0
LINE
  5
4A7
330
4A3
100
AcDbEntity
  8
치수문자_일반주서
 62
     0
370
    -2
100
AcDbLine
 10
62.53124999999999
 20
9.439421117550213
 30
0.0
 11
62.53124999999999
 21
27.3200690951394
 31
0.0
  0
LINE
  5
4A8
330
4A3
100
AcDbEntity
  8
치수문자_일반주서
 62
     0
370
    -2
100
AcDbLine
 10
62.53124999999999
 20
27.3200690951394
 30
0.0
 11
30.55224999999999
 21
27.3200690951394
 31
0.0
  0
LINE
  5
4A9
330
4A3
100
AcDbEntity
  8
치수문자_일반주서
 62
     0
370
    -2
100
AcDbLine
 10
69.67500000000001
 20
27.3200690951394
 30
0.0
 11
62.53124999999999
 21
27.3200690951394
 31
0.0
  0
LINE
  5
4AA
330
4A3
100
AcDbEntity
  8
치수문자_일반주서
 62
     0
370
    -2
100
AcDbLine
 10
72.977
 20
27.3200690951394
 30
0.0
 11
76.279
 21
27.3200690951394
 31
0.0
  0
LINE
  5
4AB
330
4A3
100
AcDbEntity
  8
치수문자_일반주서
 62
     0
370
    -2
100
AcDbLine
 10
59.22924999999999
 20
27.3200690951394
 30
0.0
 11
55.92724999999999
 21
27.3200690951394
 31
0.0
  0
SOLID
  5
4AC
330
4A3
100
AcDbEntity
  8
치수문자_일반주서
 62
     0
100
AcDbTrace
 10
72.977
 20
27.87040242847273
 30
0.0
 11
72.977
 21
26.76973576180606
 31
0.0
 12
69.67500000000001
 22
27.3200690951394
 32
0.0
 13
69.67500000000001
 23
27.3200690951394
 33
0.0
  0
SOLID
  5
4AD
330
4A3
100
AcDbEntity
  8
치수문자_일반주서
 62
     0
100
AcDbTrace
 10
59.22924999999999
 20
26.76973576180606
 30
0.0
 11
59.22924999999999
 21
27.87040242847273
 31
0.0
 12
62.53124999999999
 22
27.3200690951394
 32
0.0
 13
62.53124999999999
 23
27.3200690951394
 33
0.0
  0
MTEXT
  5
4AE
330
4A3
100
AcDbEntity
  8
치수문자_일반주서
 62
     0
100
AcDbMText
 10
43.23974999999999
 20
31.6950690951394
 30
0.0
 40
3.5
 41
0.0
 71
     2
 72
     1
  1
\A1;7.14 [9/32]
  7
SLDTEXTSTYLE0
 73
     1
 44
1.0
  0
POINT
  5
4AF
330
4A3
100
AcDbEntity
  8
Defpoints
 62
     0
100
AcDbPoint
 10
69.67500000000001
 20
9.382124999999936
 30
0.0
  0
POINT
  5
4B0
330
4A3
100
AcDbEntity
  8
Defpoints
 62
     0
100
AcDbPoint
 10
62.53124999999999
 20
9.376921117550213
 30
0.0
  0
POINT
  5
4B1
330
4A3
100
AcDbEntity
  8
Defpoints
 62
     0
100
AcDbPoint
 10
62.53124999999999
 20
27.3200690951394
 30
0.0
  0
ENDBLK
  5
4A5
330
4A3
100
AcDbEntity
  8
0
100
AcDbBlockEnd
  0
BLOCK
  5
4B3
330
4B2
100
AcDbEntity
  8
0
100
AcDbBlockBegin
  2
*D26
 70
     1
 10
0.0
 20
0.0
 30
0.0
  3
*D26
  1
*D26
  0
LINE
  5
4B5
330
4B2
100
AcDbEntity
  8
치수문자_일반주서
 62
     0
370
    -2
100
AcDbLine
 10
69.67500000000001
 20
9.444624999999936
 30
0.0
 11
69.67500000000001
 21
39.60012075953605
 31
0.0
  0
LINE
  5
4B6
330
4B2
100
AcDbEntity
  8
치수문자_일반주서
 62
     0
370
    -2
100
AcDbLine
 10
3.000000000000007
 20
9.960562499999932
 30
0.0
 11
3.000000000000007
 21
39.60012075953605
 31
0.0
  0
LINE
  5
4B7
330
4B2
100
AcDbEntity
  8
치수문자_일반주서
 62
     0
370
    -2
100
AcDbLine
 10
66.37300000000002
 20
39.60012075953605
 30
0.0
 11
6.302000000000007
 21
39.60012075953605
 31
0.0
  0
SOLID
  5
4B8
330
4B2
100
AcDbEntity
  8
치수문자_일반주서
 62
     0
100
AcDbTrace
 10
66.37300000000002
 20
39.04978742620272
 30
0.0
 11
66.37300000000002
 21
40.15045409286939
 31
0.0
 12
69.67500000000001
 22
39.60012075953605
 32
0.0
 13
69.67500000000001
 23
39.60012075953605
 33
0.0
  0
SOLID
  5
4B9
330
4B2
100
AcDbEntity
  8
치수문자_일반주서
 62
     0
100
AcDbTrace
 10
6.302000000000007
 20
40.15045409286939
 30
0.0
 11
6.302000000000007
 21
39.04978742620272
 31
0.0
 12
3.000000000000007
 22
39.60012075953605
 32
0.0
 13
3.000000000000007
 23
39.60012075953605
 33
0.0
  0
MTEXT
  5
4BA
330
4B2
100
AcDbEntity
  8
치수문자_일반주서
 62
     0
100
AcDbMText
 10
34.63629059952538
 20
43.97512075953605
 30
0.0
 40
3.5
 41
0.0
 71
     2
 72
     1
  1
\A1;66.68 [2 5/8]
  7
SLDTEXTSTYLE0
 73
     1
 44
1.0
  0
POINT
  5
4BB
330
4B2
100
AcDbEntity
  8
Defpoints
 62
     0
100
AcDbPoint
 10
69.67500000000001
 20
9.382124999999936
 30
0.0
  0
POINT
  5
4BC
330
4B2
100
AcDbEntity
  8
Defpoints
 62
     0
100
AcDbPoint
 10
3.000000000000007
 20
9.898062499999932
 30
0.0
  0
POINT
  5
4BD
330
4B2
100
AcDbEntity
  8
Defpoints
 62
     0
100
AcDbPoint
 10
3.000000000000007
 20
39.60012075953605
 30
0.0
  0
ENDBLK
  5
4B4
330
4B2
100
AcDbEntity
  8
0
100
AcDbBlockEnd
  0
BLOCK
  5
4F3
330
4F2
100
AcDbEntity
  8
0
100
AcDbBlockBegin
  2
*D27
 70
     1
 10
0.0
 20
0.0
 30
0.0
  3
*D27
  1
*D27
  0
LINE
  5
4F5
330
4F2
100
AcDbEntity
  8
치수문자_일반주서
 62
     0
370
    -2
100
AcDbLine
 10
139.2766764934408
 20
-25.73921434760185
 30
0.0
 11
156.3416316856233
 21
-25.73921434760179
 31
0.0
  0
LINE
  5
4F6
330
4F2
100
AcDbEntity
  8
치수문자_일반주서
 62
     0
370
    -2
100
AcDbLine
 10
139.2766764934408
 20
-28.51733934760185
 30
0.0
 11
156.3416316856233
 21
-28.51733934760179
 31
0.0
  0
LINE
  5
4F7
330
4F2
100
AcDbEntity
  8
치수문자_일반주서
 62
     0
370
    -2
100
AcDbLine
 10
156.3416316856233
 20
-25.73921434760179
 30
0.0
 11
156.3416316856233
 21
9.739785652398211
 31
0.0
  0
LINE
  5
4F8
330
4F2
100
AcDbEntity
  8
치수문자_일반주서
 62
     0
370
    -2
100
AcDbLine
 10
156.3416316856233
 20
-25.73921434760179
 30
0.0
 11
156.3416316856233
 21
-28.51733934760179
 31
0.0
  0
LINE
  5
4F9
330
4F2
100
AcDbEntity
  8
치수문자_일반주서
 62
     0
370
    -2
100
AcDbLine
 10
156.3416316856233
 20
-22.43721434760179
 30
0.0
 11
156.3416316856233
 21
-19.13521434760179
 31
0.0
  0
LINE
  5
4FA
330
4F2
100
AcDbEntity
  8
치수문자_일반주서
 62
     0
370
    -2
100
AcDbLine
 10
156.3416316856233
 20
-31.81933934760179
 30
0.0
 11
156.3416316856233
 21
-35.12133934760179
 31
0.0
  0
SOLID
  5
4FB
330
4F2
100
AcDbEntity
  8
치수문자_일반주서
 62
     0
100
AcDbTrace
 10
155.7912983522899
 20
-22.43721434760179
 30
0.0
 11
156.8919650189566
 21
-22.43721434760179
 31
0.0
 12
156.3416316856233
 22
-25.73921434760179
 32
0.0
 13
156.3416316856233
 23
-25.73921434760179
 33
0.0
  0
SOLID
  5
4FC
330
4F2
100
AcDbEntity
  8
치수문자_일반주서
 62
     0
100
AcDbTrace
 10
156.8919650189566
 20
-31.81933934760179
 30
0.0
 11
155.7912983522899
 21
-31.81933934760179
 31
0.0
 12
156.3416316856233
 22
-28.51733934760179
 32
0.0
 13
156.3416316856233
 23
-28.51733934760179
 33
0.0
  0
MTEXT
  5
4FD
330
4F2
100
AcDbEntity
  8
치수문자_일반주서
 62
     0
100
AcDbMText
 10
151.9666316856233
 20
-4.697714347601789
 30
0.0
 40
3.5
 41
0.0
 71
     2
 72
     1
  1
\A1;%%c2.78 [7/64]
  7
SLDTEXTSTYLE0
 11
0.0
 21
1.0
 31
0.0
 73
     1
 44
1.0
  0
POINT
  5
4FE
330
4F2
100
AcDbEntity
  8
Defpoints
 62
     0
100
AcDbPoint
 10
139.2141764934408
 20
-25.73921434760185
 30
0.0
  0
POINT
  5
4FF
330
4F2
100
AcDbEntity
  8
Defpoints
 62
     0
100
AcDbPoint
 10
139.2141764934408
 20
-28.51733934760185
 30
0.0
  0
POINT
  5
500
330
4F2
100
AcDbEntity
  8
Defpoints
 62
     0
100
AcDbPoint
 10
156.3416316856234
 20
-28.51733934760179
 30
0.0
  0
ENDBLK
  5
4F4
330
4F2
100
AcDbEntity
  8
0
100
AcDbBlockEnd
  0
BLOCK
  5
502
330
501
100
AcDbEntity
  8
0
100
AcDbBlockBegin
  2
*D28
 70
     1
 10
0.0
 20
0.0
 30
0.0
  3
*D28
  1
*D28
  0
LINE
  5
504
330
501
100
AcDbEntity
  8
치수문자_일반주서
 62
     0
370
    -2
100
AcDbLine
 10
139.2141764934408
 20
-25.67671434760185
 30
0.0
 11
139.2141764934408
 21
-7.801270252462391
 31
0.0
  0
LINE
  5
505
330
501
100
AcDbEntity
  8
치수문자_일반주서
 62
     0
370
    -2
100
AcDbLine
 10
132.0704264934408
 20
-25.68191823005158
 30
0.0
 11
132.0704264934408
 21
-7.801270252462391
 31
0.0
  0
LINE
  5
506
330
501
100
AcDbEntity
  8
치수문자_일반주서
 62
     0
370
    -2
100
AcDbLine
 10
132.0704264934408
 20
-7.801270252462391
 30
0.0
 11
100.0914264934408
 21
-7.801270252462391
 31
0.0
  0
LINE
  5
507
330
501
100
AcDbEntity
  8
치수문자_일반주서
 62
     0
370
    -2
100
AcDbLine
 10
139.2141764934408
 20
-7.801270252462391
 30
0.0
 11
132.0704264934408
 21
-7.801270252462391
 31
0.0
  0
LINE
  5
508
330
501
100
AcDbEntity
  8
치수문자_일반주서
 62
     0
370
    -2
100
AcDbLine
 10
142.5161764934408
 20
-7.801270252462391
 30
0.0
 11
145.8181764934408
 21
-7.801270252462391
 31
0.0
  0
LINE
  5
509
330
501
100
AcDbEntity
  8
치수문자_일반주서
 62
     0
370
    -2
100
AcDbLine
 10
128.7684264934408
 20
-7.801270252462391
 30
0.0
 11
125.4664264934408
 21
-7.801270252462391
 31
0.0
  0
SOLID
  5
50A
330
501
100
AcDbEntity
  8
치수문자_일반주서
 62
     0
100
AcDbTrace
 10
142.5161764934408
 20
-7.250936919129058
 30
0.0
 11
142.5161764934408
 21
-8.351603585795724
 31
0.0
 12
139.2141764934408
 22
-7.801270252462391
 32
0.0
 13
139.2141764934408
 23
-7.801270252462391
 33
0.0
  0
SOLID
  5
50B
330
501
100
AcDbEntity
  8
치수문자_일반주서
 62
     0
100
AcDbTrace
 10
128.7684264934408
 20
-8.351603585795724
 30
0.0
 11
128.7684264934408
 21
-7.250936919129058
 31
0.0
 12
132.0704264934408
 22
-7.801270252462391
 32
0.0
 13
132.0704264934408
 23
-7.801270252462391
 33
0.0
  0
MTEXT
  5
50C
330
501
100
AcDbEntity
  8
치수문자_일반주서
 62
     0
100
AcDbMText
 10
112.7789264934408
 20
-3.426270252462391
 30
0.0
 40
3.5
 41
0.0
 71
     2
 72
     1
  1
\A1;7.14 [9/32]
  7
SLDTEXTSTYLE0
 73
     1
 44
1.0
  0
POINT
  5
50D
330
501
100
AcDbEntity
  8
Defpoints
 62
     0
100
AcDbPoint
 10
139.2141764934408
 20
-25.73921434760185
 30
0.0
  0
POINT
  5
50E
330
501
100
AcDbEntity
  8
Defpoints
 62
     0
100
AcDbPoint
 10
132.0704264934408
 20
-25.74441823005158
 30
0.0
  0
POINT
  5
50F
330
501
100
AcDbEntity
  8
Defpoints
 62
     0
100
AcDbPoint
 10
132.0704264934408
 20
-7.801270252462391
 30
0.0
  0
ENDBLK
  5
503
330
501
100
AcDbEntity
  8
0
100
AcDbBlockEnd
  0
BLOCK
  5
511
330
510
100
AcDbEntity
  8
0
100
AcDbBlockBegin
  2
*D29
 70
     1
 10
0.0
 20
0.0
 30
0.0
  3
*D29
  1
*D29
  0
LINE
  5
513
330
510
100
AcDbEntity
  8
치수문자_일반주서
 62
     0
370
    -2
100
AcDbLine
 10
139.2141764934408
 20
-25.67671434760185
 30
0.0
 11
139.2141764934408
 21
4.478781411934264
 31
0.0
  0
LINE
  5
514
330
510
100
AcDbEntity
  8
치수문자_일반주서
 62
     0
370
    -2
100
AcDbLine
 10
72.53917649344083
 20
-25.16077684760186
 30
0.0
 11
72.53917649344083
 21
4.478781411934264
 31
0.0
  0
LINE
  5
515
330
510
100
AcDbEntity
  8
치수문자_일반주서
 62
     0
370
    -2
100
AcDbLine
 10
135.9121764934409
 20
4.478781411934264
 30
0.0
 11
75.84117649344083
 21
4.478781411934264
 31
0.0
  0
SOLID
  5
516
330
510
100
AcDbEntity
  8
치수문자_일반주서
 62
     0
100
AcDbTrace
 10
135.9121764934409
 20
3.928448078600931
 30
0.0
 11
135.9121764934409
 21
5.029114745267598
 31
0.0
 12
139.2141764934408
 22
4.478781411934264
 32
0.0
 13
139.2141764934408
 23
4.478781411934264
 33
0.0
  0
SOLID
  5
517
330
510
100
AcDbEntity
  8
치수문자_일반주서
 62
     0
100
AcDbTrace
 10
75.84117649344083
 20
5.029114745267598
 30
0.0
 11
75.84117649344083
 21
3.928448078600931
 31
0.0
 12
72.53917649344083
 22
4.478781411934264
 32
0.0
 13
72.53917649344083
 23
4.478781411934264
 33
0.0
  0
MTEXT
  5
518
330
510
100
AcDbEntity
  8
치수문자_일반주서
 62
     0
100
AcDbMText
 10
104.1754670929662
 20
8.853781411934264
 30
0.0
 40
3.5
 41
0.0
 71
     2
 72
     1
  1
\A1;66.68 [2 5/8]
  7
SLDTEXTSTYLE0
 73
     1
 44
1.0
  0
POINT
  5
519
330
510
100
AcDbEntity
  8
Defpoints
 62
     0
100
AcDbPoint
 10
139.2141764934408
 20
-25.73921434760185
 30
0.0
  0
POINT
  5
51A
330
510
100
AcDbEntity
  8
Defpoints
 62
     0
100
AcDbPoint
 10
72.53917649344083
 20
-25.22327684760186
 30
0.0
  0
POINT
  5
51B
330
510
100
AcDbEntity
  8
Defpoints
 62
     0
100
AcDbPoint
 10
72.53917649344083
 20
4.478781411934264
 30
0.0
  0
ENDBLK
  5
512
330
510
100
AcDbEntity
  8
0
100
AcDbBlockEnd
  0
ENDSEC
  0
SECTION
  2
ENTITIES
  0
LINE
  5
96
330
1F
100
AcDbEntity
  8
0
  6
Continuous
 62
     1
370
    25
100
AcDbLine
 10
31.29869916528102
 20
-0.3920202388506403
 30
0.0
 11
31.34551157574514
 21
-0.4168895585321541
 31
0.0
  0
LINE
  5
97
330
1F
100
AcDbEntity
  8
0
  6
Continuous
 62
     1
370
    25
100
AcDbLine
 10
32.86407215067474
 20
0.3875022976393659
 30
0.0
 11
32.83128189361983
 21
0.4052071148691921
 31
0.0
  0
LINE
  5
98
330
1F
100
AcDbEntity
  8
0
  6
Continuous
 62
     1
370
    25
100
AcDbLine
 10
29.76398913358943
 20
-1.389062500000001
 30
0.0
 11
30.61092693552317
 21
-1.389062500000001
 31
0.0
  0
LINE
  5
99
330
1F
100
AcDbEntity
  8
0
  6
Continuous
 62
     1
370
    25
100
AcDbLine
 10
26.83292564651765
 20
1.3890625
 30
0.0
 11
26.19375000000002
 21
1.3890625
 31
0.0
  0
LINE
  5
9A
330
1F
100
AcDbEntity
  8
0
  6
Continuous
 62
     1
370
    25
100
AcDbLine
 10
30.61092693552317
 20
1.3890625
 30
0.0
 11
29.76398913358945
 21
1.3890625
 31
0.0
  0
LINE
  5
9B
330
1F
100
AcDbEntity
  8
0
  6
Continuous
 62
     1
370
    25
100
AcDbLine
 10
26.19375000000002
 20
-1.389062500000001
 30
0.0
 11
26.83292564651764
 21
-1.389062500000001
 31
0.0
  0
LINE
  5
9C
330
1F
100
AcDbEntity
  8
외형선
  6
Continuous
370
    15
100
AcDbLine
 10
21.49085583936525
 20
-2.381250000000007
 30
0.0
 11
25.19375000000002
 21
-1.389062500000001
 31
0.0
  0
LINE
  5
9D
330
1F
100
AcDbEntity
  8
외형선
  6
Continuous
370
    15
100
AcDbLine
 10
25.19375000000002
 20
1.3890625
 30
0.0
 11
21.49085583936525
 21
2.381250000000006
 31
0.0
  0
LINE
  5
9E
330
1F
100
AcDbEntity
  8
외형선
  6
Continuous
370
    15
100
AcDbLine
 10
-21.49085583936523
 20
-2.381250000000004
 30
0.0
 11
21.49085583936525
 21
-2.381250000000004
 31
0.0
  0
LINE
  5
9F
330
1F
100
AcDbEntity
  8
외형선
  6
Continuous
370
    15
100
AcDbLine
 10
21.49085583936525
 20
2.381250000000003
 30
0.0
 11
-21.49085583936523
 21
2.381250000000003
 31
0.0
  0
LINE
  5
A2
330
1F
100
AcDbEntity
  8
외형선
  6
Continuous
370
    15
100
AcDbLine
 10
25.98483863065669
 20
-1.389062500000001
 30
0.0
 11
26.19375000000002
 21
-1.389062500000001
 31
0.0
  0
LINE
  5
A3
330
1F
100
AcDbEntity
  8
외형선
  6
Continuous
370
    15
100
AcDbLine
 10
25.19375000000002
 20
-1.389062500000001
 30
0.0
 11
25.69387659494238
 21
-1.389062500000001
 31
0.0
  0
LINE
  5
A4
330
1F
100
AcDbEntity
  8
외형선
  6
Continuous
370
    15
100
AcDbLine
 10
25.69387659494238
 20
1.3890625
 30
0.0
 11
25.19375000000002
 21
1.3890625
 31
0.0
  0
LINE
  5
A5
330
1F
100
AcDbEntity
  8
외형선
  6
Continuous
370
    15
100
AcDbLine
 10
26.19375000000002
 20
1.3890625
 30
0.0
 11
25.98483863065669
 21
1.3890625
 31
0.0
  0
SPLINE
  5
A6
330
1F
100
AcDbEntity
  8
0
  6
Continuous
 62
     1
370
    25
100
AcDbSpline
210
0.0
220
0.0
230
1.0
 70
     8
 71
     3
 72
    15
 73
    11
 74
     0
 42
0.000000001
 43
0.00000001
 40
0.0
 40
0.0
 40
0.0
 40
0.0
 40
0.1358992629172302
 40
0.2718011592252967
 40
0.4077080149603865
 40
0.5436221496682943
 40
0.6795458733812849
 40
0.8130604979877206
 40
0.9466028205051903
 40
1.0
 40
1.0
 40
1.0
 40
1.0
 10
26.19375000000002
 20
0.3643962106679348
 30
0.0
 10
26.46034830453251
 20
0.2119242283334591
 30
0.0
 10
26.99355007961174
 20
-0.0930226908645491
 30
0.0
 10
27.79336797730164
 20
-0.5509147149044161
 30
0.0
 10
28.59322196900161
 20
-0.945735941554211
 30
0.0
 10
29.39312322268441
 20
-1.237183899591918
 30
0.0
 10
30.18835803994738
 20
-1.393953316662569
 30
0.0
 10
30.97889698655383
 20
-1.392835403773714
 30
0.0
 10
31.60757491124417
 20
-1.295959309086635
 30
0.0
 10
31.97434171958478
 20
-1.16225981277877
 30
0.0
 10
32.07910455936391
 20
-1.124070045897676
 30
0.0
  0
SPLINE
  5
A7
330
1F
100
AcDbEntity
  8
외형선
  6
Continuous
370
    15
100
AcDbSpline
210
0.0
220
0.0
230
1.0
 70
    24
 71
     3
 72
    13
 73
     9
 74
     0
 42
0.000000001
 43
0.00000001
 40
0.0
 40
0.0
 40
0.0
 40
0.0
 40
0.1719223117044366
 40
0.3423686342336754
 40
0.5128149567629103
 40
0.6832612792921517
 40
0.8537076018212615
 40
1.0
 40
1.0
 40
1.0
 40
1.0
 10
26.19374999999999
 20
1.383858617550281
 30
0.0
 10
26.19375
 20
1.292879938287286
 30
0.0
 10
26.19375000000003
 20
1.111703650841803
 30
0.0
 10
26.19374999999997
 20
0.8257220814662117
 30
0.0
 10
26.19375000000002
 20
0.5695663341906376
 30
0.0
 10
26.19375000000004
 20
0.3711759511589503
 30
0.0
 10
26.19374999999999
 20
0.248130126303632
 30
0.0
 10
26.19375000000003
 20
0.2414996859015586
 30
0.0
 10
26.19375000000003
 20
0.2384372784218768
 30
0.0
  0
SPLINE
  5
A8
330
1F
100
AcDbEntity
  8
0
  6
Continuous
 62
     1
370
    25
100
AcDbSpline
210
0.0
220
0.0
230
1.0
 70
     8
 71
     3
 72
    38
 73
    34
 74
     0
 42
0.000000001
 43
0.00000001
 40
0.0
 40
0.0
 40
0.0
 40
0.0
 40
0.0625
 40
0.0625
 40
0.125
 40
0.125
 40
0.1875
 40
0.1875
 40
0.25
 40
0.25
 40
0.3125
 40
0.3125
 40
0.375
 40
0.375
 40
0.4375
 40
0.4375
 40
0.5
 40
0.5
 40
0.5625
 40
0.5625
 40
0.625
 40
0.625
 40
0.6875
 40
0.6875
 40
0.75
 40
0.75
 40
0.8125
 40
0.8125
 40
0.875
 40
0.875
 40
0.9375
 40
0.9375
 40
1.0
 40
1.0
 40
1.0
 40
1.0
 10
33.33750000000001
 20
-1.389062499999996
 30
0.0
 10
33.19093372225775
 20
-1.376629459385233
 30
0.0
 10
33.04076823935527
 20
-1.361313660486349
 30
0.0
 10
32.74086288434989
 20
-1.315129483823625
 30
0.0
 10
32.59256246900644
 20
-1.284390755197782
 30
0.0
 10
32.29783333141388
 20
-1.208832036313761
 30
0.0
 10
32.14730881513923
 20
-1.163614315820045
 30
0.0
 10
31.84762392026215
 20
-1.060394543055757
 30
0.0
 10
31.70068818939809
 20
-1.00272966375173
 30
0.0
 10
31.40457038164533
 20
-0.87637150280774
 30
0.0
 10
31.25379842902269
 20
-0.8073886613210706
 30
0.0
 10
30.95455391451064
 20
-0.661254746112367
 30
0.0
 10
30.80847919035541
 20
-0.5845635072621077
 30
0.0
 10
30.51118396455274
 20
-0.4245133260928985
 30
0.0
 10
30.36027679119943
 20
-0.3411682321281053
 30
0.0
 10
30.06169150028084
 20
-0.172099505257065
 30
0.0
 10
29.91597202234276
 20
-0.0867738694856535
 30
0.0
 10
29.61771347771956
 20
0.08519363779362
 30
0.0
 10
29.46678363784176
 20
0.1715230153174035
 30
0.0
 10
29.16907480514351
 20
0.3404415093808086
 30
0.0
 10
29.02320395270315
 20
0.4228802125356655
 30
0.0
 10
28.72419852818536
 20
0.5833059968395665
 30
0.0
 10
28.57335863278269
 20
0.6608314227484214
 30
0.0
 10
28.27674136096266
 20
0.80658426941001
 30
0.0
 10
28.1302128799185
 20
0.8749904367252117
 30
0.0
 10
27.8306788348189
 20
1.00195451475974
 30
0.0
 10
27.68004126958814
 20
1.060099188879008
 30
0.0
 10
27.38472801682261
 20
1.162898774752632
 30
0.0
 10
27.23703724468136
 20
1.207960570189355
 30
0.0
 10
26.93719413009578
 20
1.284099455940844
 30
0.0
 10
26.78687077452721
 20
1.314951626720758
 30
0.0
 10
26.49307085538799
 20
1.360942357788847
 30
0.0
 10
26.34371593820749
 20
1.376408955257026
 30
0.0
 10
26.19375000000003
 20
1.383858617550008
 30
0.0
  0
LINE
  5
A9
330
1F
100
AcDbEntity
  8
0
  6
Continuous
 62
     1
370
    25
100
AcDbLine
 10
33.33750000000001
 20
-1.258047999200561
 30
0.0
 11
33.33750000000001
 21
0.1190167492005761
 31
0.0
  0
SPLINE
  5
AA
330
1F
100
AcDbEntity
  8
0
  6
Continuous
 62
     1
370
    25
100
AcDbSpline
210
0.0
220
0.0
230
1.0
 70
     8
 71
     3
 72
    16
 73
    12
 74
     0
 42
0.000000001
 43
0.00000001
 40
0.0
 40
0.0
 40
0.0
 40
0.0
 40
0.0246945883868353
 40
0.1476620342540411
 40
0.2706339675352609
 40
0.3936124870137325
 40
0.5165996828646147
 40
0.6374070653941053
 40
0.7582395096885077
 40
0.8791021378155646
 40
0.9999999999999999
 40
0.9999999999999999
 40
0.9999999999999999
 40
0.9999999999999999
 10
26.83292564651765
 20
1.376796602261168
 30
0.0
 10
26.88646555319149
 20
1.380607297415419
 30
0.0
 10
27.20660903602211
 20
1.403393463744024
 30
0.0
 10
27.79336806560487
 20
1.295125002569149
 30
0.0
 10
28.59322197678203
 20
1.05458568073503
 30
0.0
 10
29.39312310324257
 20
0.685345451056599
 30
0.0
 10
30.18835850648746
 20
0.2473177147022838
 30
0.0
 10
30.97889527334023
 20
-0.2159760603207273
 30
0.0
 10
31.76487825448522
 20
-0.6508722170029614
 30
0.0
 10
32.55108780761459
 20
-1.026591596003136
 30
0.0
 10
33.0753371345901
 20
-1.180888369088962
 30
0.0
 10
33.33750000000001
 20
-1.258047999200561
 30
0.0
  0
SPLINE
  5
AB
330
1F
100
AcDbEntity
  8
0
  6
Continuous
 62
     1
370
    25
100
AcDbSpline
210
0.0
220
0.0
230
1.0
 70
     8
 71
     3
 72
    14
 73
    10
 74
     0
 42
0.000000001
 43
0.00000001
 40
0.0
 40
0.0
 40
0.0
 40
0.0
 40
0.1587547535228175
 40
0.3174839957549602
 40
0.4761903025597095
 40
0.6348762793063252
 40
0.7935445576234978
 40
0.9493620767837808
 40
0.9999999999999999
 40
0.9999999999999999
 40
0.9999999999999999
 40
0.9999999999999999
 10
33.33750000000001
 20
0.1190167492005759
 30
0.0
 10
33.07062583720008
 20
0.2711615968992035
 30
0.0
 10
32.53692039727252
 20
0.5754268431927426
 30
0.0
 10
31.73645567193132
 20
0.9654280756700585
 30
0.0
 10
30.93612631564925
 20
1.249924365547723
 30
0.0
 10
30.13592515363919
 20
1.399439407050141
 30
0.0
 10
29.34057969442942
 20
1.387297228763961
 30
0.0
 10
28.72691185329801
 20
1.286301295065428
 30
0.0
 10
28.37992513858896
 20
1.156850312010566
 30
0.0
 10
28.29481870393058
 20
1.125099495152749
 30
0.0
  0
SPLINE
  5
AC
330
1F
100
AcDbEntity
  8
0
  6
Continuous
 62
     1
370
    25
100
AcDbSpline
210
0.0
220
0.0
230
1.0
 70
     8
 71
     3
 72
    12
 73
     8
 74
     0
 42
0.000000001
 43
0.00000001
 40
0.0
 40
0.0
 40
0.0
 40
0.0
 40
0.1199216448988956
 40
0.3399763013671633
 40
0.5600011890564385
 40
0.7800058812651569
 40
1.0
 40
1.0
 40
1.0
 40
1.0
 10
29.76398913358945
 20
-1.369999984687408
 30
0.0
 10
29.62125811289941
 20
-1.373165239515532
 30
0.0
 10
29.21661752824539
 20
-1.382138695727356
 30
0.0
 10
28.55017380179792
 20
-1.233280509474401
 30
0.0
 10
27.76462344907057
 20
-0.9542013872569117
 30
0.0
 10
26.97916526400579
 20
-0.5679781834703853
 30
0.0
 10
26.45555089373089
 20
-0.2694068361327023
 30
0.0
 10
26.19375000000004
 20
-0.1201247499012158
 30
0.0
  0
LINE
  5
AD
330
1F
100
AcDbEntity
  8
외형선
  6
Continuous
370
    15
100
AcDbLine
 10
26.19374999999999
 20
-0.120124749901301
 30
0.0
 11
26.19375000000002
 21
0.3643962106679282
 31
0.0
  0
LINE
  5
AE
330
1F
100
AcDbEntity
  8
0
  6
Continuous
 62
     1
370
    25
100
AcDbLine
 10
33.33750000000001
 20
-1.389062499999996
 30
0.0
 11
33.33750000000001
 21
-1.258047999200561
 31
0.0
  0
LINE
  5
AF
330
1F
100
AcDbEntity
  8
외형선
  6
Continuous
370
    15
100
AcDbLine
 10
26.19374999999999
 20
1.383858617550281
 30
0.0
 11
26.19375000000002
 21
1.3890625
 31
0.0
  0
SPLINE
  5
B0
330
1F
100
AcDbEntity
  8
0
  6
Continuous
 62
     1
370
    25
100
AcDbSpline
210
0.0
220
0.0
230
1.0
 70
     8
 71
     3
 72
    11
 73
     7
 74
     0
 42
0.000000001
 43
0.00000001
 40
0.0
 40
0.0
 40
0.0
 40
0.0
 40
0.1349505848515232
 40
0.4232243632180076
 40
0.711570152107296
 40
1.0
 40
1.0
 40
1.0
 40
1.0
 10
30.61092693552315
 20
1.370656771996779
 30
0.0
 10
30.73356715979662
 20
1.374591994253323
 30
0.0
 10
31.11818446901508
 20
1.386933414896142
 30
0.0
 10
31.76487843586633
 20
1.248586986685922
 30
0.0
 10
32.55108776224917
 20
0.9828072792845309
 30
0.0
 10
33.07533711946682
 20
0.7202189473364217
 30
0.0
 10
33.33750000000001
 20
0.5889056466138751
 30
0.0
  0
LINE
  5
B1
330
1F
100
AcDbEntity
  8
0
  6
Continuous
 62
     1
370
    25
100
AcDbLine
 10
33.33750000000001
 20
0.1190167492005761
 30
0.0
 11
33.33750000000001
 21
0.5889056466138751
 31
0.0
  0
SPLINE
  5
B2
330
1F
100
AcDbEntity
  8
0
  6
Continuous
 62
     1
370
    25
100
AcDbSpline
210
0.0
220
0.0
230
1.0
 70
     8
 71
     3
 72
    10
 73
     6
 74
     0
 42
0.000000001
 43
0.00000001
 40
0.0
 40
0.0
 40
0.0
 40
0.0
 40
0.3806628094043517
 40
0.7613329951103243
 40
1.0
 40
1.0
 40
1.0
 40
1.0
 10
26.19375
 20
-1.340414126513556
 30
0.0
 10
26.46034834893543
 20
-1.365405550944953
 30
0.0
 10
26.99355021282143
 20
-1.415388884079601
 30
0.0
 10
27.69390509444429
 20
-1.326314020090383
 30
0.0
 10
28.12766538215407
 20
-1.181070396297352
 30
0.0
 10
28.29481870393057
 20
-1.125099495152749
 30
0.0
  0
SPLINE
  5
B3
330
1F
100
AcDbEntity
  8
외형선
  6
Continuous
370
    15
100
AcDbSpline
210
0.0
220
0.0
230
1.0
 70
    24
 71
     3
 72
    20
 73
    16
 74
     0
 42
0.000000001
 43
0.00000001
 40
0.0
 40
0.0
 40
0.0
 40
0.0
 40
0.0476406021126555
 40
0.1280824469657391
 40
0.2062572181583021
 40
0.2866990630113844
 40
0.3648738342040267
 40
0.4453156790570357
 40
0.5234904502495422
 40
0.6039322951025641
 40
0.6821070662951847
 40
0.7625489111483296
 40
0.8407236823407276
 40
0.9211655271939838
 40
0.9999999999999999
 40
0.9999999999999999
 40
0.9999999999999999
 40
0.9999999999999999
 10
26.19375
 20
-0.0599560455211086
 30
0.0
 10
26.19375000000002
 20
-0.0601049149485732
 30
0.0
 10
26.19375000000004
 20
-0.060505152554785
 30
0.0
 10
26.19374999999994
 20
-0.0875341814984699
 30
0.0
 10
26.19375000000002
 20
-0.1379294822390003
 30
0.0
 10
26.19375000000004
 20
-0.2101396574637386
 30
0.0
 10
26.19374999999993
 20
-0.302136209871239
 30
0.0
 10
26.19375000000004
 20
-0.410003210559176
 30
0.0
 10
26.19375000000008
 20
-0.5325351278784336
 30
0.0
 10
26.19374999999997
 20
-0.6640889532753418
 30
0.0
 10
26.19374999999997
 20
-0.8032799207945818
 30
0.0
 10
26.19375000000005
 20
-0.9437477517501668
 30
0.0
 10
26.19374999999996
 20
-1.08373407818312
 30
0.0
 10
26.19375000000005
 20
-1.218286286982657
 30
0.0
 10
26.19375000000004
 20
-1.299979655545051
 30
0.0
 10
26.19375000000002
 20
-1.340414126513554
 30
0.0
  0
SPLINE
  5
B4
330
1F
100
AcDbEntity
  8
0
  6
Continuous
 62
     1
370
    25
100
AcDbSpline
210
0.0
220
0.0
230
1.0
 70
     8
 71
     3
 72
     9
 73
     5
 74
     0
 42
0.000000001
 43
0.00000001
 40
0.0
 40
0.0
 40
0.0
 40
0.0
 40
0.6362130534221706
 40
1.0
 40
1.0
 40
1.0
 40
1.0
 10
33.33750000000001
 20
1.389062500000004
 30
0.0
 10
33.07062498193568
 20
1.360470581438868
 30
0.0
 10
32.65115069320674
 20
1.323558782428103
 30
0.0
 10
32.23169651432764
 20
1.1772831951518
 30
0.0
 10
32.07910455936391
 20
1.124070045897675
 30
0.0
  0
LINE
  5
B5
330
1F
100
AcDbEntity
  8
0
  6
Continuous
 62
     1
370
    25
100
AcDbLine
 10
33.33750000000001
 20
0.5889056466138751
 30
0.0
 11
33.33750000000001
 21
1.389062500000004
 31
0.0
  0
LINE
  5
B6
330
1F
100
AcDbEntity
  8
외형선
  6
Continuous
370
    15
100
AcDbLine
 10
26.19375000000002
 20
-1.389062500000001
 30
0.0
 11
26.19375000000002
 21
-1.340414126513554
 31
0.0
  0
LINE
  5
B7
330
1F
100
AcDbEntity
  8
외형선
  6
Continuous
370
    15
100
AcDbLine
 10
25.19375000000002
 20
-0.0000000000000005
 30
0.0
 11
25.19375000000002
 21
1.3890625
 31
0.0
  0
LINE
  5
B8
330
1F
100
AcDbEntity
  8
외형선
  6
Continuous
370
    15
100
AcDbLine
 10
25.19375000000002
 20
-1.389062500000001
 30
0.0
 11
25.19375000000002
 21
-0.0000000000000005
 31
0.0
  0
LINE
  5
B9
330
1F
100
AcDbEntity
  8
외형선
  6
Continuous
370
    15
100
AcDbLine
 10
21.49085583936525
 20
-0.0000000000000005
 30
0.0
 11
21.49085583936525
 21
2.381250000000006
 31
0.0
  0
LINE
  5
BA
330
1F
100
AcDbEntity
  8
외형선
  6
Continuous
370
    15
100
AcDbLine
 10
21.49085583936525
 20
-2.381250000000007
 30
0.0
 11
21.49085583936525
 21
-0.0000000000000005
 31
0.0
  0
SPLINE
  5
BF
330
1F
100
AcDbEntity
  8
외형선
  6
Continuous
370
    15
100
AcDbSpline
210
0.0
220
0.0
230
1.0
 70
    24
 71
     3
 72
    13
 73
     9
 74
     0
 42
0.000000001
 43
0.00000001
 40
0.0
 40
0.0
 40
0.0
 40
0.0
 40
0.1528688132656074
 40
0.3416979709553255
 40
0.5305271286458368
 40
0.7193562863359498
 40
0.9081854440260677
 40
1.0
 40
1.0
 40
1.0
 40
1.0
 10
26.19375000000003
 20
-1.340414126513553
 30
0.0
 10
26.19375000000005
 20
-1.273377242998915
 30
0.0
 10
26.19375000000007
 20
-1.123533945423753
 30
0.0
 10
26.19375000000002
 20
-0.8563115366903862
 30
0.0
 10
26.19375000000007
 20
-0.5770232216478527
 30
0.0
 10
26.19374999999997
 20
-0.3368421286664652
 30
0.0
 10
26.19375000000002
 20
-0.1752667458117752
 30
0.0
 10
26.19375000000002
 20
-0.1337177837596366
 30
0.0
 10
26.19375
 20
-0.1201247499011927
 30
0.0
  0
SPLINE
  5
C0
330
1F
100
AcDbEntity
  8
외형선
  6
Continuous
370
    15
100
AcDbSpline
210
0.0
220
0.0
230
1.0
 70
     8
 71
     3
 72
     8
 73
     4
 74
     0
 42
0.000000001
 43
0.00000001
 40
0.0
 40
0.0
 40
0.0
 40
0.0
 40
1.0
 40
1.0
 40
1.0
 40
1.0
 10
26.19375000000004
 20
-1.340414126513557
 30
0.0
 10
26.02552303199408
 20
-1.315063953354778
 30
0.0
 10
25.85968271190834
 20
-1.280100936377816
 30
0.0
 10
25.69387659494238
 20
-1.236249628704467
 30
0.0
  0
SPLINE
  5
C1
330
1F
100
AcDbEntity
  8
외형선
  6
Continuous
370
    15
100
AcDbSpline
210
0.0
220
0.0
230
1.0
 70
     8
 71
     3
 72
     8
 73
     4
 74
     0
 42
0.000000001
 43
0.00000001
 40
0.0
 40
0.0
 40
0.0
 40
0.0
 40
1.0
 40
1.0
 40
1.0
 40
1.0
 10
26.19375000000002
 20
-0.1201247499012031
 30
0.0
 10
26.02552303199406
 20
-0.0238530144793191
 30
0.0
 10
25.85968271190826
 20
0.0728278398657664
 30
0.0
 10
25.69387659494238
 20
0.1682881869230999
 30
0.0
  0
SPLINE
  5
C2
330
1F
100
AcDbEntity
  8
외형선
  6
Continuous
370
    15
100
AcDbSpline
210
0.0
220
0.0
230
1.0
 70
     8
 71
     3
 72
     8
 73
     4
 74
     0
 42
0.000000001
 43
0.00000001
 40
0.0
 40
0.0
 40
0.0
 40
0.0
 40
1.0
 40
1.0
 40
1.0
 40
1.0
 10
26.19375000000002
 20
1.383858617550009
 30
0.0
 10
26.02552303199406
 20
1.392215409200144
 30
0.0
 10
25.85968271190826
 20
1.390481628751125
 30
0.0
 10
25.69387659494238
 20
1.378830560673931
 30
0.0
  0
LINE
  5
C3
330
1F
100
AcDbEntity
  8
외형선
  6
Continuous
370
    15
100
AcDbLine
 10
25.69387659494238
 20
0.6333920255622275
 30
0.0
 11
25.69387659494238
 21
1.3890625
 31
0.0
  0
SPLINE
  5
C4
330
1F
100
AcDbEntity
  8
외형선
  6
Continuous
370
    15
100
AcDbSpline
210
0.0
220
0.0
230
1.0
 70
     8
 71
     3
 72
     8
 73
     4
 74
     0
 42
0.000000001
 43
0.00000001
 40
0.0
 40
0.0
 40
0.0
 40
0.0
 40
1.0
 40
1.0
 40
1.0
 40
1.0
 10
26.19375000000004
 20
0.36439621066793
 30
0.0
 10
26.02552303199408
 20
0.4576456167177552
 30
0.0
 10
25.85968271190834
 20
0.5477998236934134
 30
0.0
 10
25.69387659494238
 20
0.6333888887834334
 30
0.0
  0
LINE
  5
C5
330
1F
100
AcDbEntity
  8
외형선
  6
Continuous
370
    15
100
AcDbLine
 10
25.69387659494238
 20
-1.236248021579984
 30
0.0
 11
25.69387659494238
 21
0.1682948784233332
 31
0.0
  0
SPLINE
  5
C6
330
1F
100
AcDbEntity
  8
외형선
  6
Continuous
370
    15
100
AcDbSpline
210
0.0
220
0.0
230
1.0
 70
     8
 71
     3
 72
     9
 73
     5
 74
     0
 42
0.000000001
 43
0.00000001
 40
0.0
 40
0.0
 40
0.0
 40
0.0
 40
0.2494061432777284
 40
1.0
 40
1.0
 40
1.0
 40
1.0
 10
25.9848386306567
 20
-1.387250933229477
 30
0.0
 10
25.96059994355797
 20
-1.387826082318782
 30
0.0
 10
25.86341433786204
 20
-1.390132156586825
 30
0.0
 10
25.7665684919403
 20
-1.383676292555602
 30
0.0
 10
25.69387659494238
 20
-1.378830560673932
 30
0.0
  0
LINE
  5
C7
330
1F
100
AcDbEntity
  8
외형선
  6
Continuous
370
    15
100
AcDbLine
 10
25.69387659494238
 20
-1.389062500000001
 30
0.0
 11
25.69387659494238
 21
-1.378829743950546
 31
0.0
  0
SPLINE
  5
C8
330
1F
100
AcDbEntity
  8
외형선
  6
Continuous
370
    15
100
AcDbSpline
210
0.0
220
0.0
230
1.0
 70
    24
 71
     3
 72
    14
 73
    10
 74
     0
 42
0.000000001
 43
0.00000001
 40
0.0
 40
0.0
 40
0.0
 40
0.0
 40
0.0232130022999932
 40
0.1946025097228561
 40
0.3659920171453573
 40
0.537381524567863
 40
0.7087710319903545
 40
0.8801605394126237
 40
1.0
 40
1.0
 40
1.0
 40
1.0
 10
26.19375000000004
 20
0.2381025613555491
 30
0.0
 10
26.19375000000004
 20
0.2362517938900259
 30
0.0
 10
26.19375000000003
 20
0.2207361794490481
 30
0.0
 10
26.19375000000007
 20
0.2820874323963383
 30
0.0
 10
26.19374999999996
 20
0.4228726247235076
 30
0.0
 10
26.19375000000005
 20
0.6453824700516599
 30
0.0
 10
26.19374999999999
 20
0.9122372753117405
 30
0.0
 10
26.19375000000002
 20
1.170719791560141
 30
0.0
 10
26.19375000000002
 20
1.321721902187823
 30
0.0
 10
26.19375000000003
 20
1.383858617531942
 30
0.0
  0
LINE
  5
C9
330
1F
100
AcDbEntity
  8
중심선
 48
0.5
100
AcDbLine
 10
-36.3375
 20
-0.0000000000000044
 30
0.0
 11
36.33749999999999
 21
0.0000000000000045
 31
0.0
  0
LINE
  5
CA
330
1F
100
AcDbEntity
  8
참조1
100
AcDbLine
 10
-6.156619342984393
 20
0.0010749287238892
 30
0.0
 11
-6.156619342984386
 21
-39.99892507127611
 31
0.0
  0
LINE
  5
CB
330
1F
100
AcDbEntity
  8
참조1
100
AcDbLine
 10
-6.156619342984386
 20
-39.99892507127611
 30
0.0
 11
-29.25297615729306
 21
-39.9989250712761
 31
0.0
  0
CIRCLE
  5
CC
330
1F
100
AcDbEntity
  8
해칭선
100
AcDbCircle
 10
-0.0000000000000018
 20
0.0
 30
0.0
 40
3.000000000000006
  0
INSERT
  5
CD
330
1F
100
AcDbEntity
  8
0
  6
Continuous
 62
     7
100
AcDbBlockReference
 66
     1
  2
블럭10
 10
-13.9402729321252
 20
-52.04717430164393
 30
0.0
  0
ATTRIB
  5
CE
330
CD
100
AcDbEntity
  8
FORMAT
 62
     2
100
AcDbText
 10
-23.12156822086649
 20
-49.97180738881175
 30
0.0
 40
4.233333333333333
  1
E2006007 [ 4 FLUTE ]
 41
0.75
  7
SLDTEXTSTYLE0
 11
-23.12156822086649
 21
-52.08847405547841
 31
0.0
100
AcDbAttribute
  2
AUTOATTR0
 70
     0
 74
     1
  0
SEQEND
  5
CF
330
CD
100
AcDbEntity
  8
0
  6
Continuous
 62
     7
  0
HATCH
  5
D0
330
1F
100
AcDbEntity
  8
중심선
100
AcDbHatch
 10
0.0
 20
0.0
 30
0.0
210
0.0
220
0.0
230
1.0
  2
SOLID
 70
     1
 71
     0
 91
        1
 92
        0
 93
        4
 72
     1
 10
-8.22536362774437
 20
-35.8
 11
-11.67163887158165
 21
-35.8
 72
     1
 10
-11.67163887158165
 20
-35.8
 11
-13.7998687307857
 21
-38.3363255805726
 72
     1
 10
-13.7998687307857
 20
-38.3363255805726
 11
-10.35356040183525
 21
-38.33628615127011
 72
     1
 10
-10.35356040183525
 20
-38.33628615127011
 11
-8.22536362774437
 21
-35.8
 97
        0
 75
     0
 76
     1
 98
        1
 10
6.156619342984392
 20
-0.0010749287238937
  0
HATCH
  5
D1
330
1F
100
AcDbEntity
  8
중심선
100
AcDbHatch
 10
0.0
 20
0.0
 30
0.0
210
0.0
220
0.0
230
1.0
  2
SOLID
 70
     1
 71
     0
 91
        1
 92
        0
 93
        4
 72
     1
 10
-3.212599636708392
 20
-35.8
 11
-6.658874880545675
 21
-35.8
 72
     1
 10
-6.658874880545675
 20
-35.8
 11
-11.19001288890309
 21
-41.20000000000002
 72
     1
 10
-11.19001288890309
 20
-41.20000000000002
 11
-7.743737645065808
 21
-41.20000000000002
 72
     1
 10
-7.743737645065808
 20
-41.20000000000002
 11
-3.212599636708392
 21
-35.8
 97
        0
 75
     0
 76
     1
 98
        1
 10
6.156619342984392
 20
-0.0010749287238937
  0
HATCH
  5
D2
330
1F
100
AcDbEntity
  8
중심선
100
AcDbHatch
 10
0.0
 20
0.0
 30
0.0
210
0.0
220
0.0
230
1.0
  2
SOLID
 70
     1
 71
     0
 91
        1
 92
        0
 93
        4
 72
     1
 10
1.800164354327476
 20
-35.79999999999998
 11
-1.646110889509639
 21
-35.80000000000003
 72
     1
 10
-1.646110889509639
 20
-35.80000000000003
 11
-8.69454779139889
 21
-44.20000000000002
 72
     1
 10
-8.69454779139889
 20
-44.20000000000002
 11
-5.248272547561607
 21
-44.20000000000002
 72
     1
 10
-5.248272547561607
 20
-44.20000000000002
 11
1.800164354327476
 21
-35.79999999999998
 97
        0
 75
     0
 76
     1
 98
        1
 10
6.156619342984392
 20
-0.0010749287238937
  0
HATCH
  5
D3
330
1F
100
AcDbEntity
  8
중심선
100
AcDbHatch
 10
0.0
 20
0.0
 30
0.0
210
0.0
220
0.0
230
1.0
  2
SOLID
 70
     1
 71
     0
 91
        1
 92
        0
 93
        6
 72
     3
 10
6.600054785339675
 20
-40.00000000005127
 11
3.960054785062284
 21
1.540882976769353E-10
 40
0.3939339440162627
 50
17.09539180608437
 51
320.0019657685075
 73
     0
 72
     1
 10
8.28305444104027
 20
-38.58789400463827
 11
10.58835631474131
 21
-36.65356729459035
 72
     3
 10
6.600054785286829
 20
-40.00000000000015
 11
6.60005478528683
 21
-1.278976924368180E-13
 40
0.636358354079598
 50
39.99873849337431
 51
368.4976242363725
 73
     1
 72
     1
 10
13.02538727718744
 20
-39.03999999993002
 11
5.280122092122751
 21
-39.03999999993002
 72
     1
 10
5.280122092122751
 20
-39.03999999993002
 11
5.280097047676817
 21
-40.95999999992991
 72
     1
 10
5.280097047676818
 20
-40.95999999992991
 11
9.721476817148854
 21
-40.95999999992988
 97
        0
 75
     0
 76
     1
 98
        1
 10
6.156619342984392
 20
-0.0010749287238937
  0
DIMENSION
  5
D4
330
1F
100
AcDbEntity
  8
치수문자_일반주서
100
AcDbDimension
  2
_D
 10
50.4649551921825
 20
-1.38906249999993
 30
0.0
 11
50.46495519218244
 21
22.43056250000006
 31
0.0
 70
   160
  1
%%c<>
 71
     2
 42
2.778125
 52
-270.0
  3
SLDDIMSTYLE0
100
AcDbAlignedDimension
 13
33.33750000000001
 23
1.389062500000004
 33
0.0
 14
33.33750000000001
 24
-1.389062499999996
 34
0.0
 50
90.0000000000002
100
AcDbRotatedDimension
1001
ACAD
1000
DSTYLE
1002
{
1070
   171
1070
     6
1070
   273
1070
     7
1002
}
  0
DIMENSION
  5
E9
330
1F
100
AcDbEntity
  8
치수문자_일반주서
100
AcDbDimension
  2
_D_1
 10
26.19374999999999
 20
19.32700659513947
 30
0.0
 11
6.902249999999988
 21
19.32700659513947
 31
0.0
 70
   160
  1
<>
 71
     2
 42
7.143750000000026
  3
SLDDIMSTYLE0
100
AcDbAlignedDimension
 13
33.33750000000001
 23
1.389062500000004
 33
0.0
 14
26.19374999999999
 24
1.383858617550281
 34
0.0
100
AcDbRotatedDimension
1001
ACAD
1000
DSTYLE
1002
{
1070
   171
1070
     6
1070
   273
1070
     7
1002
}
  0
DIMENSION
  5
FE
330
1F
100
AcDbEntity
  8
치수문자_일반주서
100
AcDbDimension
  2
_D_2
 10
-33.3375
 20
31.60705825953612
 30
0.0
 11
-1.701209400474615
 21
31.60705825953612
 31
0.0
 70
   160
  1
<>
 71
     2
 42
66.67500000000001
  3
SLDDIMSTYLE0
100
AcDbAlignedDimension
 13
33.33750000000001
 23
1.389062500000004
 33
0.0
 14
-33.3375
 24
1.389062499999999
 34
0.0
100
AcDbRotatedDimension
1001
ACAD
1000
DSTYLE
1002
{
1070
   171
1070
     6
1070
   273
1070
     7
1002
}
  0
DIMENSION
  5
112
330
1F
100
AcDbEntity
  8
치수문자_일반주서
100
AcDbDimension
  2
_D_3
 10
-46.33749999999998
 20
-2.381250000000097
 30
0.0
 11
-46.33749999999999
 21
0.0000000000000008
 31
0.0
 70
   160
  1
%%c<>
 71
     2
 42
4.762500000000006
 52
-270.0
  3
SLDDIMSTYLE0
100
AcDbAlignedDimension
 13
-21.49085583936523
 23
2.381250000000003
 33
0.0
 14
-21.49085583936523
 24
-2.381250000000004
 34
0.0
 50
90.0000000000002
100
AcDbRotatedDimension
1001
ACAD
1000
DSTYLE
1002
{
1070
   171
1070
     6
1070
   273
1070
     7
1002
}
  0
LINE
  5
126
330
1F
100
AcDbEntity
  8
참조1
100
AcDbLine
 10
68.7193644723612
 20
7.441074928723896
 30
0.0
 11
68.7193644723612
 21
-7.438925071276109
 31
0.0
  0
LINE
  5
127
330
1F
100
AcDbEntity
  8
참조1
100
AcDbLine
 10
81.41936447236121
 20
5.441074928723896
 30
0.0
 11
68.7193644723612
 21
5.441074928723896
 31
0.0
  0
SOLID
  5
128
330
1F
100
AcDbEntity
  8
참조1
100
AcDbTrace
 10
68.7193644723612
 20
5.441074928723896
 30
0.0
 11
75.0693644723612
 21
4.425074928723896
 31
0.0
 12
75.0693644723612
 22
6.457074928723896
 32
0.0
 13
75.0693644723612
 23
6.457074928723896
 33
0.0
  0
LINE
  5
129
330
1F
100
AcDbEntity
  8
참조1
100
AcDbLine
 10
81.41936447236121
 20
-5.438925071276109
 30
0.0
 11
68.7193644723612
 21
-5.438925071276109
 31
0.0
  0
SOLID
  5
12A
330
1F
100
AcDbEntity
  8
참조1
100
AcDbTrace
 10
68.7193644723612
 20
-5.438925071276109
 30
0.0
 11
75.0693644723612
 21
-6.454925071276109
 31
0.0
 12
75.0693644723612
 22
-4.422925071276109
 32
0.0
 13
75.0693644723612
 23
-4.422925071276109
 33
0.0
  0
MTEXT
  5
12B
330
1F
100
AcDbEntity
  8
참조1
100
AcDbMText
 10
78.1037146049872
 20
11.01136670591223
 30
0.0
 40
3.5
 41
0.0
 71
     1
 72
     1
  1
A
  7
SLDTEXTSTYLE0
 73
     1
 44
1.0
  0
MTEXT
  5
12C
330
1F
100
AcDbEntity
  8
참조1
100
AcDbMText
 10
78.1037146049872
 20
0.1313667059122219
 30
0.0
 40
3.5
 41
0.0
 71
     1
 72
     1
  1
A
  7
SLDTEXTSTYLE0
 73
     1
 44
1.0
  0
INSERT
  5
133
330
1F
100
AcDbEntity
  8
해칭선
100
AcDbBlockReference
  2
SW_DOWELSYMBOL_0
 10
-0.0000000000000018
 20
0.0
 30
0.0
  0
LINE
  5
4BF
330
1F
100
AcDbEntity
  8
0
  6
Continuous
 62
     1
370
    25
100
AcDbLine
 10
-31.29869916528101
 20
0.3920202388506425
 30
0.0
 11
-31.34551157574511
 21
0.4168895585321565
 31
0.0
  0
LINE
  5
4C0
330
1F
100
AcDbEntity
  8
0
  6
Continuous
 62
     1
370
    25
100
AcDbLine
 10
-32.86407215067472
 20
-0.3875022976393637
 30
0.0
 11
-32.83128189361982
 21
-0.4052071148691873
 31
0.0
  0
LINE
  5
4C1
330
1F
100
AcDbEntity
  8
0
  6
Continuous
 62
     1
370
    25
100
AcDbLine
 10
-29.76398913358943
 20
1.389062500000003
 30
0.0
 11
-30.61092693552316
 21
1.389062500000003
 31
0.0
  0
LINE
  5
4C2
330
1F
100
AcDbEntity
  8
0
  6
Continuous
 62
     1
370
    25
100
AcDbLine
 10
-26.83292564651764
 20
-1.389062499999996
 30
0.0
 11
-26.19374999999999
 21
-1.389062499999996
 31
0.0
  0
LINE
  5
4C3
330
1F
100
AcDbEntity
  8
0
  6
Continuous
 62
     1
370
    25
100
AcDbLine
 10
-30.61092693552316
 20
-1.389062499999996
 30
0.0
 11
-29.76398913358943
 21
-1.389062499999996
 31
0.0
  0
LINE
  5
4C4
330
1F
100
AcDbEntity
  8
0
  6
Continuous
 62
     1
370
    25
100
AcDbLine
 10
-26.19374999999999
 20
1.389062500000003
 30
0.0
 11
-26.83292564651762
 21
1.389062500000003
 31
0.0
  0
LINE
  5
4C5
330
1F
100
AcDbEntity
  8
외형선
  6
Continuous
370
    15
100
AcDbLine
 10
-21.49085583936523
 20
2.381250000000006
 30
0.0
 11
-25.19374999999999
 21
1.389062500000003
 31
0.0
  0
LINE
  5
4C6
330
1F
100
AcDbEntity
  8
외형선
  6
Continuous
370
    15
100
AcDbLine
 10
-25.19374999999999
 20
-1.389062499999996
 30
0.0
 11
-21.49085583936523
 21
-2.381250000000007
 31
0.0
  0
LINE
  5
4C9
330
1F
100
AcDbEntity
  8
외형선
  6
Continuous
370
    15
100
AcDbLine
 10
-25.98483863065669
 20
1.389062500000003
 30
0.0
 11
-26.19374999999999
 21
1.389062500000003
 31
0.0
  0
LINE
  5
4CA
330
1F
100
AcDbEntity
  8
외형선
  6
Continuous
370
    15
100
AcDbLine
 10
-25.19374999999999
 20
1.389062500000003
 30
0.0
 11
-25.69387659494236
 21
1.389062500000003
 31
0.0
  0
LINE
  5
4CB
330
1F
100
AcDbEntity
  8
외형선
  6
Continuous
370
    15
100
AcDbLine
 10
-25.69387659494236
 20
-1.389062499999996
 30
0.0
 11
-25.19374999999999
 21
-1.389062499999996
 31
0.0
  0
LINE
  5
4CC
330
1F
100
AcDbEntity
  8
외형선
  6
Continuous
370
    15
100
AcDbLine
 10
-26.19374999999999
 20
-1.389062499999996
 30
0.0
 11
-25.98483863065669
 21
-1.389062499999996
 31
0.0
  0
SPLINE
  5
4CD
330
1F
100
AcDbEntity
  8
0
  6
Continuous
 62
     1
370
    25
100
AcDbSpline
210
0.0
220
0.0
230
1.0
 70
     8
 71
     3
 72
    15
 73
    11
 74
     0
 42
0.000000001
 43
0.00000001
 40
0.0
 40
0.0
 40
0.0
 40
0.0
 40
0.1358992629172302
 40
0.2718011592252967
 40
0.4077080149603865
 40
0.5436221496682943
 40
0.6795458733812849
 40
0.8130604979877206
 40
0.9466028205051903
 40
1.0
 40
1.0
 40
1.0
 40
1.0
 10
-26.19374999999999
 20
-0.3643962106679325
 30
0.0
 10
-26.46034830453251
 20
-0.2119242283334536
 30
0.0
 10
-26.99355007961173
 20
0.0930226908645523
 30
0.0
 10
-27.79336797730164
 20
0.5509147149044203
 30
0.0
 10
-28.5932219690016
 20
0.9457359415542129
 30
0.0
 10
-29.3931232226844
 20
1.237183899591921
 30
0.0
 10
-30.18835803994735
 20
1.393953316662573
 30
0.0
 10
-30.97889698655381
 20
1.392835403773715
 30
0.0
 10
-31.60757491124416
 20
1.295959309086639
 30
0.0
 10
-31.97434171958476
 20
1.162259812778773
 30
0.0
 10
-32.07910455936391
 20
1.12407004589768
 30
0.0
  0
SPLINE
  5
4CE
330
1F
100
AcDbEntity
  8
외형선
  6
Continuous
370
    15
100
AcDbSpline
210
0.0
220
0.0
230
1.0
 70
    24
 71
     3
 72
    13
 73
     9
 74
     0
 42
0.000000001
 43
0.00000001
 40
0.0
 40
0.0
 40
0.0
 40
0.0
 40
0.1719223117044366
 40
0.3423686342336754
 40
0.5128149567629103
 40
0.6832612792921517
 40
0.8537076018212615
 40
1.0
 40
1.0
 40
1.0
 40
1.0
 10
-26.19374999999999
 20
-1.383858617550276
 30
0.0
 10
-26.19374999999999
 20
-1.292879938287284
 30
0.0
 10
-26.19375000000002
 20
-1.111703650841799
 30
0.0
 10
-26.19374999999996
 20
-0.8257220814662091
 30
0.0
 10
-26.19374999999999
 20
-0.5695663341906346
 30
0.0
 10
-26.19375000000004
 20
-0.3711759511589484
 30
0.0
 10
-26.19374999999999
 20
-0.2481301263036307
 30
0.0
 10
-26.19375000000002
 20
-0.2414996859015538
 30
0.0
 10
-26.19375000000002
 20
-0.2384372784218719
 30
0.0
  0
SPLINE
  5
4CF
330
1F
100
AcDbEntity
  8
0
  6
Continuous
 62
     1
370
    25
100
AcDbSpline
210
0.0
220
0.0
230
1.0
 70
     8
 71
     3
 72
    38
 73
    34
 74
     0
 42
0.000000001
 43
0.00000001
 40
0.0
 40
0.0
 40
0.0
 40
0.0
 40
0.0625
 40
0.0625
 40
0.125
 40
0.125
 40
0.1875
 40
0.1875
 40
0.25
 40
0.25
 40
0.3125
 40
0.3125
 40
0.375
 40
0.375
 40
0.4375
 40
0.4375
 40
0.5
 40
0.5
 40
0.5625
 40
0.5625
 40
0.625
 40
0.625
 40
0.6875
 40
0.6875
 40
0.75
 40
0.75
 40
0.8125
 40
0.8125
 40
0.875
 40
0.875
 40
0.9375
 40
0.9375
 40
1.0
 40
1.0
 40
1.0
 40
1.0
 10
-33.3375
 20
1.389062499999999
 30
0.0
 10
-33.19093372225776
 20
1.376629459385237
 30
0.0
 10
-33.04076823935525
 20
1.361313660486351
 30
0.0
 10
-32.74086288434989
 20
1.315129483823627
 30
0.0
 10
-32.59256246900642
 20
1.284390755197785
 30
0.0
 10
-32.29783333141386
 20
1.208832036313763
 30
0.0
 10
-32.1473088151392
 20
1.163614315820046
 30
0.0
 10
-31.84762392026212
 20
1.060394543055762
 30
0.0
 10
-31.70068818939807
 20
1.002729663751735
 30
0.0
 10
-31.40457038164532
 20
0.8763715028077407
 30
0.0
 10
-31.25379842902267
 20
0.8073886613210753
 30
0.0
 10
-30.95455391451062
 20
0.6612547461123711
 30
0.0
 10
-30.80847919035539
 20
0.5845635072621086
 30
0.0
 10
-30.51118396455271
 20
0.4245133260929009
 30
0.0
 10
-30.36027679119942
 20
0.3411682321281099
 30
0.0
 10
-30.06169150028082
 20
0.1720995052570672
 30
0.0
 10
-29.91597202234274
 20
0.0867738694856556
 30
0.0
 10
-29.61771347771954
 20
-0.0851936377936176
 30
0.0
 10
-29.46678363784175
 20
-0.1715230153173998
 30
0.0
 10
-29.1690748051435
 20
-0.3404415093808048
 30
0.0
 10
-29.02320395270313
 20
-0.4228802125356615
 30
0.0
 10
-28.72419852818535
 20
-0.5833059968395652
 30
0.0
 10
-28.57335863278268
 20
-0.6608314227484179
 30
0.0
 10
-28.27674136096262
 20
-0.8065842694100048
 30
0.0
 10
-28.1302128799185
 20
-0.8749904367252078
 30
0.0
 10
-27.83067883481888
 20
-1.001954514759737
 30
0.0
 10
-27.68004126958814
 20
-1.060099188879003
 30
0.0
 10
-27.3847280168226
 20
-1.162898774752629
 30
0.0
 10
-27.23703724468137
 20
-1.207960570189352
 30
0.0
 10
-26.93719413009577
 20
-1.284099455940842
 30
0.0
 10
-26.78687077452721
 20
-1.314951626720754
 30
0.0
 10
-26.49307085538796
 20
-1.360942357788846
 30
0.0
 10
-26.34371593820747
 20
-1.376408955257022
 30
0.0
 10
-26.19375000000002
 20
-1.383858617550006
 30
0.0
  0
LINE
  5
4D0
330
1F
100
AcDbEntity
  8
0
  6
Continuous
 62
     1
370
    25
100
AcDbLine
 10
-33.3375
 20
1.258047999200565
 30
0.0
 11
-33.3375
 21
-0.1190167492005706
 31
0.0
  0
SPLINE
  5
4D1
330
1F
100
AcDbEntity
  8
0
  6
Continuous
 62
     1
370
    25
100
AcDbSpline
210
0.0
220
0.0
230
1.0
 70
     8
 71
     3
 72
    16
 73
    12
 74
     0
 42
0.000000001
 43
0.00000001
 40
0.0
 40
0.0
 40
0.0
 40
0.0
 40
0.0246945883868353
 40
0.1476620342540411
 40
0.2706339675352609
 40
0.3936124870137325
 40
0.5165996828646147
 40
0.6374070653941053
 40
0.7582395096885077
 40
0.8791021378155646
 40
0.9999999999999999
 40
0.9999999999999999
 40
0.9999999999999999
 40
0.9999999999999999
 10
-26.83292564651764
 20
-1.376796602261164
 30
0.0
 10
-26.88646555319146
 20
-1.380607297415418
 30
0.0
 10
-27.20660903602211
 20
-1.403393463744019
 30
0.0
 10
-27.79336806560485
 20
-1.295125002569146
 30
0.0
 10
-28.59322197678201
 20
-1.054585680735025
 30
0.0
 10
-29.39312310324257
 20
-0.6853454510565967
 30
0.0
 10
-30.18835850648744
 20
-0.2473177147022788
 30
0.0
 10
-30.97889527334021
 20
0.2159760603207289
 30
0.0
 10
-31.7648782544852
 20
0.6508722170029643
 30
0.0
 10
-32.55108780761457
 20
1.026591596003138
 30
0.0
 10
-33.07533713459008
 20
1.180888369088967
 30
0.0
 10
-33.3375
 20
1.258047999200562
 30
0.0
  0
SPLINE
  5
4D2
330
1F
100
AcDbEntity
  8
0
  6
Continuous
 62
     1
370
    25
100
AcDbSpline
210
0.0
220
0.0
230
1.0
 70
     8
 71
     3
 72
    14
 73
    10
 74
     0
 42
0.000000001
 43
0.00000001
 40
0.0
 40
0.0
 40
0.0
 40
0.0
 40
0.1587547535228175
 40
0.3174839957549602
 40
0.4761903025597095
 40
0.6348762793063252
 40
0.7935445576234978
 40
0.9493620767837808
 40
0.9999999999999999
 40
0.9999999999999999
 40
0.9999999999999999
 40
0.9999999999999999
 10
-33.3375
 20
-0.1190167492005706
 30
0.0
 10
-33.07062583720008
 20
-0.2711615968991999
 30
0.0
 10
-32.53692039727249
 20
-0.5754268431927393
 30
0.0
 10
-31.7364556719313
 20
-0.9654280756700565
 30
0.0
 10
-30.93612631564925
 20
-1.249924365547719
 30
0.0
 10
-30.13592515363919
 20
-1.399439407050141
 30
0.0
 10
-29.3405796944294
 20
-1.387297228763958
 30
0.0
 10
-28.72691185329798
 20
-1.286301295065423
 30
0.0
 10
-28.37992513858895
 20
-1.156850312010564
 30
0.0
 10
-28.29481870393058
 20
-1.125099495152748
 30
0.0
  0
SPLINE
  5
4D3
330
1F
100
AcDbEntity
  8
0
  6
Continuous
 62
     1
370
    25
100
AcDbSpline
210
0.0
220
0.0
230
1.0
 70
     8
 71
     3
 72
    12
 73
     8
 74
     0
 42
0.000000001
 43
0.00000001
 40
0.0
 40
0.0
 40
0.0
 40
0.0
 40
0.1199216448988956
 40
0.3399763013671633
 40
0.5600011890564385
 40
0.7800058812651569
 40
1.0
 40
1.0
 40
1.0
 40
1.0
 10
-29.76398913358943
 20
1.369999984687412
 30
0.0
 10
-29.62125811289939
 20
1.373165239515534
 30
0.0
 10
-29.21661752824539
 20
1.382138695727358
 30
0.0
 10
-28.5501738017979
 20
1.233280509474403
 30
0.0
 10
-27.76462344907056
 20
0.9542013872569136
 30
0.0
 10
-26.97916526400578
 20
0.5679781834703889
 30
0.0
 10
-26.45555089373087
 20
0.2694068361327041
 30
0.0
 10
-26.19375000000004
 20
0.1201247499012205
 30
0.0
  0
LINE
  5
4D4
330
1F
100
AcDbEntity
  8
외형선
  6
Continuous
370
    15
100
AcDbLine
 10
-26.19374999999999
 20
0.1201247499013057
 30
0.0
 11
-26.19374999999999
 21
-0.3643962106679254
 31
0.0
  0
LINE
  5
4D5
330
1F
100
AcDbEntity
  8
0
  6
Continuous
 62
     1
370
    25
100
AcDbLine
 10
-33.3375
 20
1.389062499999999
 30
0.0
 11
-33.3375
 21
1.258047999200565
 31
0.0
  0
LINE
  5
4D6
330
1F
100
AcDbEntity
  8
외형선
  6
Continuous
370
    15
100
AcDbLine
 10
-26.19374999999999
 20
-1.383858617550276
 30
0.0
 11
-26.19374999999999
 21
-1.389062499999996
 31
0.0
  0
SPLINE
  5
4D7
330
1F
100
AcDbEntity
  8
0
  6
Continuous
 62
     1
370
    25
100
AcDbSpline
210
0.0
220
0.0
230
1.0
 70
     8
 71
     3
 72
    11
 73
     7
 74
     0
 42
0.000000001
 43
0.00000001
 40
0.0
 40
0.0
 40
0.0
 40
0.0
 40
0.1349505848515232
 40
0.4232243632180076
 40
0.711570152107296
 40
1.0
 40
1.0
 40
1.0
 40
1.0
 10
-30.61092693552313
 20
-1.370656771996776
 30
0.0
 10
-30.73356715979661
 20
-1.37459199425332
 30
0.0
 10
-31.11818446901506
 20
-1.386933414896136
 30
0.0
 10
-31.76487843586633
 20
-1.248586986685917
 30
0.0
 10
-32.55108776224917
 20
-0.9828072792845276
 30
0.0
 10
-33.0753371194668
 20
-0.7202189473364186
 30
0.0
 10
-33.3375
 20
-0.5889056466138726
 30
0.0
  0
LINE
  5
4D8
330
1F
100
AcDbEntity
  8
0
  6
Continuous
 62
     1
370
    25
100
AcDbLine
 10
-33.3375
 20
-0.1190167492005706
 30
0.0
 11
-33.3375
 21
-0.5889056466138726
 31
0.0
  0
SPLINE
  5
4D9
330
1F
100
AcDbEntity
  8
0
  6
Continuous
 62
     1
370
    25
100
AcDbSpline
210
0.0
220
0.0
230
1.0
 70
     8
 71
     3
 72
    10
 73
     6
 74
     0
 42
0.000000001
 43
0.00000001
 40
0.0
 40
0.0
 40
0.0
 40
0.0
 40
0.3806628094043517
 40
0.7613329951103243
 40
1.0
 40
1.0
 40
1.0
 40
1.0
 10
-26.19374999999999
 20
1.340414126513559
 30
0.0
 10
-26.4603483489354
 20
1.365405550944954
 30
0.0
 10
-26.99355021282141
 20
1.415388884079602
 30
0.0
 10
-27.69390509444428
 20
1.326314020090384
 30
0.0
 10
-28.12766538215404
 20
1.181070396297356
 30
0.0
 10
-28.29481870393055
 20
1.125099495152751
 30
0.0
  0
SPLINE
  5
4DA
330
1F
100
AcDbEntity
  8
외형선
  6
Continuous
370
    15
100
AcDbSpline
210
0.0
220
0.0
230
1.0
 70
    24
 71
     3
 72
    20
 73
    16
 74
     0
 42
0.000000001
 43
0.00000001
 40
0.0
 40
0.0
 40
0.0
 40
0.0
 40
0.0476406021126555
 40
0.1280824469657391
 40
0.2062572181583021
 40
0.2866990630113844
 40
0.3648738342040267
 40
0.4453156790570357
 40
0.5234904502495422
 40
0.6039322951025641
 40
0.6821070662951847
 40
0.7625489111483296
 40
0.8407236823407276
 40
0.9211655271939838
 40
0.9999999999999999
 40
0.9999999999999999
 40
0.9999999999999999
 40
0.9999999999999999
 10
-26.19374999999999
 20
0.0599560455211098
 30
0.0
 10
-26.19374999999999
 20
0.0601049149485761
 30
0.0
 10
-26.19375000000004
 20
0.0605051525547872
 30
0.0
 10
-26.19374999999993
 20
0.0875341814984744
 30
0.0
 10
-26.19374999999999
 20
0.1379294822390037
 30
0.0
 10
-26.19375000000004
 20
0.2101396574637399
 30
0.0
 10
-26.19374999999993
 20
0.3021362098712409
 30
0.0
 10
-26.19375000000004
 20
0.4100032105591801
 30
0.0
 10
-26.19375000000007
 20
0.5325351278784375
 30
0.0
 10
-26.19374999999996
 20
0.6640889532753441
 30
0.0
 10
-26.19374999999996
 20
0.803279920794585
 30
0.0
 10
-26.19375000000004
 20
0.9437477517501712
 30
0.0
 10
-26.19374999999993
 20
1.083734078183122
 30
0.0
 10
-26.19375000000004
 20
1.218286286982659
 30
0.0
 10
-26.19375000000004
 20
1.299979655545057
 30
0.0
 10
-26.19374999999999
 20
1.340414126513556
 30
0.0
  0
SPLINE
  5
4DB
330
1F
100
AcDbEntity
  8
0
  6
Continuous
 62
     1
370
    25
100
AcDbSpline
210
0.0
220
0.0
230
1.0
 70
     8
 71
     3
 72
     9
 73
     5
 74
     0
 42
0.000000001
 43
0.00000001
 40
0.0
 40
0.0
 40
0.0
 40
0.0
 40
0.6362130534221706
 40
1.0
 40
1.0
 40
1.0
 40
1.0
 10
-33.3375
 20
-1.389062500000003
 30
0.0
 10
-33.07062498193564
 20
-1.360470581438863
 30
0.0
 10
-32.65115069320674
 20
-1.3235587824281
 30
0.0
 10
-32.23169651432763
 20
-1.177283195151796
 30
0.0
 10
-32.07910455936391
 20
-1.124070045897673
 30
0.0
  0
LINE
  5
4DC
330
1F
100
AcDbEntity
  8
0
  6
Continuous
 62
     1
370
    25
100
AcDbLine
 10
-33.3375
 20
-0.5889056466138726
 30
0.0
 11
-33.3375
 21
-1.389062500000003
 31
0.0
  0
LINE
  5
4DD
330
1F
100
AcDbEntity
  8
외형선
  6
Continuous
370
    15
100
AcDbLine
 10
-26.19374999999999
 20
1.389062500000003
 30
0.0
 11
-26.19374999999999
 21
1.340414126513556
 31
0.0
  0
LINE
  5
4DE
330
1F
100
AcDbEntity
  8
외형선
  6
Continuous
370
    15
100
AcDbLine
 10
-25.19374999999999
 20
0.000000000000005
 30
0.0
 11
-25.19374999999999
 21
-1.389062499999996
 31
0.0
  0
LINE
  5
4DF
330
1F
100
AcDbEntity
  8
외형선
  6
Continuous
370
    15
100
AcDbLine
 10
-25.19374999999999
 20
1.389062500000003
 30
0.0
 11
-25.19374999999999
 21
0.000000000000005
 31
0.0
  0
LINE
  5
4E0
330
1F
100
AcDbEntity
  8
외형선
  6
Continuous
370
    15
100
AcDbLine
 10
-21.49085583936523
 20
0.0000000000000015
 30
0.0
 11
-21.49085583936523
 21
-2.381250000000007
 31
0.0
  0
LINE
  5
4E1
330
1F
100
AcDbEntity
  8
외형선
  6
Continuous
370
    15
100
AcDbLine
 10
-21.49085583936523
 20
2.381250000000006
 30
0.0
 11
-21.49085583936523
 21
0.0000000000000015
 31
0.0
  0
SPLINE
  5
4E2
330
1F
100
AcDbEntity
  8
외형선
  6
Continuous
370
    15
100
AcDbSpline
210
0.0
220
0.0
230
1.0
 70
    24
 71
     3
 72
    13
 73
     9
 74
     0
 42
0.000000001
 43
0.00000001
 40
0.0
 40
0.0
 40
0.0
 40
0.0
 40
0.1528688132656074
 40
0.3416979709553255
 40
0.5305271286458368
 40
0.7193562863359498
 40
0.9081854440260677
 40
1.0
 40
1.0
 40
1.0
 40
1.0
 10
-26.19375000000002
 20
1.340414126513556
 30
0.0
 10
-26.19375000000004
 20
1.273377242998917
 30
0.0
 10
-26.19375000000004
 20
1.123533945423757
 30
0.0
 10
-26.19374999999999
 20
0.8563115366903894
 30
0.0
 10
-26.19375000000004
 20
0.577023221647854
 30
0.0
 10
-26.19374999999996
 20
0.3368421286664663
 30
0.0
 10
-26.19374999999999
 20
0.175266745811777
 30
0.0
 10
-26.19374999999999
 20
0.1337177837596407
 30
0.0
 10
-26.19374999999999
 20
0.1201247499011956
 30
0.0
  0
SPLINE
  5
4E3
330
1F
100
AcDbEntity
  8
외형선
  6
Continuous
370
    15
100
AcDbSpline
210
0.0
220
0.0
230
1.0
 70
     8
 71
     3
 72
     8
 73
     4
 74
     0
 42
0.000000001
 43
0.00000001
 40
0.0
 40
0.0
 40
0.0
 40
0.0
 40
1.0
 40
1.0
 40
1.0
 40
1.0
 10
-26.19375000000004
 20
1.340414126513559
 30
0.0
 10
-26.02552303199408
 20
1.315063953354782
 30
0.0
 10
-25.85968271190833
 20
1.280100936377819
 30
0.0
 10
-25.69387659494236
 20
1.236249628704469
 30
0.0
  0
SPLINE
  5
4E4
330
1F
100
AcDbEntity
  8
외형선
  6
Continuous
370
    15
100
AcDbSpline
210
0.0
220
0.0
230
1.0
 70
     8
 71
     3
 72
     8
 73
     4
 74
     0
 42
0.000000001
 43
0.00000001
 40
0.0
 40
0.0
 40
0.0
 40
0.0
 40
1.0
 40
1.0
 40
1.0
 40
1.0
 10
-26.19374999999999
 20
0.1201247499012063
 30
0.0
 10
-26.02552303199405
 20
0.0238530144793231
 30
0.0
 10
-25.85968271190824
 20
-0.0728278398657615
 30
0.0
 10
-25.69387659494236
 20
-0.1682881869230947
 30
0.0
  0
SPLINE
  5
4E5
330
1F
100
AcDbEntity
  8
외형선
  6
Continuous
370
    15
100
AcDbSpline
210
0.0
220
0.0
230
1.0
 70
     8
 71
     3
 72
     8
 73
     4
 74
     0
 42
0.000000001
 43
0.00000001
 40
0.0
 40
0.0
 40
0.0
 40
0.0
 40
1.0
 40
1.0
 40
1.0
 40
1.0
 10
-26.19374999999999
 20
-1.383858617550006
 30
0.0
 10
-26.02552303199405
 20
-1.392215409200143
 30
0.0
 10
-25.85968271190824
 20
-1.39048162875112
 30
0.0
 10
-25.69387659494236
 20
-1.378830560673928
 30
0.0
  0
LINE
  5
4E6
330
1F
100
AcDbEntity
  8
외형선
  6
Continuous
370
    15
100
AcDbLine
 10
-25.69387659494236
 20
-0.6333920255622253
 30
0.0
 11
-25.69387659494236
 21
-1.389062499999996
 31
0.0
  0
SPLINE
  5
4E7
330
1F
100
AcDbEntity
  8
외형선
  6
Continuous
370
    15
100
AcDbSpline
210
0.0
220
0.0
230
1.0
 70
     8
 71
     3
 72
     8
 73
     4
 74
     0
 42
0.000000001
 43
0.00000001
 40
0.0
 40
0.0
 40
0.0
 40
0.0
 40
1.0
 40
1.0
 40
1.0
 40
1.0
 10
-26.19375000000004
 20
-0.3643962106679289
 30
0.0
 10
-26.02552303199408
 20
-0.4576456167177504
 30
0.0
 10
-25.85968271190833
 20
-0.547799823693412
 30
0.0
 10
-25.69387659494236
 20
-0.6333888887834312
 30
0.0
  0
LINE
  5
4E8
330
1F
100
AcDbEntity
  8
외형선
  6
Continuous
370
    15
100
AcDbLine
 10
-25.69387659494236
 20
1.236248021579987
 30
0.0
 11
-25.69387659494236
 21
-0.1682948784233304
 31
0.0
  0
SPLINE
  5
4E9
330
1F
100
AcDbEntity
  8
외형선
  6
Continuous
370
    15
100
AcDbSpline
210
0.0
220
0.0
230
1.0
 70
     8
 71
     3
 72
     9
 73
     5
 74
     0
 42
0.000000001
 43
0.00000001
 40
0.0
 40
0.0
 40
0.0
 40
0.0
 40
0.2494061432777284
 40
1.0
 40
1.0
 40
1.0
 40
1.0
 10
-25.98483863065669
 20
1.387250933229479
 30
0.0
 10
-25.96059994355794
 20
1.387826082318787
 30
0.0
 10
-25.86341433786205
 20
1.390132156586828
 30
0.0
 10
-25.76656849194028
 20
1.383676292555604
 30
0.0
 10
-25.69387659494236
 20
1.378830560673934
 30
0.0
  0
LINE
  5
4EA
330
1F
100
AcDbEntity
  8
외형선
  6
Continuous
370
    15
100
AcDbLine
 10
-25.69387659494236
 20
1.389062500000003
 30
0.0
 11
-25.69387659494236
 21
1.378829743950549
 31
0.0
  0
SPLINE
  5
4EB
330
1F
100
AcDbEntity
  8
외형선
  6
Continuous
370
    15
100
AcDbSpline
210
0.0
220
0.0
230
1.0
 70
    24
 71
     3
 72
    14
 73
    10
 74
     0
 42
0.000000001
 43
0.00000001
 40
0.0
 40
0.0
 40
0.0
 40
0.0
 40
0.0232130022999932
 40
0.1946025097228561
 40
0.3659920171453573
 40
0.537381524567863
 40
0.7087710319903545
 40
0.8801605394126237
 40
1.0
 40
1.0
 40
1.0
 40
1.0
 10
-26.19375000000004
 20
-0.2381025613555486
 30
0.0
 10
-26.19375000000004
 20
-0.2362517938900218
 30
0.0
 10
-26.19375000000002
 20
-0.2207361794490431
 30
0.0
 10
-26.19375000000004
 20
-0.282087432396333
 30
0.0
 10
-26.19374999999993
 20
-0.4228726247235052
 30
0.0
 10
-26.19375000000004
 20
-0.6453824700516563
 30
0.0
 10
-26.19374999999999
 20
-0.9122372753117375
 30
0.0
 10
-26.19374999999999
 20
-1.170719791560137
 30
0.0
 10
-26.19374999999999
 20
-1.32172190218782
 30
0.0
 10
-26.19375000000002
 20
-1.383858617531937
 30
0.0
  0
ENDSEC
  0
SECTION
  2
OBJECTS
  0
DICTIONARY
  5
C
330
0
100
AcDbDictionary
281
     1
  3
ACAD_GROUP
350
D
  3
ACAD_IMAGE_VARS
350
157
  3
ACAD_LAYOUT
350
1A
  3
ACAD_MLINESTYLE
350
17
  3
ACAD_PLOTSETTINGS
350
19
  3
ACAD_PLOTSTYLENAME
350
E
  3
ACAD_SCALELIST
350
47
  3
APPDATA
350
155
  3
DWGPROPS
350
51C
  0
DICTIONARY
  5
21D
330
2
100
AcDbDictionary
280
     1
281
     1
  3
ACAD_LAYERSTATES
360
21E
  0
DICTIONARY
  5
D
102
{ACAD_REACTORS
330
C
102
}
330
C
100
AcDbDictionary
281
     1
  0
RASTERVARIABLES
  5
157
102
{ACAD_REACTORS
330
C
102
}
330
C
100
AcDbRasterVariables
 90
        0
 70
     1
 71
     1
 72
     1
  0
DICTIONARY
  5
1A
102
{ACAD_REACTORS
330
C
102
}
330
C
100
AcDbDictionary
281
     1
  3
Layout1
350
1E
  3
Layout2
350
26
  3
Model
350
22
  0
DICTIONARY
  5
17
102
{ACAD_REACTORS
330
C
102
}
330
C
100
AcDbDictionary
281
     1
  3
Standard
350
18
  0
DICTIONARY
  5
19
102
{ACAD_REACTORS
330
C
102
}
330
C
100
AcDbDictionary
281
     1
  0
ACDBDICTIONARYWDFLT
  5
E
102
{ACAD_REACTORS
330
C
102
}
330
C
100
AcDbDictionary
281
     1
  3
Normal
350
F
100
AcDbDictionaryWithDefault
340
F
  0
DICTIONARY
  5
47
102
{ACAD_REACTORS
330
C
102
}
330
C
100
AcDbDictionary
281
     1
  3
A0
350
48
  3
A1
350
49
  3
A2
350
4A
  3
A3
350
4B
  3
A4
350
4C
  3
A5
350
4D
  3
A6
350
4E
  3
A7
350
4F
  3
A8
350
50
  3
A9
350
51
  3
B0
350
52
  3
B1
350
53
  3
B2
350
54
  3
B3
350
55
  3
B4
350
56
  3
B5
350
57
  3
B6
350
58
  3
B7
350
59
  3
B8
350
5A
  3
B9
350
5B
  3
C0
350
5C
  3
C1
350
5D
  3
C2
350
5E
  3
C3
350
5F
  3
C4
350
60
  3
C5
350
61
  3
C6
350
62
  3
C7
350
63
  3
C8
350
64
  3
C9
350
65
  3
D0
350
66
  3
D1
350
67
  3
D2
350
68
  0
DICTIONARY
  5
155
102
{ACAD_REACTORS
330
C
102
}
330
C
100
AcDbDictionary
281
     1
  0
XRECORD
  5
51C
102
{ACAD_REACTORS
330
C
102
}
330
C
100
AcDbXrecord
280
     1
  1
DWGPROPS COOKIE
  2

  3

  4

  6

  7

  8
12017012
  9

300
=
301
=
302
=
303
=
304
=
305
=
306
=
307
=
308
=
309
=
 40
0.0
 41
2458313.105555289
 42
2458320.009730127
  1

 90
        0
  0
DICTIONARY
  5
21E
102
{ACAD_REACTORS
330
21D
102
}
330
21D
100
AcDbDictionary
281
     1
  0
LAYOUT
  5
1E
102
{ACAD_REACTORS
330
1A
102
}
330
1A
100
AcDbPlotSettings
  1

  2
none_device
  4

  6

 40
0.0
 41
0.0
 42
0.0
 43
0.0
 44
0.0
 45
0.0
 46
0.0
 47
0.0
 48
0.0
 49
0.0
140
0.0
141
0.0
142
1.0
143
1.0
 70
   688
 72
     1
 73
     0
 74
     5
  7

 75
    16
147
1.0
148
0.0
149
0.0
100
AcDbLayout
  1
Layout1
 70
     1
 71
     1
 10
0.0
 20
0.0
 11
420.0
 21
297.0
 12
0.0
 22
0.0
 32
0.0
 14
1.000000000000000E+20
 24
1.000000000000000E+20
 34
1.000000000000000E+20
 15
-1.000000000000000E+20
 25
-1.000000000000000E+20
 35
-1.000000000000000E+20
146
0.0
 13
0.0
 23
0.0
 33
0.0
 16
1.0
 26
0.0
 36
0.0
 17
0.0
 27
1.0
 37
0.0
 76
     0
330
1B
  0
LAYOUT
  5
26
102
{ACAD_REACTORS
330
1A
102
}
330
1A
100
AcDbPlotSettings
  1

  2
none_device
  4

  6

 40
0.0
 41
0.0
 42
0.0
 43
0.0
 44
0.0
 45
0.0
 46
0.0
 47
0.0
 48
0.0
 49
0.0
140
0.0
141
0.0
142
1.0
143
1.0
 70
   688
 72
     1
 73
     0
 74
     5
  7

 75
    16
147
1.0
148
0.0
149
0.0
100
AcDbLayout
  1
Layout2
 70
     1
 71
     2
 10
0.0
 20
0.0
 11
0.0
 21
0.0
 12
0.0
 22
0.0
 32
0.0
 14
0.0
 24
0.0
 34
0.0
 15
0.0
 25
0.0
 35
0.0
146
0.0
 13
0.0
 23
0.0
 33
0.0
 16
1.0
 26
0.0
 36
0.0
 17
0.0
 27
1.0
 37
0.0
 76
     0
330
23
  0
LAYOUT
  5
22
102
{ACAD_REACTORS
330
1A
102
}
330
1A
100
AcDbPlotSettings
  1

  2
none_device
  4
ANSI_A_(11.00_x_8.50_Inches)
  6

 40
6.35
 41
19.05
 42
6.35000508
 43
19.05000254
 44
279.4
 45
215.9
 46
116.0200047679344
 47
80.24699700557558
 48
0.0
 49
0.0
140
0.0
141
0.0
142
0.0752558462788414
143
1.0
 70
  1696
 72
     0
 73
     0
 74
     0
  7

 75
     0
147
0.0235690232323232
148
0.0
149
0.0
100
AcDbLayout
  1
Model
 70
     1
 71
     0
 10
0.0
 20
0.0
 11
420.0
 21
297.0
 12
0.0
 22
0.0
 32
0.0
 14
1.000000000000000E+20
 24
1.000000000000000E+20
 34
1.000000000000000E+20
 15
-1.000000000000000E+20
 25
-1.000000000000000E+20
 35
-1.000000000000000E+20
146
0.0
 13
0.0
 23
0.0
 33
0.0
 16
1.0
 26
0.0
 36
0.0
 17
0.0
 27
1.0
 37
0.0
 76
     0
330
1F
331
29
  0
MLINESTYLE
  5
18
102
{ACAD_REACTORS
330
17
102
}
330
17
100
AcDbMlineStyle
  2
Standard
 70
     0
  3

 62
   256
 51
90.0
 52
90.0
 71
     2
 49
0.5
 62
   256
  6
BYLAYER
 49
-0.5
 62
   256
  6
BYLAYER
  0
ACDBPLACEHOLDER
  5
F
102
{ACAD_REACTORS
330
E
102
}
330
E
  0
SCALE
  5
48
102
{ACAD_REACTORS
330
47
102
}
330
47
100
AcDbScale
 70
     0
300
1:1
140
1.0
141
1.0
290
     1
  0
SCALE
  5
49
102
{ACAD_REACTORS
330
47
102
}
330
47
100
AcDbScale
 70
     0
300
1:2
140
1.0
141
2.0
290
     0
  0
SCALE
  5
4A
102
{ACAD_REACTORS
330
47
102
}
330
47
100
AcDbScale
 70
     0
300
1:4
140
1.0
141
4.0
290
     0
  0
SCALE
  5
4B
102
{ACAD_REACTORS
330
47
102
}
330
47
100
AcDbScale
 70
     0
300
1:5
140
1.0
141
5.0
290
     0
  0
SCALE
  5
4C
102
{ACAD_REACTORS
330
47
102
}
330
47
100
AcDbScale
 70
     0
300
1:8
140
1.0
141
8.0
290
     0
  0
SCALE
  5
4D
102
{ACAD_REACTORS
330
47
102
}
330
47
100
AcDbScale
 70
     0
300
1:10
140
1.0
141
10.0
290
     0
  0
SCALE
  5
4E
102
{ACAD_REACTORS
330
47
102
}
330
47
100
AcDbScale
 70
     0
300
1:16
140
1.0
141
16.0
290
     0
  0
SCALE
  5
4F
102
{ACAD_REACTORS
330
47
102
}
330
47
100
AcDbScale
 70
     0
300
1:20
140
1.0
141
20.0
290
     0
  0
SCALE
  5
50
102
{ACAD_REACTORS
330
47
102
}
330
47
100
AcDbScale
 70
     0
300
1:30
140
1.0
141
30.0
290
     0
  0
SCALE
  5
51
102
{ACAD_REACTORS
330
47
102
}
330
47
100
AcDbScale
 70
     0
300
1:40
140
1.0
141
40.0
290
     0
  0
SCALE
  5
52
102
{ACAD_REACTORS
330
47
102
}
330
47
100
AcDbScale
 70
     0
300
1:50
140
1.0
141
50.0
290
     0
  0
SCALE
  5
53
102
{ACAD_REACTORS
330
47
102
}
330
47
100
AcDbScale
 70
     0
300
1:100
140
1.0
141
100.0
290
     0
  0
SCALE
  5
54
102
{ACAD_REACTORS
330
47
102
}
330
47
100
AcDbScale
 70
     0
300
2:1
140
2.0
141
1.0
290
     0
  0
SCALE
  5
55
102
{ACAD_REACTORS
330
47
102
}
330
47
100
AcDbScale
 70
     0
300
4:1
140
4.0
141
1.0
290
     0
  0
SCALE
  5
56
102
{ACAD_REACTORS
330
47
102
}
330
47
100
AcDbScale
 70
     0
300
8:1
140
8.0
141
1.0
290
     0
  0
SCALE
  5
57
102
{ACAD_REACTORS
330
47
102
}
330
47
100
AcDbScale
 70
     0
300
10:1
140
10.0
141
1.0
290
     0
  0
SCALE
  5
58
102
{ACAD_REACTORS
330
47
102
}
330
47
100
AcDbScale
 70
     0
300
100:1
140
100.0
141
1.0
290
     0
  0
SCALE
  5
59
102
{ACAD_REACTORS
330
47
102
}
330
47
100
AcDbScale
 70
     0
300
1/128" = 1'-0"
140
0.0078125
141
12.0
290
     0
  0
SCALE
  5
5A
102
{ACAD_REACTORS
330
47
102
}
330
47
100
AcDbScale
 70
     0
300
1/64" = 1'-0"
140
0.015625
141
12.0
290
     0
  0
SCALE
  5
5B
102
{ACAD_REACTORS
330
47
102
}
330
47
100
AcDbScale
 70
     0
300
1/32" = 1'-0"
140
0.03125
141
12.0
290
     0
  0
SCALE
  5
5C
102
{ACAD_REACTORS
330
47
102
}
330
47
100
AcDbScale
 70
     0
300
1/16" = 1'-0"
140
0.0625
141
12.0
290
     0
  0
SCALE
  5
5D
102
{ACAD_REACTORS
330
47
102
}
330
47
100
AcDbScale
 70
     0
300
3/32" = 1'-0"
140
0.09375
141
12.0
290
     0
  0
SCALE
  5
5E
102
{ACAD_REACTORS
330
47
102
}
330
47
100
AcDbScale
 70
     0
300
1/8" = 1'-0"
140
0.125
141
12.0
290
     0
  0
SCALE
  5
5F
102
{ACAD_REACTORS
330
47
102
}
330
47
100
AcDbScale
 70
     0
300
3/16" = 1'-0"
140
0.1875
141
12.0
290
     0
  0
SCALE
  5
60
102
{ACAD_REACTORS
330
47
102
}
330
47
100
AcDbScale
 70
     0
300
1/4" = 1'-0"
140
0.25
141
12.0
290
     0
  0
SCALE
  5
61
102
{ACAD_REACTORS
330
47
102
}
330
47
100
AcDbScale
 70
     0
300
3/8" = 1'-0"
140
0.375
141
12.0
290
     0
  0
SCALE
  5
62
102
{ACAD_REACTORS
330
47
102
}
330
47
100
AcDbScale
 70
     0
300
1/2" = 1'-0"
140
0.5
141
12.0
290
     0
  0
SCALE
  5
63
102
{ACAD_REACTORS
330
47
102
}
330
47
100
AcDbScale
 70
     0
300
3/4" = 1'-0"
140
0.75
141
12.0
290
     0
  0
SCALE
  5
64
102
{ACAD_REACTORS
330
47
102
}
330
47
100
AcDbScale
 70
     0
300
1" = 1'-0"
140
1.0
141
12.0
290
     0
  0
SCALE
  5
65
102
{ACAD_REACTORS
330
47
102
}
330
47
100
AcDbScale
 70
     0
300
1-1/2" = 1'-0"
140
1.5
141
12.0
290
     0
  0
SCALE
  5
66
102
{ACAD_REACTORS
330
47
102
}
330
47
100
AcDbScale
 70
     0
300
3" = 1'-0"
140
3.0
141
12.0
290
     0
  0
SCALE
  5
67
102
{ACAD_REACTORS
330
47
102
}
330
47
100
AcDbScale
 70
     0
300
6" = 1'-0"
140
6.0
141
12.0
290
     0
  0
SCALE
  5
68
102
{ACAD_REACTORS
330
47
102
}
330
47
100
AcDbScale
 70
     0
300
1'-0" = 1'-0"
140
12.0
141
12.0
290
     0
  0
ENDSEC
  0
EOF
