  0
SECTION
  2
HEADER
  9
$ACADVER
  1
AC1015
  9
$ACADMAINTVER
 70
     6
  9
$DWGCODEPAGE
  3
ANSI_949
  9
$INSBASE
 10
0.0
 20
0.0
 30
0.0
  9
$EXTMIN
 10
1.000000000000000E+20
 20
1.000000000000000E+20
 30
1.000000000000000E+20
  9
$EXTMAX
 10
-1.000000000000000E+20
 20
-1.000000000000000E+20
 30
-1.000000000000000E+20
  9
$LIMMIN
 10
0.0
 20
0.0
  9
$LIMMAX
 10
420.0
 20
297.0
  9
$ORTHOMODE
 70
     1
  9
$REGENMODE
 70
     1
  9
$FILLMODE
 70
     1
  9
$QTEXTMODE
 70
     0
  9
$MIRRTEXT
 70
     1
  9
$LTSCALE
 40
1.0
  9
$ATTMODE
 70
     1
  9
$TEXTSIZE
 40
3.5
  9
$TRACEWID
 40
1.0
  9
$TEXTSTYLE
  7
Standard
  9
$CLAYER
  8
0
  9
$CELTYPE
  6
ByLayer
  9
$CECOLOR
 62
   256
  9
$CELTSCALE
 40
1.0
  9
$DISPSILH
 70
     0
  9
$DIMSCALE
 40
1.0
  9
$DIMASZ
 40
3.302
  9
$DIMEXO
 40
1.0
  9
$DIMDLI
 40
3.75
  9
$DIMRND
 40
0.0
  9
$DIMDLE
 40
0.0
  9
$DIMEXE
 40
1.0
  9
$DIMTP
 40
0.0
  9
$DIMTM
 40
0.0
  9
$DIMTXT
 40
3.5
  9
$DIMCEN
 40
2.5
  9
$DIMTSZ
 40
0.0
  9
$DIMTOL
 70
     0
  9
$DIMLIM
 70
     0
  9
$DIMTIH
 70
     1
  9
$DIMTOH
 70
     1
  9
$DIMSE1
 70
     0
  9
$DIMSE2
 70
     0
  9
$DIMTAD
 70
     1
  9
$DIMZIN
 70
     0
  9
$DIMBLK
  1

  9
$DIMASO
 70
     1
  9
$DIMSHO
 70
     1
  9
$DIMPOST
  1

  9
$DIMAPOST
  1

  9
$DIMALT
 70
     0
  9
$DIMALTD
 70
     3
  9
$DIMALTF
 40
0.0393700787401575
  9
$DIMLFAC
 40
1.0
  9
$DIMTOFL
 70
     1
  9
$DIMTVP
 40
0.0
  9
$DIMTIX
 70
     0
  9
$DIMSOXD
 70
     0
  9
$DIMSAH
 70
     0
  9
$DIMBLK1
  1

  9
$DIMBLK2
  1

  9
$DIMSTYLE
  2
ISO-25
  9
$DIMCLRD
 70
     0
  9
$DIMCLRE
 70
     0
  9
$DIMCLRT
 70
     0
  9
$DIMTFAC
 40
1.0
  9
$DIMGAP
 40
1.524
  9
$DIMJUST
 70
     0
  9
$DIMSD1
 70
     0
  9
$DIMSD2
 70
     0
  9
$DIMTOLJ
 70
     0
  9
$DIMTZIN
 70
     0
  9
$DIMALTZ
 70
     0
  9
$DIMALTTZ
 70
     0
  9
$DIMUPT
 70
     0
  9
$DIMDEC
 70
     2
  9
$DIMTDEC
 70
     2
  9
$DIMALTU
 70
     2
  9
$DIMALTTD
 70
     3
  9
$DIMTXSTY
  7
Standard
  9
$DIMAUNIT
 70
     0
  9
$DIMADEC
 70
     2
  9
$DIMALTRND
 40
0.0
  9
$DIMAZIN
 70
     0
  9
$DIMDSEP
 70
    44
  9
$DIMATFIT
 70
     3
  9
$DIMFRAC
 70
     0
  9
$DIMLDRBLK
  1

  9
$DIMLUNIT
 70
     2
  9
$DIMLWD
 70
    -2
  9
$DIMLWE
 70
    -2
  9
$DIMTMOVE
 70
     0
  9
$LUNITS
 70
     2
  9
$LUPREC
 70
     2
  9
$SKETCHINC
 40
1.0
  9
$FILLETRAD
 40
10.0
  9
$AUNITS
 70
     0
  9
$AUPREC
 70
     2
  9
$MENU
  1
.
  9
$ELEVATION
 40
0.0
  9
$PELEVATION
 40
0.0
  9
$THICKNESS
 40
0.0
  9
$LIMCHECK
 70
     0
  9
$CHAMFERA
 40
0.0
  9
$CHAMFERB
 40
0.0
  9
$CHAMFERC
 40
0.0
  9
$CHAMFERD
 40
0.0
  9
$SKPOLY
 70
     0
  9
$TDCREATE
 40
2458313.413518715
  9
$TDUCREATE
 40
2458313.038518715
  9
$TDUPDATE
 40
2458320.35149434
  9
$TDUUPDATE
 40
2458319.97649434
  9
$TDINDWG
 40
0.0021669444
  9
$TDUSRTIMER
 40
2458319.974328067
  9
$USRTIMER
 70
     1
  9
$ANGBASE
 50
0.0
  9
$ANGDIR
 70
     0
  9
$PDMODE
 70
     0
  9
$PDSIZE
 40
-1.0
  9
$PLINEWID
 40
0.0
  9
$SPLFRAME
 70
     0
  9
$SPLINETYPE
 70
     6
  9
$SPLINESEGS
 70
     8
  9
$HANDSEED
  5
2EC
  9
$SURFTAB1
 70
     6
  9
$SURFTAB2
 70
     6
  9
$SURFTYPE
 70
     6
  9
$SURFU
 70
     6
  9
$SURFV
 70
     6
  9
$UCSBASE
  2

  9
$UCSNAME
  2

  9
$UCSORG
 10
0.0
 20
0.0
 30
0.0
  9
$UCSXDIR
 10
1.0
 20
0.0
 30
0.0
  9
$UCSYDIR
 10
0.0
 20
1.0
 30
0.0
  9
$UCSORTHOREF
  2

  9
$UCSORTHOVIEW
 70
     0
  9
$UCSORGTOP
 10
0.0
 20
0.0
 30
0.0
  9
$UCSORGBOTTOM
 10
0.0
 20
0.0
 30
0.0
  9
$UCSORGLEFT
 10
0.0
 20
0.0
 30
0.0
  9
$UCSORGRIGHT
 10
0.0
 20
0.0
 30
0.0
  9
$UCSORGFRONT
 10
0.0
 20
0.0
 30
0.0
  9
$UCSORGBACK
 10
0.0
 20
0.0
 30
0.0
  9
$PUCSBASE
  2

  9
$PUCSNAME
  2

  9
$PUCSORG
 10
0.0
 20
0.0
 30
0.0
  9
$PUCSXDIR
 10
1.0
 20
0.0
 30
0.0
  9
$PUCSYDIR
 10
0.0
 20
1.0
 30
0.0
  9
$PUCSORTHOREF
  2

  9
$PUCSORTHOVIEW
 70
     0
  9
$PUCSORGTOP
 10
0.0
 20
0.0
 30
0.0
  9
$PUCSORGBOTTOM
 10
0.0
 20
0.0
 30
0.0
  9
$PUCSORGLEFT
 10
0.0
 20
0.0
 30
0.0
  9
$PUCSORGRIGHT
 10
0.0
 20
0.0
 30
0.0
  9
$PUCSORGFRONT
 10
0.0
 20
0.0
 30
0.0
  9
$PUCSORGBACK
 10
0.0
 20
0.0
 30
0.0
  9
$USERI1
 70
     0
  9
$USERI2
 70
     0
  9
$USERI3
 70
     0
  9
$USERI4
 70
     0
  9
$USERI5
 70
     0
  9
$USERR1
 40
0.0
  9
$USERR2
 40
0.0
  9
$USERR3
 40
0.0
  9
$USERR4
 40
0.0
  9
$USERR5
 40
0.0
  9
$WORLDVIEW
 70
     1
  9
$SHADEDGE
 70
     3
  9
$SHADEDIF
 70
    70
  9
$TILEMODE
 70
     1
  9
$MAXACTVP
 70
    64
  9
$PINSBASE
 10
0.0
 20
0.0
 30
0.0
  9
$PLIMCHECK
 70
     0
  9
$PEXTMIN
 10
1.000000000000000E+20
 20
1.000000000000000E+20
 30
1.000000000000000E+20
  9
$PEXTMAX
 10
-1.000000000000000E+20
 20
-1.000000000000000E+20
 30
-1.000000000000000E+20
  9
$PLIMMIN
 10
0.0
 20
0.0
  9
$PLIMMAX
 10
0.0
 20
0.0
  9
$UNITMODE
 70
     0
  9
$VISRETAIN
 70
     1
  9
$PLINEGEN
 70
     0
  9
$PSLTSCALE
 70
     1
  9
$TREEDEPTH
 70
  3020
  9
$CMLSTYLE
  2
Standard
  9
$CMLJUST
 70
     0
  9
$CMLSCALE
 40
20.0
  9
$PROXYGRAPHICS
 70
     1
  9
$MEASUREMENT
 70
     1
  9
$CELWEIGHT
370
    -1
  9
$ENDCAPS
280
     0
  9
$JOINSTYLE
280
     0
  9
$LWDISPLAY
290
     1
  9
$INSUNITS
 70
     4
  9
$HYPERLINKBASE
  1

  9
$STYLESHEET
  1

  9
$XEDIT
290
     1
  9
$CEPSNTYPE
380
     0
  9
$PSTYLEMODE
290
     1
  9
$FINGERPRINTGUID
  2
{4EB82A84-4670-4F3A-A946-E8CEB1371B62}
  9
$VERSIONGUID
  2
{FAEB1C32-E019-11D5-929B-00C0DF256EC4}
  9
$EXTNAMES
290
     1
  9
$PSVPSCALE
 40
0.0
  9
$OLESTARTUP
290
     0
  0
ENDSEC
  0
SECTION
  2
CLASSES
  0
CLASS
  1
ACDBDICTIONARYWDFLT
  2
AcDbDictionaryWithDefault
  3
ObjectDBX Classes
 90
        0
280
     0
281
     0
  0
CLASS
  1
VISUALSTYLE
  2
AcDbVisualStyle
  3
ObjectDBX Classes
 90
     4095
280
     0
281
     0
  0
CLASS
  1
MATERIAL
  2
AcDbMaterial
  3
ObjectDBX Classes
 90
     1153
280
     0
281
     0
  0
CLASS
  1
SCALE
  2
AcDbScale
  3
ObjectDBX Classes
 90
     1153
280
     0
281
     0
  0
CLASS
  1
SUN
  2
AcDbSun
  3
SCENEOE
 90
     1153
280
     0
281
     0
  0
CLASS
  1
ACDBPLACEHOLDER
  2
AcDbPlaceHolder
  3
ObjectDBX Classes
 90
        0
280
     0
281
     0
  0
CLASS
  1
LAYOUT
  2
AcDbLayout
  3
ObjectDBX Classes
 90
        0
280
     0
281
     0
  0
CLASS
  1
TABLESTYLE
  2
AcDbTableStyle
  3
ObjectDBX Classes
 90
     4095
280
     0
281
     0
  0
CLASS
  1
MLEADERSTYLE
  2
AcDbMLeaderStyle
  3
ACDB_MLEADERSTYLE_CLASS
 90
     4095
280
     0
281
     0
  0
CLASS
  1
RASTERVARIABLES
  2
AcDbRasterVariables
  3
ISM
 90
        0
280
     0
281
     0
  0
ENDSEC
  0
SECTION
  2
TABLES
  0
TABLE
  2
VPORT
  5
8
330
0
100
AcDbSymbolTable
 70
     1
  0
VPORT
  5
29
330
8
100
AcDbSymbolTableRecord
100
AcDbViewportTableRecord
  2
*Active
 70
     0
 10
0.0
 20
0.0
 11
1.0
 21
1.0
 12
-1.778874950240795
 22
1.775456700201943
 13
0.0
 23
0.0
 14
10.0
 24
10.0
 15
10.0
 25
10.0
 16
0.0
 26
0.0
 36
1.0
 17
0.0
 27
0.0
 37
0.0
 40
180.4222244842727
 41
1.632093933463796
 42
50.0
 43
0.0
 44
0.0
 50
0.0
 51
0.0
 71
    16
 72
  2000
 73
     1
 74
     3
 75
     0
 76
     0
 77
     0
 78
     0
281
     0
 65
     1
110
0.0
120
0.0
130
0.0
111
1.0
121
0.0
131
0.0
112
0.0
122
1.0
132
0.0
 79
     0
146
0.0
  0
ENDTAB
  0
TABLE
  2
LTYPE
  5
5
330
0
100
AcDbSymbolTable
 70
     6
  0
LTYPE
  5
14
330
5
100
AcDbSymbolTableRecord
100
AcDbLinetypeTableRecord
  2
ByBlock
 70
     0
  3

 72
    65
 73
     0
 40
0.0
  0
LTYPE
  5
15
330
5
100
AcDbSymbolTableRecord
100
AcDbLinetypeTableRecord
  2
ByLayer
 70
     0
  3

 72
    65
 73
     0
 40
0.0
  0
LTYPE
  5
16
330
5
100
AcDbSymbolTableRecord
100
AcDbLinetypeTableRecord
  2
Continuous
 70
     0
  3
Solid line
 72
    65
 73
     0
 40
0.0
  0
LTYPE
  5
6A
330
5
100
AcDbSymbolTableRecord
100
AcDbLinetypeTableRecord
  2
HIDDEN
 70
     0
  3
Hidden __ __ __ __ __ __ __ __ __ __ __ __ __ __
 72
    65
 73
     2
 40
1.905
 49
1.27
 74
     0
 49
-0.635
 74
     0
  0
LTYPE
  5
6B
330
5
100
AcDbSymbolTableRecord
100
AcDbLinetypeTableRecord
  2
PHANTOM
 70
     0
  3
Phantom ______  __  __  ______  __  __  ______
 72
    65
 73
     6
 40
12.7
 49
6.35
 74
     0
 49
-1.27
 74
     0
 49
1.27
 74
     0
 49
-1.27
 74
     0
 49
1.27
 74
     0
 49
-1.27
 74
     0
  0
LTYPE
  5
6C
330
5
100
AcDbSymbolTableRecord
100
AcDbLinetypeTableRecord
  2
CENTER
 70
     0
  3
Center ____ _ ____ _ ____ _ ____ _ ____ _ ____
 72
    65
 73
     4
 40
10.16
 49
6.35
 74
     0
 49
-1.27
 74
     0
 49
1.27
 74
     0
 49
-1.27
 74
     0
  0
LTYPE
  5
6D
330
5
100
AcDbSymbolTableRecord
100
AcDbLinetypeTableRecord
  2
CENTERX2
 70
     0
  3
Center (2x) ________  __  ________  __  _____
 72
    65
 73
     4
 40
20.32
 49
12.7
 74
     0
 49
-2.54
 74
     0
 49
2.54
 74
     0
 49
-2.54
 74
     0
  0
LTYPE
  5
6E
330
5
100
AcDbSymbolTableRecord
100
AcDbLinetypeTableRecord
  2
DOT2
 70
     0
  3
Dot (.5x) ........................................
 72
    65
 73
     2
 40
0.635
 49
0.0
 74
     0
 49
-0.635
 74
     0
  0
ENDTAB
  0
TABLE
  2
LAYER
  5
2
102
{ACAD_XDICTIONARY
360
195
102
}
330
0
100
AcDbSymbolTable
 70
    18
  0
LAYER
  5
10
330
2
100
AcDbSymbolTableRecord
100
AcDbLayerTableRecord
  2
0
 70
     0
 62
     7
  6
Continuous
370
    -3
390
F
  0
LAYER
  5
6F
330
2
100
AcDbSymbolTableRecord
100
AcDbLayerTableRecord
  2
FORMAT
 70
     0
 62
     2
  6
Continuous
370
    -3
390
F
  0
LAYER
  5
70
330
2
100
AcDbSymbolTableRecord
100
AcDbLayerTableRecord
  2
외형선
 70
     0
 62
     4
  6
Continuous
370
    30
390
F
  0
LAYER
  5
71
330
2
100
AcDbSymbolTableRecord
100
AcDbLayerTableRecord
  2
숨은선
 70
     0
 62
     2
  6
HIDDEN
370
    15
390
F
  0
LAYER
  5
72
330
2
100
AcDbSymbolTableRecord
100
AcDbLayerTableRecord
  2
중심선
 70
     0
 62
     1
  6
CENTERX2
370
    -3
390
F
  0
LAYER
  5
73
330
2
100
AcDbSymbolTableRecord
100
AcDbLayerTableRecord
  2
파단선
 70
     0
 62
     4
  6
Continuous
370
    -3
390
F
  0
LAYER
  5
74
330
2
100
AcDbSymbolTableRecord
100
AcDbLayerTableRecord
  2
해칭선
 70
     0
 62
   100
  6
Continuous
370
    -3
390
F
  0
LAYER
  5
75
330
2
100
AcDbSymbolTableRecord
100
AcDbLayerTableRecord
  2
가는실선
 70
     0
 62
     4
  6
Continuous
370
    -3
390
F
  0
LAYER
  5
76
330
2
100
AcDbSymbolTableRecord
100
AcDbLayerTableRecord
  2
치수_보조선
 70
     0
 62
     4
  6
Continuous
370
    -3
390
F
  0
LAYER
  5
77
330
2
100
AcDbSymbolTableRecord
100
AcDbLayerTableRecord
  2
치수문자_일반주서
 70
     0
 62
     7
  6
Continuous
370
    15
390
F
  0
LAYER
  5
78
330
2
100
AcDbSymbolTableRecord
100
AcDbLayerTableRecord
  2
개별주서
 70
     0
 62
   100
  6
Continuous
370
    30
390
F
  0
LAYER
  5
79
330
2
100
AcDbSymbolTableRecord
100
AcDbLayerTableRecord
  2
중간선
 70
     0
 62
     2
  6
Continuous
370
    15
390
F
  0
LAYER
  5
7A
330
2
100
AcDbSymbolTableRecord
100
AcDbLayerTableRecord
  2
윤곽선
 70
     0
 62
     3
  6
Continuous
370
    40
390
F
  0
LAYER
  5
7B
330
2
100
AcDbSymbolTableRecord
100
AcDbLayerTableRecord
  2
중심마크
 70
     0
 62
   100
  6
Continuous
370
    30
390
F
  0
LAYER
  5
7C
330
2
100
AcDbSymbolTableRecord
100
AcDbLayerTableRecord
  2
가상선
 70
     0
 62
     4
  6
PHANTOM
370
    -3
390
F
  0
LAYER
  5
7D
330
2
100
AcDbSymbolTableRecord
100
AcDbLayerTableRecord
  2
특수지정선
 70
     0
 62
     5
  6
CENTERX2
370
    60
390
F
  0
LAYER
  5
7E
330
2
100
AcDbSymbolTableRecord
100
AcDbLayerTableRecord
  2
참조1
 70
     0
 62
    -4
  6
Continuous
370
    -3
390
F
  0
LAYER
  5
19C
330
2
100
AcDbSymbolTableRecord
100
AcDbLayerTableRecord
  2
Defpoints
 70
     0
 62
     7
  6
Continuous
290
     0
370
    -3
390
F
  0
ENDTAB
  0
TABLE
  2
STYLE
  5
3
330
0
100
AcDbSymbolTable
 70
     2
  0
STYLE
  5
11
330
3
100
AcDbSymbolTableRecord
100
AcDbTextStyleTableRecord
  2
Standard
 70
     0
 40
0.0
 41
1.0
 50
0.0
 71
     0
 42
3.5
  3
txt
  4

  0
STYLE
  5
94
330
3
100
AcDbSymbolTableRecord
100
AcDbTextStyleTableRecord
  2
SLDTEXTSTYLE0
 70
     0
 40
0.0
 41
0.75
 50
0.0
 71
     0
 42
3.5
  3
TXT
  4

  0
ENDTAB
  0
TABLE
  2
VIEW
  5
6
330
0
100
AcDbSymbolTable
 70
     0
  0
ENDTAB
  0
TABLE
  2
UCS
  5
7
330
0
100
AcDbSymbolTable
 70
     0
  0
ENDTAB
  0
TABLE
  2
APPID
  5
9
330
0
100
AcDbSymbolTable
 70
     1
  0
APPID
  5
12
330
9
100
AcDbSymbolTableRecord
100
AcDbRegAppTableRecord
  2
ACAD
 70
     0
  0
ENDTAB
  0
TABLE
  2
DIMSTYLE
  5
A
330
0
100
AcDbSymbolTable
 70
     4
100
AcDbDimStyleTable
  0
DIMSTYLE
105
27
330
A
100
AcDbSymbolTableRecord
100
AcDbDimStyleTableRecord
  2
ISO-25
 70
     0
 41
2.5
 42
0.625
 43
3.75
 44
1.25
 73
     0
 74
     0
 77
     1
 78
     8
140
2.5
141
2.5
143
0.03937007874016
147
0.625
171
     3
172
     1
178
     0
271
     2
272
     2
274
     3
278
    44
283
     0
284
     8
340
11
  0
DIMSTYLE
105
EC
102
{ACAD_REACTORS
330
EB
330
100
330
114
330
129
330
211
330
221
330
231
102
}
330
A
100
AcDbSymbolTableRecord
100
AcDbDimStyleTableRecord
  2
SLDDIMSTYLE0
 70
     0
 41
3.302
 44
0.0
 45
0.000000001
 73
     0
 74
     0
 77
     1
 78
    12
 79
     3
140
3.5
143
0.0393700787401575
147
0.875
148
0.000000001
170
     1
172
     1
173
     1
178
     0
271
     2
272
     2
276
     2
284
    12
289
     0
340
94
  0
DIMSTYLE
105
115
330
A
100
AcDbSymbolTableRecord
100
AcDbDimStyleTableRecord
  2
SLDDIMSTYLE1
 70
     0
 41
3.302
 44
0.0
 45
0.000000001
 73
     0
 74
     0
 77
     1
 78
     4
 79
     1
140
3.5
143
0.0393700787401575
147
0.875
148
0.000000001
170
     1
173
     1
178
     0
271
     2
272
     2
276
     2
284
    12
340
94
  0
DIMSTYLE
105
12A
330
A
100
AcDbSymbolTableRecord
100
AcDbDimStyleTableRecord
  2
SLDDIMSTYLE2
 70
     0
 41
3.302
 44
0.0
 45
0.000000001
 73
     0
 74
     0
 77
     1
 78
    12
 79
     3
140
3.5
143
0.0393700787401575
147
0.875
148
0.000000001
170
     1
173
     1
178
     0
271
     2
272
     2
276
     2
284
    12
340
94
  0
ENDTAB
  0
TABLE
  2
BLOCK_RECORD
  5
1
330
0
100
AcDbSymbolTable
 70
    15
  0
BLOCK_RECORD
  5
1F
330
1
100
AcDbSymbolTableRecord
100
AcDbBlockTableRecord
  2
*Model_Space
340
22
  0
BLOCK_RECORD
  5
1B
330
1
100
AcDbSymbolTableRecord
100
AcDbBlockTableRecord
  2
*Paper_Space
340
1E
  0
BLOCK_RECORD
  5
23
330
1
100
AcDbSymbolTableRecord
100
AcDbBlockTableRecord
  2
*Paper_Space0
340
26
  0
BLOCK_RECORD
  5
7F
330
1
100
AcDbSymbolTableRecord
100
AcDbBlockTableRecord
  2
블럭10
340
0
102
{BLKREFS
331
E4
102
}
  0
BLOCK_RECORD
  5
ED
330
1
100
AcDbSymbolTableRecord
100
AcDbBlockTableRecord
  2
_D
340
0
  0
BLOCK_RECORD
  5
101
330
1
100
AcDbSymbolTableRecord
100
AcDbBlockTableRecord
  2
_D_1
340
0
  0
BLOCK_RECORD
  5
116
330
1
100
AcDbSymbolTableRecord
100
AcDbBlockTableRecord
  2
_D_2
340
0
  0
BLOCK_RECORD
  5
12B
330
1
100
AcDbSymbolTableRecord
100
AcDbBlockTableRecord
  2
_D_3
340
0
  0
BLOCK_RECORD
  5
144
330
1
100
AcDbSymbolTableRecord
100
AcDbBlockTableRecord
  2
SW_DOWELSYMBOL_0
340
0
102
{BLKREFS
331
14A
331
23E
331
0
102
}
  0
BLOCK_RECORD
  5
247
330
1
100
AcDbSymbolTableRecord
100
AcDbBlockTableRecord
  2
*D9
340
0
  0
BLOCK_RECORD
  5
256
330
1
100
AcDbSymbolTableRecord
100
AcDbBlockTableRecord
  2
*D10
340
0
  0
BLOCK_RECORD
  5
265
330
1
100
AcDbSymbolTableRecord
100
AcDbBlockTableRecord
  2
*D11
340
0
  0
BLOCK_RECORD
  5
2BE
330
1
100
AcDbSymbolTableRecord
100
AcDbBlockTableRecord
  2
*D12
340
0
  0
BLOCK_RECORD
  5
2CD
330
1
100
AcDbSymbolTableRecord
100
AcDbBlockTableRecord
  2
*D13
340
0
  0
BLOCK_RECORD
  5
2DC
330
1
100
AcDbSymbolTableRecord
100
AcDbBlockTableRecord
  2
*D14
340
0
  0
ENDTAB
  0
ENDSEC
  0
SECTION
  2
BLOCKS
  0
BLOCK
  5
20
330
1F
100
AcDbEntity
  8
0
100
AcDbBlockBegin
  2
*Model_Space
 70
     0
 10
0.0
 20
0.0
 30
0.0
  3
*Model_Space
  1
*Model_Space
  0
ENDBLK
  5
21
330
1F
100
AcDbEntity
  8
0
100
AcDbBlockEnd
  0
BLOCK
  5
1C
330
1B
100
AcDbEntity
 67
     1
  8
0
100
AcDbBlockBegin
  2
*Paper_Space
 70
     0
 10
0.0
 20
0.0
 30
0.0
  3
*Paper_Space
  1
*Paper_Space
  0
ENDBLK
  5
1D
330
1B
100
AcDbEntity
 67
     1
  8
0
100
AcDbBlockEnd
  0
BLOCK
  5
24
330
23
100
AcDbEntity
  8
0
100
AcDbBlockBegin
  2
*Paper_Space0
 70
     0
 10
0.0
 20
0.0
 30
0.0
  3
*Paper_Space0
  1
*Paper_Space0
  0
ENDBLK
  5
25
330
23
100
AcDbEntity
  8
0
100
AcDbBlockEnd
  0
BLOCK
  5
80
330
7F
100
AcDbEntity
  8
0
100
AcDbBlockBegin
  2
블럭10
 70
     2
 10
0.0
 20
0.0
 30
0.0
  3
블럭10
  1
블럭10
  0
ELLIPSE
  5
82
330
7F
100
AcDbEntity
  8
중심선
100
AcDbEllipse
 10
20.54032771741204
 20
12.0471743016438
 30
0.0
 11
6.600054785286829
 21
-1.261213355974178E-13
 31
0.0
210
0.0
220
0.0
230
1.0
 40
0.636358354079598
 41
0.9219305317359503
 42
6.513795318482858
  0
ELLIPSE
  5
83
330
7F
100
AcDbEntity
  8
중심선
100
AcDbEllipse
 10
20.54032771746488
 20
12.04717430159265
 30
0.0
 11
3.960054785062283
 21
1.540847449632565E-10
 31
0.0
210
0.0
220
0.0
230
1.0
 40
0.3939339440162632
 41
1.131841032648279
 42
5.62031148352944
  0
LINE
  5
84
330
7F
100
AcDbEntity
  8
중심선
100
AcDbLine
 10
2.268634060543552
 20
16.24717430164393
 30
0.0
 11
5.714909304380834
 21
16.24717430164393
 31
0.0
  0
LINE
  5
85
330
7F
100
AcDbEntity
  8
중심선
100
AcDbLine
 10
5.245725140726316
 20
7.84717430164391
 30
0.0
 11
8.692000384563599
 21
7.84717430164391
 31
0.0
  0
LINE
  5
86
330
7F
100
AcDbEntity
  8
중심선
100
AcDbLine
 10
15.74043728645272
 20
16.24717430164393
 30
0.0
 11
8.692000384563599
 21
7.84717430164391
 31
0.0
  0
LINE
  5
87
330
7F
100
AcDbEntity
  8
중심선
100
AcDbLine
 10
0.1404042013395286
 20
13.71084872107135
 30
0.0
 11
3.58671253028996
 21
13.71088815037384
 31
0.0
  0
LINE
  5
88
330
7F
100
AcDbEntity
  8
중심선
100
AcDbLine
 10
2.750260043222114
 20
10.84717430164391
 30
0.0
 11
6.196535287059397
 21
10.84717430164391
 31
0.0
  0
LINE
  5
89
330
7F
100
AcDbEntity
  8
중심선
100
AcDbLine
 10
12.29416204261559
 20
16.24717430164393
 30
0.0
 11
5.245725140726316
 21
7.84717430164391
 31
0.0
  0
LINE
  5
8A
330
7F
100
AcDbEntity
  8
중심선
100
AcDbLine
 10
10.72767329541681
 20
16.24717430164393
 30
0.0
 11
6.196535287059397
 21
10.84717430164391
 31
0.0
  0
LINE
  5
8B
330
7F
100
AcDbEntity
  8
중심선
100
AcDbLine
 10
7.28139805157953
 20
16.24717430164393
 30
0.0
 11
2.750260043222114
 21
10.84717430164391
 31
0.0
  0
LINE
  5
8C
330
7F
100
AcDbEntity
  8
중심선
100
AcDbLine
 10
5.714909304380834
 20
16.24717430164393
 30
0.0
 11
3.58671253028996
 21
13.71088815037384
 31
0.0
  0
LINE
  5
8D
330
7F
100
AcDbEntity
  8
중심선
100
AcDbLine
 10
2.268634060543552
 20
16.24717430164393
 30
0.0
 11
0.1404042013395286
 21
13.71084872107135
 31
0.0
  0
LINE
  5
8E
330
7F
100
AcDbEntity
  8
중심선
100
AcDbLine
 10
7.28139805157953
 20
16.24717430164393
 30
0.0
 11
10.72767329541681
 21
16.24717430164393
 31
0.0
  0
LINE
  5
8F
330
7F
100
AcDbEntity
  8
중심선
100
AcDbLine
 10
12.29416204261559
 20
16.24717430164393
 30
0.0
 11
15.74043728645272
 21
16.24717430164393
 31
0.0
  0
LINE
  5
90
330
7F
100
AcDbEntity
  8
중심선
100
AcDbLine
 10
19.22036997980202
 20
11.08717430171403
 30
0.0
 11
23.66174974927406
 21
11.08717430171406
 31
0.0
  0
LINE
  5
91
330
7F
100
AcDbEntity
  8
중심선
100
AcDbLine
 10
19.22039502424796
 20
13.00717430171391
 30
0.0
 11
19.22036997980202
 21
11.08717430171403
 31
0.0
  0
LINE
  5
92
330
7F
100
AcDbEntity
  8
중심선
100
AcDbLine
 10
19.22039502424796
 20
13.00717430171391
 30
0.0
 11
26.96566020931264
 21
13.00717430171391
 31
0.0
  0
LINE
  5
93
330
7F
100
AcDbEntity
  8
중심선
100
AcDbLine
 10
22.22332737316547
 20
13.45928029700563
 30
0.0
 11
24.52862924686651
 21
15.39360700705356
 31
0.0
  0
ATTDEF
  5
95
330
7F
100
AcDbEntity
  8
FORMAT
 62
     2
100
AcDbText
 10
4.408487351596664
 20
2.075366912832191
 30
0.0
 40
4.233333333333333
  1
E2005012
 41
0.75
  7
SLDTEXTSTYLE0
 11
4.408487351596664
 21
-0.0412997538344756
 31
0.0
100
AcDbAttributeDefinition
  3

  2
AUTOATTR0
 70
     0
 74
     1
  0
ENDBLK
  5
81
330
7F
100
AcDbEntity
  8
0
100
AcDbBlockEnd
  0
BLOCK
  5
EE
330
ED
100
AcDbEntity
  8
0
100
AcDbBlockBegin
  2
_D
 70
     0
 10
0.0
 20
0.0
 30
0.0
  3
_D
  1
_D
  0
LINE
  5
F0
330
ED
100
AcDbEntity
  8
치수문자_일반주서
 62
     0
370
    -2
100
AcDbLine
 10
-17.52500000000003
 20
2.381250000000001
 30
0.0
 11
-55.86250000000001
 21
2.381249999999858
 31
0.0
  0
LINE
  5
F1
330
ED
100
AcDbEntity
  8
치수문자_일반주서
 62
     0
370
    -2
100
AcDbLine
 10
-17.52500000000003
 20
-2.381250000000001
 30
0.0
 11
-55.8625
 21
-2.381250000000144
 31
0.0
  0
LINE
  5
F2
330
ED
100
AcDbEntity
  8
치수문자_일반주서
 62
     0
370
    -2
100
AcDbLine
 10
-55.8625
 20
-0.9207500000001412
 30
0.0
 11
-55.8625
 21
0.9207499999998552
 31
0.0
  0
SOLID
  5
F3
330
ED
100
AcDbEntity
  8
치수문자_일반주서
 62
     0
100
AcDbTrace
 10
-55.31216666666667
 20
-0.9207500000001395
 30
0.0
 11
-56.41283333333334
 21
-0.9207500000001428
 31
0.0
 12
-55.86250000000001
 22
2.381249999999858
 32
0.0
 13
-55.86250000000001
 23
2.381249999999858
 33
0.0
  0
SOLID
  5
F4
330
ED
100
AcDbEntity
  8
치수문자_일반주서
 62
     0
100
AcDbTrace
 10
-56.41283333333334
 20
0.9207499999998535
 30
0.0
 11
-55.31216666666667
 21
0.9207499999998568
 31
0.0
 12
-55.8625
 22
-2.381250000000144
 32
0.0
 13
-55.8625
 23
-2.381250000000144
 33
0.0
  0
MTEXT
  5
F5
330
ED
100
AcDbEntity
  8
치수문자_일반주서
 62
     0
100
AcDbMText
 10
-60.2375
 20
-0.0000000000000105
 30
0.0
 40
3.5
 41
0.0
 71
     2
 72
     1
  1
\A1;%%c4.76 [3/16]
  7
SLDTEXTSTYLE0
 11
-2.983906501879684E-15
 21
1.0
 31
0.0
 73
     1
 44
1.0
  0
POINT
  5
F6
330
ED
100
AcDbEntity
  8
Defpoints
 62
     0
100
AcDbPoint
 10
-17.46250000000003
 20
2.381250000000002
 30
0.0
  0
POINT
  5
F7
330
ED
100
AcDbEntity
  8
Defpoints
 62
     0
100
AcDbPoint
 10
-17.46250000000003
 20
-2.381250000000001
 30
0.0
  0
POINT
  5
F8
330
ED
100
AcDbEntity
  8
Defpoints
 62
     0
100
AcDbPoint
 10
-55.8625
 20
-2.381250000000144
 30
0.0
  0
ENDBLK
  5
EF
330
ED
100
AcDbEntity
  8
0
100
AcDbBlockEnd
  0
BLOCK
  5
102
330
101
100
AcDbEntity
  8
0
100
AcDbBlockBegin
  2
_D_1
 70
     0
 10
0.0
 20
0.0
 30
0.0
  3
_D_1
  1
_D_1
  0
LINE
  5
104
330
101
100
AcDbEntity
  8
치수문자_일반주서
 62
     0
370
    -2
100
AcDbLine
 10
42.92500000000003
 20
-2.381249999999994
 30
0.0
 11
61.86250000000013
 21
-2.381249999999923
 31
0.0
  0
LINE
  5
105
330
101
100
AcDbEntity
  8
치수문자_일반주서
 62
     0
370
    -2
100
AcDbLine
 10
42.92500000000003
 20
2.379237403765592
 30
0.0
 11
61.86250000000012
 21
2.379237403765664
 31
0.0
  0
LINE
  5
106
330
101
100
AcDbEntity
  8
치수문자_일반주서
 62
     0
370
    -2
100
AcDbLine
 10
61.86250000000012
 20
2.379237403765664
 30
0.0
 11
61.8625
 21
40.05642533665612
 31
0.0
  0
LINE
  5
107
330
101
100
AcDbEntity
  8
치수문자_일반주서
 62
     0
370
    -2
100
AcDbLine
 10
61.86250000000013
 20
-2.381249999999923
 30
0.0
 11
61.86250000000012
 21
2.379237403765664
 31
0.0
  0
LINE
  5
108
330
101
100
AcDbEntity
  8
치수문자_일반주서
 62
     0
370
    -2
100
AcDbLine
 10
61.86250000000014
 20
-5.683249999999923
 30
0.0
 11
61.86250000000015
 21
-8.985249999999922
 31
0.0
  0
LINE
  5
109
330
101
100
AcDbEntity
  8
치수문자_일반주서
 62
     0
370
    -2
100
AcDbLine
 10
61.86250000000011
 20
5.681237403765664
 30
0.0
 11
61.8625000000001
 21
8.983237403765663
 31
0.0
  0
SOLID
  5
10A
330
101
100
AcDbEntity
  8
치수문자_일반주서
 62
     0
100
AcDbTrace
 10
62.41283333333347
 20
-5.683249999999921
 30
0.0
 11
61.3121666666668
 21
-5.683249999999925
 31
0.0
 12
61.86250000000013
 22
-2.381249999999923
 32
0.0
 13
61.86250000000013
 23
-2.381249999999923
 33
0.0
  0
SOLID
  5
10B
330
101
100
AcDbEntity
  8
치수문자_일반주서
 62
     0
100
AcDbTrace
 10
61.31216666666678
 20
5.681237403765662
 30
0.0
 11
62.41283333333345
 21
5.681237403765666
 31
0.0
 12
61.86250000000012
 22
2.379237403765664
 32
0.0
 13
61.86250000000012
 23
2.379237403765664
 33
0.0
  0
MTEXT
  5
10C
330
101
100
AcDbEntity
  8
치수문자_일반주서
 62
     0
100
AcDbMText
 10
57.48750000000005
 20
26.0564253366561
 30
0.0
 40
3.5
 41
0.0
 71
     2
 72
     1
  1
\A1;%%c4.76 [3/16]
  7
SLDTEXTSTYLE0
 11
-2.985168011149677E-15
 21
1.0
 31
0.0
 73
     1
 44
1.0
  0
POINT
  5
10D
330
101
100
AcDbEntity
  8
Defpoints
 62
     0
100
AcDbPoint
 10
42.86250000000003
 20
-2.381249999999994
 30
0.0
  0
POINT
  5
10E
330
101
100
AcDbEntity
  8
Defpoints
 62
     0
100
AcDbPoint
 10
42.86250000000003
 20
2.379237403765591
 30
0.0
  0
POINT
  5
10F
330
101
100
AcDbEntity
  8
Defpoints
 62
     0
100
AcDbPoint
 10
61.86250000000012
 20
2.379237403765663
 30
0.0
  0
ENDBLK
  5
103
330
101
100
AcDbEntity
  8
0
100
AcDbBlockEnd
  0
BLOCK
  5
117
330
116
100
AcDbEntity
  8
0
100
AcDbBlockBegin
  2
_D_2
 70
     0
 10
0.0
 20
0.0
 30
0.0
  3
_D_2
  1
_D_2
  0
LINE
  5
119
330
116
100
AcDbEntity
  8
치수문자_일반주서
 62
     0
370
    -2
100
AcDbLine
 10
42.86250000000003
 20
2.441737403765591
 30
0.0
 11
42.86250000000003
 21
14.35800365487034
 31
0.0
  0
LINE
  5
11A
330
116
100
AcDbEntity
  8
치수문자_일반주서
 62
     0
370
    -2
100
AcDbLine
 10
17.46250000000003
 20
2.43540861330292
 30
0.0
 11
17.46250000000003
 21
14.35800365487034
 31
0.0
  0
LINE
  5
11B
330
116
100
AcDbEntity
  8
치수문자_일반주서
 62
     0
370
    -2
100
AcDbLine
 10
17.46250000000003
 20
14.35800365487034
 30
0.0
 11
-15.25218766114553
 21
14.35800365487034
 31
0.0
  0
LINE
  5
11C
330
116
100
AcDbEntity
  8
치수문자_일반주서
 62
     0
370
    -2
100
AcDbLine
 10
42.86250000000003
 20
14.35800365487034
 30
0.0
 11
17.46250000000003
 21
14.35800365487034
 31
0.0
  0
LINE
  5
11D
330
116
100
AcDbEntity
  8
치수문자_일반주서
 62
     0
370
    -2
100
AcDbLine
 10
46.16450000000003
 20
14.35800365487034
 30
0.0
 11
49.46650000000003
 21
14.35800365487034
 31
0.0
  0
LINE
  5
11E
330
116
100
AcDbEntity
  8
치수문자_일반주서
 62
     0
370
    -2
100
AcDbLine
 10
14.16050000000003
 20
14.35800365487034
 30
0.0
 11
10.85850000000003
 21
14.35800365487034
 31
0.0
  0
SOLID
  5
11F
330
116
100
AcDbEntity
  8
치수문자_일반주서
 62
     0
100
AcDbTrace
 10
46.16450000000003
 20
14.90833698820367
 30
0.0
 11
46.16450000000003
 21
13.807670321537
 31
0.0
 12
42.86250000000003
 22
14.35800365487034
 32
0.0
 13
42.86250000000003
 23
14.35800365487034
 33
0.0
  0
SOLID
  5
120
330
116
100
AcDbEntity
  8
치수문자_일반주서
 62
     0
100
AcDbTrace
 10
14.16050000000003
 20
13.807670321537
 30
0.0
 11
14.16050000000003
 21
14.90833698820367
 31
0.0
 12
17.46250000000003
 22
14.35800365487034
 32
0.0
 13
17.46250000000003
 23
14.35800365487034
 33
0.0
  0
MTEXT
  5
121
330
116
100
AcDbEntity
  8
치수문자_일반주서
 62
     0
100
AcDbMText
 10
-6.502187661145532
 20
18.73300365487034
 30
0.0
 40
3.5
 41
0.0
 71
     2
 72
     1
  1
\A1;25.4 [1]
  7
SLDTEXTSTYLE0
 73
     1
 44
1.0
  0
POINT
  5
122
330
116
100
AcDbEntity
  8
Defpoints
 62
     0
100
AcDbPoint
 10
42.86250000000003
 20
2.379237403765591
 30
0.0
  0
POINT
  5
19E
330
116
100
AcDbEntity
  8
Defpoints
 62
     0
100
AcDbPoint
 10
17.46250000000003
 20
2.37290861330292
 30
0.0
  0
POINT
  5
19F
330
116
100
AcDbEntity
  8
Defpoints
 62
     0
100
AcDbPoint
 10
17.46250000000003
 20
14.35800365487034
 30
0.0
  0
ENDBLK
  5
118
330
116
100
AcDbEntity
  8
0
100
AcDbBlockEnd
  0
BLOCK
  5
12C
330
12B
100
AcDbEntity
  8
0
100
AcDbBlockBegin
  2
_D_3
 70
     0
 10
0.0
 20
0.0
 30
0.0
  3
_D_3
  1
_D_3
  0
LINE
  5
12E
330
12B
100
AcDbEntity
  8
치수문자_일반주서
 62
     0
370
    -2
100
AcDbLine
 10
-42.86249999999998
 20
2.013749999999991
 30
0.0
 11
-42.86249999999998
 21
23.32445859659836
 31
0.0
  0
LINE
  5
12F
330
12B
100
AcDbEntity
  8
치수문자_일반주서
 62
     0
370
    -2
100
AcDbLine
 10
42.86250000000003
 20
2.441737403765591
 30
0.0
 11
42.86250000000003
 21
23.32445859659836
 31
0.0
  0
LINE
  5
130
330
12B
100
AcDbEntity
  8
치수문자_일반주서
 62
     0
370
    -2
100
AcDbLine
 10
-39.56049999999998
 20
23.32445859659836
 30
0.0
 11
39.56050000000003
 21
23.32445859659836
 31
0.0
  0
SOLID
  5
131
330
12B
100
AcDbEntity
  8
치수문자_일반주서
 62
     0
100
AcDbTrace
 10
-39.56049999999998
 20
23.8747919299317
 30
0.0
 11
-39.56049999999998
 21
22.77412526326503
 31
0.0
 12
-42.86249999999998
 22
23.32445859659836
 32
0.0
 13
-42.86249999999998
 23
23.32445859659836
 33
0.0
  0
SOLID
  5
132
330
12B
100
AcDbEntity
  8
치수문자_일반주서
 62
     0
100
AcDbTrace
 10
39.56050000000003
 20
22.77412526326503
 30
0.0
 11
39.56050000000003
 21
23.8747919299317
 31
0.0
 12
42.86250000000003
 22
23.32445859659836
 32
0.0
 13
42.86250000000003
 23
23.32445859659836
 33
0.0
  0
MTEXT
  5
133
330
12B
100
AcDbEntity
  8
치수문자_일반주서
 62
     0
100
AcDbMText
 10
0.0000000000000302
 20
27.69945859659836
 30
0.0
 40
3.5
 41
0.0
 71
     2
 72
     1
  1
\A1;85.73 [3 3/8]
  7
SLDTEXTSTYLE0
 73
     1
 44
1.0
  0
POINT
  5
134
330
12B
100
AcDbEntity
  8
Defpoints
 62
     0
100
AcDbPoint
 10
-42.86249999999998
 20
1.951249999999991
 30
0.0
  0
POINT
  5
135
330
12B
100
AcDbEntity
  8
Defpoints
 62
     0
100
AcDbPoint
 10
42.86250000000003
 20
2.379237403765591
 30
0.0
  0
POINT
  5
136
330
12B
100
AcDbEntity
  8
Defpoints
 62
     0
100
AcDbPoint
 10
42.86250000000003
 20
23.32445859659836
 30
0.0
  0
ENDBLK
  5
12D
330
12B
100
AcDbEntity
  8
0
100
AcDbBlockEnd
  0
BLOCK
  5
145
330
144
100
AcDbEntity
  8
0
100
AcDbBlockBegin
  2
SW_DOWELSYMBOL_0
 70
     0
 10
0.0
 20
0.0
 30
0.0
  3
SW_DOWELSYMBOL_0
  1
SW_DOWELSYMBOL_0
  0
CIRCLE
  5
147
330
144
100
AcDbEntity
  8
해칭선
 62
     0
100
AcDbCircle
 10
0.0
 20
0.0
 30
0.0
 40
3.000000000000001
  0
HATCH
  5
148
330
144
100
AcDbEntity
  8
0
  6
Continuous
 62
     0
370
     0
100
AcDbHatch
 10
0.0
 20
0.0
 30
0.0
210
0.0
220
0.0
230
1.0
  2
SOLID
 70
     1
 71
     0
 91
        1
 92
        0
 93
        3
 72
     2
 10
0.0
 20
0.0
 40
3.000000000000001
 50
0.0
 51
90.0
 73
     1
 72
     1
 10
0.0
 20
3.000000000000001
 11
0.0
 21
0.0
 72
     1
 10
0.0
 20
0.0
 11
3.000000000000001
 21
0.0
 97
        0
 75
     0
 76
     1
 98
        1
 10
0.0
 20
0.0
  0
HATCH
  5
149
330
144
100
AcDbEntity
  8
0
  6
Continuous
 62
     0
370
     0
100
AcDbHatch
 10
0.0
 20
0.0
 30
0.0
210
0.0
220
0.0
230
1.0
  2
SOLID
 70
     1
 71
     0
 91
        1
 92
        0
 93
        3
 72
     2
 10
0.0
 20
0.0
 40
3.000000000000001
 50
180.0
 51
270.0000000000008
 73
     1
 72
     1
 10
0.0
 20
-3.000000000000001
 11
0.0
 21
0.0
 72
     1
 10
0.0
 20
0.0
 11
-3.000000000000001
 21
0.0
 97
        0
 75
     0
 76
     1
 98
        1
 10
0.0
 20
0.0
  0
ENDBLK
  5
146
330
144
100
AcDbEntity
  8
0
100
AcDbBlockEnd
  0
BLOCK
  5
248
330
247
100
AcDbEntity
  8
0
100
AcDbBlockBegin
  2
*D9
 70
     1
 10
0.0
 20
0.0
 30
0.0
  3
*D9
  1
*D9
  0
LINE
  5
24A
330
247
100
AcDbEntity
  8
치수문자_일반주서
 62
     0
370
    -2
100
AcDbLine
 10
88.78750000000002
 20
6.603999999999927
 30
0.0
 11
107.7250000000001
 21
6.603999999999999
 31
0.0
  0
LINE
  5
24B
330
247
100
AcDbEntity
  8
치수문자_일반주서
 62
     0
370
    -2
100
AcDbLine
 10
88.78750000000002
 20
11.36247480753111
 30
0.0
 11
107.7250000000001
 21
11.36247480753119
 31
0.0
  0
LINE
  5
24C
330
247
100
AcDbEntity
  8
치수문자_일반주서
 62
     0
370
    -2
100
AcDbLine
 10
107.7250000000001
 20
11.36247480753119
 30
0.0
 11
107.725
 21
49.03966274042164
 31
0.0
  0
LINE
  5
24D
330
247
100
AcDbEntity
  8
치수문자_일반주서
 62
     0
370
    -2
100
AcDbLine
 10
107.7250000000001
 20
6.603999999999999
 30
0.0
 11
107.7250000000001
 21
11.36247480753119
 31
0.0
  0
LINE
  5
24E
330
247
100
AcDbEntity
  8
치수문자_일반주서
 62
     0
370
    -2
100
AcDbLine
 10
107.7250000000002
 20
3.302
 30
0.0
 11
107.7250000000002
 21
0.0
 31
0.0
  0
LINE
  5
24F
330
247
100
AcDbEntity
  8
치수문자_일반주서
 62
     0
370
    -2
100
AcDbLine
 10
107.7250000000001
 20
14.66447480753119
 30
0.0
 11
107.7250000000001
 21
17.96647480753118
 31
0.0
  0
SOLID
  5
250
330
247
100
AcDbEntity
  8
치수문자_일반주서
 62
     0
100
AcDbTrace
 10
108.2753333333335
 20
3.302000000000001
 30
0.0
 11
107.1746666666668
 21
3.301999999999998
 31
0.0
 12
107.7250000000001
 22
6.603999999999999
 32
0.0
 13
107.7250000000001
 23
6.603999999999999
 33
0.0
  0
SOLID
  5
251
330
247
100
AcDbEntity
  8
치수문자_일반주서
 62
     0
100
AcDbTrace
 10
107.1746666666668
 20
14.66447480753118
 30
0.0
 11
108.2753333333334
 21
14.66447480753119
 31
0.0
 12
107.7250000000001
 22
11.36247480753119
 32
0.0
 13
107.7250000000001
 23
11.36247480753119
 33
0.0
  0
MTEXT
  5
252
330
247
100
AcDbEntity
  8
치수문자_일반주서
 62
     0
100
AcDbMText
 10
103.3500000000001
 20
35.03966274042163
 30
0.0
 40
3.5
 41
0.0
 71
     2
 72
     1
  1
\A1;%%c4.76 [3/16]
  7
SLDTEXTSTYLE0
 11
-2.986430587529988E-15
 21
1.0
 31
0.0
 73
     1
 44
1.0
  0
POINT
  5
253
330
247
100
AcDbEntity
  8
Defpoints
 62
     0
100
AcDbPoint
 10
88.72500000000002
 20
6.603999999999927
 30
0.0
  0
POINT
  5
254
330
247
100
AcDbEntity
  8
Defpoints
 62
     0
100
AcDbPoint
 10
88.72500000000002
 20
11.36247480753111
 30
0.0
  0
POINT
  5
255
330
247
100
AcDbEntity
  8
Defpoints
 62
     0
100
AcDbPoint
 10
107.7250000000001
 20
11.36247480753118
 30
0.0
  0
ENDBLK
  5
249
330
247
100
AcDbEntity
  8
0
100
AcDbBlockEnd
  0
BLOCK
  5
257
330
256
100
AcDbEntity
  8
0
100
AcDbBlockBegin
  2
*D10
 70
     1
 10
0.0
 20
0.0
 30
0.0
  3
*D10
  1
*D10
  0
LINE
  5
259
330
256
100
AcDbEntity
  8
치수문자_일반주서
 62
     0
370
    -2
100
AcDbLine
 10
88.72500000000002
 20
11.42497480753111
 30
0.0
 11
88.72500000000002
 21
23.34124105863586
 31
0.0
  0
LINE
  5
25A
330
256
100
AcDbEntity
  8
치수문자_일반주서
 62
     0
370
    -2
100
AcDbLine
 10
63.32500000000002
 20
11.41864601706844
 30
0.0
 11
63.32500000000002
 21
23.34124105863586
 31
0.0
  0
LINE
  5
25B
330
256
100
AcDbEntity
  8
치수문자_일반주서
 62
     0
370
    -2
100
AcDbLine
 10
63.32500000000002
 20
23.34124105863586
 30
0.0
 11
30.61031233885446
 21
23.34124105863586
 31
0.0
  0
LINE
  5
25C
330
256
100
AcDbEntity
  8
치수문자_일반주서
 62
     0
370
    -2
100
AcDbLine
 10
88.72500000000002
 20
23.34124105863586
 30
0.0
 11
63.32500000000002
 21
23.34124105863586
 31
0.0
  0
LINE
  5
25D
330
256
100
AcDbEntity
  8
치수문자_일반주서
 62
     0
370
    -2
100
AcDbLine
 10
92.02700000000002
 20
23.34124105863586
 30
0.0
 11
95.32900000000001
 21
23.34124105863586
 31
0.0
  0
LINE
  5
25E
330
256
100
AcDbEntity
  8
치수문자_일반주서
 62
     0
370
    -2
100
AcDbLine
 10
60.02300000000002
 20
23.34124105863586
 30
0.0
 11
56.72100000000002
 21
23.34124105863586
 31
0.0
  0
SOLID
  5
25F
330
256
100
AcDbEntity
  8
치수문자_일반주서
 62
     0
100
AcDbTrace
 10
92.02700000000002
 20
23.89157439196919
 30
0.0
 11
92.02700000000002
 21
22.79090772530252
 31
0.0
 12
88.72500000000002
 22
23.34124105863586
 32
0.0
 13
88.72500000000002
 23
23.34124105863586
 33
0.0
  0
SOLID
  5
260
330
256
100
AcDbEntity
  8
치수문자_일반주서
 62
     0
100
AcDbTrace
 10
60.02300000000002
 20
22.79090772530252
 30
0.0
 11
60.02300000000002
 21
23.89157439196919
 31
0.0
 12
63.32500000000002
 22
23.34124105863586
 32
0.0
 13
63.32500000000002
 23
23.34124105863586
 33
0.0
  0
MTEXT
  5
261
330
256
100
AcDbEntity
  8
치수문자_일반주서
 62
     0
100
AcDbMText
 10
39.36031233885446
 20
27.71624105863586
 30
0.0
 40
3.5
 41
0.0
 71
     2
 72
     1
  1
\A1;25.4 [1]
  7
SLDTEXTSTYLE0
 73
     1
 44
1.0
  0
POINT
  5
262
330
256
100
AcDbEntity
  8
Defpoints
 62
     0
100
AcDbPoint
 10
88.72500000000002
 20
11.36247480753111
 30
0.0
  0
POINT
  5
263
330
256
100
AcDbEntity
  8
Defpoints
 62
     0
100
AcDbPoint
 10
63.32500000000002
 20
11.35614601706844
 30
0.0
  0
POINT
  5
264
330
256
100
AcDbEntity
  8
Defpoints
 62
     0
100
AcDbPoint
 10
63.32500000000002
 20
23.34124105863586
 30
0.0
  0
ENDBLK
  5
258
330
256
100
AcDbEntity
  8
0
100
AcDbBlockEnd
  0
BLOCK
  5
266
330
265
100
AcDbEntity
  8
0
100
AcDbBlockBegin
  2
*D11
 70
     1
 10
0.0
 20
0.0
 30
0.0
  3
*D11
  1
*D11
  0
LINE
  5
268
330
265
100
AcDbEntity
  8
치수문자_일반주서
 62
     0
370
    -2
100
AcDbLine
 10
3.000000000000021
 20
10.99698740376551
 30
0.0
 11
3.000000000000028
 21
32.30769600036388
 31
0.0
  0
LINE
  5
269
330
265
100
AcDbEntity
  8
치수문자_일반주서
 62
     0
370
    -2
100
AcDbLine
 10
88.72500000000002
 20
11.42497480753111
 30
0.0
 11
88.72500000000002
 21
32.30769600036388
 31
0.0
  0
LINE
  5
26A
330
265
100
AcDbEntity
  8
치수문자_일반주서
 62
     0
370
    -2
100
AcDbLine
 10
6.302000000000028
 20
32.30769600036388
 30
0.0
 11
85.42300000000003
 21
32.30769600036388
 31
0.0
  0
SOLID
  5
26B
330
265
100
AcDbEntity
  8
치수문자_일반주서
 62
     0
100
AcDbTrace
 10
6.302000000000028
 20
32.85802933369722
 30
0.0
 11
6.302000000000028
 21
31.75736266703055
 31
0.0
 12
3.000000000000028
 22
32.30769600036388
 32
0.0
 13
3.000000000000028
 23
32.30769600036388
 33
0.0
  0
SOLID
  5
26C
330
265
100
AcDbEntity
  8
치수문자_일반주서
 62
     0
100
AcDbTrace
 10
85.42300000000003
 20
31.75736266703055
 30
0.0
 11
85.42300000000003
 21
32.85802933369722
 31
0.0
 12
88.72500000000002
 22
32.30769600036388
 32
0.0
 13
88.72500000000002
 23
32.30769600036388
 33
0.0
  0
MTEXT
  5
26D
330
265
100
AcDbEntity
  8
치수문자_일반주서
 62
     0
100
AcDbMText
 10
45.86250000000003
 20
36.68269600036388
 30
0.0
 40
3.5
 41
0.0
 71
     2
 72
     1
  1
\A1;85.73 [3 3/8]
  7
SLDTEXTSTYLE0
 73
     1
 44
1.0
  0
POINT
  5
26E
330
265
100
AcDbEntity
  8
Defpoints
 62
     0
100
AcDbPoint
 10
3.000000000000021
 20
10.93448740376551
 30
0.0
  0
POINT
  5
26F
330
265
100
AcDbEntity
  8
Defpoints
 62
     0
100
AcDbPoint
 10
88.72500000000002
 20
11.36247480753111
 30
0.0
  0
POINT
  5
270
330
265
100
AcDbEntity
  8
Defpoints
 62
     0
100
AcDbPoint
 10
88.72500000000002
 20
32.30769600036388
 30
0.0
  0
ENDBLK
  5
267
330
265
100
AcDbEntity
  8
0
100
AcDbBlockEnd
  0
BLOCK
  5
2BF
330
2BE
100
AcDbEntity
  8
0
100
AcDbBlockBegin
  2
*D12
 70
     1
 10
0.0
 20
0.0
 30
0.0
  3
*D12
  1
*D12
  0
LINE
  5
2C1
330
2BE
100
AcDbEntity
  8
치수문자_일반주서
 62
     0
370
    -2
100
AcDbLine
 10
168.8386064826053
 20
-46.64061295505587
 30
0.0
 11
187.7761064826055
 21
-46.6406129550558
 31
0.0
  0
LINE
  5
2C2
330
2BE
100
AcDbEntity
  8
치수문자_일반주서
 62
     0
370
    -2
100
AcDbLine
 10
168.8386064826053
 20
-41.88213814752469
 30
0.0
 11
187.7761064826055
 21
-41.88213814752461
 31
0.0
  0
LINE
  5
2C3
330
2BE
100
AcDbEntity
  8
치수문자_일반주서
 62
     0
370
    -2
100
AcDbLine
 10
187.7761064826055
 20
-41.88213814752461
 30
0.0
 11
187.7761064826053
 21
-4.20495021463416
 31
0.0
  0
LINE
  5
2C4
330
2BE
100
AcDbEntity
  8
치수문자_일반주서
 62
     0
370
    -2
100
AcDbLine
 10
187.7761064826055
 20
-46.6406129550558
 30
0.0
 11
187.7761064826055
 21
-41.88213814752461
 31
0.0
  0
LINE
  5
2C5
330
2BE
100
AcDbEntity
  8
치수문자_일반주서
 62
     0
370
    -2
100
AcDbLine
 10
187.7761064826056
 20
-49.9426129550558
 30
0.0
 11
187.7761064826056
 21
-53.2446129550558
 31
0.0
  0
LINE
  5
2C6
330
2BE
100
AcDbEntity
  8
치수문자_일반주서
 62
     0
370
    -2
100
AcDbLine
 10
187.7761064826055
 20
-38.58013814752461
 30
0.0
 11
187.7761064826055
 21
-35.27813814752461
 31
0.0
  0
SOLID
  5
2C7
330
2BE
100
AcDbEntity
  8
치수문자_일반주서
 62
     0
100
AcDbTrace
 10
188.3264398159389
 20
-49.9426129550558
 30
0.0
 11
187.2257731492722
 21
-49.9426129550558
 31
0.0
 12
187.7761064826055
 22
-46.6406129550558
 32
0.0
 13
187.7761064826055
 23
-46.6406129550558
 33
0.0
  0
SOLID
  5
2C8
330
2BE
100
AcDbEntity
  8
치수문자_일반주서
 62
     0
100
AcDbTrace
 10
187.2257731492722
 20
-38.58013814752461
 30
0.0
 11
188.3264398159388
 21
-38.58013814752461
 31
0.0
 12
187.7761064826055
 22
-41.88213814752461
 32
0.0
 13
187.7761064826055
 23
-41.88213814752461
 33
0.0
  0
MTEXT
  5
2C9
330
2BE
100
AcDbEntity
  8
치수문자_일반주서
 62
     0
100
AcDbMText
 10
183.4011064826054
 20
-18.20495021463418
 30
0.0
 40
3.5
 41
0.0
 71
     2
 72
     1
  1
\A1;%%c4.76 [3/16]
  7
SLDTEXTSTYLE0
 11
-5.972861175059974E-15
 21
1.0
 31
0.0
 73
     1
 44
1.0
  0
POINT
  5
2CA
330
2BE
100
AcDbEntity
  8
Defpoints
 62
     0
100
AcDbPoint
 10
168.7761064826053
 20
-46.64061295505587
 30
0.0
  0
POINT
  5
2CB
330
2BE
100
AcDbEntity
  8
Defpoints
 62
     0
100
AcDbPoint
 10
168.7761064826053
 20
-41.88213814752469
 30
0.0
  0
POINT
  5
2CC
330
2BE
100
AcDbEntity
  8
Defpoints
 62
     0
100
AcDbPoint
 10
187.7761064826054
 20
-41.88213814752461
 30
0.0
  0
ENDBLK
  5
2C0
330
2BE
100
AcDbEntity
  8
0
100
AcDbBlockEnd
  0
BLOCK
  5
2CE
330
2CD
100
AcDbEntity
  8
0
100
AcDbBlockBegin
  2
*D13
 70
     1
 10
0.0
 20
0.0
 30
0.0
  3
*D13
  1
*D13
  0
LINE
  5
2D0
330
2CD
100
AcDbEntity
  8
치수문자_일반주서
 62
     0
370
    -2
100
AcDbLine
 10
168.7761064826053
 20
-41.81963814752469
 30
0.0
 11
168.7761064826053
 21
-29.90337189641994
 31
0.0
  0
LINE
  5
2D1
330
2CD
100
AcDbEntity
  8
치수문자_일반주서
 62
     0
370
    -2
100
AcDbLine
 10
143.3761064826053
 20
-41.82596693798736
 30
0.0
 11
143.3761064826053
 21
-29.90337189641994
 31
0.0
  0
LINE
  5
2D2
330
2CD
100
AcDbEntity
  8
치수문자_일반주서
 62
     0
370
    -2
100
AcDbLine
 10
143.3761064826053
 20
-29.90337189641994
 30
0.0
 11
110.6614188214598
 21
-29.90337189641994
 31
0.0
  0
LINE
  5
2D3
330
2CD
100
AcDbEntity
  8
치수문자_일반주서
 62
     0
370
    -2
100
AcDbLine
 10
168.7761064826053
 20
-29.90337189641994
 30
0.0
 11
143.3761064826053
 21
-29.90337189641994
 31
0.0
  0
LINE
  5
2D4
330
2CD
100
AcDbEntity
  8
치수문자_일반주서
 62
     0
370
    -2
100
AcDbLine
 10
172.0781064826053
 20
-29.90337189641994
 30
0.0
 11
175.3801064826053
 21
-29.90337189641994
 31
0.0
  0
LINE
  5
2D5
330
2CD
100
AcDbEntity
  8
치수문자_일반주서
 62
     0
370
    -2
100
AcDbLine
 10
140.0741064826053
 20
-29.90337189641994
 30
0.0
 11
136.7721064826054
 21
-29.90337189641994
 31
0.0
  0
SOLID
  5
2D6
330
2CD
100
AcDbEntity
  8
치수문자_일반주서
 62
     0
100
AcDbTrace
 10
172.0781064826053
 20
-29.35303856308661
 30
0.0
 11
172.0781064826053
 21
-30.45370522975328
 31
0.0
 12
168.7761064826053
 22
-29.90337189641994
 32
0.0
 13
168.7761064826053
 23
-29.90337189641994
 33
0.0
  0
SOLID
  5
2D7
330
2CD
100
AcDbEntity
  8
치수문자_일반주서
 62
     0
100
AcDbTrace
 10
140.0741064826053
 20
-30.45370522975328
 30
0.0
 11
140.0741064826053
 21
-29.35303856308661
 31
0.0
 12
143.3761064826053
 22
-29.90337189641994
 32
0.0
 13
143.3761064826053
 23
-29.90337189641994
 33
0.0
  0
MTEXT
  5
2D8
330
2CD
100
AcDbEntity
  8
치수문자_일반주서
 62
     0
100
AcDbMText
 10
119.4114188214598
 20
-25.52837189641994
 30
0.0
 40
3.5
 41
0.0
 71
     2
 72
     1
  1
\A1;25.4 [1]
  7
SLDTEXTSTYLE0
 73
     1
 44
1.0
  0
POINT
  5
2D9
330
2CD
100
AcDbEntity
  8
Defpoints
 62
     0
100
AcDbPoint
 10
168.7761064826053
 20
-41.88213814752469
 30
0.0
  0
POINT
  5
2DA
330
2CD
100
AcDbEntity
  8
Defpoints
 62
     0
100
AcDbPoint
 10
143.3761064826053
 20
-41.88846693798736
 30
0.0
  0
POINT
  5
2DB
330
2CD
100
AcDbEntity
  8
Defpoints
 62
     0
100
AcDbPoint
 10
143.3761064826053
 20
-29.90337189641994
 30
0.0
  0
ENDBLK
  5
2CF
330
2CD
100
AcDbEntity
  8
0
100
AcDbBlockEnd
  0
BLOCK
  5
2DD
330
2DC
100
AcDbEntity
  8
0
100
AcDbBlockBegin
  2
*D14
 70
     1
 10
0.0
 20
0.0
 30
0.0
  3
*D14
  1
*D14
  0
LINE
  5
2DF
330
2DC
100
AcDbEntity
  8
치수문자_일반주서
 62
     0
370
    -2
100
AcDbLine
 10
83.05110648260532
 20
-42.24762555129028
 30
0.0
 11
83.05110648260532
 21
-20.93691695469192
 31
0.0
  0
LINE
  5
2E0
330
2DC
100
AcDbEntity
  8
치수문자_일반주서
 62
     0
370
    -2
100
AcDbLine
 10
168.7761064826053
 20
-41.81963814752469
 30
0.0
 11
168.7761064826053
 21
-20.93691695469192
 31
0.0
  0
LINE
  5
2E1
330
2DC
100
AcDbEntity
  8
치수문자_일반주서
 62
     0
370
    -2
100
AcDbLine
 10
86.35310648260531
 20
-20.93691695469192
 30
0.0
 11
165.4741064826053
 21
-20.93691695469192
 31
0.0
  0
SOLID
  5
2E2
330
2DC
100
AcDbEntity
  8
치수문자_일반주서
 62
     0
100
AcDbTrace
 10
86.35310648260531
 20
-20.38658362135858
 30
0.0
 11
86.35310648260531
 21
-21.48725028802525
 31
0.0
 12
83.05110648260532
 22
-20.93691695469192
 32
0.0
 13
83.05110648260532
 23
-20.93691695469192
 33
0.0
  0
SOLID
  5
2E3
330
2DC
100
AcDbEntity
  8
치수문자_일반주서
 62
     0
100
AcDbTrace
 10
165.4741064826053
 20
-21.48725028802525
 30
0.0
 11
165.4741064826053
 21
-20.38658362135858
 31
0.0
 12
168.7761064826053
 22
-20.93691695469192
 32
0.0
 13
168.7761064826053
 23
-20.93691695469192
 33
0.0
  0
MTEXT
  5
2E4
330
2DC
100
AcDbEntity
  8
치수문자_일반주서
 62
     0
100
AcDbMText
 10
125.9136064826053
 20
-16.56191695469192
 30
0.0
 40
3.5
 41
0.0
 71
     2
 72
     1
  1
\A1;85.73 [3 3/8]
  7
SLDTEXTSTYLE0
 73
     1
 44
1.0
  0
POINT
  5
2E5
330
2DC
100
AcDbEntity
  8
Defpoints
 62
     0
100
AcDbPoint
 10
83.05110648260532
 20
-42.31012555129028
 30
0.0
  0
POINT
  5
2E6
330
2DC
100
AcDbEntity
  8
Defpoints
 62
     0
100
AcDbPoint
 10
168.7761064826053
 20
-41.88213814752469
 30
0.0
  0
POINT
  5
2E7
330
2DC
100
AcDbEntity
  8
Defpoints
 62
     0
100
AcDbPoint
 10
168.7761064826053
 20
-20.93691695469192
 30
0.0
  0
ENDBLK
  5
2DE
330
2DC
100
AcDbEntity
  8
0
100
AcDbBlockEnd
  0
ENDSEC
  0
SECTION
  2
ENTITIES
  0
LINE
  5
96
330
1F
100
AcDbEntity
  8
외형선
  6
Continuous
370
    15
100
AcDbLine
 10
16.57258841069249
 20
2.381249999999999
 30
0.0
 11
-16.57258841069251
 21
2.381249999999997
 31
0.0
  0
LINE
  5
97
330
1F
100
AcDbEntity
  8
외형선
  6
Continuous
370
    15
100
AcDbLine
 10
17.46250000000003
 20
2.381249999999999
 30
0.0
 11
17.11770366496636
 21
2.381249999999999
 31
0.0
  0
LINE
  5
98
330
1F
100
AcDbEntity
  8
외형선
  6
Continuous
370
    15
100
AcDbLine
 10
17.11770366496637
 20
-2.381250000000001
 30
0.0
 11
17.46250000000003
 21
-2.381250000000001
 31
0.0
  0
SPLINE
  5
9C
330
1F
100
AcDbEntity
  8
0
  6
Continuous
 62
     1
370
    15
100
AcDbSpline
210
0.0
220
0.0
230
1.0
 70
     8
 71
     3
 72
     9
 73
     5
 74
     0
 42
0.000000001
 43
0.00000001
 40
0.0
 40
0.0
 40
0.0
 40
0.0
 40
0.4369568795859085
 40
1.0
 40
1.0
 40
1.0
 40
1.0
 10
23.73662876571581
 20
0.6102002539067538
 30
0.0
 10
23.64019645545062
 20
0.6559612268338872
 30
0.0
 10
23.41950577687248
 20
0.7606877457766711
 30
0.0
 10
23.19881598755319
 20
0.8758051094009222
 30
0.0
 10
23.07455811993132
 20
0.9406211490297642
 30
0.0
  0
SPLINE
  5
9D
330
1F
100
AcDbEntity
  8
0
  6
Continuous
 62
     1
370
    15
100
AcDbSpline
210
0.0
220
0.0
230
1.0
 70
     8
 71
     3
 72
     9
 73
     5
 74
     0
 42
0.000000001
 43
0.00000001
 40
0.0
 40
0.0
 40
0.0
 40
0.0
 40
0.5371390472581823
 40
1.0
 40
1.0
 40
1.0
 40
1.0
 10
36.69433381913718
 20
0.6100244898816896
 30
0.0
 10
36.57566911463199
 20
0.6665194391397307
 30
0.0
 10
36.35474921482037
 20
0.7716969523859162
 30
0.0
 10
36.13396658950625
 20
0.8872129374985755
 30
0.0
 10
36.03177493320452
 20
0.9406807764247308
 30
0.0
  0
LINE
  5
9E
330
1F
100
AcDbEntity
  8
0
  6
Continuous
 62
     1
370
    15
100
AcDbLine
 10
35.6589821942775
 20
0.5159695548344654
 30
0.0
 11
35.35120468242414
 21
0.6845686206356202
 31
0.0
  0
LINE
  5
9F
330
1F
100
AcDbEntity
  8
0
  6
Continuous
 62
     1
370
    15
100
AcDbLine
 10
22.68152303640942
 20
0.5267591280084782
 30
0.0
 11
22.39407982200289
 21
0.684455934046372
 31
0.0
  0
LINE
  5
A0
330
1F
100
AcDbEntity
  8
0
  6
Continuous
 62
     1
370
    15
100
AcDbLine
 10
17.46250000000003
 20
-2.381250000000003
 30
0.0
 11
18.27180509958887
 21
-2.381250000000003
 31
0.0
  0
LINE
  5
A1
330
1F
100
AcDbEntity
  8
0
  6
Continuous
 62
     1
370
    15
100
AcDbLine
 10
31.22921697812971
 20
2.381250000000001
 30
0.0
 11
30.07500632822774
 21
2.381250000000001
 31
0.0
  0
LINE
  5
A2
330
1F
100
AcDbEntity
  8
0
  6
Continuous
 62
     1
370
    15
100
AcDbLine
 10
30.07500632822773
 20
-2.381250000000003
 30
0.0
 11
31.2292169781297
 21
-2.381250000000003
 31
0.0
  0
LINE
  5
A3
330
1F
100
AcDbEntity
  8
0
  6
Continuous
 62
     1
370
    15
100
AcDbLine
 10
18.27180509958885
 20
2.381250000000001
 30
0.0
 11
17.46250000000003
 21
2.381250000000001
 31
0.0
  0
SPLINE
  5
A4
330
1F
100
AcDbEntity
  8
0
  6
Continuous
 62
     1
370
    15
100
AcDbSpline
210
0.0
220
0.0
230
1.0
 70
     8
 71
     3
 72
    20
 73
    16
 74
     0
 42
0.000000001
 43
0.00000001
 40
0.0
 40
0.0
 40
0.0
 40
0.0
 40
0.1342724168584127
 40
0.223401660043657
 40
0.2765837916532222
 40
0.3286702365472596
 40
0.3832865644492039
 40
0.4416226820590166
 40
0.5030885047821325
 40
0.5749912172291402
 40
0.6463930810660129
 40
0.7175482041530195
 40
0.7854872410252048
 40
0.8696237343114999
 40
1.0
 40
1.0
 40
1.0
 40
1.0
 10
19.36693713006016
 20
-1.981527537041324
 30
0.0
 10
19.52738689885491
 20
-1.966277351582873
 30
0.0
 10
19.79434228359462
 20
-1.940904182416015
 30
0.0
 10
20.12432959983585
 20
-1.916542310348164
 30
0.0
 10
20.35636441900319
 20
-1.9015384436913
 30
0.0
 10
20.54707980838119
 20
-1.890693897464795
 30
0.0
 10
20.74405302268831
 20
-1.881166979217842
 30
0.0
 10
20.95228127083665
 20
-1.872960195121186
 30
0.0
 10
21.18117151603361
 20
-1.866089382133704
 30
0.0
 10
21.42569542888513
 20
-1.861307218835493
 30
0.0
 10
21.68153953722708
 20
-1.859208580395507
 30
0.0
 10
21.93299221701574
 20
-1.860036377733973
 30
0.0
 10
22.19814122416488
 20
-1.863898561239126
 30
0.0
 10
22.53441398565332
 20
-1.872387465603935
 30
0.0
 10
22.7917467205729
 20
-1.884729907560004
 30
0.0
 10
22.94814805156395
 20
-1.892231379730704
 30
0.0
  0
SPLINE
  5
A5
330
1F
100
AcDbEntity
  8
0
  6
Continuous
 62
     1
370
    15
100
AcDbSpline
210
0.0
220
0.0
230
1.0
 70
     8
 71
     3
 72
     9
 73
     5
 74
     0
 42
0.000000001
 43
0.00000001
 40
0.0
 40
0.0
 40
0.0
 40
0.0
 40
0.4349631479946964
 40
1.0
 40
1.0
 40
1.0
 40
1.0
 10
35.90530484405539
 20
1.892222142540208
 30
0.0
 10
35.62237947201583
 20
1.879664031052536
 30
0.0
 10
34.97192121286461
 20
1.850792363313401
 30
0.0
 10
34.32180565196094
 20
1.86438799241769
 30
0.0
 10
33.95446640198828
 20
1.87207002388781
 30
0.0
  0
SPLINE
  5
A6
330
1F
100
AcDbEntity
  8
0
  6
Continuous
 62
     1
370
    15
100
AcDbSpline
210
0.0
220
0.0
230
1.0
 70
     8
 71
     3
 72
    11
 73
     7
 74
     0
 42
0.000000001
 43
0.00000001
 40
0.0
 40
0.0
 40
0.0
 40
0.0
 40
0.4519381382999815
 40
0.6475502811406906
 40
0.7630448412089303
 40
1.0
 40
1.0
 40
1.0
 40
1.0
 10
32.32405753328362
 20
-1.981548530602202
 30
0.0
 10
32.86367881737388
 20
-1.936538116849244
 30
0.0
 10
33.63686409343086
 20
-1.872045869769534
 30
0.0
 10
34.54756148293133
 20
-1.858111117656128
 30
0.0
 10
35.20147508766989
 20
-1.861646745236767
 30
0.0
 10
35.62234808884316
 20
-1.87993008592877
 30
0.0
 10
35.90530484405539
 20
-1.89222214254021
 30
0.0
  0
SPLINE
  5
A7
330
1F
100
AcDbEntity
  8
0
  6
Continuous
 62
     1
370
    15
100
AcDbSpline
210
0.0
220
0.0
230
1.0
 70
     8
 71
     3
 72
    14
 73
    10
 74
     0
 42
0.000000001
 43
0.00000001
 40
0.0
 40
0.0
 40
0.0
 40
0.0
 40
0.2396796977851288
 40
0.3943536269475189
 40
0.519250652793033
 40
0.6500600321482037
 40
0.781323012072824
 40
0.9135067366044436
 40
1.0
 40
1.0
 40
1.0
 40
1.0
 10
22.94814805156396
 20
1.892231379730702
 30
0.0
 10
22.79174672296485
 20
1.884730106515025
 30
0.0
 10
22.53441399198083
 20
1.872387991906811
 30
0.0
 10
22.198141210096
 20
1.863897391031031
 30
0.0
 10
21.93299225990507
 20
1.860039945142977
 30
0.0
 10
21.68153936697149
 20
1.859194419033604
 30
0.0
 10
21.42569606803369
 20
1.861360381342778
 30
0.0
 10
21.19838523221786
 20
1.865582001987964
 30
0.0
 10
21.05636295683615
 20
1.870092000249157
 30
0.0
 10
21.00018891589538
 20
1.87187583892014
 30
0.0
  0
SPLINE
  5
A8
330
1F
100
AcDbEntity
  8
0
  6
Continuous
 62
     1
370
    15
100
AcDbSpline
210
0.0
220
0.0
230
1.0
 70
     8
 71
     3
 72
    14
 73
    10
 74
     0
 42
0.000000001
 43
0.00000001
 40
0.0
 40
0.0
 40
0.0
 40
0.0
 40
0.249918252716483
 40
0.4057654193390742
 40
0.5307896697325656
 40
0.6596350303329948
 40
0.8104394741436516
 40
0.9846129568046579
 40
1.0
 40
1.0
 40
1.0
 40
1.0
 10
37.8186566574029
 20
-1.790995778481845
 30
0.0
 10
37.96549842802716
 20
-1.768696125160396
 30
0.0
 10
38.20390963643715
 20
-1.732490573614073
 30
0.0
 10
38.51646910506743
 20
-1.692826604645525
 30
0.0
 10
38.75837852714614
 20
-1.665277183616731
 30
0.0
 10
38.99663923756286
 20
-1.641060262018846
 30
0.0
 10
39.26377348705834
 20
-1.618068948980758
 30
0.0
 10
39.46384374408454
 20
-1.602606047097668
 30
0.0
 10
39.57540726689493
 20
-1.596918963704346
 30
0.0
 10
39.584463122468
 20
-1.596457330685376
 30
0.0
  0
SPLINE
  5
A9
330
1F
100
AcDbEntity
  8
0
  6
Continuous
 62
     1
370
    15
100
AcDbSpline
210
0.0
220
0.0
230
1.0
 70
     8
 71
     3
 72
    22
 73
    18
 74
     0
 42
0.000000001
 43
0.00000001
 40
0.0
 40
0.0
 40
0.0
 40
0.0
 40
0.1108090824095478
 40
0.1865328248461688
 40
0.2337899175173186
 40
0.2800344922314406
 40
0.3271533874865299
 40
0.3725211951737095
 40
0.417244325414782
 40
0.4647504990251415
 40
0.522804916169702
 40
0.5846231732487334
 40
0.6495790788869777
 40
0.7127007103313562
 40
0.7769517853792239
 40
0.8714755807769978
 40
1.0
 40
1.0
 40
1.0
 40
1.0
 10
29.01959458695225
 20
1.628664023049771
 30
0.0
 10
28.86493068228283
 20
1.616475187634681
 30
0.0
 10
28.60457390996433
 20
1.595956852385243
 30
0.0
 10
28.27974584433253
 20
1.580537228025015
 30
0.0
 10
28.04807887086923
 20
1.572804820066378
 30
0.0
 10
27.85394089280248
 20
1.568618520803603
 30
0.0
 10
27.66141664387802
 20
1.566752224410059
 30
0.0
 10
27.47288693703563
 20
1.567186739967986
 30
0.0
 10
27.28503208336874
 20
1.569720511594174
 30
0.0
 10
27.07671724753315
 20
1.574994110197882
 30
0.0
 10
26.84233090063648
 20
1.584150271658371
 30
0.0
 10
26.58461759722856
 20
1.598082502361021
 30
0.0
 10
26.32145143540394
 20
1.616654287543397
 30
0.0
 10
26.05492871389437
 20
1.639566064028439
 30
0.0
 10
25.74733119842303
 20
1.670635792752701
 30
0.0
 10
25.34937639401771
 20
1.7175234071732
 30
0.0
 10
25.03967315989186
 20
1.764147537829372
 30
0.0
 10
24.86121654966889
 20
1.791013205974486
 30
0.0
  0
SPLINE
  5
AA
330
1F
100
AcDbEntity
  8
0
  6
Continuous
 62
     1
370
    15
100
AcDbSpline
210
0.0
220
0.0
230
1.0
 70
     8
 71
     3
 72
    13
 73
     9
 74
     0
 42
0.000000001
 43
0.00000001
 40
0.0
 40
0.0
 40
0.0
 40
0.0
 40
0.2906381214101304
 40
0.4832560149442381
 40
0.6515552677031714
 40
0.8158619495553768
 40
0.9715667671598898
 40
1.0
 40
1.0
 40
1.0
 40
1.0
 10
24.86121654966889
 20
-1.791013205974489
 30
0.0
 10
25.03668596836344
 20
-1.764447533900907
 30
0.0
 10
25.3284462220132
 20
-1.720275693130995
 30
0.0
 10
25.72097396068805
 20
-1.673291078162511
 30
0.0
 10
26.01948065293406
 20
-1.642798145662316
 30
0.0
 10
26.31210575142438
 20
-1.61751532440553
 30
0.0
 10
26.51936997342252
 20
-1.602058275706219
 30
0.0
 10
26.62919695809419
 20
-1.596318961786671
 30
0.0
 10
26.64615562698286
 20
-1.59543273947345
 30
0.0
  0
SPLINE
  5
AB
330
1F
100
AcDbEntity
  8
0
  6
Continuous
 62
     1
370
    15
100
AcDbSpline
210
0.0
220
0.0
230
1.0
 70
     8
 71
     3
 72
    22
 73
    18
 74
     0
 42
0.000000001
 43
0.00000001
 40
0.0
 40
0.0
 40
0.0
 40
0.0
 40
0.1138306106401415
 40
0.1854131677359069
 40
0.2424490141088328
 40
0.3007247808028906
 40
0.3643091647146982
 40
0.4335316376963684
 40
0.5074173705444177
 40
0.5737634891997743
 40
0.6392315298247506
 40
0.6981593460767032
 40
0.7484887036214672
 40
0.7952762792878212
 40
0.8414099258412227
 40
0.9051936255312121
 40
1.0
 40
1.0
 40
1.0
 40
1.0
 10
41.99213432089557
 20
1.629960402574643
 30
0.0
 10
41.83313768203276
 20
1.617338682522182
 30
0.0
 10
41.57415575875985
 20
1.596779774122746
 30
0.0
 10
41.23666440812076
 20
1.580499431008904
 30
0.0
 10
40.97684112661182
 20
1.571827597799988
 30
0.0
 10
40.72837136955667
 20
1.567258878590657
 30
0.0
 10
40.46275944680538
 20
1.566509012442689
 30
0.0
 10
40.17515616459363
 20
1.570687894521804
 30
0.0
 10
39.88385462712505
 20
1.580223538094585
 30
0.0
 10
39.59783769922969
 20
1.594645994670365
 30
0.0
 10
39.3328331431945
 20
1.612516289313066
 30
0.0
 10
39.09001616250688
 20
1.632656639793192
 30
0.0
 10
38.87297870761361
 20
1.653397731267653
 30
0.0
 10
38.67358546931885
 20
1.674698008465332
 30
0.0
 10
38.45486064079951
 20
1.700461687699832
 30
0.0
 10
38.17053223325661
 20
1.737377667569921
 30
0.0
 10
37.95030825627687
 20
1.770934965755552
 30
0.0
 10
37.81865665740288
 20
1.790995778481842
 30
0.0
  0
SPLINE
  5
AC
330
1F
100
AcDbEntity
  8
외형선
  6
Continuous
370
    15
100
AcDbSpline
210
0.0
220
0.0
230
1.0
 70
     8
 71
     3
 72
    16
 73
    12
 74
     0
 42
0.000000001
 43
0.00000001
 40
0.0
 40
0.0
 40
0.0
 40
0.0
 40
0.0198684876982535
 40
0.0541968283621567
 40
0.1038984776674557
 40
0.1692017563869588
 40
0.2501860678086496
 40
0.3694984660027023
 40
0.5000910872848235
 40
0.7578527538779652
 40
1.0
 40
1.0
 40
1.0
 40
1.0
 10
17.02251899952574
 20
-1.892142643884355
 30
0.0
 10
17.0194898114578
 20
-1.892573290335681
 30
0.0
 10
17.01122685816773
 20
-1.893747998353813
 30
0.0
 10
16.99731059935132
 20
-1.902530672668882
 30
0.0
 10
16.97801679001144
 20
-1.915279199939965
 30
0.0
 10
16.95366901290182
 20
-1.934077432300864
 30
0.0
 10
16.92134507459459
 20
-1.960330851638842
 30
0.0
 10
16.88185206107424
 20
-1.994258902066642
 30
0.0
 10
16.82257678184599
 20
-2.048126593830245
 30
0.0
 10
16.75034304592007
 20
-2.117047344412307
 30
0.0
 10
16.69582101597192
 20
-2.1754103041548
 30
0.0
 10
16.6694114860173
 20
-2.203680314186063
 30
0.0
  0
SPLINE
  5
AD
330
1F
100
AcDbEntity
  8
외형선
  6
Continuous
370
    15
100
AcDbSpline
210
0.0
220
0.0
230
1.0
 70
     8
 71
     3
 72
    14
 73
    10
 74
     0
 42
0.000000001
 43
0.00000001
 40
0.0
 40
0.0
 40
0.0
 40
0.0
 40
0.1253645750420735
 40
0.249909604669022
 40
0.4981861814959234
 40
0.6253976539287593
 40
0.7485284844362972
 40
0.8910920527126509
 40
1.0
 40
1.0
 40
1.0
 40
1.0
 10
16.66941148601731
 20
-2.203680314186058
 30
0.0
 10
16.66306733581826
 20
-2.185343248851764
 30
0.0
 10
16.65042050901194
 20
-2.14878899301876
 30
0.0
 10
16.6277471494117
 20
-2.06343969107073
 30
0.0
 10
16.60832563308912
 20
-1.964002589116432
 30
0.0
 10
16.59268514687005
 20
-1.851199857554408
 30
0.0
 10
16.58274581381759
 20
-1.755437145586754
 30
0.0
 10
16.57480731780765
 20
-1.657956711728031
 30
0.0
 10
16.57325897226451
 20
-1.587724638869804
 30
0.0
 10
16.57258841069249
 20
-1.55730834749947
 30
0.0
  0
SPLINE
  5
AE
330
1F
100
AcDbEntity
  8
외형선
  6
Continuous
370
    15
100
AcDbSpline
210
0.0
220
0.0
230
1.0
 70
     8
 71
     3
 72
    20
 73
    16
 74
     0
 42
0.000000001
 43
0.00000001
 40
0.0
 40
0.0
 40
0.0
 40
0.0
 40
0.4999999999999994
 40
0.4999999999999994
 40
0.7499999999999991
 40
0.7499999999999991
 40
0.8749999999999979
 40
0.8749999999999979
 40
0.9374999999999982
 40
0.9374999999999982
 40
0.9531249999999984
 40
0.9531249999999984
 40
0.9687499999999988
 40
0.9687499999999988
 40
1.0
 40
1.0
 40
1.0
 40
1.0
 10
16.83376430391185
 20
-0.3462053174843902
 30
0.0
 10
16.7840834780271
 20
-0.3993719125985442
 30
0.0
 10
16.72951692454884
 20
-0.4430874229016027
 30
0.0
 10
16.64691355936144
 20
-0.4680865038858274
 30
0.0
 10
16.61896253045731
 20
-0.4695480138419313
 30
0.0
 10
16.58977207026518
 20
-0.4413622623079801
 30
0.0
 10
16.58329527441709
 20
-0.4268285047267433
 30
0.0
 10
16.57726599711209
 20
-0.4019358681618899
 30
0.0
 10
16.5758304072688
 20
-0.3930665152523944
 30
0.0
 10
16.57421025521965
 20
-0.3821524332582998
 30
0.0
 10
16.57394768812539
 20
-0.3798152925192875
 30
0.0
 10
16.57300934279262
 20
-0.3763228875341821
 30
0.0
 10
16.5727729578291
 20
-0.3810715846681783
 30
0.0
 10
16.5725924627663
 20
-0.3886434336223099
 30
0.0
 10
16.57258841069249
 20
-0.3936526705457038
 30
0.0
 10
16.57258841069249
 20
-0.3986502654665679
 30
0.0
  0
SPLINE
  5
AF
330
1F
100
AcDbEntity
  8
외형선
  6
Continuous
370
    15
100
AcDbSpline
210
0.0
220
0.0
230
1.0
 70
     8
 71
     3
 72
    16
 73
    12
 74
     0
 42
0.000000001
 43
0.00000001
 40
0.0
 40
0.0
 40
0.0
 40
0.0
 40
0.2105396253207455
 40
0.4795978474968556
 40
0.6401180611299186
 40
0.740350748132838
 40
0.8292276398775077
 40
0.8991826099457106
 40
0.9503958104820128
 40
0.9833287493213375
 40
0.9999999999999999
 40
0.9999999999999999
 40
0.9999999999999999
 40
0.9999999999999999
 10
16.83376185663351
 20
-0.346203146775301
 30
0.0
 10
16.85173213019007
 20
-0.3268250986299398
 30
0.0
 10
16.89266743870277
 20
-0.2826829559570476
 30
0.0
 10
16.94711945940011
 20
-0.2220034453712102
 30
0.0
 10
16.99236164654548
 20
-0.171139393306288
 30
0.0
 10
17.02240730597392
 20
-0.1373321375074295
 30
0.0
 10
17.04527674933232
 20
-0.1127264140089479
 30
0.0
 10
17.06449223008592
 20
-0.0929466915942259
 30
0.0
 10
17.07971369322312
 20
-0.0801350378853782
 30
0.0
 10
17.09019415103241
 20
-0.0709519470605288
 30
0.0
 10
17.09705678622944
 20
-0.0704491822446298
 30
0.0
 10
17.09936321866585
 20
-0.0702802102614221
 30
0.0
  0
LINE
  5
B0
330
1F
100
AcDbEntity
  8
외형선
  6
Continuous
370
    15
100
AcDbLine
 10
16.57258841069249
 20
-0.3986502654665673
 30
0.0
 11
16.57258841069249
 21
-0.2103509089395213
 31
0.0
  0
LINE
  5
B1
330
1F
100
AcDbEntity
  8
외형선
  6
Continuous
370
    15
100
AcDbLine
 10
16.57258841069249
 20
-2.360455401239175
 30
0.0
 11
17.11770366496637
 21
-2.368083615032793
 31
0.0
  0
LINE
  5
B2
330
1F
100
AcDbEntity
  8
외형선
  6
Continuous
370
    15
100
AcDbLine
 10
16.57258841069249
 20
-2.381250000000001
 30
0.0
 11
16.57258841069249
 21
-2.360371343934804
 31
0.0
  0
LINE
  5
B3
330
1F
100
AcDbEntity
  8
외형선
  6
Continuous
370
    15
100
AcDbLine
 10
17.46250000000003
 20
2.381249999999999
 30
0.0
 11
17.46250000000003
 21
2.372908613302923
 31
0.0
  0
SPLINE
  5
B4
330
1F
100
AcDbEntity
  8
외형선
  6
Continuous
370
    15
100
AcDbSpline
210
0.0
220
0.0
230
1.0
 70
     8
 71
     3
 72
     8
 73
     4
 74
     0
 42
0.000000001
 43
0.00000001
 40
0.0
 40
0.0
 40
0.0
 40
0.0
 40
1.0
 40
1.0
 40
1.0
 40
1.0
 10
17.46250000000004
 20
2.37290861330292
 30
0.0
 10
17.1639760571266
 20
2.387275495323911
 30
0.0
 10
16.87058720584552
 20
2.3830963330886
 30
0.0
 10
16.57258841069249
 20
2.360455401239173
 30
0.0
  0
LINE
  5
B5
330
1F
100
AcDbEntity
  8
외형선
  6
Continuous
370
    15
100
AcDbLine
 10
16.57258841069249
 20
-0.2103509089395213
 30
0.0
 11
16.57258841069249
 21
2.381249999999999
 31
0.0
  0
LINE
  5
B6
330
1F
100
AcDbEntity
  8
외형선
  6
Continuous
370
    15
100
AcDbLine
 10
16.57258841069249
 20
-1.557308347499207
 30
0.0
 11
16.57258841069249
 21
-0.3986502654665673
 31
0.0
  0
SPLINE
  5
B7
330
1F
100
AcDbEntity
  8
외형선
  6
Continuous
370
    15
100
AcDbSpline
210
0.0
220
0.0
230
1.0
 70
     8
 71
     3
 72
     8
 73
     4
 74
     0
 42
0.000000001
 43
0.00000001
 40
0.0
 40
0.0
 40
0.0
 40
0.0
 40
1.0
 40
1.0
 40
1.0
 40
1.0
 10
17.46250000000004
 20
-2.335614327426405
 30
0.0
 10
17.1963411485469
 20
-2.305771001009616
 30
0.0
 10
16.93450995637778
 20
-2.261642063204601
 30
0.0
 10
16.6694114860173
 20
-2.20368031418606
 30
0.0
  0
SPLINE
  5
BA
330
1F
100
AcDbEntity
  8
외형선
  6
Continuous
370
    15
100
AcDbSpline
210
0.0
220
0.0
230
1.0
 70
     8
 71
     3
 72
    14
 73
    10
 74
     0
 42
0.000000001
 43
0.00000001
 40
0.0
 40
0.0
 40
0.0
 40
0.0
 40
0.25
 40
0.25
 40
0.5
 40
0.5
 40
0.75
 40
0.75
 40
1.0
 40
1.0
 40
1.0
 40
1.0
 10
16.57258841070473
 20
2.096055610320046
 30
0.0
 10
16.57258793644721
 20
2.036221768882503
 30
0.0
 10
16.58599548951123
 20
1.980138584554896
 30
0.0
 10
16.62683025231122
 20
1.880710817436002
 30
0.0
 10
16.65465524454236
 20
1.836544007858888
 30
0.0
 10
16.71999553371069
 20
1.76151106415229
 30
0.0
 10
16.75818619580752
 20
1.729670548645363
 30
0.0
 10
16.84643294486836
 20
1.682440883051005
 30
0.0
 10
16.89710998494674
 20
1.666901150249247
 30
0.0
 10
16.95279066490476
 20
1.666873783679608
 30
0.0
  0
SPLINE
  5
BB
330
1F
100
AcDbEntity
  8
외형선
  6
Continuous
370
    15
100
AcDbSpline
210
0.0
220
0.0
230
1.0
 70
     8
 71
     3
 72
     8
 73
     4
 74
     0
 42
0.000000001
 43
0.00000001
 40
0.0
 40
0.0
 40
0.0
 40
0.0
 40
1.0
 40
1.0
 40
1.0
 40
1.0
 10
17.46250000000002
 20
1.653902167748655
 30
0.0
 10
17.29166122583023
 20
1.662471581462049
 30
0.0
 10
17.12111423120862
 20
1.666791054111605
 30
0.0
 10
16.95279066490482
 20
1.666873783679608
 30
0.0
  0
SPLINE
  5
BC
330
1F
100
AcDbEntity
  8
외형선
  6
Continuous
370
    15
100
AcDbSpline
210
0.0
220
0.0
230
1.0
 70
    24
 71
     3
 72
    14
 73
    10
 74
     0
 42
0.000000001
 43
0.00000001
 40
0.0
 40
0.0
 40
0.0
 40
0.0
 40
0.25
 40
0.25
 40
0.5
 40
0.5
 40
0.75
 40
0.75
 40
1.0
 40
1.0
 40
1.0
 40
1.0
 10
17.46250000000003
 20
1.653902167748655
 30
0.0
 10
17.46250000000003
 20
1.583679101826743
 30
0.0
 10
17.46250000000003
 20
1.486819487002599
 30
0.0
 10
17.46250000000003
 20
1.241543163640637
 30
0.0
 10
17.46250000000003
 20
1.093145437822256
 30
0.0
 10
17.46250000000003
 20
0.7570406495146792
 30
0.0
 10
17.46250000000003
 20
0.5695126777086356
 30
0.0
 10
17.46250000000003
 20
0.1751374738983442
 30
0.0
 10
17.46250000000003
 20
-0.0314813579638747
 30
0.0
 10
17.46250000000003
 20
-0.2372079363817941
 30
0.0
  0
SPLINE
  5
BD
330
1F
100
AcDbEntity
  8
외형선
  6
Continuous
370
    15
100
AcDbSpline
210
0.0
220
0.0
230
1.0
 70
     8
 71
     3
 72
     8
 73
     4
 74
     0
 42
0.000000001
 43
0.00000001
 40
0.0
 40
0.0
 40
0.0
 40
0.0
 40
1.0
 40
1.0
 40
1.0
 40
1.0
 10
17.46250000000006
 20
-0.2372079363818108
 30
0.0
 10
17.34107646091929
 20
-0.1817412724804987
 30
0.0
 10
17.21979826434389
 20
-0.1259900881138343
 30
0.0
 10
17.0993640437215
 20
-0.070278397076246
 30
0.0
  0
SPLINE
  5
BE
330
1F
100
AcDbEntity
  8
외형선
  6
Continuous
370
    15
100
AcDbSpline
210
0.0
220
0.0
230
1.0
 70
    24
 71
     3
 72
    10
 73
     6
 74
     0
 42
0.000000001
 43
0.00000001
 40
0.0
 40
0.0
 40
0.0
 40
0.0
 40
0.5
 40
0.5
 40
1.0
 40
1.0
 40
1.0
 40
1.0
 10
17.46250000000002
 20
-0.237207936381792
 30
0.0
 10
17.46250000000002
 20
-0.5939136674107234
 30
0.0
 10
17.46250000000002
 20
-0.9486626610632196
 30
0.0
 10
17.46250000000002
 20
-1.550127643746672
 30
0.0
 10
17.46250000000002
 20
-1.794254692362992
 30
0.0
 10
17.46250000000002
 20
-1.957893825738008
 30
0.0
  0
SPLINE
  5
BF
330
1F
100
AcDbEntity
  8
외형선
  6
Continuous
370
    15
100
AcDbSpline
210
0.0
220
0.0
230
1.0
 70
     8
 71
     3
 72
     8
 73
     4
 74
     0
 42
0.000000001
 43
0.00000001
 40
0.0
 40
0.0
 40
0.0
 40
0.0
 40
1.0
 40
1.0
 40
1.0
 40
1.0
 10
17.46250000000006
 20
-1.957893825738011
 30
0.0
 10
17.31521037984035
 20
-1.939622334235011
 30
0.0
 10
17.16813597973565
 20
-1.917628326103386
 30
0.0
 10
17.0225193128712
 20
-1.892140081931106
 30
0.0
  0
SPLINE
  5
C0
330
1F
100
AcDbEntity
  8
외형선
  6
Continuous
370
    15
100
AcDbSpline
210
0.0
220
0.0
230
1.0
 70
    24
 71
     3
 72
     8
 73
     4
 74
     0
 42
0.000000001
 43
0.00000001
 40
0.0
 40
0.0
 40
0.0
 40
0.0
 40
1.0
 40
1.0
 40
1.0
 40
1.0
 10
17.46250000000003
 20
-1.957893825738008
 30
0.0
 10
17.46250000000003
 20
-2.08443246275908
 30
0.0
 10
17.46250000000003
 20
-2.211151307255187
 30
0.0
 10
17.46250000000003
 20
-2.335614327414731
 30
0.0
  0
SPLINE
  5
C1
330
1F
100
AcDbEntity
  8
외형선
  6
Continuous
370
    15
100
AcDbSpline
210
0.0
220
0.0
230
1.0
 70
    24
 71
     3
 72
    10
 73
     6
 74
     0
 42
0.000000001
 43
0.00000001
 40
0.0
 40
0.0
 40
0.0
 40
0.0
 40
0.5
 40
0.5
 40
1.0
 40
1.0
 40
1.0
 40
1.0
 10
17.46250000000003
 20
2.372908613297344
 30
0.0
 10
17.46250000000003
 20
2.258380087500663
 30
0.0
 10
17.46250000000003
 20
2.131982215295245
 30
0.0
 10
17.46250000000003
 20
1.883173587256781
 30
0.0
 10
17.46250000000003
 20
1.761421580024515
 30
0.0
 10
17.46250000000003
 20
1.653902167748655
 30
0.0
  0
SPLINE
  5
C2
330
1F
100
AcDbEntity
  8
0
  6
Continuous
 62
     1
370
    15
100
AcDbSpline
210
0.0
220
0.0
230
1.0
 70
     8
 71
     3
 72
    22
 73
    18
 74
     0
 42
0.000000001
 43
0.00000001
 40
0.0
 40
0.0
 40
0.0
 40
0.0
 40
0.0606211889947874
 40
0.130457417672603
 40
0.2003012115088433
 40
0.2701551936848604
 40
0.3400219679962257
 40
0.4099041139748759
 40
0.4797945156157943
 40
0.5496695725839746
 40
0.6195303911468443
 40
0.6893795621223814
 40
0.7618276722088568
 40
0.8342738188525892
 40
0.9067183405780954
 40
0.9791615767030715
 40
1.0
 40
1.0
 40
1.0
 40
1.0
 10
33.95483897061615
 20
-1.871955509108631
 30
0.0
 10
33.6379582798491
 20
-1.97783624569665
 30
0.0
 10
32.95602779789613
 20
-2.205692671899932
 30
0.0
 10
31.90899125815307
 20
-2.374597023655908
 30
0.0
 10
30.81366923470898
 20
-2.397755163272404
 30
0.0
 10
29.71815514594477
 20
-2.249274597938173
 30
0.0
 10
28.62240135924027
 20
-1.943949602800966
 30
0.0
 10
27.52640609526458
 20
-1.501995835509145
 30
0.0
 10
26.43032267439227
 20
-0.9547983827044595
 30
0.0
 10
25.33442652700547
 20
-0.3405364923100356
 30
0.0
 10
24.23877535226432
 20
0.2974861272327241
 30
0.0
 10
23.129747693021
 20
0.9225369333750141
 30
0.0
 10
22.0070952418815
 20
1.487306999699487
 30
0.0
 10
20.87091313036304
 20
1.950324233518109
 30
0.0
 10
19.73475308043789
 20
2.252831552690653
 30
0.0
 10
18.86838795086931
 20
2.392131727042861
 30
0.0
 10
18.38074163109575
 20
2.368138642702398
 30
0.0
 10
18.27180509958885
 20
2.362778767558839
 30
0.0
  0
SPLINE
  5
C3
330
1F
100
AcDbEntity
  8
0
  6
Continuous
 62
     1
370
    15
100
AcDbSpline
210
0.0
220
0.0
230
1.0
 70
     8
 71
     3
 72
    16
 73
    12
 74
     0
 42
0.000000001
 43
0.00000001
 40
0.0
 40
0.0
 40
0.0
 40
0.0
 40
0.0487282634257951
 40
0.1759919478922081
 40
0.3032750273136282
 40
0.4305824575677193
 40
0.5579191477881134
 40
0.6852715521473565
 40
0.8125947486014516
 40
0.9398908417346975
 40
1.0
 40
1.0
 40
1.0
 40
1.0
 10
32.32840549667691
 20
-1.9647997697231
 30
0.0
 10
32.18861292808666
 20
-1.983052526936527
 30
0.0
 10
31.6837238818247
 20
-2.048976039710306
 30
0.0
 10
30.81366499336328
 20
-2.015911223600857
 30
0.0
 10
29.71815086653446
 20
-1.865805361308985
 30
0.0
 10
28.62239582557755
 20
-1.57595734433274
 30
0.0
 10
27.52640248278734
 20
-1.178081926813869
 30
0.0
 10
26.4303291746389
 20
-0.696337446764315
 30
0.0
 10
25.33443059031764
 20
-0.1682558504514056
 30
0.0
 10
24.43147731360658
 20
0.2840235408800001
 30
0.0
 10
23.89383099619541
 20
0.5316880005388623
 30
0.0
 10
23.7213840271652
 20
0.6111249538324799
 30
0.0
  0
SPLINE
  5
C4
330
1F
100
AcDbEntity
  8
0
  6
Continuous
 62
     1
370
    15
100
AcDbSpline
210
0.0
220
0.0
230
1.0
 70
     8
 71
     3
 72
    18
 73
    14
 74
     0
 42
0.000000001
 43
0.00000001
 40
0.0
 40
0.0
 40
0.0
 40
0.0
 40
0.0942117367196788
 40
0.1884017856378282
 40
0.2825736138101576
 40
0.3767307228179066
 40
0.4708766422264776
 40
0.5650149229309651
 40
0.6591491304151776
 40
0.753282837951337
 40
0.8474196197680582
 40
0.9415630442144316
 40
1.0
 40
1.0
 40
1.0
 40
1.0
 10
42.86250000000003
 20
-2.259665444858464
 30
0.0
 10
42.49712270486641
 20
-2.177719060340075
 30
0.0
 10
41.76645222545983
 20
-2.013845155586936
 30
0.0
 10
40.67062510964509
 20
-1.584278122822762
 30
0.0
 10
39.57504798427197
 20
-1.055006653421397
 30
0.0
 10
38.4796773282129
 20
-0.4487244940975686
 30
0.0
 10
37.38446249189036
 20
0.1881411096276362
 30
0.0
 10
36.28935434841269
 20
0.8121476881943621
 30
0.0
 10
35.19430293687805
 20
1.378637012670064
 30
0.0
 10
34.09925883085742
 20
1.850362712954245
 30
0.0
 10
33.00417061695498
 20
2.185325376602042
 30
0.0
 10
32.04749054937587
 20
2.36699687971686
 30
0.0
 10
31.45582118708172
 20
2.363030149854972
 30
0.0
 10
31.22921697812971
 20
2.361510926890656
 30
0.0
  0
SPLINE
  5
C5
330
1F
100
AcDbEntity
  8
0
  6
Continuous
 62
     1
370
    15
100
AcDbSpline
210
0.0
220
0.0
230
1.0
 70
     8
 71
     3
 72
    11
 73
     7
 74
     0
 42
0.000000001
 43
0.00000001
 40
0.0
 40
0.0
 40
0.0
 40
0.0
 40
0.0365447304867148
 40
0.3577016838999088
 40
0.6788529380615957
 40
1.0
 40
1.0
 40
1.0
 40
1.0
 10
21.00018891589538
 20
-1.871875838920143
 30
0.0
 10
20.957093956675
 20
-1.889356262927326
 30
0.0
 10
20.53527830020633
 20
-2.060455543709457
 30
0.0
 10
19.73475373179532
 20
-2.250586847608386
 30
0.0
 10
18.5986190366127
 20
-2.414071410735166
 30
0.0
 10
17.8412046976762
 20
-2.361766574732671
 30
0.0
 10
17.46249999999555
 20
-2.335614327425902
 30
0.0
  0
SPLINE
  5
C6
330
1F
100
AcDbEntity
  8
외형선
  6
Continuous
370
    15
100
AcDbSpline
210
0.0
220
0.0
230
1.0
 70
    24
 71
     3
 72
     8
 73
     4
 74
     0
 42
0.000000001
 43
0.00000001
 40
0.0
 40
0.0
 40
0.0
 40
0.0
 40
1.0
 40
1.0
 40
1.0
 40
1.0
 10
17.46250000000003
 20
-1.957893825738008
 30
0.0
 10
17.46250000000003
 20
-2.084432462759081
 30
0.0
 10
17.46250000000003
 20
-2.211151307255189
 30
0.0
 10
17.46250000000003
 20
-2.335614327414735
 30
0.0
  0
SPLINE
  5
C7
330
1F
100
AcDbEntity
  8
0
  6
Continuous
 62
     1
370
    15
100
AcDbSpline
210
0.0
220
0.0
230
1.0
 70
     8
 71
     3
 72
    13
 73
     9
 74
     0
 42
0.000000001
 43
0.00000001
 40
0.0
 40
0.0
 40
0.0
 40
0.0
 40
0.1772231764667559
 40
0.3544037352706602
 40
0.53154848780254
 40
0.7086643141175226
 40
0.885758149928368
 40
1.0
 40
1.0
 40
1.0
 40
1.0
 10
42.86250000000003
 20
-1.878740204526815
 30
0.0
 10
42.49712352321453
 20
-1.799218736817939
 30
0.0
 10
41.76645843338582
 20
-1.64019492428901
 30
0.0
 10
40.67062970840095
 20
-1.25138294687529
 30
0.0
 10
39.57505178820664
 20
-0.7838506862095902
 30
0.0
 10
38.47968048382835
 20
-0.2604961947824566
 30
0.0
 10
37.51399790853802
 20
0.2218854369690302
 30
0.0
 10
36.91343700451466
 20
0.5025273587090263
 30
0.0
 10
36.67793825828831
 20
0.6125758488214544
 30
0.0
  0
SPLINE
  5
C8
330
1F
100
AcDbEntity
  8
0
  6
Continuous
 62
     1
370
    15
100
AcDbSpline
210
0.0
220
0.0
230
1.0
 70
     8
 71
     3
 72
     9
 73
     5
 74
     0
 42
0.000000001
 43
0.00000001
 40
0.0
 40
0.0
 40
0.0
 40
0.0
 40
0.3730568172972962
 40
1.0
 40
1.0
 40
1.0
 40
1.0
 10
19.37288252556688
 20
-1.96079004486215
 30
0.0
 10
19.13532207835876
 20
-1.987757787221924
 30
0.0
 10
18.49852779879249
 20
-2.060046353224141
 30
0.0
 10
17.86173371169266
 20
-1.997258341588458
 30
0.0
 10
17.46250000000002
 20
-1.957893825738007
 30
0.0
  0
LINE
  5
C9
330
1F
100
AcDbEntity
  8
0
  6
Continuous
 62
     1
370
    15
100
AcDbLine
 10
42.86250000000003
 20
-2.259665444858467
 30
0.0
 11
42.86250000000003
 21
-1.878740204526815
 31
0.0
  0
SPLINE
  5
CA
330
1F
100
AcDbEntity
  8
0
  6
Continuous
 62
     1
370
    15
100
AcDbSpline
210
0.0
220
0.0
230
1.0
 70
     8
 71
     3
 72
    22
 73
    18
 74
     0
 42
0.000000001
 43
0.00000001
 40
0.0
 40
0.0
 40
0.0
 40
0.0
 40
0.0542736446612965
 40
0.12185629275738
 40
0.1894240779388982
 40
0.256979494514824
 40
0.3245250602522969
 40
0.3920633116603424
 40
0.459596799197775
 40
0.5271280824244787
 40
0.5946597251156631
 40
0.6621942903589542
 40
0.7297343356542776
 40
0.7972824080365063
 40
0.8648410392406524
 40
0.932412740929107
 40
1.0
 40
1.0
 40
1.0
 40
1.0
 10
26.64617398218916
 20
1.595439944279466
 30
0.0
 10
26.93957976448507
 20
1.717275824790216
 30
0.0
 10
27.59834040470528
 20
1.990824225980572
 30
0.0
 10
28.62235235670263
 20
2.259289429755634
 30
0.0
 10
29.7181088566257
 20
2.400953621495259
 30
0.0
 10
30.81362688803955
 20
2.370779472014135
 30
0.0
 10
31.90895279730561
 20
2.175270102298207
 30
0.0
 10
33.00413659159028
 20
1.826990375504121
 30
0.0
 10
34.09922768468194
 20
1.35068545755197
 30
0.0
 10
35.19427590874213
 20
0.7796623731259235
 30
0.0
 10
36.28933112808481
 20
0.1539940027324542
 30
0.0
 10
37.38444317534008
 20
-0.4825457993803038
 30
0.0
 10
38.47966189367803
 20
-1.085039909566629
 30
0.0
 10
39.57503643270773
 20
-1.612333312282642
 30
0.0
 10
40.6706174269771
 20
-2.023371729914969
 30
0.0
 10
41.76644839335061
 20
-2.30449304331575
 30
0.0
 10
42.49712142990531
 20
-2.354320705155666
 30
0.0
 10
42.86250000000003
 20
-2.381249999999992
 30
0.0
  0
SPLINE
  5
CB
330
1F
100
AcDbEntity
  8
0
  6
Continuous
 62
     1
370
    15
100
AcDbSpline
210
0.0
220
0.0
230
1.0
 70
     8
 71
     3
 72
    15
 73
    11
 74
     0
 42
0.000000001
 43
0.00000001
 40
0.0
 40
0.0
 40
0.0
 40
0.0
 40
0.0828111629539414
 40
0.220912964217322
 40
0.3590139662545841
 40
0.4971198725514088
 40
0.6352363769996155
 40
0.7733691527790935
 40
0.9115238413252736
 40
1.0
 40
1.0
 40
1.0
 40
1.0
 10
36.94595496936091
 20
-0.2249873281148861
 30
0.0
 10
36.72707727588253
 20
-0.1374274072115943
 30
0.0
 10
36.14318353085382
 20
0.0961536823830398
 30
0.0
 10
35.19428290145814
 20
0.4800899019098293
 30
0.0
 10
34.09923352319831
 20
0.8872151199990791
 30
0.0
 10
33.00414154058646
 20
1.232440620262977
 30
0.0
 10
31.90895707903084
 20
1.49233465822815
 30
0.0
 10
30.81362935790128
 20
1.642984915071537
 30
0.0
 10
29.84949561728102
 20
1.689441523731481
 30
0.0
 10
29.25045434134951
 20
1.635908699989027
 30
0.0
 10
29.0165900124995
 20
1.615009609393796
 30
0.0
  0
SPLINE
  5
CC
330
1F
100
AcDbEntity
  8
0
  6
Continuous
 62
     1
370
    15
100
AcDbSpline
210
0.0
220
0.0
230
1.0
 70
     8
 71
     3
 72
    19
 73
    15
 74
     0
 42
0.000000001
 43
0.00000001
 40
0.0
 40
0.0
 40
0.0
 40
0.0
 40
0.0900789289283947
 40
0.1801590346769836
 40
0.2702407403810995
 40
0.3603244683939402
 40
0.4504106400808893
 40
0.5372665116720898
 40
0.6241368679390856
 40
0.7110249300195013
 40
0.7979320645764741
 40
0.8848289142285134
 40
0.9717066533471724
 40
0.9999999999999999
 40
0.9999999999999999
 40
0.9999999999999999
 40
0.9999999999999999
 10
17.46250000000049
 20
2.372908613302902
 30
0.0
 10
17.84120011779018
 20
2.33718348631939
 30
0.0
 10
18.5986053008301
 20
2.265732765627777
 30
0.0
 10
19.73472517589006
 20
1.939735879942181
 30
0.0
 10
20.87087144004735
 20
1.480295620083489
 30
0.0
 10
22.00703966893374
 20
0.9057757889024918
 30
0.0
 10
23.12968420610455
 20
0.2715103895323135
 30
0.0
 10
24.23870995577516
 20
-0.3743195003685271
 30
0.0
 10
25.3343651919248
 20
-0.9861641307827278
 30
0.0
 10
26.43026520019624
 20
-1.528059348650898
 30
0.0
 10
27.52635304393199
 20
-1.96585717769588
 30
0.0
 10
28.62234998505125
 20
-2.25407864287124
 30
0.0
 10
29.47188196375537
 20
-2.388824162398963
 30
0.0
 10
29.95606112048235
 20
-2.367964050189201
 30
0.0
 10
30.07500632822773
 20
-2.362839479364726
 30
0.0
  0
SPLINE
  5
CD
330
1F
100
AcDbEntity
  8
0
  6
Continuous
 62
     1
370
    15
100
AcDbSpline
210
0.0
220
0.0
230
1.0
 70
     8
 71
     3
 72
    10
 73
     6
 74
     0
 42
0.000000001
 43
0.00000001
 40
0.0
 40
0.0
 40
0.0
 40
0.0
 40
0.3314025198138467
 40
0.6656627806724048
 40
1.0
 40
1.0
 40
1.0
 40
1.0
 10
39.58414160319692
 20
1.59633736942799
 30
0.0
 10
39.94627616901311
 20
1.740287288275408
 30
0.0
 10
40.67366804941947
 20
2.029428430929858
 30
0.0
 10
41.76644879515843
 20
2.303169551543631
 30
0.0
 10
42.49712156385153
 20
2.35387950737967
 30
0.0
 10
42.86250000000003
 20
2.381250000000005
 30
0.0
  0
SPLINE
  5
CE
330
1F
100
AcDbEntity
  8
0
  6
Continuous
 62
     1
370
    15
100
AcDbSpline
210
0.0
220
0.0
230
1.0
 70
    24
 71
     3
 72
    10
 73
     6
 74
     0
 42
0.000000001
 43
0.00000001
 40
0.0
 40
0.0
 40
0.0
 40
0.0
 40
0.5
 40
0.5
 40
1.0
 40
1.0
 40
1.0
 40
1.0
 10
42.86250000000003
 20
1.666874999999999
 30
0.0
 10
42.86250000000003
 20
1.767916811522414
 30
0.0
 10
42.86250000000003
 20
1.885336753989822
 30
0.0
 10
42.86250000000002
 20
2.131683477038037
 30
0.0
 10
42.86250000000003
 20
2.259981119002257
 30
0.0
 10
42.86250000000003
 20
2.381250000000007
 30
0.0
  0
LINE
  5
CF
330
1F
100
AcDbEntity
  8
0
  6
Continuous
 62
     1
370
    15
100
AcDbLine
 10
42.86250000000003
 20
1.666874999999998
 30
0.0
 11
41.98970318774578
 21
1.62031599030303
 31
0.0
  0
SPLINE
  5
D0
330
1F
100
AcDbEntity
  8
0
  6
Continuous
 62
     1
370
    15
100
AcDbSpline
210
0.0
220
0.0
230
1.0
 70
     8
 71
     3
 72
    13
 73
     9
 74
     0
 42
0.000000001
 43
0.00000001
 40
0.0
 40
0.0
 40
0.0
 40
0.0
 40
0.1294147422207448
 40
0.2972691113724836
 40
0.4651067337380501
 40
0.6329345162927503
 40
0.8164673874387157
 40
0.9999999999999999
 40
0.9999999999999999
 40
0.9999999999999999
 40
0.9999999999999999
 10
23.98770207717525
 20
-0.2254954754299905
 30
0.0
 10
23.70622142477441
 20
-0.1122278344677669
 30
0.0
 10
23.05965286564518
 20
0.1479509550449815
 30
0.0
 10
22.04805649216009
 20
0.5531711006533213
 30
0.0
 10
20.95290552555905
 20
0.9521377769730228
 30
0.0
 10
19.8237232591512
 20
1.292765222125301
 30
0.0
 10
18.66015983132313
 20
1.553108703574601
 30
0.0
 10
17.86171975628344
 20
1.620304362136294
 30
0.0
 10
17.46250000000002
 20
1.653902167748655
 30
0.0
  0
SPLINE
  5
D1
330
1F
100
AcDbEntity
  8
외형선
  6
Continuous
370
    15
100
AcDbSpline
210
0.0
220
0.0
230
1.0
 70
    24
 71
     3
 72
    10
 73
     6
 74
     0
 42
0.000000001
 43
0.00000001
 40
0.0
 40
0.0
 40
0.0
 40
0.0
 40
0.4999999999999996
 40
0.4999999999999996
 40
1.0
 40
1.0
 40
1.0
 40
1.0
 10
17.46250000000003
 20
2.372908613297346
 30
0.0
 10
17.46250000000003
 20
2.258380087500665
 30
0.0
 10
17.46250000000003
 20
2.131982215295248
 30
0.0
 10
17.46250000000003
 20
1.883173587256781
 30
0.0
 10
17.46250000000003
 20
1.761421580024517
 30
0.0
 10
17.46250000000003
 20
1.653902167748655
 30
0.0
  0
LINE
  5
D2
330
1F
100
AcDbEntity
  8
0
  6
Continuous
 62
     1
370
    15
100
AcDbLine
 10
42.86250000000003
 20
-2.381249999999994
 30
0.0
 11
42.86250000000003
 21
-2.259665444858467
 31
0.0
  0
SPLINE
  5
D3
330
1F
100
AcDbEntity
  8
0
  6
Continuous
 62
     1
370
    15
100
AcDbSpline
210
0.0
220
0.0
230
1.0
 70
     8
 71
     3
 72
     8
 73
     4
 74
     0
 42
0.000000001
 43
0.00000001
 40
0.0
 40
0.0
 40
0.0
 40
0.0
 40
1.0
 40
1.0
 40
1.0
 40
1.0
 10
41.38843131851546
 20
0.666765629039642
 30
0.0
 10
41.30407539430418
 20
0.7667237491414515
 30
0.0
 10
41.22876846147555
 20
0.8629558787205932
 30
0.0
 10
41.16465717569906
 20
0.9545781160976575
 30
0.0
  0
LINE
  5
D4
330
1F
100
AcDbEntity
  8
0
  6
Continuous
 62
     1
370
    15
100
AcDbLine
 10
41.19478317140751
 20
0.9798568279854787
 30
0.0
 11
42.86250000000003
 21
0.000000000000002
 31
0.0
  0
LINE
  5
D5
330
1F
100
AcDbEntity
  8
0
  6
Continuous
 62
     1
370
    15
100
AcDbLine
 10
42.86250000000003
 20
0.000000000000002
 30
0.0
 11
42.86250000000003
 21
-0.63637226523309
 31
0.0
  0
SPLINE
  5
D6
330
1F
100
AcDbEntity
  8
0
  6
Continuous
 62
     1
370
    15
100
AcDbSpline
210
0.0
220
0.0
230
1.0
 70
     8
 71
     3
 72
    10
 73
     6
 74
     0
 42
0.000000001
 43
0.00000001
 40
0.0
 40
0.0
 40
0.0
 40
0.0
 40
0.5
 40
0.5
 40
1.0
 40
1.0
 40
1.0
 40
1.0
 10
42.86250000000003
 20
-0.6363722652330899
 30
0.0
 10
42.60732507708537
 20
-0.4357598858607697
 30
0.0
 10
42.3564163412784
 20
-0.2269170311293177
 30
0.0
 10
41.86334008684128
 20
0.2076325360986671
 30
0.0
 10
41.61888005573238
 20
0.4356364190385538
 30
0.0
 10
41.38843131851544
 20
0.6667656290396499
 30
0.0
  0
SPLINE
  5
D7
330
1F
100
AcDbEntity
  8
외형선
  6
Continuous
370
    15
100
AcDbSpline
210
0.0
220
0.0
230
1.0
 70
    24
 71
     3
 72
    10
 73
     6
 74
     0
 42
0.000000001
 43
0.00000001
 40
0.0
 40
0.0
 40
0.0
 40
0.0
 40
0.5
 40
0.5
 40
1.0
 40
1.0
 40
1.0
 40
1.0
 10
17.46250000000002
 20
-0.237207936381792
 30
0.0
 10
17.46250000000002
 20
-0.5939136674107234
 30
0.0
 10
17.46250000000002
 20
-0.9486626610632196
 30
0.0
 10
17.46250000000002
 20
-1.550127643746672
 30
0.0
 10
17.46250000000002
 20
-1.794254692362992
 30
0.0
 10
17.46250000000002
 20
-1.957893825738008
 30
0.0
  0
SPLINE
  5
D8
330
1F
100
AcDbEntity
  8
0
  6
Continuous
 62
     1
370
    15
100
AcDbSpline
210
0.0
220
0.0
230
1.0
 70
     8
 71
     3
 72
    13
 73
     9
 74
     0
 42
0.000000001
 43
0.00000001
 40
0.0
 40
0.0
 40
0.0
 40
0.0
 40
0.1652752494294505
 40
0.3306323281281663
 40
0.5303407056143193
 40
0.7300239412289525
 40
0.9296900124666491
 40
1.0
 40
1.0
 40
1.0
 40
1.0
 10
41.38843131851785
 20
0.6667656290386115
 30
0.0
 10
41.08628141714761
 20
0.7943382977884513
 30
0.0
 10
40.48183201726103
 20
1.049546797669056
 30
0.0
 10
39.51217337183189
 20
1.395104210154753
 30
0.0
 10
38.47967383930931
 20
1.685494304259369
 30
0.0
 10
37.38445235534206
 20
1.865379619023487
 30
0.0
 10
36.52581452225812
 20
1.930065420451945
 30
0.0
 10
36.03224317656195
 20
1.887941388052357
 30
0.0
 10
35.90370216696024
 20
1.876971007173581
 30
0.0
  0
SPLINE
  5
D9
330
1F
100
AcDbEntity
  8
0
  6
Continuous
 62
     1
370
    15
100
AcDbSpline
210
0.0
220
0.0
230
1.0
 70
     8
 71
     3
 72
    14
 73
    10
 74
     0
 42
0.000000001
 43
0.00000001
 40
0.0
 40
0.0
 40
0.0
 40
0.0
 40
0.0850900743237833
 40
0.2329949655952711
 40
0.3808795885315641
 40
0.5287498420934942
 40
0.6766116531053825
 40
0.8383059375383792
 40
1.0
 40
1.0
 40
1.0
 40
1.0
 10
24.86889434805066
 20
-1.774104105100856
 30
0.0
 10
24.65882386707196
 20
-1.809367451960768
 30
0.0
 10
24.08360560716107
 20
-1.905926097063544
 30
0.0
 10
23.14331823576314
 20
-1.919397827499471
 30
0.0
 10
22.04806425319797
 20
-1.82192070355834
 30
0.0
 10
20.95291193178966
 20
-1.591045435122711
 30
0.0
 10
19.82375347363425
 20
-1.239156850036841
 30
0.0
 10
18.660162073109
 20
-0.7802097248679082
 30
0.0
 10
17.86172050835489
 20
-0.41820844971883
 30
0.0
 10
17.46250000000003
 20
-0.2372079363817935
 30
0.0
  0
SPLINE
  5
DA
330
1F
100
AcDbEntity
  8
0
  6
Continuous
 62
     1
370
    15
100
AcDbSpline
210
0.0
220
0.0
230
1.0
 70
    24
 71
     3
 72
    10
 73
     6
 74
     0
 42
0.000000001
 43
0.00000001
 40
0.0
 40
0.0
 40
0.0
 40
0.0
 40
0.5
 40
0.5
 40
1.0
 40
1.0
 40
1.0
 40
1.0
 10
42.86250000000003
 20
-1.878740204526815
 30
0.0
 10
42.86250000000003
 20
-1.734720120065311
 30
0.0
 10
42.86250000000002
 20
-1.552745221052279
 30
0.0
 10
42.86250000000002
 20
-1.129671093977556
 30
0.0
 10
42.86250000000003
 20
-0.8889383487659304
 30
0.0
 10
42.86250000000003
 20
-0.6363722652331661
 30
0.0
  0
SPLINE
  5
DB
330
1F
100
AcDbEntity
  8
0
  6
Continuous
 62
     1
370
    15
100
AcDbSpline
210
0.0
220
0.0
230
1.0
 70
     8
 71
     3
 72
    22
 73
    18
 74
     0
 42
0.000000001
 43
0.00000001
 40
0.0
 40
0.0
 40
0.0
 40
0.0
 40
0.0296206438178595
 40
0.1032264951290072
 40
0.1768289720194764
 40
0.2504310341803673
 40
0.3240356421086826
 40
0.3976457513557834
 40
0.4712643067962028
 40
0.5448942369403479
 40
0.6185384483143171
 40
0.69219981992958
 40
0.7658704194950109
 40
0.8395238920376153
 40
0.9131614666767373
 40
0.9867860351982914
 40
1.0
 40
1.0
 40
1.0
 40
1.0
 10
37.82512066938595
 20
-1.774709360818121
 30
0.0
 10
37.67822141111191
 20
-1.801679277173836
 30
0.0
 10
37.16628468002922
 20
-1.895668116729185
 30
0.0
 10
36.28934158988302
 20
-1.922184418955589
 30
0.0
 10
35.19428581255865
 20
-1.849211385376146
 30
0.0
 10
34.09923796139076
 20
-1.638896446679931
 30
0.0
 10
33.00414697769261
 20
-1.31572705718874
 30
0.0
 10
31.90896338267384
 20
-0.8997383640140426
 30
0.0
 10
30.81363754710839
 20
-0.4207901229402822
 30
0.0
 10
29.7181199759605
 20
0.087752899548474
 30
0.0
 10
28.6223624929986
 20
0.5901087389126453
 30
0.0
 10
27.52636726009671
 20
1.051314085856681
 30
0.0
 10
26.43029512471457
 20
1.437889630159648
 30
0.0
 10
25.33439204108853
 20
1.726817526786757
 30
0.0
 10
24.23874628671947
 20
1.88274603448735
 30
0.0
 10
23.44286938293924
 20
1.932210529556923
 30
0.0
 10
23.01220573730992
 20
1.88900448541414
 30
0.0
 10
22.94667291406961
 20
1.882429948458311
 30
0.0
  0
SPLINE
  5
DC
330
1F
100
AcDbEntity
  8
0
  6
Continuous
 62
     1
370
    15
100
AcDbSpline
210
0.0
220
0.0
230
1.0
 70
    24
 71
     3
 72
     8
 73
     4
 74
     0
 42
0.000000001
 43
0.00000001
 40
0.0
 40
0.0
 40
0.0
 40
0.0
 40
1.0
 40
1.0
 40
1.0
 40
1.0
 10
41.41332768727661
 20
1.163237450647049
 30
0.0
 10
41.33479014769487
 20
1.097336630150448
 30
0.0
 10
41.25140712988962
 20
1.02736997066357
 30
0.0
 10
41.16465717569907
 20
0.9545781160976355
 30
0.0
  0
SPLINE
  5
DD
330
1F
100
AcDbEntity
  8
외형선
  6
Continuous
370
    15
100
AcDbSpline
210
0.0
220
0.0
230
1.0
 70
    24
 71
     3
 72
    14
 73
    10
 74
     0
 42
0.000000001
 43
0.00000001
 40
0.0
 40
0.0
 40
0.0
 40
0.0
 40
0.25
 40
0.25
 40
0.5
 40
0.5
 40
0.75
 40
0.75
 40
1.0
 40
1.0
 40
1.0
 40
1.0
 10
17.46250000000003
 20
1.653902167748655
 30
0.0
 10
17.46250000000003
 20
1.583679101826743
 30
0.0
 10
17.46250000000003
 20
1.486819487002599
 30
0.0
 10
17.46250000000003
 20
1.241543163640637
 30
0.0
 10
17.46250000000003
 20
1.093145437822256
 30
0.0
 10
17.46250000000003
 20
0.7570406495146792
 30
0.0
 10
17.46250000000003
 20
0.5695126777086356
 30
0.0
 10
17.46250000000003
 20
0.1751374738983442
 30
0.0
 10
17.46250000000003
 20
-0.0314813579638747
 30
0.0
 10
17.46250000000003
 20
-0.2372079363817941
 30
0.0
  0
SPLINE
  5
DE
330
1F
100
AcDbEntity
  8
0
  6
Continuous
 62
     1
370
    15
100
AcDbSpline
210
0.0
220
0.0
230
1.0
 70
     8
 71
     3
 72
     8
 73
     4
 74
     0
 42
0.000000001
 43
0.00000001
 40
0.0
 40
0.0
 40
0.0
 40
0.0
 40
1.0
 40
1.0
 40
1.0
 40
1.0
 10
42.86250000000003
 20
1.666875000000002
 30
0.0
 10
42.37277141749207
 20
1.53391637822693
 30
0.0
 10
41.88754459560954
 20
1.370650605134006
 30
0.0
 10
41.41332768728592
 20
1.16323745065112
 30
0.0
  0
LINE
  5
DF
330
1F
100
AcDbEntity
  8
0
  6
Continuous
 62
     1
370
    15
100
AcDbLine
 10
42.86250000000003
 20
0.000000000000002
 30
0.0
 11
42.86250000000003
 21
1.666875000000002
 31
0.0
  0
LINE
  5
E0
330
1F
100
AcDbEntity
  8
중심선
 48
0.8
100
AcDbLine
 10
-45.8625
 20
-0.0000000000000056
 30
0.0
 11
45.8625
 21
0.0000000000000056
 31
0.0
  0
LINE
  5
E1
330
1F
100
AcDbEntity
  8
참조1
100
AcDbLine
 10
-7.056711678730523
 20
0.0010749287238892
 30
0.0
 11
-7.056711678730518
 21
-39.99892507127611
 31
0.0
  0
LINE
  5
E2
330
1F
100
AcDbEntity
  8
참조1
100
AcDbLine
 10
-7.056711678730518
 20
-39.99892507127611
 30
0.0
 11
-29.45992727542973
 21
-39.9989250712761
 31
0.0
  0
CIRCLE
  5
E3
330
1F
100
AcDbEntity
  8
해칭선
100
AcDbCircle
 10
0.0
 20
0.0
 30
0.0
 40
3.000000000000001
  0
INSERT
  5
E4
330
1F
100
AcDbEntity
  8
0
  6
Continuous
 62
     7
100
AcDbBlockReference
 66
     1
  2
블럭10
 10
-13.9402729321252
 20
-52.04717430164393
 30
0.0
  0
ATTRIB
  5
E5
330
E4
100
AcDbEntity
  8
FORMAT
 62
     2
100
AcDbText
 10
-23.12156822086648
 20
-49.97180738881175
 30
0.0
 40
4.233333333333333
  1
E2005012 [ 2 FLUTE ]
 41
0.75
  7
SLDTEXTSTYLE0
 11
-23.12156822086648
 21
-52.08847405547841
 31
0.0
100
AcDbAttribute
  2
AUTOATTR0
 70
     0
 74
     1
  0
SEQEND
  5
E6
330
E4
100
AcDbEntity
  8
0
  6
Continuous
 62
     7
  0
HATCH
  5
E7
330
1F
100
AcDbEntity
  8
중심선
100
AcDbHatch
 10
0.0
 20
0.0
 30
0.0
210
0.0
220
0.0
230
1.0
  2
SOLID
 70
     1
 71
     0
 91
        1
 92
        0
 93
        4
 72
     1
 10
-8.22536362774435
 20
-35.8
 11
-11.67163887158163
 21
-35.8
 72
     1
 10
-11.67163887158163
 20
-35.8
 11
-13.79986873078565
 21
-38.3363255805726
 72
     1
 10
-13.79986873078565
 20
-38.3363255805726
 11
-10.35356040183522
 21
-38.33628615127011
 72
     1
 10
-10.35356040183522
 20
-38.33628615127011
 11
-8.22536362774435
 21
-35.8
 97
        0
 75
     0
 76
     1
 98
        1
 10
7.05671167873053
 20
-0.0010749287238949
  0
HATCH
  5
E8
330
1F
100
AcDbEntity
  8
중심선
100
AcDbHatch
 10
0.0
 20
0.0
 30
0.0
210
0.0
220
0.0
230
1.0
  2
SOLID
 70
     1
 71
     0
 91
        1
 92
        0
 93
        4
 72
     1
 10
-3.21259963670837
 20
-35.8
 11
-6.658874880545653
 21
-35.8
 72
     1
 10
-6.658874880545653
 20
-35.8
 11
-11.19001288890307
 21
-41.20000000000002
 72
     1
 10
-11.19001288890307
 20
-41.20000000000002
 11
-7.743737645065787
 21
-41.20000000000002
 72
     1
 10
-7.743737645065787
 20
-41.20000000000002
 11
-3.21259963670837
 21
-35.8
 97
        0
 75
     0
 76
     1
 98
        1
 10
7.05671167873053
 20
-0.0010749287238949
  0
HATCH
  5
E9
330
1F
100
AcDbEntity
  8
중심선
100
AcDbHatch
 10
0.0
 20
0.0
 30
0.0
210
0.0
220
0.0
230
1.0
  2
SOLID
 70
     1
 71
     0
 91
        1
 92
        0
 93
        4
 72
     1
 10
1.800164354327524
 20
-35.8
 11
-1.646110889509592
 21
-35.8
 72
     1
 10
-1.646110889509592
 20
-35.8
 11
-8.694547791398868
 21
-44.20000000000002
 72
     1
 10
-8.694547791398868
 20
-44.20000000000002
 11
-5.248272547561585
 21
-44.20000000000002
 72
     1
 10
-5.248272547561585
 20
-44.20000000000002
 11
1.800164354327524
 21
-35.8
 97
        0
 75
     0
 76
     1
 98
        1
 10
7.05671167873053
 20
-0.0010749287238949
  0
HATCH
  5
EA
330
1F
100
AcDbEntity
  8
중심선
100
AcDbHatch
 10
0.0
 20
0.0
 30
0.0
210
0.0
220
0.0
230
1.0
  2
SOLID
 70
     1
 71
     0
 91
        1
 92
        0
 93
        6
 72
     3
 10
6.600054785339696
 20
-40.00000000005127
 11
3.960054785062284
 21
1.540882976769353E-10
 40
0.3939339440162627
 50
17.09539180608437
 51
320.0019657685081
 73
     0
 72
     1
 10
8.283054441040292
 20
-38.5878940046383
 11
10.58835631474136
 21
-36.65356729459035
 72
     3
 10
6.60005478528685
 20
-40.00000000000015
 11
6.60005478528683
 21
-1.278976924368180E-13
 40
0.636358354079598
 50
39.99873849337413
 51
368.4976242363725
 73
     1
 72
     1
 10
13.02538727718746
 20
-39.03999999993002
 11
5.280122092122772
 21
-39.03999999993002
 72
     1
 10
5.280122092122772
 20
-39.03999999993002
 11
5.280097047676838
 21
-40.95999999992991
 72
     1
 10
5.280097047676838
 20
-40.95999999992991
 11
9.721476817148876
 21
-40.95999999992988
 97
        0
 75
     0
 76
     1
 98
        1
 10
7.05671167873053
 20
-0.0010749287238949
  0
DIMENSION
  5
EB
330
1F
100
AcDbEntity
  8
치수문자_일반주서
100
AcDbDimension
  2
_D
 10
-55.8625
 20
-2.381250000000144
 30
0.0
 11
-55.8625
 21
0.0000000000000027
 31
0.0
 70
   160
  1
%%c<>
 71
     2
 42
4.762500000000003
 52
-270.0
  3
SLDDIMSTYLE0
100
AcDbAlignedDimension
 13
-17.46250000000003
 23
2.381250000000002
 33
0.0
 14
-17.46250000000003
 24
-2.381250000000001
 34
0.0
 50
90.0000000000002
100
AcDbRotatedDimension
1001
ACAD
1000
DSTYLE
1002
{
1070
   171
1070
     6
1070
   273
1070
     7
1002
}
  0
DIMENSION
  5
100
330
1F
100
AcDbEntity
  8
치수문자_일반주서
100
AcDbDimension
  2
_D_1
 10
61.86250000000012
 20
2.379237403765664
 30
0.0
 11
61.86250000000005
 21
26.05642533665612
 31
0.0
 70
   160
  1
%%c<>
 71
     2
 42
4.760487403765586
 52
-270.0
  3
SLDDIMSTYLE0
100
AcDbAlignedDimension
 13
42.86250000000003
 23
-2.381249999999994
 33
0.0
 14
42.86250000000003
 24
2.379237403765591
 34
0.0
 50
90.0000000000002
100
AcDbRotatedDimension
1001
ACAD
1000
DSTYLE
1002
{
1070
   171
1070
     6
1070
   273
1070
     7
1002
}
  0
DIMENSION
  5
114
330
1F
100
AcDbEntity
  8
치수문자_일반주서
100
AcDbDimension
  2
_D_2
 10
17.46250000000003
 20
14.35800365487034
 30
0.0
 11
-6.502187661145532
 21
14.35800365487034
 31
0.0
 70
   160
  1
<>
 71
     2
 42
25.40000000000001
  3
SLDDIMSTYLE0
100
AcDbAlignedDimension
 13
42.86250000000003
 23
2.379237403765591
 33
0.0
 14
17.46250000000003
 24
2.37290861330292
 34
0.0
 50
0.000000000000008
100
AcDbRotatedDimension
1001
ACAD
1000
DSTYLE
1002
{
1070
   171
1070
     6
1070
   273
1070
     7
1002
}
  0
DIMENSION
  5
129
330
1F
100
AcDbEntity
  8
치수문자_일반주서
100
AcDbDimension
  2
_D_3
 10
42.86250000000003
 20
23.32445859659836
 30
0.0
 11
0.0000000000000302
 21
23.32445859659836
 31
0.0
 70
   160
  1
<>
 71
     2
 42
85.72500000000001
  3
SLDDIMSTYLE0
100
AcDbAlignedDimension
 13
-42.86249999999998
 23
1.951249999999991
 33
0.0
 14
42.86250000000003
 24
2.379237403765591
 34
0.0
100
AcDbRotatedDimension
1001
ACAD
1000
DSTYLE
1002
{
1070
   171
1070
     6
1070
   273
1070
     7
1002
}
  0
LINE
  5
13D
330
1F
100
AcDbEntity
  8
참조1
100
AcDbLine
 10
68.51241335422453
 20
7.441074928723896
 30
0.0
 11
68.51241335422453
 21
-7.438925071276109
 31
0.0
  0
LINE
  5
13E
330
1F
100
AcDbEntity
  8
참조1
100
AcDbLine
 10
81.21241335422454
 20
5.441074928723896
 30
0.0
 11
68.51241335422453
 21
5.441074928723896
 31
0.0
  0
SOLID
  5
13F
330
1F
100
AcDbEntity
  8
참조1
100
AcDbTrace
 10
68.51241335422453
 20
5.441074928723896
 30
0.0
 11
74.86241335422453
 21
4.425074928723896
 31
0.0
 12
74.86241335422453
 22
6.457074928723896
 32
0.0
 13
74.86241335422453
 23
6.457074928723896
 33
0.0
  0
LINE
  5
140
330
1F
100
AcDbEntity
  8
참조1
100
AcDbLine
 10
81.21241335422454
 20
-5.438925071276109
 30
0.0
 11
68.51241335422453
 21
-5.438925071276109
 31
0.0
  0
SOLID
  5
141
330
1F
100
AcDbEntity
  8
참조1
100
AcDbTrace
 10
68.51241335422453
 20
-5.438925071276109
 30
0.0
 11
74.86241335422453
 21
-6.454925071276109
 31
0.0
 12
74.86241335422453
 22
-4.422925071276109
 32
0.0
 13
74.86241335422453
 23
-4.422925071276109
 33
0.0
  0
MTEXT
  5
142
330
1F
100
AcDbEntity
  8
참조1
100
AcDbMText
 10
77.89676348685053
 20
11.01136670591222
 30
0.0
 40
3.5
 41
0.0
 71
     1
 72
     1
  1
A
  7
SLDTEXTSTYLE0
 73
     1
 44
1.0
  0
MTEXT
  5
143
330
1F
100
AcDbEntity
  8
참조1
100
AcDbMText
 10
77.89676348685053
 20
0.1313667059122192
 30
0.0
 40
3.5
 41
0.0
 71
     1
 72
     1
  1
A
  7
SLDTEXTSTYLE0
 73
     1
 44
1.0
  0
INSERT
  5
14A
330
1F
100
AcDbEntity
  8
해칭선
100
AcDbBlockReference
  2
SW_DOWELSYMBOL_0
 10
0.0
 20
0.0
 30
0.0
  0
LINE
  5
273
330
1F
100
AcDbEntity
  8
외형선
  6
Continuous
370
    15
100
AcDbLine
 10
-17.46250000000003
 20
-2.381250000000001
 30
0.0
 11
-17.11770366496636
 21
-2.381250000000001
 31
0.0
  0
LINE
  5
274
330
1F
100
AcDbEntity
  8
외형선
  6
Continuous
370
    15
100
AcDbLine
 10
-17.11770366496636
 20
2.381250000000002
 30
0.0
 11
-17.46250000000003
 21
2.381250000000002
 31
0.0
  0
SPLINE
  5
276
330
1F
100
AcDbEntity
  8
0
  6
Continuous
 62
     1
370
    15
100
AcDbSpline
210
0.0
220
0.0
230
1.0
 70
     8
 71
     3
 72
     9
 73
     5
 74
     0
 42
0.000000001
 43
0.00000001
 40
0.0
 40
0.0
 40
0.0
 40
0.0
 40
0.4369568795859085
 40
1.0
 40
1.0
 40
1.0
 40
1.0
 10
-23.7366287657158
 20
-0.6102002539067467
 30
0.0
 10
-23.64019645545061
 20
-0.6559612268338807
 30
0.0
 10
-23.41950577687248
 20
-0.760687745776664
 30
0.0
 10
-23.19881598755318
 20
-0.8758051094009144
 30
0.0
 10
-23.07455811993133
 20
-0.940621149029759
 30
0.0
  0
SPLINE
  5
277
330
1F
100
AcDbEntity
  8
0
  6
Continuous
 62
     1
370
    15
100
AcDbSpline
210
0.0
220
0.0
230
1.0
 70
     8
 71
     3
 72
     9
 73
     5
 74
     0
 42
0.000000001
 43
0.00000001
 40
0.0
 40
0.0
 40
0.0
 40
0.0
 40
0.5371390472581823
 40
1.0
 40
1.0
 40
1.0
 40
1.0
 10
-36.69433381913716
 20
-0.6100244898816808
 30
0.0
 10
-36.57566911463197
 20
-0.666519439139719
 30
0.0
 10
-36.35474921482034
 20
-0.7716969523859089
 30
0.0
 10
-36.13396658950625
 20
-0.8872129374985672
 30
0.0
 10
-36.03177493320452
 20
-0.9406807764247272
 30
0.0
  0
LINE
  5
278
330
1F
100
AcDbEntity
  8
0
  6
Continuous
 62
     1
370
    15
100
AcDbLine
 10
-35.65898219427748
 20
-0.5159695548344555
 30
0.0
 11
-35.35120468242413
 21
-0.684568620635616
 31
0.0
  0
LINE
  5
279
330
1F
100
AcDbEntity
  8
0
  6
Continuous
 62
     1
370
    15
100
AcDbLine
 10
-22.68152303640942
 20
-0.5267591280084712
 30
0.0
 11
-22.39407982200287
 21
-0.6844559340463686
 31
0.0
  0
LINE
  5
27A
330
1F
100
AcDbEntity
  8
0
  6
Continuous
 62
     1
370
    15
100
AcDbLine
 10
-17.46250000000003
 20
2.381250000000002
 30
0.0
 11
-18.27180509958884
 21
2.381250000000002
 31
0.0
  0
LINE
  5
27B
330
1F
100
AcDbEntity
  8
0
  6
Continuous
 62
     1
370
    15
100
AcDbLine
 10
-31.22921697812972
 20
-2.381249999999994
 30
0.0
 11
-30.07500632822774
 21
-2.381249999999994
 31
0.0
  0
LINE
  5
27C
330
1F
100
AcDbEntity
  8
0
  6
Continuous
 62
     1
370
    15
100
AcDbLine
 10
-30.07500632822774
 20
2.381250000000009
 30
0.0
 11
-31.22921697812969
 21
2.381250000000009
 31
0.0
  0
LINE
  5
27D
330
1F
100
AcDbEntity
  8
0
  6
Continuous
 62
     1
370
    15
100
AcDbLine
 10
-18.27180509958884
 20
-2.381250000000001
 30
0.0
 11
-17.46250000000003
 21
-2.381250000000001
 31
0.0
  0
SPLINE
  5
27E
330
1F
100
AcDbEntity
  8
0
  6
Continuous
 62
     1
370
    15
100
AcDbSpline
210
0.0
220
0.0
230
1.0
 70
     8
 71
     3
 72
    20
 73
    16
 74
     0
 42
0.000000001
 43
0.00000001
 40
0.0
 40
0.0
 40
0.0
 40
0.0
 40
0.1342724168584127
 40
0.223401660043657
 40
0.2765837916532222
 40
0.3286702365472596
 40
0.3832865644492039
 40
0.4416226820590166
 40
0.5030885047821325
 40
0.5749912172291402
 40
0.6463930810660129
 40
0.7175482041530195
 40
0.7854872410252048
 40
0.8696237343114999
 40
1.0
 40
1.0
 40
1.0
 40
1.0
 10
-19.36693713006016
 20
1.981527537041331
 30
0.0
 10
-19.52738689885489
 20
1.966277351582882
 30
0.0
 10
-19.79434228359462
 20
1.94090418241602
 30
0.0
 10
-20.12432959983584
 20
1.91654231034817
 30
0.0
 10
-20.35636441900316
 20
1.901538443691308
 30
0.0
 10
-20.54707980838116
 20
1.8906938974648
 30
0.0
 10
-20.74405302268831
 20
1.881166979217852
 30
0.0
 10
-20.95228127083663
 20
1.872960195121195
 30
0.0
 10
-21.18117151603359
 20
1.866089382133709
 30
0.0
 10
-21.42569542888514
 20
1.861307218835499
 30
0.0
 10
-21.68153953722707
 20
1.859208580395517
 30
0.0
 10
-21.93299221701573
 20
1.860036377733984
 30
0.0
 10
-22.19814122416488
 20
1.863898561239133
 30
0.0
 10
-22.53441398565331
 20
1.872387465603943
 30
0.0
 10
-22.79174672057291
 20
1.884729907560015
 30
0.0
 10
-22.94814805156397
 20
1.89223137973071
 30
0.0
  0
SPLINE
  5
27F
330
1F
100
AcDbEntity
  8
0
  6
Continuous
 62
     1
370
    15
100
AcDbSpline
210
0.0
220
0.0
230
1.0
 70
     8
 71
     3
 72
     9
 73
     5
 74
     0
 42
0.000000001
 43
0.00000001
 40
0.0
 40
0.0
 40
0.0
 40
0.0
 40
0.4349631479946964
 40
1.0
 40
1.0
 40
1.0
 40
1.0
 10
-35.90530484405536
 20
-1.892222142540198
 30
0.0
 10
-35.62237947201583
 20
-1.879664031052527
 30
0.0
 10
-34.97192121286462
 20
-1.850792363313395
 30
0.0
 10
-34.32180565196094
 20
-1.864387992417683
 30
0.0
 10
-33.95446640198826
 20
-1.872070023887801
 30
0.0
  0
SPLINE
  5
280
330
1F
100
AcDbEntity
  8
0
  6
Continuous
 62
     1
370
    15
100
AcDbSpline
210
0.0
220
0.0
230
1.0
 70
     8
 71
     3
 72
    11
 73
     7
 74
     0
 42
0.000000001
 43
0.00000001
 40
0.0
 40
0.0
 40
0.0
 40
0.0
 40
0.4519381382999815
 40
0.6475502811406906
 40
0.7630448412089303
 40
1.0
 40
1.0
 40
1.0
 40
1.0
 10
-32.32405753328361
 20
1.981548530602211
 30
0.0
 10
-32.86367881737387
 20
1.936538116849249
 30
0.0
 10
-33.63686409343085
 20
1.872045869769544
 30
0.0
 10
-34.54756148293131
 20
1.858111117656137
 30
0.0
 10
-35.2014750876699
 20
1.861646745236776
 30
0.0
 10
-35.62234808884318
 20
1.879930085928777
 30
0.0
 10
-35.90530484405536
 20
1.89222214254022
 30
0.0
  0
SPLINE
  5
281
330
1F
100
AcDbEntity
  8
0
  6
Continuous
 62
     1
370
    15
100
AcDbSpline
210
0.0
220
0.0
230
1.0
 70
     8
 71
     3
 72
    14
 73
    10
 74
     0
 42
0.000000001
 43
0.00000001
 40
0.0
 40
0.0
 40
0.0
 40
0.0
 40
0.2396796977851288
 40
0.3943536269475189
 40
0.519250652793033
 40
0.6500600321482037
 40
0.781323012072824
 40
0.9135067366044436
 40
1.0
 40
1.0
 40
1.0
 40
1.0
 10
-22.94814805156397
 20
-1.892231379730695
 30
0.0
 10
-22.79174672296482
 20
-1.884730106515022
 30
0.0
 10
-22.53441399198083
 20
-1.872387991906805
 30
0.0
 10
-22.19814121009599
 20
-1.863897391031024
 30
0.0
 10
-21.93299225990506
 20
-1.860039945142972
 30
0.0
 10
-21.68153936697149
 20
-1.859194419033599
 30
0.0
 10
-21.42569606803368
 20
-1.86136038134277
 30
0.0
 10
-21.19838523221784
 20
-1.86558200198796
 30
0.0
 10
-21.05636295683615
 20
-1.870092000249151
 30
0.0
 10
-21.00018891589536
 20
-1.871875838920132
 30
0.0
  0
SPLINE
  5
282
330
1F
100
AcDbEntity
  8
0
  6
Continuous
 62
     1
370
    15
100
AcDbSpline
210
0.0
220
0.0
230
1.0
 70
     8
 71
     3
 72
    14
 73
    10
 74
     0
 42
0.000000001
 43
0.00000001
 40
0.0
 40
0.0
 40
0.0
 40
0.0
 40
0.249918252716483
 40
0.4057654193390742
 40
0.5307896697325656
 40
0.6596350303329948
 40
0.8104394741436516
 40
0.9846129568046579
 40
1.0
 40
1.0
 40
1.0
 40
1.0
 10
-37.81865665740289
 20
1.79099577848185
 30
0.0
 10
-37.96549842802715
 20
1.768696125160403
 30
0.0
 10
-38.20390963643714
 20
1.732490573614079
 30
0.0
 10
-38.51646910506741
 20
1.692826604645532
 30
0.0
 10
-38.75837852714613
 20
1.665277183616738
 30
0.0
 10
-38.99663923756287
 20
1.641060262018854
 30
0.0
 10
-39.26377348705835
 20
1.618068948980764
 30
0.0
 10
-39.46384374408455
 20
1.602606047097673
 30
0.0
 10
-39.57540726689495
 20
1.596918963704354
 30
0.0
 10
-39.58446312246797
 20
1.596457330685382
 30
0.0
  0
SPLINE
  5
283
330
1F
100
AcDbEntity
  8
0
  6
Continuous
 62
     1
370
    15
100
AcDbSpline
210
0.0
220
0.0
230
1.0
 70
     8
 71
     3
 72
    22
 73
    18
 74
     0
 42
0.000000001
 43
0.00000001
 40
0.0
 40
0.0
 40
0.0
 40
0.0
 40
0.1108090824095478
 40
0.1865328248461688
 40
0.2337899175173186
 40
0.2800344922314406
 40
0.3271533874865299
 40
0.3725211951737095
 40
0.417244325414782
 40
0.4647504990251415
 40
0.522804916169702
 40
0.5846231732487334
 40
0.6495790788869777
 40
0.7127007103313562
 40
0.7769517853792239
 40
0.8714755807769978
 40
1.0
 40
1.0
 40
1.0
 40
1.0
 10
-29.01959458695224
 20
-1.628664023049765
 30
0.0
 10
-28.86493068228281
 20
-1.616475187634677
 30
0.0
 10
-28.60457390996432
 20
-1.595956852385235
 30
0.0
 10
-28.27974584433252
 20
-1.580537228025008
 30
0.0
 10
-28.04807887086923
 20
-1.572804820066366
 30
0.0
 10
-27.85394089280248
 20
-1.568618520803596
 30
0.0
 10
-27.66141664387799
 20
-1.566752224410052
 30
0.0
 10
-27.47288693703563
 20
-1.56718673996798
 30
0.0
 10
-27.28503208336871
 20
-1.56972051159417
 30
0.0
 10
-27.07671724753316
 20
-1.574994110197877
 30
0.0
 10
-26.84233090063648
 20
-1.584150271658366
 30
0.0
 10
-26.58461759722854
 20
-1.598082502361009
 30
0.0
 10
-26.32145143540395
 20
-1.61665428754339
 30
0.0
 10
-26.05492871389435
 20
-1.639566064028429
 30
0.0
 10
-25.74733119842301
 20
-1.670635792752691
 30
0.0
 10
-25.34937639401772
 20
-1.717523407173189
 30
0.0
 10
-25.03967315989185
 20
-1.764147537829366
 30
0.0
 10
-24.86121654966887
 20
-1.791013205974479
 30
0.0
  0
SPLINE
  5
284
330
1F
100
AcDbEntity
  8
0
  6
Continuous
 62
     1
370
    15
100
AcDbSpline
210
0.0
220
0.0
230
1.0
 70
     8
 71
     3
 72
    13
 73
     9
 74
     0
 42
0.000000001
 43
0.00000001
 40
0.0
 40
0.0
 40
0.0
 40
0.0
 40
0.2906381214101304
 40
0.4832560149442381
 40
0.6515552677031714
 40
0.8158619495553768
 40
0.9715667671598898
 40
1.0
 40
1.0
 40
1.0
 40
1.0
 10
-24.86121654966887
 20
1.791013205974494
 30
0.0
 10
-25.03668596836342
 20
1.764447533900914
 30
0.0
 10
-25.32844622201321
 20
1.720275693131001
 30
0.0
 10
-25.72097396068806
 20
1.673291078162521
 30
0.0
 10
-26.01948065293407
 20
1.642798145662326
 30
0.0
 10
-26.31210575142438
 20
1.617515324405538
 30
0.0
 10
-26.51936997342249
 20
1.602058275706227
 30
0.0
 10
-26.62919695809418
 20
1.596318961786679
 30
0.0
 10
-26.64615562698287
 20
1.595432739473459
 30
0.0
  0
SPLINE
  5
285
330
1F
100
AcDbEntity
  8
0
  6
Continuous
 62
     1
370
    15
100
AcDbSpline
210
0.0
220
0.0
230
1.0
 70
     8
 71
     3
 72
    22
 73
    18
 74
     0
 42
0.000000001
 43
0.00000001
 40
0.0
 40
0.0
 40
0.0
 40
0.0
 40
0.1138306106401415
 40
0.1854131677359069
 40
0.2424490141088328
 40
0.3007247808028906
 40
0.3643091647146982
 40
0.4335316376963684
 40
0.5074173705444177
 40
0.5737634891997743
 40
0.6392315298247506
 40
0.6981593460767032
 40
0.7484887036214672
 40
0.7952762792878212
 40
0.8414099258412227
 40
0.9051936255312121
 40
1.0
 40
1.0
 40
1.0
 40
1.0
 10
-41.99213432089555
 20
-1.629960402574639
 30
0.0
 10
-41.83313768203276
 20
-1.617338682522174
 30
0.0
 10
-41.57415575875984
 20
-1.596779774122737
 30
0.0
 10
-41.23666440812075
 20
-1.580499431008896
 30
0.0
 10
-40.97684112661181
 20
-1.571827597799981
 30
0.0
 10
-40.72837136955666
 20
-1.56725887859065
 30
0.0
 10
-40.46275944680536
 20
-1.566509012442679
 30
0.0
 10
-40.17515616459362
 20
-1.570687894521796
 30
0.0
 10
-39.88385462712505
 20
-1.580223538094579
 30
0.0
 10
-39.59783769922966
 20
-1.594645994670358
 30
0.0
 10
-39.33283314319447
 20
-1.612516289313063
 30
0.0
 10
-39.09001616250685
 20
-1.632656639793183
 30
0.0
 10
-38.8729787076136
 20
-1.653397731267645
 30
0.0
 10
-38.67358546931884
 20
-1.674698008465327
 30
0.0
 10
-38.45486064079949
 20
-1.700461687699828
 30
0.0
 10
-38.1705322332566
 20
-1.737377667569916
 30
0.0
 10
-37.95030825627685
 20
-1.770934965755543
 30
0.0
 10
-37.81865665740286
 20
-1.790995778481836
 30
0.0
  0
SPLINE
  5
286
330
1F
100
AcDbEntity
  8
외형선
  6
Continuous
370
    15
100
AcDbSpline
210
0.0
220
0.0
230
1.0
 70
     8
 71
     3
 72
    16
 73
    12
 74
     0
 42
0.000000001
 43
0.00000001
 40
0.0
 40
0.0
 40
0.0
 40
0.0
 40
0.0198684876982535
 40
0.0541968283621567
 40
0.1038984776674557
 40
0.1692017563869588
 40
0.2501860678086496
 40
0.3694984660027023
 40
0.5000910872848235
 40
0.7578527538779652
 40
1.0
 40
1.0
 40
1.0
 40
1.0
 10
-17.02251899952574
 20
1.892142643884356
 30
0.0
 10
-17.01948981145778
 20
1.892573290335683
 30
0.0
 10
-17.01122685816772
 20
1.89374799835381
 30
0.0
 10
-16.99731059935132
 20
1.902530672668881
 30
0.0
 10
-16.97801679001144
 20
1.915279199939967
 30
0.0
 10
-16.95366901290179
 20
1.934077432300868
 30
0.0
 10
-16.92134507459459
 20
1.960330851638844
 30
0.0
 10
-16.88185206107425
 20
1.994258902066641
 30
0.0
 10
-16.822576781846
 20
2.048126593830248
 30
0.0
 10
-16.75034304592005
 20
2.117047344412307
 30
0.0
 10
-16.69582101597191
 20
2.175410304154803
 30
0.0
 10
-16.6694114860173
 20
2.203680314186066
 30
0.0
  0
SPLINE
  5
287
330
1F
100
AcDbEntity
  8
외형선
  6
Continuous
370
    15
100
AcDbSpline
210
0.0
220
0.0
230
1.0
 70
     8
 71
     3
 72
    14
 73
    10
 74
     0
 42
0.000000001
 43
0.00000001
 40
0.0
 40
0.0
 40
0.0
 40
0.0
 40
0.1253645750420735
 40
0.249909604669022
 40
0.4981861814959234
 40
0.6253976539287593
 40
0.7485284844362972
 40
0.8910920527126509
 40
1.0
 40
1.0
 40
1.0
 40
1.0
 10
-16.6694114860173
 20
2.203680314186059
 30
0.0
 10
-16.66306733581825
 20
2.185343248851766
 30
0.0
 10
-16.65042050901194
 20
2.148788993018762
 30
0.0
 10
-16.6277471494117
 20
2.063439691070734
 30
0.0
 10
-16.60832563308912
 20
1.964002589116433
 30
0.0
 10
-16.59268514687005
 20
1.851199857554406
 30
0.0
 10
-16.58274581381757
 20
1.755437145586754
 30
0.0
 10
-16.57480731780765
 20
1.657956711728034
 30
0.0
 10
-16.5732589722645
 20
1.587724638869809
 30
0.0
 10
-16.5725884106925
 20
1.557308347499472
 30
0.0
  0
SPLINE
  5
288
330
1F
100
AcDbEntity
  8
외형선
  6
Continuous
370
    15
100
AcDbSpline
210
0.0
220
0.0
230
1.0
 70
     8
 71
     3
 72
    20
 73
    16
 74
     0
 42
0.000000001
 43
0.00000001
 40
0.0
 40
0.0
 40
0.0
 40
0.0
 40
0.4999999999999994
 40
0.4999999999999994
 40
0.7499999999999991
 40
0.7499999999999991
 40
0.8749999999999979
 40
0.8749999999999979
 40
0.9374999999999982
 40
0.9374999999999982
 40
0.9531249999999984
 40
0.9531249999999984
 40
0.9687499999999988
 40
0.9687499999999988
 40
1.0
 40
1.0
 40
1.0
 40
1.0
 10
-16.83376430391183
 20
0.3462053174843905
 30
0.0
 10
-16.78408347802709
 20
0.3993719125985467
 30
0.0
 10
-16.72951692454881
 20
0.4430874229016058
 30
0.0
 10
-16.64691355936144
 20
0.4680865038858289
 30
0.0
 10
-16.6189625304573
 20
0.4695480138419302
 30
0.0
 10
-16.58977207026518
 20
0.4413622623079834
 30
0.0
 10
-16.58329527441708
 20
0.4268285047267429
 30
0.0
 10
-16.57726599711207
 20
0.4019358681618928
 30
0.0
 10
-16.57583040726879
 20
0.3930665152523932
 30
0.0
 10
-16.57421025521966
 20
0.3821524332582985
 30
0.0
 10
-16.57394768812537
 20
0.3798152925192897
 30
0.0
 10
-16.5730093427926
 20
0.3763228875341798
 30
0.0
 10
-16.57277295782909
 20
0.3810715846681776
 30
0.0
 10
-16.57259246276629
 20
0.3886434336223135
 30
0.0
 10
-16.5725884106925
 20
0.3936526705457058
 30
0.0
 10
-16.5725884106925
 20
0.3986502654665645
 30
0.0
  0
SPLINE
  5
289
330
1F
100
AcDbEntity
  8
외형선
  6
Continuous
370
    15
100
AcDbSpline
210
0.0
220
0.0
230
1.0
 70
     8
 71
     3
 72
    16
 73
    12
 74
     0
 42
0.000000001
 43
0.00000001
 40
0.0
 40
0.0
 40
0.0
 40
0.0
 40
0.2105396253207455
 40
0.4795978474968556
 40
0.6401180611299186
 40
0.740350748132838
 40
0.8292276398775077
 40
0.8991826099457106
 40
0.9503958104820128
 40
0.9833287493213375
 40
0.9999999999999999
 40
0.9999999999999999
 40
0.9999999999999999
 40
0.9999999999999999
 10
-16.83376185663351
 20
0.3462031467753025
 30
0.0
 10
-16.85173213019007
 20
0.3268250986299395
 30
0.0
 10
-16.89266743870277
 20
0.2826829559570501
 30
0.0
 10
-16.94711945940011
 20
0.2220034453712077
 30
0.0
 10
-16.99236164654547
 20
0.1711393933062911
 30
0.0
 10
-17.02240730597392
 20
0.1373321375074286
 30
0.0
 10
-17.04527674933231
 20
0.1127264140089469
 30
0.0
 10
-17.06449223008592
 20
0.0929466915942288
 30
0.0
 10
-17.07971369322313
 20
0.0801350378853772
 30
0.0
 10
-17.09019415103239
 20
0.0709519470605289
 30
0.0
 10
-17.09705678622944
 20
0.0704491822446303
 30
0.0
 10
-17.09936321866584
 20
0.0702802102614231
 30
0.0
  0
LINE
  5
28A
330
1F
100
AcDbEntity
  8
외형선
  6
Continuous
370
    15
100
AcDbLine
 10
-16.5725884106925
 20
0.3986502654665645
 30
0.0
 11
-16.5725884106925
 21
0.2103509089395248
 31
0.0
  0
LINE
  5
28B
330
1F
100
AcDbEntity
  8
외형선
  6
Continuous
370
    15
100
AcDbLine
 10
-16.5725884106925
 20
2.360455401239172
 30
0.0
 11
-17.11770366496636
 21
2.368083615032795
 31
0.0
  0
LINE
  5
28C
330
1F
100
AcDbEntity
  8
외형선
  6
Continuous
370
    15
100
AcDbLine
 10
-16.5725884106925
 20
2.381250000000002
 30
0.0
 11
-16.5725884106925
 21
2.360371343934809
 31
0.0
  0
LINE
  5
28D
330
1F
100
AcDbEntity
  8
외형선
  6
Continuous
370
    15
100
AcDbLine
 10
-17.46250000000003
 20
-2.381250000000001
 30
0.0
 11
-17.46250000000003
 21
-2.372908613302918
 31
0.0
  0
SPLINE
  5
28E
330
1F
100
AcDbEntity
  8
외형선
  6
Continuous
370
    15
100
AcDbSpline
210
0.0
220
0.0
230
1.0
 70
     8
 71
     3
 72
     8
 73
     4
 74
     0
 42
0.000000001
 43
0.00000001
 40
0.0
 40
0.0
 40
0.0
 40
0.0
 40
1.0
 40
1.0
 40
1.0
 40
1.0
 10
-17.46250000000003
 20
-2.372908613302918
 30
0.0
 10
-17.1639760571266
 20
-2.387275495323912
 30
0.0
 10
-16.8705872058455
 20
-2.383096333088602
 30
0.0
 10
-16.5725884106925
 20
-2.360455401239171
 30
0.0
  0
LINE
  5
28F
330
1F
100
AcDbEntity
  8
외형선
  6
Continuous
370
    15
100
AcDbLine
 10
-16.5725884106925
 20
0.2103509089395248
 30
0.0
 11
-16.5725884106925
 21
-2.381250000000001
 31
0.0
  0
LINE
  5
290
330
1F
100
AcDbEntity
  8
외형선
  6
Continuous
370
    15
100
AcDbLine
 10
-16.5725884106925
 20
1.557308347499209
 30
0.0
 11
-16.5725884106925
 21
0.3986502654665645
 31
0.0
  0
SPLINE
  5
291
330
1F
100
AcDbEntity
  8
외형선
  6
Continuous
370
    15
100
AcDbSpline
210
0.0
220
0.0
230
1.0
 70
     8
 71
     3
 72
     8
 73
     4
 74
     0
 42
0.000000001
 43
0.00000001
 40
0.0
 40
0.0
 40
0.0
 40
0.0
 40
1.0
 40
1.0
 40
1.0
 40
1.0
 10
-17.46250000000003
 20
2.335614327426406
 30
0.0
 10
-17.1963411485469
 20
2.305771001009618
 30
0.0
 10
-16.93450995637777
 20
2.261642063204598
 30
0.0
 10
-16.6694114860173
 20
2.203680314186059
 30
0.0
  0
SPLINE
  5
292
330
1F
100
AcDbEntity
  8
외형선
  6
Continuous
370
    15
100
AcDbSpline
210
0.0
220
0.0
230
1.0
 70
     8
 71
     3
 72
    14
 73
    10
 74
     0
 42
0.000000001
 43
0.00000001
 40
0.0
 40
0.0
 40
0.0
 40
0.0
 40
0.25
 40
0.25
 40
0.5
 40
0.5
 40
0.75
 40
0.75
 40
1.0
 40
1.0
 40
1.0
 40
1.0
 10
-16.57258841070472
 20
-2.096055610320043
 30
0.0
 10
-16.5725879364472
 20
-2.036221768882505
 30
0.0
 10
-16.58599548951121
 20
-1.980138584554893
 30
0.0
 10
-16.6268302523112
 20
-1.880710817436004
 30
0.0
 10
-16.65465524454236
 20
-1.836544007858883
 30
0.0
 10
-16.71999553371068
 20
-1.761511064152287
 30
0.0
 10
-16.75818619580752
 20
-1.729670548645366
 30
0.0
 10
-16.84643294486835
 20
-1.682440883051008
 30
0.0
 10
-16.89710998494672
 20
-1.666901150249245
 30
0.0
 10
-16.95279066490476
 20
-1.666873783679612
 30
0.0
  0
SPLINE
  5
293
330
1F
100
AcDbEntity
  8
외형선
  6
Continuous
370
    15
100
AcDbSpline
210
0.0
220
0.0
230
1.0
 70
     8
 71
     3
 72
     8
 73
     4
 74
     0
 42
0.000000001
 43
0.00000001
 40
0.0
 40
0.0
 40
0.0
 40
0.0
 40
1.0
 40
1.0
 40
1.0
 40
1.0
 10
-17.46250000000003
 20
-1.653902167748654
 30
0.0
 10
-17.29166122583023
 20
-1.66247158146205
 30
0.0
 10
-17.12111423120862
 20
-1.666791054111606
 30
0.0
 10
-16.95279066490482
 20
-1.666873783679605
 30
0.0
  0
SPLINE
  5
294
330
1F
100
AcDbEntity
  8
외형선
  6
Continuous
370
    15
100
AcDbSpline
210
0.0
220
0.0
230
1.0
 70
    24
 71
     3
 72
    14
 73
    10
 74
     0
 42
0.000000001
 43
0.00000001
 40
0.0
 40
0.0
 40
0.0
 40
0.0
 40
0.25
 40
0.25
 40
0.5
 40
0.5
 40
0.75
 40
0.75
 40
1.0
 40
1.0
 40
1.0
 40
1.0
 10
-17.46250000000003
 20
-1.653902167748654
 30
0.0
 10
-17.46250000000003
 20
-1.583679101826739
 30
0.0
 10
-17.46250000000003
 20
-1.486819487002599
 30
0.0
 10
-17.46250000000003
 20
-1.241543163640635
 30
0.0
 10
-17.46250000000003
 20
-1.093145437822258
 30
0.0
 10
-17.46250000000003
 20
-0.7570406495146781
 30
0.0
 10
-17.46250000000003
 20
-0.5695126777086369
 30
0.0
 10
-17.46250000000003
 20
-0.1751374738983455
 30
0.0
 10
-17.46250000000003
 20
0.0314813579638769
 30
0.0
 10
-17.46250000000003
 20
0.2372079363817934
 30
0.0
  0
SPLINE
  5
295
330
1F
100
AcDbEntity
  8
외형선
  6
Continuous
370
    15
100
AcDbSpline
210
0.0
220
0.0
230
1.0
 70
     8
 71
     3
 72
     8
 73
     4
 74
     0
 42
0.000000001
 43
0.00000001
 40
0.0
 40
0.0
 40
0.0
 40
0.0
 40
1.0
 40
1.0
 40
1.0
 40
1.0
 10
-17.46250000000006
 20
0.2372079363818148
 30
0.0
 10
-17.34107646091928
 20
0.1817412724805013
 30
0.0
 10
-17.21979826434389
 20
0.125990088113831
 30
0.0
 10
-17.09936404372149
 20
0.0702783970762442
 30
0.0
  0
SPLINE
  5
296
330
1F
100
AcDbEntity
  8
외형선
  6
Continuous
370
    15
100
AcDbSpline
210
0.0
220
0.0
230
1.0
 70
    24
 71
     3
 72
    10
 73
     6
 74
     0
 42
0.000000001
 43
0.00000001
 40
0.0
 40
0.0
 40
0.0
 40
0.0
 40
0.5
 40
0.5
 40
1.0
 40
1.0
 40
1.0
 40
1.0
 10
-17.46250000000003
 20
0.2372079363817934
 30
0.0
 10
-17.46250000000003
 20
0.5939136674107249
 30
0.0
 10
-17.46250000000003
 20
0.9486626610632175
 30
0.0
 10
-17.46250000000003
 20
1.55012764374667
 30
0.0
 10
-17.46250000000003
 20
1.794254692362991
 30
0.0
 10
-17.46250000000003
 20
1.957893825738005
 30
0.0
  0
SPLINE
  5
297
330
1F
100
AcDbEntity
  8
외형선
  6
Continuous
370
    15
100
AcDbSpline
210
0.0
220
0.0
230
1.0
 70
     8
 71
     3
 72
     8
 73
     4
 74
     0
 42
0.000000001
 43
0.00000001
 40
0.0
 40
0.0
 40
0.0
 40
0.0
 40
1.0
 40
1.0
 40
1.0
 40
1.0
 10
-17.46250000000006
 20
1.957893825738012
 30
0.0
 10
-17.31521037984034
 20
1.939622334235011
 30
0.0
 10
-17.16813597973566
 20
1.91762832610339
 30
0.0
 10
-17.02251931287119
 20
1.89214008193111
 30
0.0
  0
SPLINE
  5
298
330
1F
100
AcDbEntity
  8
외형선
  6
Continuous
370
    15
100
AcDbSpline
210
0.0
220
0.0
230
1.0
 70
    24
 71
     3
 72
     8
 73
     4
 74
     0
 42
0.000000001
 43
0.00000001
 40
0.0
 40
0.0
 40
0.0
 40
0.0
 40
1.0
 40
1.0
 40
1.0
 40
1.0
 10
-17.46250000000003
 20
1.957893825738005
 30
0.0
 10
-17.46250000000003
 20
2.084432462759083
 30
0.0
 10
-17.46250000000003
 20
2.211151307255186
 30
0.0
 10
-17.46250000000003
 20
2.335614327414732
 30
0.0
  0
SPLINE
  5
299
330
1F
100
AcDbEntity
  8
외형선
  6
Continuous
370
    15
100
AcDbSpline
210
0.0
220
0.0
230
1.0
 70
    24
 71
     3
 72
    10
 73
     6
 74
     0
 42
0.000000001
 43
0.00000001
 40
0.0
 40
0.0
 40
0.0
 40
0.0
 40
0.5
 40
0.5
 40
1.0
 40
1.0
 40
1.0
 40
1.0
 10
-17.46250000000003
 20
-2.372908613297347
 30
0.0
 10
-17.46250000000003
 20
-2.258380087500661
 30
0.0
 10
-17.46250000000003
 20
-2.131982215295245
 30
0.0
 10
-17.46250000000003
 20
-1.883173587256785
 30
0.0
 10
-17.46250000000003
 20
-1.76142158002451
 30
0.0
 10
-17.46250000000003
 20
-1.653902167748654
 30
0.0
  0
SPLINE
  5
29A
330
1F
100
AcDbEntity
  8
0
  6
Continuous
 62
     1
370
    15
100
AcDbSpline
210
0.0
220
0.0
230
1.0
 70
     8
 71
     3
 72
    22
 73
    18
 74
     0
 42
0.000000001
 43
0.00000001
 40
0.0
 40
0.0
 40
0.0
 40
0.0
 40
0.0606211889947874
 40
0.130457417672603
 40
0.2003012115088433
 40
0.2701551936848604
 40
0.3400219679962257
 40
0.4099041139748759
 40
0.4797945156157943
 40
0.5496695725839746
 40
0.6195303911468443
 40
0.6893795621223814
 40
0.7618276722088568
 40
0.8342738188525892
 40
0.9067183405780954
 40
0.9791615767030715
 40
1.0
 40
1.0
 40
1.0
 40
1.0
 10
-33.95483897061614
 20
1.871955509108638
 30
0.0
 10
-33.63795827984909
 20
1.977836245696658
 30
0.0
 10
-32.95602779789612
 20
2.20569267189994
 30
0.0
 10
-31.90899125815309
 20
2.374597023655916
 30
0.0
 10
-30.81366923470897
 20
2.397755163272408
 30
0.0
 10
-29.71815514594476
 20
2.249274597938183
 30
0.0
 10
-28.62240135924025
 20
1.94394960280097
 30
0.0
 10
-27.52640609526457
 20
1.501995835509149
 30
0.0
 10
-26.43032267439227
 20
0.9547983827044678
 30
0.0
 10
-25.33442652700545
 20
0.3405364923100438
 30
0.0
 10
-24.23877535226432
 20
-0.2974861272327158
 30
0.0
 10
-23.12974769302098
 20
-0.9225369333750063
 30
0.0
 10
-22.00709524188149
 20
-1.487306999699477
 30
0.0
 10
-20.87091313036301
 20
-1.950324233518103
 30
0.0
 10
-19.73475308043788
 20
-2.252831552690644
 30
0.0
 10
-18.8683879508693
 20
-2.392131727042858
 30
0.0
 10
-18.38074163109575
 20
-2.368138642702398
 30
0.0
 10
-18.27180509958884
 20
-2.362778767558836
 30
0.0
  0
SPLINE
  5
29B
330
1F
100
AcDbEntity
  8
0
  6
Continuous
 62
     1
370
    15
100
AcDbSpline
210
0.0
220
0.0
230
1.0
 70
     8
 71
     3
 72
    16
 73
    12
 74
     0
 42
0.000000001
 43
0.00000001
 40
0.0
 40
0.0
 40
0.0
 40
0.0
 40
0.0487282634257951
 40
0.1759919478922081
 40
0.3032750273136282
 40
0.4305824575677193
 40
0.5579191477881134
 40
0.6852715521473565
 40
0.8125947486014516
 40
0.9398908417346975
 40
1.0
 40
1.0
 40
1.0
 40
1.0
 10
-32.3284054966769
 20
1.964799769723108
 30
0.0
 10
-32.18861292808665
 20
1.983052526936533
 30
0.0
 10
-31.6837238818247
 20
2.048976039710312
 30
0.0
 10
-30.81366499336325
 20
2.015911223600867
 30
0.0
 10
-29.71815086653447
 20
1.865805361308994
 30
0.0
 10
-28.62239582557753
 20
1.57595734433275
 30
0.0
 10
-27.52640248278731
 20
1.178081926813874
 30
0.0
 10
-26.43032917463889
 20
0.6963374467643252
 30
0.0
 10
-25.33443059031764
 20
0.1682558504514165
 30
0.0
 10
-24.43147731360659
 20
-0.2840235408799924
 30
0.0
 10
-23.89383099619538
 20
-0.5316880005388566
 30
0.0
 10
-23.72138402716518
 20
-0.6111249538324725
 30
0.0
  0
SPLINE
  5
29C
330
1F
100
AcDbEntity
  8
0
  6
Continuous
 62
     1
370
    15
100
AcDbSpline
210
0.0
220
0.0
230
1.0
 70
     8
 71
     3
 72
    18
 73
    14
 74
     0
 42
0.000000001
 43
0.00000001
 40
0.0
 40
0.0
 40
0.0
 40
0.0
 40
0.0942117367196788
 40
0.1884017856378282
 40
0.2825736138101576
 40
0.3767307228179066
 40
0.4708766422264776
 40
0.5650149229309651
 40
0.6591491304151776
 40
0.753282837951337
 40
0.8474196197680582
 40
0.9415630442144316
 40
1.0
 40
1.0
 40
1.0
 40
1.0
 10
-42.8625
 20
2.259665444858471
 30
0.0
 10
-42.49712270486639
 20
2.177719060340082
 30
0.0
 10
-41.76645222545982
 20
2.013845155586943
 30
0.0
 10
-40.67062510964507
 20
1.584278122822767
 30
0.0
 10
-39.57504798427197
 20
1.055006653421401
 30
0.0
 10
-38.47967732821291
 20
0.4487244940975759
 30
0.0
 10
-37.38446249189035
 20
-0.1881411096276293
 30
0.0
 10
-36.28935434841269
 20
-0.8121476881943576
 30
0.0
 10
-35.19430293687804
 20
-1.378637012670054
 30
0.0
 10
-34.09925883085742
 20
-1.850362712954236
 30
0.0
 10
-33.00417061695497
 20
-2.185325376602037
 30
0.0
 10
-32.04749054937587
 20
-2.36699687971685
 30
0.0
 10
-31.4558211870817
 20
-2.363030149854964
 30
0.0
 10
-31.22921697812972
 20
-2.361510926890645
 30
0.0
  0
SPLINE
  5
29D
330
1F
100
AcDbEntity
  8
0
  6
Continuous
 62
     1
370
    15
100
AcDbSpline
210
0.0
220
0.0
230
1.0
 70
     8
 71
     3
 72
    11
 73
     7
 74
     0
 42
0.000000001
 43
0.00000001
 40
0.0
 40
0.0
 40
0.0
 40
0.0
 40
0.0365447304867148
 40
0.3577016838999088
 40
0.6788529380615957
 40
1.0
 40
1.0
 40
1.0
 40
1.0
 10
-21.00018891589536
 20
1.871875838920147
 30
0.0
 10
-20.957093956675
 20
1.889356262927336
 30
0.0
 10
-20.53527830020632
 20
2.060455543709466
 30
0.0
 10
-19.7347537317953
 20
2.250586847608397
 30
0.0
 10
-18.59861903661271
 20
2.414071410735169
 30
0.0
 10
-17.8412046976762
 20
2.36176657473267
 30
0.0
 10
-17.46249999999554
 20
2.335614327425902
 30
0.0
  0
SPLINE
  5
29E
330
1F
100
AcDbEntity
  8
외형선
  6
Continuous
370
    15
100
AcDbSpline
210
0.0
220
0.0
230
1.0
 70
    24
 71
     3
 72
     8
 73
     4
 74
     0
 42
0.000000001
 43
0.00000001
 40
0.0
 40
0.0
 40
0.0
 40
0.0
 40
1.0
 40
1.0
 40
1.0
 40
1.0
 10
-17.46250000000003
 20
1.957893825738005
 30
0.0
 10
-17.46250000000003
 20
2.084432462759083
 30
0.0
 10
-17.46250000000003
 20
2.211151307255186
 30
0.0
 10
-17.46250000000003
 20
2.335614327414739
 30
0.0
  0
SPLINE
  5
29F
330
1F
100
AcDbEntity
  8
0
  6
Continuous
 62
     1
370
    15
100
AcDbSpline
210
0.0
220
0.0
230
1.0
 70
     8
 71
     3
 72
    13
 73
     9
 74
     0
 42
0.000000001
 43
0.00000001
 40
0.0
 40
0.0
 40
0.0
 40
0.0
 40
0.1772231764667559
 40
0.3544037352706602
 40
0.53154848780254
 40
0.7086643141175226
 40
0.885758149928368
 40
1.0
 40
1.0
 40
1.0
 40
1.0
 10
-42.8625
 20
1.878740204526821
 30
0.0
 10
-42.49712352321455
 20
1.799218736817949
 30
0.0
 10
-41.76645843338581
 20
1.64019492428902
 30
0.0
 10
-40.67062970840094
 20
1.251382946875296
 30
0.0
 10
-39.57505178820661
 20
0.7838506862095972
 30
0.0
 10
-38.47968048382835
 20
0.2604961947824623
 30
0.0
 10
-37.51399790853801
 20
-0.2218854369690246
 30
0.0
 10
-36.91343700451466
 20
-0.5025273587090165
 30
0.0
 10
-36.67793825828829
 20
-0.6125758488214498
 30
0.0
  0
SPLINE
  5
2A0
330
1F
100
AcDbEntity
  8
0
  6
Continuous
 62
     1
370
    15
100
AcDbSpline
210
0.0
220
0.0
230
1.0
 70
     8
 71
     3
 72
     9
 73
     5
 74
     0
 42
0.000000001
 43
0.00000001
 40
0.0
 40
0.0
 40
0.0
 40
0.0
 40
0.3730568172972962
 40
1.0
 40
1.0
 40
1.0
 40
1.0
 10
-19.37288252556686
 20
1.960790044862158
 30
0.0
 10
-19.13532207835873
 20
1.987757787221924
 30
0.0
 10
-18.4985277987925
 20
2.060046353224145
 30
0.0
 10
-17.86173371169266
 20
1.997258341588456
 30
0.0
 10
-17.46250000000003
 20
1.957893825738005
 30
0.0
  0
LINE
  5
2A1
330
1F
100
AcDbEntity
  8
0
  6
Continuous
 62
     1
370
    15
100
AcDbLine
 10
-42.8625
 20
2.259665444858478
 30
0.0
 11
-42.8625
 21
1.878740204526821
 31
0.0
  0
SPLINE
  5
2A2
330
1F
100
AcDbEntity
  8
0
  6
Continuous
 62
     1
370
    15
100
AcDbSpline
210
0.0
220
0.0
230
1.0
 70
     8
 71
     3
 72
    22
 73
    18
 74
     0
 42
0.000000001
 43
0.00000001
 40
0.0
 40
0.0
 40
0.0
 40
0.0
 40
0.0542736446612965
 40
0.12185629275738
 40
0.1894240779388982
 40
0.256979494514824
 40
0.3245250602522969
 40
0.3920633116603424
 40
0.459596799197775
 40
0.5271280824244787
 40
0.5946597251156631
 40
0.6621942903589542
 40
0.7297343356542776
 40
0.7972824080365063
 40
0.8648410392406524
 40
0.932412740929107
 40
1.0
 40
1.0
 40
1.0
 40
1.0
 10
-26.64617398218916
 20
-1.595439944279462
 30
0.0
 10
-26.93957976448507
 20
-1.717275824790206
 30
0.0
 10
-27.59834040470525
 20
-1.99082422598056
 30
0.0
 10
-28.62235235670263
 20
-2.259289429755625
 30
0.0
 10
-29.71810885662568
 20
-2.400953621495247
 30
0.0
 10
-30.81362688803954
 20
-2.370779472014128
 30
0.0
 10
-31.9089527973056
 20
-2.175270102298199
 30
0.0
 10
-33.00413659159027
 20
-1.82699037550411
 30
0.0
 10
-34.09922768468191
 20
-1.350685457551961
 30
0.0
 10
-35.19427590874212
 20
-0.7796623731259157
 30
0.0
 10
-36.28933112808482
 20
-0.153994002732446
 30
0.0
 10
-37.38444317534009
 20
0.4825457993803116
 30
0.0
 10
-38.47966189367803
 20
1.085039909566639
 30
0.0
 10
-39.57503643270774
 20
1.612333312282651
 30
0.0
 10
-40.67061742697711
 20
2.023371729914978
 30
0.0
 10
-41.76644839335062
 20
2.304493043315759
 30
0.0
 10
-42.49712142990528
 20
2.354320705155672
 30
0.0
 10
-42.86249999999998
 20
2.381249999999994
 30
0.0
  0
SPLINE
  5
2A3
330
1F
100
AcDbEntity
  8
0
  6
Continuous
 62
     1
370
    15
100
AcDbSpline
210
0.0
220
0.0
230
1.0
 70
     8
 71
     3
 72
    15
 73
    11
 74
     0
 42
0.000000001
 43
0.00000001
 40
0.0
 40
0.0
 40
0.0
 40
0.0
 40
0.0828111629539414
 40
0.220912964217322
 40
0.3590139662545841
 40
0.4971198725514088
 40
0.6352363769996155
 40
0.7733691527790935
 40
0.9115238413252736
 40
1.0
 40
1.0
 40
1.0
 40
1.0
 10
-36.9459549693609
 20
0.2249873281148925
 30
0.0
 10
-36.72707727588254
 20
0.137427407211604
 30
0.0
 10
-36.14318353085383
 20
-0.0961536823830326
 30
0.0
 10
-35.19428290145816
 20
-0.4800899019098208
 30
0.0
 10
-34.0992335231983
 20
-0.8872151199990693
 30
0.0
 10
-33.00414154058645
 20
-1.23244062026297
 30
0.0
 10
-31.90895707903083
 20
-1.492334658228145
 30
0.0
 10
-30.81362935790127
 20
-1.64298491507153
 30
0.0
 10
-29.84949561728103
 20
-1.689441523731474
 30
0.0
 10
-29.25045434134949
 20
-1.635908699989016
 30
0.0
 10
-29.01659001249947
 20
-1.615009609393787
 30
0.0
  0
SPLINE
  5
2A4
330
1F
100
AcDbEntity
  8
0
  6
Continuous
 62
     1
370
    15
100
AcDbSpline
210
0.0
220
0.0
230
1.0
 70
     8
 71
     3
 72
    19
 73
    15
 74
     0
 42
0.000000001
 43
0.00000001
 40
0.0
 40
0.0
 40
0.0
 40
0.0
 40
0.0900789289283947
 40
0.1801590346769836
 40
0.2702407403810995
 40
0.3603244683939402
 40
0.4504106400808893
 40
0.5372665116720898
 40
0.6241368679390856
 40
0.7110249300195013
 40
0.7979320645764741
 40
0.8848289142285134
 40
0.9717066533471724
 40
0.9999999999999999
 40
0.9999999999999999
 40
0.9999999999999999
 40
0.9999999999999999
 10
-17.46250000000048
 20
-2.372908613302904
 30
0.0
 10
-17.84120011779017
 20
-2.337183486319389
 30
0.0
 10
-18.59860530083011
 20
-2.265732765627781
 30
0.0
 10
-19.73472517589004
 20
-1.939735879942176
 30
0.0
 10
-20.87087144004735
 20
-1.480295620083481
 30
0.0
 10
-22.00703966893371
 20
-0.9057757889024881
 30
0.0
 10
-23.12968420610456
 20
-0.2715103895323094
 30
0.0
 10
-24.23870995577516
 20
0.3743195003685361
 30
0.0
 10
-25.3343651919248
 20
0.986164130782733
 30
0.0
 10
-26.43026520019622
 20
1.528059348650906
 30
0.0
 10
-27.52635304393197
 20
1.965857177695888
 30
0.0
 10
-28.62234998505124
 20
2.25407864287125
 30
0.0
 10
-29.47188196375537
 20
2.388824162398969
 30
0.0
 10
-29.95606112048232
 20
2.367964050189209
 30
0.0
 10
-30.07500632822774
 20
2.362839479364738
 30
0.0
  0
SPLINE
  5
2A5
330
1F
100
AcDbEntity
  8
0
  6
Continuous
 62
     1
370
    15
100
AcDbSpline
210
0.0
220
0.0
230
1.0
 70
     8
 71
     3
 72
    10
 73
     6
 74
     0
 42
0.000000001
 43
0.00000001
 40
0.0
 40
0.0
 40
0.0
 40
0.0
 40
0.3314025198138467
 40
0.6656627806724048
 40
1.0
 40
1.0
 40
1.0
 40
1.0
 10
-39.58414160319693
 20
-1.596337369427985
 30
0.0
 10
-39.94627616901311
 20
-1.740287288275397
 30
0.0
 10
-40.67366804941945
 20
-2.029428430929854
 30
0.0
 10
-41.76644879515845
 20
-2.303169551543625
 30
0.0
 10
-42.49712156385151
 20
-2.353879507379659
 30
0.0
 10
-42.8625
 20
-2.381250000000005
 30
0.0
  0
SPLINE
  5
2A6
330
1F
100
AcDbEntity
  8
0
  6
Continuous
 62
     1
370
    15
100
AcDbSpline
210
0.0
220
0.0
230
1.0
 70
    24
 71
     3
 72
    10
 73
     6
 74
     0
 42
0.000000001
 43
0.00000001
 40
0.0
 40
0.0
 40
0.0
 40
0.0
 40
0.5
 40
0.5
 40
1.0
 40
1.0
 40
1.0
 40
1.0
 10
-42.8625
 20
-1.66687499999999
 30
0.0
 10
-42.8625
 20
-1.767916811522411
 30
0.0
 10
-42.8625
 20
-1.885336753989818
 30
0.0
 10
-42.8625
 20
-2.131683477038031
 30
0.0
 10
-42.8625
 20
-2.259981119002247
 30
0.0
 10
-42.8625
 20
-2.379237403765586
 30
0.0
  0
LINE
  5
2A7
330
1F
100
AcDbEntity
  8
0
  6
Continuous
 62
     1
370
    15
100
AcDbLine
 10
-42.8625
 20
-1.66687499999999
 30
0.0
 11
-41.98970318774575
 21
-1.62031599030302
 31
0.0
  0
SPLINE
  5
2A8
330
1F
100
AcDbEntity
  8
0
  6
Continuous
 62
     1
370
    15
100
AcDbSpline
210
0.0
220
0.0
230
1.0
 70
     8
 71
     3
 72
    13
 73
     9
 74
     0
 42
0.000000001
 43
0.00000001
 40
0.0
 40
0.0
 40
0.0
 40
0.0
 40
0.1294147422207448
 40
0.2972691113724836
 40
0.4651067337380501
 40
0.6329345162927503
 40
0.8164673874387157
 40
0.9999999999999999
 40
0.9999999999999999
 40
0.9999999999999999
 40
0.9999999999999999
 10
-23.98770207717524
 20
0.2254954754299948
 30
0.0
 10
-23.70622142477441
 20
0.1122278344677741
 30
0.0
 10
-23.05965286564517
 20
-0.147950955044976
 30
0.0
 10
-22.04805649216006
 20
-0.5531711006533154
 30
0.0
 10
-20.95290552555905
 20
-0.9521377769730176
 30
0.0
 10
-19.82372325915119
 20
-1.292765222125297
 30
0.0
 10
-18.66015983132313
 20
-1.553108703574601
 30
0.0
 10
-17.86171975628343
 20
-1.620304362136295
 30
0.0
 10
-17.46250000000003
 20
-1.653902167748654
 30
0.0
  0
SPLINE
  5
2A9
330
1F
100
AcDbEntity
  8
외형선
  6
Continuous
370
    15
100
AcDbSpline
210
0.0
220
0.0
230
1.0
 70
    24
 71
     3
 72
    10
 73
     6
 74
     0
 42
0.000000001
 43
0.00000001
 40
0.0
 40
0.0
 40
0.0
 40
0.0
 40
0.4999999999999996
 40
0.4999999999999996
 40
1.0
 40
1.0
 40
1.0
 40
1.0
 10
-17.46250000000003
 20
-2.372908613297347
 30
0.0
 10
-17.46250000000003
 20
-2.258380087500661
 30
0.0
 10
-17.46250000000003
 20
-2.131982215295245
 30
0.0
 10
-17.46250000000003
 20
-1.883173587256785
 30
0.0
 10
-17.46250000000003
 20
-1.761421580024517
 30
0.0
 10
-17.46250000000003
 20
-1.653902167748654
 30
0.0
  0
LINE
  5
2AA
330
1F
100
AcDbEntity
  8
0
  6
Continuous
 62
     1
370
    15
100
AcDbLine
 10
-42.86249999999998
 20
2.381249999999994
 30
0.0
 11
-42.8625
 21
2.259665444858478
 31
0.0
  0
SPLINE
  5
2AB
330
1F
100
AcDbEntity
  8
0
  6
Continuous
 62
     1
370
    15
100
AcDbSpline
210
0.0
220
0.0
230
1.0
 70
     8
 71
     3
 72
     8
 73
     4
 74
     0
 42
0.000000001
 43
0.00000001
 40
0.0
 40
0.0
 40
0.0
 40
0.0
 40
1.0
 40
1.0
 40
1.0
 40
1.0
 10
-41.38843131851547
 20
-0.6667656290396305
 30
0.0
 10
-41.30407539430416
 20
-0.7667237491414479
 30
0.0
 10
-41.22876846147556
 20
-0.8629558787205834
 30
0.0
 10
-41.16465717569906
 20
-0.95457811609765
 30
0.0
  0
LINE
  5
2AC
330
1F
100
AcDbEntity
  8
0
  6
Continuous
 62
     1
370
    15
100
AcDbLine
 10
-41.19478317140749
 20
-0.9798568279854717
 30
0.0
 11
-42.8625
 21
0.0000000000000074
 31
0.0
  0
LINE
  5
2AD
330
1F
100
AcDbEntity
  8
0
  6
Continuous
 62
     1
370
    15
100
AcDbLine
 10
-42.8625
 20
0.0000000000000074
 30
0.0
 11
-42.8625
 21
0.6363722652330995
 31
0.0
  0
SPLINE
  5
2AE
330
1F
100
AcDbEntity
  8
0
  6
Continuous
 62
     1
370
    15
100
AcDbSpline
210
0.0
220
0.0
230
1.0
 70
     8
 71
     3
 72
    10
 73
     6
 74
     0
 42
0.000000001
 43
0.00000001
 40
0.0
 40
0.0
 40
0.0
 40
0.0
 40
0.5
 40
0.5
 40
1.0
 40
1.0
 40
1.0
 40
1.0
 10
-42.8625
 20
0.6363722652330995
 30
0.0
 10
-42.60732507708536
 20
0.4357598858607761
 30
0.0
 10
-42.35641634127841
 20
0.2269170311293254
 30
0.0
 10
-41.86334008684127
 20
-0.207632536098657
 30
0.0
 10
-41.61888005573237
 20
-0.4356364190385446
 30
0.0
 10
-41.38843131851544
 20
-0.6667656290396448
 30
0.0
  0
SPLINE
  5
2AF
330
1F
100
AcDbEntity
  8
외형선
  6
Continuous
370
    15
100
AcDbSpline
210
0.0
220
0.0
230
1.0
 70
    24
 71
     3
 72
    10
 73
     6
 74
     0
 42
0.000000001
 43
0.00000001
 40
0.0
 40
0.0
 40
0.0
 40
0.0
 40
0.5
 40
0.5
 40
1.0
 40
1.0
 40
1.0
 40
1.0
 10
-17.46250000000003
 20
0.2372079363817934
 30
0.0
 10
-17.46250000000003
 20
0.5939136674107249
 30
0.0
 10
-17.46250000000003
 20
0.9486626610632175
 30
0.0
 10
-17.46250000000003
 20
1.55012764374667
 30
0.0
 10
-17.46250000000003
 20
1.794254692362991
 30
0.0
 10
-17.46250000000003
 20
1.957893825738005
 30
0.0
  0
SPLINE
  5
2B0
330
1F
100
AcDbEntity
  8
0
  6
Continuous
 62
     1
370
    15
100
AcDbSpline
210
0.0
220
0.0
230
1.0
 70
     8
 71
     3
 72
    13
 73
     9
 74
     0
 42
0.000000001
 43
0.00000001
 40
0.0
 40
0.0
 40
0.0
 40
0.0
 40
0.1652752494294505
 40
0.3306323281281663
 40
0.5303407056143193
 40
0.7300239412289525
 40
0.9296900124666491
 40
1.0
 40
1.0
 40
1.0
 40
1.0
 10
-41.38843131851785
 20
-0.6667656290386074
 30
0.0
 10
-41.08628141714762
 20
-0.7943382977884422
 30
0.0
 10
-40.48183201726101
 20
-1.049546797669052
 30
0.0
 10
-39.51217337183186
 20
-1.395104210154741
 30
0.0
 10
-38.47967383930932
 20
-1.685494304259364
 30
0.0
 10
-37.38445235534206
 20
-1.865379619023478
 30
0.0
 10
-36.52581452225811
 20
-1.930065420451939
 30
0.0
 10
-36.03224317656196
 20
-1.887941388052354
 30
0.0
 10
-35.90370216696024
 20
-1.876971007173573
 30
0.0
  0
SPLINE
  5
2B1
330
1F
100
AcDbEntity
  8
0
  6
Continuous
 62
     1
370
    15
100
AcDbSpline
210
0.0
220
0.0
230
1.0
 70
     8
 71
     3
 72
    14
 73
    10
 74
     0
 42
0.000000001
 43
0.00000001
 40
0.0
 40
0.0
 40
0.0
 40
0.0
 40
0.0850900743237833
 40
0.2329949655952711
 40
0.3808795885315641
 40
0.5287498420934942
 40
0.6766116531053825
 40
0.8383059375383792
 40
1.0
 40
1.0
 40
1.0
 40
1.0
 10
-24.86889434805067
 20
1.774104105100861
 30
0.0
 10
-24.65882386707195
 20
1.809367451960775
 30
0.0
 10
-24.08360560716107
 20
1.905926097063549
 30
0.0
 10
-23.14331823576315
 20
1.919397827499481
 30
0.0
 10
-22.04806425319799
 20
1.821920703558348
 30
0.0
 10
-20.95291193178965
 20
1.591045435122716
 30
0.0
 10
-19.82375347363426
 20
1.239156850036849
 30
0.0
 10
-18.660162073109
 20
0.7802097248679093
 30
0.0
 10
-17.86172050835489
 20
0.418208449718833
 30
0.0
 10
-17.46250000000003
 20
0.2372079363817934
 30
0.0
  0
SPLINE
  5
2B2
330
1F
100
AcDbEntity
  8
0
  6
Continuous
 62
     1
370
    15
100
AcDbSpline
210
0.0
220
0.0
230
1.0
 70
    24
 71
     3
 72
    10
 73
     6
 74
     0
 42
0.000000001
 43
0.00000001
 40
0.0
 40
0.0
 40
0.0
 40
0.0
 40
0.5
 40
0.5
 40
1.0
 40
1.0
 40
1.0
 40
1.0
 10
-42.8625
 20
1.878740204526821
 30
0.0
 10
-42.8625
 20
1.734720120065319
 30
0.0
 10
-42.8625
 20
1.552745221052284
 30
0.0
 10
-42.8625
 20
1.129671093977564
 30
0.0
 10
-42.8625
 20
0.8889383487659405
 30
0.0
 10
-42.8625
 20
0.6363722652331777
 30
0.0
  0
SPLINE
  5
2B3
330
1F
100
AcDbEntity
  8
0
  6
Continuous
 62
     1
370
    15
100
AcDbSpline
210
0.0
220
0.0
230
1.0
 70
     8
 71
     3
 72
    22
 73
    18
 74
     0
 42
0.000000001
 43
0.00000001
 40
0.0
 40
0.0
 40
0.0
 40
0.0
 40
0.0296206438178595
 40
0.1032264951290072
 40
0.1768289720194764
 40
0.2504310341803673
 40
0.3240356421086826
 40
0.3976457513557834
 40
0.4712643067962028
 40
0.5448942369403479
 40
0.6185384483143171
 40
0.69219981992958
 40
0.7658704194950109
 40
0.8395238920376153
 40
0.9131614666767373
 40
0.9867860351982914
 40
1.0
 40
1.0
 40
1.0
 40
1.0
 10
-37.82512066938596
 20
1.774709360818129
 30
0.0
 10
-37.6782214111119
 20
1.801679277173847
 30
0.0
 10
-37.1662846800292
 20
1.895668116729191
 30
0.0
 10
-36.289341589883
 20
1.922184418955595
 30
0.0
 10
-35.19428581255863
 20
1.849211385376151
 30
0.0
 10
-34.09923796139076
 20
1.638896446679937
 30
0.0
 10
-33.00414697769261
 20
1.315727057188745
 30
0.0
 10
-31.90896338267384
 20
0.8997383640140487
 30
0.0
 10
-30.81363754710838
 20
0.4207901229402896
 30
0.0
 10
-29.71811997596051
 20
-0.0877528995484621
 30
0.0
 10
-28.6223624929986
 20
-0.5901087389126399
 30
0.0
 10
-27.52636726009671
 20
-1.051314085856674
 30
0.0
 10
-26.43029512471457
 20
-1.437889630159638
 30
0.0
 10
-25.33439204108853
 20
-1.726817526786746
 30
0.0
 10
-24.23874628671947
 20
-1.88274603448734
 30
0.0
 10
-23.44286938293924
 20
-1.932210529556911
 30
0.0
 10
-23.01220573730989
 20
-1.889004485414133
 30
0.0
 10
-22.9466729140696
 20
-1.882429948458302
 30
0.0
  0
SPLINE
  5
2B4
330
1F
100
AcDbEntity
  8
0
  6
Continuous
 62
     1
370
    15
100
AcDbSpline
210
0.0
220
0.0
230
1.0
 70
    24
 71
     3
 72
     8
 73
     4
 74
     0
 42
0.000000001
 43
0.00000001
 40
0.0
 40
0.0
 40
0.0
 40
0.0
 40
1.0
 40
1.0
 40
1.0
 40
1.0
 10
-41.41332768727658
 20
-1.163237450647045
 30
0.0
 10
-41.33479014769488
 20
-1.097336630150437
 30
0.0
 10
-41.25140712988962
 20
-1.027369970663564
 30
0.0
 10
-41.16465717569906
 20
-0.9545781160976287
 30
0.0
  0
SPLINE
  5
2B5
330
1F
100
AcDbEntity
  8
외형선
  6
Continuous
370
    15
100
AcDbSpline
210
0.0
220
0.0
230
1.0
 70
    24
 71
     3
 72
    14
 73
    10
 74
     0
 42
0.000000001
 43
0.00000001
 40
0.0
 40
0.0
 40
0.0
 40
0.0
 40
0.25
 40
0.25
 40
0.5
 40
0.5
 40
0.75
 40
0.75
 40
1.0
 40
1.0
 40
1.0
 40
1.0
 10
-17.46250000000003
 20
-1.653902167748654
 30
0.0
 10
-17.46250000000003
 20
-1.583679101826739
 30
0.0
 10
-17.46250000000003
 20
-1.486819487002599
 30
0.0
 10
-17.46250000000003
 20
-1.241543163640635
 30
0.0
 10
-17.46250000000003
 20
-1.093145437822258
 30
0.0
 10
-17.46250000000003
 20
-0.7570406495146781
 30
0.0
 10
-17.46250000000003
 20
-0.5695126777086369
 30
0.0
 10
-17.46250000000003
 20
-0.1751374738983455
 30
0.0
 10
-17.46250000000003
 20
0.0314813579638769
 30
0.0
 10
-17.46250000000003
 20
0.2372079363817934
 30
0.0
  0
SPLINE
  5
2B6
330
1F
100
AcDbEntity
  8
0
  6
Continuous
 62
     1
370
    15
100
AcDbSpline
210
0.0
220
0.0
230
1.0
 70
     8
 71
     3
 72
     8
 73
     4
 74
     0
 42
0.000000001
 43
0.00000001
 40
0.0
 40
0.0
 40
0.0
 40
0.0
 40
1.0
 40
1.0
 40
1.0
 40
1.0
 10
-42.8625
 20
-1.66687499999999
 30
0.0
 10
-42.37277141749205
 20
-1.533916378226919
 30
0.0
 10
-41.88754459560953
 20
-1.370650605134003
 30
0.0
 10
-41.41332768728591
 20
-1.16323745065111
 30
0.0
  0
LINE
  5
2B7
330
1F
100
AcDbEntity
  8
0
  6
Continuous
 62
     1
370
    15
100
AcDbLine
 10
-42.8625
 20
0.0000000000000074
 30
0.0
 11
-42.8625
 21
-1.66687499999999
 31
0.0
  0
LINE
  5
2E8
330
1F
100
AcDbEntity
  8
외형선
  6
Continuous
370
    15
100
AcDbLine
 10
-17.46250000000002
 20
-2.381250000000003
 30
0.0
 11
16.5725884106925
 21
-2.381250000000001
 31
0.0
  0
ENDSEC
  0
SECTION
  2
OBJECTS
  0
DICTIONARY
  5
C
330
0
100
AcDbDictionary
281
     1
  3
ACAD_GROUP
350
D
  3
ACAD_IMAGE_VARS
350
16E
  3
ACAD_LAYOUT
350
1A
  3
ACAD_MLINESTYLE
350
17
  3
ACAD_PLOTSETTINGS
350
19
  3
ACAD_PLOTSTYLENAME
350
E
  3
ACAD_SCALELIST
350
47
  3
APPDATA
350
16C
  3
DWGPROPS
350
2EB
  0
DICTIONARY
  5
195
330
2
100
AcDbDictionary
280
     1
281
     1
  3
ACAD_LAYERSTATES
360
196
  0
DICTIONARY
  5
D
102
{ACAD_REACTORS
330
C
102
}
330
C
100
AcDbDictionary
281
     1
  0
RASTERVARIABLES
  5
16E
102
{ACAD_REACTORS
330
C
102
}
330
C
100
AcDbRasterVariables
 90
        0
 70
     1
 71
     1
 72
     1
  0
DICTIONARY
  5
1A
102
{ACAD_REACTORS
330
C
102
}
330
C
100
AcDbDictionary
281
     1
  3
Layout1
350
1E
  3
Layout2
350
26
  3
Model
350
22
  0
DICTIONARY
  5
17
102
{ACAD_REACTORS
330
C
102
}
330
C
100
AcDbDictionary
281
     1
  3
Standard
350
18
  0
DICTIONARY
  5
19
102
{ACAD_REACTORS
330
C
102
}
330
C
100
AcDbDictionary
281
     1
  0
ACDBDICTIONARYWDFLT
  5
E
102
{ACAD_REACTORS
330
C
102
}
330
C
100
AcDbDictionary
281
     1
  3
Normal
350
F
100
AcDbDictionaryWithDefault
340
F
  0
DICTIONARY
  5
47
102
{ACAD_REACTORS
330
C
102
}
330
C
100
AcDbDictionary
281
     1
  3
A0
350
48
  3
A1
350
49
  3
A2
350
4A
  3
A3
350
4B
  3
A4
350
4C
  3
A5
350
4D
  3
A6
350
4E
  3
A7
350
4F
  3
A8
350
50
  3
A9
350
51
  3
B0
350
52
  3
B1
350
53
  3
B2
350
54
  3
B3
350
55
  3
B4
350
56
  3
B5
350
57
  3
B6
350
58
  3
B7
350
59
  3
B8
350
5A
  3
B9
350
5B
  3
C0
350
5C
  3
C1
350
5D
  3
C2
350
5E
  3
C3
350
5F
  3
C4
350
60
  3
C5
350
61
  3
C6
350
62
  3
C7
350
63
  3
C8
350
64
  3
C9
350
65
  3
D0
350
66
  3
D1
350
67
  3
D2
350
68
  0
DICTIONARY
  5
16C
102
{ACAD_REACTORS
330
C
102
}
330
C
100
AcDbDictionary
281
     1
  0
XRECORD
  5
2EB
102
{ACAD_REACTORS
330
C
102
}
330
C
100
AcDbXrecord
280
     1
  1
DWGPROPS COOKIE
  2

  3

  4

  6

  7

  8
12017012
  9

300
=
301
=
302
=
303
=
304
=
305
=
306
=
307
=
308
=
309
=
 40
0.0
 41
2458313.038518715
 42
2458319.97649434
  1

 90
        0
  0
DICTIONARY
  5
196
102
{ACAD_REACTORS
330
195
102
}
330
195
100
AcDbDictionary
281
     1
  0
LAYOUT
  5
1E
102
{ACAD_REACTORS
330
1A
102
}
330
1A
100
AcDbPlotSettings
  1

  2
none_device
  4

  6

 40
0.0
 41
0.0
 42
0.0
 43
0.0
 44
0.0
 45
0.0
 46
0.0
 47
0.0
 48
0.0
 49
0.0
140
0.0
141
0.0
142
1.0
143
1.0
 70
   688
 72
     1
 73
     0
 74
     5
  7

 75
    16
147
1.0
148
0.0
149
0.0
100
AcDbLayout
  1
Layout1
 70
     1
 71
     1
 10
0.0
 20
0.0
 11
420.0
 21
297.0
 12
0.0
 22
0.0
 32
0.0
 14
1.000000000000000E+20
 24
1.000000000000000E+20
 34
1.000000000000000E+20
 15
-1.000000000000000E+20
 25
-1.000000000000000E+20
 35
-1.000000000000000E+20
146
0.0
 13
0.0
 23
0.0
 33
0.0
 16
1.0
 26
0.0
 36
0.0
 17
0.0
 27
1.0
 37
0.0
 76
     0
330
1B
  0
LAYOUT
  5
26
102
{ACAD_REACTORS
330
1A
102
}
330
1A
100
AcDbPlotSettings
  1

  2
none_device
  4

  6

 40
0.0
 41
0.0
 42
0.0
 43
0.0
 44
0.0
 45
0.0
 46
0.0
 47
0.0
 48
0.0
 49
0.0
140
0.0
141
0.0
142
1.0
143
1.0
 70
   688
 72
     1
 73
     0
 74
     5
  7

 75
    16
147
1.0
148
0.0
149
0.0
100
AcDbLayout
  1
Layout2
 70
     1
 71
     2
 10
0.0
 20
0.0
 11
0.0
 21
0.0
 12
0.0
 22
0.0
 32
0.0
 14
0.0
 24
0.0
 34
0.0
 15
0.0
 25
0.0
 35
0.0
146
0.0
 13
0.0
 23
0.0
 33
0.0
 16
1.0
 26
0.0
 36
0.0
 17
0.0
 27
1.0
 37
0.0
 76
     0
330
23
  0
LAYOUT
  5
22
102
{ACAD_REACTORS
330
1A
102
}
330
1A
100
AcDbPlotSettings
  1

  2
none_device
  4
ANSI_A_(11.00_x_8.50_Inches)
  6

 40
6.35
 41
19.05
 42
6.35000508
 43
19.05000254
 44
279.4
 45
215.9
 46
51.54789108404093
 47
82.37889149470598
 48
0.0
 49
0.0
140
0.0
141
0.0
142
0.0301774719509659
143
1.0
 70
  1696
 72
     0
 73
     0
 74
     0
  7

 75
     0
147
0.0235690232323232
148
0.0
149
0.0
100
AcDbLayout
  1
Model
 70
     1
 71
     0
 10
0.0
 20
0.0
 11
420.0
 21
297.0
 12
0.0
 22
0.0
 32
0.0
 14
1.000000000000000E+20
 24
1.000000000000000E+20
 34
1.000000000000000E+20
 15
-1.000000000000000E+20
 25
-1.000000000000000E+20
 35
-1.000000000000000E+20
146
0.0
 13
0.0
 23
0.0
 33
0.0
 16
1.0
 26
0.0
 36
0.0
 17
0.0
 27
1.0
 37
0.0
 76
     0
330
1F
331
29
  0
MLINESTYLE
  5
18
102
{ACAD_REACTORS
330
17
102
}
330
17
100
AcDbMlineStyle
  2
Standard
 70
     0
  3

 62
   256
 51
90.0
 52
90.0
 71
     2
 49
0.5
 62
   256
  6
BYLAYER
 49
-0.5
 62
   256
  6
BYLAYER
  0
ACDBPLACEHOLDER
  5
F
102
{ACAD_REACTORS
330
E
102
}
330
E
  0
SCALE
  5
48
102
{ACAD_REACTORS
330
47
102
}
330
47
100
AcDbScale
 70
     0
300
1:1
140
1.0
141
1.0
290
     1
  0
SCALE
  5
49
102
{ACAD_REACTORS
330
47
102
}
330
47
100
AcDbScale
 70
     0
300
1:2
140
1.0
141
2.0
290
     0
  0
SCALE
  5
4A
102
{ACAD_REACTORS
330
47
102
}
330
47
100
AcDbScale
 70
     0
300
1:4
140
1.0
141
4.0
290
     0
  0
SCALE
  5
4B
102
{ACAD_REACTORS
330
47
102
}
330
47
100
AcDbScale
 70
     0
300
1:5
140
1.0
141
5.0
290
     0
  0
SCALE
  5
4C
102
{ACAD_REACTORS
330
47
102
}
330
47
100
AcDbScale
 70
     0
300
1:8
140
1.0
141
8.0
290
     0
  0
SCALE
  5
4D
102
{ACAD_REACTORS
330
47
102
}
330
47
100
AcDbScale
 70
     0
300
1:10
140
1.0
141
10.0
290
     0
  0
SCALE
  5
4E
102
{ACAD_REACTORS
330
47
102
}
330
47
100
AcDbScale
 70
     0
300
1:16
140
1.0
141
16.0
290
     0
  0
SCALE
  5
4F
102
{ACAD_REACTORS
330
47
102
}
330
47
100
AcDbScale
 70
     0
300
1:20
140
1.0
141
20.0
290
     0
  0
SCALE
  5
50
102
{ACAD_REACTORS
330
47
102
}
330
47
100
AcDbScale
 70
     0
300
1:30
140
1.0
141
30.0
290
     0
  0
SCALE
  5
51
102
{ACAD_REACTORS
330
47
102
}
330
47
100
AcDbScale
 70
     0
300
1:40
140
1.0
141
40.0
290
     0
  0
SCALE
  5
52
102
{ACAD_REACTORS
330
47
102
}
330
47
100
AcDbScale
 70
     0
300
1:50
140
1.0
141
50.0
290
     0
  0
SCALE
  5
53
102
{ACAD_REACTORS
330
47
102
}
330
47
100
AcDbScale
 70
     0
300
1:100
140
1.0
141
100.0
290
     0
  0
SCALE
  5
54
102
{ACAD_REACTORS
330
47
102
}
330
47
100
AcDbScale
 70
     0
300
2:1
140
2.0
141
1.0
290
     0
  0
SCALE
  5
55
102
{ACAD_REACTORS
330
47
102
}
330
47
100
AcDbScale
 70
     0
300
4:1
140
4.0
141
1.0
290
     0
  0
SCALE
  5
56
102
{ACAD_REACTORS
330
47
102
}
330
47
100
AcDbScale
 70
     0
300
8:1
140
8.0
141
1.0
290
     0
  0
SCALE
  5
57
102
{ACAD_REACTORS
330
47
102
}
330
47
100
AcDbScale
 70
     0
300
10:1
140
10.0
141
1.0
290
     0
  0
SCALE
  5
58
102
{ACAD_REACTORS
330
47
102
}
330
47
100
AcDbScale
 70
     0
300
100:1
140
100.0
141
1.0
290
     0
  0
SCALE
  5
59
102
{ACAD_REACTORS
330
47
102
}
330
47
100
AcDbScale
 70
     0
300
1/128" = 1'-0"
140
0.0078125
141
12.0
290
     0
  0
SCALE
  5
5A
102
{ACAD_REACTORS
330
47
102
}
330
47
100
AcDbScale
 70
     0
300
1/64" = 1'-0"
140
0.015625
141
12.0
290
     0
  0
SCALE
  5
5B
102
{ACAD_REACTORS
330
47
102
}
330
47
100
AcDbScale
 70
     0
300
1/32" = 1'-0"
140
0.03125
141
12.0
290
     0
  0
SCALE
  5
5C
102
{ACAD_REACTORS
330
47
102
}
330
47
100
AcDbScale
 70
     0
300
1/16" = 1'-0"
140
0.0625
141
12.0
290
     0
  0
SCALE
  5
5D
102
{ACAD_REACTORS
330
47
102
}
330
47
100
AcDbScale
 70
     0
300
3/32" = 1'-0"
140
0.09375
141
12.0
290
     0
  0
SCALE
  5
5E
102
{ACAD_REACTORS
330
47
102
}
330
47
100
AcDbScale
 70
     0
300
1/8" = 1'-0"
140
0.125
141
12.0
290
     0
  0
SCALE
  5
5F
102
{ACAD_REACTORS
330
47
102
}
330
47
100
AcDbScale
 70
     0
300
3/16" = 1'-0"
140
0.1875
141
12.0
290
     0
  0
SCALE
  5
60
102
{ACAD_REACTORS
330
47
102
}
330
47
100
AcDbScale
 70
     0
300
1/4" = 1'-0"
140
0.25
141
12.0
290
     0
  0
SCALE
  5
61
102
{ACAD_REACTORS
330
47
102
}
330
47
100
AcDbScale
 70
     0
300
3/8" = 1'-0"
140
0.375
141
12.0
290
     0
  0
SCALE
  5
62
102
{ACAD_REACTORS
330
47
102
}
330
47
100
AcDbScale
 70
     0
300
1/2" = 1'-0"
140
0.5
141
12.0
290
     0
  0
SCALE
  5
63
102
{ACAD_REACTORS
330
47
102
}
330
47
100
AcDbScale
 70
     0
300
3/4" = 1'-0"
140
0.75
141
12.0
290
     0
  0
SCALE
  5
64
102
{ACAD_REACTORS
330
47
102
}
330
47
100
AcDbScale
 70
     0
300
1" = 1'-0"
140
1.0
141
12.0
290
     0
  0
SCALE
  5
65
102
{ACAD_REACTORS
330
47
102
}
330
47
100
AcDbScale
 70
     0
300
1-1/2" = 1'-0"
140
1.5
141
12.0
290
     0
  0
SCALE
  5
66
102
{ACAD_REACTORS
330
47
102
}
330
47
100
AcDbScale
 70
     0
300
3" = 1'-0"
140
3.0
141
12.0
290
     0
  0
SCALE
  5
67
102
{ACAD_REACTORS
330
47
102
}
330
47
100
AcDbScale
 70
     0
300
6" = 1'-0"
140
6.0
141
12.0
290
     0
  0
SCALE
  5
68
102
{ACAD_REACTORS
330
47
102
}
330
47
100
AcDbScale
 70
     0
300
1'-0" = 1'-0"
140
12.0
141
12.0
290
     0
  0
ENDSEC
  0
EOF
