  0
SECTION
  2
HEADER
  9
$ACADVER
  1
AC1015
  9
$ACADMAINTVER
 70
     6
  9
$DWGCODEPAGE
  3
ANSI_949
  9
$INSBASE
 10
0.0
 20
0.0
 30
0.0
  9
$EXTMIN
 10
1.000000000000000E+20
 20
1.000000000000000E+20
 30
1.000000000000000E+20
  9
$EXTMAX
 10
-1.000000000000000E+20
 20
-1.000000000000000E+20
 30
-1.000000000000000E+20
  9
$LIMMIN
 10
0.0
 20
0.0
  9
$LIMMAX
 10
420.0
 20
297.0
  9
$ORTHOMODE
 70
     1
  9
$REGENMODE
 70
     1
  9
$FILLMODE
 70
     1
  9
$QTEXTMODE
 70
     0
  9
$MIRRTEXT
 70
     1
  9
$LTSCALE
 40
1.0
  9
$ATTMODE
 70
     1
  9
$TEXTSIZE
 40
3.5
  9
$TRACEWID
 40
1.0
  9
$TEXTSTYLE
  7
Standard
  9
$CLAYER
  8
0
  9
$CELTYPE
  6
ByLayer
  9
$CECOLOR
 62
   256
  9
$CELTSCALE
 40
1.0
  9
$DISPSILH
 70
     0
  9
$DIMSCALE
 40
1.0
  9
$DIMASZ
 40
3.302
  9
$DIMEXO
 40
1.0
  9
$DIMDLI
 40
3.75
  9
$DIMRND
 40
0.0
  9
$DIMDLE
 40
0.0
  9
$DIMEXE
 40
1.0
  9
$DIMTP
 40
0.0
  9
$DIMTM
 40
0.0
  9
$DIMTXT
 40
3.5
  9
$DIMCEN
 40
2.5
  9
$DIMTSZ
 40
0.0
  9
$DIMTOL
 70
     0
  9
$DIMLIM
 70
     0
  9
$DIMTIH
 70
     1
  9
$DIMTOH
 70
     1
  9
$DIMSE1
 70
     0
  9
$DIMSE2
 70
     0
  9
$DIMTAD
 70
     1
  9
$DIMZIN
 70
     0
  9
$DIMBLK
  1

  9
$DIMASO
 70
     1
  9
$DIMSHO
 70
     1
  9
$DIMPOST
  1

  9
$DIMAPOST
  1

  9
$DIMALT
 70
     0
  9
$DIMALTD
 70
     3
  9
$DIMALTF
 40
0.0393700787401575
  9
$DIMLFAC
 40
1.0
  9
$DIMTOFL
 70
     1
  9
$DIMTVP
 40
0.0
  9
$DIMTIX
 70
     0
  9
$DIMSOXD
 70
     0
  9
$DIMSAH
 70
     0
  9
$DIMBLK1
  1

  9
$DIMBLK2
  1

  9
$DIMSTYLE
  2
ISO-25
  9
$DIMCLRD
 70
     0
  9
$DIMCLRE
 70
     0
  9
$DIMCLRT
 70
     0
  9
$DIMTFAC
 40
1.0
  9
$DIMGAP
 40
1.524
  9
$DIMJUST
 70
     0
  9
$DIMSD1
 70
     0
  9
$DIMSD2
 70
     0
  9
$DIMTOLJ
 70
     0
  9
$DIMTZIN
 70
     0
  9
$DIMALTZ
 70
     0
  9
$DIMALTTZ
 70
     0
  9
$DIMUPT
 70
     0
  9
$DIMDEC
 70
     2
  9
$DIMTDEC
 70
     2
  9
$DIMALTU
 70
     2
  9
$DIMALTTD
 70
     3
  9
$DIMTXSTY
  7
Standard
  9
$DIMAUNIT
 70
     0
  9
$DIMADEC
 70
     2
  9
$DIMALTRND
 40
0.0
  9
$DIMAZIN
 70
     0
  9
$DIMDSEP
 70
    44
  9
$DIMATFIT
 70
     3
  9
$DIMFRAC
 70
     0
  9
$DIMLDRBLK
  1

  9
$DIMLUNIT
 70
     2
  9
$DIMLWD
 70
    -2
  9
$DIMLWE
 70
    -2
  9
$DIMTMOVE
 70
     0
  9
$LUNITS
 70
     2
  9
$LUPREC
 70
     2
  9
$SKETCHINC
 40
1.0
  9
$FILLETRAD
 40
10.0
  9
$AUNITS
 70
     0
  9
$AUPREC
 70
     2
  9
$MENU
  1
.
  9
$ELEVATION
 40
0.0
  9
$PELEVATION
 40
0.0
  9
$THICKNESS
 40
0.0
  9
$LIMCHECK
 70
     0
  9
$CHAMFERA
 40
0.0
  9
$CHAMFERB
 40
0.0
  9
$CHAMFERC
 40
0.0
  9
$CHAMFERD
 40
0.0
  9
$SKPOLY
 70
     0
  9
$TDCREATE
 40
2458313.413306921
  9
$TDUCREATE
 40
2458313.038306921
  9
$TDUPDATE
 40
2458320.3534086
  9
$TDUUPDATE
 40
2458319.9784086
  9
$TDINDWG
 40
0.0014312963
  9
$TDUSRTIMER
 40
2458319.976499664
  9
$USRTIMER
 70
     1
  9
$ANGBASE
 50
0.0
  9
$ANGDIR
 70
     0
  9
$PDMODE
 70
     0
  9
$PDSIZE
 40
-1.0
  9
$PLINEWID
 40
0.0
  9
$SPLFRAME
 70
     0
  9
$SPLINETYPE
 70
     6
  9
$SPLINESEGS
 70
     8
  9
$HANDSEED
  5
4D2
  9
$SURFTAB1
 70
     6
  9
$SURFTAB2
 70
     6
  9
$SURFTYPE
 70
     6
  9
$SURFU
 70
     6
  9
$SURFV
 70
     6
  9
$UCSBASE
  2

  9
$UCSNAME
  2

  9
$UCSORG
 10
0.0
 20
0.0
 30
0.0
  9
$UCSXDIR
 10
1.0
 20
0.0
 30
0.0
  9
$UCSYDIR
 10
0.0
 20
1.0
 30
0.0
  9
$UCSORTHOREF
  2

  9
$UCSORTHOVIEW
 70
     0
  9
$UCSORGTOP
 10
0.0
 20
0.0
 30
0.0
  9
$UCSORGBOTTOM
 10
0.0
 20
0.0
 30
0.0
  9
$UCSORGLEFT
 10
0.0
 20
0.0
 30
0.0
  9
$UCSORGRIGHT
 10
0.0
 20
0.0
 30
0.0
  9
$UCSORGFRONT
 10
0.0
 20
0.0
 30
0.0
  9
$UCSORGBACK
 10
0.0
 20
0.0
 30
0.0
  9
$PUCSBASE
  2

  9
$PUCSNAME
  2

  9
$PUCSORG
 10
0.0
 20
0.0
 30
0.0
  9
$PUCSXDIR
 10
1.0
 20
0.0
 30
0.0
  9
$PUCSYDIR
 10
0.0
 20
1.0
 30
0.0
  9
$PUCSORTHOREF
  2

  9
$PUCSORTHOVIEW
 70
     0
  9
$PUCSORGTOP
 10
0.0
 20
0.0
 30
0.0
  9
$PUCSORGBOTTOM
 10
0.0
 20
0.0
 30
0.0
  9
$PUCSORGLEFT
 10
0.0
 20
0.0
 30
0.0
  9
$PUCSORGRIGHT
 10
0.0
 20
0.0
 30
0.0
  9
$PUCSORGFRONT
 10
0.0
 20
0.0
 30
0.0
  9
$PUCSORGBACK
 10
0.0
 20
0.0
 30
0.0
  9
$USERI1
 70
     0
  9
$USERI2
 70
     0
  9
$USERI3
 70
     0
  9
$USERI4
 70
     0
  9
$USERI5
 70
     0
  9
$USERR1
 40
0.0
  9
$USERR2
 40
0.0
  9
$USERR3
 40
0.0
  9
$USERR4
 40
0.0
  9
$USERR5
 40
0.0
  9
$WORLDVIEW
 70
     1
  9
$SHADEDGE
 70
     3
  9
$SHADEDIF
 70
    70
  9
$TILEMODE
 70
     1
  9
$MAXACTVP
 70
    64
  9
$PINSBASE
 10
0.0
 20
0.0
 30
0.0
  9
$PLIMCHECK
 70
     0
  9
$PEXTMIN
 10
1.000000000000000E+20
 20
1.000000000000000E+20
 30
1.000000000000000E+20
  9
$PEXTMAX
 10
-1.000000000000000E+20
 20
-1.000000000000000E+20
 30
-1.000000000000000E+20
  9
$PLIMMIN
 10
0.0
 20
0.0
  9
$PLIMMAX
 10
0.0
 20
0.0
  9
$UNITMODE
 70
     0
  9
$VISRETAIN
 70
     1
  9
$PLINEGEN
 70
     0
  9
$PSLTSCALE
 70
     1
  9
$TREEDEPTH
 70
  3020
  9
$CMLSTYLE
  2
Standard
  9
$CMLJUST
 70
     0
  9
$CMLSCALE
 40
20.0
  9
$PROXYGRAPHICS
 70
     1
  9
$MEASUREMENT
 70
     1
  9
$CELWEIGHT
370
    -1
  9
$ENDCAPS
280
     0
  9
$JOINSTYLE
280
     0
  9
$LWDISPLAY
290
     1
  9
$INSUNITS
 70
     4
  9
$HYPERLINKBASE
  1

  9
$STYLESHEET
  1

  9
$XEDIT
290
     1
  9
$CEPSNTYPE
380
     0
  9
$PSTYLEMODE
290
     1
  9
$FINGERPRINTGUID
  2
{4E8B47CE-948A-4105-B966-03E6516039D6}
  9
$VERSIONGUID
  2
{FAEB1C32-E019-11D5-929B-00C0DF256EC4}
  9
$EXTNAMES
290
     1
  9
$PSVPSCALE
 40
0.0
  9
$OLESTARTUP
290
     0
  0
ENDSEC
  0
SECTION
  2
CLASSES
  0
CLASS
  1
ACDBDICTIONARYWDFLT
  2
AcDbDictionaryWithDefault
  3
ObjectDBX Classes
 90
        0
280
     0
281
     0
  0
CLASS
  1
VISUALSTYLE
  2
AcDbVisualStyle
  3
ObjectDBX Classes
 90
     4095
280
     0
281
     0
  0
CLASS
  1
MATERIAL
  2
AcDbMaterial
  3
ObjectDBX Classes
 90
     1153
280
     0
281
     0
  0
CLASS
  1
SCALE
  2
AcDbScale
  3
ObjectDBX Classes
 90
     1153
280
     0
281
     0
  0
CLASS
  1
SUN
  2
AcDbSun
  3
SCENEOE
 90
     1153
280
     0
281
     0
  0
CLASS
  1
ACDBPLACEHOLDER
  2
AcDbPlaceHolder
  3
ObjectDBX Classes
 90
        0
280
     0
281
     0
  0
CLASS
  1
LAYOUT
  2
AcDbLayout
  3
ObjectDBX Classes
 90
        0
280
     0
281
     0
  0
CLASS
  1
TABLESTYLE
  2
AcDbTableStyle
  3
ObjectDBX Classes
 90
     4095
280
     0
281
     0
  0
CLASS
  1
MLEADERSTYLE
  2
AcDbMLeaderStyle
  3
ACDB_MLEADERSTYLE_CLASS
 90
     4095
280
     0
281
     0
  0
CLASS
  1
RASTERVARIABLES
  2
AcDbRasterVariables
  3
ISM
 90
        0
280
     0
281
     0
  0
ENDSEC
  0
SECTION
  2
TABLES
  0
TABLE
  2
VPORT
  5
8
330
0
100
AcDbSymbolTable
 70
     1
  0
VPORT
  5
29
330
8
100
AcDbSymbolTableRecord
100
AcDbViewportTableRecord
  2
*Active
 70
     0
 10
0.0
 20
0.0
 11
1.0
 21
1.0
 12
10.55928644559776
 22
-5.122852982936532
 13
0.0
 23
0.0
 14
10.0
 24
10.0
 15
10.0
 25
10.0
 16
0.0
 26
0.0
 36
1.0
 17
0.0
 27
0.0
 37
0.0
 40
130.8987643913967
 41
1.632093933463796
 42
50.0
 43
0.0
 44
0.0
 50
0.0
 51
0.0
 71
    16
 72
  2000
 73
     1
 74
     3
 75
     0
 76
     0
 77
     0
 78
     0
281
     0
 65
     1
110
0.0
120
0.0
130
0.0
111
1.0
121
0.0
131
0.0
112
0.0
122
1.0
132
0.0
 79
     0
146
0.0
  0
ENDTAB
  0
TABLE
  2
LTYPE
  5
5
330
0
100
AcDbSymbolTable
 70
     6
  0
LTYPE
  5
14
330
5
100
AcDbSymbolTableRecord
100
AcDbLinetypeTableRecord
  2
ByBlock
 70
     0
  3

 72
    65
 73
     0
 40
0.0
  0
LTYPE
  5
15
330
5
100
AcDbSymbolTableRecord
100
AcDbLinetypeTableRecord
  2
ByLayer
 70
     0
  3

 72
    65
 73
     0
 40
0.0
  0
LTYPE
  5
16
330
5
100
AcDbSymbolTableRecord
100
AcDbLinetypeTableRecord
  2
Continuous
 70
     0
  3
Solid line
 72
    65
 73
     0
 40
0.0
  0
LTYPE
  5
6A
330
5
100
AcDbSymbolTableRecord
100
AcDbLinetypeTableRecord
  2
HIDDEN
 70
     0
  3
Hidden __ __ __ __ __ __ __ __ __ __ __ __ __ __
 72
    65
 73
     2
 40
1.905
 49
1.27
 74
     0
 49
-0.635
 74
     0
  0
LTYPE
  5
6B
330
5
100
AcDbSymbolTableRecord
100
AcDbLinetypeTableRecord
  2
PHANTOM
 70
     0
  3
Phantom ______  __  __  ______  __  __  ______
 72
    65
 73
     6
 40
12.7
 49
6.35
 74
     0
 49
-1.27
 74
     0
 49
1.27
 74
     0
 49
-1.27
 74
     0
 49
1.27
 74
     0
 49
-1.27
 74
     0
  0
LTYPE
  5
6C
330
5
100
AcDbSymbolTableRecord
100
AcDbLinetypeTableRecord
  2
CENTER
 70
     0
  3
Center ____ _ ____ _ ____ _ ____ _ ____ _ ____
 72
    65
 73
     4
 40
10.16
 49
6.35
 74
     0
 49
-1.27
 74
     0
 49
1.27
 74
     0
 49
-1.27
 74
     0
  0
LTYPE
  5
6D
330
5
100
AcDbSymbolTableRecord
100
AcDbLinetypeTableRecord
  2
CENTERX2
 70
     0
  3
Center (2x) ________  __  ________  __  _____
 72
    65
 73
     4
 40
20.32
 49
12.7
 74
     0
 49
-2.54
 74
     0
 49
2.54
 74
     0
 49
-2.54
 74
     0
  0
LTYPE
  5
6E
330
5
100
AcDbSymbolTableRecord
100
AcDbLinetypeTableRecord
  2
DOT2
 70
     0
  3
Dot (.5x) ........................................
 72
    65
 73
     2
 40
0.635
 49
0.0
 74
     0
 49
-0.635
 74
     0
  0
ENDTAB
  0
TABLE
  2
LAYER
  5
2
102
{ACAD_XDICTIONARY
360
280
102
}
330
0
100
AcDbSymbolTable
 70
    18
  0
LAYER
  5
10
330
2
100
AcDbSymbolTableRecord
100
AcDbLayerTableRecord
  2
0
 70
     0
 62
     7
  6
Continuous
370
    -3
390
F
  0
LAYER
  5
6F
330
2
100
AcDbSymbolTableRecord
100
AcDbLayerTableRecord
  2
FORMAT
 70
     0
 62
     2
  6
Continuous
370
    -3
390
F
  0
LAYER
  5
70
330
2
100
AcDbSymbolTableRecord
100
AcDbLayerTableRecord
  2
외형선
 70
     0
 62
     4
  6
Continuous
370
    30
390
F
  0
LAYER
  5
71
330
2
100
AcDbSymbolTableRecord
100
AcDbLayerTableRecord
  2
숨은선
 70
     0
 62
     2
  6
HIDDEN
370
    15
390
F
  0
LAYER
  5
72
330
2
100
AcDbSymbolTableRecord
100
AcDbLayerTableRecord
  2
중심선
 70
     0
 62
     1
  6
CENTERX2
370
    -3
390
F
  0
LAYER
  5
73
330
2
100
AcDbSymbolTableRecord
100
AcDbLayerTableRecord
  2
파단선
 70
     0
 62
     4
  6
Continuous
370
    -3
390
F
  0
LAYER
  5
74
330
2
100
AcDbSymbolTableRecord
100
AcDbLayerTableRecord
  2
해칭선
 70
     0
 62
   100
  6
Continuous
370
    -3
390
F
  0
LAYER
  5
75
330
2
100
AcDbSymbolTableRecord
100
AcDbLayerTableRecord
  2
가는실선
 70
     0
 62
     4
  6
Continuous
370
    -3
390
F
  0
LAYER
  5
76
330
2
100
AcDbSymbolTableRecord
100
AcDbLayerTableRecord
  2
치수_보조선
 70
     0
 62
     4
  6
Continuous
370
    -3
390
F
  0
LAYER
  5
77
330
2
100
AcDbSymbolTableRecord
100
AcDbLayerTableRecord
  2
치수문자_일반주서
 70
     0
 62
     7
  6
Continuous
370
    15
390
F
  0
LAYER
  5
78
330
2
100
AcDbSymbolTableRecord
100
AcDbLayerTableRecord
  2
개별주서
 70
     0
 62
   100
  6
Continuous
370
    30
390
F
  0
LAYER
  5
79
330
2
100
AcDbSymbolTableRecord
100
AcDbLayerTableRecord
  2
중간선
 70
     0
 62
     2
  6
Continuous
370
    15
390
F
  0
LAYER
  5
7A
330
2
100
AcDbSymbolTableRecord
100
AcDbLayerTableRecord
  2
윤곽선
 70
     0
 62
     3
  6
Continuous
370
    40
390
F
  0
LAYER
  5
7B
330
2
100
AcDbSymbolTableRecord
100
AcDbLayerTableRecord
  2
중심마크
 70
     0
 62
   100
  6
Continuous
370
    30
390
F
  0
LAYER
  5
7C
330
2
100
AcDbSymbolTableRecord
100
AcDbLayerTableRecord
  2
가상선
 70
     0
 62
     4
  6
PHANTOM
370
    -3
390
F
  0
LAYER
  5
7D
330
2
100
AcDbSymbolTableRecord
100
AcDbLayerTableRecord
  2
특수지정선
 70
     0
 62
     5
  6
CENTERX2
370
    60
390
F
  0
LAYER
  5
7E
330
2
100
AcDbSymbolTableRecord
100
AcDbLayerTableRecord
  2
참조1
 70
     0
 62
    -4
  6
Continuous
370
    -3
390
F
  0
LAYER
  5
16C
330
2
100
AcDbSymbolTableRecord
100
AcDbLayerTableRecord
  2
Defpoints
 70
     0
 62
     7
  6
Continuous
290
     0
370
    -3
390
F
  0
ENDTAB
  0
TABLE
  2
STYLE
  5
3
330
0
100
AcDbSymbolTable
 70
     2
  0
STYLE
  5
11
330
3
100
AcDbSymbolTableRecord
100
AcDbTextStyleTableRecord
  2
Standard
 70
     0
 40
0.0
 41
1.0
 50
0.0
 71
     0
 42
3.5
  3
txt
  4

  0
STYLE
  5
94
330
3
100
AcDbSymbolTableRecord
100
AcDbTextStyleTableRecord
  2
SLDTEXTSTYLE0
 70
     0
 40
0.0
 41
0.75
 50
0.0
 71
     0
 42
3.5
  3
TXT
  4

  0
ENDTAB
  0
TABLE
  2
VIEW
  5
6
330
0
100
AcDbSymbolTable
 70
     0
  0
ENDTAB
  0
TABLE
  2
UCS
  5
7
330
0
100
AcDbSymbolTable
 70
     0
  0
ENDTAB
  0
TABLE
  2
APPID
  5
9
330
0
100
AcDbSymbolTable
 70
     1
  0
APPID
  5
12
330
9
100
AcDbSymbolTableRecord
100
AcDbRegAppTableRecord
  2
ACAD
 70
     0
  0
ENDTAB
  0
TABLE
  2
DIMSTYLE
  5
A
330
0
100
AcDbSymbolTable
 70
     3
100
AcDbDimStyleTable
  0
DIMSTYLE
105
27
330
A
100
AcDbSymbolTableRecord
100
AcDbDimStyleTableRecord
  2
ISO-25
 70
     0
 41
2.5
 42
0.625
 43
3.75
 44
1.25
 73
     0
 74
     0
 77
     1
 78
     8
140
2.5
141
2.5
143
0.03937007874016
147
0.625
171
     3
172
     1
178
     0
271
     2
272
     2
274
     3
278
    44
283
     0
284
     8
340
11
  0
DIMSTYLE
105
E9
102
{ACAD_REACTORS
330
E8
330
FD
330
1F9
330
206
330
216
330
226
330
111
330
126
330
3FD
330
40D
330
41D
102
}
330
A
100
AcDbSymbolTableRecord
100
AcDbDimStyleTableRecord
  2
SLDDIMSTYLE0
 70
     0
 41
3.302
 44
0.0
 45
0.000000001
 73
     0
 74
     0
 77
     1
 78
    12
 79
     3
140
3.5
143
0.0393700787401575
147
0.875
148
0.000000001
170
     1
172
     1
173
     1
178
     0
271
     2
272
     2
276
     2
284
    12
289
     0
340
94
  0
DIMSTYLE
105
112
330
A
100
AcDbSymbolTableRecord
100
AcDbDimStyleTableRecord
  2
SLDDIMSTYLE1
 70
     0
 41
3.302
 44
0.0
 45
0.000000001
 73
     0
 74
     0
 77
     1
 78
    12
 79
     3
140
3.5
143
0.0393700787401575
147
0.875
148
0.000000001
170
     1
173
     1
178
     0
271
     2
272
     2
276
     2
284
    12
340
94
  0
ENDTAB
  0
TABLE
  2
BLOCK_RECORD
  5
1
330
0
100
AcDbSymbolTable
 70
    23
  0
BLOCK_RECORD
  5
1F
330
1
100
AcDbSymbolTableRecord
100
AcDbBlockTableRecord
  2
*Model_Space
340
22
  0
BLOCK_RECORD
  5
1B
330
1
100
AcDbSymbolTableRecord
100
AcDbBlockTableRecord
  2
*Paper_Space
340
1E
  0
BLOCK_RECORD
  5
23
330
1
100
AcDbSymbolTableRecord
100
AcDbBlockTableRecord
  2
*Paper_Space0
340
26
  0
BLOCK_RECORD
  5
7F
330
1
100
AcDbSymbolTableRecord
100
AcDbBlockTableRecord
  2
블럭10
340
0
102
{BLKREFS
331
E1
331
1DC
331
0
102
}
  0
BLOCK_RECORD
  5
EA
330
1
100
AcDbSymbolTableRecord
100
AcDbBlockTableRecord
  2
_D
340
0
  0
BLOCK_RECORD
  5
FE
330
1
100
AcDbSymbolTableRecord
100
AcDbBlockTableRecord
  2
_D_1
340
0
  0
BLOCK_RECORD
  5
113
330
1
100
AcDbSymbolTableRecord
100
AcDbBlockTableRecord
  2
_D_2
340
0
  0
BLOCK_RECORD
  5
127
330
1
100
AcDbSymbolTableRecord
100
AcDbBlockTableRecord
  2
_D_3
340
0
  0
BLOCK_RECORD
  5
140
330
1
100
AcDbSymbolTableRecord
100
AcDbBlockTableRecord
  2
SW_DOWELSYMBOL_0
340
0
102
{BLKREFS
331
146
331
233
331
0
331
42A
331
0
102
}
  0
BLOCK_RECORD
  5
284
330
1
100
AcDbSymbolTableRecord
100
AcDbBlockTableRecord
  2
*D8
340
0
  0
BLOCK_RECORD
  5
290
330
1
100
AcDbSymbolTableRecord
100
AcDbBlockTableRecord
  2
*D9
340
0
  0
BLOCK_RECORD
  5
29F
330
1
100
AcDbSymbolTableRecord
100
AcDbBlockTableRecord
  2
*D10
340
0
  0
BLOCK_RECORD
  5
2AE
330
1
100
AcDbSymbolTableRecord
100
AcDbBlockTableRecord
  2
*D11
340
0
  0
BLOCK_RECORD
  5
353
330
1
100
AcDbSymbolTableRecord
100
AcDbBlockTableRecord
  2
*D12
340
0
  0
BLOCK_RECORD
  5
35F
330
1
100
AcDbSymbolTableRecord
100
AcDbBlockTableRecord
  2
*D13
340
0
  0
BLOCK_RECORD
  5
36E
330
1
100
AcDbSymbolTableRecord
100
AcDbBlockTableRecord
  2
*D14
340
0
  0
BLOCK_RECORD
  5
37D
330
1
100
AcDbSymbolTableRecord
100
AcDbBlockTableRecord
  2
*D15
340
0
  0
BLOCK_RECORD
  5
433
330
1
100
AcDbSymbolTableRecord
100
AcDbBlockTableRecord
  2
*D17
340
0
  0
BLOCK_RECORD
  5
442
330
1
100
AcDbSymbolTableRecord
100
AcDbBlockTableRecord
  2
*D18
340
0
  0
BLOCK_RECORD
  5
451
330
1
100
AcDbSymbolTableRecord
100
AcDbBlockTableRecord
  2
*D19
340
0
  0
BLOCK_RECORD
  5
4A7
330
1
100
AcDbSymbolTableRecord
100
AcDbBlockTableRecord
  2
*D20
340
0
  0
BLOCK_RECORD
  5
4B6
330
1
100
AcDbSymbolTableRecord
100
AcDbBlockTableRecord
  2
*D21
340
0
  0
BLOCK_RECORD
  5
4C5
330
1
100
AcDbSymbolTableRecord
100
AcDbBlockTableRecord
  2
*D22
340
0
  0
ENDTAB
  0
ENDSEC
  0
SECTION
  2
BLOCKS
  0
BLOCK
  5
20
330
1F
100
AcDbEntity
  8
0
100
AcDbBlockBegin
  2
*Model_Space
 70
     0
 10
0.0
 20
0.0
 30
0.0
  3
*Model_Space
  1
*Model_Space
  0
ENDBLK
  5
21
330
1F
100
AcDbEntity
  8
0
100
AcDbBlockEnd
  0
BLOCK
  5
1C
330
1B
100
AcDbEntity
 67
     1
  8
0
100
AcDbBlockBegin
  2
*Paper_Space
 70
     0
 10
0.0
 20
0.0
 30
0.0
  3
*Paper_Space
  1
*Paper_Space
  0
ENDBLK
  5
1D
330
1B
100
AcDbEntity
 67
     1
  8
0
100
AcDbBlockEnd
  0
BLOCK
  5
24
330
23
100
AcDbEntity
  8
0
100
AcDbBlockBegin
  2
*Paper_Space0
 70
     0
 10
0.0
 20
0.0
 30
0.0
  3
*Paper_Space0
  1
*Paper_Space0
  0
ENDBLK
  5
25
330
23
100
AcDbEntity
  8
0
100
AcDbBlockEnd
  0
BLOCK
  5
80
330
7F
100
AcDbEntity
  8
0
100
AcDbBlockBegin
  2
블럭10
 70
     2
 10
0.0
 20
0.0
 30
0.0
  3
블럭10
  1
블럭10
  0
ELLIPSE
  5
82
330
7F
100
AcDbEntity
  8
중심선
100
AcDbEllipse
 10
20.54032771741204
 20
12.0471743016438
 30
0.0
 11
6.600054785286829
 21
-1.261213355974178E-13
 31
0.0
210
0.0
220
0.0
230
1.0
 40
0.636358354079598
 41
0.9219305317359503
 42
6.513795318482858
  0
ELLIPSE
  5
83
330
7F
100
AcDbEntity
  8
중심선
100
AcDbEllipse
 10
20.54032771746488
 20
12.04717430159265
 30
0.0
 11
3.960054785062283
 21
1.540847449632565E-10
 31
0.0
210
0.0
220
0.0
230
1.0
 40
0.3939339440162632
 41
1.131841032648279
 42
5.62031148352944
  0
LINE
  5
84
330
7F
100
AcDbEntity
  8
중심선
100
AcDbLine
 10
2.268634060543552
 20
16.24717430164393
 30
0.0
 11
5.714909304380834
 21
16.24717430164393
 31
0.0
  0
LINE
  5
85
330
7F
100
AcDbEntity
  8
중심선
100
AcDbLine
 10
5.245725140726316
 20
7.84717430164391
 30
0.0
 11
8.692000384563599
 21
7.84717430164391
 31
0.0
  0
LINE
  5
86
330
7F
100
AcDbEntity
  8
중심선
100
AcDbLine
 10
15.74043728645272
 20
16.24717430164393
 30
0.0
 11
8.692000384563599
 21
7.84717430164391
 31
0.0
  0
LINE
  5
87
330
7F
100
AcDbEntity
  8
중심선
100
AcDbLine
 10
0.1404042013395286
 20
13.71084872107135
 30
0.0
 11
3.58671253028996
 21
13.71088815037384
 31
0.0
  0
LINE
  5
88
330
7F
100
AcDbEntity
  8
중심선
100
AcDbLine
 10
2.750260043222114
 20
10.84717430164391
 30
0.0
 11
6.196535287059397
 21
10.84717430164391
 31
0.0
  0
LINE
  5
89
330
7F
100
AcDbEntity
  8
중심선
100
AcDbLine
 10
12.29416204261559
 20
16.24717430164393
 30
0.0
 11
5.245725140726316
 21
7.84717430164391
 31
0.0
  0
LINE
  5
8A
330
7F
100
AcDbEntity
  8
중심선
100
AcDbLine
 10
10.72767329541681
 20
16.24717430164393
 30
0.0
 11
6.196535287059397
 21
10.84717430164391
 31
0.0
  0
LINE
  5
8B
330
7F
100
AcDbEntity
  8
중심선
100
AcDbLine
 10
7.28139805157953
 20
16.24717430164393
 30
0.0
 11
2.750260043222114
 21
10.84717430164391
 31
0.0
  0
LINE
  5
8C
330
7F
100
AcDbEntity
  8
중심선
100
AcDbLine
 10
5.714909304380834
 20
16.24717430164393
 30
0.0
 11
3.58671253028996
 21
13.71088815037384
 31
0.0
  0
LINE
  5
8D
330
7F
100
AcDbEntity
  8
중심선
100
AcDbLine
 10
2.268634060543552
 20
16.24717430164393
 30
0.0
 11
0.1404042013395286
 21
13.71084872107135
 31
0.0
  0
LINE
  5
8E
330
7F
100
AcDbEntity
  8
중심선
100
AcDbLine
 10
7.28139805157953
 20
16.24717430164393
 30
0.0
 11
10.72767329541681
 21
16.24717430164393
 31
0.0
  0
LINE
  5
8F
330
7F
100
AcDbEntity
  8
중심선
100
AcDbLine
 10
12.29416204261559
 20
16.24717430164393
 30
0.0
 11
15.74043728645272
 21
16.24717430164393
 31
0.0
  0
LINE
  5
90
330
7F
100
AcDbEntity
  8
중심선
100
AcDbLine
 10
19.22036997980202
 20
11.08717430171403
 30
0.0
 11
23.66174974927406
 21
11.08717430171406
 31
0.0
  0
LINE
  5
91
330
7F
100
AcDbEntity
  8
중심선
100
AcDbLine
 10
19.22039502424796
 20
13.00717430171391
 30
0.0
 11
19.22036997980202
 21
11.08717430171403
 31
0.0
  0
LINE
  5
92
330
7F
100
AcDbEntity
  8
중심선
100
AcDbLine
 10
19.22039502424796
 20
13.00717430171391
 30
0.0
 11
26.96566020931264
 21
13.00717430171391
 31
0.0
  0
LINE
  5
93
330
7F
100
AcDbEntity
  8
중심선
100
AcDbLine
 10
22.22332737316547
 20
13.45928029700563
 30
0.0
 11
24.52862924686651
 21
15.39360700705356
 31
0.0
  0
ATTDEF
  5
95
330
7F
100
AcDbEntity
  8
FORMAT
 62
     2
100
AcDbText
 10
4.408487351596664
 20
2.075366912832191
 30
0.0
 40
4.233333333333333
  1
E2005011
 41
0.75
  7
SLDTEXTSTYLE0
 11
4.408487351596664
 21
-0.0412997538344756
 31
0.0
100
AcDbAttributeDefinition
  3

  2
AUTOATTR0
 70
     0
 74
     1
  0
ENDBLK
  5
81
330
7F
100
AcDbEntity
  8
0
100
AcDbBlockEnd
  0
BLOCK
  5
EB
330
EA
100
AcDbEntity
  8
0
100
AcDbBlockBegin
  2
_D
 70
     0
 10
0.0
 20
0.0
 30
0.0
  3
_D
  1
_D
  0
LINE
  5
ED
330
EA
100
AcDbEntity
  8
치수문자_일반주서
 62
     0
370
    -2
100
AcDbLine
 10
-17.37192116787308
 20
2.381250000000009
 30
0.0
 11
-54.27500000000002
 21
2.38124999999987
 31
0.0
  0
LINE
  5
EE
330
EA
100
AcDbEntity
  8
치수문자_일반주서
 62
     0
370
    -2
100
AcDbLine
 10
-17.37192116787308
 20
-2.381250000000002
 30
0.0
 11
-54.27500000000001
 21
-2.38125000000014
 31
0.0
  0
LINE
  5
EF
330
EA
100
AcDbEntity
  8
치수문자_일반주서
 62
     0
370
    -2
100
AcDbLine
 10
-54.27500000000001
 20
-0.9207500000001292
 30
0.0
 11
-54.27500000000001
 21
0.9207499999998596
 31
0.0
  0
SOLID
  5
F0
330
EA
100
AcDbEntity
  8
치수문자_일반주서
 62
     0
100
AcDbTrace
 10
-53.72466666666668
 20
-0.9207500000001275
 30
0.0
 11
-54.82533333333335
 21
-0.9207500000001309
 31
0.0
 12
-54.27500000000002
 22
2.38124999999987
 32
0.0
 13
-54.27500000000002
 23
2.38124999999987
 33
0.0
  0
SOLID
  5
F1
330
EA
100
AcDbEntity
  8
치수문자_일반주서
 62
     0
100
AcDbTrace
 10
-54.82533333333335
 20
0.920749999999858
 30
0.0
 11
-53.72466666666668
 21
0.9207499999998613
 31
0.0
 12
-54.27500000000001
 22
-2.38125000000014
 32
0.0
 13
-54.27500000000001
 23
-2.38125000000014
 33
0.0
  0
MTEXT
  5
F2
330
EA
100
AcDbEntity
  8
치수문자_일반주서
 62
     0
100
AcDbMText
 10
-58.65000000000001
 20
-0.0000000000000103
 30
0.0
 40
3.5
 41
0.0
 71
     2
 72
     1
  1
\A1;%%c4.76 [3/16]
  7
SLDTEXTSTYLE0
 11
-2.983906501879679E-15
 21
1.0
 31
0.0
 73
     1
 44
1.0
  0
POINT
  5
F3
330
EA
100
AcDbEntity
  8
Defpoints
 62
     0
100
AcDbPoint
 10
-17.30942116787308
 20
2.381250000000009
 30
0.0
  0
POINT
  5
F4
330
EA
100
AcDbEntity
  8
Defpoints
 62
     0
100
AcDbPoint
 10
-17.30942116787308
 20
-2.381250000000001
 30
0.0
  0
POINT
  5
F5
330
EA
100
AcDbEntity
  8
Defpoints
 62
     0
100
AcDbPoint
 10
-54.27500000000001
 20
-2.38125000000014
 30
0.0
  0
ENDBLK
  5
EC
330
EA
100
AcDbEntity
  8
0
100
AcDbBlockEnd
  0
BLOCK
  5
FF
330
FE
100
AcDbEntity
  8
0
100
AcDbBlockBegin
  2
_D_1
 70
     0
 10
0.0
 20
0.0
 30
0.0
  3
_D_1
  1
_D_1
  0
LINE
  5
101
330
FE
100
AcDbEntity
  8
치수문자_일반주서
 62
     0
370
    -2
100
AcDbLine
 10
41.33750000000002
 20
-2.182812499999997
 30
0.0
 11
56.85862147789787
 21
-2.18281249999994
 31
0.0
  0
LINE
  5
102
330
FE
100
AcDbEntity
  8
치수문자_일반주서
 62
     0
370
    -2
100
AcDbLine
 10
41.33750000000001
 20
2.182812500000005
 30
0.0
 11
56.85862147789786
 21
2.182812500000061
 31
0.0
  0
LINE
  5
103
330
FE
100
AcDbEntity
  8
치수문자_일반주서
 62
     0
370
    -2
100
AcDbLine
 10
56.85862147789786
 20
2.182812500000061
 30
0.0
 11
56.85862147789774
 21
39.74401239362968
 31
0.0
  0
LINE
  5
104
330
FE
100
AcDbEntity
  8
치수문자_일반주서
 62
     0
370
    -2
100
AcDbLine
 10
56.85862147789787
 20
-2.18281249999994
 30
0.0
 11
56.85862147789786
 21
2.182812500000061
 31
0.0
  0
LINE
  5
105
330
FE
100
AcDbEntity
  8
치수문자_일반주서
 62
     0
370
    -2
100
AcDbLine
 10
56.85862147789788
 20
-5.48481249999994
 30
0.0
 11
56.8586214778979
 21
-8.78681249999994
 31
0.0
  0
LINE
  5
106
330
FE
100
AcDbEntity
  8
치수문자_일반주서
 62
     0
370
    -2
100
AcDbLine
 10
56.85862147789784
 20
5.484812500000061
 30
0.0
 11
56.85862147789783
 21
8.78681250000006
 31
0.0
  0
SOLID
  5
107
330
FE
100
AcDbEntity
  8
치수문자_일반주서
 62
     0
100
AcDbTrace
 10
57.40895481123122
 20
-5.484812499999938
 30
0.0
 11
56.30828814456455
 21
-5.484812499999942
 31
0.0
 12
56.85862147789787
 22
-2.18281249999994
 32
0.0
 13
56.85862147789787
 23
-2.18281249999994
 33
0.0
  0
SOLID
  5
108
330
FE
100
AcDbEntity
  8
치수문자_일반주서
 62
     0
100
AcDbTrace
 10
56.30828814456451
 20
5.484812500000059
 30
0.0
 11
57.40895481123118
 21
5.484812500000062
 31
0.0
 12
56.85862147789786
 22
2.182812500000061
 32
0.0
 13
56.85862147789786
 23
2.182812500000061
 33
0.0
  0
MTEXT
  5
109
330
FE
100
AcDbEntity
  8
치수문자_일반주서
 62
     0
100
AcDbMText
 10
52.48362147789778
 20
24.86901239362967
 30
0.0
 40
3.5
 41
0.0
 71
     2
 72
     1
  1
\A1;%%c4.37 [11/64]
  7
SLDTEXTSTYLE0
 11
-3.255170729323293E-15
 21
1.0
 31
0.0
 73
     1
 44
1.0
  0
POINT
  5
10A
330
FE
100
AcDbEntity
  8
Defpoints
 62
     0
100
AcDbPoint
 10
41.27500000000002
 20
-2.182812499999997
 30
0.0
  0
POINT
  5
10B
330
FE
100
AcDbEntity
  8
Defpoints
 62
     0
100
AcDbPoint
 10
41.27500000000001
 20
2.182812500000005
 30
0.0
  0
POINT
  5
10C
330
FE
100
AcDbEntity
  8
Defpoints
 62
     0
100
AcDbPoint
 10
56.85862147789786
 20
2.182812500000063
 30
0.0
  0
ENDBLK
  5
100
330
FE
100
AcDbEntity
  8
0
100
AcDbBlockEnd
  0
BLOCK
  5
114
330
113
100
AcDbEntity
  8
0
100
AcDbBlockBegin
  2
_D_2
 70
     0
 10
0.0
 20
0.0
 30
0.0
  3
_D_2
  1
_D_2
  0
LINE
  5
116
330
113
100
AcDbEntity
  8
치수문자_일반주서
 62
     0
370
    -2
100
AcDbLine
 10
41.27500000000001
 20
2.245312500000005
 30
0.0
 11
41.27500000000001
 21
21.02658291051627
 31
0.0
  0
LINE
  5
117
330
113
100
AcDbEntity
  8
치수문자_일반주서
 62
     0
370
    -2
100
AcDbLine
 10
19.05000000000002
 20
2.237642957527612
 30
0.0
 11
19.05000000000002
 21
21.02658291051627
 31
0.0
  0
LINE
  5
118
330
113
100
AcDbEntity
  8
치수문자_일반주서
 62
     0
370
    -2
100
AcDbLine
 10
19.05000000000002
 20
21.02658291051627
 30
0.0
 11
-20.56303187286662
 21
21.02658291051627
 31
0.0
  0
LINE
  5
119
330
113
100
AcDbEntity
  8
치수문자_일반주서
 62
     0
370
    -2
100
AcDbLine
 10
41.27500000000001
 20
21.02658291051627
 30
0.0
 11
19.05000000000002
 21
21.02658291051627
 31
0.0
  0
LINE
  5
11A
330
113
100
AcDbEntity
  8
치수문자_일반주서
 62
     0
370
    -2
100
AcDbLine
 10
44.57700000000001
 20
21.02658291051627
 30
0.0
 11
47.87900000000001
 21
21.02658291051627
 31
0.0
  0
LINE
  5
11B
330
113
100
AcDbEntity
  8
치수문자_일반주서
 62
     0
370
    -2
100
AcDbLine
 10
15.74800000000002
 20
21.02658291051627
 30
0.0
 11
12.44600000000002
 21
21.02658291051627
 31
0.0
  0
SOLID
  5
11C
330
113
100
AcDbEntity
  8
치수문자_일반주서
 62
     0
100
AcDbTrace
 10
44.57700000000001
 20
21.5769162438496
 30
0.0
 11
44.57700000000001
 21
20.47624957718293
 31
0.0
 12
41.27500000000001
 22
21.02658291051627
 32
0.0
 13
41.27500000000001
 23
21.02658291051627
 33
0.0
  0
SOLID
  5
11D
330
113
100
AcDbEntity
  8
치수문자_일반주서
 62
     0
100
AcDbTrace
 10
15.74800000000002
 20
20.47624957718293
 30
0.0
 11
15.74800000000002
 21
21.5769162438496
 31
0.0
 12
19.05000000000002
 22
21.02658291051627
 32
0.0
 13
19.05000000000002
 23
21.02658291051627
 33
0.0
  0
MTEXT
  5
11E
330
113
100
AcDbEntity
  8
치수문자_일반주서
 62
     0
100
AcDbMText
 10
-7.438031872866624
 20
25.40158291051627
 30
0.0
 40
3.5
 41
0.0
 71
     2
 72
     1
  1
\A1;22.23 [7/8]
  7
SLDTEXTSTYLE0
 73
     1
 44
1.0
  0
POINT
  5
11F
330
113
100
AcDbEntity
  8
Defpoints
 62
     0
100
AcDbPoint
 10
41.27500000000001
 20
2.182812500000005
 30
0.0
  0
POINT
  5
389
330
113
100
AcDbEntity
  8
Defpoints
 62
     0
100
AcDbPoint
 10
19.05000000000002
 20
2.175142957527612
 30
0.0
  0
POINT
  5
38A
330
113
100
AcDbEntity
  8
Defpoints
 62
     0
100
AcDbPoint
 10
19.05000000000002
 20
21.02658291051627
 30
0.0
  0
ENDBLK
  5
115
330
113
100
AcDbEntity
  8
0
100
AcDbBlockEnd
  0
BLOCK
  5
128
330
127
100
AcDbEntity
  8
0
100
AcDbBlockBegin
  2
_D_3
 70
     0
 10
0.0
 20
0.0
 30
0.0
  3
_D_3
  1
_D_3
  0
LINE
  5
12A
330
127
100
AcDbEntity
  8
치수문자_일반주서
 62
     0
370
    -2
100
AcDbLine
 10
-41.27500000000001
 20
2.245312500000005
 30
0.0
 11
-41.27500000000001
 21
36.38125000000002
 31
0.0
  0
LINE
  5
12B
330
127
100
AcDbEntity
  8
치수문자_일반주서
 62
     0
370
    -2
100
AcDbLine
 10
41.27500000000001
 20
2.245312500000005
 30
0.0
 11
41.27500000000001
 21
36.38125000000002
 31
0.0
  0
LINE
  5
12C
330
127
100
AcDbEntity
  8
치수문자_일반주서
 62
     0
370
    -2
100
AcDbLine
 10
-37.97300000000001
 20
36.38125000000002
 30
0.0
 11
37.97300000000001
 21
36.38125000000002
 31
0.0
  0
SOLID
  5
12D
330
127
100
AcDbEntity
  8
치수문자_일반주서
 62
     0
100
AcDbTrace
 10
-37.97300000000001
 20
36.93158333333336
 30
0.0
 11
-37.97300000000001
 21
35.83091666666669
 31
0.0
 12
-41.27500000000001
 22
36.38125000000002
 32
0.0
 13
-41.27500000000001
 23
36.38125000000002
 33
0.0
  0
SOLID
  5
12E
330
127
100
AcDbEntity
  8
치수문자_일반주서
 62
     0
100
AcDbTrace
 10
37.97300000000001
 20
35.83091666666669
 30
0.0
 11
37.97300000000001
 21
36.93158333333336
 31
0.0
 12
41.27500000000001
 22
36.38125000000002
 32
0.0
 13
41.27500000000001
 23
36.38125000000002
 33
0.0
  0
MTEXT
  5
12F
330
127
100
AcDbEntity
  8
치수문자_일반주서
 62
     0
100
AcDbMText
 10
0.0000000000000231
 20
40.75625000000002
 30
0.0
 40
3.5
 41
0.0
 71
     2
 72
     1
  1
\A1;82.55 [3 1/4]
  7
SLDTEXTSTYLE0
 73
     1
 44
1.0
  0
POINT
  5
130
330
127
100
AcDbEntity
  8
Defpoints
 62
     0
100
AcDbPoint
 10
-41.27500000000001
 20
2.182812500000005
 30
0.0
  0
POINT
  5
131
330
127
100
AcDbEntity
  8
Defpoints
 62
     0
100
AcDbPoint
 10
41.27500000000001
 20
2.182812500000005
 30
0.0
  0
POINT
  5
132
330
127
100
AcDbEntity
  8
Defpoints
 62
     0
100
AcDbPoint
 10
41.27500000000001
 20
36.38125000000002
 30
0.0
  0
ENDBLK
  5
129
330
127
100
AcDbEntity
  8
0
100
AcDbBlockEnd
  0
BLOCK
  5
141
330
140
100
AcDbEntity
  8
0
100
AcDbBlockBegin
  2
SW_DOWELSYMBOL_0
 70
     0
 10
0.0
 20
0.0
 30
0.0
  3
SW_DOWELSYMBOL_0
  1
SW_DOWELSYMBOL_0
  0
CIRCLE
  5
143
330
140
100
AcDbEntity
  8
해칭선
 62
     0
100
AcDbCircle
 10
0.0
 20
0.0
 30
0.0
 40
3.000000000000001
  0
HATCH
  5
144
330
140
100
AcDbEntity
  8
0
  6
Continuous
 62
     0
370
     0
100
AcDbHatch
 10
0.0
 20
0.0
 30
0.0
210
0.0
220
0.0
230
1.0
  2
SOLID
 70
     1
 71
     0
 91
        1
 92
        0
 93
        3
 72
     2
 10
0.0
 20
0.0
 40
3.000000000000001
 50
0.0
 51
90.0
 73
     1
 72
     1
 10
0.0
 20
3.000000000000001
 11
0.0
 21
0.0
 72
     1
 10
0.0
 20
0.0
 11
3.000000000000001
 21
0.0
 97
        0
 75
     0
 76
     1
 98
        1
 10
0.0
 20
0.0
  0
HATCH
  5
145
330
140
100
AcDbEntity
  8
0
  6
Continuous
 62
     0
370
     0
100
AcDbHatch
 10
0.0
 20
0.0
 30
0.0
210
0.0
220
0.0
230
1.0
  2
SOLID
 70
     1
 71
     0
 91
        1
 92
        0
 93
        3
 72
     2
 10
0.0
 20
0.0
 40
3.000000000000001
 50
180.0
 51
270.0000000000008
 73
     1
 72
     1
 10
0.0
 20
-3.000000000000001
 11
0.0
 21
0.0
 72
     1
 10
0.0
 20
0.0
 11
-3.000000000000001
 21
0.0
 97
        0
 75
     0
 76
     1
 98
        1
 10
0.0
 20
0.0
  0
ENDBLK
  5
142
330
140
100
AcDbEntity
  8
0
100
AcDbBlockEnd
  0
BLOCK
  5
285
330
284
100
AcDbEntity
  8
0
100
AcDbBlockBegin
  2
*D8
 70
     1
 10
0.0
 20
0.0
 30
0.0
  3
*D8
  1
*D8
  0
LINE
  5
287
330
284
100
AcDbEntity
  8
치수문자_일반주서
 62
     0
370
    -2
100
AcDbLine
 10
42.71250000000002
 20
52.35305738881175
 30
0.0
 11
4.375000000000035
 21
52.35305738881161
 31
0.0
  0
LINE
  5
288
330
284
100
AcDbEntity
  8
치수문자_일반주서
 62
     0
370
    -2
100
AcDbLine
 10
42.71250000000002
 20
47.59055738881175
 30
0.0
 11
4.375000000000052
 21
47.5905573888116
 31
0.0
  0
LINE
  5
289
330
284
100
AcDbEntity
  8
치수문자_일반주서
 62
     0
370
    -2
100
AcDbLine
 10
4.375000000000046
 20
49.05105738881161
 30
0.0
 11
4.37500000000004
 21
50.8925573888116
 31
0.0
  0
SOLID
  5
28A
330
284
100
AcDbEntity
  8
치수문자_일반주서
 62
     0
100
AcDbTrace
 10
4.92533333333338
 20
49.05105738881161
 30
0.0
 11
3.824666666666713
 21
49.05105738881161
 31
0.0
 12
4.375000000000035
 22
52.35305738881161
 32
0.0
 13
4.375000000000035
 23
52.35305738881161
 33
0.0
  0
SOLID
  5
28B
330
284
100
AcDbEntity
  8
치수문자_일반주서
 62
     0
100
AcDbTrace
 10
3.824666666666707
 20
50.8925573888116
 30
0.0
 11
4.925333333333374
 21
50.8925573888116
 31
0.0
 12
4.375000000000052
 22
47.5905573888116
 32
0.0
 13
4.375000000000052
 23
47.5905573888116
 33
0.0
  0
MTEXT
  5
28C
330
284
100
AcDbEntity
  8
치수문자_일반주서
 62
     0
100
AcDbMText
 10
0.0000000000000426
 20
49.97180738881173
 30
0.0
 40
3.5
 41
0.0
 71
     2
 72
     1
  1
\A1;%%c4.76 [3/16]
  7
SLDTEXTSTYLE0
 11
-3.543388970982125E-15
 21
1.0
 31
0.0
 73
     1
 44
1.0
  0
POINT
  5
28D
330
284
100
AcDbEntity
  8
Defpoints
 62
     0
100
AcDbPoint
 10
42.77500000000002
 20
52.35305738881175
 30
0.0
  0
POINT
  5
28E
330
284
100
AcDbEntity
  8
Defpoints
 62
     0
100
AcDbPoint
 10
42.77500000000002
 20
47.59055738881175
 30
0.0
  0
POINT
  5
28F
330
284
100
AcDbEntity
  8
Defpoints
 62
     0
100
AcDbPoint
 10
4.37500000000005
 20
47.5905573888116
 30
0.0
  0
ENDBLK
  5
286
330
284
100
AcDbEntity
  8
0
100
AcDbBlockEnd
  0
BLOCK
  5
291
330
290
100
AcDbEntity
  8
0
100
AcDbBlockBegin
  2
*D9
 70
     1
 10
0.0
 20
0.0
 30
0.0
  3
*D9
  1
*D9
  0
LINE
  5
293
330
290
100
AcDbEntity
  8
치수문자_일반주서
 62
     0
370
    -2
100
AcDbLine
 10
103.1625000000001
 20
47.59055738881175
 30
0.0
 11
122.1000000000002
 21
47.59055738881182
 31
0.0
  0
LINE
  5
294
330
290
100
AcDbEntity
  8
치수문자_일반주서
 62
     0
370
    -2
100
AcDbLine
 10
103.1625000000001
 20
52.35104479257734
 30
0.0
 11
122.1000000000002
 21
52.35104479257741
 31
0.0
  0
LINE
  5
295
330
290
100
AcDbEntity
  8
치수문자_일반주서
 62
     0
370
    -2
100
AcDbLine
 10
122.1000000000002
 20
52.35104479257741
 30
0.0
 11
122.1000000000001
 21
90.02823272546786
 31
0.0
  0
LINE
  5
296
330
290
100
AcDbEntity
  8
치수문자_일반주서
 62
     0
370
    -2
100
AcDbLine
 10
122.1000000000002
 20
47.59055738881182
 30
0.0
 11
122.1000000000002
 21
52.35104479257741
 31
0.0
  0
LINE
  5
297
330
290
100
AcDbEntity
  8
치수문자_일반주서
 62
     0
370
    -2
100
AcDbLine
 10
122.1000000000002
 20
44.28855738881182
 30
0.0
 11
122.1000000000002
 21
40.98655738881182
 31
0.0
  0
LINE
  5
298
330
290
100
AcDbEntity
  8
치수문자_일반주서
 62
     0
370
    -2
100
AcDbLine
 10
122.1000000000002
 20
55.65304479257741
 30
0.0
 11
122.1000000000001
 21
58.95504479257741
 31
0.0
  0
SOLID
  5
299
330
290
100
AcDbEntity
  8
치수문자_일반주서
 62
     0
100
AcDbTrace
 10
122.6503333333335
 20
44.28855738881182
 30
0.0
 11
121.5496666666669
 21
44.28855738881182
 31
0.0
 12
122.1000000000002
 22
47.59055738881182
 32
0.0
 13
122.1000000000002
 23
47.59055738881182
 33
0.0
  0
SOLID
  5
29A
330
290
100
AcDbEntity
  8
치수문자_일반주서
 62
     0
100
AcDbTrace
 10
121.5496666666668
 20
55.65304479257741
 30
0.0
 11
122.6503333333335
 21
55.65304479257741
 31
0.0
 12
122.1000000000002
 22
52.35104479257741
 32
0.0
 13
122.1000000000002
 23
52.35104479257741
 33
0.0
  0
MTEXT
  5
29B
330
290
100
AcDbEntity
  8
치수문자_일반주서
 62
     0
100
AcDbMText
 10
117.7250000000001
 20
76.02823272546784
 30
0.0
 40
3.5
 41
0.0
 71
     2
 72
     1
  1
\A1;%%c4.76 [3/16]
  7
SLDTEXTSTYLE0
 11
-2.985168011149676E-15
 21
1.0
 31
0.0
 73
     1
 44
1.0
  0
POINT
  5
29C
330
290
100
AcDbEntity
  8
Defpoints
 62
     0
100
AcDbPoint
 10
103.1000000000001
 20
47.59055738881175
 30
0.0
  0
POINT
  5
29D
330
290
100
AcDbEntity
  8
Defpoints
 62
     0
100
AcDbPoint
 10
103.1000000000001
 20
52.35104479257734
 30
0.0
  0
POINT
  5
29E
330
290
100
AcDbEntity
  8
Defpoints
 62
     0
100
AcDbPoint
 10
122.1000000000002
 20
52.35104479257741
 30
0.0
  0
ENDBLK
  5
292
330
290
100
AcDbEntity
  8
0
100
AcDbBlockEnd
  0
BLOCK
  5
2A0
330
29F
100
AcDbEntity
  8
0
100
AcDbBlockBegin
  2
*D10
 70
     1
 10
0.0
 20
0.0
 30
0.0
  3
*D10
  1
*D10
  0
LINE
  5
2A2
330
29F
100
AcDbEntity
  8
치수문자_일반주서
 62
     0
370
    -2
100
AcDbLine
 10
103.1000000000001
 20
52.41354479257734
 30
0.0
 11
103.1000000000001
 21
64.32981104368208
 31
0.0
  0
LINE
  5
2A3
330
29F
100
AcDbEntity
  8
치수문자_일반주서
 62
     0
370
    -2
100
AcDbLine
 10
77.70000000000007
 20
52.40721600211467
 30
0.0
 11
77.70000000000007
 21
64.32981104368208
 31
0.0
  0
LINE
  5
2A4
330
29F
100
AcDbEntity
  8
치수문자_일반주서
 62
     0
370
    -2
100
AcDbLine
 10
77.70000000000007
 20
64.32981104368208
 30
0.0
 11
44.98531233885451
 21
64.32981104368208
 31
0.0
  0
LINE
  5
2A5
330
29F
100
AcDbEntity
  8
치수문자_일반주서
 62
     0
370
    -2
100
AcDbLine
 10
103.1000000000001
 20
64.32981104368208
 30
0.0
 11
77.70000000000007
 21
64.32981104368208
 31
0.0
  0
LINE
  5
2A6
330
29F
100
AcDbEntity
  8
치수문자_일반주서
 62
     0
370
    -2
100
AcDbLine
 10
106.4020000000001
 20
64.32981104368208
 30
0.0
 11
109.7040000000001
 21
64.32981104368208
 31
0.0
  0
LINE
  5
2A7
330
29F
100
AcDbEntity
  8
치수문자_일반주서
 62
     0
370
    -2
100
AcDbLine
 10
74.39800000000008
 20
64.32981104368208
 30
0.0
 11
71.09600000000009
 21
64.32981104368208
 31
0.0
  0
SOLID
  5
2A8
330
29F
100
AcDbEntity
  8
치수문자_일반주서
 62
     0
100
AcDbTrace
 10
106.4020000000001
 20
64.88014437701541
 30
0.0
 11
106.4020000000001
 21
63.77947771034875
 31
0.0
 12
103.1000000000001
 22
64.32981104368208
 32
0.0
 13
103.1000000000001
 23
64.32981104368208
 33
0.0
  0
SOLID
  5
2A9
330
29F
100
AcDbEntity
  8
치수문자_일반주서
 62
     0
100
AcDbTrace
 10
74.39800000000008
 20
63.77947771034875
 30
0.0
 11
74.39800000000008
 21
64.88014437701541
 31
0.0
 12
77.70000000000007
 22
64.32981104368208
 32
0.0
 13
77.70000000000007
 23
64.32981104368208
 33
0.0
  0
MTEXT
  5
2AA
330
29F
100
AcDbEntity
  8
치수문자_일반주서
 62
     0
100
AcDbMText
 10
53.73531233885451
 20
68.70481104368208
 30
0.0
 40
3.5
 41
0.0
 71
     2
 72
     1
  1
\A1;25.4 [1]
  7
SLDTEXTSTYLE0
 73
     1
 44
1.0
  0
POINT
  5
2AB
330
29F
100
AcDbEntity
  8
Defpoints
 62
     0
100
AcDbPoint
 10
103.1000000000001
 20
52.35104479257734
 30
0.0
  0
POINT
  5
2AC
330
29F
100
AcDbEntity
  8
Defpoints
 62
     0
100
AcDbPoint
 10
77.70000000000007
 20
52.34471600211467
 30
0.0
  0
POINT
  5
2AD
330
29F
100
AcDbEntity
  8
Defpoints
 62
     0
100
AcDbPoint
 10
77.70000000000007
 20
64.32981104368208
 30
0.0
  0
ENDBLK
  5
2A1
330
29F
100
AcDbEntity
  8
0
100
AcDbBlockEnd
  0
BLOCK
  5
2AF
330
2AE
100
AcDbEntity
  8
0
100
AcDbBlockBegin
  2
*D11
 70
     1
 10
0.0
 20
0.0
 30
0.0
  3
*D11
  1
*D11
  0
LINE
  5
2B1
330
2AE
100
AcDbEntity
  8
치수문자_일반주서
 62
     0
370
    -2
100
AcDbLine
 10
17.37500000000007
 20
51.98555738881174
 30
0.0
 11
17.37500000000007
 21
73.29626598541012
 31
0.0
  0
LINE
  5
2B2
330
2AE
100
AcDbEntity
  8
치수문자_일반주서
 62
     0
370
    -2
100
AcDbLine
 10
103.1000000000001
 20
52.41354479257734
 30
0.0
 11
103.1000000000001
 21
73.29626598541012
 31
0.0
  0
LINE
  5
2B3
330
2AE
100
AcDbEntity
  8
치수문자_일반주서
 62
     0
370
    -2
100
AcDbLine
 10
20.67700000000007
 20
73.29626598541012
 30
0.0
 11
99.79800000000009
 21
73.29626598541012
 31
0.0
  0
SOLID
  5
2B4
330
2AE
100
AcDbEntity
  8
치수문자_일반주서
 62
     0
100
AcDbTrace
 10
20.67700000000007
 20
73.84659931874344
 30
0.0
 11
20.67700000000007
 21
72.74593265207679
 31
0.0
 12
17.37500000000007
 22
73.29626598541012
 32
0.0
 13
17.37500000000007
 23
73.29626598541012
 33
0.0
  0
SOLID
  5
2B5
330
2AE
100
AcDbEntity
  8
치수문자_일반주서
 62
     0
100
AcDbTrace
 10
99.79800000000009
 20
72.74593265207679
 30
0.0
 11
99.79800000000009
 21
73.84659931874344
 31
0.0
 12
103.1000000000001
 22
73.29626598541012
 32
0.0
 13
103.1000000000001
 23
73.29626598541012
 33
0.0
  0
MTEXT
  5
2B6
330
2AE
100
AcDbEntity
  8
치수문자_일반주서
 62
     0
100
AcDbMText
 10
60.23750000000008
 20
77.67126598541012
 30
0.0
 40
3.5
 41
0.0
 71
     2
 72
     1
  1
\A1;85.73 [3 3/8]
  7
SLDTEXTSTYLE0
 73
     1
 44
1.0
  0
POINT
  5
2B7
330
2AE
100
AcDbEntity
  8
Defpoints
 62
     0
100
AcDbPoint
 10
17.37500000000007
 20
51.92305738881174
 30
0.0
  0
POINT
  5
2B8
330
2AE
100
AcDbEntity
  8
Defpoints
 62
     0
100
AcDbPoint
 10
103.1000000000001
 20
52.35104479257734
 30
0.0
  0
POINT
  5
2B9
330
2AE
100
AcDbEntity
  8
Defpoints
 62
     0
100
AcDbPoint
 10
103.1000000000001
 20
73.29626598541012
 30
0.0
  0
ENDBLK
  5
2B0
330
2AE
100
AcDbEntity
  8
0
100
AcDbBlockEnd
  0
BLOCK
  5
354
330
353
100
AcDbEntity
  8
0
100
AcDbBlockBegin
  2
*D12
 70
     1
 10
0.0
 20
0.0
 30
0.0
  3
*D12
  1
*D12
  0
LINE
  5
356
330
353
100
AcDbEntity
  8
치수문자_일반주서
 62
     0
370
    -2
100
AcDbLine
 10
123.0272061060106
 20
-32.60629801449298
 30
0.0
 11
84.6897061060106
 21
-32.60629801449312
 31
0.0
  0
LINE
  5
357
330
353
100
AcDbEntity
  8
치수문자_일반주서
 62
     0
370
    -2
100
AcDbLine
 10
123.0272061060106
 20
-37.36879801449298
 30
0.0
 11
84.68970610601062
 21
-37.36879801449312
 31
0.0
  0
LINE
  5
358
330
353
100
AcDbEntity
  8
치수문자_일반주서
 62
     0
370
    -2
100
AcDbLine
 10
84.68970610601062
 20
-35.90829801449312
 30
0.0
 11
84.6897061060106
 21
-34.06679801449312
 31
0.0
  0
SOLID
  5
359
330
353
100
AcDbEntity
  8
치수문자_일반주서
 62
     0
100
AcDbTrace
 10
85.24003943934395
 20
-35.90829801449312
 30
0.0
 11
84.13937277267729
 21
-35.90829801449312
 31
0.0
 12
84.6897061060106
 22
-32.60629801449312
 32
0.0
 13
84.6897061060106
 23
-32.60629801449312
 33
0.0
  0
SOLID
  5
35A
330
353
100
AcDbEntity
  8
치수문자_일반주서
 62
     0
100
AcDbTrace
 10
84.13937277267728
 20
-34.06679801449312
 30
0.0
 11
85.24003943934393
 21
-34.06679801449312
 31
0.0
 12
84.68970610601062
 22
-37.36879801449312
 32
0.0
 13
84.68970610601062
 23
-37.36879801449312
 33
0.0
  0
MTEXT
  5
35B
330
353
100
AcDbEntity
  8
치수문자_일반주서
 62
     0
100
AcDbMText
 10
80.3147061060106
 20
-34.98754801449299
 30
0.0
 40
3.5
 41
0.0
 71
     2
 72
     1
  1
\A1;%%c4.76 [3/16]
  7
SLDTEXTSTYLE0
 11
-2.983906501879684E-15
 21
1.0
 31
0.0
 73
     1
 44
1.0
  0
POINT
  5
35C
330
353
100
AcDbEntity
  8
Defpoints
 62
     0
100
AcDbPoint
 10
123.0897061060106
 20
-32.60629801449298
 30
0.0
  0
POINT
  5
35D
330
353
100
AcDbEntity
  8
Defpoints
 62
     0
100
AcDbPoint
 10
123.0897061060106
 20
-37.36879801449298
 30
0.0
  0
POINT
  5
35E
330
353
100
AcDbEntity
  8
Defpoints
 62
     0
100
AcDbPoint
 10
84.68970610601062
 20
-37.36879801449312
 30
0.0
  0
ENDBLK
  5
355
330
353
100
AcDbEntity
  8
0
100
AcDbBlockEnd
  0
BLOCK
  5
360
330
35F
100
AcDbEntity
  8
0
100
AcDbBlockBegin
  2
*D13
 70
     1
 10
0.0
 20
0.0
 30
0.0
  3
*D13
  1
*D13
  0
LINE
  5
362
330
35F
100
AcDbEntity
  8
치수문자_일반주서
 62
     0
370
    -2
100
AcDbLine
 10
183.4772061060106
 20
-37.36879801449297
 30
0.0
 11
202.4147061060108
 21
-37.3687980144929
 31
0.0
  0
LINE
  5
363
330
35F
100
AcDbEntity
  8
치수문자_일반주서
 62
     0
370
    -2
100
AcDbLine
 10
183.4772061060106
 20
-32.60831061072739
 30
0.0
 11
202.4147061060108
 21
-32.60831061072732
 31
0.0
  0
LINE
  5
364
330
35F
100
AcDbEntity
  8
치수문자_일반주서
 62
     0
370
    -2
100
AcDbLine
 10
202.4147061060108
 20
-32.60831061072732
 30
0.0
 11
202.4147061060106
 21
5.068877322163132
 31
0.0
  0
LINE
  5
365
330
35F
100
AcDbEntity
  8
치수문자_일반주서
 62
     0
370
    -2
100
AcDbLine
 10
202.4147061060108
 20
-37.3687980144929
 30
0.0
 11
202.4147061060108
 21
-32.60831061072732
 31
0.0
  0
LINE
  5
366
330
35F
100
AcDbEntity
  8
치수문자_일반주서
 62
     0
370
    -2
100
AcDbLine
 10
202.4147061060109
 20
-40.6707980144929
 30
0.0
 11
202.4147061060109
 21
-43.9727980144929
 31
0.0
  0
LINE
  5
367
330
35F
100
AcDbEntity
  8
치수문자_일반주서
 62
     0
370
    -2
100
AcDbLine
 10
202.4147061060108
 20
-29.30631061072732
 30
0.0
 11
202.4147061060108
 21
-26.00431061072732
 31
0.0
  0
SOLID
  5
368
330
35F
100
AcDbEntity
  8
치수문자_일반주서
 62
     0
100
AcDbTrace
 10
202.9650394393442
 20
-40.6707980144929
 30
0.0
 11
201.8643727726775
 21
-40.6707980144929
 31
0.0
 12
202.4147061060108
 22
-37.3687980144929
 32
0.0
 13
202.4147061060108
 23
-37.3687980144929
 33
0.0
  0
SOLID
  5
369
330
35F
100
AcDbEntity
  8
치수문자_일반주서
 62
     0
100
AcDbTrace
 10
201.8643727726775
 20
-29.30631061072732
 30
0.0
 11
202.9650394393441
 21
-29.30631061072731
 31
0.0
 12
202.4147061060108
 22
-32.60831061072732
 32
0.0
 13
202.4147061060108
 23
-32.60831061072732
 33
0.0
  0
MTEXT
  5
36A
330
35F
100
AcDbEntity
  8
치수문자_일반주서
 62
     0
100
AcDbMText
 10
198.0397061060107
 20
-8.931122677836894
 30
0.0
 40
3.5
 41
0.0
 71
     2
 72
     1
  1
\A1;%%c4.76 [3/16]
  7
SLDTEXTSTYLE0
 11
-5.970336022299352E-15
 21
1.0
 31
0.0
 73
     1
 44
1.0
  0
POINT
  5
36B
330
35F
100
AcDbEntity
  8
Defpoints
 62
     0
100
AcDbPoint
 10
183.4147061060106
 20
-37.36879801449297
 30
0.0
  0
POINT
  5
36C
330
35F
100
AcDbEntity
  8
Defpoints
 62
     0
100
AcDbPoint
 10
183.4147061060106
 20
-32.60831061072739
 30
0.0
  0
POINT
  5
36D
330
35F
100
AcDbEntity
  8
Defpoints
 62
     0
100
AcDbPoint
 10
202.4147061060107
 20
-32.60831061072732
 30
0.0
  0
ENDBLK
  5
361
330
35F
100
AcDbEntity
  8
0
100
AcDbBlockEnd
  0
BLOCK
  5
36F
330
36E
100
AcDbEntity
  8
0
100
AcDbBlockBegin
  2
*D14
 70
     1
 10
0.0
 20
0.0
 30
0.0
  3
*D14
  1
*D14
  0
LINE
  5
371
330
36E
100
AcDbEntity
  8
치수문자_일반주서
 62
     0
370
    -2
100
AcDbLine
 10
183.4147061060106
 20
-32.54581061072739
 30
0.0
 11
183.4147061060106
 21
-20.62954435962264
 31
0.0
  0
LINE
  5
372
330
36E
100
AcDbEntity
  8
치수문자_일반주서
 62
     0
370
    -2
100
AcDbLine
 10
158.0147061060106
 20
-32.55213940119006
 30
0.0
 11
158.0147061060106
 21
-20.62954435962264
 31
0.0
  0
LINE
  5
373
330
36E
100
AcDbEntity
  8
치수문자_일반주서
 62
     0
370
    -2
100
AcDbLine
 10
158.0147061060106
 20
-20.62954435962264
 30
0.0
 11
125.3000184448651
 21
-20.62954435962264
 31
0.0
  0
LINE
  5
374
330
36E
100
AcDbEntity
  8
치수문자_일반주서
 62
     0
370
    -2
100
AcDbLine
 10
183.4147061060106
 20
-20.62954435962264
 30
0.0
 11
158.0147061060106
 21
-20.62954435962264
 31
0.0
  0
LINE
  5
375
330
36E
100
AcDbEntity
  8
치수문자_일반주서
 62
     0
370
    -2
100
AcDbLine
 10
186.7167061060106
 20
-20.62954435962264
 30
0.0
 11
190.0187061060106
 21
-20.62954435962264
 31
0.0
  0
LINE
  5
376
330
36E
100
AcDbEntity
  8
치수문자_일반주서
 62
     0
370
    -2
100
AcDbLine
 10
154.7127061060106
 20
-20.62954435962264
 30
0.0
 11
151.4107061060107
 21
-20.62954435962264
 31
0.0
  0
SOLID
  5
377
330
36E
100
AcDbEntity
  8
치수문자_일반주서
 62
     0
100
AcDbTrace
 10
186.7167061060106
 20
-20.07921102628931
 30
0.0
 11
186.7167061060106
 21
-21.17987769295598
 31
0.0
 12
183.4147061060106
 22
-20.62954435962264
 32
0.0
 13
183.4147061060106
 23
-20.62954435962264
 33
0.0
  0
SOLID
  5
378
330
36E
100
AcDbEntity
  8
치수문자_일반주서
 62
     0
100
AcDbTrace
 10
154.7127061060106
 20
-21.17987769295598
 30
0.0
 11
154.7127061060106
 21
-20.07921102628931
 31
0.0
 12
158.0147061060106
 22
-20.62954435962264
 32
0.0
 13
158.0147061060106
 23
-20.62954435962264
 33
0.0
  0
MTEXT
  5
379
330
36E
100
AcDbEntity
  8
치수문자_일반주서
 62
     0
100
AcDbMText
 10
134.0500184448651
 20
-16.25454435962264
 30
0.0
 40
3.5
 41
0.0
 71
     2
 72
     1
  1
\A1;25.4 [1]
  7
SLDTEXTSTYLE0
 73
     1
 44
1.0
  0
POINT
  5
37A
330
36E
100
AcDbEntity
  8
Defpoints
 62
     0
100
AcDbPoint
 10
183.4147061060106
 20
-32.60831061072739
 30
0.0
  0
POINT
  5
37B
330
36E
100
AcDbEntity
  8
Defpoints
 62
     0
100
AcDbPoint
 10
158.0147061060106
 20
-32.61463940119006
 30
0.0
  0
POINT
  5
37C
330
36E
100
AcDbEntity
  8
Defpoints
 62
     0
100
AcDbPoint
 10
158.0147061060106
 20
-20.62954435962264
 30
0.0
  0
ENDBLK
  5
370
330
36E
100
AcDbEntity
  8
0
100
AcDbBlockEnd
  0
BLOCK
  5
37E
330
37D
100
AcDbEntity
  8
0
100
AcDbBlockBegin
  2
*D15
 70
     1
 10
0.0
 20
0.0
 30
0.0
  3
*D15
  1
*D15
  0
LINE
  5
380
330
37D
100
AcDbEntity
  8
치수문자_일반주서
 62
     0
370
    -2
100
AcDbLine
 10
97.68970610601063
 20
-32.97379801449298
 30
0.0
 11
97.68970610601063
 21
-11.66308941789461
 31
0.0
  0
LINE
  5
381
330
37D
100
AcDbEntity
  8
치수문자_일반주서
 62
     0
370
    -2
100
AcDbLine
 10
183.4147061060106
 20
-32.54581061072739
 30
0.0
 11
183.4147061060106
 21
-11.66308941789461
 31
0.0
  0
LINE
  5
382
330
37D
100
AcDbEntity
  8
치수문자_일반주서
 62
     0
370
    -2
100
AcDbLine
 10
100.9917061060106
 20
-11.66308941789461
 30
0.0
 11
180.1127061060106
 21
-11.66308941789461
 31
0.0
  0
SOLID
  5
383
330
37D
100
AcDbEntity
  8
치수문자_일반주서
 62
     0
100
AcDbTrace
 10
100.9917061060106
 20
-11.11275608456128
 30
0.0
 11
100.9917061060106
 21
-12.21342275122794
 31
0.0
 12
97.68970610601063
 22
-11.66308941789461
 32
0.0
 13
97.68970610601063
 23
-11.66308941789461
 33
0.0
  0
SOLID
  5
384
330
37D
100
AcDbEntity
  8
치수문자_일반주서
 62
     0
100
AcDbTrace
 10
180.1127061060106
 20
-12.21342275122794
 30
0.0
 11
180.1127061060106
 21
-11.11275608456128
 31
0.0
 12
183.4147061060106
 22
-11.66308941789461
 32
0.0
 13
183.4147061060106
 23
-11.66308941789461
 33
0.0
  0
MTEXT
  5
385
330
37D
100
AcDbEntity
  8
치수문자_일반주서
 62
     0
100
AcDbMText
 10
140.5522061060106
 20
-7.288089417894611
 30
0.0
 40
3.5
 41
0.0
 71
     2
 72
     1
  1
\A1;85.73 [3 3/8]
  7
SLDTEXTSTYLE0
 73
     1
 44
1.0
  0
POINT
  5
386
330
37D
100
AcDbEntity
  8
Defpoints
 62
     0
100
AcDbPoint
 10
97.68970610601063
 20
-33.03629801449298
 30
0.0
  0
POINT
  5
387
330
37D
100
AcDbEntity
  8
Defpoints
 62
     0
100
AcDbPoint
 10
183.4147061060106
 20
-32.60831061072739
 30
0.0
  0
POINT
  5
388
330
37D
100
AcDbEntity
  8
Defpoints
 62
     0
100
AcDbPoint
 10
183.4147061060106
 20
-11.66308941789461
 30
0.0
  0
ENDBLK
  5
37F
330
37D
100
AcDbEntity
  8
0
100
AcDbBlockEnd
  0
BLOCK
  5
434
330
433
100
AcDbEntity
  8
0
100
AcDbBlockBegin
  2
*D17
 70
     1
 10
0.0
 20
0.0
 30
0.0
  3
*D17
  1
*D17
  0
LINE
  5
436
330
433
100
AcDbEntity
  8
치수문자_일반주서
 62
     0
370
    -2
100
AcDbLine
 10
85.61250000000003
 20
6.603999999999942
 30
0.0
 11
101.1336214778979
 21
6.603999999999999
 31
0.0
  0
LINE
  5
437
330
433
100
AcDbEntity
  8
치수문자_일반주서
 62
     0
370
    -2
100
AcDbLine
 10
85.61250000000001
 20
10.96962499999994
 30
0.0
 11
101.1336214778979
 21
10.969625
 31
0.0
  0
LINE
  5
438
330
433
100
AcDbEntity
  8
치수문자_일반주서
 62
     0
370
    -2
100
AcDbLine
 10
101.1336214778979
 20
10.969625
 30
0.0
 11
101.1336214778977
 21
48.53082489362962
 31
0.0
  0
LINE
  5
439
330
433
100
AcDbEntity
  8
치수문자_일반주서
 62
     0
370
    -2
100
AcDbLine
 10
101.1336214778979
 20
6.603999999999999
 30
0.0
 11
101.1336214778979
 21
10.969625
 31
0.0
  0
LINE
  5
43A
330
433
100
AcDbEntity
  8
치수문자_일반주서
 62
     0
370
    -2
100
AcDbLine
 10
101.1336214778979
 20
3.302
 30
0.0
 11
101.1336214778979
 21
0.0
 31
0.0
  0
LINE
  5
43B
330
433
100
AcDbEntity
  8
치수문자_일반주서
 62
     0
370
    -2
100
AcDbLine
 10
101.1336214778978
 20
14.271625
 30
0.0
 11
101.1336214778978
 21
17.573625
 31
0.0
  0
SOLID
  5
43C
330
433
100
AcDbEntity
  8
치수문자_일반주서
 62
     0
100
AcDbTrace
 10
101.6839548112312
 20
3.302000000000001
 30
0.0
 11
100.5832881445646
 21
3.301999999999998
 31
0.0
 12
101.1336214778979
 22
6.603999999999999
 32
0.0
 13
101.1336214778979
 23
6.603999999999999
 33
0.0
  0
SOLID
  5
43D
330
433
100
AcDbEntity
  8
치수문자_일반주서
 62
     0
100
AcDbTrace
 10
100.5832881445645
 20
14.271625
 30
0.0
 11
101.6839548112312
 21
14.271625
 31
0.0
 12
101.1336214778979
 22
10.969625
 32
0.0
 13
101.1336214778979
 23
10.969625
 33
0.0
  0
MTEXT
  5
43E
330
433
100
AcDbEntity
  8
치수문자_일반주서
 62
     0
100
AcDbMText
 10
96.75862147789779
 20
33.65582489362961
 30
0.0
 40
3.5
 41
0.0
 71
     2
 72
     1
  1
\A1;%%c4.37 [11/64]
  7
SLDTEXTSTYLE0
 11
-3.255170729323293E-15
 21
1.0
 31
0.0
 73
     1
 44
1.0
  0
POINT
  5
43F
330
433
100
AcDbEntity
  8
Defpoints
 62
     0
100
AcDbPoint
 10
85.55000000000003
 20
6.603999999999942
 30
0.0
  0
POINT
  5
440
330
433
100
AcDbEntity
  8
Defpoints
 62
     0
100
AcDbPoint
 10
85.55000000000001
 20
10.96962499999994
 30
0.0
  0
POINT
  5
441
330
433
100
AcDbEntity
  8
Defpoints
 62
     0
100
AcDbPoint
 10
101.1336214778979
 20
10.969625
 30
0.0
  0
ENDBLK
  5
435
330
433
100
AcDbEntity
  8
0
100
AcDbBlockEnd
  0
BLOCK
  5
443
330
442
100
AcDbEntity
  8
0
100
AcDbBlockBegin
  2
*D18
 70
     1
 10
0.0
 20
0.0
 30
0.0
  3
*D18
  1
*D18
  0
LINE
  5
445
330
442
100
AcDbEntity
  8
치수문자_일반주서
 62
     0
370
    -2
100
AcDbLine
 10
85.55000000000001
 20
11.03212499999994
 30
0.0
 11
85.55000000000001
 21
29.81339541051621
 31
0.0
  0
LINE
  5
446
330
442
100
AcDbEntity
  8
치수문자_일반주서
 62
     0
370
    -2
100
AcDbLine
 10
63.32500000000002
 20
11.02445545752755
 30
0.0
 11
63.32500000000002
 21
29.81339541051621
 31
0.0
  0
LINE
  5
447
330
442
100
AcDbEntity
  8
치수문자_일반주서
 62
     0
370
    -2
100
AcDbLine
 10
63.32500000000002
 20
29.81339541051621
 30
0.0
 11
23.71196812713338
 21
29.81339541051621
 31
0.0
  0
LINE
  5
448
330
442
100
AcDbEntity
  8
치수문자_일반주서
 62
     0
370
    -2
100
AcDbLine
 10
85.55000000000001
 20
29.81339541051621
 30
0.0
 11
63.32500000000002
 21
29.81339541051621
 31
0.0
  0
LINE
  5
449
330
442
100
AcDbEntity
  8
치수문자_일반주서
 62
     0
370
    -2
100
AcDbLine
 10
88.852
 20
29.81339541051621
 30
0.0
 11
92.154
 21
29.81339541051621
 31
0.0
  0
LINE
  5
44A
330
442
100
AcDbEntity
  8
치수문자_일반주서
 62
     0
370
    -2
100
AcDbLine
 10
60.02300000000002
 20
29.81339541051621
 30
0.0
 11
56.72100000000002
 21
29.81339541051621
 31
0.0
  0
SOLID
  5
44B
330
442
100
AcDbEntity
  8
치수문자_일반주서
 62
     0
100
AcDbTrace
 10
88.852
 20
30.36372874384954
 30
0.0
 11
88.852
 21
29.26306207718287
 31
0.0
 12
85.55000000000001
 22
29.81339541051621
 32
0.0
 13
85.55000000000001
 23
29.81339541051621
 33
0.0
  0
SOLID
  5
44C
330
442
100
AcDbEntity
  8
치수문자_일반주서
 62
     0
100
AcDbTrace
 10
60.02300000000002
 20
29.26306207718287
 30
0.0
 11
60.02300000000002
 21
30.36372874384954
 31
0.0
 12
63.32500000000002
 22
29.81339541051621
 32
0.0
 13
63.32500000000002
 23
29.81339541051621
 33
0.0
  0
MTEXT
  5
44D
330
442
100
AcDbEntity
  8
치수문자_일반주서
 62
     0
100
AcDbMText
 10
36.83696812713338
 20
34.18839541051621
 30
0.0
 40
3.5
 41
0.0
 71
     2
 72
     1
  1
\A1;22.23 [7/8]
  7
SLDTEXTSTYLE0
 73
     1
 44
1.0
  0
POINT
  5
44E
330
442
100
AcDbEntity
  8
Defpoints
 62
     0
100
AcDbPoint
 10
85.55000000000001
 20
10.96962499999994
 30
0.0
  0
POINT
  5
44F
330
442
100
AcDbEntity
  8
Defpoints
 62
     0
100
AcDbPoint
 10
63.32500000000002
 20
10.96195545752755
 30
0.0
  0
POINT
  5
450
330
442
100
AcDbEntity
  8
Defpoints
 62
     0
100
AcDbPoint
 10
63.32500000000002
 20
29.81339541051621
 30
0.0
  0
ENDBLK
  5
444
330
442
100
AcDbEntity
  8
0
100
AcDbBlockEnd
  0
BLOCK
  5
452
330
451
100
AcDbEntity
  8
0
100
AcDbBlockBegin
  2
*D19
 70
     1
 10
0.0
 20
0.0
 30
0.0
  3
*D19
  1
*D19
  0
LINE
  5
454
330
451
100
AcDbEntity
  8
치수문자_일반주서
 62
     0
370
    -2
100
AcDbLine
 10
3.000000000000021
 20
10.80056249999993
 30
0.0
 11
3.000000000000028
 21
45.16806249999996
 31
0.0
  0
LINE
  5
455
330
451
100
AcDbEntity
  8
치수문자_일반주서
 62
     0
370
    -2
100
AcDbLine
 10
85.55000000000001
 20
11.03212499999994
 30
0.0
 11
85.55000000000001
 21
45.16806249999996
 31
0.0
  0
LINE
  5
456
330
451
100
AcDbEntity
  8
치수문자_일반주서
 62
     0
370
    -2
100
AcDbLine
 10
6.302000000000028
 20
45.16806249999996
 30
0.0
 11
82.24800000000002
 21
45.16806249999996
 31
0.0
  0
SOLID
  5
457
330
451
100
AcDbEntity
  8
치수문자_일반주서
 62
     0
100
AcDbTrace
 10
6.302000000000028
 20
45.7183958333333
 30
0.0
 11
6.302000000000028
 21
44.61772916666663
 31
0.0
 12
3.000000000000028
 22
45.16806249999996
 32
0.0
 13
3.000000000000028
 23
45.16806249999996
 33
0.0
  0
SOLID
  5
458
330
451
100
AcDbEntity
  8
치수문자_일반주서
 62
     0
100
AcDbTrace
 10
82.24800000000002
 20
44.61772916666663
 30
0.0
 11
82.24800000000002
 21
45.7183958333333
 31
0.0
 12
85.55000000000001
 22
45.16806249999996
 32
0.0
 13
85.55000000000001
 23
45.16806249999996
 33
0.0
  0
MTEXT
  5
459
330
451
100
AcDbEntity
  8
치수문자_일반주서
 62
     0
100
AcDbMText
 10
44.27500000000003
 20
49.54306249999996
 30
0.0
 40
3.5
 41
0.0
 71
     2
 72
     1
  1
\A1;82.55 [3 1/4]
  7
SLDTEXTSTYLE0
 73
     1
 44
1.0
  0
POINT
  5
45A
330
451
100
AcDbEntity
  8
Defpoints
 62
     0
100
AcDbPoint
 10
3.000000000000021
 20
10.73806249999993
 30
0.0
  0
POINT
  5
45B
330
451
100
AcDbEntity
  8
Defpoints
 62
     0
100
AcDbPoint
 10
85.55000000000001
 20
10.96962499999994
 30
0.0
  0
POINT
  5
45C
330
451
100
AcDbEntity
  8
Defpoints
 62
     0
100
AcDbPoint
 10
85.55000000000001
 20
45.16806249999996
 30
0.0
  0
ENDBLK
  5
453
330
451
100
AcDbEntity
  8
0
100
AcDbBlockEnd
  0
BLOCK
  5
4A8
330
4A7
100
AcDbEntity
  8
0
100
AcDbBlockBegin
  2
*D20
 70
     1
 10
0.0
 20
0.0
 30
0.0
  3
*D20
  1
*D20
  0
LINE
  5
4AA
330
4A7
100
AcDbEntity
  8
치수문자_일반주서
 62
     0
370
    -2
100
AcDbLine
 10
185.7421187038309
 20
35.1059466111998
 30
0.0
 11
201.2632401817289
 21
35.10594661119985
 31
0.0
  0
LINE
  5
4AB
330
4A7
100
AcDbEntity
  8
치수문자_일반주서
 62
     0
370
    -2
100
AcDbLine
 10
185.7421187038309
 20
39.4715716111998
 30
0.0
 11
201.2632401817288
 21
39.47157161119986
 31
0.0
  0
LINE
  5
4AC
330
4A7
100
AcDbEntity
  8
치수문자_일반주서
 62
     0
370
    -2
100
AcDbLine
 10
201.2632401817288
 20
39.47157161119986
 30
0.0
 11
201.2632401817286
 21
77.03277150482947
 31
0.0
  0
LINE
  5
4AD
330
4A7
100
AcDbEntity
  8
치수문자_일반주서
 62
     0
370
    -2
100
AcDbLine
 10
201.2632401817289
 20
35.10594661119985
 30
0.0
 11
201.2632401817288
 21
39.47157161119986
 31
0.0
  0
LINE
  5
4AE
330
4A7
100
AcDbEntity
  8
치수문자_일반주서
 62
     0
370
    -2
100
AcDbLine
 10
201.2632401817289
 20
31.80394661119985
 30
0.0
 11
201.2632401817289
 21
28.50194661119986
 31
0.0
  0
LINE
  5
4AF
330
4A7
100
AcDbEntity
  8
치수문자_일반주서
 62
     0
370
    -2
100
AcDbLine
 10
201.2632401817288
 20
42.77357161119986
 30
0.0
 11
201.2632401817288
 21
46.07557161119986
 31
0.0
  0
SOLID
  5
4B0
330
4A7
100
AcDbEntity
  8
치수문자_일반주서
 62
     0
100
AcDbTrace
 10
201.8135735150622
 20
31.80394661119986
 30
0.0
 11
200.7129068483956
 21
31.80394661119985
 31
0.0
 12
201.2632401817289
 22
35.10594661119985
 32
0.0
 13
201.2632401817289
 23
35.10594661119985
 33
0.0
  0
SOLID
  5
4B1
330
4A7
100
AcDbEntity
  8
치수문자_일반주서
 62
     0
100
AcDbTrace
 10
200.7129068483955
 20
42.77357161119985
 30
0.0
 11
201.8135735150621
 21
42.77357161119986
 31
0.0
 12
201.2632401817288
 22
39.47157161119986
 32
0.0
 13
201.2632401817288
 23
39.47157161119986
 33
0.0
  0
MTEXT
  5
4B2
330
4A7
100
AcDbEntity
  8
치수문자_일반주서
 62
     0
100
AcDbMText
 10
196.8882401817287
 20
62.15777150482945
 30
0.0
 40
3.5
 41
0.0
 71
     2
 72
     1
  1
\A1;%%c4.37 [11/64]
  7
SLDTEXTSTYLE0
 11
-6.510341458646585E-15
 21
1.0
 31
0.0
 73
     1
 44
1.0
  0
POINT
  5
4B3
330
4A7
100
AcDbEntity
  8
Defpoints
 62
     0
100
AcDbPoint
 10
185.6796187038309
 20
35.1059466111998
 30
0.0
  0
POINT
  5
4B4
330
4A7
100
AcDbEntity
  8
Defpoints
 62
     0
100
AcDbPoint
 10
185.6796187038309
 20
39.4715716111998
 30
0.0
  0
POINT
  5
4B5
330
4A7
100
AcDbEntity
  8
Defpoints
 62
     0
100
AcDbPoint
 10
201.2632401817287
 20
39.47157161119986
 30
0.0
  0
ENDBLK
  5
4A9
330
4A7
100
AcDbEntity
  8
0
100
AcDbBlockEnd
  0
BLOCK
  5
4B7
330
4B6
100
AcDbEntity
  8
0
100
AcDbBlockBegin
  2
*D21
 70
     1
 10
0.0
 20
0.0
 30
0.0
  3
*D21
  1
*D21
  0
LINE
  5
4B9
330
4B6
100
AcDbEntity
  8
치수문자_일반주서
 62
     0
370
    -2
100
AcDbLine
 10
185.6796187038309
 20
39.5340716111998
 30
0.0
 11
185.6796187038309
 21
58.31534202171606
 31
0.0
  0
LINE
  5
4BA
330
4B6
100
AcDbEntity
  8
치수문자_일반주서
 62
     0
370
    -2
100
AcDbLine
 10
163.4546187038309
 20
39.52640206872741
 30
0.0
 11
163.4546187038309
 21
58.31534202171606
 31
0.0
  0
LINE
  5
4BB
330
4B6
100
AcDbEntity
  8
치수문자_일반주서
 62
     0
370
    -2
100
AcDbLine
 10
163.4546187038309
 20
58.31534202171606
 30
0.0
 11
123.8415868309643
 21
58.31534202171606
 31
0.0
  0
LINE
  5
4BC
330
4B6
100
AcDbEntity
  8
치수문자_일반주서
 62
     0
370
    -2
100
AcDbLine
 10
185.6796187038309
 20
58.31534202171606
 30
0.0
 11
163.4546187038309
 21
58.31534202171606
 31
0.0
  0
LINE
  5
4BD
330
4B6
100
AcDbEntity
  8
치수문자_일반주서
 62
     0
370
    -2
100
AcDbLine
 10
188.9816187038309
 20
58.31534202171606
 30
0.0
 11
192.2836187038309
 21
58.31534202171606
 31
0.0
  0
LINE
  5
4BE
330
4B6
100
AcDbEntity
  8
치수문자_일반주서
 62
     0
370
    -2
100
AcDbLine
 10
160.1526187038309
 20
58.31534202171606
 30
0.0
 11
156.8506187038309
 21
58.31534202171606
 31
0.0
  0
SOLID
  5
4BF
330
4B6
100
AcDbEntity
  8
치수문자_일반주서
 62
     0
100
AcDbTrace
 10
188.9816187038309
 20
58.8656753550494
 30
0.0
 11
188.9816187038309
 21
57.76500868838273
 31
0.0
 12
185.6796187038309
 22
58.31534202171606
 32
0.0
 13
185.6796187038309
 23
58.31534202171606
 33
0.0
  0
SOLID
  5
4C0
330
4B6
100
AcDbEntity
  8
치수문자_일반주서
 62
     0
100
AcDbTrace
 10
160.1526187038309
 20
57.76500868838273
 30
0.0
 11
160.1526187038309
 21
58.8656753550494
 31
0.0
 12
163.4546187038309
 22
58.31534202171606
 32
0.0
 13
163.4546187038309
 23
58.31534202171606
 33
0.0
  0
MTEXT
  5
4C1
330
4B6
100
AcDbEntity
  8
치수문자_일반주서
 62
     0
100
AcDbMText
 10
136.9665868309643
 20
62.69034202171606
 30
0.0
 40
3.5
 41
0.0
 71
     2
 72
     1
  1
\A1;22.23 [7/8]
  7
SLDTEXTSTYLE0
 73
     1
 44
1.0
  0
POINT
  5
4C2
330
4B6
100
AcDbEntity
  8
Defpoints
 62
     0
100
AcDbPoint
 10
185.6796187038309
 20
39.4715716111998
 30
0.0
  0
POINT
  5
4C3
330
4B6
100
AcDbEntity
  8
Defpoints
 62
     0
100
AcDbPoint
 10
163.4546187038309
 20
39.46390206872741
 30
0.0
  0
POINT
  5
4C4
330
4B6
100
AcDbEntity
  8
Defpoints
 62
     0
100
AcDbPoint
 10
163.4546187038309
 20
58.31534202171606
 30
0.0
  0
ENDBLK
  5
4B8
330
4B6
100
AcDbEntity
  8
0
100
AcDbBlockEnd
  0
BLOCK
  5
4C6
330
4C5
100
AcDbEntity
  8
0
100
AcDbBlockBegin
  2
*D22
 70
     1
 10
0.0
 20
0.0
 30
0.0
  3
*D22
  1
*D22
  0
LINE
  5
4C8
330
4C5
100
AcDbEntity
  8
치수문자_일반주서
 62
     0
370
    -2
100
AcDbLine
 10
103.1296187038309
 20
39.30250911119978
 30
0.0
 11
103.1296187038309
 21
73.67000911119982
 31
0.0
  0
LINE
  5
4C9
330
4C5
100
AcDbEntity
  8
치수문자_일반주서
 62
     0
370
    -2
100
AcDbLine
 10
185.6796187038309
 20
39.5340716111998
 30
0.0
 11
185.6796187038309
 21
73.67000911119982
 31
0.0
  0
LINE
  5
4CA
330
4C5
100
AcDbEntity
  8
치수문자_일반주서
 62
     0
370
    -2
100
AcDbLine
 10
106.4316187038309
 20
73.67000911119982
 30
0.0
 11
182.3776187038309
 21
73.67000911119982
 31
0.0
  0
SOLID
  5
4CB
330
4C5
100
AcDbEntity
  8
치수문자_일반주서
 62
     0
100
AcDbTrace
 10
106.4316187038309
 20
74.22034244453314
 30
0.0
 11
106.4316187038309
 21
73.11967577786649
 31
0.0
 12
103.1296187038309
 22
73.67000911119982
 32
0.0
 13
103.1296187038309
 23
73.67000911119982
 33
0.0
  0
SOLID
  5
4CC
330
4C5
100
AcDbEntity
  8
치수문자_일반주서
 62
     0
100
AcDbTrace
 10
182.3776187038309
 20
73.11967577786649
 30
0.0
 11
182.3776187038309
 21
74.22034244453314
 31
0.0
 12
185.6796187038309
 22
73.67000911119982
 32
0.0
 13
185.6796187038309
 23
73.67000911119982
 33
0.0
  0
MTEXT
  5
4CD
330
4C5
100
AcDbEntity
  8
치수문자_일반주서
 62
     0
100
AcDbMText
 10
144.4046187038309
 20
78.04500911119982
 30
0.0
 40
3.5
 41
0.0
 71
     2
 72
     1
  1
\A1;82.55 [3 1/4]
  7
SLDTEXTSTYLE0
 73
     1
 44
1.0
  0
POINT
  5
4CE
330
4C5
100
AcDbEntity
  8
Defpoints
 62
     0
100
AcDbPoint
 10
103.1296187038309
 20
39.24000911119978
 30
0.0
  0
POINT
  5
4CF
330
4C5
100
AcDbEntity
  8
Defpoints
 62
     0
100
AcDbPoint
 10
185.6796187038309
 20
39.4715716111998
 30
0.0
  0
POINT
  5
4D0
330
4C5
100
AcDbEntity
  8
Defpoints
 62
     0
100
AcDbPoint
 10
185.6796187038309
 20
73.67000911119982
 30
0.0
  0
ENDBLK
  5
4C7
330
4C5
100
AcDbEntity
  8
0
100
AcDbBlockEnd
  0
ENDSEC
  0
SECTION
  2
ENTITIES
  0
LINE
  5
96
330
1F
100
AcDbEntity
  8
외형선
  6
Continuous
370
    15
100
AcDbLine
 10
17.30942116787307
 20
2.381249999999997
 30
0.0
 11
-17.30942116787307
 21
2.381249999999995
 31
0.0
  0
LINE
  5
97
330
1F
100
AcDbEntity
  8
외형선
  6
Continuous
370
    15
100
AcDbLine
 10
-17.30942116787308
 20
-2.381250000000001
 30
0.0
 11
17.30942116787307
 21
-2.381249999999999
 31
0.0
  0
LINE
  5
98
330
1F
100
AcDbEntity
  8
외형선
  6
Continuous
370
    15
100
AcDbLine
 10
17.30942116787307
 20
-2.381250000000001
 30
0.0
 11
18.05000000000002
 21
-2.182812500000001
 31
0.0
  0
LINE
  5
99
330
1F
100
AcDbEntity
  8
외형선
  6
Continuous
370
    15
100
AcDbLine
 10
18.05000000000002
 20
2.182812499999999
 30
0.0
 11
17.30942116787307
 21
2.381249999999999
 31
0.0
  0
LINE
  5
9C
330
1F
100
AcDbEntity
  8
외형선
  6
Continuous
370
    15
100
AcDbLine
 10
18.73346780456288
 20
2.182812499999999
 30
0.0
 11
18.05000000000002
 21
2.182812499999999
 31
0.0
  0
LINE
  5
9D
330
1F
100
AcDbEntity
  8
외형선
  6
Continuous
370
    15
100
AcDbLine
 10
18.05000000000002
 20
-2.182812500000001
 30
0.0
 11
18.73346780456288
 21
-2.182812500000001
 31
0.0
  0
LINE
  5
9E
330
1F
100
AcDbEntity
  8
0
  6
Continuous
 62
     1
370
    15
100
AcDbLine
 10
35.05233307235154
 20
0.8423761222593291
 30
0.0
 11
35.01364389688378
 21
0.8622154446700079
 31
0.0
  0
SPLINE
  5
9F
330
1F
100
AcDbEntity
  8
0
  6
Continuous
 62
     1
370
    15
100
AcDbSpline
210
0.0
220
0.0
230
1.0
 70
     8
 71
     3
 72
     9
 73
     5
 74
     0
 42
0.000000001
 43
0.00000001
 40
0.0
 40
0.0
 40
0.0
 40
0.0
 40
0.4668153716651871
 40
1.0
 40
1.0
 40
1.0
 40
1.0
 10
35.62055731892936
 20
0.5593248976572959
 30
0.0
 10
35.5321332159308
 20
0.601244128378305
 30
0.0
 10
35.34271335453431
 20
0.6910424368004942
 30
0.0
 10
35.15331654164156
 20
0.7897478912265523
 30
0.0
 10
35.05233307235154
 20
0.8423761222593291
 30
0.0
  0
SPLINE
  5
A0
330
1F
100
AcDbEntity
  8
0
  6
Continuous
 62
     1
370
    15
100
AcDbSpline
210
0.0
220
0.0
230
1.0
 70
     8
 71
     3
 72
     9
 73
     5
 74
     0
 42
0.000000001
 43
0.00000001
 40
0.0
 40
0.0
 40
0.0
 40
0.0
 40
0.4371959649994251
 40
1.0
 40
1.0
 40
1.0
 40
1.0
 10
23.74321091995639
 20
0.5592288540561984
 30
0.0
 10
23.65469753804022
 20
0.6012305945577539
 30
0.0
 10
23.45224054163062
 20
0.6973013359737014
 30
0.0
 10
23.24984503722164
 20
0.8028788200821376
 30
0.0
 10
23.13593603067428
 20
0.8622982541435746
 30
0.0
  0
LINE
  5
A1
330
1F
100
AcDbEntity
  8
0
  6
Continuous
 62
     1
370
    15
100
AcDbLine
 10
34.65822434712048
 20
0.4802971963723677
 30
0.0
 11
34.38980774627093
 21
0.6274320188389919
 31
0.0
  0
LINE
  5
A2
330
1F
100
AcDbEntity
  8
0
  6
Continuous
 62
     1
370
    15
100
AcDbLine
 10
22.77063026007728
 20
0.4858858171727415
 30
0.0
 11
22.51200379832969
 21
0.6275710780620295
 31
0.0
  0
LINE
  5
A3
330
1F
100
AcDbEntity
  8
0
  6
Continuous
 62
     1
370
    15
100
AcDbLine
 10
30.61119102327476
 20
2.1828125
 30
0.0
 11
29.55305099933956
 21
2.1828125
 31
0.0
  0
LINE
  5
A4
330
1F
100
AcDbEntity
  8
0
  6
Continuous
 62
     1
370
    15
100
AcDbLine
 10
29.55305099933954
 20
-2.182812500000003
 30
0.0
 11
30.61119102327477
 21
-2.182812500000003
 31
0.0
  0
SPLINE
  5
A5
330
1F
100
AcDbEntity
  8
0
  6
Continuous
 62
     1
370
    15
100
AcDbSpline
210
0.0
220
0.0
230
1.0
 70
     8
 71
     3
 72
    10
 73
     6
 74
     0
 42
0.000000001
 43
0.00000001
 40
0.0
 40
0.0
 40
0.0
 40
0.0
 40
0.5472426786835168
 40
0.738188433324479
 40
1.0
 40
1.0
 40
1.0
 40
1.0
 10
19.73973086368169
 20
-1.816165597706851
 30
0.0
 10
20.33827235604556
 20
-1.768818174266805
 30
0.0
 10
21.1456589575268
 20
-1.704950128712976
 30
0.0
 10
22.23831630882241
 20
-1.702138108222854
 30
0.0
 10
22.73350985443123
 20
-1.722660926614963
 30
0.0
 10
23.01986060323079
 20
-1.734528456929462
 30
0.0
  0
SPLINE
  5
A6
330
1F
100
AcDbEntity
  8
0
  6
Continuous
 62
     1
370
    15
100
AcDbSpline
210
0.0
220
0.0
230
1.0
 70
     8
 71
     3
 72
    10
 73
     6
 74
     0
 42
0.000000001
 43
0.00000001
 40
0.0
 40
0.0
 40
0.0
 40
0.0
 40
0.4805461919749551
 40
0.9036308446359255
 40
1.0
 40
1.0
 40
1.0
 40
1.0
 10
34.8976964395667
 20
1.734543678950431
 30
0.0
 10
34.61088610341281
 20
1.723086100484539
 30
0.0
 10
34.07156091337454
 20
1.701540988943722
 30
0.0
 10
33.47529245650857
 20
1.701292482535691
 30
0.0
 10
33.16541443039094
 20
1.71577726845248
 30
0.0
 10
33.10792580833927
 20
1.718464488303149
 30
0.0
  0
SPLINE
  5
A7
330
1F
100
AcDbEntity
  8
0
  6
Continuous
 62
     1
370
    15
100
AcDbSpline
210
0.0
220
0.0
230
1.0
 70
     8
 71
     3
 72
    11
 73
     7
 74
     0
 42
0.000000001
 43
0.00000001
 40
0.0
 40
0.0
 40
0.0
 40
0.0
 40
0.261848686025091
 40
0.5073268651921207
 40
0.73799898462333
 40
1.0
 40
1.0
 40
1.0
 40
1.0
 10
31.61488639067626
 20
-1.816406887198175
 30
0.0
 10
31.90149086008792
 20
-1.790631507398679
 30
0.0
 10
32.45678158628517
 20
-1.740692197672445
 30
0.0
 10
33.26423501380017
 20
-1.707032936223177
 30
0.0
 10
34.0715763986274
 20
-1.699894390913584
 30
0.0
 10
34.61089147944428
 20
-1.72251444932131
 30
0.0
 10
34.8976964395667
 20
-1.734543678950433
 30
0.0
  0
SPLINE
  5
A8
330
1F
100
AcDbEntity
  8
0
  6
Continuous
 62
     1
370
    15
100
AcDbSpline
210
0.0
220
0.0
230
1.0
 70
     8
 71
     3
 72
    10
 73
     6
 74
     0
 42
0.000000001
 43
0.00000001
 40
0.0
 40
0.0
 40
0.0
 40
0.0
 40
0.4695453111694417
 40
0.8119965058123912
 40
1.0
 40
1.0
 40
1.0
 40
1.0
 10
23.01986060323079
 20
1.73452845692946
 30
0.0
 10
22.73349850732243
 20
1.723537837673335
 30
0.0
 10
22.23828533887321
 20
1.704531483610377
 30
0.0
 10
21.62913686104582
 20
1.698278067019502
 30
0.0
 10
21.30567679781659
 20
1.720803302106114
 30
0.0
 10
21.19103623869305
 20
1.728786685028068
 30
0.0
  0
SPLINE
  5
A9
330
1F
100
AcDbEntity
  8
0
  6
Continuous
 62
     1
370
    15
100
AcDbSpline
210
0.0
220
0.0
230
1.0
 70
     8
 71
     3
 72
    13
 73
     9
 74
     0
 42
0.000000001
 43
0.00000001
 40
0.0
 40
0.0
 40
0.0
 40
0.0
 40
0.2900500944683167
 40
0.4965310320940526
 40
0.6302940536691478
 40
0.7573329862361379
 40
0.886761577519368
 40
0.9999999999999999
 40
0.9999999999999999
 40
0.9999999999999999
 40
0.9999999999999999
 10
36.6519871396611
 20
-1.641665935147759
 30
0.0
 10
36.81147148220418
 20
-1.617628299210913
 30
0.0
 10
37.08448958051203
 20
-1.576478744673784
 30
0.0
 10
37.43081181338279
 20
-1.535175542365969
 30
0.0
 10
37.69009187399161
 20
-1.508318440728781
 30
0.0
 10
37.90600442490333
 20
-1.48895424608569
 30
0.0
 10
38.10969398986003
 20
-1.472976466861395
 30
0.0
 10
38.24343134214925
 20
-1.465069734537104
 30
0.0
 10
38.30583869848944
 20
-1.461380127608284
 30
0.0
  0
SPLINE
  5
AA
330
1F
100
AcDbEntity
  8
0
  6
Continuous
 62
     1
370
    15
100
AcDbSpline
210
0.0
220
0.0
230
1.0
 70
     8
 71
     3
 72
    22
 73
    18
 74
     0
 42
0.000000001
 43
0.00000001
 40
0.0
 40
0.0
 40
0.0
 40
0.0
 40
0.1184676872967491
 40
0.2050914743331378
 40
0.2603312266435678
 40
0.3084293580874606
 40
0.3581112714501697
 40
0.4111748360058954
 40
0.4734244478309006
 40
0.5353916767725244
 40
0.5980569553277804
 40
0.6589369933163212
 40
0.7135065293854922
 40
0.7575625382252651
 40
0.8035794006857642
 40
0.8840566085541535
 40
1.0
 40
1.0
 40
1.0
 40
1.0
 10
28.58502150803871
 20
1.492886246527777
 30
0.0
 10
28.4342636947393
 20
1.481102328648251
 30
0.0
 10
28.1732714959183
 20
1.460701988720293
 30
0.0
 10
27.84287491864293
 20
1.446115614455458
 30
0.0
 10
27.60165287816121
 20
1.439368151754012
 30
0.0
 10
27.4072805784707
 20
1.436552928976507
 30
0.0
 10
27.21588714422089
 20
1.436167471448079
 30
0.0
 10
27.00641402213064
 20
1.438547971482235
 30
0.0
 10
26.78118278234183
 20
1.444410885902432
 30
0.0
 10
26.54353984443613
 20
1.454329432080814
 30
0.0
 10
26.30838962485181
 20
1.467839274100066
 30
0.0
 10
26.08417184958925
 20
1.484283435786136
 30
0.0
 10
25.88286859042478
 20
1.501759540306805
 30
0.0
 10
25.69844082908525
 20
1.519917763540048
 30
0.0
 10
25.47994910108151
 20
1.543791757034126
 30
0.0
 10
25.17201227500229
 20
1.58152936781539
 30
0.0
 10
24.92199382121718
 20
1.619346668237652
 30
0.0
 10
24.77441262272223
 20
1.641669510554555
 30
0.0
  0
SPLINE
  5
AB
330
1F
100
AcDbEntity
  8
0
  6
Continuous
 62
     1
370
    15
100
AcDbSpline
210
0.0
220
0.0
230
1.0
 70
     8
 71
     3
 72
    13
 73
     9
 74
     0
 42
0.000000001
 43
0.00000001
 40
0.0
 40
0.0
 40
0.0
 40
0.0
 40
0.2968446905020385
 40
0.4899208178656275
 40
0.5986651805820223
 40
0.7251499914057917
 40
0.9706768889586351
 40
1.0
 40
1.0
 40
1.0
 40
1.0
 10
24.77441262272223
 20
-1.641669510554557
 30
0.0
 10
24.93664767010509
 20
-1.617224305660241
 30
0.0
 10
25.20440495074183
 20
-1.576879252647968
 30
0.0
 10
25.53104086064623
 20
-1.537895658083653
 30
0.0
 10
25.76699859761324
 20
-1.51279651150981
 30
0.0
 10
26.02896700182791
 20
-1.488671960570738
 30
0.0
 10
26.24493037329785
 20
-1.470411573451709
 30
0.0
 10
26.39481608007114
 20
-1.463454593969971
 30
0.0
 10
26.41080703908805
 20
-1.462712369936947
 30
0.0
  0
SPLINE
  5
AC
330
1F
100
AcDbEntity
  8
0
  6
Continuous
 62
     1
370
    15
100
AcDbSpline
210
0.0
220
0.0
230
1.0
 70
     8
 71
     3
 72
    17
 73
    13
 74
     0
 42
0.000000001
 43
0.00000001
 40
0.0
 40
0.0
 40
0.0
 40
0.0
 40
0.1329934437730808
 40
0.2247165716667979
 40
0.2807329922522058
 40
0.3341838250859733
 40
0.3896846963010463
 40
0.4546198911067831
 40
0.5736619088472091
 40
0.6858324878835681
 40
0.818941706501362
 40
1.0
 40
1.0
 40
1.0
 40
1.0
 10
40.49461242985311
 20
1.495588437800499
 30
0.0
 10
40.32323518995032
 20
1.482063696993536
 30
0.0
 10
40.03366222514779
 20
1.459211191632381
 30
0.0
 10
39.67305795194345
 20
1.444340554407865
 30
0.0
 10
39.41564903237044
 20
1.438089661630413
 30
0.0
 10
39.20473027208795
 20
1.436005493781191
 30
0.0
 10
38.98264233672884
 20
1.436943124936714
 30
0.0
 10
38.67627700787187
 20
1.443043876053226
 30
0.0
 10
38.29723774004685
 20
1.459327865884597
 30
0.0
 10
37.83013090556965
 20
1.493748258562443
 30
0.0
 10
37.28473078756703
 20
1.548474091305099
 30
0.0
 10
36.88332299456403
 20
1.607594293438402
 30
0.0
 10
36.6519871396611
 20
1.641665935147757
 30
0.0
  0
LINE
  5
AD
330
1F
100
AcDbEntity
  8
외형선
  6
Continuous
370
    15
100
AcDbLine
 10
17.30942116787307
 20
2.381249999999999
 30
0.0
 11
17.30942116787307
 21
-2.381249999999999
 31
0.0
  0
LINE
  5
AF
330
1F
100
AcDbEntity
  8
외형선
  6
Continuous
370
    15
100
AcDbLine
 10
18.05000000000002
 20
2.182812499999999
 30
0.0
 11
18.05000000000002
 21
-2.182812500000001
 31
0.0
  0
SPLINE
  5
B1
330
1F
100
AcDbEntity
  8
외형선
  6
Continuous
370
    15
100
AcDbSpline
210
0.0
220
0.0
230
1.0
 70
     8
 71
     3
 72
     8
 73
     4
 74
     0
 42
0.000000001
 43
0.00000001
 40
0.0
 40
0.0
 40
0.0
 40
0.0
 40
1.0
 40
1.0
 40
1.0
 40
1.0
 10
19.05000000000002
 20
-2.175142957527613
 30
0.0
 10
18.75165842390306
 20
-2.189524547395608
 30
0.0
 10
18.45840416268049
 20
-2.183693486095482
 30
0.0
 10
18.16009432781045
 20
-2.157747262231955
 30
0.0
  0
LINE
  5
B2
330
1F
100
AcDbEntity
  8
외형선
  6
Continuous
370
    15
100
AcDbLine
 10
19.05000000000002
 20
2.175142957527611
 30
0.0
 11
18.73346780456288
 21
2.16895545047471
 31
0.0
  0
LINE
  5
B3
330
1F
100
AcDbEntity
  8
외형선
  6
Continuous
370
    15
100
AcDbLine
 10
19.05000000000002
 20
2.17514295752761
 30
0.0
 11
19.05000000000002
 21
2.040050659068161
 31
0.0
  0
SPLINE
  5
B4
330
1F
100
AcDbEntity
  8
외형선
  6
Continuous
370
    15
100
AcDbSpline
210
0.0
220
0.0
230
1.0
 70
     8
 71
     3
 72
     8
 73
     4
 74
     0
 42
0.000000001
 43
0.00000001
 40
0.0
 40
0.0
 40
0.0
 40
0.0
 40
1.0
 40
1.0
 40
1.0
 40
1.0
 10
19.05000000000002
 20
2.040050659068158
 30
0.0
 10
18.75164232562577
 20
2.101132734515905
 30
0.0
 10
18.45837212021485
 20
2.142984461182625
 30
0.0
 10
18.16004603810459
 20
2.164923371449093
 30
0.0
  0
LINE
  5
B5
330
1F
100
AcDbEntity
  8
외형선
  6
Continuous
370
    15
100
AcDbLine
 10
18.16004603810459
 20
-2.157733124058038
 30
0.0
 11
18.16004603810459
 21
2.165018523509968
 31
0.0
  0
SPLINE
  5
B6
330
1F
100
AcDbEntity
  8
외형선
  6
Continuous
370
    15
100
AcDbSpline
210
0.0
220
0.0
230
1.0
 70
     8
 71
     3
 72
    12
 73
     8
 74
     0
 42
0.000000001
 43
0.00000001
 40
0.0
 40
0.0
 40
0.0
 40
0.0
 40
0.25
 40
0.25
 40
0.5
 40
0.5
 40
1.0
 40
1.0
 40
1.0
 40
1.0
 10
18.45552687082254
 20
-0.4274718873857153
 30
0.0
 10
18.39295667138147
 20
-0.3993931670892621
 30
0.0
 10
18.34893612215942
 20
-0.3465412998397802
 30
0.0
 10
18.27770545611633
 20
-0.2358411799187188
 30
0.0
 10
18.2505431778437
 20
-0.1754816475518582
 30
0.0
 10
18.18491635731318
 20
0.0085459201148707
 30
0.0
 10
18.16004603810457
 20
0.1392090720129059
 30
0.0
 10
18.16004603810457
 20
0.2695648917437762
 30
0.0
  0
SPLINE
  5
B7
330
1F
100
AcDbEntity
  8
외형선
  6
Continuous
370
    15
100
AcDbSpline
210
0.0
220
0.0
230
1.0
 70
     8
 71
     3
 72
    14
 73
    10
 74
     0
 42
0.000000001
 43
0.00000001
 40
0.0
 40
0.0
 40
0.0
 40
0.0
 40
0.2500000000000001
 40
0.2500000000000001
 40
0.5000000000000001
 40
0.5000000000000001
 40
0.75
 40
0.75
 40
1.0
 40
1.0
 40
1.0
 40
1.0
 10
18.16004603810471
 20
1.968648936693521
 30
0.0
 10
18.16004603810468
 20
1.909680114448332
 30
0.0
 10
18.17367875030696
 20
1.850595439627502
 30
0.0
 10
18.21492255115713
 20
1.74206533616085
 30
0.0
 10
18.24295028978717
 20
1.691589161626002
 30
0.0
 10
18.30832123844264
 20
1.603001413421444
 30
0.0
 10
18.34654220832516
 20
1.563518712912205
 30
0.0
 10
18.43434419555047
 20
1.501542018895859
 30
0.0
 10
18.48477405052853
 20
1.478700190165568
 30
0.0
 10
18.54018915574173
 20
1.472703378899479
 30
0.0
  0
SPLINE
  5
B8
330
1F
100
AcDbEntity
  8
외형선
  6
Continuous
370
    15
100
AcDbSpline
210
0.0
220
0.0
230
1.0
 70
    24
 71
     3
 72
    10
 73
     6
 74
     0
 42
0.000000001
 43
0.00000001
 40
0.0
 40
0.0
 40
0.0
 40
0.0
 40
0.5
 40
0.5
 40
1.0
 40
1.0
 40
1.0
 40
1.0
 10
19.05000000000001
 20
-0.6877151071137355
 30
0.0
 10
19.05000000000001
 20
-0.9797921889065496
 30
0.0
 10
19.05000000000001
 20
-1.249139642362974
 30
0.0
 10
19.05000000000001
 20
-1.657120344907183
 30
0.0
 10
19.05000000000001
 20
-1.793997485560368
 30
0.0
 10
19.05000000000001
 20
-1.854876385340501
 30
0.0
  0
SPLINE
  5
B9
330
1F
100
AcDbEntity
  8
외형선
  6
Continuous
370
    15
100
AcDbSpline
210
0.0
220
0.0
230
1.0
 70
     8
 71
     3
 72
     8
 73
     4
 74
     0
 42
0.000000001
 43
0.00000001
 40
0.0
 40
0.0
 40
0.0
 40
0.0
 40
1.0
 40
1.0
 40
1.0
 40
1.0
 10
19.05000000000003
 20
-1.854876385340501
 30
0.0
 10
18.75165842390306
 20
-1.858312488103333
 30
0.0
 10
18.45840416268049
 20
-1.844562305397381
 30
0.0
 10
18.16009432781045
 20
-1.813852499877104
 30
0.0
  0
SPLINE
  5
BA
330
1F
100
AcDbEntity
  8
외형선
  6
Continuous
370
    15
100
AcDbSpline
210
0.0
220
0.0
230
1.0
 70
     8
 71
     3
 72
     8
 73
     4
 74
     0
 42
0.000000001
 43
0.00000001
 40
0.0
 40
0.0
 40
0.0
 40
0.0
 40
1.0
 40
1.0
 40
1.0
 40
1.0
 10
19.05000000000002
 20
-0.6877151071137392
 30
0.0
 10
18.85044961854353
 20
-0.603259337604032
 30
0.0
 10
18.65352988626133
 20
-0.5163268269259965
 30
0.0
 10
18.45552687082254
 20
-0.4274718873857153
 30
0.0
  0
SPLINE
  5
BB
330
1F
100
AcDbEntity
  8
외형선
  6
Continuous
370
    15
100
AcDbSpline
210
0.0
220
0.0
230
1.0
 70
     8
 71
     3
 72
     8
 73
     4
 74
     0
 42
0.000000001
 43
0.00000001
 40
0.0
 40
0.0
 40
0.0
 40
0.0
 40
1.0
 40
1.0
 40
1.0
 40
1.0
 10
19.05000000000004
 20
1.404487299156198
 30
0.0
 10
18.87894481238167
 20
1.431627925446574
 30
0.0
 10
18.70925492597786
 20
1.454407726265394
 30
0.0
 10
18.54018915574171
 20
1.472703378899481
 30
0.0
  0
SPLINE
  5
BC
330
1F
100
AcDbEntity
  8
외형선
  6
Continuous
370
    15
100
AcDbSpline
210
0.0
220
0.0
230
1.0
 70
    24
 71
     3
 72
    14
 73
    10
 74
     0
 42
0.000000001
 43
0.00000001
 40
0.0
 40
0.0
 40
0.0
 40
0.0
 40
0.25
 40
0.25
 40
0.5
 40
0.5
 40
0.75
 40
0.75
 40
1.0
 40
1.0
 40
1.0
 40
1.0
 10
19.05000000000002
 20
1.404487299156202
 30
0.0
 10
19.05000000000002
 20
1.292242549553008
 30
0.0
 10
19.05000000000002
 20
1.157093837974779
 30
0.0
 10
19.05000000000002
 20
0.8477145132306524
 30
0.0
 10
19.05000000000002
 20
0.673558304430177
 30
0.0
 10
19.05000000000002
 20
0.3017136163181118
 30
0.0
 10
19.05000000000002
 20
0.1042232714025133
 30
0.0
 10
19.05000000000002
 20
-0.2940666513503931
 30
0.0
 10
19.05000000000002
 20
-0.4946669450899818
 30
0.0
 10
19.05000000000002
 20
-0.6877151071137366
 30
0.0
  0
SPLINE
  5
BD
330
1F
100
AcDbEntity
  8
외형선
  6
Continuous
370
    15
100
AcDbSpline
210
0.0
220
0.0
230
1.0
 70
    24
 71
     3
 72
    10
 73
     6
 74
     0
 42
0.000000001
 43
0.00000001
 40
0.0
 40
0.0
 40
0.0
 40
0.0
 40
0.5
 40
0.5
 40
1.0
 40
1.0
 40
1.0
 40
1.0
 10
19.05000000000002
 20
2.040050659068161
 30
0.0
 10
19.05000000000002
 20
1.950582744991426
 30
0.0
 10
19.05000000000002
 20
1.845093765056375
 30
0.0
 10
19.05000000000002
 20
1.624829126846644
 30
0.0
 10
19.05000000000002
 20
1.510683613846188
 30
0.0
 10
19.05000000000002
 20
1.404487299156202
 30
0.0
  0
SPLINE
  5
BE
330
1F
100
AcDbEntity
  8
외형선
  6
Continuous
370
    15
100
AcDbSpline
210
0.0
220
0.0
230
1.0
 70
    24
 71
     3
 72
     8
 73
     4
 74
     0
 42
0.000000001
 43
0.00000001
 40
0.0
 40
0.0
 40
0.0
 40
0.0
 40
1.0
 40
1.0
 40
1.0
 40
1.0
 10
19.05000000000002
 20
-1.854876385340501
 30
0.0
 10
19.05000000000002
 20
-1.964756092458502
 30
0.0
 10
19.05000000000002
 20
-2.072211600552687
 30
0.0
 10
19.05000000000002
 20
-2.175142957517499
 30
0.0
  0
SPLINE
  5
BF
330
1F
100
AcDbEntity
  8
0
  6
Continuous
 62
     1
370
    15
100
AcDbSpline
210
0.0
220
0.0
230
1.0
 70
     8
 71
     3
 72
    17
 73
    13
 74
     0
 42
0.000000001
 43
0.00000001
 40
0.0
 40
0.0
 40
0.0
 40
0.0
 40
0.1083353565131122
 40
0.2166926006449467
 40
0.3250682138025207
 40
0.4334586417748998
 40
0.5418603015247044
 40
0.6502695881003054
 40
0.7586828816401001
 40
0.8670965544396161
 40
0.9755069780517134
 40
0.9999999999999999
 40
0.9999999999999999
 40
0.9999999999999999
 40
0.9999999999999999
 10
41.27500000000003
 20
-2.071359991120258
 30
0.0
 10
40.88995296724911
 20
-1.982440142851561
 30
0.0
 10
40.119781108468
 20
-1.804582481322879
 30
0.0
 10
38.96435810869763
 20
-1.319069452630864
 30
0.0
 10
37.80870412802206
 20
-0.7249908824746165
 30
0.0
 10
36.65285968594073
 20
-0.0600435329536094
 30
0.0
 10
35.49687186619798
 20
0.6098318943450421
 30
0.0
 10
34.34078654367565
 20
1.222233590311655
 30
0.0
 10
33.18464960044557
 20
1.725707055184328
 30
0.0
 10
32.02850928111873
 20
2.052400873475837
 30
0.0
 10
31.17068628867469
 20
2.19994415553468
 30
0.0
 10
30.69825606375699
 20
2.170469452793046
 30
0.0
 10
30.61119102327476
 20
2.165037505275613
 30
0.0
  0
SPLINE
  5
C0
330
1F
100
AcDbEntity
  8
0
  6
Continuous
 62
     1
370
    15
100
AcDbSpline
210
0.0
220
0.0
230
1.0
 70
     8
 71
     3
 72
    10
 73
     6
 74
     0
 42
0.000000001
 43
0.00000001
 40
0.0
 40
0.0
 40
0.0
 40
0.0
 40
0.0870762663608605
 40
0.5435791648039981
 40
1.0
 40
1.0
 40
1.0
 40
1.0
 10
21.19103623869305
 20
-1.728786685028069
 30
0.0
 10
21.12888736476097
 20
-1.753139045125079
 30
0.0
 10
20.74091904230779
 20
-1.905160211348259
 30
0.0
 10
20.027244814502
 20
-2.080242386396266
 30
0.0
 10
19.37572874977921
 20
-2.143511329577989
 30
0.0
 10
19.04999999999742
 20
-2.175142957527739
 30
0.0
  0
SPLINE
  5
C1
330
1F
100
AcDbEntity
  8
외형선
  6
Continuous
370
    15
100
AcDbSpline
210
0.0
220
0.0
230
1.0
 70
    24
 71
     3
 72
     8
 73
     4
 74
     0
 42
0.000000001
 43
0.00000001
 40
0.0
 40
0.0
 40
0.0
 40
0.0
 40
1.0
 40
1.0
 40
1.0
 40
1.0
 10
19.05000000000002
 20
-1.854876385340501
 30
0.0
 10
19.05000000000002
 20
-1.964756092458505
 30
0.0
 10
19.05000000000002
 20
-2.072211600552693
 30
0.0
 10
19.05000000000002
 20
-2.175142957517508
 30
0.0
  0
SPLINE
  5
C2
330
1F
100
AcDbEntity
  8
0
  6
Continuous
 62
     1
370
    15
100
AcDbSpline
210
0.0
220
0.0
230
1.0
 70
     8
 71
     3
 72
    13
 73
     9
 74
     0
 42
0.000000001
 43
0.00000001
 40
0.0
 40
0.0
 40
0.0
 40
0.0
 40
0.1696949826694344
 40
0.3392975361069401
 40
0.5088328103335468
 40
0.6783262621806938
 40
0.8478035398929296
 40
1.0
 40
1.0
 40
1.0
 40
1.0
 10
41.27500000000002
 20
-1.722178520816248
 30
0.0
 10
40.95366973588021
 20
-1.65272767318497
 30
0.0
 10
40.31118422937102
 20
-1.513863806315467
 30
0.0
 10
39.34777503116582
 20
-1.178045612435918
 30
0.0
 10
38.38479730116435
 20
-0.7739896770528195
 30
0.0
 10
37.42209334761521
 20
-0.3187380450572057
 30
0.0
 10
36.49223028167765
 20
0.1434070946778783
 30
0.0
 10
35.88323704447822
 20
0.4328365534757772
 30
0.0
 10
35.59509846170413
 20
0.5697769806874311
 30
0.0
  0
LINE
  5
C3
330
1F
100
AcDbEntity
  8
0
  6
Continuous
 62
     1
370
    15
100
AcDbLine
 10
19.74254156333941
 20
-1.80231959992769
 30
0.0
 11
19.05000000000001
 21
-1.854876385340501
 31
0.0
  0
LINE
  5
C4
330
1F
100
AcDbEntity
  8
0
  6
Continuous
 62
     1
370
    15
100
AcDbLine
 10
41.27500000000002
 20
-2.07135999112026
 30
0.0
 11
41.27500000000002
 21
-1.722178520816248
 31
0.0
  0
SPLINE
  5
C5
330
1F
100
AcDbEntity
  8
0
  6
Continuous
 62
     1
370
    15
100
AcDbSpline
210
0.0
220
0.0
230
1.0
 70
     8
 71
     3
 72
    20
 73
    16
 74
     0
 42
0.000000001
 43
0.00000001
 40
0.0
 40
0.0
 40
0.0
 40
0.0
 40
0.0767731015985599
 40
0.1590007366726083
 40
0.2412231599913379
 40
0.3234376344498779
 40
0.4056414384596789
 40
0.4878318712077164
 40
0.5700062578286391
 40
0.6521739921635922
 40
0.721780844327783
 40
0.7913675844295214
 40
0.860928640508001
 40
0.930470570856829
 40
1.0
 40
1.0
 40
1.0
 40
1.0
 10
33.10792580833927
 20
-1.718464488303151
 30
0.0
 10
32.74811619123534
 20
-1.834432371731952
 30
0.0
 10
32.00293339947369
 20
-2.074607361560529
 30
0.0
 10
30.87240841992915
 20
-2.209460526896335
 30
0.0
 10
29.71639641039067
 20
-2.156030124826851
 30
0.0
 10
28.56051817679018
 20
-1.899030400393465
 30
0.0
 10
27.40482072909583
 20
-1.466940053064027
 30
0.0
 10
26.24934531855347
 20
-0.8985919931540702
 30
0.0
 10
25.09409648297972
 20
-0.2471143576482209
 30
0.0
 10
23.99781952519667
 20
0.3932545933971706
 30
0.0
 10
22.96055420596768
 20
0.9651038661697419
 30
0.0
 10
21.98242040318746
 20
1.441304940638074
 30
0.0
 10
21.00467159832471
 20
1.818768084528887
 30
0.0
 10
20.02724164347344
 20
2.085663159739997
 30
0.0
 10
19.37572769283303
 20
2.145318145738991
 30
0.0
 10
19.04999999999742
 20
2.175142957527737
 30
0.0
  0
SPLINE
  5
C6
330
1F
100
AcDbEntity
  8
0
  6
Continuous
 62
     1
370
    15
100
AcDbSpline
210
0.0
220
0.0
230
1.0
 70
     8
 71
     3
 72
    16
 73
    12
 74
     0
 42
0.000000001
 43
0.00000001
 40
0.0
 40
0.0
 40
0.0
 40
0.0
 40
0.1185892784696791
 40
0.2406299769622623
 40
0.3626358338685124
 40
0.4846252830932598
 40
0.6066168337555695
 40
0.7286289853350005
 40
0.8506801429111737
 40
0.9727885333159646
 40
1.0
 40
1.0
 40
1.0
 40
1.0
 10
31.6152459835552
 20
-1.814695374493449
 30
0.0
 10
31.30329010845873
 20
-1.835845846497895
 30
0.0
 10
30.67029920062637
 20
-1.878762353427078
 30
0.0
 10
29.71644872249511
 20
-1.792094831220048
 30
0.0
 10
28.75368924506405
 20
-1.59798501649351
 30
0.0
 10
27.79108007499192
 20
-1.298282211493711
 30
0.0
 10
26.82845117461293
 20
-0.9156971743724248
 30
0.0
 10
25.86563682439007
 20
-0.4728879383120363
 30
0.0
 10
24.90246584171355
 20
-0.0030193936665132
 30
0.0
 10
24.18861674912673
 20
0.3548658629076874
 30
0.0
 10
23.7957926171779
 20
0.5319554046720159
 30
0.0
 10
23.72420588392211
 20
0.564227510068852
 30
0.0
  0
SPLINE
  5
C7
330
1F
100
AcDbEntity
  8
0
  6
Continuous
 62
     1
370
    15
100
AcDbSpline
210
0.0
220
0.0
230
1.0
 70
     8
 71
     3
 72
    20
 73
    16
 74
     0
 42
0.000000001
 43
0.00000001
 40
0.0
 40
0.0
 40
0.0
 40
0.0
 40
0.0668884090803156
 40
0.1446396601900198
 40
0.2224010052960741
 40
0.3001698699909432
 40
0.3779436651877922
 40
0.4557197921573085
 40
0.5334956476051677
 40
0.6112686287687751
 40
0.6890361385117566
 40
0.7667955903947099
 40
0.8445444137008731
 40
0.9222800583957264
 40
1.0
 40
1.0
 40
1.0
 40
1.0
 10
26.41052308885982
 20
1.46260456975371
 30
0.0
 10
26.74192484927604
 20
1.597696477555838
 30
0.0
 10
27.45854883050154
 20
1.889819551008807
 30
0.0
 10
28.56049260078149
 20
2.138910231281338
 30
0.0
 10
29.71637208781796
 20
2.215616783675736
 30
0.0
 10
30.87238676760268
 20
2.083162569633263
 30
0.0
 10
32.02848902927174
 20
1.758500707975966
 30
0.0
 10
33.18463294304027
 20
1.270473019563982
 30
0.0
 10
34.34077198886432
 20
0.6647075157480462
 30
0.0
 10
35.4968598219464
 20
-0.0027894770426826
 30
0.0
 10
36.65285004556851
 20
-0.6697238873819096
 30
0.0
 10
37.80869691716846
 20
-1.275570101483527
 30
0.0
 10
38.9643533119157
 20
-1.759217232172218
 30
0.0
 10
40.11977871607876
 20
-2.094254861657131
 30
0.0
 10
40.88995217129489
 20
-2.152065313840623
 30
0.0
 10
41.27500000000001
 20
-2.182812499999995
 30
0.0
  0
SPLINE
  5
C8
330
1F
100
AcDbEntity
  8
0
  6
Continuous
 62
     1
370
    15
100
AcDbSpline
210
0.0
220
0.0
230
1.0
 70
     8
 71
     3
 72
    16
 73
    12
 74
     0
 42
0.000000001
 43
0.00000001
 40
0.0
 40
0.0
 40
0.0
 40
0.0
 40
0.049879500311413
 40
0.1822076085457657
 40
0.3145850795754236
 40
0.4470324212274276
 40
0.5795173707624409
 40
0.7119283247075296
 40
0.8442793074707088
 40
0.9765909490932483
 40
1.0
 40
1.0
 40
1.0
 40
1.0
 10
35.85981268353103
 20
-0.2089401474565492
 30
0.0
 10
35.73883777182171
 20
-0.1610057858721775
 30
0.0
 10
35.29692176987756
 20
0.0140963169341325
 30
0.0
 10
34.53392577007581
 20
0.3262358579774339
 30
0.0
 10
33.5706371282678
 20
0.6954429321731272
 30
0.0
 10
32.60690986055148
 20
1.020904980282822
 30
0.0
 10
31.64305233236784
 20
1.279522895800578
 30
0.0
 10
30.67951413411179
 20
1.457981386557236
 30
0.0
 10
29.71643516662465
 20
1.533656560494137
 30
0.0
 10
29.01775488898826
 20
1.540032838771036
 30
0.0
 10
28.64008003239417
 20
1.49284953454558
 30
0.0
 10
28.58330524029293
 20
1.485756601983938
 30
0.0
  0
SPLINE
  5
C9
330
1F
100
AcDbEntity
  8
0
  6
Continuous
 62
     1
370
    15
100
AcDbSpline
210
0.0
220
0.0
230
1.0
 70
     8
 71
     3
 72
    17
 73
    13
 74
     0
 42
0.000000001
 43
0.00000001
 40
0.0
 40
0.0
 40
0.0
 40
0.0
 40
0.0930574706839766
 40
0.1861316759653184
 40
0.2792314839730271
 40
0.372365674164173
 40
0.4655267714923964
 40
0.5755002651062685
 40
0.6854826459459088
 40
0.7954865057373792
 40
0.9055082641175054
 40
1.0
 40
1.0
 40
1.0
 40
1.0
 10
19.05000000000002
 20
2.04005065906816
 30
0.0
 10
19.37572528126776
 20
1.959942654338409
 30
0.0
 10
20.02723441923403
 20
1.79971223899408
 30
0.0
 10
21.00465718569319
 20
1.403375271465301
 30
0.0
 10
21.98239885721879
 20
0.9234253213525235
 30
0.0
 10
22.96052556535454
 20
0.3793749176742547
 30
0.0
 10
23.9977869191498
 20
-0.223265572653066
 30
0.0
 10
25.09406313226991
 20
-0.8457430125394422
 30
0.0
 10
26.24931414207114
 20
-1.424304211496817
 30
0.0
 10
27.40479235814457
 20
-1.865577535506355
 30
0.0
 10
28.50606246932317
 20
-2.140298608322199
 30
0.0
 10
29.22218132323959
 20
-2.160955506754334
 30
0.0
 10
29.55305099933955
 20
-2.170499650517748
 30
0.0
  0
SPLINE
  5
CA
330
1F
100
AcDbEntity
  8
0
  6
Continuous
 62
     1
370
    15
100
AcDbSpline
210
0.0
220
0.0
230
1.0
 70
     8
 71
     3
 72
    10
 73
     6
 74
     0
 42
0.000000001
 43
0.00000001
 40
0.0
 40
0.0
 40
0.0
 40
0.0
 40
0.2218026741468497
 40
0.6109406412354287
 40
1.0
 40
1.0
 40
1.0
 40
1.0
 10
38.30581101474715
 20
1.461368647470607
 30
0.0
 10
38.52534595012228
 20
1.556648017813564
 30
0.0
 10
39.13004025648065
 20
1.819088675203001
 30
0.0
 10
40.11977780955336
 20
2.090653164064666
 30
0.0
 10
40.88995186914012
 20
2.150864828827981
 30
0.0
 10
41.27500000000001
 20
2.182812500000002
 30
0.0
  0
SPLINE
  5
CB
330
1F
100
AcDbEntity
  8
0
  6
Continuous
 62
     1
370
    15
100
AcDbSpline
210
0.0
220
0.0
230
1.0
 70
    24
 71
     3
 72
    10
 73
     6
 74
     0
 42
0.000000001
 43
0.00000001
 40
0.0
 40
0.0
 40
0.0
 40
0.0
 40
0.5000000000000004
 40
0.5000000000000004
 40
1.0
 40
1.0
 40
1.0
 40
1.0
 10
41.27500000000002
 20
1.527968749999999
 30
0.0
 10
41.27500000000003
 20
1.620590410562214
 30
0.0
 10
41.27500000000003
 20
1.728225357824003
 30
0.0
 10
41.27500000000002
 20
1.954043187284867
 30
0.0
 10
41.27500000000002
 20
2.071649359085401
 30
0.0
 10
41.27500000000001
 20
2.182812500000005
 30
0.0
  0
LINE
  5
CC
330
1F
100
AcDbEntity
  8
0
  6
Continuous
 62
     1
370
    15
100
AcDbLine
 10
41.27500000000002
 20
1.527968749999999
 30
0.0
 11
40.49260759938025
 21
1.487921790520625
 31
0.0
  0
SPLINE
  5
CD
330
1F
100
AcDbEntity
  8
0
  6
Continuous
 62
     1
370
    15
100
AcDbSpline
210
0.0
220
0.0
230
1.0
 70
     8
 71
     3
 72
    13
 73
     9
 74
     0
 42
0.000000001
 43
0.00000001
 40
0.0
 40
0.0
 40
0.0
 40
0.0
 40
0.0076059583371215
 40
0.2033025376963402
 40
0.3989101966928451
 40
0.5944214790847366
 40
0.7972214226996993
 40
1.0
 40
1.0
 40
1.0
 40
1.0
 10
23.97640851728809
 20
-0.2080497553504546
 30
0.0
 10
23.96391828466768
 20
-0.203183012320463
 30
0.0
 10
23.63006213195199
 20
-0.0730979968025215
 30
0.0
 10
22.97492152720284
 20
0.1983429018113703
 30
0.0
 10
22.01127821927465
 20
0.5766030151658509
 30
0.0
 10
21.03602732743597
 20
0.9224796016288438
 30
0.0
 10
20.04896810258192
 20
1.216948563716901
 30
0.0
 10
19.38297767249553
 20
1.341976582880144
 30
0.0
 10
19.05000000000002
 20
1.404487299156201
 30
0.0
  0
SPLINE
  5
CE
330
1F
100
AcDbEntity
  8
외형선
  6
Continuous
370
    15
100
AcDbSpline
210
0.0
220
0.0
230
1.0
 70
    24
 71
     3
 72
    10
 73
     6
 74
     0
 42
0.000000001
 43
0.00000001
 40
0.0
 40
0.0
 40
0.0
 40
0.0
 40
0.5
 40
0.5
 40
1.0
 40
1.0
 40
1.0
 40
1.0
 10
19.05000000000002
 20
2.04005065906816
 30
0.0
 10
19.05000000000002
 20
1.950582744991425
 30
0.0
 10
19.05000000000002
 20
1.845093765056375
 30
0.0
 10
19.05000000000002
 20
1.624829126846644
 30
0.0
 10
19.05000000000002
 20
1.510683613846188
 30
0.0
 10
19.05000000000002
 20
1.404487299156202
 30
0.0
  0
LINE
  5
CF
330
1F
100
AcDbEntity
  8
0
  6
Continuous
 62
     1
370
    15
100
AcDbLine
 10
41.27500000000002
 20
-2.182812499999997
 30
0.0
 11
41.27500000000002
 21
-2.07135999112026
 31
0.0
  0
SPLINE
  5
D0
330
1F
100
AcDbEntity
  8
0
  6
Continuous
 62
     1
370
    15
100
AcDbSpline
210
0.0
220
0.0
230
1.0
 70
     8
 71
     3
 72
     8
 73
     4
 74
     0
 42
0.000000001
 43
0.00000001
 40
0.0
 40
0.0
 40
0.0
 40
0.0
 40
1.0
 40
1.0
 40
1.0
 40
1.0
 10
39.92377037530582
 20
0.6112018266196813
 30
0.0
 10
39.84645019123441
 20
0.7028228990928465
 30
0.0
 10
39.77741771646471
 20
0.7910358002691493
 30
0.0
 10
39.71864407772412
 20
0.8750299397561748
 30
0.0
  0
LINE
  5
D1
330
1F
100
AcDbEntity
  8
0
  6
Continuous
 62
     1
370
    15
100
AcDbLine
 10
39.74625957379023
 20
0.8982020923200211
 30
0.0
 11
41.27500000000002
 21
0.0000000000000018
 31
0.0
  0
LINE
  5
D2
330
1F
100
AcDbEntity
  8
0
  6
Continuous
 62
     1
370
    15
100
AcDbLine
 10
41.27500000000002
 20
0.0000000000000018
 30
0.0
 11
41.27500000000002
 21
-0.5833412431303325
 31
0.0
  0
SPLINE
  5
D3
330
1F
100
AcDbEntity
  8
0
  6
Continuous
 62
     1
370
    15
100
AcDbSpline
210
0.0
220
0.0
230
1.0
 70
     8
 71
     3
 72
    10
 73
     6
 74
     0
 42
0.000000001
 43
0.00000001
 40
0.0
 40
0.0
 40
0.0
 40
0.0
 40
0.5
 40
0.5
 40
1.0
 40
1.0
 40
1.0
 40
1.0
 10
41.27500000000002
 20
-0.5833412431303323
 30
0.0
 10
41.04108965399512
 20
-0.3994465620391869
 30
0.0
 10
40.81108997950555
 20
-0.2080072785355181
 30
0.0
 10
40.35910341293856
 20
0.1903298247564545
 30
0.0
 10
40.13501505108889
 20
0.3993333841178322
 30
0.0
 10
39.92377037530684
 20
0.6112018266186595
 30
0.0
  0
SPLINE
  5
D4
330
1F
100
AcDbEntity
  8
외형선
  6
Continuous
370
    15
100
AcDbSpline
210
0.0
220
0.0
230
1.0
 70
    24
 71
     3
 72
    10
 73
     6
 74
     0
 42
0.000000001
 43
0.00000001
 40
0.0
 40
0.0
 40
0.0
 40
0.0
 40
0.5
 40
0.5
 40
1.0
 40
1.0
 40
1.0
 40
1.0
 10
19.05000000000001
 20
-0.6877151071137355
 30
0.0
 10
19.05000000000001
 20
-0.979792188906551
 30
0.0
 10
19.05000000000001
 20
-1.249139642362973
 30
0.0
 10
19.05000000000001
 20
-1.657120344907183
 30
0.0
 10
19.05000000000001
 20
-1.793997485560368
 30
0.0
 10
19.05000000000001
 20
-1.854876385340501
 30
0.0
  0
SPLINE
  5
D5
330
1F
100
AcDbEntity
  8
0
  6
Continuous
 62
     1
370
    15
100
AcDbSpline
210
0.0
220
0.0
230
1.0
 70
     8
 71
     3
 72
    13
 73
     9
 74
     0
 42
0.000000001
 43
0.00000001
 40
0.0
 40
0.0
 40
0.0
 40
0.0
 40
0.1531555202899775
 40
0.3061554148673832
 40
0.4976582143296909
 40
0.6891424825331918
 40
0.8806376881686991
 40
0.9999999999999999
 40
0.9999999999999999
 40
0.9999999999999999
 40
0.9999999999999999
 10
39.92377037530716
 20
0.6112018266190948
 30
0.0
 10
39.66710454541186
 20
0.7196689558738738
 30
0.0
 10
39.15403369112531
 20
0.9364929978254588
 30
0.0
 10
38.32022476672419
 20
1.239878650177998
 30
0.0
 10
37.4220818617344
 20
1.504194513101679
 30
0.0
 10
36.45948950454547
 20
1.684926626781265
 30
0.0
 10
35.61776252893907
 20
1.76341629345293
 30
0.0
 10
35.0968677503022
 20
1.732922625915365
 30
0.0
 10
34.89685584289966
 20
1.721213741783627
 30
0.0
  0
SPLINE
  5
D6
330
1F
100
AcDbEntity
  8
0
  6
Continuous
 62
     1
370
    15
100
AcDbSpline
210
0.0
220
0.0
230
1.0
 70
     8
 71
     3
 72
    13
 73
     9
 74
     0
 42
0.000000001
 43
0.00000001
 40
0.0
 40
0.0
 40
0.0
 40
0.0
 40
0.1463896529287221
 40
0.3147155362776337
 40
0.4829669176312084
 40
0.6511375576563909
 40
0.8255777277651202
 40
1.0
 40
1.0
 40
1.0
 40
1.0
 10
24.77738928908331
 20
-1.635060048350002
 30
0.0
 10
24.49791195126977
 20
-1.673833922895743
 30
0.0
 10
23.89707809117271
 20
-1.757191868468345
 30
0.0
 10
22.97492315672344
 20
-1.749060232194809
 30
0.0
 10
22.01127537705697
 20
-1.638198843108865
 30
0.0
 10
21.03603407135861
 20
-1.415189506902393
 30
0.0
 10
20.04896866786687
 20
-1.098010333077361
 30
0.0
 10
19.38297816673501
 20
-0.8244755046677625
 30
0.0
 10
19.05000000000002
 20
-0.6877151071137378
 30
0.0
  0
SPLINE
  5
D7
330
1F
100
AcDbEntity
  8
0
  6
Continuous
 62
     1
370
    15
100
AcDbSpline
210
0.0
220
0.0
230
1.0
 70
    24
 71
     3
 72
    10
 73
     6
 74
     0
 42
0.000000001
 43
0.00000001
 40
0.0
 40
0.0
 40
0.0
 40
0.0
 40
0.5
 40
0.5
 40
1.0
 40
1.0
 40
1.0
 40
1.0
 10
41.27500000000002
 20
-1.722178520816247
 30
0.0
 10
41.27500000000001
 20
-1.590160110059869
 30
0.0
 10
41.27500000000003
 20
-1.423349785964589
 30
0.0
 10
41.27500000000001
 20
-1.035531836146093
 30
0.0
 10
41.27500000000002
 20
-0.8148601530354361
 30
0.0
 10
41.27500000000002
 20
-0.5833412431304024
 30
0.0
  0
SPLINE
  5
D8
330
1F
100
AcDbEntity
  8
0
  6
Continuous
 62
     1
370
    15
100
AcDbSpline
210
0.0
220
0.0
230
1.0
 70
     8
 71
     3
 72
    22
 73
    18
 74
     0
 42
0.000000001
 43
0.00000001
 40
0.0
 40
0.0
 40
0.0
 40
0.0
 40
0.0143869432550822
 40
0.0849856041858121
 40
0.1555991430989285
 40
0.2262383372546672
 40
0.2969138463211506
 40
0.3676089011077139
 40
0.4382654962284329
 40
0.5088909225794505
 40
0.5794959028751429
 40
0.6500912537104857
 40
0.7206878360000264
 40
0.791296504986808
 40
0.861928060306374
 40
0.9325931965900758
 40
1.0
 40
1.0
 40
1.0
 40
1.0
 10
36.65567089241145
 20
-1.632538131282549
 30
0.0
 10
36.5902824620282
 20
-1.64548919761148
 30
0.0
 10
36.20402423021649
 20
-1.721992884134742
 30
0.0
 10
35.49682557899584
 20
-1.758008300555451
 30
0.0
 10
34.53393272635262
 20
-1.727084972649056
 30
0.0
 10
33.57064576713421
 20
-1.575682930955174
 30
0.0
 10
32.60691658213216
 20
-1.324943370330874
 30
0.0
 10
31.64304648778431
 20
-0.9880954050072004
 30
0.0
 10
30.67951159707265
 20
-0.587531445726795
 30
0.0
 10
29.7164339092877
 20
-0.1490622776674288
 30
0.0
 10
28.75367394636861
 20
0.2989567333787572
 30
0.0
 10
27.79106191962462
 20
0.727709384257948
 30
0.0
 10
26.82843108780465
 20
1.109332620129436
 30
0.0
 10
25.86561363607037
 20
1.420034055021535
 30
0.0
 10
24.90244353993293
 20
1.636702739853122
 30
0.0
 10
23.95376556687012
 20
1.754851856327677
 30
0.0
 10
23.32610170798748
 20
1.739494364112037
 30
0.0
 10
23.01967583726315
 20
1.73199682724143
 30
0.0
  0
SPLINE
  5
D9
330
1F
100
AcDbEntity
  8
0
  6
Continuous
 62
     1
370
    15
100
AcDbSpline
210
0.0
220
0.0
230
1.0
 70
    24
 71
     3
 72
     8
 73
     4
 74
     0
 42
0.000000001
 43
0.00000001
 40
0.0
 40
0.0
 40
0.0
 40
0.0
 40
1.0
 40
1.0
 40
1.0
 40
1.0
 10
39.94659204667022
 20
1.066300996426462
 30
0.0
 10
39.87459855730992
 20
1.005891286057065
 30
0.0
 10
39.79816349646346
 20
0.9417546546917445
 30
0.0
 10
39.71864407772416
 20
0.8750299397561618
 30
0.0
  0
SPLINE
  5
DA
330
1F
100
AcDbEntity
  8
외형선
  6
Continuous
370
    15
100
AcDbSpline
210
0.0
220
0.0
230
1.0
 70
    24
 71
     3
 72
    14
 73
    10
 74
     0
 42
0.000000001
 43
0.00000001
 40
0.0
 40
0.0
 40
0.0
 40
0.0
 40
0.25
 40
0.25
 40
0.5
 40
0.5
 40
0.75
 40
0.75
 40
1.0
 40
1.0
 40
1.0
 40
1.0
 10
19.05000000000002
 20
1.404487299156202
 30
0.0
 10
19.05000000000002
 20
1.292242549553008
 30
0.0
 10
19.05000000000002
 20
1.157093837974779
 30
0.0
 10
19.05000000000002
 20
0.8477145132306524
 30
0.0
 10
19.05000000000002
 20
0.673558304430177
 30
0.0
 10
19.05000000000002
 20
0.3017136163181118
 30
0.0
 10
19.05000000000002
 20
0.1042232714025133
 30
0.0
 10
19.05000000000002
 20
-0.2940666513503931
 30
0.0
 10
19.05000000000002
 20
-0.4946669450899818
 30
0.0
 10
19.05000000000002
 20
-0.6877151071137366
 30
0.0
  0
SPLINE
  5
DB
330
1F
100
AcDbEntity
  8
0
  6
Continuous
 62
     1
370
    15
100
AcDbSpline
210
0.0
220
0.0
230
1.0
 70
     8
 71
     3
 72
     8
 73
     4
 74
     0
 42
0.000000001
 43
0.00000001
 40
0.0
 40
0.0
 40
0.0
 40
0.0
 40
1.0
 40
1.0
 40
1.0
 40
1.0
 10
41.27500000000002
 20
1.527968750000002
 30
0.0
 10
40.82608213270101
 20
1.406090013374673
 30
0.0
 10
40.38129087930865
 20
1.256429721372809
 30
0.0
 10
39.94659204667862
 20
1.066300996430134
 30
0.0
  0
LINE
  5
DC
330
1F
100
AcDbEntity
  8
0
  6
Continuous
 62
     1
370
    15
100
AcDbLine
 10
41.27500000000002
 20
0.0000000000000018
 30
0.0
 11
41.27500000000002
 21
1.527968750000001
 31
0.0
  0
LINE
  5
DD
330
1F
100
AcDbEntity
  8
중심선
 48
0.8
100
AcDbLine
 10
-44.27500000000001
 20
-0.0000000000000054
 30
0.0
 11
44.27500000000001
 21
0.0000000000000054
 31
0.0
  0
LINE
  5
DE
330
1F
100
AcDbEntity
  8
참조1
100
AcDbLine
 10
-8.644211678730516
 20
0.0010749287238892
 30
0.0
 11
-8.64421167873051
 21
-39.99892507127611
 31
0.0
  0
LINE
  5
DF
330
1F
100
AcDbEntity
  8
참조1
100
AcDbLine
 10
-8.64421167873051
 20
-39.99892507127611
 30
0.0
 11
-29.45992727542973
 21
-39.9989250712761
 31
0.0
  0
CIRCLE
  5
E0
330
1F
100
AcDbEntity
  8
해칭선
100
AcDbCircle
 10
0.0
 20
0.0
 30
0.0
 40
3.000000000000001
  0
INSERT
  5
E1
330
1F
100
AcDbEntity
  8
0
  6
Continuous
 62
     7
100
AcDbBlockReference
 66
     1
  2
블럭10
 10
-13.9402729321252
 20
-52.04717430164393
 30
0.0
  0
ATTRIB
  5
E2
330
E1
100
AcDbEntity
  8
FORMAT
 62
     2
100
AcDbText
 10
-23.12156822086648
 20
-49.97180738881175
 30
0.0
 40
4.233333333333333
  1
E2005011 [ 2 FLUTE ]
 41
0.75
  7
SLDTEXTSTYLE0
 11
-23.12156822086648
 21
-52.08847405547841
 31
0.0
100
AcDbAttribute
  2
AUTOATTR0
 70
     0
 74
     1
  0
SEQEND
  5
E3
330
E1
100
AcDbEntity
  8
0
  6
Continuous
 62
     7
  0
HATCH
  5
E4
330
1F
100
AcDbEntity
  8
중심선
100
AcDbHatch
 10
0.0
 20
0.0
 30
0.0
210
0.0
220
0.0
230
1.0
  2
SOLID
 70
     1
 71
     0
 91
        1
 92
        0
 93
        4
 72
     1
 10
-8.22536362774435
 20
-35.8
 11
-11.67163887158163
 21
-35.8
 72
     1
 10
-11.67163887158163
 20
-35.8
 11
-13.79986873078565
 21
-38.3363255805726
 72
     1
 10
-13.79986873078565
 20
-38.3363255805726
 11
-10.35356040183522
 21
-38.33628615127011
 72
     1
 10
-10.35356040183522
 20
-38.33628615127011
 11
-8.22536362774435
 21
-35.8
 97
        0
 75
     0
 76
     1
 98
        1
 10
8.644211678730521
 20
-0.0010749287238947
  0
HATCH
  5
E5
330
1F
100
AcDbEntity
  8
중심선
100
AcDbHatch
 10
0.0
 20
0.0
 30
0.0
210
0.0
220
0.0
230
1.0
  2
SOLID
 70
     1
 71
     0
 91
        1
 92
        0
 93
        4
 72
     1
 10
-3.212599636708399
 20
-35.8
 11
-6.658874880545682
 21
-35.8
 72
     1
 10
-6.658874880545682
 20
-35.8
 11
-11.19001288890307
 21
-41.20000000000002
 72
     1
 10
-11.19001288890307
 20
-41.20000000000002
 11
-7.743737645065789
 21
-41.20000000000002
 72
     1
 10
-7.743737645065789
 20
-41.20000000000002
 11
-3.212599636708399
 21
-35.8
 97
        0
 75
     0
 76
     1
 98
        1
 10
8.644211678730521
 20
-0.0010749287238947
  0
HATCH
  5
E6
330
1F
100
AcDbEntity
  8
중심선
100
AcDbHatch
 10
0.0
 20
0.0
 30
0.0
210
0.0
220
0.0
230
1.0
  2
SOLID
 70
     1
 71
     0
 91
        1
 92
        0
 93
        4
 72
     1
 10
1.800164354327497
 20
-35.8
 11
-1.646110889509592
 21
-35.8
 72
     1
 10
-1.646110889509592
 20
-35.8
 11
-8.694547791398868
 21
-44.20000000000002
 72
     1
 10
-8.694547791398868
 20
-44.20000000000002
 11
-5.248272547561585
 21
-44.20000000000002
 72
     1
 10
-5.248272547561585
 20
-44.20000000000002
 11
1.800164354327497
 21
-35.8
 97
        0
 75
     0
 76
     1
 98
        1
 10
8.644211678730521
 20
-0.0010749287238947
  0
HATCH
  5
E7
330
1F
100
AcDbEntity
  8
중심선
100
AcDbHatch
 10
0.0
 20
0.0
 30
0.0
210
0.0
220
0.0
230
1.0
  2
SOLID
 70
     1
 71
     0
 91
        1
 92
        0
 93
        6
 72
     3
 10
6.600054785339696
 20
-40.00000000005127
 11
3.960054785062285
 21
1.540882976769353E-10
 40
0.3939339440162626
 50
17.09539180608436
 51
320.0019657685076
 73
     0
 72
     1
 10
8.283054441040264
 20
-38.5878940046383
 11
10.58835631474136
 21
-36.65356729459035
 72
     3
 10
6.600054785286849
 20
-40.00000000000015
 11
6.600054785286829
 21
-1.278976924368180E-13
 40
0.636358354079598
 50
39.99873849337411
 51
368.4976242363725
 73
     1
 72
     1
 10
13.02538727718746
 20
-39.03999999993002
 11
5.280122092122772
 21
-39.03999999993002
 72
     1
 10
5.280122092122772
 20
-39.03999999993002
 11
5.280097047676838
 21
-40.95999999992991
 72
     1
 10
5.280097047676838
 20
-40.95999999992991
 11
9.721476817148876
 21
-40.95999999992988
 97
        0
 75
     0
 76
     1
 98
        1
 10
8.644211678730521
 20
-0.0010749287238947
  0
DIMENSION
  5
E8
330
1F
100
AcDbEntity
  8
치수문자_일반주서
100
AcDbDimension
  2
_D
 10
-54.27500000000001
 20
-2.38125000000014
 30
0.0
 11
-54.27500000000001
 21
0.0000000000000029
 31
0.0
 70
   160
  1
%%c<>
 71
     2
 42
4.76250000000001
 52
-270.0
  3
SLDDIMSTYLE0
100
AcDbAlignedDimension
 13
-17.30942116787308
 23
2.381250000000009
 33
0.0
 14
-17.30942116787308
 24
-2.381250000000001
 34
0.0
 50
90.0000000000002
100
AcDbRotatedDimension
1001
ACAD
1000
DSTYLE
1002
{
1070
   171
1070
     6
1070
   273
1070
     7
1002
}
  0
DIMENSION
  5
FD
330
1F
100
AcDbEntity
  8
치수문자_일반주서
100
AcDbDimension
  2
_D_1
 10
56.85862147789786
 20
2.182812500000061
 30
0.0
 11
56.85862147789778
 21
24.86901239362968
 31
0.0
 70
   160
  1
%%c<>
 71
     2
 42
4.365625000000001
 52
-270.0
  3
SLDDIMSTYLE0
100
AcDbAlignedDimension
 13
41.27500000000002
 23
-2.182812499999997
 33
0.0
 14
41.27500000000001
 24
2.182812500000005
 34
0.0
 50
90.0000000000002
100
AcDbRotatedDimension
1001
ACAD
1000
DSTYLE
1002
{
1070
   171
1070
     6
1070
   273
1070
     7
1002
}
  0
DIMENSION
  5
111
330
1F
100
AcDbEntity
  8
치수문자_일반주서
100
AcDbDimension
  2
_D_2
 10
19.05000000000002
 20
21.02658291051627
 30
0.0
 11
-7.438031872866624
 21
21.02658291051627
 31
0.0
 70
   160
  1
<>
 71
     2
 42
22.22499999999999
  3
SLDDIMSTYLE0
100
AcDbAlignedDimension
 13
41.27500000000001
 23
2.182812500000005
 33
0.0
 14
19.05000000000002
 24
2.175142957527612
 34
0.0
 50
0.0000000000000092
100
AcDbRotatedDimension
1001
ACAD
1000
DSTYLE
1002
{
1070
   171
1070
     6
1070
   273
1070
     7
1002
}
  0
DIMENSION
  5
126
330
1F
100
AcDbEntity
  8
치수문자_일반주서
100
AcDbDimension
  2
_D_3
 10
41.27500000000001
 20
36.38125000000002
 30
0.0
 11
0.0000000000000231
 21
36.38125000000002
 31
0.0
 70
   160
  1
<>
 71
     2
 42
82.55000000000003
  3
SLDDIMSTYLE0
100
AcDbAlignedDimension
 13
-41.27500000000001
 23
2.182812500000005
 33
0.0
 14
41.27500000000001
 24
2.182812500000005
 34
0.0
100
AcDbRotatedDimension
1001
ACAD
1000
DSTYLE
1002
{
1070
   171
1070
     6
1070
   273
1070
     7
1002
}
  0
LINE
  5
139
330
1F
100
AcDbEntity
  8
참조1
100
AcDbLine
 10
68.51241335422453
 20
7.441074928723896
 30
0.0
 11
68.51241335422453
 21
-7.438925071276109
 31
0.0
  0
LINE
  5
13A
330
1F
100
AcDbEntity
  8
참조1
100
AcDbLine
 10
81.21241335422454
 20
5.441074928723896
 30
0.0
 11
68.51241335422453
 21
5.441074928723896
 31
0.0
  0
SOLID
  5
13B
330
1F
100
AcDbEntity
  8
참조1
100
AcDbTrace
 10
68.51241335422453
 20
5.441074928723896
 30
0.0
 11
74.86241335422453
 21
4.425074928723896
 31
0.0
 12
74.86241335422453
 22
6.457074928723896
 32
0.0
 13
74.86241335422453
 23
6.457074928723896
 33
0.0
  0
LINE
  5
13C
330
1F
100
AcDbEntity
  8
참조1
100
AcDbLine
 10
81.21241335422454
 20
-5.438925071276109
 30
0.0
 11
68.51241335422453
 21
-5.438925071276109
 31
0.0
  0
SOLID
  5
13D
330
1F
100
AcDbEntity
  8
참조1
100
AcDbTrace
 10
68.51241335422453
 20
-5.438925071276109
 30
0.0
 11
74.86241335422453
 21
-6.454925071276109
 31
0.0
 12
74.86241335422453
 22
-4.422925071276109
 32
0.0
 13
74.86241335422453
 23
-4.422925071276109
 33
0.0
  0
MTEXT
  5
13E
330
1F
100
AcDbEntity
  8
참조1
100
AcDbMText
 10
77.89676348685053
 20
11.01136670591222
 30
0.0
 40
3.5
 41
0.0
 71
     1
 72
     1
  1
A
  7
SLDTEXTSTYLE0
 73
     1
 44
1.0
  0
MTEXT
  5
13F
330
1F
100
AcDbEntity
  8
참조1
100
AcDbMText
 10
77.89676348685053
 20
0.1313667059122192
 30
0.0
 40
3.5
 41
0.0
 71
     1
 72
     1
  1
A
  7
SLDTEXTSTYLE0
 73
     1
 44
1.0
  0
INSERT
  5
146
330
1F
100
AcDbEntity
  8
해칭선
100
AcDbBlockReference
  2
SW_DOWELSYMBOL_0
 10
0.0
 20
0.0
 30
0.0
  0
LINE
  5
460
330
1F
100
AcDbEntity
  8
외형선
  6
Continuous
370
    15
100
AcDbLine
 10
-17.30942116787308
 20
2.381250000000009
 30
0.0
 11
-18.05000000000002
 21
2.182812500000012
 31
0.0
  0
LINE
  5
461
330
1F
100
AcDbEntity
  8
외형선
  6
Continuous
370
    15
100
AcDbLine
 10
-18.05000000000002
 20
-2.18281249999999
 30
0.0
 11
-17.30942116787308
 21
-2.381249999999987
 31
0.0
  0
LINE
  5
462
330
1F
100
AcDbEntity
  8
외형선
  6
Continuous
370
    15
100
AcDbLine
 10
-18.73346780456288
 20
-2.18281249999999
 30
0.0
 11
-18.05000000000002
 21
-2.18281249999999
 31
0.0
  0
LINE
  5
463
330
1F
100
AcDbEntity
  8
외형선
  6
Continuous
370
    15
100
AcDbLine
 10
-18.05000000000002
 20
2.182812500000012
 30
0.0
 11
-18.73346780456288
 21
2.182812500000012
 31
0.0
  0
LINE
  5
464
330
1F
100
AcDbEntity
  8
0
  6
Continuous
 62
     1
370
    15
100
AcDbLine
 10
-35.05233307235154
 20
-0.8423761222593167
 30
0.0
 11
-35.0136438968838
 21
-0.862215444669999
 31
0.0
  0
SPLINE
  5
465
330
1F
100
AcDbEntity
  8
0
  6
Continuous
 62
     1
370
    15
100
AcDbSpline
210
0.0
220
0.0
230
1.0
 70
     8
 71
     3
 72
     9
 73
     5
 74
     0
 42
0.000000001
 43
0.00000001
 40
0.0
 40
0.0
 40
0.0
 40
0.0
 40
0.4668153716651871
 40
1.0
 40
1.0
 40
1.0
 40
1.0
 10
-35.62055731892938
 20
-0.5593248976572904
 30
0.0
 10
-35.53213321593081
 20
-0.6012441283782972
 30
0.0
 10
-35.34271335453432
 20
-0.6910424368004864
 30
0.0
 10
-35.15331654164155
 20
-0.7897478912265465
 30
0.0
 10
-35.05233307235154
 20
-0.8423761222593167
 30
0.0
  0
SPLINE
  5
466
330
1F
100
AcDbEntity
  8
0
  6
Continuous
 62
     1
370
    15
100
AcDbSpline
210
0.0
220
0.0
230
1.0
 70
     8
 71
     3
 72
     9
 73
     5
 74
     0
 42
0.000000001
 43
0.00000001
 40
0.0
 40
0.0
 40
0.0
 40
0.0
 40
0.4371959649994251
 40
1.0
 40
1.0
 40
1.0
 40
1.0
 10
-23.7432109199564
 20
-0.5592288540561934
 30
0.0
 10
-23.65469753804022
 20
-0.6012305945577476
 30
0.0
 10
-23.45224054163064
 20
-0.6973013359736977
 30
0.0
 10
-23.24984503722164
 20
-0.8028788200821277
 30
0.0
 10
-23.13593603067429
 20
-0.8622982541435671
 30
0.0
  0
LINE
  5
467
330
1F
100
AcDbEntity
  8
0
  6
Continuous
 62
     1
370
    15
100
AcDbLine
 10
-34.65822434712047
 20
-0.4802971963723616
 30
0.0
 11
-34.38980774627093
 21
-0.6274320188389804
 31
0.0
  0
LINE
  5
468
330
1F
100
AcDbEntity
  8
0
  6
Continuous
 62
     1
370
    15
100
AcDbLine
 10
-22.7706302600773
 20
-0.4858858171727358
 30
0.0
 11
-22.51200379832969
 21
-0.6275710780620254
 31
0.0
  0
LINE
  5
469
330
1F
100
AcDbEntity
  8
0
  6
Continuous
 62
     1
370
    15
100
AcDbLine
 10
-30.61119102327476
 20
-2.18281249999999
 30
0.0
 11
-29.55305099933955
 21
-2.18281249999999
 31
0.0
  0
LINE
  5
46A
330
1F
100
AcDbEntity
  8
0
  6
Continuous
 62
     1
370
    15
100
AcDbLine
 10
-29.55305099933955
 20
2.182812500000012
 30
0.0
 11
-30.61119102327476
 21
2.182812500000012
 31
0.0
  0
SPLINE
  5
46B
330
1F
100
AcDbEntity
  8
0
  6
Continuous
 62
     1
370
    15
100
AcDbSpline
210
0.0
220
0.0
230
1.0
 70
     8
 71
     3
 72
    10
 73
     6
 74
     0
 42
0.000000001
 43
0.00000001
 40
0.0
 40
0.0
 40
0.0
 40
0.0
 40
0.5472426786835168
 40
0.738188433324479
 40
1.0
 40
1.0
 40
1.0
 40
1.0
 10
-19.73973086368168
 20
1.816165597706857
 30
0.0
 10
-20.33827235604557
 20
1.768818174266813
 30
0.0
 10
-21.14565895752683
 20
1.704950128712988
 30
0.0
 10
-22.23831630882243
 20
1.702138108222862
 30
0.0
 10
-22.73350985443123
 20
1.722660926614971
 30
0.0
 10
-23.0198606032308
 20
1.734528456929468
 30
0.0
  0
SPLINE
  5
46C
330
1F
100
AcDbEntity
  8
0
  6
Continuous
 62
     1
370
    15
100
AcDbSpline
210
0.0
220
0.0
230
1.0
 70
     8
 71
     3
 72
    10
 73
     6
 74
     0
 42
0.000000001
 43
0.00000001
 40
0.0
 40
0.0
 40
0.0
 40
0.0
 40
0.4805461919749551
 40
0.9036308446359255
 40
1.0
 40
1.0
 40
1.0
 40
1.0
 10
-34.89769643956672
 20
-1.734543678950423
 30
0.0
 10
-34.61088610341282
 20
-1.723086100484529
 30
0.0
 10
-34.07156091337456
 20
-1.701540988943712
 30
0.0
 10
-33.47529245650859
 20
-1.701292482535684
 30
0.0
 10
-33.16541443039095
 20
-1.71577726845247
 30
0.0
 10
-33.10792580833928
 20
-1.718464488303141
 30
0.0
  0
SPLINE
  5
46D
330
1F
100
AcDbEntity
  8
0
  6
Continuous
 62
     1
370
    15
100
AcDbSpline
210
0.0
220
0.0
230
1.0
 70
     8
 71
     3
 72
    11
 73
     7
 74
     0
 42
0.000000001
 43
0.00000001
 40
0.0
 40
0.0
 40
0.0
 40
0.0
 40
0.261848686025091
 40
0.5073268651921207
 40
0.73799898462333
 40
1.0
 40
1.0
 40
1.0
 40
1.0
 10
-31.61488639067628
 20
1.816406887198184
 30
0.0
 10
-31.90149086008794
 20
1.790631507398686
 30
0.0
 10
-32.45678158628517
 20
1.740692197672452
 30
0.0
 10
-33.26423501380018
 20
1.707032936223186
 30
0.0
 10
-34.07157639862741
 20
1.699894390913592
 30
0.0
 10
-34.6108914794443
 20
1.722514449321317
 30
0.0
 10
-34.89769643956672
 20
1.734543678950438
 30
0.0
  0
SPLINE
  5
46E
330
1F
100
AcDbEntity
  8
0
  6
Continuous
 62
     1
370
    15
100
AcDbSpline
210
0.0
220
0.0
230
1.0
 70
     8
 71
     3
 72
    10
 73
     6
 74
     0
 42
0.000000001
 43
0.00000001
 40
0.0
 40
0.0
 40
0.0
 40
0.0
 40
0.4695453111694417
 40
0.8119965058123912
 40
1.0
 40
1.0
 40
1.0
 40
1.0
 10
-23.0198606032308
 20
-1.734528456929453
 30
0.0
 10
-22.73349850732243
 20
-1.723537837673326
 30
0.0
 10
-22.23828533887323
 20
-1.704531483610367
 30
0.0
 10
-21.62913686104583
 20
-1.698278067019494
 30
0.0
 10
-21.30567679781658
 20
-1.720803302106105
 30
0.0
 10
-21.19103623869305
 20
-1.728786685028062
 30
0.0
  0
SPLINE
  5
46F
330
1F
100
AcDbEntity
  8
0
  6
Continuous
 62
     1
370
    15
100
AcDbSpline
210
0.0
220
0.0
230
1.0
 70
     8
 71
     3
 72
    13
 73
     9
 74
     0
 42
0.000000001
 43
0.00000001
 40
0.0
 40
0.0
 40
0.0
 40
0.0
 40
0.2900500944683167
 40
0.4965310320940526
 40
0.6302940536691478
 40
0.7573329862361379
 40
0.886761577519368
 40
0.9999999999999999
 40
0.9999999999999999
 40
0.9999999999999999
 40
0.9999999999999999
 10
-36.6519871396611
 20
1.641665935147764
 30
0.0
 10
-36.81147148220419
 20
1.617628299210921
 30
0.0
 10
-37.08448958051205
 20
1.576478744673793
 30
0.0
 10
-37.43081181338281
 20
1.535175542365977
 30
0.0
 10
-37.69009187399161
 20
1.508318440728786
 30
0.0
 10
-37.90600442490334
 20
1.488954246085698
 30
0.0
 10
-38.10969398986004
 20
1.472976466861404
 30
0.0
 10
-38.24343134214926
 20
1.46506973453711
 30
0.0
 10
-38.30583869848946
 20
1.461380127608294
 30
0.0
  0
SPLINE
  5
470
330
1F
100
AcDbEntity
  8
0
  6
Continuous
 62
     1
370
    15
100
AcDbSpline
210
0.0
220
0.0
230
1.0
 70
     8
 71
     3
 72
    22
 73
    18
 74
     0
 42
0.000000001
 43
0.00000001
 40
0.0
 40
0.0
 40
0.0
 40
0.0
 40
0.1184676872967491
 40
0.2050914743331378
 40
0.2603312266435678
 40
0.3084293580874606
 40
0.3581112714501697
 40
0.4111748360058954
 40
0.4734244478309006
 40
0.5353916767725244
 40
0.5980569553277804
 40
0.6589369933163212
 40
0.7135065293854922
 40
0.7575625382252651
 40
0.8035794006857642
 40
0.8840566085541535
 40
1.0
 40
1.0
 40
1.0
 40
1.0
 10
-28.5850215080387
 20
-1.492886246527767
 30
0.0
 10
-28.43426369473932
 20
-1.481102328648241
 30
0.0
 10
-28.17327149591831
 20
-1.460701988720281
 30
0.0
 10
-27.84287491864294
 20
-1.44611561445545
 30
0.0
 10
-27.60165287816123
 20
-1.439368151754003
 30
0.0
 10
-27.40728057847071
 20
-1.436552928976503
 30
0.0
 10
-27.21588714422089
 20
-1.436167471448072
 30
0.0
 10
-27.00641402213066
 20
-1.438547971482229
 30
0.0
 10
-26.78118278234184
 20
-1.444410885902421
 30
0.0
 10
-26.54353984443615
 20
-1.454329432080804
 30
0.0
 10
-26.30838962485181
 20
-1.467839274100057
 30
0.0
 10
-26.08417184958925
 20
-1.484283435786132
 30
0.0
 10
-25.88286859042478
 20
-1.5017595403068
 30
0.0
 10
-25.69844082908526
 20
-1.519917763540043
 30
0.0
 10
-25.47994910108151
 20
-1.543791757034121
 30
0.0
 10
-25.1720122750023
 20
-1.581529367815385
 30
0.0
 10
-24.92199382121718
 20
-1.619346668237646
 30
0.0
 10
-24.77441262272223
 20
-1.641669510554542
 30
0.0
  0
SPLINE
  5
471
330
1F
100
AcDbEntity
  8
0
  6
Continuous
 62
     1
370
    15
100
AcDbSpline
210
0.0
220
0.0
230
1.0
 70
     8
 71
     3
 72
    13
 73
     9
 74
     0
 42
0.000000001
 43
0.00000001
 40
0.0
 40
0.0
 40
0.0
 40
0.0
 40
0.2968446905020385
 40
0.4899208178656275
 40
0.5986651805820223
 40
0.7251499914057917
 40
0.9706768889586351
 40
1.0
 40
1.0
 40
1.0
 40
1.0
 10
-24.77441262272223
 20
1.641669510554565
 30
0.0
 10
-24.9366476701051
 20
1.617224305660252
 30
0.0
 10
-25.20440495074184
 20
1.576879252647978
 30
0.0
 10
-25.53104086064625
 20
1.537895658083663
 30
0.0
 10
-25.76699859761326
 20
1.51279651150982
 30
0.0
 10
-26.02896700182792
 20
1.488671960570749
 30
0.0
 10
-26.24493037329785
 20
1.470411573451721
 30
0.0
 10
-26.39481608007114
 20
1.463454593969978
 30
0.0
 10
-26.41080703908805
 20
1.462712369936952
 30
0.0
  0
SPLINE
  5
472
330
1F
100
AcDbEntity
  8
0
  6
Continuous
 62
     1
370
    15
100
AcDbSpline
210
0.0
220
0.0
230
1.0
 70
     8
 71
     3
 72
    17
 73
    13
 74
     0
 42
0.000000001
 43
0.00000001
 40
0.0
 40
0.0
 40
0.0
 40
0.0
 40
0.1329934437730808
 40
0.2247165716667979
 40
0.2807329922522058
 40
0.3341838250859733
 40
0.3896846963010463
 40
0.4546198911067831
 40
0.5736619088472091
 40
0.6858324878835681
 40
0.818941706501362
 40
1.0
 40
1.0
 40
1.0
 40
1.0
 10
-40.49461242985311
 20
-1.495588437800492
 30
0.0
 10
-40.32323518995035
 20
-1.482063696993527
 30
0.0
 10
-40.0336622251478
 20
-1.45921119163237
 30
0.0
 10
-39.67305795194344
 20
-1.444340554407858
 30
0.0
 10
-39.41564903237046
 20
-1.438089661630407
 30
0.0
 10
-39.20473027208795
 20
-1.436005493781188
 30
0.0
 10
-38.98264233672885
 20
-1.436943124936704
 30
0.0
 10
-38.67627700787188
 20
-1.443043876053216
 30
0.0
 10
-38.29723774004686
 20
-1.459327865884589
 30
0.0
 10
-37.83013090556964
 20
-1.493748258562433
 30
0.0
 10
-37.28473078756705
 20
-1.548474091305088
 30
0.0
 10
-36.88332299456403
 20
-1.607594293438396
 30
0.0
 10
-36.6519871396611
 20
-1.641665935147749
 30
0.0
  0
LINE
  5
473
330
1F
100
AcDbEntity
  8
외형선
  6
Continuous
370
    15
100
AcDbLine
 10
-17.30942116787308
 20
-2.381249999999987
 30
0.0
 11
-17.30942116787308
 21
2.381250000000009
 31
0.0
  0
LINE
  5
474
330
1F
100
AcDbEntity
  8
외형선
  6
Continuous
370
    15
100
AcDbLine
 10
-18.05000000000002
 20
-2.18281249999999
 30
0.0
 11
-18.05000000000002
 21
2.182812500000012
 31
0.0
  0
SPLINE
  5
475
330
1F
100
AcDbEntity
  8
외형선
  6
Continuous
370
    15
100
AcDbSpline
210
0.0
220
0.0
230
1.0
 70
     8
 71
     3
 72
     8
 73
     4
 74
     0
 42
0.000000001
 43
0.00000001
 40
0.0
 40
0.0
 40
0.0
 40
0.0
 40
1.0
 40
1.0
 40
1.0
 40
1.0
 10
-19.05000000000002
 20
2.17514295752762
 30
0.0
 10
-18.75165842390306
 20
2.189524547395614
 30
0.0
 10
-18.4584041626805
 20
2.183693486095493
 30
0.0
 10
-18.16009432781045
 20
2.157747262231965
 30
0.0
  0
LINE
  5
476
330
1F
100
AcDbEntity
  8
외형선
  6
Continuous
370
    15
100
AcDbLine
 10
-19.05000000000002
 20
-2.175142957527604
 30
0.0
 11
-18.73346780456288
 21
-2.168955450474705
 31
0.0
  0
LINE
  5
477
330
1F
100
AcDbEntity
  8
외형선
  6
Continuous
370
    15
100
AcDbLine
 10
-19.05000000000002
 20
-2.175142957527604
 30
0.0
 11
-19.05000000000002
 21
-2.04005065906815
 31
0.0
  0
SPLINE
  5
478
330
1F
100
AcDbEntity
  8
외형선
  6
Continuous
370
    15
100
AcDbSpline
210
0.0
220
0.0
230
1.0
 70
     8
 71
     3
 72
     8
 73
     4
 74
     0
 42
0.000000001
 43
0.00000001
 40
0.0
 40
0.0
 40
0.0
 40
0.0
 40
1.0
 40
1.0
 40
1.0
 40
1.0
 10
-19.05000000000002
 20
-2.04005065906815
 30
0.0
 10
-18.75164232562577
 20
-2.101132734515893
 30
0.0
 10
-18.45837212021485
 20
-2.142984461182614
 30
0.0
 10
-18.16004603810459
 20
-2.164923371449084
 30
0.0
  0
LINE
  5
479
330
1F
100
AcDbEntity
  8
외형선
  6
Continuous
370
    15
100
AcDbLine
 10
-18.16004603810459
 20
2.157733124058048
 30
0.0
 11
-18.16004603810459
 21
-2.165018523509964
 31
0.0
  0
SPLINE
  5
47A
330
1F
100
AcDbEntity
  8
외형선
  6
Continuous
370
    15
100
AcDbSpline
210
0.0
220
0.0
230
1.0
 70
     8
 71
     3
 72
    12
 73
     8
 74
     0
 42
0.000000001
 43
0.00000001
 40
0.0
 40
0.0
 40
0.0
 40
0.0
 40
0.25
 40
0.25
 40
0.5
 40
0.5
 40
1.0
 40
1.0
 40
1.0
 40
1.0
 10
-18.45552687082253
 20
0.4274718873857216
 30
0.0
 10
-18.39295667138149
 20
0.3993931670892726
 30
0.0
 10
-18.34893612215942
 20
0.3465412998397857
 30
0.0
 10
-18.27770545611634
 20
0.2358411799187299
 30
0.0
 10
-18.2505431778437
 20
0.1754816475518699
 30
0.0
 10
-18.18491635731321
 20
-0.0085459201148618
 30
0.0
 10
-18.16004603810459
 20
-0.1392090720128958
 30
0.0
 10
-18.16004603810459
 20
-0.2695648917437689
 30
0.0
  0
SPLINE
  5
47B
330
1F
100
AcDbEntity
  8
외형선
  6
Continuous
370
    15
100
AcDbSpline
210
0.0
220
0.0
230
1.0
 70
     8
 71
     3
 72
    14
 73
    10
 74
     0
 42
0.000000001
 43
0.00000001
 40
0.0
 40
0.0
 40
0.0
 40
0.0
 40
0.2500000000000001
 40
0.2500000000000001
 40
0.5000000000000001
 40
0.5000000000000001
 40
0.75
 40
0.75
 40
1.0
 40
1.0
 40
1.0
 40
1.0
 10
-18.1600460381047
 20
-1.968648936693512
 30
0.0
 10
-18.1600460381047
 20
-1.909680114448328
 30
0.0
 10
-18.17367875030696
 20
-1.85059543962749
 30
0.0
 10
-18.21492255115712
 20
-1.742065336160841
 30
0.0
 10
-18.24295028978717
 20
-1.691589161625991
 30
0.0
 10
-18.30832123844264
 20
-1.603001413421438
 30
0.0
 10
-18.34654220832517
 20
-1.563518712912198
 30
0.0
 10
-18.43434419555047
 20
-1.501542018895854
 30
0.0
 10
-18.48477405052854
 20
-1.478700190165561
 30
0.0
 10
-18.54018915574174
 20
-1.472703378899474
 30
0.0
  0
SPLINE
  5
47C
330
1F
100
AcDbEntity
  8
외형선
  6
Continuous
370
    15
100
AcDbSpline
210
0.0
220
0.0
230
1.0
 70
    24
 71
     3
 72
    10
 73
     6
 74
     0
 42
0.000000001
 43
0.00000001
 40
0.0
 40
0.0
 40
0.0
 40
0.0
 40
0.5
 40
0.5
 40
1.0
 40
1.0
 40
1.0
 40
1.0
 10
-19.05000000000002
 20
0.6877151071137395
 30
0.0
 10
-19.05000000000002
 20
0.9797921889065582
 30
0.0
 10
-19.05000000000002
 20
1.249139642362984
 30
0.0
 10
-19.05000000000002
 20
1.657120344907192
 30
0.0
 10
-19.05000000000002
 20
1.793997485560376
 30
0.0
 10
-19.05000000000002
 20
1.854876385340511
 30
0.0
  0
SPLINE
  5
47D
330
1F
100
AcDbEntity
  8
외형선
  6
Continuous
370
    15
100
AcDbSpline
210
0.0
220
0.0
230
1.0
 70
     8
 71
     3
 72
     8
 73
     4
 74
     0
 42
0.000000001
 43
0.00000001
 40
0.0
 40
0.0
 40
0.0
 40
0.0
 40
1.0
 40
1.0
 40
1.0
 40
1.0
 10
-19.05000000000005
 20
1.854876385340511
 30
0.0
 10
-18.75165842390306
 20
1.858312488103345
 30
0.0
 10
-18.4584041626805
 20
1.844562305397389
 30
0.0
 10
-18.16009432781045
 20
1.813852499877108
 30
0.0
  0
SPLINE
  5
47E
330
1F
100
AcDbEntity
  8
외형선
  6
Continuous
370
    15
100
AcDbSpline
210
0.0
220
0.0
230
1.0
 70
     8
 71
     3
 72
     8
 73
     4
 74
     0
 42
0.000000001
 43
0.00000001
 40
0.0
 40
0.0
 40
0.0
 40
0.0
 40
1.0
 40
1.0
 40
1.0
 40
1.0
 10
-19.05000000000002
 20
0.6877151071137466
 30
0.0
 10
-18.85044961854354
 20
0.6032593376040372
 30
0.0
 10
-18.65352988626135
 20
0.5163268269260048
 30
0.0
 10
-18.45552687082253
 20
0.4274718873857216
 30
0.0
  0
SPLINE
  5
47F
330
1F
100
AcDbEntity
  8
외형선
  6
Continuous
370
    15
100
AcDbSpline
210
0.0
220
0.0
230
1.0
 70
     8
 71
     3
 72
     8
 73
     4
 74
     0
 42
0.000000001
 43
0.00000001
 40
0.0
 40
0.0
 40
0.0
 40
0.0
 40
1.0
 40
1.0
 40
1.0
 40
1.0
 10
-19.05000000000005
 20
-1.404487299156194
 30
0.0
 10
-18.87894481238167
 20
-1.431627925446569
 30
0.0
 10
-18.70925492597787
 20
-1.454407726265387
 30
0.0
 10
-18.54018915574174
 20
-1.472703378899474
 30
0.0
  0
SPLINE
  5
480
330
1F
100
AcDbEntity
  8
외형선
  6
Continuous
370
    15
100
AcDbSpline
210
0.0
220
0.0
230
1.0
 70
    24
 71
     3
 72
    14
 73
    10
 74
     0
 42
0.000000001
 43
0.00000001
 40
0.0
 40
0.0
 40
0.0
 40
0.0
 40
0.25
 40
0.25
 40
0.5
 40
0.5
 40
0.75
 40
0.75
 40
1.0
 40
1.0
 40
1.0
 40
1.0
 10
-19.05000000000002
 20
-1.404487299156194
 30
0.0
 10
-19.05000000000002
 20
-1.292242549553002
 30
0.0
 10
-19.05000000000002
 20
-1.15709383797477
 30
0.0
 10
-19.05000000000002
 20
-0.8477145132306485
 30
0.0
 10
-19.05000000000002
 20
-0.6735583044301658
 30
0.0
 10
-19.05000000000002
 20
-0.3017136163181031
 30
0.0
 10
-19.05000000000002
 20
-0.1042232714025028
 30
0.0
 10
-19.05000000000002
 20
0.2940666513503989
 30
0.0
 10
-19.05000000000002
 20
0.4946669450899895
 30
0.0
 10
-19.05000000000002
 20
0.6877151071137466
 30
0.0
  0
SPLINE
  5
481
330
1F
100
AcDbEntity
  8
외형선
  6
Continuous
370
    15
100
AcDbSpline
210
0.0
220
0.0
230
1.0
 70
    24
 71
     3
 72
    10
 73
     6
 74
     0
 42
0.000000001
 43
0.00000001
 40
0.0
 40
0.0
 40
0.0
 40
0.0
 40
0.5
 40
0.5
 40
1.0
 40
1.0
 40
1.0
 40
1.0
 10
-19.05000000000002
 20
-2.04005065906815
 30
0.0
 10
-19.05000000000002
 20
-1.950582744991415
 30
0.0
 10
-19.05000000000002
 20
-1.845093765056368
 30
0.0
 10
-19.05000000000002
 20
-1.624829126846634
 30
0.0
 10
-19.05000000000002
 20
-1.510683613846175
 30
0.0
 10
-19.05000000000002
 20
-1.404487299156194
 30
0.0
  0
SPLINE
  5
482
330
1F
100
AcDbEntity
  8
외형선
  6
Continuous
370
    15
100
AcDbSpline
210
0.0
220
0.0
230
1.0
 70
    24
 71
     3
 72
     8
 73
     4
 74
     0
 42
0.000000001
 43
0.00000001
 40
0.0
 40
0.0
 40
0.0
 40
0.0
 40
1.0
 40
1.0
 40
1.0
 40
1.0
 10
-19.05000000000002
 20
1.854876385340511
 30
0.0
 10
-19.05000000000002
 20
1.964756092458508
 30
0.0
 10
-19.05000000000002
 20
2.072211600552699
 30
0.0
 10
-19.05000000000002
 20
2.175142957517509
 30
0.0
  0
SPLINE
  5
483
330
1F
100
AcDbEntity
  8
0
  6
Continuous
 62
     1
370
    15
100
AcDbSpline
210
0.0
220
0.0
230
1.0
 70
     8
 71
     3
 72
    17
 73
    13
 74
     0
 42
0.000000001
 43
0.00000001
 40
0.0
 40
0.0
 40
0.0
 40
0.0
 40
0.1083353565131122
 40
0.2166926006449467
 40
0.3250682138025207
 40
0.4334586417748998
 40
0.5418603015247044
 40
0.6502695881003054
 40
0.7586828816401001
 40
0.8670965544396161
 40
0.9755069780517134
 40
0.9999999999999999
 40
0.9999999999999999
 40
0.9999999999999999
 40
0.9999999999999999
 10
-41.27500000000004
 20
2.071359991120268
 30
0.0
 10
-40.88995296724912
 20
1.982440142851566
 30
0.0
 10
-40.11978110846801
 20
1.804582481322889
 30
0.0
 10
-38.96435810869765
 20
1.319069452630871
 30
0.0
 10
-37.80870412802208
 20
0.7249908824746218
 30
0.0
 10
-36.65285968594075
 20
0.0600435329536216
 30
0.0
 10
-35.49687186619798
 20
-0.6098318943450347
 30
0.0
 10
-34.34078654367566
 20
-1.222233590311645
 30
0.0
 10
-33.18464960044557
 20
-1.725707055184322
 30
0.0
 10
-32.02850928111875
 20
-2.052400873475825
 30
0.0
 10
-31.17068628867469
 20
-2.199944155534673
 30
0.0
 10
-30.69825606375699
 20
-2.170469452793035
 30
0.0
 10
-30.61119102327476
 20
-2.165037505275606
 30
0.0
  0
SPLINE
  5
484
330
1F
100
AcDbEntity
  8
0
  6
Continuous
 62
     1
370
    15
100
AcDbSpline
210
0.0
220
0.0
230
1.0
 70
     8
 71
     3
 72
    10
 73
     6
 74
     0
 42
0.000000001
 43
0.00000001
 40
0.0
 40
0.0
 40
0.0
 40
0.0
 40
0.0870762663608605
 40
0.5435791648039981
 40
1.0
 40
1.0
 40
1.0
 40
1.0
 10
-21.19103623869305
 20
1.728786685028077
 30
0.0
 10
-21.12888736476098
 20
1.753139045125089
 30
0.0
 10
-20.74091904230779
 20
1.905160211348268
 30
0.0
 10
-20.02724481450202
 20
2.080242386396272
 30
0.0
 10
-19.37572874977921
 20
2.143511329577998
 30
0.0
 10
-19.04999999999743
 20
2.175142957527747
 30
0.0
  0
SPLINE
  5
485
330
1F
100
AcDbEntity
  8
외형선
  6
Continuous
370
    15
100
AcDbSpline
210
0.0
220
0.0
230
1.0
 70
    24
 71
     3
 72
     8
 73
     4
 74
     0
 42
0.000000001
 43
0.00000001
 40
0.0
 40
0.0
 40
0.0
 40
0.0
 40
1.0
 40
1.0
 40
1.0
 40
1.0
 10
-19.05000000000002
 20
1.854876385340511
 30
0.0
 10
-19.05000000000002
 20
1.964756092458515
 30
0.0
 10
-19.05000000000002
 20
2.072211600552699
 30
0.0
 10
-19.05000000000002
 20
2.175142957517516
 30
0.0
  0
SPLINE
  5
486
330
1F
100
AcDbEntity
  8
0
  6
Continuous
 62
     1
370
    15
100
AcDbSpline
210
0.0
220
0.0
230
1.0
 70
     8
 71
     3
 72
    13
 73
     9
 74
     0
 42
0.000000001
 43
0.00000001
 40
0.0
 40
0.0
 40
0.0
 40
0.0
 40
0.1696949826694344
 40
0.3392975361069401
 40
0.5088328103335468
 40
0.6783262621806938
 40
0.8478035398929296
 40
1.0
 40
1.0
 40
1.0
 40
1.0
 10
-41.27500000000001
 20
1.722178520816258
 30
0.0
 10
-40.9536697358802
 20
1.652727673184977
 30
0.0
 10
-40.31118422937102
 20
1.513863806315478
 30
0.0
 10
-39.34777503116582
 20
1.178045612435924
 30
0.0
 10
-38.38479730116436
 20
0.7739896770528252
 30
0.0
 10
-37.42209334761521
 20
0.3187380450572098
 30
0.0
 10
-36.49223028167766
 20
-0.1434070946778685
 30
0.0
 10
-35.88323704447823
 20
-0.4328365534757732
 30
0.0
 10
-35.59509846170412
 20
-0.5697769806874216
 30
0.0
  0
LINE
  5
487
330
1F
100
AcDbEntity
  8
0
  6
Continuous
 62
     1
370
    15
100
AcDbLine
 10
-19.74254156333942
 20
1.8023195999277
 30
0.0
 11
-19.05000000000002
 21
1.854876385340511
 31
0.0
  0
LINE
  5
488
330
1F
100
AcDbEntity
  8
0
  6
Continuous
 62
     1
370
    15
100
AcDbLine
 10
-41.27500000000001
 20
2.071359991120268
 30
0.0
 11
-41.27500000000001
 21
1.722178520816258
 31
0.0
  0
SPLINE
  5
489
330
1F
100
AcDbEntity
  8
0
  6
Continuous
 62
     1
370
    15
100
AcDbSpline
210
0.0
220
0.0
230
1.0
 70
     8
 71
     3
 72
    20
 73
    16
 74
     0
 42
0.000000001
 43
0.00000001
 40
0.0
 40
0.0
 40
0.0
 40
0.0
 40
0.0767731015985599
 40
0.1590007366726083
 40
0.2412231599913379
 40
0.3234376344498779
 40
0.4056414384596789
 40
0.4878318712077164
 40
0.5700062578286391
 40
0.6521739921635922
 40
0.721780844327783
 40
0.7913675844295214
 40
0.860928640508001
 40
0.930470570856829
 40
1.0
 40
1.0
 40
1.0
 40
1.0
 10
-33.10792580833928
 20
1.718464488303163
 30
0.0
 10
-32.74811619123535
 20
1.834432371731957
 30
0.0
 10
-32.00293339947368
 20
2.074607361560539
 30
0.0
 10
-30.87240841992915
 20
2.209460526896344
 30
0.0
 10
-29.71639641039068
 20
2.156030124826856
 30
0.0
 10
-28.56051817679018
 20
1.899030400393471
 30
0.0
 10
-27.40482072909584
 20
1.466940053064036
 30
0.0
 10
-26.24934531855349
 20
0.8985919931540782
 30
0.0
 10
-25.09409648297973
 20
0.2471143576482296
 30
0.0
 10
-23.99781952519667
 20
-0.3932545933971662
 30
0.0
 10
-22.96055420596768
 20
-0.9651038661697338
 30
0.0
 10
-21.98242040318747
 20
-1.441304940638069
 30
0.0
 10
-21.00467159832474
 20
-1.818768084528876
 30
0.0
 10
-20.02724164347345
 20
-2.085663159739986
 30
0.0
 10
-19.37572769283302
 20
-2.145318145738983
 30
0.0
 10
-19.04999999999743
 20
-2.175142957527732
 30
0.0
  0
SPLINE
  5
48A
330
1F
100
AcDbEntity
  8
0
  6
Continuous
 62
     1
370
    15
100
AcDbSpline
210
0.0
220
0.0
230
1.0
 70
     8
 71
     3
 72
    16
 73
    12
 74
     0
 42
0.000000001
 43
0.00000001
 40
0.0
 40
0.0
 40
0.0
 40
0.0
 40
0.1185892784696791
 40
0.2406299769622623
 40
0.3626358338685124
 40
0.4846252830932598
 40
0.6066168337555695
 40
0.7286289853350005
 40
0.8506801429111737
 40
0.9727885333159646
 40
1.0
 40
1.0
 40
1.0
 40
1.0
 10
-31.61524598355519
 20
1.814695374493461
 30
0.0
 10
-31.30329010845873
 20
1.835845846497904
 30
0.0
 10
-30.67029920062638
 20
1.878762353427085
 30
0.0
 10
-29.71644872249511
 20
1.792094831220056
 30
0.0
 10
-28.75368924506407
 20
1.597985016493518
 30
0.0
 10
-27.79108007499193
 20
1.298282211493721
 30
0.0
 10
-26.82845117461293
 20
0.9156971743724331
 30
0.0
 10
-25.86563682439007
 20
0.472887938312042
 30
0.0
 10
-24.90246584171357
 20
0.0030193936665204
 30
0.0
 10
-24.18861674912674
 20
-0.3548658629076792
 30
0.0
 10
-23.79579261717792
 20
-0.531955404672011
 30
0.0
 10
-23.72420588392212
 20
-0.5642275100688461
 30
0.0
  0
SPLINE
  5
48B
330
1F
100
AcDbEntity
  8
0
  6
Continuous
 62
     1
370
    15
100
AcDbSpline
210
0.0
220
0.0
230
1.0
 70
     8
 71
     3
 72
    20
 73
    16
 74
     0
 42
0.000000001
 43
0.00000001
 40
0.0
 40
0.0
 40
0.0
 40
0.0
 40
0.0668884090803156
 40
0.1446396601900198
 40
0.2224010052960741
 40
0.3001698699909432
 40
0.3779436651877922
 40
0.4557197921573085
 40
0.5334956476051677
 40
0.6112686287687751
 40
0.6890361385117566
 40
0.7667955903947099
 40
0.8445444137008731
 40
0.9222800583957264
 40
1.0
 40
1.0
 40
1.0
 40
1.0
 10
-26.41052308885984
 20
-1.4626045697537
 30
0.0
 10
-26.74192484927605
 20
-1.597696477555828
 30
0.0
 10
-27.45854883050155
 20
-1.889819551008798
 30
0.0
 10
-28.56049260078149
 20
-2.138910231281329
 30
0.0
 10
-29.71637208781798
 20
-2.215616783675727
 30
0.0
 10
-30.87238676760268
 20
-2.083162569633252
 30
0.0
 10
-32.02848902927176
 20
-1.758500707975962
 30
0.0
 10
-33.18463294304028
 20
-1.270473019563972
 30
0.0
 10
-34.34077198886431
 20
-0.6647075157480411
 30
0.0
 10
-35.49685982194641
 20
0.0027894770426902
 30
0.0
 10
-36.65285004556851
 20
0.6697238873819136
 30
0.0
 10
-37.80869691716848
 20
1.275570101483531
 30
0.0
 10
-38.96435331191569
 20
1.759217232172226
 30
0.0
 10
-40.11977871607875
 20
2.094254861657142
 30
0.0
 10
-40.88995217129489
 20
2.152065313840631
 30
0.0
 10
-41.27500000000001
 20
2.182812500000005
 30
0.0
  0
SPLINE
  5
48C
330
1F
100
AcDbEntity
  8
0
  6
Continuous
 62
     1
370
    15
100
AcDbSpline
210
0.0
220
0.0
230
1.0
 70
     8
 71
     3
 72
    16
 73
    12
 74
     0
 42
0.000000001
 43
0.00000001
 40
0.0
 40
0.0
 40
0.0
 40
0.0
 40
0.049879500311413
 40
0.1822076085457657
 40
0.3145850795754236
 40
0.4470324212274276
 40
0.5795173707624409
 40
0.7119283247075296
 40
0.8442793074707088
 40
0.9765909490932483
 40
1.0
 40
1.0
 40
1.0
 40
1.0
 10
-35.85981268353104
 20
0.2089401474565596
 30
0.0
 10
-35.73883777182173
 20
0.161005785872185
 30
0.0
 10
-35.29692176987758
 20
-0.0140963169341215
 30
0.0
 10
-34.5339257700758
 20
-0.3262358579774295
 30
0.0
 10
-33.57063712826781
 20
-0.695442932173115
 30
0.0
 10
-32.6069098605515
 20
-1.020904980282814
 30
0.0
 10
-31.64305233236784
 20
-1.279522895800575
 30
0.0
 10
-30.67951413411178
 20
-1.457981386557229
 30
0.0
 10
-29.71643516662466
 20
-1.533656560494129
 30
0.0
 10
-29.01775488898827
 20
-1.540032838771026
 30
0.0
 10
-28.64008003239417
 20
-1.49284953454557
 30
0.0
 10
-28.58330524029294
 20
-1.485756601983929
 30
0.0
  0
SPLINE
  5
48D
330
1F
100
AcDbEntity
  8
0
  6
Continuous
 62
     1
370
    15
100
AcDbSpline
210
0.0
220
0.0
230
1.0
 70
     8
 71
     3
 72
    17
 73
    13
 74
     0
 42
0.000000001
 43
0.00000001
 40
0.0
 40
0.0
 40
0.0
 40
0.0
 40
0.0930574706839766
 40
0.1861316759653184
 40
0.2792314839730271
 40
0.372365674164173
 40
0.4655267714923964
 40
0.5755002651062685
 40
0.6854826459459088
 40
0.7954865057373792
 40
0.9055082641175054
 40
1.0
 40
1.0
 40
1.0
 40
1.0
 10
-19.05000000000002
 20
-2.04005065906815
 30
0.0
 10
-19.37572528126777
 20
-1.959942654338398
 30
0.0
 10
-20.02723441923403
 20
-1.799712238994068
 30
0.0
 10
-21.0046571856932
 20
-1.403375271465293
 30
0.0
 10
-21.98239885721879
 20
-0.9234253213525174
 30
0.0
 10
-22.96052556535455
 20
-0.3793749176742475
 30
0.0
 10
-23.99778691914981
 20
0.2232655726530699
 30
0.0
 10
-25.0940631322699
 20
0.8457430125394514
 30
0.0
 10
-26.24931414207115
 20
1.424304211496825
 30
0.0
 10
-27.4047923581446
 20
1.865577535506362
 30
0.0
 10
-28.50606246932316
 20
2.140298608322205
 30
0.0
 10
-29.2221813232396
 20
2.160955506754342
 30
0.0
 10
-29.55305099933955
 20
2.170499650517755
 30
0.0
  0
SPLINE
  5
48E
330
1F
100
AcDbEntity
  8
0
  6
Continuous
 62
     1
370
    15
100
AcDbSpline
210
0.0
220
0.0
230
1.0
 70
     8
 71
     3
 72
    10
 73
     6
 74
     0
 42
0.000000001
 43
0.00000001
 40
0.0
 40
0.0
 40
0.0
 40
0.0
 40
0.2218026741468497
 40
0.6109406412354287
 40
1.0
 40
1.0
 40
1.0
 40
1.0
 10
-38.30581101474716
 20
-1.4613686474706
 30
0.0
 10
-38.52534595012228
 20
-1.556648017813557
 30
0.0
 10
-39.13004025648068
 20
-1.819088675202998
 30
0.0
 10
-40.11977780955338
 20
-2.090653164064654
 30
0.0
 10
-40.88995186914011
 20
-2.15086482882797
 30
0.0
 10
-41.27500000000001
 20
-2.182812499999997
 30
0.0
  0
SPLINE
  5
48F
330
1F
100
AcDbEntity
  8
0
  6
Continuous
 62
     1
370
    15
100
AcDbSpline
210
0.0
220
0.0
230
1.0
 70
    24
 71
     3
 72
    10
 73
     6
 74
     0
 42
0.000000001
 43
0.00000001
 40
0.0
 40
0.0
 40
0.0
 40
0.0
 40
0.5000000000000004
 40
0.5000000000000004
 40
1.0
 40
1.0
 40
1.0
 40
1.0
 10
-41.27500000000001
 20
-1.527968749999992
 30
0.0
 10
-41.27500000000004
 20
-1.620590410562208
 30
0.0
 10
-41.27500000000004
 20
-1.728225357823994
 30
0.0
 10
-41.27500000000001
 20
-1.95404318728486
 30
0.0
 10
-41.27500000000001
 20
-2.071649359085391
 30
0.0
 10
-41.27500000000001
 20
-2.182812499999997
 30
0.0
  0
LINE
  5
490
330
1F
100
AcDbEntity
  8
0
  6
Continuous
 62
     1
370
    15
100
AcDbLine
 10
-41.27500000000001
 20
-1.527968749999992
 30
0.0
 11
-40.49260759938026
 21
-1.487921790520616
 31
0.0
  0
SPLINE
  5
491
330
1F
100
AcDbEntity
  8
0
  6
Continuous
 62
     1
370
    15
100
AcDbSpline
210
0.0
220
0.0
230
1.0
 70
     8
 71
     3
 72
    13
 73
     9
 74
     0
 42
0.000000001
 43
0.00000001
 40
0.0
 40
0.0
 40
0.0
 40
0.0
 40
0.0076059583371215
 40
0.2033025376963402
 40
0.3989101966928451
 40
0.5944214790847366
 40
0.7972214226996993
 40
1.0
 40
1.0
 40
1.0
 40
1.0
 10
-23.9764085172881
 20
0.2080497553504661
 30
0.0
 10
-23.96391828466771
 20
0.2031830123204732
 30
0.0
 10
-23.63006213195201
 20
0.0730979968025314
 30
0.0
 10
-22.97492152720285
 20
-0.1983429018113649
 30
0.0
 10
-22.01127821927466
 20
-0.5766030151658437
 30
0.0
 10
-21.03602732743597
 20
-0.9224796016288361
 30
0.0
 10
-20.04896810258192
 20
-1.21694856371689
 30
0.0
 10
-19.38297767249552
 20
-1.341976582880136
 30
0.0
 10
-19.05000000000002
 20
-1.404487299156194
 30
0.0
  0
SPLINE
  5
492
330
1F
100
AcDbEntity
  8
외형선
  6
Continuous
370
    15
100
AcDbSpline
210
0.0
220
0.0
230
1.0
 70
    24
 71
     3
 72
    10
 73
     6
 74
     0
 42
0.000000001
 43
0.00000001
 40
0.0
 40
0.0
 40
0.0
 40
0.0
 40
0.5
 40
0.5
 40
1.0
 40
1.0
 40
1.0
 40
1.0
 10
-19.05000000000002
 20
-2.04005065906815
 30
0.0
 10
-19.05000000000002
 20
-1.950582744991415
 30
0.0
 10
-19.05000000000002
 20
-1.845093765056368
 30
0.0
 10
-19.05000000000002
 20
-1.624829126846634
 30
0.0
 10
-19.05000000000002
 20
-1.510683613846175
 30
0.0
 10
-19.05000000000002
 20
-1.404487299156194
 30
0.0
  0
LINE
  5
493
330
1F
100
AcDbEntity
  8
0
  6
Continuous
 62
     1
370
    15
100
AcDbLine
 10
-41.27500000000001
 20
2.182812500000005
 30
0.0
 11
-41.27500000000001
 21
2.071359991120268
 31
0.0
  0
SPLINE
  5
494
330
1F
100
AcDbEntity
  8
0
  6
Continuous
 62
     1
370
    15
100
AcDbSpline
210
0.0
220
0.0
230
1.0
 70
     8
 71
     3
 72
     8
 73
     4
 74
     0
 42
0.000000001
 43
0.00000001
 40
0.0
 40
0.0
 40
0.0
 40
0.0
 40
1.0
 40
1.0
 40
1.0
 40
1.0
 10
-39.92377037530583
 20
-0.6112018266196695
 30
0.0
 10
-39.84645019123443
 20
-0.7028228990928365
 30
0.0
 10
-39.77741771646473
 20
-0.791035800269142
 30
0.0
 10
-39.71864407772413
 20
-0.8750299397561672
 30
0.0
  0
LINE
  5
495
330
1F
100
AcDbEntity
  8
0
  6
Continuous
 62
     1
370
    15
100
AcDbLine
 10
-39.74625957379025
 20
-0.898202092320012
 30
0.0
 11
-41.27500000000001
 21
0.0000000000000076
 31
0.0
  0
LINE
  5
496
330
1F
100
AcDbEntity
  8
0
  6
Continuous
 62
     1
370
    15
100
AcDbLine
 10
-41.27500000000001
 20
0.0000000000000076
 30
0.0
 11
-41.27500000000001
 21
0.583341243130342
 31
0.0
  0
SPLINE
  5
497
330
1F
100
AcDbEntity
  8
0
  6
Continuous
 62
     1
370
    15
100
AcDbSpline
210
0.0
220
0.0
230
1.0
 70
     8
 71
     3
 72
    10
 73
     6
 74
     0
 42
0.000000001
 43
0.00000001
 40
0.0
 40
0.0
 40
0.0
 40
0.0
 40
0.5
 40
0.5
 40
1.0
 40
1.0
 40
1.0
 40
1.0
 10
-41.27500000000001
 20
0.583341243130342
 30
0.0
 10
-41.04108965399511
 20
0.3994465620391954
 30
0.0
 10
-40.81108997950557
 20
0.2080072785355261
 30
0.0
 10
-40.35910341293857
 20
-0.190329824756446
 30
0.0
 10
-40.13501505108889
 20
-0.3993333841178237
 30
0.0
 10
-39.92377037530685
 20
-0.6112018266186534
 30
0.0
  0
SPLINE
  5
498
330
1F
100
AcDbEntity
  8
외형선
  6
Continuous
370
    15
100
AcDbSpline
210
0.0
220
0.0
230
1.0
 70
    24
 71
     3
 72
    10
 73
     6
 74
     0
 42
0.000000001
 43
0.00000001
 40
0.0
 40
0.0
 40
0.0
 40
0.0
 40
0.5
 40
0.5
 40
1.0
 40
1.0
 40
1.0
 40
1.0
 10
-19.05000000000002
 20
0.6877151071137395
 30
0.0
 10
-19.05000000000002
 20
0.9797921889065582
 30
0.0
 10
-19.05000000000002
 20
1.249139642362984
 30
0.0
 10
-19.05000000000002
 20
1.657120344907192
 30
0.0
 10
-19.05000000000002
 20
1.793997485560376
 30
0.0
 10
-19.05000000000002
 20
1.854876385340511
 30
0.0
  0
SPLINE
  5
499
330
1F
100
AcDbEntity
  8
0
  6
Continuous
 62
     1
370
    15
100
AcDbSpline
210
0.0
220
0.0
230
1.0
 70
     8
 71
     3
 72
    13
 73
     9
 74
     0
 42
0.000000001
 43
0.00000001
 40
0.0
 40
0.0
 40
0.0
 40
0.0
 40
0.1531555202899775
 40
0.3061554148673832
 40
0.4976582143296909
 40
0.6891424825331918
 40
0.8806376881686991
 40
0.9999999999999999
 40
0.9999999999999999
 40
0.9999999999999999
 40
0.9999999999999999
 10
-39.92377037530716
 20
-0.6112018266190868
 30
0.0
 10
-39.66710454541187
 20
-0.7196689558738636
 30
0.0
 10
-39.15403369112531
 20
-0.9364929978254533
 30
0.0
 10
-38.32022476672419
 20
-1.239878650177992
 30
0.0
 10
-37.42208186173441
 20
-1.504194513101673
 30
0.0
 10
-36.45948950454548
 20
-1.684926626781255
 30
0.0
 10
-35.61776252893907
 20
-1.763416293452927
 30
0.0
 10
-35.09686775030222
 20
-1.732922625915357
 30
0.0
 10
-34.89685584289968
 20
-1.721213741783621
 30
0.0
  0
SPLINE
  5
49A
330
1F
100
AcDbEntity
  8
0
  6
Continuous
 62
     1
370
    15
100
AcDbSpline
210
0.0
220
0.0
230
1.0
 70
     8
 71
     3
 72
    13
 73
     9
 74
     0
 42
0.000000001
 43
0.00000001
 40
0.0
 40
0.0
 40
0.0
 40
0.0
 40
0.1463896529287221
 40
0.3147155362776337
 40
0.4829669176312084
 40
0.6511375576563909
 40
0.8255777277651202
 40
1.0
 40
1.0
 40
1.0
 40
1.0
 10
-24.77738928908332
 20
1.635060048350006
 30
0.0
 10
-24.49791195126978
 20
1.673833922895753
 30
0.0
 10
-23.89707809117272
 20
1.757191868468354
 30
0.0
 10
-22.97492315672344
 20
1.749060232194815
 30
0.0
 10
-22.011275377057
 20
1.638198843108875
 30
0.0
 10
-21.03603407135862
 20
1.415189506902401
 30
0.0
 10
-20.04896866786689
 20
1.098010333077369
 30
0.0
 10
-19.38297816673501
 20
0.8244755046677672
 30
0.0
 10
-19.05000000000002
 20
0.6877151071137466
 30
0.0
  0
SPLINE
  5
49B
330
1F
100
AcDbEntity
  8
0
  6
Continuous
 62
     1
370
    15
100
AcDbSpline
210
0.0
220
0.0
230
1.0
 70
    24
 71
     3
 72
    10
 73
     6
 74
     0
 42
0.000000001
 43
0.00000001
 40
0.0
 40
0.0
 40
0.0
 40
0.0
 40
0.5
 40
0.5
 40
1.0
 40
1.0
 40
1.0
 40
1.0
 10
-41.27500000000001
 20
1.722178520816258
 30
0.0
 10
-41.27500000000001
 20
1.590160110059877
 30
0.0
 10
-41.27500000000004
 20
1.423349785964597
 30
0.0
 10
-41.27500000000001
 20
1.035531836146099
 30
0.0
 10
-41.27500000000001
 20
0.8148601530354473
 30
0.0
 10
-41.27500000000001
 20
0.583341243130413
 30
0.0
  0
SPLINE
  5
49C
330
1F
100
AcDbEntity
  8
0
  6
Continuous
 62
     1
370
    15
100
AcDbSpline
210
0.0
220
0.0
230
1.0
 70
     8
 71
     3
 72
    22
 73
    18
 74
     0
 42
0.000000001
 43
0.00000001
 40
0.0
 40
0.0
 40
0.0
 40
0.0
 40
0.0143869432550822
 40
0.0849856041858121
 40
0.1555991430989285
 40
0.2262383372546672
 40
0.2969138463211506
 40
0.3676089011077139
 40
0.4382654962284329
 40
0.5088909225794505
 40
0.5794959028751429
 40
0.6500912537104857
 40
0.7206878360000264
 40
0.791296504986808
 40
0.861928060306374
 40
0.9325931965900758
 40
1.0
 40
1.0
 40
1.0
 40
1.0
 10
-36.65567089241146
 20
1.632538131282559
 30
0.0
 10
-36.59028246202821
 20
1.64548919761149
 30
0.0
 10
-36.20402423021651
 20
1.72199288413475
 30
0.0
 10
-35.49682557899585
 20
1.75800830055546
 30
0.0
 10
-34.53393272635262
 20
1.72708497264906
 30
0.0
 10
-33.57064576713422
 20
1.575682930955182
 30
0.0
 10
-32.60691658213216
 20
1.324943370330879
 30
0.0
 10
-31.64304648778432
 20
0.9880954050072082
 30
0.0
 10
-30.67951159707267
 20
0.5875314457268037
 30
0.0
 10
-29.71643390928771
 20
0.1490622776674333
 30
0.0
 10
-28.75367394636863
 20
-0.2989567333787514
 30
0.0
 10
-27.79106191962465
 20
-0.7277093842579414
 30
0.0
 10
-26.82843108780467
 20
-1.109332620129428
 30
0.0
 10
-25.86561363607039
 20
-1.420034055021524
 30
0.0
 10
-24.90244353993294
 20
-1.636702739853113
 30
0.0
 10
-23.95376556687012
 20
-1.754851856327668
 30
0.0
 10
-23.32610170798748
 20
-1.739494364112026
 30
0.0
 10
-23.01967583726316
 20
-1.731996827241424
 30
0.0
  0
SPLINE
  5
49D
330
1F
100
AcDbEntity
  8
0
  6
Continuous
 62
     1
370
    15
100
AcDbSpline
210
0.0
220
0.0
230
1.0
 70
    24
 71
     3
 72
     8
 73
     4
 74
     0
 42
0.000000001
 43
0.00000001
 40
0.0
 40
0.0
 40
0.0
 40
0.0
 40
1.0
 40
1.0
 40
1.0
 40
1.0
 10
-39.94659204667023
 20
-1.066300996426456
 30
0.0
 10
-39.87459855730993
 20
-1.005891286057057
 30
0.0
 10
-39.79816349646345
 20
-0.9417546546917346
 30
0.0
 10
-39.71864407772416
 20
-0.875029939756153
 30
0.0
  0
SPLINE
  5
49E
330
1F
100
AcDbEntity
  8
외형선
  6
Continuous
370
    15
100
AcDbSpline
210
0.0
220
0.0
230
1.0
 70
    24
 71
     3
 72
    14
 73
    10
 74
     0
 42
0.000000001
 43
0.00000001
 40
0.0
 40
0.0
 40
0.0
 40
0.0
 40
0.25
 40
0.25
 40
0.5
 40
0.5
 40
0.75
 40
0.75
 40
1.0
 40
1.0
 40
1.0
 40
1.0
 10
-19.05000000000002
 20
-1.404487299156194
 30
0.0
 10
-19.05000000000002
 20
-1.292242549553002
 30
0.0
 10
-19.05000000000002
 20
-1.15709383797477
 30
0.0
 10
-19.05000000000002
 20
-0.8477145132306485
 30
0.0
 10
-19.05000000000002
 20
-0.6735583044301658
 30
0.0
 10
-19.05000000000002
 20
-0.3017136163181031
 30
0.0
 10
-19.05000000000002
 20
-0.1042232714025028
 30
0.0
 10
-19.05000000000002
 20
0.2940666513503989
 30
0.0
 10
-19.05000000000002
 20
0.4946669450899895
 30
0.0
 10
-19.05000000000002
 20
0.6877151071137466
 30
0.0
  0
SPLINE
  5
49F
330
1F
100
AcDbEntity
  8
0
  6
Continuous
 62
     1
370
    15
100
AcDbSpline
210
0.0
220
0.0
230
1.0
 70
     8
 71
     3
 72
     8
 73
     4
 74
     0
 42
0.000000001
 43
0.00000001
 40
0.0
 40
0.0
 40
0.0
 40
0.0
 40
1.0
 40
1.0
 40
1.0
 40
1.0
 10
-41.27500000000001
 20
-1.527968749999992
 30
0.0
 10
-40.82608213270101
 20
-1.406090013374665
 30
0.0
 10
-40.38129087930864
 20
-1.256429721372804
 30
0.0
 10
-39.94659204667861
 20
-1.066300996430122
 30
0.0
  0
LINE
  5
4A0
330
1F
100
AcDbEntity
  8
0
  6
Continuous
 62
     1
370
    15
100
AcDbLine
 10
-41.27500000000001
 20
0.0000000000000076
 30
0.0
 11
-41.27500000000001
 21
-1.527968749999992
 31
0.0
  0
ENDSEC
  0
SECTION
  2
OBJECTS
  0
DICTIONARY
  5
C
330
0
100
AcDbDictionary
281
     1
  3
ACAD_GROUP
350
D
  3
ACAD_IMAGE_VARS
350
16A
  3
ACAD_LAYOUT
350
1A
  3
ACAD_MLINESTYLE
350
17
  3
ACAD_PLOTSETTINGS
350
19
  3
ACAD_PLOTSTYLENAME
350
E
  3
ACAD_SCALELIST
350
47
  3
APPDATA
350
168
  3
DWGPROPS
350
4D1
  0
DICTIONARY
  5
280
330
2
100
AcDbDictionary
280
     1
281
     1
  3
ACAD_LAYERSTATES
360
281
  0
DICTIONARY
  5
D
102
{ACAD_REACTORS
330
C
102
}
330
C
100
AcDbDictionary
281
     1
  0
RASTERVARIABLES
  5
16A
102
{ACAD_REACTORS
330
C
102
}
330
C
100
AcDbRasterVariables
 90
        0
 70
     1
 71
     1
 72
     1
  0
DICTIONARY
  5
1A
102
{ACAD_REACTORS
330
C
102
}
330
C
100
AcDbDictionary
281
     1
  3
Layout1
350
1E
  3
Layout2
350
26
  3
Model
350
22
  0
DICTIONARY
  5
17
102
{ACAD_REACTORS
330
C
102
}
330
C
100
AcDbDictionary
281
     1
  3
Standard
350
18
  0
DICTIONARY
  5
19
102
{ACAD_REACTORS
330
C
102
}
330
C
100
AcDbDictionary
281
     1
  0
ACDBDICTIONARYWDFLT
  5
E
102
{ACAD_REACTORS
330
C
102
}
330
C
100
AcDbDictionary
281
     1
  3
Normal
350
F
100
AcDbDictionaryWithDefault
340
F
  0
DICTIONARY
  5
47
102
{ACAD_REACTORS
330
C
102
}
330
C
100
AcDbDictionary
281
     1
  3
A0
350
48
  3
A1
350
49
  3
A2
350
4A
  3
A3
350
4B
  3
A4
350
4C
  3
A5
350
4D
  3
A6
350
4E
  3
A7
350
4F
  3
A8
350
50
  3
A9
350
51
  3
B0
350
52
  3
B1
350
53
  3
B2
350
54
  3
B3
350
55
  3
B4
350
56
  3
B5
350
57
  3
B6
350
58
  3
B7
350
59
  3
B8
350
5A
  3
B9
350
5B
  3
C0
350
5C
  3
C1
350
5D
  3
C2
350
5E
  3
C3
350
5F
  3
C4
350
60
  3
C5
350
61
  3
C6
350
62
  3
C7
350
63
  3
C8
350
64
  3
C9
350
65
  3
D0
350
66
  3
D1
350
67
  3
D2
350
68
  0
DICTIONARY
  5
168
102
{ACAD_REACTORS
330
C
102
}
330
C
100
AcDbDictionary
281
     1
  0
XRECORD
  5
4D1
102
{ACAD_REACTORS
330
C
102
}
330
C
100
AcDbXrecord
280
     1
  1
DWGPROPS COOKIE
  2

  3

  4

  6

  7

  8
12017012
  9

300
=
301
=
302
=
303
=
304
=
305
=
306
=
307
=
308
=
309
=
 40
0.0
 41
2458313.038306921
 42
2458319.9784086
  1

 90
        0
  0
DICTIONARY
  5
281
102
{ACAD_REACTORS
330
280
102
}
330
280
100
AcDbDictionary
281
     1
  0
LAYOUT
  5
1E
102
{ACAD_REACTORS
330
1A
102
}
330
1A
100
AcDbPlotSettings
  1

  2
none_device
  4

  6

 40
0.0
 41
0.0
 42
0.0
 43
0.0
 44
0.0
 45
0.0
 46
0.0
 47
0.0
 48
0.0
 49
0.0
140
0.0
141
0.0
142
1.0
143
1.0
 70
   688
 72
     1
 73
     0
 74
     5
  7

 75
    16
147
1.0
148
0.0
149
0.0
100
AcDbLayout
  1
Layout1
 70
     1
 71
     1
 10
0.0
 20
0.0
 11
420.0
 21
297.0
 12
0.0
 22
0.0
 32
0.0
 14
1.000000000000000E+20
 24
1.000000000000000E+20
 34
1.000000000000000E+20
 15
-1.000000000000000E+20
 25
-1.000000000000000E+20
 35
-1.000000000000000E+20
146
0.0
 13
0.0
 23
0.0
 33
0.0
 16
1.0
 26
0.0
 36
0.0
 17
0.0
 27
1.0
 37
0.0
 76
     0
330
1B
  0
LAYOUT
  5
26
102
{ACAD_REACTORS
330
1A
102
}
330
1A
100
AcDbPlotSettings
  1

  2
none_device
  4

  6

 40
0.0
 41
0.0
 42
0.0
 43
0.0
 44
0.0
 45
0.0
 46
0.0
 47
0.0
 48
0.0
 49
0.0
140
0.0
141
0.0
142
1.0
143
1.0
 70
   688
 72
     1
 73
     0
 74
     5
  7

 75
    16
147
1.0
148
0.0
149
0.0
100
AcDbLayout
  1
Layout2
 70
     1
 71
     2
 10
0.0
 20
0.0
 11
0.0
 21
0.0
 12
0.0
 22
0.0
 32
0.0
 14
0.0
 24
0.0
 34
0.0
 15
0.0
 25
0.0
 35
0.0
146
0.0
 13
0.0
 23
0.0
 33
0.0
 16
1.0
 26
0.0
 36
0.0
 17
0.0
 27
1.0
 37
0.0
 76
     0
330
23
  0
LAYOUT
  5
22
102
{ACAD_REACTORS
330
1A
102
}
330
1A
100
AcDbPlotSettings
  1

  2
none_device
  4
ANSI_A_(11.00_x_8.50_Inches)
  6

 40
6.35
 41
19.05
 42
6.35000508
 43
19.05000254
 44
279.4
 45
215.9
 46
57.3486820352212
 47
83.84225089163911
 48
0.0
 49
0.0
140
0.0
141
0.0
142
0.0332757097839367
143
1.0
 70
  1696
 72
     0
 73
     0
 74
     0
  7

 75
     0
147
0.0235690232323232
148
0.0
149
0.0
100
AcDbLayout
  1
Model
 70
     1
 71
     0
 10
0.0
 20
0.0
 11
420.0
 21
297.0
 12
0.0
 22
0.0
 32
0.0
 14
1.000000000000000E+20
 24
1.000000000000000E+20
 34
1.000000000000000E+20
 15
-1.000000000000000E+20
 25
-1.000000000000000E+20
 35
-1.000000000000000E+20
146
0.0
 13
0.0
 23
0.0
 33
0.0
 16
1.0
 26
0.0
 36
0.0
 17
0.0
 27
1.0
 37
0.0
 76
     0
330
1F
331
29
  0
MLINESTYLE
  5
18
102
{ACAD_REACTORS
330
17
102
}
330
17
100
AcDbMlineStyle
  2
Standard
 70
     0
  3

 62
   256
 51
90.0
 52
90.0
 71
     2
 49
0.5
 62
   256
  6
BYLAYER
 49
-0.5
 62
   256
  6
BYLAYER
  0
ACDBPLACEHOLDER
  5
F
102
{ACAD_REACTORS
330
E
102
}
330
E
  0
SCALE
  5
48
102
{ACAD_REACTORS
330
47
102
}
330
47
100
AcDbScale
 70
     0
300
1:1
140
1.0
141
1.0
290
     1
  0
SCALE
  5
49
102
{ACAD_REACTORS
330
47
102
}
330
47
100
AcDbScale
 70
     0
300
1:2
140
1.0
141
2.0
290
     0
  0
SCALE
  5
4A
102
{ACAD_REACTORS
330
47
102
}
330
47
100
AcDbScale
 70
     0
300
1:4
140
1.0
141
4.0
290
     0
  0
SCALE
  5
4B
102
{ACAD_REACTORS
330
47
102
}
330
47
100
AcDbScale
 70
     0
300
1:5
140
1.0
141
5.0
290
     0
  0
SCALE
  5
4C
102
{ACAD_REACTORS
330
47
102
}
330
47
100
AcDbScale
 70
     0
300
1:8
140
1.0
141
8.0
290
     0
  0
SCALE
  5
4D
102
{ACAD_REACTORS
330
47
102
}
330
47
100
AcDbScale
 70
     0
300
1:10
140
1.0
141
10.0
290
     0
  0
SCALE
  5
4E
102
{ACAD_REACTORS
330
47
102
}
330
47
100
AcDbScale
 70
     0
300
1:16
140
1.0
141
16.0
290
     0
  0
SCALE
  5
4F
102
{ACAD_REACTORS
330
47
102
}
330
47
100
AcDbScale
 70
     0
300
1:20
140
1.0
141
20.0
290
     0
  0
SCALE
  5
50
102
{ACAD_REACTORS
330
47
102
}
330
47
100
AcDbScale
 70
     0
300
1:30
140
1.0
141
30.0
290
     0
  0
SCALE
  5
51
102
{ACAD_REACTORS
330
47
102
}
330
47
100
AcDbScale
 70
     0
300
1:40
140
1.0
141
40.0
290
     0
  0
SCALE
  5
52
102
{ACAD_REACTORS
330
47
102
}
330
47
100
AcDbScale
 70
     0
300
1:50
140
1.0
141
50.0
290
     0
  0
SCALE
  5
53
102
{ACAD_REACTORS
330
47
102
}
330
47
100
AcDbScale
 70
     0
300
1:100
140
1.0
141
100.0
290
     0
  0
SCALE
  5
54
102
{ACAD_REACTORS
330
47
102
}
330
47
100
AcDbScale
 70
     0
300
2:1
140
2.0
141
1.0
290
     0
  0
SCALE
  5
55
102
{ACAD_REACTORS
330
47
102
}
330
47
100
AcDbScale
 70
     0
300
4:1
140
4.0
141
1.0
290
     0
  0
SCALE
  5
56
102
{ACAD_REACTORS
330
47
102
}
330
47
100
AcDbScale
 70
     0
300
8:1
140
8.0
141
1.0
290
     0
  0
SCALE
  5
57
102
{ACAD_REACTORS
330
47
102
}
330
47
100
AcDbScale
 70
     0
300
10:1
140
10.0
141
1.0
290
     0
  0
SCALE
  5
58
102
{ACAD_REACTORS
330
47
102
}
330
47
100
AcDbScale
 70
     0
300
100:1
140
100.0
141
1.0
290
     0
  0
SCALE
  5
59
102
{ACAD_REACTORS
330
47
102
}
330
47
100
AcDbScale
 70
     0
300
1/128" = 1'-0"
140
0.0078125
141
12.0
290
     0
  0
SCALE
  5
5A
102
{ACAD_REACTORS
330
47
102
}
330
47
100
AcDbScale
 70
     0
300
1/64" = 1'-0"
140
0.015625
141
12.0
290
     0
  0
SCALE
  5
5B
102
{ACAD_REACTORS
330
47
102
}
330
47
100
AcDbScale
 70
     0
300
1/32" = 1'-0"
140
0.03125
141
12.0
290
     0
  0
SCALE
  5
5C
102
{ACAD_REACTORS
330
47
102
}
330
47
100
AcDbScale
 70
     0
300
1/16" = 1'-0"
140
0.0625
141
12.0
290
     0
  0
SCALE
  5
5D
102
{ACAD_REACTORS
330
47
102
}
330
47
100
AcDbScale
 70
     0
300
3/32" = 1'-0"
140
0.09375
141
12.0
290
     0
  0
SCALE
  5
5E
102
{ACAD_REACTORS
330
47
102
}
330
47
100
AcDbScale
 70
     0
300
1/8" = 1'-0"
140
0.125
141
12.0
290
     0
  0
SCALE
  5
5F
102
{ACAD_REACTORS
330
47
102
}
330
47
100
AcDbScale
 70
     0
300
3/16" = 1'-0"
140
0.1875
141
12.0
290
     0
  0
SCALE
  5
60
102
{ACAD_REACTORS
330
47
102
}
330
47
100
AcDbScale
 70
     0
300
1/4" = 1'-0"
140
0.25
141
12.0
290
     0
  0
SCALE
  5
61
102
{ACAD_REACTORS
330
47
102
}
330
47
100
AcDbScale
 70
     0
300
3/8" = 1'-0"
140
0.375
141
12.0
290
     0
  0
SCALE
  5
62
102
{ACAD_REACTORS
330
47
102
}
330
47
100
AcDbScale
 70
     0
300
1/2" = 1'-0"
140
0.5
141
12.0
290
     0
  0
SCALE
  5
63
102
{ACAD_REACTORS
330
47
102
}
330
47
100
AcDbScale
 70
     0
300
3/4" = 1'-0"
140
0.75
141
12.0
290
     0
  0
SCALE
  5
64
102
{ACAD_REACTORS
330
47
102
}
330
47
100
AcDbScale
 70
     0
300
1" = 1'-0"
140
1.0
141
12.0
290
     0
  0
SCALE
  5
65
102
{ACAD_REACTORS
330
47
102
}
330
47
100
AcDbScale
 70
     0
300
1-1/2" = 1'-0"
140
1.5
141
12.0
290
     0
  0
SCALE
  5
66
102
{ACAD_REACTORS
330
47
102
}
330
47
100
AcDbScale
 70
     0
300
3" = 1'-0"
140
3.0
141
12.0
290
     0
  0
SCALE
  5
67
102
{ACAD_REACTORS
330
47
102
}
330
47
100
AcDbScale
 70
     0
300
6" = 1'-0"
140
6.0
141
12.0
290
     0
  0
SCALE
  5
68
102
{ACAD_REACTORS
330
47
102
}
330
47
100
AcDbScale
 70
     0
300
1'-0" = 1'-0"
140
12.0
141
12.0
290
     0
  0
ENDSEC
  0
EOF
