  0
SECTION
  2
HEADER
  9
$ACADVER
  1
AC1015
  9
$ACADMAINTVER
 70
     6
  9
$DWGCODEPAGE
  3
ANSI_949
  9
$INSBASE
 10
0.0
 20
0.0
 30
0.0
  9
$EXTMIN
 10
1.000000000000000E+20
 20
1.000000000000000E+20
 30
1.000000000000000E+20
  9
$EXTMAX
 10
-1.000000000000000E+20
 20
-1.000000000000000E+20
 30
-1.000000000000000E+20
  9
$LIMMIN
 10
0.0
 20
0.0
  9
$LIMMAX
 10
420.0
 20
297.0
  9
$ORTHOMODE
 70
     1
  9
$REGENMODE
 70
     1
  9
$FILLMODE
 70
     1
  9
$QTEXTMODE
 70
     0
  9
$MIRRTEXT
 70
     1
  9
$LTSCALE
 40
1.0
  9
$ATTMODE
 70
     1
  9
$TEXTSIZE
 40
3.5
  9
$TRACEWID
 40
1.0
  9
$TEXTSTYLE
  7
Standard
  9
$CLAYER
  8
0
  9
$CELTYPE
  6
ByLayer
  9
$CECOLOR
 62
   256
  9
$CELTSCALE
 40
1.0
  9
$DISPSILH
 70
     0
  9
$DIMSCALE
 40
1.0
  9
$DIMASZ
 40
3.302
  9
$DIMEXO
 40
1.0
  9
$DIMDLI
 40
3.75
  9
$DIMRND
 40
0.0
  9
$DIMDLE
 40
0.0
  9
$DIMEXE
 40
1.0
  9
$DIMTP
 40
0.0
  9
$DIMTM
 40
0.0
  9
$DIMTXT
 40
3.5
  9
$DIMCEN
 40
2.5
  9
$DIMTSZ
 40
0.0
  9
$DIMTOL
 70
     0
  9
$DIMLIM
 70
     0
  9
$DIMTIH
 70
     1
  9
$DIMTOH
 70
     1
  9
$DIMSE1
 70
     0
  9
$DIMSE2
 70
     0
  9
$DIMTAD
 70
     1
  9
$DIMZIN
 70
     0
  9
$DIMBLK
  1

  9
$DIMASO
 70
     1
  9
$DIMSHO
 70
     1
  9
$DIMPOST
  1

  9
$DIMAPOST
  1

  9
$DIMALT
 70
     0
  9
$DIMALTD
 70
     3
  9
$DIMALTF
 40
0.0393700787401575
  9
$DIMLFAC
 40
1.0
  9
$DIMTOFL
 70
     1
  9
$DIMTVP
 40
0.0
  9
$DIMTIX
 70
     0
  9
$DIMSOXD
 70
     0
  9
$DIMSAH
 70
     0
  9
$DIMBLK1
  1

  9
$DIMBLK2
  1

  9
$DIMSTYLE
  2
ISO-25
  9
$DIMCLRD
 70
     0
  9
$DIMCLRE
 70
     0
  9
$DIMCLRT
 70
     0
  9
$DIMTFAC
 40
1.0
  9
$DIMGAP
 40
1.524
  9
$DIMJUST
 70
     0
  9
$DIMSD1
 70
     0
  9
$DIMSD2
 70
     0
  9
$DIMTOLJ
 70
     0
  9
$DIMTZIN
 70
     0
  9
$DIMALTZ
 70
     0
  9
$DIMALTTZ
 70
     0
  9
$DIMUPT
 70
     0
  9
$DIMDEC
 70
     2
  9
$DIMTDEC
 70
     2
  9
$DIMALTU
 70
     2
  9
$DIMALTTD
 70
     3
  9
$DIMTXSTY
  7
Standard
  9
$DIMAUNIT
 70
     0
  9
$DIMADEC
 70
     2
  9
$DIMALTRND
 40
0.0
  9
$DIMAZIN
 70
     0
  9
$DIMDSEP
 70
    44
  9
$DIMATFIT
 70
     3
  9
$DIMFRAC
 70
     0
  9
$DIMLDRBLK
  1

  9
$DIMLUNIT
 70
     2
  9
$DIMLWD
 70
    -2
  9
$DIMLWE
 70
    -2
  9
$DIMTMOVE
 70
     0
  9
$LUNITS
 70
     2
  9
$LUPREC
 70
     2
  9
$SKETCHINC
 40
1.0
  9
$FILLETRAD
 40
10.0
  9
$AUNITS
 70
     0
  9
$AUPREC
 70
     2
  9
$MENU
  1
.
  9
$ELEVATION
 40
0.0
  9
$PELEVATION
 40
0.0
  9
$THICKNESS
 40
0.0
  9
$LIMCHECK
 70
     0
  9
$CHAMFERA
 40
0.0
  9
$CHAMFERB
 40
0.0
  9
$CHAMFERC
 40
0.0
  9
$CHAMFERD
 40
0.0
  9
$SKPOLY
 70
     0
  9
$TDCREATE
 40
2458313.413095127
  9
$TDUCREATE
 40
2458313.038095127
  9
$TDUPDATE
 40
2458320.355631238
  9
$TDUUPDATE
 40
2458319.980631238
  9
$TDINDWG
 40
0.0022177315
  9
$TDUSRTIMER
 40
2458319.978414259
  9
$USRTIMER
 70
     1
  9
$ANGBASE
 50
0.0
  9
$ANGDIR
 70
     0
  9
$PDMODE
 70
     0
  9
$PDSIZE
 40
-1.0
  9
$PLINEWID
 40
0.0
  9
$SPLFRAME
 70
     0
  9
$SPLINETYPE
 70
     6
  9
$SPLINESEGS
 70
     8
  9
$HANDSEED
  5
4AC
  9
$SURFTAB1
 70
     6
  9
$SURFTAB2
 70
     6
  9
$SURFTYPE
 70
     6
  9
$SURFU
 70
     6
  9
$SURFV
 70
     6
  9
$UCSBASE
  2

  9
$UCSNAME
  2

  9
$UCSORG
 10
0.0
 20
0.0
 30
0.0
  9
$UCSXDIR
 10
1.0
 20
0.0
 30
0.0
  9
$UCSYDIR
 10
0.0
 20
1.0
 30
0.0
  9
$UCSORTHOREF
  2

  9
$UCSORTHOVIEW
 70
     0
  9
$UCSORGTOP
 10
0.0
 20
0.0
 30
0.0
  9
$UCSORGBOTTOM
 10
0.0
 20
0.0
 30
0.0
  9
$UCSORGLEFT
 10
0.0
 20
0.0
 30
0.0
  9
$UCSORGRIGHT
 10
0.0
 20
0.0
 30
0.0
  9
$UCSORGFRONT
 10
0.0
 20
0.0
 30
0.0
  9
$UCSORGBACK
 10
0.0
 20
0.0
 30
0.0
  9
$PUCSBASE
  2

  9
$PUCSNAME
  2

  9
$PUCSORG
 10
0.0
 20
0.0
 30
0.0
  9
$PUCSXDIR
 10
1.0
 20
0.0
 30
0.0
  9
$PUCSYDIR
 10
0.0
 20
1.0
 30
0.0
  9
$PUCSORTHOREF
  2

  9
$PUCSORTHOVIEW
 70
     0
  9
$PUCSORGTOP
 10
0.0
 20
0.0
 30
0.0
  9
$PUCSORGBOTTOM
 10
0.0
 20
0.0
 30
0.0
  9
$PUCSORGLEFT
 10
0.0
 20
0.0
 30
0.0
  9
$PUCSORGRIGHT
 10
0.0
 20
0.0
 30
0.0
  9
$PUCSORGFRONT
 10
0.0
 20
0.0
 30
0.0
  9
$PUCSORGBACK
 10
0.0
 20
0.0
 30
0.0
  9
$USERI1
 70
     0
  9
$USERI2
 70
     0
  9
$USERI3
 70
     0
  9
$USERI4
 70
     0
  9
$USERI5
 70
     0
  9
$USERR1
 40
0.0
  9
$USERR2
 40
0.0
  9
$USERR3
 40
0.0
  9
$USERR4
 40
0.0
  9
$USERR5
 40
0.0
  9
$WORLDVIEW
 70
     1
  9
$SHADEDGE
 70
     3
  9
$SHADEDIF
 70
    70
  9
$TILEMODE
 70
     1
  9
$MAXACTVP
 70
    64
  9
$PINSBASE
 10
0.0
 20
0.0
 30
0.0
  9
$PLIMCHECK
 70
     0
  9
$PEXTMIN
 10
1.000000000000000E+20
 20
1.000000000000000E+20
 30
1.000000000000000E+20
  9
$PEXTMAX
 10
-1.000000000000000E+20
 20
-1.000000000000000E+20
 30
-1.000000000000000E+20
  9
$PLIMMIN
 10
0.0
 20
0.0
  9
$PLIMMAX
 10
0.0
 20
0.0
  9
$UNITMODE
 70
     0
  9
$VISRETAIN
 70
     1
  9
$PLINEGEN
 70
     0
  9
$PSLTSCALE
 70
     1
  9
$TREEDEPTH
 70
  3020
  9
$CMLSTYLE
  2
Standard
  9
$CMLJUST
 70
     0
  9
$CMLSCALE
 40
20.0
  9
$PROXYGRAPHICS
 70
     1
  9
$MEASUREMENT
 70
     1
  9
$CELWEIGHT
370
    -1
  9
$ENDCAPS
280
     0
  9
$JOINSTYLE
280
     0
  9
$LWDISPLAY
290
     1
  9
$INSUNITS
 70
     4
  9
$HYPERLINKBASE
  1

  9
$STYLESHEET
  1

  9
$XEDIT
290
     1
  9
$CEPSNTYPE
380
     0
  9
$PSTYLEMODE
290
     1
  9
$FINGERPRINTGUID
  2
{046E681A-D7C1-4892-B34C-78C62BD3FA99}
  9
$VERSIONGUID
  2
{FAEB1C32-E019-11D5-929B-00C0DF256EC4}
  9
$EXTNAMES
290
     1
  9
$PSVPSCALE
 40
0.0
  9
$OLESTARTUP
290
     0
  0
ENDSEC
  0
SECTION
  2
CLASSES
  0
CLASS
  1
ACDBDICTIONARYWDFLT
  2
AcDbDictionaryWithDefault
  3
ObjectDBX Classes
 90
        0
280
     0
281
     0
  0
CLASS
  1
VISUALSTYLE
  2
AcDbVisualStyle
  3
ObjectDBX Classes
 90
     4095
280
     0
281
     0
  0
CLASS
  1
MATERIAL
  2
AcDbMaterial
  3
ObjectDBX Classes
 90
     1153
280
     0
281
     0
  0
CLASS
  1
SCALE
  2
AcDbScale
  3
ObjectDBX Classes
 90
     1153
280
     0
281
     0
  0
CLASS
  1
SUN
  2
AcDbSun
  3
SCENEOE
 90
     1153
280
     0
281
     0
  0
CLASS
  1
ACDBPLACEHOLDER
  2
AcDbPlaceHolder
  3
ObjectDBX Classes
 90
        0
280
     0
281
     0
  0
CLASS
  1
LAYOUT
  2
AcDbLayout
  3
ObjectDBX Classes
 90
        0
280
     0
281
     0
  0
CLASS
  1
TABLESTYLE
  2
AcDbTableStyle
  3
ObjectDBX Classes
 90
     4095
280
     0
281
     0
  0
CLASS
  1
MLEADERSTYLE
  2
AcDbMLeaderStyle
  3
ACDB_MLEADERSTYLE_CLASS
 90
     4095
280
     0
281
     0
  0
CLASS
  1
RASTERVARIABLES
  2
AcDbRasterVariables
  3
ISM
 90
        0
280
     0
281
     0
  0
ENDSEC
  0
SECTION
  2
TABLES
  0
TABLE
  2
VPORT
  5
8
330
0
100
AcDbSymbolTable
 70
     1
  0
VPORT
  5
29
330
8
100
AcDbSymbolTableRecord
100
AcDbViewportTableRecord
  2
*Active
 70
     0
 10
0.0
 20
0.0
 11
1.0
 21
1.0
 12
-1.699668575998501
 22
5.621591786706368
 13
0.0
 23
0.0
 14
10.0
 24
10.0
 15
10.0
 25
10.0
 16
0.0
 26
0.0
 36
1.0
 17
0.0
 27
0.0
 37
0.0
 40
130.8987643913966
 41
1.632093933463796
 42
50.0
 43
0.0
 44
0.0
 50
0.0
 51
0.0
 71
    16
 72
  2000
 73
     1
 74
     3
 75
     0
 76
     0
 77
     0
 78
     0
281
     0
 65
     1
110
0.0
120
0.0
130
0.0
111
1.0
121
0.0
131
0.0
112
0.0
122
1.0
132
0.0
 79
     0
146
0.0
  0
ENDTAB
  0
TABLE
  2
LTYPE
  5
5
330
0
100
AcDbSymbolTable
 70
     6
  0
LTYPE
  5
14
330
5
100
AcDbSymbolTableRecord
100
AcDbLinetypeTableRecord
  2
ByBlock
 70
     0
  3

 72
    65
 73
     0
 40
0.0
  0
LTYPE
  5
15
330
5
100
AcDbSymbolTableRecord
100
AcDbLinetypeTableRecord
  2
ByLayer
 70
     0
  3

 72
    65
 73
     0
 40
0.0
  0
LTYPE
  5
16
330
5
100
AcDbSymbolTableRecord
100
AcDbLinetypeTableRecord
  2
Continuous
 70
     0
  3
Solid line
 72
    65
 73
     0
 40
0.0
  0
LTYPE
  5
6A
330
5
100
AcDbSymbolTableRecord
100
AcDbLinetypeTableRecord
  2
HIDDEN
 70
     0
  3
Hidden __ __ __ __ __ __ __ __ __ __ __ __ __ __
 72
    65
 73
     2
 40
1.905
 49
1.27
 74
     0
 49
-0.635
 74
     0
  0
LTYPE
  5
6B
330
5
100
AcDbSymbolTableRecord
100
AcDbLinetypeTableRecord
  2
PHANTOM
 70
     0
  3
Phantom ______  __  __  ______  __  __  ______
 72
    65
 73
     6
 40
12.7
 49
6.35
 74
     0
 49
-1.27
 74
     0
 49
1.27
 74
     0
 49
-1.27
 74
     0
 49
1.27
 74
     0
 49
-1.27
 74
     0
  0
LTYPE
  5
6C
330
5
100
AcDbSymbolTableRecord
100
AcDbLinetypeTableRecord
  2
CENTER
 70
     0
  3
Center ____ _ ____ _ ____ _ ____ _ ____ _ ____
 72
    65
 73
     4
 40
10.16
 49
6.35
 74
     0
 49
-1.27
 74
     0
 49
1.27
 74
     0
 49
-1.27
 74
     0
  0
LTYPE
  5
6D
330
5
100
AcDbSymbolTableRecord
100
AcDbLinetypeTableRecord
  2
CENTERX2
 70
     0
  3
Center (2x) ________  __  ________  __  _____
 72
    65
 73
     4
 40
20.32
 49
12.7
 74
     0
 49
-2.54
 74
     0
 49
2.54
 74
     0
 49
-2.54
 74
     0
  0
LTYPE
  5
6E
330
5
100
AcDbSymbolTableRecord
100
AcDbLinetypeTableRecord
  2
DOT2
 70
     0
  3
Dot (.5x) ........................................
 72
    65
 73
     2
 40
0.635
 49
0.0
 74
     0
 49
-0.635
 74
     0
  0
ENDTAB
  0
TABLE
  2
LAYER
  5
2
102
{ACAD_XDICTIONARY
360
260
102
}
330
0
100
AcDbSymbolTable
 70
    18
  0
LAYER
  5
10
330
2
100
AcDbSymbolTableRecord
100
AcDbLayerTableRecord
  2
0
 70
     0
 62
     7
  6
Continuous
370
    -3
390
F
  0
LAYER
  5
6F
330
2
100
AcDbSymbolTableRecord
100
AcDbLayerTableRecord
  2
FORMAT
 70
     0
 62
     2
  6
Continuous
370
    -3
390
F
  0
LAYER
  5
70
330
2
100
AcDbSymbolTableRecord
100
AcDbLayerTableRecord
  2
외형선
 70
     0
 62
     4
  6
Continuous
370
    30
390
F
  0
LAYER
  5
71
330
2
100
AcDbSymbolTableRecord
100
AcDbLayerTableRecord
  2
숨은선
 70
     0
 62
     2
  6
HIDDEN
370
    15
390
F
  0
LAYER
  5
72
330
2
100
AcDbSymbolTableRecord
100
AcDbLayerTableRecord
  2
중심선
 70
     0
 62
     1
  6
CENTERX2
370
    -3
390
F
  0
LAYER
  5
73
330
2
100
AcDbSymbolTableRecord
100
AcDbLayerTableRecord
  2
파단선
 70
     0
 62
     4
  6
Continuous
370
    -3
390
F
  0
LAYER
  5
74
330
2
100
AcDbSymbolTableRecord
100
AcDbLayerTableRecord
  2
해칭선
 70
     0
 62
   100
  6
Continuous
370
    -3
390
F
  0
LAYER
  5
75
330
2
100
AcDbSymbolTableRecord
100
AcDbLayerTableRecord
  2
가는실선
 70
     0
 62
     4
  6
Continuous
370
    -3
390
F
  0
LAYER
  5
76
330
2
100
AcDbSymbolTableRecord
100
AcDbLayerTableRecord
  2
치수_보조선
 70
     0
 62
     4
  6
Continuous
370
    -3
390
F
  0
LAYER
  5
77
330
2
100
AcDbSymbolTableRecord
100
AcDbLayerTableRecord
  2
치수문자_일반주서
 70
     0
 62
     7
  6
Continuous
370
    15
390
F
  0
LAYER
  5
78
330
2
100
AcDbSymbolTableRecord
100
AcDbLayerTableRecord
  2
개별주서
 70
     0
 62
   100
  6
Continuous
370
    30
390
F
  0
LAYER
  5
79
330
2
100
AcDbSymbolTableRecord
100
AcDbLayerTableRecord
  2
중간선
 70
     0
 62
     2
  6
Continuous
370
    15
390
F
  0
LAYER
  5
7A
330
2
100
AcDbSymbolTableRecord
100
AcDbLayerTableRecord
  2
윤곽선
 70
     0
 62
     3
  6
Continuous
370
    40
390
F
  0
LAYER
  5
7B
330
2
100
AcDbSymbolTableRecord
100
AcDbLayerTableRecord
  2
중심마크
 70
     0
 62
   100
  6
Continuous
370
    30
390
F
  0
LAYER
  5
7C
330
2
100
AcDbSymbolTableRecord
100
AcDbLayerTableRecord
  2
가상선
 70
     0
 62
     4
  6
PHANTOM
370
    -3
390
F
  0
LAYER
  5
7D
330
2
100
AcDbSymbolTableRecord
100
AcDbLayerTableRecord
  2
특수지정선
 70
     0
 62
     5
  6
CENTERX2
370
    60
390
F
  0
LAYER
  5
7E
330
2
100
AcDbSymbolTableRecord
100
AcDbLayerTableRecord
  2
참조1
 70
     0
 62
    -4
  6
Continuous
370
    -3
390
F
  0
LAYER
  5
170
330
2
100
AcDbSymbolTableRecord
100
AcDbLayerTableRecord
  2
Defpoints
 70
     0
 62
     7
  6
Continuous
290
     0
370
    -3
390
F
  0
ENDTAB
  0
TABLE
  2
STYLE
  5
3
330
0
100
AcDbSymbolTable
 70
     2
  0
STYLE
  5
11
330
3
100
AcDbSymbolTableRecord
100
AcDbTextStyleTableRecord
  2
Standard
 70
     0
 40
0.0
 41
1.0
 50
0.0
 71
     0
 42
3.5
  3
txt
  4

  0
STYLE
  5
94
330
3
100
AcDbSymbolTableRecord
100
AcDbTextStyleTableRecord
  2
SLDTEXTSTYLE0
 70
     0
 40
0.0
 41
0.75
 50
0.0
 71
     0
 42
3.5
  3
TXT
  4

  0
ENDTAB
  0
TABLE
  2
VIEW
  5
6
330
0
100
AcDbSymbolTable
 70
     0
  0
ENDTAB
  0
TABLE
  2
UCS
  5
7
330
0
100
AcDbSymbolTable
 70
     0
  0
ENDTAB
  0
TABLE
  2
APPID
  5
9
330
0
100
AcDbSymbolTable
 70
     1
  0
APPID
  5
12
330
9
100
AcDbSymbolTableRecord
100
AcDbRegAppTableRecord
  2
ACAD
 70
     0
  0
ENDTAB
  0
TABLE
  2
DIMSTYLE
  5
A
330
0
100
AcDbSymbolTable
 70
     3
100
AcDbDimStyleTable
  0
DIMSTYLE
105
27
330
A
100
AcDbSymbolTableRecord
100
AcDbDimStyleTableRecord
  2
ISO-25
 70
     0
 41
2.5
 42
0.625
 43
3.75
 44
1.25
 73
     0
 74
     0
 77
     1
 78
     8
140
2.5
141
2.5
143
0.03937007874016
147
0.625
171
     3
172
     1
178
     0
271
     2
272
     2
274
     3
278
    44
283
     0
284
     8
340
11
  0
DIMSTYLE
105
ED
102
{ACAD_REACTORS
330
EC
330
101
330
1DC
330
1E9
330
1F9
330
209
330
115
330
12A
330
3D3
330
3E3
330
3F3
102
}
330
A
100
AcDbSymbolTableRecord
100
AcDbDimStyleTableRecord
  2
SLDDIMSTYLE0
 70
     0
 41
3.302
 44
0.0
 45
0.000000001
 73
     0
 74
     0
 77
     1
 78
    12
 79
     3
140
3.5
143
0.0393700787401575
147
0.875
148
0.000000001
170
     1
172
     1
173
     1
178
     0
271
     2
272
     2
276
     2
284
    12
289
     0
340
94
  0
DIMSTYLE
105
116
330
A
100
AcDbSymbolTableRecord
100
AcDbDimStyleTableRecord
  2
SLDDIMSTYLE1
 70
     0
 41
3.302
 44
0.0
 45
0.000000001
 73
     0
 74
     0
 77
     1
 78
    12
 79
     3
140
3.5
143
0.0393700787401575
147
0.875
148
0.000000001
170
     1
173
     1
178
     0
271
     2
272
     2
276
     2
284
    12
340
94
  0
ENDTAB
  0
TABLE
  2
BLOCK_RECORD
  5
1
330
0
100
AcDbSymbolTable
 70
    23
  0
BLOCK_RECORD
  5
1F
330
1
100
AcDbSymbolTableRecord
100
AcDbBlockTableRecord
  2
*Model_Space
340
22
  0
BLOCK_RECORD
  5
1B
330
1
100
AcDbSymbolTableRecord
100
AcDbBlockTableRecord
  2
*Paper_Space
340
1E
  0
BLOCK_RECORD
  5
23
330
1
100
AcDbSymbolTableRecord
100
AcDbBlockTableRecord
  2
*Paper_Space0
340
26
  0
BLOCK_RECORD
  5
7F
330
1
100
AcDbSymbolTableRecord
100
AcDbBlockTableRecord
  2
블럭10
340
0
102
{BLKREFS
331
E5
102
}
  0
BLOCK_RECORD
  5
EE
330
1
100
AcDbSymbolTableRecord
100
AcDbBlockTableRecord
  2
_D
340
0
  0
BLOCK_RECORD
  5
102
330
1
100
AcDbSymbolTableRecord
100
AcDbBlockTableRecord
  2
_D_1
340
0
  0
BLOCK_RECORD
  5
117
330
1
100
AcDbSymbolTableRecord
100
AcDbBlockTableRecord
  2
_D_2
340
0
  0
BLOCK_RECORD
  5
12B
330
1
100
AcDbSymbolTableRecord
100
AcDbBlockTableRecord
  2
_D_3
340
0
  0
BLOCK_RECORD
  5
144
330
1
100
AcDbSymbolTableRecord
100
AcDbBlockTableRecord
  2
SW_DOWELSYMBOL_0
340
0
102
{BLKREFS
331
14A
331
216
331
0
331
400
331
0
102
}
  0
BLOCK_RECORD
  5
264
330
1
100
AcDbSymbolTableRecord
100
AcDbBlockTableRecord
  2
*D8
340
0
  0
BLOCK_RECORD
  5
270
330
1
100
AcDbSymbolTableRecord
100
AcDbBlockTableRecord
  2
*D9
340
0
  0
BLOCK_RECORD
  5
27F
330
1
100
AcDbSymbolTableRecord
100
AcDbBlockTableRecord
  2
*D10
340
0
  0
BLOCK_RECORD
  5
28E
330
1
100
AcDbSymbolTableRecord
100
AcDbBlockTableRecord
  2
*D11
340
0
  0
BLOCK_RECORD
  5
326
330
1
100
AcDbSymbolTableRecord
100
AcDbBlockTableRecord
  2
*D12
340
0
  0
BLOCK_RECORD
  5
332
330
1
100
AcDbSymbolTableRecord
100
AcDbBlockTableRecord
  2
*D13
340
0
  0
BLOCK_RECORD
  5
341
330
1
100
AcDbSymbolTableRecord
100
AcDbBlockTableRecord
  2
*D14
340
0
  0
BLOCK_RECORD
  5
350
330
1
100
AcDbSymbolTableRecord
100
AcDbBlockTableRecord
  2
*D15
340
0
  0
BLOCK_RECORD
  5
409
330
1
100
AcDbSymbolTableRecord
100
AcDbBlockTableRecord
  2
*D17
340
0
  0
BLOCK_RECORD
  5
418
330
1
100
AcDbSymbolTableRecord
100
AcDbBlockTableRecord
  2
*D18
340
0
  0
BLOCK_RECORD
  5
427
330
1
100
AcDbSymbolTableRecord
100
AcDbBlockTableRecord
  2
*D19
340
0
  0
BLOCK_RECORD
  5
481
330
1
100
AcDbSymbolTableRecord
100
AcDbBlockTableRecord
  2
*D20
340
0
  0
BLOCK_RECORD
  5
490
330
1
100
AcDbSymbolTableRecord
100
AcDbBlockTableRecord
  2
*D21
340
0
  0
BLOCK_RECORD
  5
49F
330
1
100
AcDbSymbolTableRecord
100
AcDbBlockTableRecord
  2
*D22
340
0
  0
ENDTAB
  0
ENDSEC
  0
SECTION
  2
BLOCKS
  0
BLOCK
  5
20
330
1F
100
AcDbEntity
  8
0
100
AcDbBlockBegin
  2
*Model_Space
 70
     0
 10
0.0
 20
0.0
 30
0.0
  3
*Model_Space
  1
*Model_Space
  0
ENDBLK
  5
21
330
1F
100
AcDbEntity
  8
0
100
AcDbBlockEnd
  0
BLOCK
  5
1C
330
1B
100
AcDbEntity
 67
     1
  8
0
100
AcDbBlockBegin
  2
*Paper_Space
 70
     0
 10
0.0
 20
0.0
 30
0.0
  3
*Paper_Space
  1
*Paper_Space
  0
ENDBLK
  5
1D
330
1B
100
AcDbEntity
 67
     1
  8
0
100
AcDbBlockEnd
  0
BLOCK
  5
24
330
23
100
AcDbEntity
  8
0
100
AcDbBlockBegin
  2
*Paper_Space0
 70
     0
 10
0.0
 20
0.0
 30
0.0
  3
*Paper_Space0
  1
*Paper_Space0
  0
ENDBLK
  5
25
330
23
100
AcDbEntity
  8
0
100
AcDbBlockEnd
  0
BLOCK
  5
80
330
7F
100
AcDbEntity
  8
0
100
AcDbBlockBegin
  2
블럭10
 70
     2
 10
0.0
 20
0.0
 30
0.0
  3
블럭10
  1
블럭10
  0
ELLIPSE
  5
82
330
7F
100
AcDbEntity
  8
중심선
100
AcDbEllipse
 10
20.54032771741204
 20
12.0471743016438
 30
0.0
 11
6.600054785286829
 21
-1.261213355974178E-13
 31
0.0
210
0.0
220
0.0
230
1.0
 40
0.636358354079598
 41
0.9219305317359503
 42
6.513795318482858
  0
ELLIPSE
  5
83
330
7F
100
AcDbEntity
  8
중심선
100
AcDbEllipse
 10
20.54032771746488
 20
12.04717430159265
 30
0.0
 11
3.960054785062283
 21
1.540847449632565E-10
 31
0.0
210
0.0
220
0.0
230
1.0
 40
0.3939339440162632
 41
1.131841032648279
 42
5.62031148352944
  0
LINE
  5
84
330
7F
100
AcDbEntity
  8
중심선
100
AcDbLine
 10
2.268634060543552
 20
16.24717430164393
 30
0.0
 11
5.714909304380834
 21
16.24717430164393
 31
0.0
  0
LINE
  5
85
330
7F
100
AcDbEntity
  8
중심선
100
AcDbLine
 10
5.245725140726316
 20
7.84717430164391
 30
0.0
 11
8.692000384563599
 21
7.84717430164391
 31
0.0
  0
LINE
  5
86
330
7F
100
AcDbEntity
  8
중심선
100
AcDbLine
 10
15.74043728645272
 20
16.24717430164393
 30
0.0
 11
8.692000384563599
 21
7.84717430164391
 31
0.0
  0
LINE
  5
87
330
7F
100
AcDbEntity
  8
중심선
100
AcDbLine
 10
0.1404042013395286
 20
13.71084872107135
 30
0.0
 11
3.58671253028996
 21
13.71088815037384
 31
0.0
  0
LINE
  5
88
330
7F
100
AcDbEntity
  8
중심선
100
AcDbLine
 10
2.750260043222114
 20
10.84717430164391
 30
0.0
 11
6.196535287059397
 21
10.84717430164391
 31
0.0
  0
LINE
  5
89
330
7F
100
AcDbEntity
  8
중심선
100
AcDbLine
 10
12.29416204261559
 20
16.24717430164393
 30
0.0
 11
5.245725140726316
 21
7.84717430164391
 31
0.0
  0
LINE
  5
8A
330
7F
100
AcDbEntity
  8
중심선
100
AcDbLine
 10
10.72767329541681
 20
16.24717430164393
 30
0.0
 11
6.196535287059397
 21
10.84717430164391
 31
0.0
  0
LINE
  5
8B
330
7F
100
AcDbEntity
  8
중심선
100
AcDbLine
 10
7.28139805157953
 20
16.24717430164393
 30
0.0
 11
2.750260043222114
 21
10.84717430164391
 31
0.0
  0
LINE
  5
8C
330
7F
100
AcDbEntity
  8
중심선
100
AcDbLine
 10
5.714909304380834
 20
16.24717430164393
 30
0.0
 11
3.58671253028996
 21
13.71088815037384
 31
0.0
  0
LINE
  5
8D
330
7F
100
AcDbEntity
  8
중심선
100
AcDbLine
 10
2.268634060543552
 20
16.24717430164393
 30
0.0
 11
0.1404042013395286
 21
13.71084872107135
 31
0.0
  0
LINE
  5
8E
330
7F
100
AcDbEntity
  8
중심선
100
AcDbLine
 10
7.28139805157953
 20
16.24717430164393
 30
0.0
 11
10.72767329541681
 21
16.24717430164393
 31
0.0
  0
LINE
  5
8F
330
7F
100
AcDbEntity
  8
중심선
100
AcDbLine
 10
12.29416204261559
 20
16.24717430164393
 30
0.0
 11
15.74043728645272
 21
16.24717430164393
 31
0.0
  0
LINE
  5
90
330
7F
100
AcDbEntity
  8
중심선
100
AcDbLine
 10
19.22036997980202
 20
11.08717430171403
 30
0.0
 11
23.66174974927406
 21
11.08717430171406
 31
0.0
  0
LINE
  5
91
330
7F
100
AcDbEntity
  8
중심선
100
AcDbLine
 10
19.22039502424796
 20
13.00717430171391
 30
0.0
 11
19.22036997980202
 21
11.08717430171403
 31
0.0
  0
LINE
  5
92
330
7F
100
AcDbEntity
  8
중심선
100
AcDbLine
 10
19.22039502424796
 20
13.00717430171391
 30
0.0
 11
26.96566020931264
 21
13.00717430171391
 31
0.0
  0
LINE
  5
93
330
7F
100
AcDbEntity
  8
중심선
100
AcDbLine
 10
22.22332737316547
 20
13.45928029700563
 30
0.0
 11
24.52862924686651
 21
15.39360700705356
 31
0.0
  0
ATTDEF
  5
95
330
7F
100
AcDbEntity
  8
FORMAT
 62
     2
100
AcDbText
 10
4.408487351596664
 20
2.075366912832191
 30
0.0
 40
4.233333333333333
  1
E2005010
 41
0.75
  7
SLDTEXTSTYLE0
 11
4.408487351596664
 21
-0.0412997538344756
 31
0.0
100
AcDbAttributeDefinition
  3

  2
AUTOATTR0
 70
     0
 74
     1
  0
ENDBLK
  5
81
330
7F
100
AcDbEntity
  8
0
100
AcDbBlockEnd
  0
BLOCK
  5
EF
330
EE
100
AcDbEntity
  8
0
100
AcDbBlockBegin
  2
_D
 70
     0
 10
0.0
 20
0.0
 30
0.0
  3
_D
  1
_D
  0
LINE
  5
F1
330
EE
100
AcDbEntity
  8
치수문자_일반주서
 62
     0
370
    -2
100
AcDbLine
 10
-16.6313423357461
 20
2.381249999999994
 30
0.0
 11
-54.27500000000002
 21
2.381249999999853
 31
0.0
  0
LINE
  5
F2
330
EE
100
AcDbEntity
  8
치수문자_일반주서
 62
     0
370
    -2
100
AcDbLine
 10
-16.6313423357461
 20
-2.381250000000001
 30
0.0
 11
-54.27500000000001
 21
-2.381250000000143
 31
0.0
  0
LINE
  5
F3
330
EE
100
AcDbEntity
  8
치수문자_일반주서
 62
     0
370
    -2
100
AcDbLine
 10
-54.27500000000001
 20
-0.9207500000001465
 30
0.0
 11
-54.27500000000001
 21
0.920749999999857
 31
0.0
  0
SOLID
  5
F4
330
EE
100
AcDbEntity
  8
치수문자_일반주서
 62
     0
100
AcDbTrace
 10
-53.72466666666668
 20
-0.9207500000001448
 30
0.0
 11
-54.82533333333335
 21
-0.9207500000001482
 31
0.0
 12
-54.27500000000002
 22
2.381249999999853
 32
0.0
 13
-54.27500000000002
 23
2.381249999999853
 33
0.0
  0
SOLID
  5
F5
330
EE
100
AcDbEntity
  8
치수문자_일반주서
 62
     0
100
AcDbTrace
 10
-54.82533333333335
 20
0.9207499999998553
 30
0.0
 11
-53.72466666666668
 21
0.9207499999998586
 31
0.0
 12
-54.27500000000001
 22
-2.381250000000143
 32
0.0
 13
-54.27500000000001
 23
-2.381250000000143
 33
0.0
  0
MTEXT
  5
F6
330
EE
100
AcDbEntity
  8
치수문자_일반주서
 62
     0
100
AcDbMText
 10
-58.65000000000001
 20
-0.0000000000000103
 30
0.0
 40
3.5
 41
0.0
 71
     2
 72
     1
  1
\A1;%%c4.76 [3/16]
  7
SLDTEXTSTYLE0
 11
-2.983906501879689E-15
 21
1.0
 31
0.0
 73
     1
 44
1.0
  0
POINT
  5
F7
330
EE
100
AcDbEntity
  8
Defpoints
 62
     0
100
AcDbPoint
 10
-16.5688423357461
 20
2.381249999999995
 30
0.0
  0
POINT
  5
F8
330
EE
100
AcDbEntity
  8
Defpoints
 62
     0
100
AcDbPoint
 10
-16.5688423357461
 20
-2.381250000000001
 30
0.0
  0
POINT
  5
F9
330
EE
100
AcDbEntity
  8
Defpoints
 62
     0
100
AcDbPoint
 10
-54.27500000000001
 20
-2.381250000000142
 30
0.0
  0
ENDBLK
  5
F0
330
EE
100
AcDbEntity
  8
0
100
AcDbBlockEnd
  0
BLOCK
  5
103
330
102
100
AcDbEntity
  8
0
100
AcDbBlockBegin
  2
_D_1
 70
     0
 10
0.0
 20
0.0
 30
0.0
  3
_D_1
  1
_D_1
  0
LINE
  5
105
330
102
100
AcDbEntity
  8
치수문자_일반주서
 62
     0
370
    -2
100
AcDbLine
 10
41.33750000000002
 20
-1.984374999999997
 30
0.0
 11
54.68145994685145
 21
-1.984374999999947
 31
0.0
  0
LINE
  5
106
330
102
100
AcDbEntity
  8
치수문자_일반주서
 62
     0
370
    -2
100
AcDbLine
 10
41.33750000000001
 20
1.984375000000005
 30
0.0
 11
54.68145994685144
 21
1.984375000000053
 31
0.0
  0
LINE
  5
107
330
102
100
AcDbEntity
  8
치수문자_일반주서
 62
     0
370
    -2
100
AcDbLine
 10
54.68145994685144
 20
1.984375000000053
 30
0.0
 11
54.6814599468513
 21
41.89815168786482
 31
0.0
  0
LINE
  5
108
330
102
100
AcDbEntity
  8
치수문자_일반주서
 62
     0
370
    -2
100
AcDbLine
 10
54.68145994685145
 20
-1.984374999999947
 30
0.0
 11
54.68145994685144
 21
1.984375000000053
 31
0.0
  0
LINE
  5
109
330
102
100
AcDbEntity
  8
치수문자_일반주서
 62
     0
370
    -2
100
AcDbLine
 10
54.68145994685147
 20
-5.286374999999946
 30
0.0
 11
54.68145994685148
 21
-8.588374999999946
 31
0.0
  0
LINE
  5
10A
330
102
100
AcDbEntity
  8
치수문자_일반주서
 62
     0
370
    -2
100
AcDbLine
 10
54.68145994685143
 20
5.286375000000053
 30
0.0
 11
54.68145994685141
 21
8.588375000000052
 31
0.0
  0
SOLID
  5
10B
330
102
100
AcDbEntity
  8
치수문자_일반주서
 62
     0
100
AcDbTrace
 10
55.2317932801848
 20
-5.286374999999945
 30
0.0
 11
54.13112661351813
 21
-5.286374999999948
 31
0.0
 12
54.68145994685145
 22
-1.984374999999947
 32
0.0
 13
54.68145994685145
 23
-1.984374999999947
 33
0.0
  0
SOLID
  5
10C
330
102
100
AcDbEntity
  8
치수문자_일반주서
 62
     0
100
AcDbTrace
 10
54.13112661351809
 20
5.286375000000051
 30
0.0
 11
55.23179328018476
 21
5.286375000000055
 31
0.0
 12
54.68145994685144
 22
1.984375000000053
 32
0.0
 13
54.68145994685144
 23
1.984375000000053
 33
0.0
  0
MTEXT
  5
10D
330
102
100
AcDbEntity
  8
치수문자_일반주서
 62
     0
100
AcDbMText
 10
50.30645994685135
 20
27.4606516878648
 30
0.0
 40
3.5
 41
0.0
 71
     2
 72
     1
  1
\A1;%%c3.97 [5/32]
  7
SLDTEXTSTYLE0
 11
-3.580687802255621E-15
 21
1.0
 31
0.0
 73
     1
 44
1.0
  0
POINT
  5
10E
330
102
100
AcDbEntity
  8
Defpoints
 62
     0
100
AcDbPoint
 10
41.27500000000002
 20
-1.984374999999997
 30
0.0
  0
POINT
  5
10F
330
102
100
AcDbEntity
  8
Defpoints
 62
     0
100
AcDbPoint
 10
41.27500000000001
 20
1.984375000000005
 30
0.0
  0
POINT
  5
110
330
102
100
AcDbEntity
  8
Defpoints
 62
     0
100
AcDbPoint
 10
54.68145994685144
 20
1.984375000000055
 30
0.0
  0
ENDBLK
  5
104
330
102
100
AcDbEntity
  8
0
100
AcDbBlockEnd
  0
BLOCK
  5
118
330
117
100
AcDbEntity
  8
0
100
AcDbBlockBegin
  2
_D_2
 70
     0
 10
0.0
 20
0.0
 30
0.0
  3
_D_2
  1
_D_2
  0
LINE
  5
11A
330
117
100
AcDbEntity
  8
치수문자_일반주서
 62
     0
370
    -2
100
AcDbLine
 10
41.27500000000001
 20
2.046875000000005
 30
0.0
 11
41.27500000000001
 21
12.57456754635238
 31
0.0
  0
LINE
  5
11B
330
117
100
AcDbEntity
  8
치수문자_일반주서
 62
     0
370
    -2
100
AcDbLine
 10
19.05000000000002
 20
1.428359688307406
 30
0.0
 11
19.05000000000002
 21
12.57456754635238
 31
0.0
  0
LINE
  5
11C
330
117
100
AcDbEntity
  8
치수문자_일반주서
 62
     0
370
    -2
100
AcDbLine
 10
19.05000000000002
 20
12.57456754635238
 30
0.0
 11
-13.80399999999998
 21
12.57456754635238
 31
0.0
  0
LINE
  5
11D
330
117
100
AcDbEntity
  8
치수문자_일반주서
 62
     0
370
    -2
100
AcDbLine
 10
41.27500000000001
 20
12.57456754635238
 30
0.0
 11
19.05000000000002
 21
12.57456754635238
 31
0.0
  0
LINE
  5
11E
330
117
100
AcDbEntity
  8
치수문자_일반주서
 62
     0
370
    -2
100
AcDbLine
 10
44.57700000000001
 20
12.57456754635238
 30
0.0
 11
47.87900000000001
 21
12.57456754635238
 31
0.0
  0
LINE
  5
11F
330
117
100
AcDbEntity
  8
치수문자_일반주서
 62
     0
370
    -2
100
AcDbLine
 10
15.74800000000002
 20
12.57456754635238
 30
0.0
 11
12.44600000000002
 21
12.57456754635238
 31
0.0
  0
SOLID
  5
120
330
117
100
AcDbEntity
  8
치수문자_일반주서
 62
     0
100
AcDbTrace
 10
44.57700000000001
 20
13.12490087968572
 30
0.0
 11
44.57700000000001
 21
12.02423421301905
 31
0.0
 12
41.27500000000001
 22
12.57456754635238
 32
0.0
 13
41.27500000000001
 23
12.57456754635238
 33
0.0
  0
SOLID
  5
121
330
117
100
AcDbEntity
  8
치수문자_일반주서
 62
     0
100
AcDbTrace
 10
15.74800000000002
 20
12.02423421301905
 30
0.0
 11
15.74800000000002
 21
13.12490087968572
 31
0.0
 12
19.05000000000002
 22
12.57456754635238
 32
0.0
 13
19.05000000000002
 23
12.57456754635238
 33
0.0
  0
MTEXT
  5
122
330
117
100
AcDbEntity
  8
치수문자_일반주서
 62
     0
100
AcDbMText
 10
-0.6789999999999807
 20
16.94956754635238
 30
0.0
 40
3.5
 41
0.0
 71
     2
 72
     1
  1
\A1;22.23 [7/8]
  7
SLDTEXTSTYLE0
 73
     1
 44
1.0
  0
POINT
  5
123
330
117
100
AcDbEntity
  8
Defpoints
 62
     0
100
AcDbPoint
 10
41.27500000000001
 20
1.984375000000005
 30
0.0
  0
POINT
  5
35C
330
117
100
AcDbEntity
  8
Defpoints
 62
     0
100
AcDbPoint
 10
19.05000000000002
 20
1.365859688307406
 30
0.0
  0
POINT
  5
35D
330
117
100
AcDbEntity
  8
Defpoints
 62
     0
100
AcDbPoint
 10
19.05000000000002
 20
12.57456754635238
 30
0.0
  0
ENDBLK
  5
119
330
117
100
AcDbEntity
  8
0
100
AcDbBlockEnd
  0
BLOCK
  5
12C
330
12B
100
AcDbEntity
  8
0
100
AcDbBlockBegin
  2
_D_3
 70
     0
 10
0.0
 20
0.0
 30
0.0
  3
_D_3
  1
_D_3
  0
LINE
  5
12E
330
12B
100
AcDbEntity
  8
치수문자_일반주서
 62
     0
370
    -2
100
AcDbLine
 10
-41.27500000000001
 20
2.046875
 30
0.0
 11
-41.27500000000001
 21
26.08352496111697
 31
0.0
  0
LINE
  5
12F
330
12B
100
AcDbEntity
  8
치수문자_일반주서
 62
     0
370
    -2
100
AcDbLine
 10
41.27500000000001
 20
2.046875000000005
 30
0.0
 11
41.27500000000001
 21
26.08352496111697
 31
0.0
  0
LINE
  5
130
330
12B
100
AcDbEntity
  8
치수문자_일반주서
 62
     0
370
    -2
100
AcDbLine
 10
-37.97300000000001
 20
26.08352496111697
 30
0.0
 11
37.97300000000001
 21
26.08352496111697
 31
0.0
  0
SOLID
  5
131
330
12B
100
AcDbEntity
  8
치수문자_일반주서
 62
     0
100
AcDbTrace
 10
-37.97300000000001
 20
26.6338582944503
 30
0.0
 11
-37.97300000000001
 21
25.53319162778363
 31
0.0
 12
-41.27500000000001
 22
26.08352496111697
 32
0.0
 13
-41.27500000000001
 23
26.08352496111697
 33
0.0
  0
SOLID
  5
132
330
12B
100
AcDbEntity
  8
치수문자_일반주서
 62
     0
100
AcDbTrace
 10
37.97300000000001
 20
25.53319162778363
 30
0.0
 11
37.97300000000001
 21
26.6338582944503
 31
0.0
 12
41.27500000000001
 22
26.08352496111697
 32
0.0
 13
41.27500000000001
 23
26.08352496111697
 33
0.0
  0
MTEXT
  5
133
330
12B
100
AcDbEntity
  8
치수문자_일반주서
 62
     0
100
AcDbMText
 10
-1.485637265507215
 20
30.45852496111697
 30
0.0
 40
3.5
 41
0.0
 71
     2
 72
     1
  1
\A1;82.55 [3 1/4]
  7
SLDTEXTSTYLE0
 73
     1
 44
1.0
  0
POINT
  5
134
330
12B
100
AcDbEntity
  8
Defpoints
 62
     0
100
AcDbPoint
 10
-41.27500000000001
 20
1.984375
 30
0.0
  0
POINT
  5
135
330
12B
100
AcDbEntity
  8
Defpoints
 62
     0
100
AcDbPoint
 10
41.27500000000001
 20
1.984375000000005
 30
0.0
  0
POINT
  5
136
330
12B
100
AcDbEntity
  8
Defpoints
 62
     0
100
AcDbPoint
 10
41.27500000000001
 20
26.08352496111697
 30
0.0
  0
ENDBLK
  5
12D
330
12B
100
AcDbEntity
  8
0
100
AcDbBlockEnd
  0
BLOCK
  5
145
330
144
100
AcDbEntity
  8
0
100
AcDbBlockBegin
  2
SW_DOWELSYMBOL_0
 70
     0
 10
0.0
 20
0.0
 30
0.0
  3
SW_DOWELSYMBOL_0
  1
SW_DOWELSYMBOL_0
  0
CIRCLE
  5
147
330
144
100
AcDbEntity
  8
해칭선
 62
     0
100
AcDbCircle
 10
0.0
 20
0.0
 30
0.0
 40
3.000000000000001
  0
HATCH
  5
148
330
144
100
AcDbEntity
  8
0
  6
Continuous
 62
     0
370
     0
100
AcDbHatch
 10
0.0
 20
0.0
 30
0.0
210
0.0
220
0.0
230
1.0
  2
SOLID
 70
     1
 71
     0
 91
        1
 92
        0
 93
        3
 72
     2
 10
0.0
 20
0.0
 40
3.000000000000001
 50
0.0
 51
90.0
 73
     1
 72
     1
 10
0.0
 20
3.000000000000001
 11
0.0
 21
0.0
 72
     1
 10
0.0
 20
0.0
 11
3.000000000000001
 21
0.0
 97
        0
 75
     0
 76
     1
 98
        1
 10
0.0
 20
0.0
  0
HATCH
  5
149
330
144
100
AcDbEntity
  8
0
  6
Continuous
 62
     0
370
     0
100
AcDbHatch
 10
0.0
 20
0.0
 30
0.0
210
0.0
220
0.0
230
1.0
  2
SOLID
 70
     1
 71
     0
 91
        1
 92
        0
 93
        3
 72
     2
 10
0.0
 20
0.0
 40
3.000000000000001
 50
180.0
 51
270.0000000000008
 73
     1
 72
     1
 10
0.0
 20
-3.000000000000001
 11
0.0
 21
0.0
 72
     1
 10
0.0
 20
0.0
 11
-3.000000000000001
 21
0.0
 97
        0
 75
     0
 76
     1
 98
        1
 10
0.0
 20
0.0
  0
ENDBLK
  5
146
330
144
100
AcDbEntity
  8
0
100
AcDbBlockEnd
  0
BLOCK
  5
265
330
264
100
AcDbEntity
  8
0
100
AcDbBlockBegin
  2
*D8
 70
     1
 10
0.0
 20
0.0
 30
0.0
  3
*D8
  1
*D8
  0
LINE
  5
267
330
264
100
AcDbEntity
  8
치수문자_일반주서
 62
     0
370
    -2
100
AcDbLine
 10
41.27807883212697
 20
15.50625
 30
0.0
 11
4.375000000000028
 21
15.50624999999987
 31
0.0
  0
LINE
  5
268
330
264
100
AcDbEntity
  8
치수문자_일반주서
 62
     0
370
    -2
100
AcDbLine
 10
41.27807883212697
 20
10.74375
 30
0.0
 11
4.375000000000044
 21
10.74374999999986
 31
0.0
  0
LINE
  5
269
330
264
100
AcDbEntity
  8
치수문자_일반주서
 62
     0
370
    -2
100
AcDbLine
 10
4.375000000000039
 20
12.20424999999987
 30
0.0
 11
4.375000000000033
 21
14.04574999999986
 31
0.0
  0
SOLID
  5
26A
330
264
100
AcDbEntity
  8
치수문자_일반주서
 62
     0
100
AcDbTrace
 10
4.925333333333373
 20
12.20424999999987
 30
0.0
 11
3.824666666666706
 21
12.20424999999987
 31
0.0
 12
4.375000000000028
 22
15.50624999999987
 32
0.0
 13
4.375000000000028
 23
15.50624999999987
 33
0.0
  0
SOLID
  5
26B
330
264
100
AcDbEntity
  8
치수문자_일반주서
 62
     0
100
AcDbTrace
 10
3.8246666666667
 20
14.04574999999985
 30
0.0
 11
4.925333333333366
 21
14.04574999999986
 31
0.0
 12
4.375000000000044
 22
10.74374999999986
 32
0.0
 13
4.375000000000044
 23
10.74374999999986
 33
0.0
  0
MTEXT
  5
26C
330
264
100
AcDbEntity
  8
치수문자_일반주서
 62
     0
100
AcDbMText
 10
0.0000000000000355
 20
13.12499999999999
 30
0.0
 40
3.5
 41
0.0
 71
     2
 72
     1
  1
\A1;%%c4.76 [3/16]
  7
SLDTEXTSTYLE0
 11
-3.543388970982120E-15
 21
1.0
 31
0.0
 73
     1
 44
1.0
  0
POINT
  5
26D
330
264
100
AcDbEntity
  8
Defpoints
 62
     0
100
AcDbPoint
 10
41.34057883212697
 20
15.50625
 30
0.0
  0
POINT
  5
26E
330
264
100
AcDbEntity
  8
Defpoints
 62
     0
100
AcDbPoint
 10
41.34057883212697
 20
10.74375
 30
0.0
  0
POINT
  5
26F
330
264
100
AcDbEntity
  8
Defpoints
 62
     0
100
AcDbPoint
 10
4.375000000000043
 20
10.74374999999986
 30
0.0
  0
ENDBLK
  5
266
330
264
100
AcDbEntity
  8
0
100
AcDbBlockEnd
  0
BLOCK
  5
271
330
270
100
AcDbEntity
  8
0
100
AcDbBlockBegin
  2
*D9
 70
     1
 10
0.0
 20
0.0
 30
0.0
  3
*D9
  1
*D9
  0
LINE
  5
273
330
270
100
AcDbEntity
  8
치수문자_일반주서
 62
     0
370
    -2
100
AcDbLine
 10
99.98750000000007
 20
10.9421875
 30
0.0
 11
115.5086214778979
 21
10.94218750000006
 31
0.0
  0
LINE
  5
274
330
270
100
AcDbEntity
  8
치수문자_일반주서
 62
     0
370
    -2
100
AcDbLine
 10
99.98750000000007
 20
15.3078125
 30
0.0
 11
115.5086214778979
 21
15.30781250000006
 31
0.0
  0
LINE
  5
275
330
270
100
AcDbEntity
  8
치수문자_일반주서
 62
     0
370
    -2
100
AcDbLine
 10
115.5086214778979
 20
15.30781250000006
 30
0.0
 11
115.5086214778978
 21
52.86901239362967
 31
0.0
  0
LINE
  5
276
330
270
100
AcDbEntity
  8
치수문자_일반주서
 62
     0
370
    -2
100
AcDbLine
 10
115.5086214778979
 20
10.94218750000006
 30
0.0
 11
115.5086214778979
 21
15.30781250000006
 31
0.0
  0
LINE
  5
277
330
270
100
AcDbEntity
  8
치수문자_일반주서
 62
     0
370
    -2
100
AcDbLine
 10
115.5086214778979
 20
7.640187500000057
 30
0.0
 11
115.5086214778979
 21
4.338187500000057
 31
0.0
  0
LINE
  5
278
330
270
100
AcDbEntity
  8
치수문자_일반주서
 62
     0
370
    -2
100
AcDbLine
 10
115.5086214778979
 20
18.60981250000006
 30
0.0
 11
115.5086214778979
 21
21.91181250000006
 31
0.0
  0
SOLID
  5
279
330
270
100
AcDbEntity
  8
치수문자_일반주서
 62
     0
100
AcDbTrace
 10
116.0589548112313
 20
7.640187500000058
 30
0.0
 11
114.9582881445646
 21
7.640187500000055
 31
0.0
 12
115.5086214778979
 22
10.94218750000006
 32
0.0
 13
115.5086214778979
 23
10.94218750000006
 33
0.0
  0
SOLID
  5
27A
330
270
100
AcDbEntity
  8
치수문자_일반주서
 62
     0
100
AcDbTrace
 10
114.9582881445646
 20
18.60981250000005
 30
0.0
 11
116.0589548112312
 21
18.60981250000006
 31
0.0
 12
115.5086214778979
 22
15.30781250000006
 32
0.0
 13
115.5086214778979
 23
15.30781250000006
 33
0.0
  0
MTEXT
  5
27B
330
270
100
AcDbEntity
  8
치수문자_일반주서
 62
     0
100
AcDbMText
 10
111.1336214778978
 20
37.99401239362966
 30
0.0
 40
3.5
 41
0.0
 71
     2
 72
     1
  1
\A1;%%c4.37 [11/64]
  7
SLDTEXTSTYLE0
 11
-3.255170729323293E-15
 21
1.0
 31
0.0
 73
     1
 44
1.0
  0
POINT
  5
27C
330
270
100
AcDbEntity
  8
Defpoints
 62
     0
100
AcDbPoint
 10
99.92500000000007
 20
10.9421875
 30
0.0
  0
POINT
  5
27D
330
270
100
AcDbEntity
  8
Defpoints
 62
     0
100
AcDbPoint
 10
99.92500000000007
 20
15.3078125
 30
0.0
  0
POINT
  5
27E
330
270
100
AcDbEntity
  8
Defpoints
 62
     0
100
AcDbPoint
 10
115.5086214778979
 20
15.30781250000006
 30
0.0
  0
ENDBLK
  5
272
330
270
100
AcDbEntity
  8
0
100
AcDbBlockEnd
  0
BLOCK
  5
280
330
27F
100
AcDbEntity
  8
0
100
AcDbBlockBegin
  2
*D10
 70
     1
 10
0.0
 20
0.0
 30
0.0
  3
*D10
  1
*D10
  0
LINE
  5
282
330
27F
100
AcDbEntity
  8
치수문자_일반주서
 62
     0
370
    -2
100
AcDbLine
 10
99.92500000000007
 20
15.3703125
 30
0.0
 11
99.92500000000007
 21
34.15158291051627
 31
0.0
  0
LINE
  5
283
330
27F
100
AcDbEntity
  8
치수문자_일반주서
 62
     0
370
    -2
100
AcDbLine
 10
77.70000000000007
 20
15.36264295752761
 30
0.0
 11
77.70000000000007
 21
34.15158291051627
 31
0.0
  0
LINE
  5
284
330
27F
100
AcDbEntity
  8
치수문자_일반주서
 62
     0
370
    -2
100
AcDbLine
 10
77.70000000000007
 20
34.15158291051627
 30
0.0
 11
38.08696812713343
 21
34.15158291051627
 31
0.0
  0
LINE
  5
285
330
27F
100
AcDbEntity
  8
치수문자_일반주서
 62
     0
370
    -2
100
AcDbLine
 10
99.92500000000007
 20
34.15158291051627
 30
0.0
 11
77.70000000000007
 21
34.15158291051627
 31
0.0
  0
LINE
  5
286
330
27F
100
AcDbEntity
  8
치수문자_일반주서
 62
     0
370
    -2
100
AcDbLine
 10
103.2270000000001
 20
34.15158291051627
 30
0.0
 11
106.5290000000001
 21
34.15158291051627
 31
0.0
  0
LINE
  5
287
330
27F
100
AcDbEntity
  8
치수문자_일반주서
 62
     0
370
    -2
100
AcDbLine
 10
74.39800000000008
 20
34.15158291051627
 30
0.0
 11
71.09600000000009
 21
34.15158291051627
 31
0.0
  0
SOLID
  5
288
330
27F
100
AcDbEntity
  8
치수문자_일반주서
 62
     0
100
AcDbTrace
 10
103.2270000000001
 20
34.7019162438496
 30
0.0
 11
103.2270000000001
 21
33.60124957718293
 31
0.0
 12
99.92500000000007
 22
34.15158291051627
 32
0.0
 13
99.92500000000007
 23
34.15158291051627
 33
0.0
  0
SOLID
  5
289
330
27F
100
AcDbEntity
  8
치수문자_일반주서
 62
     0
100
AcDbTrace
 10
74.39800000000008
 20
33.60124957718293
 30
0.0
 11
74.39800000000008
 21
34.7019162438496
 31
0.0
 12
77.70000000000007
 22
34.15158291051627
 32
0.0
 13
77.70000000000007
 23
34.15158291051627
 33
0.0
  0
MTEXT
  5
28A
330
27F
100
AcDbEntity
  8
치수문자_일반주서
 62
     0
100
AcDbMText
 10
51.21196812713342
 20
38.52658291051627
 30
0.0
 40
3.5
 41
0.0
 71
     2
 72
     1
  1
\A1;22.23 [7/8]
  7
SLDTEXTSTYLE0
 73
     1
 44
1.0
  0
POINT
  5
28B
330
27F
100
AcDbEntity
  8
Defpoints
 62
     0
100
AcDbPoint
 10
99.92500000000007
 20
15.3078125
 30
0.0
  0
POINT
  5
28C
330
27F
100
AcDbEntity
  8
Defpoints
 62
     0
100
AcDbPoint
 10
77.70000000000007
 20
15.30014295752761
 30
0.0
  0
POINT
  5
28D
330
27F
100
AcDbEntity
  8
Defpoints
 62
     0
100
AcDbPoint
 10
77.70000000000007
 20
34.15158291051627
 30
0.0
  0
ENDBLK
  5
281
330
27F
100
AcDbEntity
  8
0
100
AcDbBlockEnd
  0
BLOCK
  5
28F
330
28E
100
AcDbEntity
  8
0
100
AcDbBlockBegin
  2
*D11
 70
     1
 10
0.0
 20
0.0
 30
0.0
  3
*D11
  1
*D11
  0
LINE
  5
291
330
28E
100
AcDbEntity
  8
치수문자_일반주서
 62
     0
370
    -2
100
AcDbLine
 10
17.37500000000004
 20
15.3703125
 30
0.0
 11
17.37500000000003
 21
49.50625000000002
 31
0.0
  0
LINE
  5
292
330
28E
100
AcDbEntity
  8
치수문자_일반주서
 62
     0
370
    -2
100
AcDbLine
 10
99.92500000000007
 20
15.3703125
 30
0.0
 11
99.92500000000007
 21
49.50625000000002
 31
0.0
  0
LINE
  5
293
330
28E
100
AcDbEntity
  8
치수문자_일반주서
 62
     0
370
    -2
100
AcDbLine
 10
20.67700000000003
 20
49.50625000000002
 30
0.0
 11
96.62300000000008
 21
49.50625000000002
 31
0.0
  0
SOLID
  5
294
330
28E
100
AcDbEntity
  8
치수문자_일반주서
 62
     0
100
AcDbTrace
 10
20.67700000000003
 20
50.05658333333336
 30
0.0
 11
20.67700000000003
 21
48.95591666666669
 31
0.0
 12
17.37500000000003
 22
49.50625000000002
 32
0.0
 13
17.37500000000003
 23
49.50625000000002
 33
0.0
  0
SOLID
  5
295
330
28E
100
AcDbEntity
  8
치수문자_일반주서
 62
     0
100
AcDbTrace
 10
96.62300000000008
 20
48.95591666666669
 30
0.0
 11
96.62300000000008
 21
50.05658333333336
 31
0.0
 12
99.92500000000007
 22
49.50625000000002
 32
0.0
 13
99.92500000000007
 23
49.50625000000002
 33
0.0
  0
MTEXT
  5
296
330
28E
100
AcDbEntity
  8
치수문자_일반주서
 62
     0
100
AcDbMText
 10
58.65000000000007
 20
53.88125000000002
 30
0.0
 40
3.5
 41
0.0
 71
     2
 72
     1
  1
\A1;82.55 [3 1/4]
  7
SLDTEXTSTYLE0
 73
     1
 44
1.0
  0
POINT
  5
297
330
28E
100
AcDbEntity
  8
Defpoints
 62
     0
100
AcDbPoint
 10
17.37500000000004
 20
15.3078125
 30
0.0
  0
POINT
  5
298
330
28E
100
AcDbEntity
  8
Defpoints
 62
     0
100
AcDbPoint
 10
99.92500000000007
 20
15.3078125
 30
0.0
  0
POINT
  5
299
330
28E
100
AcDbEntity
  8
Defpoints
 62
     0
100
AcDbPoint
 10
99.92500000000007
 20
49.50625000000002
 30
0.0
  0
ENDBLK
  5
290
330
28E
100
AcDbEntity
  8
0
100
AcDbBlockEnd
  0
BLOCK
  5
327
330
326
100
AcDbEntity
  8
0
100
AcDbBlockBegin
  2
*D12
 70
     1
 10
0.0
 20
0.0
 30
0.0
  3
*D12
  1
*D12
  0
LINE
  5
329
330
326
100
AcDbEntity
  8
치수문자_일반주서
 62
     0
370
    -2
100
AcDbLine
 10
117.5902542265611
 20
-50.36293205116516
 30
0.0
 11
80.68717539443412
 21
-50.3629320511653
 31
0.0
  0
LINE
  5
32A
330
326
100
AcDbEntity
  8
치수문자_일반주서
 62
     0
370
    -2
100
AcDbLine
 10
117.5902542265611
 20
-55.12543205116518
 30
0.0
 11
80.68717539443414
 21
-55.12543205116532
 31
0.0
  0
LINE
  5
32B
330
326
100
AcDbEntity
  8
치수문자_일반주서
 62
     0
370
    -2
100
AcDbLine
 10
80.68717539443414
 20
-53.6649320511653
 30
0.0
 11
80.68717539443412
 21
-51.82343205116532
 31
0.0
  0
SOLID
  5
32C
330
326
100
AcDbEntity
  8
치수문자_일반주서
 62
     0
100
AcDbTrace
 10
81.23750872776746
 20
-53.6649320511653
 30
0.0
 11
80.13684206110081
 21
-53.6649320511653
 31
0.0
 12
80.68717539443412
 22
-50.3629320511653
 32
0.0
 13
80.68717539443412
 23
-50.3629320511653
 33
0.0
  0
SOLID
  5
32D
330
326
100
AcDbEntity
  8
치수문자_일반주서
 62
     0
100
AcDbTrace
 10
80.1368420611008
 20
-51.82343205116532
 30
0.0
 11
81.23750872776745
 21
-51.82343205116532
 31
0.0
 12
80.68717539443414
 22
-55.12543205116532
 32
0.0
 13
80.68717539443414
 23
-55.12543205116532
 33
0.0
  0
MTEXT
  5
32E
330
326
100
AcDbEntity
  8
치수문자_일반주서
 62
     0
100
AcDbMText
 10
76.31217539443412
 20
-52.74418205116518
 30
0.0
 40
3.5
 41
0.0
 71
     2
 72
     1
  1
\A1;%%c4.76 [3/16]
  7
SLDTEXTSTYLE0
 11
-2.983906501879679E-15
 21
1.0
 31
0.0
 73
     1
 44
1.0
  0
POINT
  5
32F
330
326
100
AcDbEntity
  8
Defpoints
 62
     0
100
AcDbPoint
 10
117.6527542265611
 20
-50.36293205116516
 30
0.0
  0
POINT
  5
330
330
326
100
AcDbEntity
  8
Defpoints
 62
     0
100
AcDbPoint
 10
117.6527542265611
 20
-55.12543205116518
 30
0.0
  0
POINT
  5
331
330
326
100
AcDbEntity
  8
Defpoints
 62
     0
100
AcDbPoint
 10
80.68717539443414
 20
-55.12543205116531
 30
0.0
  0
ENDBLK
  5
328
330
326
100
AcDbEntity
  8
0
100
AcDbBlockEnd
  0
BLOCK
  5
333
330
332
100
AcDbEntity
  8
0
100
AcDbBlockBegin
  2
*D13
 70
     1
 10
0.0
 20
0.0
 30
0.0
  3
*D13
  1
*D13
  0
LINE
  5
335
330
332
100
AcDbEntity
  8
치수문자_일반주서
 62
     0
370
    -2
100
AcDbLine
 10
176.2996753944342
 20
-54.92699455116517
 30
0.0
 11
191.8207968723321
 21
-54.92699455116511
 31
0.0
  0
LINE
  5
336
330
332
100
AcDbEntity
  8
치수문자_일반주서
 62
     0
370
    -2
100
AcDbLine
 10
176.2996753944342
 20
-50.56136955116517
 30
0.0
 11
191.8207968723321
 21
-50.56136955116511
 31
0.0
  0
LINE
  5
337
330
332
100
AcDbEntity
  8
치수문자_일반주서
 62
     0
370
    -2
100
AcDbLine
 10
191.8207968723321
 20
-50.56136955116511
 30
0.0
 11
191.8207968723318
 21
-13.00016965753549
 31
0.0
  0
LINE
  5
338
330
332
100
AcDbEntity
  8
치수문자_일반주서
 62
     0
370
    -2
100
AcDbLine
 10
191.8207968723321
 20
-54.92699455116511
 30
0.0
 11
191.8207968723321
 21
-50.56136955116511
 31
0.0
  0
LINE
  5
339
330
332
100
AcDbEntity
  8
치수문자_일반주서
 62
     0
370
    -2
100
AcDbLine
 10
191.8207968723321
 20
-58.22899455116511
 30
0.0
 11
191.8207968723322
 21
-61.53099455116511
 31
0.0
  0
LINE
  5
33A
330
332
100
AcDbEntity
  8
치수문자_일반주서
 62
     0
370
    -2
100
AcDbLine
 10
191.820796872332
 20
-47.25936955116511
 30
0.0
 11
191.820796872332
 21
-43.95736955116512
 31
0.0
  0
SOLID
  5
33B
330
332
100
AcDbEntity
  8
치수문자_일반주서
 62
     0
100
AcDbTrace
 10
192.3711302056655
 20
-58.2289945511651
 30
0.0
 11
191.2704635389988
 21
-58.22899455116512
 31
0.0
 12
191.8207968723321
 22
-54.92699455116511
 32
0.0
 13
191.8207968723321
 23
-54.92699455116511
 33
0.0
  0
SOLID
  5
33C
330
332
100
AcDbEntity
  8
치수문자_일반주서
 62
     0
100
AcDbTrace
 10
191.2704635389987
 20
-47.25936955116512
 30
0.0
 11
192.3711302056654
 21
-47.25936955116511
 31
0.0
 12
191.8207968723321
 22
-50.56136955116511
 32
0.0
 13
191.8207968723321
 23
-50.56136955116511
 33
0.0
  0
MTEXT
  5
33D
330
332
100
AcDbEntity
  8
치수문자_일반주서
 62
     0
100
AcDbMText
 10
187.4457968723319
 20
-27.87516965753552
 30
0.0
 40
3.5
 41
0.0
 71
     2
 72
     1
  1
\A1;%%c4.37 [11/64]
  7
SLDTEXTSTYLE0
 11
-6.510341458646596E-15
 21
1.0
 31
0.0
 73
     1
 44
1.0
  0
POINT
  5
33E
330
332
100
AcDbEntity
  8
Defpoints
 62
     0
100
AcDbPoint
 10
176.2371753944342
 20
-54.92699455116517
 30
0.0
  0
POINT
  5
33F
330
332
100
AcDbEntity
  8
Defpoints
 62
     0
100
AcDbPoint
 10
176.2371753944342
 20
-50.56136955116517
 30
0.0
  0
POINT
  5
340
330
332
100
AcDbEntity
  8
Defpoints
 62
     0
100
AcDbPoint
 10
191.820796872332
 20
-50.56136955116511
 30
0.0
  0
ENDBLK
  5
334
330
332
100
AcDbEntity
  8
0
100
AcDbBlockEnd
  0
BLOCK
  5
342
330
341
100
AcDbEntity
  8
0
100
AcDbBlockBegin
  2
*D14
 70
     1
 10
0.0
 20
0.0
 30
0.0
  3
*D14
  1
*D14
  0
LINE
  5
344
330
341
100
AcDbEntity
  8
치수문자_일반주서
 62
     0
370
    -2
100
AcDbLine
 10
176.2371753944342
 20
-50.49886955116517
 30
0.0
 11
176.2371753944342
 21
-31.7175991406489
 31
0.0
  0
LINE
  5
345
330
341
100
AcDbEntity
  8
치수문자_일반주서
 62
     0
370
    -2
100
AcDbLine
 10
154.0121753944342
 20
-50.50653909363756
 30
0.0
 11
154.0121753944342
 21
-31.7175991406489
 31
0.0
  0
LINE
  5
346
330
341
100
AcDbEntity
  8
치수문자_일반주서
 62
     0
370
    -2
100
AcDbLine
 10
154.0121753944342
 20
-31.7175991406489
 30
0.0
 11
114.3991435215675
 21
-31.7175991406489
 31
0.0
  0
LINE
  5
347
330
341
100
AcDbEntity
  8
치수문자_일반주서
 62
     0
370
    -2
100
AcDbLine
 10
176.2371753944342
 20
-31.7175991406489
 30
0.0
 11
154.0121753944342
 21
-31.7175991406489
 31
0.0
  0
LINE
  5
348
330
341
100
AcDbEntity
  8
치수문자_일반주서
 62
     0
370
    -2
100
AcDbLine
 10
179.5391753944342
 20
-31.7175991406489
 30
0.0
 11
182.8411753944341
 21
-31.7175991406489
 31
0.0
  0
LINE
  5
349
330
341
100
AcDbEntity
  8
치수문자_일반주서
 62
     0
370
    -2
100
AcDbLine
 10
150.7101753944342
 20
-31.7175991406489
 30
0.0
 11
147.4081753944342
 21
-31.7175991406489
 31
0.0
  0
SOLID
  5
34A
330
341
100
AcDbEntity
  8
치수문자_일반주서
 62
     0
100
AcDbTrace
 10
179.5391753944342
 20
-31.16726580731557
 30
0.0
 11
179.5391753944342
 21
-32.26793247398223
 31
0.0
 12
176.2371753944342
 22
-31.7175991406489
 32
0.0
 13
176.2371753944342
 23
-31.7175991406489
 33
0.0
  0
SOLID
  5
34B
330
341
100
AcDbEntity
  8
치수문자_일반주서
 62
     0
100
AcDbTrace
 10
150.7101753944342
 20
-32.26793247398223
 30
0.0
 11
150.7101753944342
 21
-31.16726580731557
 31
0.0
 12
154.0121753944342
 22
-31.7175991406489
 32
0.0
 13
154.0121753944342
 23
-31.7175991406489
 33
0.0
  0
MTEXT
  5
34C
330
341
100
AcDbEntity
  8
치수문자_일반주서
 62
     0
100
AcDbMText
 10
127.5241435215675
 20
-27.3425991406489
 30
0.0
 40
3.5
 41
0.0
 71
     2
 72
     1
  1
\A1;22.23 [7/8]
  7
SLDTEXTSTYLE0
 73
     1
 44
1.0
  0
POINT
  5
34D
330
341
100
AcDbEntity
  8
Defpoints
 62
     0
100
AcDbPoint
 10
176.2371753944342
 20
-50.56136955116517
 30
0.0
  0
POINT
  5
34E
330
341
100
AcDbEntity
  8
Defpoints
 62
     0
100
AcDbPoint
 10
154.0121753944342
 20
-50.56903909363756
 30
0.0
  0
POINT
  5
34F
330
341
100
AcDbEntity
  8
Defpoints
 62
     0
100
AcDbPoint
 10
154.0121753944342
 20
-31.7175991406489
 30
0.0
  0
ENDBLK
  5
343
330
341
100
AcDbEntity
  8
0
100
AcDbBlockEnd
  0
BLOCK
  5
351
330
350
100
AcDbEntity
  8
0
100
AcDbBlockBegin
  2
*D15
 70
     1
 10
0.0
 20
0.0
 30
0.0
  3
*D15
  1
*D15
  0
LINE
  5
353
330
350
100
AcDbEntity
  8
치수문자_일반주서
 62
     0
370
    -2
100
AcDbLine
 10
93.68717539443412
 20
-50.49886955116517
 30
0.0
 11
93.68717539443412
 21
-16.36293205116515
 31
0.0
  0
LINE
  5
354
330
350
100
AcDbEntity
  8
치수문자_일반주서
 62
     0
370
    -2
100
AcDbLine
 10
176.2371753944342
 20
-50.49886955116517
 30
0.0
 11
176.2371753944342
 21
-16.36293205116515
 31
0.0
  0
LINE
  5
355
330
350
100
AcDbEntity
  8
치수문자_일반주서
 62
     0
370
    -2
100
AcDbLine
 10
96.98917539443411
 20
-16.36293205116515
 30
0.0
 11
172.9351753944342
 21
-16.36293205116515
 31
0.0
  0
SOLID
  5
356
330
350
100
AcDbEntity
  8
치수문자_일반주서
 62
     0
100
AcDbTrace
 10
96.98917539443411
 20
-15.81259871783181
 30
0.0
 11
96.98917539443411
 21
-16.91326538449848
 31
0.0
 12
93.68717539443412
 22
-16.36293205116515
 32
0.0
 13
93.68717539443412
 23
-16.36293205116515
 33
0.0
  0
SOLID
  5
357
330
350
100
AcDbEntity
  8
치수문자_일반주서
 62
     0
100
AcDbTrace
 10
172.9351753944342
 20
-16.91326538449848
 30
0.0
 11
172.9351753944342
 21
-15.81259871783181
 31
0.0
 12
176.2371753944342
 22
-16.36293205116515
 32
0.0
 13
176.2371753944342
 23
-16.36293205116515
 33
0.0
  0
MTEXT
  5
358
330
350
100
AcDbEntity
  8
치수문자_일반주서
 62
     0
100
AcDbMText
 10
134.9621753944342
 20
-11.98793205116515
 30
0.0
 40
3.5
 41
0.0
 71
     2
 72
     1
  1
\A1;82.55 [3 1/4]
  7
SLDTEXTSTYLE0
 73
     1
 44
1.0
  0
POINT
  5
359
330
350
100
AcDbEntity
  8
Defpoints
 62
     0
100
AcDbPoint
 10
93.68717539443412
 20
-50.56136955116517
 30
0.0
  0
POINT
  5
35A
330
350
100
AcDbEntity
  8
Defpoints
 62
     0
100
AcDbPoint
 10
176.2371753944342
 20
-50.56136955116517
 30
0.0
  0
POINT
  5
35B
330
350
100
AcDbEntity
  8
Defpoints
 62
     0
100
AcDbPoint
 10
176.2371753944342
 20
-16.36293205116515
 30
0.0
  0
ENDBLK
  5
352
330
350
100
AcDbEntity
  8
0
100
AcDbBlockEnd
  0
BLOCK
  5
40A
330
409
100
AcDbEntity
  8
0
100
AcDbBlockBegin
  2
*D17
 70
     1
 10
0.0
 20
0.0
 30
0.0
  3
*D17
  1
*D17
  0
LINE
  5
40C
330
409
100
AcDbEntity
  8
치수문자_일반주서
 62
     0
370
    -2
100
AcDbLine
 10
85.61250000000003
 20
6.603999999999949
 30
0.0
 11
98.95645994685145
 21
6.603999999999999
 31
0.0
  0
LINE
  5
40D
330
409
100
AcDbEntity
  8
치수문자_일반주서
 62
     0
370
    -2
100
AcDbLine
 10
85.61250000000001
 20
10.57274999999995
 30
0.0
 11
98.95645994685144
 21
10.57275
 31
0.0
  0
LINE
  5
40E
330
409
100
AcDbEntity
  8
치수문자_일반주서
 62
     0
370
    -2
100
AcDbLine
 10
98.95645994685144
 20
10.57275
 30
0.0
 11
98.9564599468513
 21
50.48652668786477
 31
0.0
  0
LINE
  5
40F
330
409
100
AcDbEntity
  8
치수문자_일반주서
 62
     0
370
    -2
100
AcDbLine
 10
98.95645994685145
 20
6.603999999999999
 30
0.0
 11
98.95645994685144
 21
10.57275
 31
0.0
  0
LINE
  5
410
330
409
100
AcDbEntity
  8
치수문자_일반주서
 62
     0
370
    -2
100
AcDbLine
 10
98.95645994685147
 20
3.302
 30
0.0
 11
98.95645994685148
 21
0.0
 31
0.0
  0
LINE
  5
411
330
409
100
AcDbEntity
  8
치수문자_일반주서
 62
     0
370
    -2
100
AcDbLine
 10
98.95645994685142
 20
13.87475
 30
0.0
 11
98.95645994685141
 21
17.17675
 31
0.0
  0
SOLID
  5
412
330
409
100
AcDbEntity
  8
치수문자_일반주서
 62
     0
100
AcDbTrace
 10
99.5067932801848
 20
3.302000000000001
 30
0.0
 11
98.40612661351814
 21
3.301999999999998
 31
0.0
 12
98.95645994685145
 22
6.603999999999999
 32
0.0
 13
98.95645994685145
 23
6.603999999999999
 33
0.0
  0
SOLID
  5
413
330
409
100
AcDbEntity
  8
치수문자_일반주서
 62
     0
100
AcDbTrace
 10
98.4061266135181
 20
13.87475
 30
0.0
 11
99.50679328018475
 21
13.87475
 31
0.0
 12
98.95645994685144
 22
10.57275
 32
0.0
 13
98.95645994685144
 23
10.57275
 33
0.0
  0
MTEXT
  5
414
330
409
100
AcDbEntity
  8
치수문자_일반주서
 62
     0
100
AcDbMText
 10
94.58145994685135
 20
36.04902668786475
 30
0.0
 40
3.5
 41
0.0
 71
     2
 72
     1
  1
\A1;%%c3.97 [5/32]
  7
SLDTEXTSTYLE0
 11
-3.580687802255623E-15
 21
1.0
 31
0.0
 73
     1
 44
1.0
  0
POINT
  5
415
330
409
100
AcDbEntity
  8
Defpoints
 62
     0
100
AcDbPoint
 10
85.55000000000003
 20
6.603999999999949
 30
0.0
  0
POINT
  5
416
330
409
100
AcDbEntity
  8
Defpoints
 62
     0
100
AcDbPoint
 10
85.55000000000001
 20
10.57274999999995
 30
0.0
  0
POINT
  5
417
330
409
100
AcDbEntity
  8
Defpoints
 62
     0
100
AcDbPoint
 10
98.95645994685145
 20
10.57275
 30
0.0
  0
ENDBLK
  5
40B
330
409
100
AcDbEntity
  8
0
100
AcDbBlockEnd
  0
BLOCK
  5
419
330
418
100
AcDbEntity
  8
0
100
AcDbBlockBegin
  2
*D18
 70
     1
 10
0.0
 20
0.0
 30
0.0
  3
*D18
  1
*D18
  0
LINE
  5
41B
330
418
100
AcDbEntity
  8
치수문자_일반주서
 62
     0
370
    -2
100
AcDbLine
 10
85.55000000000001
 20
10.63524999999995
 30
0.0
 11
85.55000000000001
 21
21.16294254635233
 31
0.0
  0
LINE
  5
41C
330
418
100
AcDbEntity
  8
치수문자_일반주서
 62
     0
370
    -2
100
AcDbLine
 10
63.32500000000002
 20
10.01673468830735
 30
0.0
 11
63.32500000000002
 21
21.16294254635233
 31
0.0
  0
LINE
  5
41D
330
418
100
AcDbEntity
  8
치수문자_일반주서
 62
     0
370
    -2
100
AcDbLine
 10
63.32500000000002
 20
21.16294254635233
 30
0.0
 11
30.47100000000002
 21
21.16294254635233
 31
0.0
  0
LINE
  5
41E
330
418
100
AcDbEntity
  8
치수문자_일반주서
 62
     0
370
    -2
100
AcDbLine
 10
85.55000000000001
 20
21.16294254635233
 30
0.0
 11
63.32500000000002
 21
21.16294254635233
 31
0.0
  0
LINE
  5
41F
330
418
100
AcDbEntity
  8
치수문자_일반주서
 62
     0
370
    -2
100
AcDbLine
 10
88.852
 20
21.16294254635233
 30
0.0
 11
92.154
 21
21.16294254635233
 31
0.0
  0
LINE
  5
420
330
418
100
AcDbEntity
  8
치수문자_일반주서
 62
     0
370
    -2
100
AcDbLine
 10
60.02300000000002
 20
21.16294254635233
 30
0.0
 11
56.72100000000002
 21
21.16294254635233
 31
0.0
  0
SOLID
  5
421
330
418
100
AcDbEntity
  8
치수문자_일반주서
 62
     0
100
AcDbTrace
 10
88.852
 20
21.71327587968566
 30
0.0
 11
88.852
 21
20.612609213019
 31
0.0
 12
85.55000000000001
 22
21.16294254635233
 32
0.0
 13
85.55000000000001
 23
21.16294254635233
 33
0.0
  0
SOLID
  5
422
330
418
100
AcDbEntity
  8
치수문자_일반주서
 62
     0
100
AcDbTrace
 10
60.02300000000002
 20
20.612609213019
 30
0.0
 11
60.02300000000002
 21
21.71327587968566
 31
0.0
 12
63.32500000000002
 22
21.16294254635233
 32
0.0
 13
63.32500000000002
 23
21.16294254635233
 33
0.0
  0
MTEXT
  5
423
330
418
100
AcDbEntity
  8
치수문자_일반주서
 62
     0
100
AcDbMText
 10
43.59600000000002
 20
25.53794254635233
 30
0.0
 40
3.5
 41
0.0
 71
     2
 72
     1
  1
\A1;22.23 [7/8]
  7
SLDTEXTSTYLE0
 73
     1
 44
1.0
  0
POINT
  5
424
330
418
100
AcDbEntity
  8
Defpoints
 62
     0
100
AcDbPoint
 10
85.55000000000001
 20
10.57274999999995
 30
0.0
  0
POINT
  5
425
330
418
100
AcDbEntity
  8
Defpoints
 62
     0
100
AcDbPoint
 10
63.32500000000002
 20
9.954234688307352
 30
0.0
  0
POINT
  5
426
330
418
100
AcDbEntity
  8
Defpoints
 62
     0
100
AcDbPoint
 10
63.32500000000002
 20
21.16294254635233
 30
0.0
  0
ENDBLK
  5
41A
330
418
100
AcDbEntity
  8
0
100
AcDbBlockEnd
  0
BLOCK
  5
428
330
427
100
AcDbEntity
  8
0
100
AcDbBlockBegin
  2
*D19
 70
     1
 10
0.0
 20
0.0
 30
0.0
  3
*D19
  1
*D19
  0
LINE
  5
42A
330
427
100
AcDbEntity
  8
치수문자_일반주서
 62
     0
370
    -2
100
AcDbLine
 10
3.000000000000021
 20
10.60212499999994
 30
0.0
 11
3.000000000000028
 21
34.67189996111691
 31
0.0
  0
LINE
  5
42B
330
427
100
AcDbEntity
  8
치수문자_일반주서
 62
     0
370
    -2
100
AcDbLine
 10
85.55000000000001
 20
10.63524999999995
 30
0.0
 11
85.55000000000001
 21
34.67189996111691
 31
0.0
  0
LINE
  5
42C
330
427
100
AcDbEntity
  8
치수문자_일반주서
 62
     0
370
    -2
100
AcDbLine
 10
6.302000000000028
 20
34.67189996111691
 30
0.0
 11
82.24800000000002
 21
34.67189996111691
 31
0.0
  0
SOLID
  5
42D
330
427
100
AcDbEntity
  8
치수문자_일반주서
 62
     0
100
AcDbTrace
 10
6.302000000000028
 20
35.22223329445025
 30
0.0
 11
6.302000000000028
 21
34.12156662778358
 31
0.0
 12
3.000000000000028
 22
34.67189996111691
 32
0.0
 13
3.000000000000028
 23
34.67189996111691
 33
0.0
  0
SOLID
  5
42E
330
427
100
AcDbEntity
  8
치수문자_일반주서
 62
     0
100
AcDbTrace
 10
82.24800000000002
 20
34.12156662778358
 30
0.0
 11
82.24800000000002
 21
35.22223329445025
 31
0.0
 12
85.55000000000001
 22
34.67189996111691
 32
0.0
 13
85.55000000000001
 23
34.67189996111691
 33
0.0
  0
MTEXT
  5
42F
330
427
100
AcDbEntity
  8
치수문자_일반주서
 62
     0
100
AcDbMText
 10
42.78936273449279
 20
39.04689996111691
 30
0.0
 40
3.5
 41
0.0
 71
     2
 72
     1
  1
\A1;82.55 [3 1/4]
  7
SLDTEXTSTYLE0
 73
     1
 44
1.0
  0
POINT
  5
430
330
427
100
AcDbEntity
  8
Defpoints
 62
     0
100
AcDbPoint
 10
3.000000000000021
 20
10.53962499999994
 30
0.0
  0
POINT
  5
431
330
427
100
AcDbEntity
  8
Defpoints
 62
     0
100
AcDbPoint
 10
85.55000000000001
 20
10.57274999999995
 30
0.0
  0
POINT
  5
432
330
427
100
AcDbEntity
  8
Defpoints
 62
     0
100
AcDbPoint
 10
85.55000000000001
 20
34.67189996111691
 30
0.0
  0
ENDBLK
  5
429
330
427
100
AcDbEntity
  8
0
100
AcDbBlockEnd
  0
BLOCK
  5
482
330
481
100
AcDbEntity
  8
0
100
AcDbBlockBegin
  2
*D20
 70
     1
 10
0.0
 20
0.0
 30
0.0
  3
*D20
  1
*D20
  0
LINE
  5
484
330
481
100
AcDbEntity
  8
치수문자_일반주서
 62
     0
370
    -2
100
AcDbLine
 10
161.1384517853128
 20
-49.14664934623668
 30
0.0
 11
174.4824117321642
 21
-49.14664934623663
 31
0.0
  0
LINE
  5
485
330
481
100
AcDbEntity
  8
치수문자_일반주서
 62
     0
370
    -2
100
AcDbLine
 10
161.1384517853128
 20
-45.17789934623668
 30
0.0
 11
174.4824117321642
 21
-45.17789934623663
 31
0.0
  0
LINE
  5
486
330
481
100
AcDbEntity
  8
치수문자_일반주서
 62
     0
370
    -2
100
AcDbLine
 10
174.4824117321642
 20
-45.17789934623663
 30
0.0
 11
174.4824117321642
 21
-5.264122658371861
 31
0.0
  0
LINE
  5
487
330
481
100
AcDbEntity
  8
치수문자_일반주서
 62
     0
370
    -2
100
AcDbLine
 10
174.4824117321642
 20
-49.14664934623663
 30
0.0
 11
174.4824117321642
 21
-45.17789934623663
 31
0.0
  0
LINE
  5
488
330
481
100
AcDbEntity
  8
치수문자_일반주서
 62
     0
370
    -2
100
AcDbLine
 10
174.4824117321642
 20
-52.44864934623663
 30
0.0
 11
174.4824117321642
 21
-55.75064934623663
 31
0.0
  0
LINE
  5
489
330
481
100
AcDbEntity
  8
치수문자_일반주서
 62
     0
370
    -2
100
AcDbLine
 10
174.4824117321642
 20
-41.87589934623663
 30
0.0
 11
174.4824117321642
 21
-38.57389934623663
 31
0.0
  0
SOLID
  5
48A
330
481
100
AcDbEntity
  8
치수문자_일반주서
 62
     0
100
AcDbTrace
 10
175.0327450654975
 20
-52.44864934623663
 30
0.0
 11
173.9320783988308
 21
-52.44864934623663
 31
0.0
 12
174.4824117321642
 22
-49.14664934623663
 32
0.0
 13
174.4824117321642
 23
-49.14664934623663
 33
0.0
  0
SOLID
  5
48B
330
481
100
AcDbEntity
  8
치수문자_일반주서
 62
     0
100
AcDbTrace
 10
173.9320783988308
 20
-41.87589934623663
 30
0.0
 11
175.0327450654975
 21
-41.87589934623663
 31
0.0
 12
174.4824117321642
 22
-45.17789934623663
 32
0.0
 13
174.4824117321642
 23
-45.17789934623663
 33
0.0
  0
MTEXT
  5
48C
330
481
100
AcDbEntity
  8
치수문자_일반주서
 62
     0
100
AcDbMText
 10
170.1074117321642
 20
-19.70162265837186
 30
0.0
 40
3.5
 41
0.0
 71
     2
 72
     1
  1
\A1;%%c3.97 [5/32]
  7
SLDTEXTSTYLE0
 11
0.0
 21
1.0
 31
0.0
 73
     1
 44
1.0
  0
POINT
  5
48D
330
481
100
AcDbEntity
  8
Defpoints
 62
     0
100
AcDbPoint
 10
161.0759517853128
 20
-49.14664934623668
 30
0.0
  0
POINT
  5
48E
330
481
100
AcDbEntity
  8
Defpoints
 62
     0
100
AcDbPoint
 10
161.0759517853128
 20
-45.17789934623668
 30
0.0
  0
POINT
  5
48F
330
481
100
AcDbEntity
  8
Defpoints
 62
     0
100
AcDbPoint
 10
174.4824117321643
 20
-45.17789934623663
 30
0.0
  0
ENDBLK
  5
483
330
481
100
AcDbEntity
  8
0
100
AcDbBlockEnd
  0
BLOCK
  5
491
330
490
100
AcDbEntity
  8
0
100
AcDbBlockBegin
  2
*D21
 70
     1
 10
0.0
 20
0.0
 30
0.0
  3
*D21
  1
*D21
  0
LINE
  5
493
330
490
100
AcDbEntity
  8
치수문자_일반주서
 62
     0
370
    -2
100
AcDbLine
 10
161.0759517853128
 20
-45.11539934623668
 30
0.0
 11
161.0759517853128
 21
-34.5877067998843
 31
0.0
  0
LINE
  5
494
330
490
100
AcDbEntity
  8
치수문자_일반주서
 62
     0
370
    -2
100
AcDbLine
 10
138.8509517853128
 20
-45.73391465792928
 30
0.0
 11
138.8509517853128
 21
-34.5877067998843
 31
0.0
  0
LINE
  5
495
330
490
100
AcDbEntity
  8
치수문자_일반주서
 62
     0
370
    -2
100
AcDbLine
 10
138.8509517853128
 20
-34.5877067998843
 30
0.0
 11
105.9969517853128
 21
-34.5877067998843
 31
0.0
  0
LINE
  5
496
330
490
100
AcDbEntity
  8
치수문자_일반주서
 62
     0
370
    -2
100
AcDbLine
 10
161.0759517853128
 20
-34.5877067998843
 30
0.0
 11
138.8509517853128
 21
-34.5877067998843
 31
0.0
  0
LINE
  5
497
330
490
100
AcDbEntity
  8
치수문자_일반주서
 62
     0
370
    -2
100
AcDbLine
 10
164.3779517853128
 20
-34.5877067998843
 30
0.0
 11
167.6799517853128
 21
-34.5877067998843
 31
0.0
  0
LINE
  5
498
330
490
100
AcDbEntity
  8
치수문자_일반주서
 62
     0
370
    -2
100
AcDbLine
 10
135.5489517853129
 20
-34.5877067998843
 30
0.0
 11
132.2469517853129
 21
-34.5877067998843
 31
0.0
  0
SOLID
  5
499
330
490
100
AcDbEntity
  8
치수문자_일반주서
 62
     0
100
AcDbTrace
 10
164.3779517853128
 20
-34.03737346655097
 30
0.0
 11
164.3779517853128
 21
-35.13804013321764
 31
0.0
 12
161.0759517853128
 22
-34.5877067998843
 32
0.0
 13
161.0759517853128
 23
-34.5877067998843
 33
0.0
  0
SOLID
  5
49A
330
490
100
AcDbEntity
  8
치수문자_일반주서
 62
     0
100
AcDbTrace
 10
135.5489517853129
 20
-35.13804013321764
 30
0.0
 11
135.5489517853129
 21
-34.03737346655097
 31
0.0
 12
138.8509517853128
 22
-34.5877067998843
 32
0.0
 13
138.8509517853128
 23
-34.5877067998843
 33
0.0
  0
MTEXT
  5
49B
330
490
100
AcDbEntity
  8
치수문자_일반주서
 62
     0
100
AcDbMText
 10
119.1219517853128
 20
-30.2127067998843
 30
0.0
 40
3.5
 41
0.0
 71
     2
 72
     1
  1
\A1;22.23 [7/8]
  7
SLDTEXTSTYLE0
 73
     1
 44
1.0
  0
POINT
  5
49C
330
490
100
AcDbEntity
  8
Defpoints
 62
     0
100
AcDbPoint
 10
161.0759517853128
 20
-45.17789934623668
 30
0.0
  0
POINT
  5
49D
330
490
100
AcDbEntity
  8
Defpoints
 62
     0
100
AcDbPoint
 10
138.8509517853128
 20
-45.79641465792928
 30
0.0
  0
POINT
  5
49E
330
490
100
AcDbEntity
  8
Defpoints
 62
     0
100
AcDbPoint
 10
138.8509517853128
 20
-34.5877067998843
 30
0.0
  0
ENDBLK
  5
492
330
490
100
AcDbEntity
  8
0
100
AcDbBlockEnd
  0
BLOCK
  5
4A0
330
49F
100
AcDbEntity
  8
0
100
AcDbBlockBegin
  2
*D22
 70
     1
 10
0.0
 20
0.0
 30
0.0
  3
*D22
  1
*D22
  0
LINE
  5
4A2
330
49F
100
AcDbEntity
  8
치수문자_일반주서
 62
     0
370
    -2
100
AcDbLine
 10
78.52595178531283
 20
-45.14852434623669
 30
0.0
 11
78.52595178531283
 21
-21.07874938511971
 31
0.0
  0
LINE
  5
4A3
330
49F
100
AcDbEntity
  8
치수문자_일반주서
 62
     0
370
    -2
100
AcDbLine
 10
161.0759517853128
 20
-45.11539934623668
 30
0.0
 11
161.0759517853128
 21
-21.07874938511971
 31
0.0
  0
LINE
  5
4A4
330
49F
100
AcDbEntity
  8
치수문자_일반주서
 62
     0
370
    -2
100
AcDbLine
 10
81.82795178531282
 20
-21.07874938511971
 30
0.0
 11
157.7739517853128
 21
-21.07874938511971
 31
0.0
  0
SOLID
  5
4A5
330
49F
100
AcDbEntity
  8
치수문자_일반주서
 62
     0
100
AcDbTrace
 10
81.82795178531282
 20
-20.52841605178638
 30
0.0
 11
81.82795178531282
 21
-21.62908271845305
 31
0.0
 12
78.52595178531283
 22
-21.07874938511971
 32
0.0
 13
78.52595178531283
 23
-21.07874938511971
 33
0.0
  0
SOLID
  5
4A6
330
49F
100
AcDbEntity
  8
치수문자_일반주서
 62
     0
100
AcDbTrace
 10
157.7739517853128
 20
-21.62908271845305
 30
0.0
 11
157.7739517853128
 21
-20.52841605178638
 31
0.0
 12
161.0759517853128
 22
-21.07874938511971
 32
0.0
 13
161.0759517853128
 23
-21.07874938511971
 33
0.0
  0
MTEXT
  5
4A7
330
49F
100
AcDbEntity
  8
치수문자_일반주서
 62
     0
100
AcDbMText
 10
118.3153145198056
 20
-16.70374938511971
 30
0.0
 40
3.5
 41
0.0
 71
     2
 72
     1
  1
\A1;82.55 [3 1/4]
  7
SLDTEXTSTYLE0
 73
     1
 44
1.0
  0
POINT
  5
4A8
330
49F
100
AcDbEntity
  8
Defpoints
 62
     0
100
AcDbPoint
 10
78.52595178531283
 20
-45.21102434623669
 30
0.0
  0
POINT
  5
4A9
330
49F
100
AcDbEntity
  8
Defpoints
 62
     0
100
AcDbPoint
 10
161.0759517853128
 20
-45.17789934623668
 30
0.0
  0
POINT
  5
4AA
330
49F
100
AcDbEntity
  8
Defpoints
 62
     0
100
AcDbPoint
 10
161.0759517853128
 20
-21.07874938511971
 30
0.0
  0
ENDBLK
  5
4A1
330
49F
100
AcDbEntity
  8
0
100
AcDbBlockEnd
  0
ENDSEC
  0
SECTION
  2
ENTITIES
  0
LINE
  5
96
330
1F
100
AcDbEntity
  8
외형선
  6
Continuous
370
    15
100
AcDbLine
 10
16.56884233574612
 20
2.381249999999997
 30
0.0
 11
-16.5688423357461
 21
2.381249999999995
 31
0.0
  0
LINE
  5
97
330
1F
100
AcDbEntity
  8
외형선
  6
Continuous
370
    15
100
AcDbLine
 10
-16.5688423357461
 20
-2.381250000000001
 30
0.0
 11
16.56884233574612
 21
-2.381249999999999
 31
0.0
  0
LINE
  5
98
330
1F
100
AcDbEntity
  8
외형선
  6
Continuous
370
    15
100
AcDbLine
 10
16.56884233574612
 20
-2.381250000000001
 30
0.0
 11
18.05000000000002
 21
-1.984375000000001
 31
0.0
  0
LINE
  5
99
330
1F
100
AcDbEntity
  8
외형선
  6
Continuous
370
    15
100
AcDbLine
 10
18.05000000000002
 20
1.984374999999999
 30
0.0
 11
16.56884233574612
 21
2.381249999999999
 31
0.0
  0
LINE
  5
9C
330
1F
100
AcDbEntity
  8
외형선
  6
Continuous
370
    15
100
AcDbLine
 10
18.16005567216659
 20
1.984374999999999
 30
0.0
 11
18.05000000000002
 21
1.984374999999999
 31
0.0
  0
LINE
  5
9D
330
1F
100
AcDbEntity
  8
외형선
  6
Continuous
370
    15
100
AcDbLine
 10
18.05000000000002
 20
-1.984375000000001
 30
0.0
 11
18.16005567216659
 21
-1.984375000000001
 31
0.0
  0
SPLINE
  5
9E
330
1F
100
AcDbEntity
  8
외형선
  6
Continuous
370
    15
100
AcDbSpline
210
0.0
220
0.0
230
1.0
 70
     8
 71
     3
 72
     9
 73
     5
 74
     0
 42
0.000000001
 43
0.00000001
 40
0.0
 40
0.0
 40
0.0
 40
0.0
 40
0.6008307179456409
 40
1.0
 40
1.0
 40
1.0
 40
1.0
 10
18.92457481897907
 20
1.355760141649465
 30
0.0
 10
18.8454519965505
 20
1.349302868871431
 30
0.0
 10
18.7137629532554
 20
1.338555627451895
 30
0.0
 10
18.58263208528923
 20
1.331145587093201
 30
0.0
 10
18.530288670868
 20
1.328187726603228
 30
0.0
  0
ARC
  5
9F
330
1F
100
AcDbEntity
  8
외형선
  6
Continuous
370
    15
100
AcDbCircle
 10
18.51005565374291
 20
1.677178659650786
 30
0.0
 40
0.34999998157728
100
AcDbArc
 50
180.0024345954301
 51
273.1172062867128
  0
LINE
  5
A0
330
1F
100
AcDbEntity
  8
0
  6
Continuous
 62
     1
370
    15
100
AcDbLine
 10
35.29551222135584
 20
0.4173780532066532
 30
0.0
 11
35.01427454933008
 21
0.5705130583982898
 31
0.0
  0
LINE
  5
A1
330
1F
100
AcDbEntity
  8
0
  6
Continuous
 62
     1
370
    15
100
AcDbLine
 10
24.48138049575243
 20
0.4260489019724996
 30
0.0
 11
24.21643288279014
 21
0.5705502975393675
 31
0.0
  0
SPLINE
  5
A2
330
1F
100
AcDbEntity
  8
0
  6
Continuous
 62
     1
370
    15
100
AcDbSpline
210
0.0
220
0.0
230
1.0
 70
     8
 71
     3
 72
     9
 73
     5
 74
     0
 42
0.000000001
 43
0.00000001
 40
0.0
 40
0.0
 40
0.0
 40
0.0
 40
0.4692062355650397
 40
1.0
 40
1.0
 40
1.0
 40
1.0
 10
36.1330697908741
 20
0.5084989259805799
 30
0.0
 10
36.04726679633389
 20
0.5495034641247228
 30
0.0
 10
35.86439839426146
 20
0.6368947540012597
 30
0.0
 10
35.68153233872249
 20
0.7328264315450626
 30
0.0
 10
35.58446817671559
 20
0.7837463677970983
 30
0.0
  0
SPLINE
  5
A3
330
1F
100
AcDbEntity
  8
0
  6
Continuous
 62
     1
370
    15
100
AcDbSpline
210
0.0
220
0.0
230
1.0
 70
     8
 71
     3
 72
     9
 73
     5
 74
     0
 42
0.000000001
 43
0.00000001
 40
0.0
 40
0.0
 40
0.0
 40
0.0
 40
0.4396777845298847
 40
1.0
 40
1.0
 40
1.0
 40
1.0
 10
25.33532461700571
 20
0.5084852887301557
 30
0.0
 10
25.25492328893151
 20
0.546848917902995
 30
0.0
 10
25.07205908495501
 20
0.6341028809701956
 30
0.0
 10
24.88924980509874
 20
0.7299663403136006
 30
0.0
 10
24.78681770440118
 20
0.7836807662355266
 30
0.0
  0
LINE
  5
A4
330
1F
100
AcDbEntity
  8
0
  6
Continuous
 62
     1
370
    15
100
AcDbLine
 10
19.82078680622316
 20
-1.984375000000003
 30
0.0
 11
20.78233383033869
 21
-1.984375000000003
 31
0.0
  0
LINE
  5
A5
330
1F
100
AcDbEntity
  8
0
  6
Continuous
 62
     1
370
    15
100
AcDbLine
 10
31.58005812870112
 20
1.984375000000001
 30
0.0
 11
30.61803300621261
 21
1.984375000000001
 31
0.0
  0
LINE
  5
A6
330
1F
100
AcDbEntity
  8
0
  6
Continuous
 62
     1
370
    15
100
AcDbLine
 10
30.61803300621262
 20
-1.984375000000003
 30
0.0
 11
31.5800581287011
 21
-1.984375000000003
 31
0.0
  0
LINE
  5
A7
330
1F
100
AcDbEntity
  8
0
  6
Continuous
 62
     1
370
    15
100
AcDbLine
 10
20.78233383033871
 20
1.984375000000001
 30
0.0
 11
19.82078680622316
 21
1.984375000000001
 31
0.0
  0
SPLINE
  5
A8
330
1F
100
AcDbEntity
  8
0
  6
Continuous
 62
     1
370
    15
100
AcDbSpline
210
0.0
220
0.0
230
1.0
 70
     8
 71
     3
 72
    15
 73
    11
 74
     0
 42
0.000000001
 43
0.00000001
 40
0.0
 40
0.0
 40
0.0
 40
0.0
 40
0.2197309362456911
 40
0.3861493946715175
 40
0.5187548031818849
 40
0.5809490572131575
 40
0.6307215300244123
 40
0.7089864394000934
 40
0.8313781709551427
 40
0.9999999999999999
 40
0.9999999999999999
 40
0.9999999999999999
 40
0.9999999999999999
 10
21.6966029735261
 20
-1.651254718657594
 30
0.0
 10
21.91529887225652
 20
-1.631165709924249
 30
0.0
 10
22.29962931909661
 20
-1.59586181191847
 30
0.0
 10
22.81553507725789
 20
-1.567583545468616
 30
0.0
 10
23.1746574712154
 20
-1.555416590911338
 30
0.0
 10
23.41802085506523
 20
-1.551143948678095
 30
0.0
 10
23.60727830688259
 20
-1.549462971302612
 30
0.0
 10
23.8560942489687
 20
-1.54985393434738
 30
0.0
 10
24.22279934808033
 20
-1.555819700567503
 30
0.0
 10
24.51293725530822
 20
-1.569152192099172
 30
0.0
 10
24.68105170499629
 20
-1.576877430411642
 30
0.0
  0
SPLINE
  5
A9
330
1F
100
AcDbEntity
  8
0
  6
Continuous
 62
     1
370
    15
100
AcDbSpline
210
0.0
220
0.0
230
1.0
 70
     8
 71
     3
 72
    10
 73
     6
 74
     0
 42
0.000000001
 43
0.00000001
 40
0.0
 40
0.0
 40
0.0
 40
0.0
 40
0.470795810423203
 40
0.909385802406802
 40
1.0
 40
1.0
 40
1.0
 40
1.0
 10
35.47831098278033
 20
1.576850027571764
 30
0.0
 10
35.2197366531111
 20
1.566493812318335
 30
0.0
 10
34.7202763370631
 20
1.546489821395666
 30
0.0
 10
34.17060828715378
 20
1.546582167616024
 30
0.0
 10
33.88000615019688
 20
1.560352976171632
 30
0.0
 10
33.83024713472067
 20
1.56271091435892
 30
0.0
  0
SPLINE
  5
AA
330
1F
100
AcDbEntity
  8
0
  6
Continuous
 62
     1
370
    15
100
AcDbSpline
210
0.0
220
0.0
230
1.0
 70
     8
 71
     3
 72
    11
 73
     7
 74
     0
 42
0.000000001
 43
0.00000001
 40
0.0
 40
0.0
 40
0.0
 40
0.0
 40
0.2599014149170292
 40
0.4977063135432124
 40
0.7399588133441111
 40
1.0
 40
1.0
 40
1.0
 40
1.0
 10
32.49467231057217
 20
-1.65122510632928
 30
0.0
 10
32.75323430918944
 20
-1.627921617864542
 30
0.0
 10
33.24837566575054
 20
-1.583295876445687
 30
0.0
 10
33.98381445601423
 20
-1.551969387373063
 30
0.0
 10
34.72026230380721
 20
-1.545024446667648
 30
0.0
 10
35.21973186620623
 20
-1.565993956157207
 30
0.0
 10
35.47831098278033
 20
-1.576850027571766
 30
0.0
  0
SPLINE
  5
AB
330
1F
100
AcDbEntity
  8
0
  6
Continuous
 62
     1
370
    15
100
AcDbSpline
210
0.0
220
0.0
230
1.0
 70
     8
 71
     3
 72
    12
 73
     8
 74
     0
 42
0.000000001
 43
0.00000001
 40
0.0
 40
0.0
 40
0.0
 40
0.0
 40
0.3093349043441566
 40
0.5448903451832552
 40
0.7489825299164147
 40
0.9449935987453639
 40
1.0
 40
1.0
 40
1.0
 40
1.0
 10
24.68105170499629
 20
1.57687743041164
 30
0.0
 10
24.51341175750619
 20
1.569182654429289
 30
0.0
 10
24.21811566394685
 20
1.555628383371451
 30
0.0
 10
23.81348229238775
 20
1.549130331724791
 30
0.0
 10
23.46946247943243
 20
1.549961016988058
 30
0.0
 10
23.22299235489525
 20
1.554241708358107
 30
0.0
 10
23.0872263965801
 20
1.558922528756892
 30
0.0
 10
23.05747549208203
 20
1.559948254516022
 30
0.0
  0
SPLINE
  5
AC
330
1F
100
AcDbEntity
  8
0
  6
Continuous
 62
     1
370
    15
100
AcDbSpline
210
0.0
220
0.0
230
1.0
 70
     8
 71
     3
 72
    12
 73
     8
 74
     0
 42
0.000000001
 43
0.00000001
 40
0.0
 40
0.0
 40
0.0
 40
0.0
 40
0.3203797344890896
 40
0.5427102349748726
 40
0.6981907774985371
 40
0.8836152293111041
 40
0.9999999999999999
 40
0.9999999999999999
 40
0.9999999999999999
 40
0.9999999999999999
 10
26.2723176009272
 20
-1.492567241625532
 30
0.0
 10
26.42882564567545
 20
-1.469180523712654
 30
0.0
 10
26.69394390565602
 20
-1.429564375100666
 30
0.0
 10
27.03461334737714
 20
-1.389827497329999
 30
0.0
 10
27.31215240678156
 20
-1.362121961899987
 30
0.0
 10
27.54104091206898
 20
-1.342588571685193
 30
0.0
 10
27.6912930134341
 20
-1.333607839926445
 30
0.0
 10
27.74923377554193
 20
-1.330144657464036
 30
0.0
  0
SPLINE
  5
AD
330
1F
100
AcDbEntity
  8
0
  6
Continuous
 62
     1
370
    15
100
AcDbSpline
210
0.0
220
0.0
230
1.0
 70
     8
 71
     3
 72
    18
 73
    14
 74
     0
 42
0.000000001
 43
0.00000001
 40
0.0
 40
0.0
 40
0.0
 40
0.0
 40
0.1172784164461732
 40
0.2052505003936552
 40
0.2645454786741082
 40
0.3560341370249526
 40
0.4715069228685971
 40
0.5550883680509525
 40
0.6395287315497332
 40
0.7114719043714218
 40
0.7728640857957394
 40
0.8649887688636217
 40
0.9999999999999999
 40
0.9999999999999999
 40
0.9999999999999999
 40
0.9999999999999999
 10
40.55011224571483
 20
1.358340310929948
 30
0.0
 10
40.41352453711136
 20
1.347549463975106
 30
0.0
 10
40.17448059033916
 20
1.328664260676259
 30
0.0
 10
39.86749434478136
 20
1.314774509282147
 30
0.0
 10
39.59064803771669
 20
1.307040085943792
 30
0.0
 10
39.28188752215951
 20
1.304433640072924
 30
0.0
 10
38.94557380573894
 20
1.310629109750607
 30
0.0
 10
38.6154304932376
 20
1.325075304723859
 30
0.0
 10
38.33523914695667
 20
1.343189740290714
 30
0.0
 10
38.08232346959095
 20
1.364579300766172
 30
0.0
 10
37.82340961542711
 20
1.390948515605945
 30
0.0
 10
37.49041217770787
 20
1.429740815564129
 30
0.0
 10
37.22701249628135
 20
1.469110020837087
 30
0.0
 10
37.07044581947503
 20
1.492511361357737
 30
0.0
  0
SPLINE
  5
AE
330
1F
100
AcDbEntity
  8
0
  6
Continuous
 62
     1
370
    15
100
AcDbSpline
210
0.0
220
0.0
230
1.0
 70
     8
 71
     3
 72
    12
 73
     8
 74
     0
 42
0.000000001
 43
0.00000001
 40
0.0
 40
0.0
 40
0.0
 40
0.0
 40
0.3402769853506285
 40
0.5505753584313678
 40
0.7040270521062482
 40
0.9045503416657706
 40
1.0
 40
1.0
 40
1.0
 40
1.0
 10
37.07044581947503
 20
-1.492511361357739
 30
0.0
 10
37.24206086000708
 20
-1.466933631658659
 30
0.0
 10
37.51973762488082
 20
-1.425548324091
 30
0.0
 10
37.86552832953198
 20
-1.386373869474173
 30
0.0
 10
38.13812339672123
 20
-1.359447121029942
 30
0.0
 10
38.36473001692514
 20
-1.340765589684977
 30
0.0
 10
38.51279255456696
 20
-1.332543047016912
 30
0.0
 10
38.56054191386005
 20
-1.329891321939027
 30
0.0
  0
SPLINE
  5
AF
330
1F
100
AcDbEntity
  8
0
  6
Continuous
 62
     1
370
    15
100
AcDbSpline
210
0.0
220
0.0
230
1.0
 70
     8
 71
     3
 72
    11
 73
     7
 74
     0
 42
0.000000001
 43
0.00000001
 40
0.0
 40
0.0
 40
0.0
 40
0.0
 40
0.3438754460362577
 40
0.5868154064412848
 40
0.7094743037506954
 40
1.0
 40
1.0
 40
1.0
 40
1.0
 10
29.73899048916106
 20
1.357204783876635
 30
0.0
 10
29.34242727540655
 20
1.332295602713724
 30
0.0
 10
28.66570142556358
 20
1.289788667610566
 30
0.0
 10
27.8365316224377
 20
1.320705604432816
 30
0.0
 10
27.08893675608429
 20
1.377501652698318
 30
0.0
 10
26.60945754624085
 20
1.445062592593704
 30
0.0
 10
26.2723176009272
 20
1.492567241625529
 30
0.0
  0
LINE
  5
B0
330
1F
100
AcDbEntity
  8
외형선
  6
Continuous
370
    15
100
AcDbLine
 10
16.56884233574612
 20
2.381249999999999
 30
0.0
 11
16.56884233574612
 21
-2.381249999999999
 31
0.0
  0
LINE
  5
B2
330
1F
100
AcDbEntity
  8
외형선
  6
Continuous
370
    15
100
AcDbLine
 10
18.05000000000002
 20
1.984374999999999
 30
0.0
 11
18.05000000000002
 21
-1.984375000000001
 31
0.0
  0
SPLINE
  5
B4
330
1F
100
AcDbEntity
  8
외형선
  6
Continuous
370
    15
100
AcDbSpline
210
0.0
220
0.0
230
1.0
 70
     8
 71
     3
 72
     8
 73
     4
 74
     0
 42
0.000000001
 43
0.00000001
 40
0.0
 40
0.0
 40
0.0
 40
0.0
 40
1.0
 40
1.0
 40
1.0
 40
1.0
 10
19.05000000000003
 20
-1.737663587389247
 30
0.0
 10
18.75130504732079
 20
-1.654700020007875
 30
0.0
 10
18.45877056494295
 20
-1.552840454492074
 30
0.0
 10
18.16011408850992
 20
-1.434102674220983
 30
0.0
  0
LINE
  5
B5
330
1F
100
AcDbEntity
  8
외형선
  6
Continuous
370
    15
100
AcDbLine
 10
19.05000000000002
 20
-1.737663587389238
 30
0.0
 11
19.05000000000002
 21
-1.934732412954204
 31
0.0
  0
SPLINE
  5
B6
330
1F
100
AcDbEntity
  8
외형선
  6
Continuous
370
    15
100
AcDbSpline
210
0.0
220
0.0
230
1.0
 70
     8
 71
     3
 72
     8
 73
     4
 74
     0
 42
0.000000001
 43
0.00000001
 40
0.0
 40
0.0
 40
0.0
 40
0.0
 40
1.0
 40
1.0
 40
1.0
 40
1.0
 10
19.05000000000003
 20
-1.934732412954206
 30
0.0
 10
18.75128557270492
 20
-1.896542254219754
 30
0.0
 10
18.45873184126267
 20
-1.836936933768124
 30
0.0
 10
18.16005567216659
 20
-1.75709877915268
 30
0.0
  0
LINE
  5
B7
330
1F
100
AcDbEntity
  8
외형선
  6
Continuous
370
    15
100
AcDbLine
 10
18.16005567216659
 20
-1.984375000000001
 30
0.0
 11
18.16005567216659
 21
-1.756783635917248
 31
0.0
  0
SPLINE
  5
B8
330
1F
100
AcDbEntity
  8
외형선
  6
Continuous
370
    15
100
AcDbSpline
210
0.0
220
0.0
230
1.0
 70
     8
 71
     3
 72
     8
 73
     4
 74
     0
 42
0.000000001
 43
0.00000001
 40
0.0
 40
0.0
 40
0.0
 40
0.0
 40
1.0
 40
1.0
 40
1.0
 40
1.0
 10
19.05000000000003
 20
1.934732412954204
 30
0.0
 10
18.75128557270492
 20
1.896542254219751
 30
0.0
 10
18.45873184126267
 20
1.836936933768122
 30
0.0
 10
18.16005567216659
 20
1.757098779152678
 30
0.0
  0
LINE
  5
B9
330
1F
100
AcDbEntity
  8
외형선
  6
Continuous
370
    15
100
AcDbLine
 10
18.16005567216659
 20
-1.434043893000254
 30
0.0
 11
18.16005567216659
 21
1.984374999999999
 31
0.0
  0
SPLINE
  5
BA
330
1F
100
AcDbEntity
  8
외형선
  6
Continuous
370
    15
100
AcDbSpline
210
0.0
220
0.0
230
1.0
 70
     8
 71
     3
 72
     8
 73
     4
 74
     0
 42
0.000000001
 43
0.00000001
 40
0.0
 40
0.0
 40
0.0
 40
0.0
 40
1.0
 40
1.0
 40
1.0
 40
1.0
 10
19.05000000000007
 20
-1.425235875216301
 30
0.0
 10
18.75130504732081
 20
-1.347137748647634
 30
0.0
 10
18.45877056494296
 20
-1.253610330819771
 30
0.0
 10
18.16011408850992
 20
-1.146506103943032
 30
0.0
  0
SPLINE
  5
BB
330
1F
100
AcDbEntity
  8
외형선
  6
Continuous
370
    15
100
AcDbSpline
210
0.0
220
0.0
230
1.0
 70
     8
 71
     3
 72
    12
 73
     8
 74
     0
 42
0.000000001
 43
0.00000001
 40
0.0
 40
0.0
 40
0.0
 40
0.0
 40
0.2499999999999998
 40
0.2499999999999998
 40
0.4999999999999996
 40
0.4999999999999996
 40
1.0
 40
1.0
 40
1.0
 40
1.0
 10
18.45551353169862
 20
0.5537679191902406
 30
0.0
 10
18.39333131735129
 20
0.5807520108479014
 30
0.0
 10
18.34951415375254
 20
0.6330669075122332
 30
0.0
 10
18.2784844694057
 20
0.7412683460910336
 30
0.0
 10
18.25128637699727
 20
0.799920236752396
 30
0.0
 10
18.18541008760496
 20
0.977909131651161
 30
0.0
 10
18.16005567216657
 20
1.103014984869164
 30
0.0
 10
18.16005567216656
 20
1.230913162157615
 30
0.0
  0
SPLINE
  5
BC
330
1F
100
AcDbEntity
  8
외형선
  6
Continuous
370
    15
100
AcDbSpline
210
0.0
220
0.0
230
1.0
 70
     8
 71
     3
 72
     8
 73
     4
 74
     0
 42
0.000000001
 43
0.00000001
 40
0.0
 40
0.0
 40
0.0
 40
0.0
 40
1.0
 40
1.0
 40
1.0
 40
1.0
 10
19.05000000002557
 20
0.2889461572789498
 30
0.0
 10
18.85015095671339
 20
0.3793682567884409
 30
0.0
 10
18.65348973271696
 20
0.4678557655240029
 30
0.0
 10
18.45551353169862
 20
0.5537679191902386
 30
0.0
  0
SPLINE
  5
BD
330
1F
100
AcDbEntity
  8
외형선
  6
Continuous
370
    15
100
AcDbSpline
210
0.0
220
0.0
230
1.0
 70
    24
 71
     3
 72
    10
 73
     6
 74
     0
 42
0.000000001
 43
0.00000001
 40
0.0
 40
0.0
 40
0.0
 40
0.0
 40
0.5000000000000001
 40
0.5000000000000001
 40
1.0
 40
1.0
 40
1.0
 40
1.0
 10
19.05000000000001
 20
0.288946157290514
 30
0.0
 10
19.05000000000001
 20
-0.0164399657173731
 30
0.0
 10
19.05000000000001
 20
-0.3412158552371607
 30
0.0
 10
19.05000000000001
 20
-0.9404074176691255
 30
0.0
 10
19.05000000000001
 20
-1.212243935856178
 30
0.0
 10
19.05000000000001
 20
-1.425235875216287
 30
0.0
  0
LINE
  5
BE
330
1F
100
AcDbEntity
  8
외형선
  6
Continuous
370
    15
100
AcDbLine
 10
19.05000000000002
 20
1.365859688307406
 30
0.0
 11
18.92411736954572
 21
1.352905632187011
 31
0.0
  0
SPLINE
  5
BF
330
1F
100
AcDbEntity
  8
외형선
  6
Continuous
370
    15
100
AcDbSpline
210
0.0
220
0.0
230
1.0
 70
    24
 71
     3
 72
    14
 73
    10
 74
     0
 42
0.000000001
 43
0.00000001
 40
0.0
 40
0.0
 40
0.0
 40
0.0
 40
0.25
 40
0.25
 40
0.5
 40
0.5
 40
0.75
 40
0.75
 40
1.0
 40
1.0
 40
1.0
 40
1.0
 10
19.05000000000002
 20
1.365859688307406
 30
0.0
 10
19.05000000000002
 20
1.360322754182599
 30
0.0
 10
19.05000000000002
 20
1.333071742396287
 30
0.0
 10
19.05000000000002
 20
1.231305480144589
 30
0.0
 10
19.05000000000002
 20
1.1567477942943
 30
0.0
 10
19.05000000000002
 20
0.9653492112200321
 30
0.0
 10
19.05000000000002
 20
0.8486102991631497
 30
0.0
 10
19.05000000000002
 20
0.5861199360375743
 30
0.0
 10
19.05000000000002
 20
0.440551795255925
 30
0.0
 10
19.05000000000002
 20
0.2889461572905114
 30
0.0
  0
SPLINE
  5
C0
330
1F
100
AcDbEntity
  8
외형선
  6
Continuous
370
    15
100
AcDbSpline
210
0.0
220
0.0
230
1.0
 70
    24
 71
     3
 72
     8
 73
     4
 74
     0
 42
0.000000001
 43
0.00000001
 40
0.0
 40
0.0
 40
0.0
 40
0.0
 40
1.0
 40
1.0
 40
1.0
 40
1.0
 10
19.05000000000002
 20
-1.425235875216288
 30
0.0
 10
19.05000000000002
 20
-1.527320202759328
 30
0.0
 10
19.05000000000002
 20
-1.632122967901841
 30
0.0
 10
19.05000000000002
 20
-1.737663587388703
 30
0.0
  0
SPLINE
  5
C1
330
1F
100
AcDbEntity
  8
외형선
  6
Continuous
370
    15
100
AcDbSpline
210
0.0
220
0.0
230
1.0
 70
    24
 71
     3
 72
    10
 73
     6
 74
     0
 42
0.000000001
 43
0.00000001
 40
0.0
 40
0.0
 40
0.0
 40
0.0
 40
0.5
 40
0.5
 40
1.0
 40
1.0
 40
1.0
 40
1.0
 10
19.05000000000003
 20
1.9347324129542
 30
0.0
 10
19.05000000000003
 20
1.832383849019154
 30
0.0
 10
19.05000000000003
 20
1.726157201675176
 30
0.0
 10
19.05000000000003
 20
1.529631705345162
 30
0.0
 10
19.05000000000003
 20
1.439806348258852
 30
0.0
 10
19.05000000000003
 20
1.365859688307406
 30
0.0
  0
LINE
  5
C2
330
1F
100
AcDbEntity
  8
0
  6
Continuous
 62
     1
370
    15
100
AcDbLine
 10
19.05000000000003
 20
-1.934732412954209
 30
0.0
 11
19.82078680622316
 21
-1.971056819513753
 31
0.0
  0
SPLINE
  5
C3
330
1F
100
AcDbEntity
  8
0
  6
Continuous
 62
     1
370
    15
100
AcDbSpline
210
0.0
220
0.0
230
1.0
 70
     8
 71
     3
 72
    22
 73
    18
 74
     0
 42
0.000000001
 43
0.00000001
 40
0.0
 40
0.0
 40
0.0
 40
0.0
 40
0.0029155906803269
 40
0.0740932039948922
 40
0.1452819298024296
 40
0.2164942331990257
 40
0.2877424505083473
 40
0.3590349295600673
 40
0.4303048894327706
 40
0.5015330343757421
 40
0.5727316144709396
 40
0.6439130409333726
 40
0.7150898188263142
 40
0.7862744786908642
 40
0.8574795078800946
 40
0.9287172823937894
 40
1.0
 40
1.0
 40
1.0
 40
1.0
 10
27.75159193818924
 20
1.331258997406295
 30
0.0
 10
27.76473332963012
 20
1.337492989600094
 30
0.0
 10
28.09869234636604
 20
1.495915932310946
 30
0.0
 10
28.75350910295879
 20
1.715060286333808
 30
0.0
 10
29.71618943475078
 20
1.943557430133956
 30
0.0
 10
30.67925407391322
 20
2.009713789164
 30
0.0
 10
31.64286921779506
 20
1.921913603159365
 30
0.0
 10
32.60692895629322
 20
1.683420883351538
 30
0.0
 10
33.57079194433298
 20
1.313724717047688
 30
0.0
 10
34.53410834790854
 20
0.8414638223218524
 30
0.0
 10
35.49694843342924
 20
0.3036742011362477
 30
0.0
 10
36.45950969361039
 20
-0.2578097945781973
 30
0.0
 10
37.42199601280934
 20
-0.7989584464922391
 30
0.0
 10
38.38460925237614
 20
-1.27861613548102
 30
0.0
 10
39.34755557872728
 20
-1.655617735777395
 30
0.0
 10
40.31102154208649
 20
-1.914597946353283
 30
0.0
 10
40.95360630211333
 20
-1.959993101390328
 30
0.0
 10
41.27500000000001
 20
-1.984374999999995
 30
0.0
  0
SPLINE
  5
C4
330
1F
100
AcDbEntity
  8
0
  6
Continuous
 62
     1
370
    15
100
AcDbSpline
210
0.0
220
0.0
230
1.0
 70
     8
 71
     3
 72
    14
 73
    10
 74
     0
 42
0.000000001
 43
0.00000001
 40
0.0
 40
0.0
 40
0.0
 40
0.0
 40
0.1283248794258844
 40
0.2740784882855453
 40
0.4198979309395625
 40
0.5658104729865795
 40
0.7117731395258002
 40
0.8576372657019086
 40
1.0
 40
1.0
 40
1.0
 40
1.0
 10
36.34465995334492
 20
-0.1883111971064237
 30
0.0
 10
36.06211506955397
 20
-0.0741644575140265
 30
0.0
 10
35.45865083901117
 20
0.1696321154512116
 30
0.0
 10
34.53409491630015
 20
0.5362218264182684
 30
0.0
 10
33.57077115334217
 20
0.874885879084358
 30
0.0
 10
32.60691738102365
 20
1.146177230919181
 30
0.0
 10
31.64290643794234
 20
1.325741054569345
 30
0.0
 10
30.6868129844548
 20
1.409338352878742
 30
0.0
 10
30.05216924813998
 20
1.373599581684982
 30
0.0
 10
29.73870221922293
 20
1.355947274126878
 30
0.0
  0
SPLINE
  5
C5
330
1F
100
AcDbEntity
  8
0
  6
Continuous
 62
     1
370
    15
100
AcDbSpline
210
0.0
220
0.0
230
1.0
 70
     8
 71
     3
 72
    19
 73
    15
 74
     0
 42
0.000000001
 43
0.00000001
 40
0.0
 40
0.0
 40
0.0
 40
0.0
 40
0.0844674141955788
 40
0.1689532395248524
 40
0.2534672224430885
 40
0.3380189913922242
 40
0.4226002811814271
 40
0.5059033198013081
 40
0.5891611499367628
 40
0.672388148406541
 40
0.7555988602657763
 40
0.8388079197327487
 40
0.9220299700833077
 40
1.0
 40
1.0
 40
1.0
 40
1.0
 10
19.05000000000003
 20
1.934732412954207
 30
0.0
 10
19.37568497346063
 20
1.961383755253647
 30
0.0
 10
20.02712590905415
 20
2.014692248973488
 30
0.0
 10
21.0044791646095
 20
1.891140998858969
 30
0.0
 10
21.9822222458835
 20
1.626765496987622
 30
0.0
 10
22.96041801043437
 20
1.228605562917622
 30
0.0
 10
23.93406349755589
 20
0.7350151301483614
 30
0.0
 10
24.90256290189177
 20
0.1857465106101003
 30
0.0
 10
25.8657396065747
 20
-0.3752568786453395
 30
0.0
 10
26.82848784820613
 20
-0.9066658427492191
 30
0.0
 10
27.79101003832928
 20
-1.368244463409639
 30
0.0
 10
28.7535113234394
 20
-1.719657982499897
 30
0.0
 10
29.69582888148043
 20
-1.945006670358792
 30
0.0
 10
30.3173821918367
 20
-1.968438328636508
 30
0.0
 10
30.61803300621262
 20
-1.979772428263998
 30
0.0
  0
SPLINE
  5
C6
330
1F
100
AcDbEntity
  8
0
  6
Continuous
 62
     1
370
    15
100
AcDbSpline
210
0.0
220
0.0
230
1.0
 70
     8
 71
     3
 72
    10
 73
     6
 74
     0
 42
0.000000001
 43
0.00000001
 40
0.0
 40
0.0
 40
0.0
 40
0.0
 40
0.2900492812622028
 40
0.6449127010062818
 40
1.0
 40
1.0
 40
1.0
 40
1.0
 10
38.56003322654909
 20
1.329693514765248
 30
0.0
 10
38.82249195598834
 20
1.437741818393865
 30
0.0
 10
39.40605819469359
 20
1.677982797544186
 30
0.0
 10
40.31102260742251
 20
1.912800312715672
 30
0.0
 10
40.95360665729997
 20
1.959393764218947
 30
0.0
 10
41.27500000000001
 20
1.984375000000003
 30
0.0
  0
SPLINE
  5
C7
330
1F
100
AcDbEntity
  8
0
  6
Continuous
 62
     1
370
    15
100
AcDbSpline
210
0.0
220
0.0
230
1.0
 70
    24
 71
     3
 72
    10
 73
     6
 74
     0
 42
0.000000001
 43
0.00000001
 40
0.0
 40
0.0
 40
0.0
 40
0.0
 40
0.5
 40
0.5
 40
1.0
 40
1.0
 40
1.0
 40
1.0
 10
41.27500000000002
 20
1.389062499999999
 30
0.0
 10
41.27500000000002
 20
1.473264009602012
 30
0.0
 10
41.27500000000002
 20
1.571113961658185
 30
0.0
 10
41.27500000000001
 20
1.776402897531698
 30
0.0
 10
41.27500000000003
 20
1.883317599168548
 30
0.0
 10
41.27500000000001
 20
1.984375000000003
 30
0.0
  0
LINE
  5
C8
330
1F
100
AcDbEntity
  8
0
  6
Continuous
 62
     1
370
    15
100
AcDbLine
 10
41.27500000000002
 20
1.389062499999999
 30
0.0
 11
40.54739307722239
 21
1.348144399680336
 31
0.0
  0
SPLINE
  5
C9
330
1F
100
AcDbEntity
  8
0
  6
Continuous
 62
     1
370
    15
100
AcDbSpline
210
0.0
220
0.0
230
1.0
 70
     8
 71
     3
 72
    14
 73
    10
 74
     0
 42
0.000000001
 43
0.00000001
 40
0.0
 40
0.0
 40
0.0
 40
0.0
 40
0.0992405920583221
 40
0.2475633470740343
 40
0.3959708430410408
 40
0.5442968971545104
 40
0.692534512361627
 40
0.8462770916249956
 40
1.0
 40
1.0
 40
1.0
 40
1.0
 10
25.54752411665387
 20
-0.1874484270877377
 30
0.0
 10
25.33259487164119
 20
-0.1012361659897638
 30
0.0
 10
24.79643721502256
 20
0.1138269999342366
 30
0.0
 10
23.93880850378014
 20
0.4586362661013657
 30
0.0
 10
22.97478034884939
 20
0.8082273505862937
 30
0.0
 10
22.01102005002961
 20
1.095922280553361
 30
0.0
 10
21.03578357433947
 20
1.298339024836112
 30
0.0
 10
20.04881646671395
 20
1.40580731701888
 30
0.0
 10
19.38292462152856
 20
1.3791749965877
 30
0.0
 10
19.05000000000002
 20
1.365859688307406
 30
0.0
  0
SPLINE
  5
CA
330
1F
100
AcDbEntity
  8
외형선
  6
Continuous
370
    15
100
AcDbSpline
210
0.0
220
0.0
230
1.0
 70
    24
 71
     3
 72
    10
 73
     6
 74
     0
 42
0.000000001
 43
0.00000001
 40
0.0
 40
0.0
 40
0.0
 40
0.0
 40
0.5
 40
0.5
 40
1.0
 40
1.0
 40
1.0
 40
1.0
 10
19.05000000000003
 20
1.934732412954199
 30
0.0
 10
19.05000000000003
 20
1.832383849019154
 30
0.0
 10
19.05000000000003
 20
1.726157201675175
 30
0.0
 10
19.05000000000003
 20
1.529631705345161
 30
0.0
 10
19.05000000000003
 20
1.439806348258853
 30
0.0
 10
19.05000000000003
 20
1.365859688307406
 30
0.0
  0
SPLINE
  5
CB
330
1F
100
AcDbEntity
  8
0
  6
Continuous
 62
     1
370
    15
100
AcDbSpline
210
0.0
220
0.0
230
1.0
 70
     8
 71
     3
 72
    18
 73
    14
 74
     0
 42
0.000000001
 43
0.00000001
 40
0.0
 40
0.0
 40
0.0
 40
0.0
 40
0.0994331162739717
 40
0.1988035384821966
 40
0.2981282825480878
 40
0.3974246130299962
 40
0.496709949821655
 40
0.5960017730574897
 40
0.695317527319635
 40
0.7946745262572028
 40
0.894089858720266
 40
0.993536585306018
 40
1.0
 40
1.0
 40
1.0
 40
1.0
 10
41.27500000000001
 20
-1.883054537382054
 30
0.0
 10
40.95360710449923
 20
-1.81024359963716
 30
0.0
 10
40.31102395652123
 20
-1.66466763253171
 30
0.0
 10
39.34756042324504
 20
-1.276967863432106
 30
0.0
 10
38.38461654630541
 20
-0.800266365895002
 30
0.0
 10
37.42200573467553
 20
-0.258355194210247
 30
0.0
 10
36.45952191664115
 20
0.3028365025402049
 30
0.0
 10
35.49696281687553
 20
0.8409533064565341
 30
0.0
 10
34.53412603689363
 20
1.312258705115471
 30
0.0
 10
33.57080847677437
 20
1.685807215712369
 30
0.0
 10
32.60696083282254
 20
1.910874465673824
 30
0.0
 10
31.94323086807285
 20
2.006663712976839
 30
0.0
 10
31.60094681554358
 20
1.981214437377383
 30
0.0
 10
31.58005812870112
 20
1.979661335664241
 30
0.0
  0
SPLINE
  5
CC
330
1F
100
AcDbEntity
  8
0
  6
Continuous
 62
     1
370
    15
100
AcDbSpline
210
0.0
220
0.0
230
1.0
 70
     8
 71
     3
 72
    12
 73
     8
 74
     0
 42
0.000000001
 43
0.00000001
 40
0.0
 40
0.0
 40
0.0
 40
0.0
 40
0.0237087659143877
 40
0.267917351597918
 40
0.5120168275197715
 40
0.7560349959812886
 40
1.0
 40
1.0
 40
1.0
 40
1.0
 10
23.05533707170318
 20
-1.560809461677414
 30
0.0
 10
23.02367754789374
 20
-1.573717763615049
 30
0.0
 10
22.66591384975336
 20
-1.719586092706728
 30
0.0
 10
21.98224963667307
 20
-1.882621935452519
 30
0.0
 10
21.00449621477304
 20
-2.007440495828905
 30
0.0
 10
20.02713473483932
 20
-1.968825014968244
 30
0.0
 10
19.37568792049214
 20
-1.814711799843362
 30
0.0
 10
19.05000000000011
 20
-1.73766358738927
 30
0.0
  0
SPLINE
  5
CD
330
1F
100
AcDbEntity
  8
외형선
  6
Continuous
370
    15
100
AcDbSpline
210
0.0
220
0.0
230
1.0
 70
    24
 71
     3
 72
     8
 73
     4
 74
     0
 42
0.000000001
 43
0.00000001
 40
0.0
 40
0.0
 40
0.0
 40
0.0
 40
1.0
 40
1.0
 40
1.0
 40
1.0
 10
19.05000000000002
 20
-1.425235875216288
 30
0.0
 10
19.05000000000002
 20
-1.527320202759328
 30
0.0
 10
19.05000000000002
 20
-1.632122967901841
 30
0.0
 10
19.05000000000002
 20
-1.737663587388704
 30
0.0
  0
SPLINE
  5
CE
330
1F
100
AcDbEntity
  8
0
  6
Continuous
 62
     1
370
    15
100
AcDbSpline
210
0.0
220
0.0
230
1.0
 70
     8
 71
     3
 72
    13
 73
     9
 74
     0
 42
0.000000001
 43
0.00000001
 40
0.0
 40
0.0
 40
0.0
 40
0.0
 40
0.1869616000667323
 40
0.3738000591531609
 40
0.5605487925401184
 40
0.7472417102232147
 40
0.9339130312983901
 40
0.9999999999999999
 40
0.9999999999999999
 40
0.9999999999999999
 40
0.9999999999999999
 10
41.27500000000002
 20
-1.56561683710568
 30
0.0
 10
40.95360912992609
 20
-1.495060560686257
 30
0.0
 10
40.31103907167859
 20
-1.353994479256736
 30
0.0
 10
39.34756985922577
 20
-1.004131688788951
 30
0.0
 10
38.38462306555564
 20
-0.5839955597901028
 30
0.0
 10
37.42200721209265
 20
-0.1188845523929584
 30
0.0
 10
36.6667786164609
 20
0.2612558057712291
 30
0.0
 10
36.23238624395316
 20
0.459001487513701
 30
0.0
 10
36.11880866297059
 20
0.5107046885906436
 30
0.0
  0
SPLINE
  5
CF
330
1F
100
AcDbEntity
  8
0
  6
Continuous
 62
     1
370
    15
100
AcDbSpline
210
0.0
220
0.0
230
1.0
 70
     8
 71
     3
 72
    10
 73
     6
 74
     0
 42
0.000000001
 43
0.00000001
 40
0.0
 40
0.0
 40
0.0
 40
0.0
 40
0.2459430181587582
 40
0.6229946630152228
 40
1.0
 40
1.0
 40
1.0
 40
1.0
 10
21.69931601894243
 20
-1.636574647159275
 30
0.0
 10
21.4821240944566
 20
-1.658078554631381
 30
0.0
 10
20.93195840641365
 20
-1.71254978820975
 30
0.0
 10
20.04883318625242
 20
-1.649467585828741
 30
0.0
 10
19.38293076403212
 20
-1.499976718594278
 30
0.0
 10
19.05000000000002
 20
-1.42523587521629
 30
0.0
  0
LINE
  5
D0
330
1F
100
AcDbEntity
  8
0
  6
Continuous
 62
     1
370
    15
100
AcDbLine
 10
41.27500000000002
 20
-1.883054537382056
 30
0.0
 11
41.27500000000002
 21
-1.56561683710568
 31
0.0
  0
SPLINE
  5
D1
330
1F
100
AcDbEntity
  8
0
  6
Continuous
 62
     1
370
    15
100
AcDbSpline
210
0.0
220
0.0
230
1.0
 70
     8
 71
     3
 72
    22
 73
    18
 74
     0
 42
0.000000001
 43
0.00000001
 40
0.0
 40
0.0
 40
0.0
 40
0.0
 40
0.0198707589064141
 40
0.0937405739858301
 40
0.1676337162319932
 40
0.2414809768357775
 40
0.3152910146898369
 40
0.3890766170006451
 40
0.4628507044385615
 40
0.5366262607452897
 40
0.6104162616106152
 40
0.684233603642527
 40
0.7580910342529946
 40
0.8330826116711447
 40
0.908048002745668
 40
0.9829799000921503
 40
1.0
 40
1.0
 40
1.0
 40
1.0
 10
33.83024713472067
 20
-1.562710914358922
 30
0.0
 10
33.74382544186097
 20
-1.596517909668766
 30
0.0
 10
33.33612993653827
 20
-1.756002867440463
 30
0.0
 10
32.60694550307042
 20
-1.915744624194986
 30
0.0
 10
31.64289461404042
 20
-2.011738305090154
 30
0.0
 10
30.67928038254802
 20
-1.941556423415197
 30
0.0
 10
29.71621836640099
 20
-1.722353814039756
 30
0.0
 10
28.75354180092159
 20
-1.368177530611322
 30
0.0
 10
27.79104443019074
 20
-0.9075022119455225
 30
0.0
 10
26.82852423772625
 20
-0.3759843559963909
 30
0.0
 10
25.86577844035016
 20
0.1848211040971232
 30
0.0
 10
24.90260387645061
 20
0.7315475237602687
 30
0.0
 10
23.93410328655208
 20
1.222742213743298
 30
0.0
 10
22.96045177142459
 20
1.622948283036523
 30
0.0
 10
21.98225127662592
 20
1.881545671245818
 30
0.0
 10
21.25625897781519
 20
1.997793863729774
 30
0.0
 10
20.85635510338888
 20
1.974618291220381
 30
0.0
 10
20.7823338303387
 20
1.970328546883013
 30
0.0
  0
SPLINE
  5
D2
330
1F
100
AcDbEntity
  8
0
  6
Continuous
 62
     1
370
    15
100
AcDbSpline
210
0.0
220
0.0
230
1.0
 70
     8
 71
     3
 72
    15
 73
    11
 74
     0
 42
0.000000001
 43
0.00000001
 40
0.0
 40
0.0
 40
0.0
 40
0.0
 40
0.1189055613712451
 40
0.2531916661997252
 40
0.3874070588462203
 40
0.5215760285775177
 40
0.6557231215046218
 40
0.789873005122638
 40
0.9240503314300978
 40
1.0
 40
1.0
 40
1.0
 40
1.0
 10
32.49603268288079
 20
-1.644349715292385
 30
0.0
 10
32.21159098792192
 20
-1.665770496859431
 30
0.0
 10
31.60591480379075
 20
-1.711382857742429
 30
0.0
 10
30.6792904157529
 20
-1.618974250725658
 30
0.0
 10
29.71622576527422
 20
-1.408628086471397
 30
0.0
 10
28.75354497069471
 20
-1.085329273037011
 30
0.0
 10
27.79104454013424
 20
-0.6777856519626677
 30
0.0
 10
26.82851805200139
 20
-0.2189695676069953
 30
0.0
 10
26.00515725303009
 20
0.1938238510968326
 30
0.0
 10
25.50258364493206
 20
0.4269501099705325
 30
0.0
 10
25.32093016918848
 20
0.5112127822023059
 30
0.0
  0
LINE
  5
D3
330
1F
100
AcDbEntity
  8
0
  6
Continuous
 62
     1
370
    15
100
AcDbLine
 10
41.27500000000002
 20
-1.984374999999997
 30
0.0
 11
41.27500000000002
 21
-1.883054537382056
 31
0.0
  0
SPLINE
  5
D4
330
1F
100
AcDbEntity
  8
0
  6
Continuous
 62
     1
370
    15
100
AcDbSpline
210
0.0
220
0.0
230
1.0
 70
     8
 71
     3
 72
     8
 73
     4
 74
     0
 42
0.000000001
 43
0.00000001
 40
0.0
 40
0.0
 40
0.0
 40
0.0
 40
1.0
 40
1.0
 40
1.0
 40
1.0
 10
40.04650677959579
 20
0.5557441175764253
 30
0.0
 10
39.97623544869928
 20
0.6389927033794786
 30
0.0
 10
39.91350664401422
 20
0.7191404837657103
 30
0.0
 10
39.86010005238472
 20
0.7954558122745665
 30
0.0
  0
LINE
  5
D5
330
1F
100
AcDbEntity
  8
0
  6
Continuous
 62
     1
370
    15
100
AcDbLine
 10
39.88523597617294
 20
0.8165473566545659
 30
0.0
 11
41.27500000000002
 21
0.0000000000000018
 31
0.0
  0
LINE
  5
D6
330
1F
100
AcDbEntity
  8
0
  6
Continuous
 62
     1
370
    15
100
AcDbLine
 10
41.27500000000002
 20
0.0000000000000018
 30
0.0
 11
41.27500000000002
 21
-0.530310221027575
 31
0.0
  0
SPLINE
  5
D7
330
1F
100
AcDbEntity
  8
0
  6
Continuous
 62
     1
370
    15
100
AcDbSpline
210
0.0
220
0.0
230
1.0
 70
     8
 71
     3
 72
    10
 73
     6
 74
     0
 42
0.000000001
 43
0.00000001
 40
0.0
 40
0.0
 40
0.0
 40
0.0
 40
0.5
 40
0.5
 40
1.0
 40
1.0
 40
1.0
 40
1.0
 10
41.27500000000002
 20
-0.5303102210275747
 30
0.0
 10
41.06233365854359
 20
-0.3631162242341984
 30
0.0
 10
40.85322341339832
 20
-0.1890610906366616
 30
0.0
 10
40.44228519211059
 20
0.1730995957543241
 30
0.0
 10
40.23854542687047
 20
0.363118821077936
 30
0.0
 10
40.04650677959567
 20
0.5557441175765024
 30
0.0
  0
SPLINE
  5
D8
330
1F
100
AcDbEntity
  8
외형선
  6
Continuous
370
    15
100
AcDbSpline
210
0.0
220
0.0
230
1.0
 70
    24
 71
     3
 72
    10
 73
     6
 74
     0
 42
0.000000001
 43
0.00000001
 40
0.0
 40
0.0
 40
0.0
 40
0.0
 40
0.5
 40
0.5
 40
1.0
 40
1.0
 40
1.0
 40
1.0
 10
19.05000000000001
 20
0.2889461572905142
 30
0.0
 10
19.05000000000001
 20
-0.0164399657173761
 30
0.0
 10
19.05000000000001
 20
-0.3412158552371578
 30
0.0
 10
19.05000000000001
 20
-0.9404074176691243
 30
0.0
 10
19.05000000000001
 20
-1.212243935856177
 30
0.0
 10
19.05000000000001
 20
-1.425235875216287
 30
0.0
  0
SPLINE
  5
D9
330
1F
100
AcDbEntity
  8
0
  6
Continuous
 62
     1
370
    15
100
AcDbSpline
210
0.0
220
0.0
230
1.0
 70
     8
 71
     3
 72
    13
 73
     9
 74
     0
 42
0.000000001
 43
0.00000001
 40
0.0
 40
0.0
 40
0.0
 40
0.0
 40
0.1820825146427854
 40
0.3637889313204379
 40
0.5744997229510892
 40
0.7851857966456655
 40
0.995886450545847
 40
1.0
 40
1.0
 40
1.0
 40
1.0
 10
40.04650677959562
 20
0.555744117576515
 30
0.0
 10
39.76916497669905
 20
0.672399067267445
 30
0.0
 10
39.21505423034776
 20
0.9054680116664089
 30
0.0
 10
38.3404008683811
 20
1.208949021055459
 30
0.0
 10
37.42199107761979
 20
1.450960804807904
 30
0.0
 10
36.45951281341029
 20
1.576177002575844
 30
0.0
 10
35.81160682745946
 20
1.61411166937244
 30
0.0
 10
35.48449526117771
 20
1.576399628070794
 30
0.0
 10
35.47823129173847
 20
1.575677467503714
 30
0.0
  0
SPLINE
  5
DA
330
1F
100
AcDbEntity
  8
0
  6
Continuous
 62
     1
370
    15
100
AcDbSpline
210
0.0
220
0.0
230
1.0
 70
     8
 71
     3
 72
    15
 73
    11
 74
     0
 42
0.000000001
 43
0.00000001
 40
0.0
 40
0.0
 40
0.0
 40
0.0
 40
0.0572894004144962
 40
0.1905065206003007
 40
0.3238002700777285
 40
0.4571681933075589
 40
0.5904648220884876
 40
0.7236840403213871
 40
0.8618506278661983
 40
1.0
 40
1.0
 40
1.0
 40
1.0
 10
26.280026439005
 20
-1.477304641037266
 30
0.0
 10
26.14197201967962
 20
-1.502477399808135
 30
0.0
 10
25.68289465303088
 20
-1.586185287351946
 30
0.0
 10
24.90256076078494
 20
-1.602007571895532
 30
0.0
 10
23.93882405508773
 20
-1.521893924011686
 30
0.0
 10
22.97477744727142
 20
-1.316312216059717
 30
0.0
 10
22.01101790593238
 20
-1.009649120423404
 30
0.0
 10
21.03579133776627
 20
-0.6193672516111687
 30
0.0
 10
20.0488172366095
 20
-0.1718991504028058
 30
0.0
 10
19.38292524978552
 20
0.1353374353416063
 30
0.0
 10
19.05000000002556
 20
0.2889461572789542
 30
0.0
  0
SPLINE
  5
DB
330
1F
100
AcDbEntity
  8
0
  6
Continuous
 62
     1
370
    15
100
AcDbSpline
210
0.0
220
0.0
230
1.0
 70
    24
 71
     3
 72
    10
 73
     6
 74
     0
 42
0.000000001
 43
0.00000001
 40
0.0
 40
0.0
 40
0.0
 40
0.0
 40
0.5
 40
0.5
 40
1.0
 40
1.0
 40
1.0
 40
1.0
 10
41.27500000000002
 20
-1.565616837105679
 30
0.0
 10
41.27500000000001
 20
-1.445600100054426
 30
0.0
 10
41.27500000000003
 20
-1.2939543508769
 30
0.0
 10
41.27500000000001
 20
-0.9413925783146304
 30
0.0
 10
41.27500000000002
 20
-0.7407819573049423
 30
0.0
 10
41.27500000000002
 20
-0.5303102210276388
 30
0.0
  0
SPLINE
  5
DC
330
1F
100
AcDbEntity
  8
0
  6
Continuous
 62
     1
370
    15
100
AcDbSpline
210
0.0
220
0.0
230
1.0
 70
     8
 71
     3
 72
    21
 73
    17
 74
     0
 42
0.000000001
 43
0.00000001
 40
0.0
 40
0.0
 40
0.0
 40
0.0
 40
0.0498798930790706
 40
0.1275182850184911
 40
0.2051764999529877
 40
0.282868878099589
 40
0.3606095703084016
 40
0.4383762734241589
 40
0.5160918375512391
 40
0.5937659057556928
 40
0.6714127302643785
 40
0.7490467146377794
 40
0.8266823339654843
 40
0.9043340542218893
 40
0.9820162517290304
 40
1.0
 40
1.0
 40
1.0
 40
1.0
 10
37.07790556918733
 20
-1.477872768441514
 30
0.0
 10
36.87178153192554
 20
-1.511179958289843
 30
0.0
 10
36.34482403241677
 20
-1.59633001507748
 30
0.0
 10
35.49694693986757
 20
-1.595616624334544
 30
0.0
 10
34.53410276712799
 20
-1.487997490744613
 30
0.0
 10
33.57078171739431
 20
-1.259525109113488
 30
0.0
 10
32.6069255817735
 20
-0.9340105435938374
 30
0.0
 10
31.64289893398785
 20
-0.5353816034834414
 30
0.0
 10
30.67927754023165
 20
-0.0949166075260149
 30
0.0
 10
29.71620941959708
 20
0.3528278341557964
 30
0.0
 10
28.75352624434302
 20
0.7731819509345021
 30
0.0
 10
27.79102190373827
 20
1.132489103075152
 30
0.0
 10
26.82849666345887
 20
1.406167711804725
 30
0.0
 10
25.86573874240696
 20
1.56014964989471
 30
0.0
 10
25.14947671072294
 20
1.612041497725109
 30
0.0
 10
24.75407978639545
 20
1.57318587607348
 30
0.0
 10
24.67975115569635
 20
1.565881607945346
 30
0.0
  0
SPLINE
  5
DD
330
1F
100
AcDbEntity
  8
0
  6
Continuous
 62
     1
370
    15
100
AcDbSpline
210
0.0
220
0.0
230
1.0
 70
    24
 71
     3
 72
     8
 73
     4
 74
     0
 42
0.000000001
 43
0.00000001
 40
0.0
 40
0.0
 40
0.0
 40
0.0
 40
1.0
 40
1.0
 40
1.0
 40
1.0
 10
40.06737627747492
 20
0.9693812162995835
 30
0.0
 10
40.00191450026558
 20
0.9144522631870255
 30
0.0
 10
39.93241308150836
 20
0.8561336483415036
 30
0.0
 10
39.86010005238473
 20
0.79545581227455
 30
0.0
  0
SPLINE
  5
DE
330
1F
100
AcDbEntity
  8
0
  6
Continuous
 62
     1
370
    15
100
AcDbSpline
210
0.0
220
0.0
230
1.0
 70
     8
 71
     3
 72
    17
 73
    13
 74
     0
 42
0.000000001
 43
0.00000001
 40
0.0
 40
0.0
 40
0.0
 40
0.0
 40
0.0005163282802535
 40
0.0005163282802535
 40
0.0005163282802535
 40
0.0010326767457958
 40
0.0010326767457958
 40
0.0010326767457958
 40
0.0014638374883266
 40
0.0014638374883266
 40
0.0014638374883266
 40
0.0016321893726742
 40
0.0016321893726742
 40
0.0016321893726742
 40
0.0016321893726742
 10
41.27500000000002
 20
1.389062500000002
 30
0.0
 10
41.14592116811917
 20
1.35400178425776
 30
0.0
 10
41.01725190197671
 20
1.316249471550256
 30
0.0
 10
40.88912807327691
 20
1.275656025300192
 30
0.0
 10
40.76100136219785
 20
1.235061665826497
 30
0.0
 10
40.63338056367951
 20
1.191616621055185
 30
0.0
 10
40.50645173715162
 20
1.145048959270264
 30
0.0
 10
40.40046046846177
 20
1.106162870999215
 30
0.0
 10
40.2949212699823
 20
1.065092287991593
 30
0.0
 10
40.18999202923055
 20
1.021573906411099
 30
0.0
 10
40.14902026607574
 20
1.004581266321246
 30
0.0
 10
40.10814281676387
 20
0.9871951238823986
 30
0.0
 10
40.06737627749087
 20
0.9693812163065546
 30
0.0
  0
SPLINE
  5
DF
330
1F
100
AcDbEntity
  8
외형선
  6
Continuous
370
    15
100
AcDbSpline
210
0.0
220
0.0
230
1.0
 70
    24
 71
     3
 72
    14
 73
    10
 74
     0
 42
0.000000001
 43
0.00000001
 40
0.0
 40
0.0
 40
0.0
 40
0.0
 40
0.25
 40
0.25
 40
0.5
 40
0.5
 40
0.75
 40
0.75
 40
1.0
 40
1.0
 40
1.0
 40
1.0
 10
19.05000000000002
 20
1.365859688307406
 30
0.0
 10
19.05000000000002
 20
1.360322754182599
 30
0.0
 10
19.05000000000002
 20
1.333071742396287
 30
0.0
 10
19.05000000000002
 20
1.231305480144589
 30
0.0
 10
19.05000000000002
 20
1.1567477942943
 30
0.0
 10
19.05000000000002
 20
0.9653492112200321
 30
0.0
 10
19.05000000000002
 20
0.8486102991631497
 30
0.0
 10
19.05000000000002
 20
0.5861199360375743
 30
0.0
 10
19.05000000000002
 20
0.440551795255925
 30
0.0
 10
19.05000000000002
 20
0.2889461572905114
 30
0.0
  0
LINE
  5
E0
330
1F
100
AcDbEntity
  8
0
  6
Continuous
 62
     1
370
    15
100
AcDbLine
 10
41.27500000000002
 20
0.0000000000000018
 30
0.0
 11
41.27500000000002
 21
1.389062500000001
 31
0.0
  0
LINE
  5
E1
330
1F
100
AcDbEntity
  8
중심선
 48
0.8
100
AcDbLine
 10
-44.27500000000001
 20
-0.0000000000000054
 30
0.0
 11
44.27500000000001
 21
0.0000000000000054
 31
0.0
  0
LINE
  5
E2
330
1F
100
AcDbEntity
  8
참조1
100
AcDbLine
 10
-8.644211678730516
 20
0.0010749287238892
 30
0.0
 11
-8.64421167873051
 21
-39.99892507127611
 31
0.0
  0
LINE
  5
E3
330
1F
100
AcDbEntity
  8
참조1
100
AcDbLine
 10
-8.64421167873051
 20
-39.99892507127611
 30
0.0
 11
-29.45992727542973
 21
-39.9989250712761
 31
0.0
  0
CIRCLE
  5
E4
330
1F
100
AcDbEntity
  8
해칭선
100
AcDbCircle
 10
0.0
 20
0.0
 30
0.0
 40
3.0
  0
INSERT
  5
E5
330
1F
100
AcDbEntity
  8
0
  6
Continuous
 62
     7
100
AcDbBlockReference
 66
     1
  2
블럭10
 10
-13.9402729321252
 20
-52.04717430164393
 30
0.0
  0
ATTRIB
  5
E6
330
E5
100
AcDbEntity
  8
FORMAT
 62
     2
100
AcDbText
 10
-23.12156822086648
 20
-49.97180738881175
 30
0.0
 40
4.233333333333333
  1
E2005010 [ 2 FLUTE ]
 41
0.75
  7
SLDTEXTSTYLE0
 11
-23.12156822086648
 21
-52.08847405547841
 31
0.0
100
AcDbAttribute
  2
AUTOATTR0
 70
     0
 74
     1
  0
SEQEND
  5
E7
330
E5
100
AcDbEntity
  8
0
  6
Continuous
 62
     7
  0
HATCH
  5
E8
330
1F
100
AcDbEntity
  8
중심선
100
AcDbHatch
 10
0.0
 20
0.0
 30
0.0
210
0.0
220
0.0
230
1.0
  2
SOLID
 70
     1
 71
     0
 91
        1
 92
        0
 93
        4
 72
     1
 10
-8.22536362774435
 20
-35.8
 11
-11.67163887158163
 21
-35.8
 72
     1
 10
-11.67163887158163
 20
-35.8
 11
-13.79986873078565
 21
-38.3363255805726
 72
     1
 10
-13.79986873078565
 20
-38.3363255805726
 11
-10.35356040183522
 21
-38.33628615127011
 72
     1
 10
-10.35356040183522
 20
-38.33628615127011
 11
-8.22536362774435
 21
-35.8
 97
        0
 75
     0
 76
     1
 98
        1
 10
8.644211678730521
 20
-0.0010749287238947
  0
HATCH
  5
E9
330
1F
100
AcDbEntity
  8
중심선
100
AcDbHatch
 10
0.0
 20
0.0
 30
0.0
210
0.0
220
0.0
230
1.0
  2
SOLID
 70
     1
 71
     0
 91
        1
 92
        0
 93
        4
 72
     1
 10
-3.212599636708399
 20
-35.8
 11
-6.658874880545682
 21
-35.8
 72
     1
 10
-6.658874880545682
 20
-35.8
 11
-11.19001288890307
 21
-41.20000000000002
 72
     1
 10
-11.19001288890307
 20
-41.20000000000002
 11
-7.743737645065789
 21
-41.20000000000002
 72
     1
 10
-7.743737645065789
 20
-41.20000000000002
 11
-3.212599636708399
 21
-35.8
 97
        0
 75
     0
 76
     1
 98
        1
 10
8.644211678730521
 20
-0.0010749287238947
  0
HATCH
  5
EA
330
1F
100
AcDbEntity
  8
중심선
100
AcDbHatch
 10
0.0
 20
0.0
 30
0.0
210
0.0
220
0.0
230
1.0
  2
SOLID
 70
     1
 71
     0
 91
        1
 92
        0
 93
        4
 72
     1
 10
1.800164354327497
 20
-35.8
 11
-1.646110889509592
 21
-35.8
 72
     1
 10
-1.646110889509592
 20
-35.8
 11
-8.694547791398868
 21
-44.20000000000002
 72
     1
 10
-8.694547791398868
 20
-44.20000000000002
 11
-5.248272547561585
 21
-44.20000000000002
 72
     1
 10
-5.248272547561585
 20
-44.20000000000002
 11
1.800164354327497
 21
-35.8
 97
        0
 75
     0
 76
     1
 98
        1
 10
8.644211678730521
 20
-0.0010749287238947
  0
HATCH
  5
EB
330
1F
100
AcDbEntity
  8
중심선
100
AcDbHatch
 10
0.0
 20
0.0
 30
0.0
210
0.0
220
0.0
230
1.0
  2
SOLID
 70
     1
 71
     0
 91
        1
 92
        0
 93
        6
 72
     3
 10
6.600054785339696
 20
-40.00000000005127
 11
3.960054785062285
 21
1.540882976769353E-10
 40
0.3939339440162626
 50
17.09539180608436
 51
320.0019657685076
 73
     0
 72
     1
 10
8.283054441040264
 20
-38.5878940046383
 11
10.58835631474136
 21
-36.65356729459035
 72
     3
 10
6.600054785286849
 20
-40.00000000000015
 11
6.600054785286829
 21
-1.278976924368180E-13
 40
0.636358354079598
 50
39.99873849337411
 51
368.4976242363725
 73
     1
 72
     1
 10
13.02538727718746
 20
-39.03999999993002
 11
5.280122092122772
 21
-39.03999999993002
 72
     1
 10
5.280122092122772
 20
-39.03999999993002
 11
5.280097047676838
 21
-40.95999999992991
 72
     1
 10
5.280097047676838
 20
-40.95999999992991
 11
9.721476817148876
 21
-40.95999999992988
 97
        0
 75
     0
 76
     1
 98
        1
 10
8.644211678730521
 20
-0.0010749287238947
  0
DIMENSION
  5
EC
330
1F
100
AcDbEntity
  8
치수문자_일반주서
100
AcDbDimension
  2
_D
 10
-54.27500000000001
 20
-2.381250000000143
 30
0.0
 11
-54.27500000000001
 21
0.0000000000000029
 31
0.0
 70
   160
  1
%%c<>
 71
     2
 42
4.762499999999996
 52
-270.0
  3
SLDDIMSTYLE0
100
AcDbAlignedDimension
 13
-16.5688423357461
 23
2.381249999999995
 33
0.0
 14
-16.5688423357461
 24
-2.381250000000001
 34
0.0
 50
90.0000000000002
100
AcDbRotatedDimension
1001
ACAD
1000
DSTYLE
1002
{
1070
   171
1070
     6
1070
   273
1070
     7
1002
}
  0
DIMENSION
  5
101
330
1F
100
AcDbEntity
  8
치수문자_일반주서
100
AcDbDimension
  2
_D_1
 10
54.68145994685144
 20
1.984375000000053
 30
0.0
 11
54.68145994685135
 21
27.46065168786482
 31
0.0
 70
   160
  1
%%c<>
 71
     2
 42
3.968750000000002
 52
-270.0
  3
SLDDIMSTYLE0
100
AcDbAlignedDimension
 13
41.27500000000002
 23
-1.984374999999997
 33
0.0
 14
41.27500000000001
 24
1.984375000000005
 34
0.0
 50
90.0000000000002
100
AcDbRotatedDimension
1001
ACAD
1000
DSTYLE
1002
{
1070
   171
1070
     6
1070
   273
1070
     7
1002
}
  0
DIMENSION
  5
115
330
1F
100
AcDbEntity
  8
치수문자_일반주서
100
AcDbDimension
  2
_D_2
 10
19.05000000000002
 20
12.57456754635238
 30
0.0
 11
-0.6789999999999807
 21
12.57456754635238
 31
0.0
 70
   160
  1
<>
 71
     2
 42
22.22499999999999
  3
SLDDIMSTYLE0
100
AcDbAlignedDimension
 13
41.27500000000001
 23
1.984375000000005
 33
0.0
 14
19.05000000000002
 24
1.365859688307406
 34
0.0
100
AcDbRotatedDimension
1001
ACAD
1000
DSTYLE
1002
{
1070
   171
1070
     6
1070
   273
1070
     7
1002
}
  0
DIMENSION
  5
12A
330
1F
100
AcDbEntity
  8
치수문자_일반주서
100
AcDbDimension
  2
_D_3
 10
41.27500000000001
 20
26.08352496111697
 30
0.0
 11
-1.485637265507215
 21
26.08352496111697
 31
0.0
 70
   160
  1
<>
 71
     2
 42
82.55000000000003
  3
SLDDIMSTYLE0
100
AcDbAlignedDimension
 13
-41.27500000000001
 23
1.984375
 33
0.0
 14
41.27500000000001
 24
1.984375000000005
 34
0.0
100
AcDbRotatedDimension
1001
ACAD
1000
DSTYLE
1002
{
1070
   171
1070
     6
1070
   273
1070
     7
1002
}
  0
LINE
  5
13D
330
1F
100
AcDbEntity
  8
참조1
100
AcDbLine
 10
68.51241335422453
 20
7.441074928723896
 30
0.0
 11
68.51241335422453
 21
-7.438925071276109
 31
0.0
  0
LINE
  5
13E
330
1F
100
AcDbEntity
  8
참조1
100
AcDbLine
 10
81.21241335422454
 20
5.441074928723896
 30
0.0
 11
68.51241335422453
 21
5.441074928723896
 31
0.0
  0
SOLID
  5
13F
330
1F
100
AcDbEntity
  8
참조1
100
AcDbTrace
 10
68.51241335422453
 20
5.441074928723896
 30
0.0
 11
74.86241335422453
 21
4.425074928723896
 31
0.0
 12
74.86241335422453
 22
6.457074928723896
 32
0.0
 13
74.86241335422453
 23
6.457074928723896
 33
0.0
  0
LINE
  5
140
330
1F
100
AcDbEntity
  8
참조1
100
AcDbLine
 10
81.21241335422454
 20
-5.438925071276109
 30
0.0
 11
68.51241335422453
 21
-5.438925071276109
 31
0.0
  0
SOLID
  5
141
330
1F
100
AcDbEntity
  8
참조1
100
AcDbTrace
 10
68.51241335422453
 20
-5.438925071276109
 30
0.0
 11
74.86241335422453
 21
-6.454925071276109
 31
0.0
 12
74.86241335422453
 22
-4.422925071276109
 32
0.0
 13
74.86241335422453
 23
-4.422925071276109
 33
0.0
  0
MTEXT
  5
142
330
1F
100
AcDbEntity
  8
참조1
100
AcDbMText
 10
77.89676348685053
 20
11.01136670591222
 30
0.0
 40
3.5
 41
0.0
 71
     1
 72
     1
  1
A
  7
SLDTEXTSTYLE0
 73
     1
 44
1.0
  0
MTEXT
  5
143
330
1F
100
AcDbEntity
  8
참조1
100
AcDbMText
 10
77.89676348685053
 20
0.1313667059122192
 30
0.0
 40
3.5
 41
0.0
 71
     1
 72
     1
  1
A
  7
SLDTEXTSTYLE0
 73
     1
 44
1.0
  0
INSERT
  5
14A
330
1F
100
AcDbEntity
  8
해칭선
100
AcDbBlockReference
  2
SW_DOWELSYMBOL_0
 10
0.0
 20
0.0
 30
0.0
  0
LINE
  5
436
330
1F
100
AcDbEntity
  8
외형선
  6
Continuous
370
    15
100
AcDbLine
 10
-16.5688423357461
 20
2.381249999999995
 30
0.0
 11
-18.05000000000002
 21
1.984375
 31
0.0
  0
LINE
  5
437
330
1F
100
AcDbEntity
  8
외형선
  6
Continuous
370
    15
100
AcDbLine
 10
-18.05000000000002
 20
-1.984375
 30
0.0
 11
-16.5688423357461
 21
-2.381250000000001
 31
0.0
  0
LINE
  5
438
330
1F
100
AcDbEntity
  8
외형선
  6
Continuous
370
    15
100
AcDbLine
 10
-18.16005567216659
 20
-1.984375
 30
0.0
 11
-18.05000000000002
 21
-1.984375
 31
0.0
  0
LINE
  5
439
330
1F
100
AcDbEntity
  8
외형선
  6
Continuous
370
    15
100
AcDbLine
 10
-18.05000000000002
 20
1.984375
 30
0.0
 11
-18.16005567216659
 21
1.984375
 31
0.0
  0
SPLINE
  5
43A
330
1F
100
AcDbEntity
  8
외형선
  6
Continuous
370
    15
100
AcDbSpline
210
0.0
220
0.0
230
1.0
 70
     8
 71
     3
 72
     9
 73
     5
 74
     0
 42
0.000000001
 43
0.00000001
 40
0.0
 40
0.0
 40
0.0
 40
0.0
 40
0.6008307179456409
 40
1.0
 40
1.0
 40
1.0
 40
1.0
 10
-18.92457481897907
 20
-1.355760141649469
 30
0.0
 10
-18.84545199655049
 20
-1.349302868871433
 30
0.0
 10
-18.71376295325539
 20
-1.338555627451896
 30
0.0
 10
-18.58263208528923
 20
-1.331145587093203
 30
0.0
 10
-18.53028867086798
 20
-1.328187726603232
 30
0.0
  0
ARC
  5
43B
330
1F
100
AcDbEntity
  8
외형선
  6
Continuous
370
    15
100
AcDbCircle
 10
-18.51005565374292
 20
-1.677178659650792
 30
0.0
 40
0.34999998157728
100
AcDbArc
 50
0.0024345954301733
 51
93.11720628670989
  0
LINE
  5
43C
330
1F
100
AcDbEntity
  8
0
  6
Continuous
 62
     1
370
    15
100
AcDbLine
 10
-35.29551222135584
 20
-0.4173780532066468
 30
0.0
 11
-35.01427454933006
 21
-0.5705130583982831
 31
0.0
  0
LINE
  5
43D
330
1F
100
AcDbEntity
  8
0
  6
Continuous
 62
     1
370
    15
100
AcDbLine
 10
-24.48138049575241
 20
-0.4260489019724995
 30
0.0
 11
-24.21643288279015
 21
-0.5705502975393695
 31
0.0
  0
SPLINE
  5
43E
330
1F
100
AcDbEntity
  8
0
  6
Continuous
 62
     1
370
    15
100
AcDbSpline
210
0.0
220
0.0
230
1.0
 70
     8
 71
     3
 72
     9
 73
     5
 74
     0
 42
0.000000001
 43
0.00000001
 40
0.0
 40
0.0
 40
0.0
 40
0.0
 40
0.4692062355650397
 40
1.0
 40
1.0
 40
1.0
 40
1.0
 10
-36.1330697908741
 20
-0.5084989259805748
 30
0.0
 10
-36.04726679633388
 20
-0.5495034641247183
 30
0.0
 10
-35.86439839426144
 20
-0.6368947540012537
 30
0.0
 10
-35.68153233872247
 20
-0.7328264315450563
 30
0.0
 10
-35.58446817671558
 20
-0.7837463677970926
 30
0.0
  0
SPLINE
  5
43F
330
1F
100
AcDbEntity
  8
0
  6
Continuous
 62
     1
370
    15
100
AcDbSpline
210
0.0
220
0.0
230
1.0
 70
     8
 71
     3
 72
     9
 73
     5
 74
     0
 42
0.000000001
 43
0.00000001
 40
0.0
 40
0.0
 40
0.0
 40
0.0
 40
0.4396777845298847
 40
1.0
 40
1.0
 40
1.0
 40
1.0
 10
-25.33532461700569
 20
-0.508485288730149
 30
0.0
 10
-25.25492328893151
 20
-0.5468489179029912
 30
0.0
 10
-25.07205908495499
 20
-0.6341028809701963
 30
0.0
 10
-24.88924980509874
 20
-0.7299663403136019
 30
0.0
 10
-24.78681770440117
 20
-0.7836807662355336
 30
0.0
  0
LINE
  5
440
330
1F
100
AcDbEntity
  8
0
  6
Continuous
 62
     1
370
    15
100
AcDbLine
 10
-19.82078680622315
 20
1.984375
 30
0.0
 11
-20.78233383033868
 21
1.984375
 31
0.0
  0
LINE
  5
441
330
1F
100
AcDbEntity
  8
0
  6
Continuous
 62
     1
370
    15
100
AcDbLine
 10
-31.5800581287011
 20
-1.984374999999992
 30
0.0
 11
-30.61803300621259
 21
-1.984374999999992
 31
0.0
  0
LINE
  5
442
330
1F
100
AcDbEntity
  8
0
  6
Continuous
 62
     1
370
    15
100
AcDbLine
 10
-30.61803300621262
 20
1.984375000000008
 30
0.0
 11
-31.5800581287011
 21
1.984375000000008
 31
0.0
  0
LINE
  5
443
330
1F
100
AcDbEntity
  8
0
  6
Continuous
 62
     1
370
    15
100
AcDbLine
 10
-20.78233383033868
 20
-1.984375
 30
0.0
 11
-19.82078680622315
 21
-1.984375
 31
0.0
  0
SPLINE
  5
444
330
1F
100
AcDbEntity
  8
0
  6
Continuous
 62
     1
370
    15
100
AcDbSpline
210
0.0
220
0.0
230
1.0
 70
     8
 71
     3
 72
    15
 73
    11
 74
     0
 42
0.000000001
 43
0.00000001
 40
0.0
 40
0.0
 40
0.0
 40
0.0
 40
0.2197309362456911
 40
0.3861493946715175
 40
0.5187548031818849
 40
0.5809490572131575
 40
0.6307215300244123
 40
0.7089864394000934
 40
0.8313781709551427
 40
0.9999999999999999
 40
0.9999999999999999
 40
0.9999999999999999
 40
0.9999999999999999
 10
-21.6966029735261
 20
1.651254718657591
 30
0.0
 10
-21.91529887225651
 20
1.631165709924247
 30
0.0
 10
-22.2996293190966
 20
1.595861811918468
 30
0.0
 10
-22.81553507725787
 20
1.567583545468616
 30
0.0
 10
-23.1746574712154
 20
1.555416590911336
 30
0.0
 10
-23.41802085506522
 20
1.551143948678089
 30
0.0
 10
-23.6072783068826
 20
1.54946297130261
 30
0.0
 10
-23.85609424896868
 20
1.549853934347376
 30
0.0
 10
-24.22279934808032
 20
1.555819700567497
 30
0.0
 10
-24.51293725530824
 20
1.569152192099168
 30
0.0
 10
-24.6810517049963
 20
1.576877430411642
 30
0.0
  0
SPLINE
  5
445
330
1F
100
AcDbEntity
  8
0
  6
Continuous
 62
     1
370
    15
100
AcDbSpline
210
0.0
220
0.0
230
1.0
 70
     8
 71
     3
 72
    10
 73
     6
 74
     0
 42
0.000000001
 43
0.00000001
 40
0.0
 40
0.0
 40
0.0
 40
0.0
 40
0.470795810423203
 40
0.909385802406802
 40
1.0
 40
1.0
 40
1.0
 40
1.0
 10
-35.47831098278031
 20
-1.576850027571758
 30
0.0
 10
-35.21973665311109
 20
-1.566493812318334
 30
0.0
 10
-34.7202763370631
 20
-1.54648982139566
 30
0.0
 10
-34.17060828715379
 20
-1.546582167616016
 30
0.0
 10
-33.88000615019687
 20
-1.560352976171628
 30
0.0
 10
-33.83024713472069
 20
-1.562710914358916
 30
0.0
  0
SPLINE
  5
446
330
1F
100
AcDbEntity
  8
0
  6
Continuous
 62
     1
370
    15
100
AcDbSpline
210
0.0
220
0.0
230
1.0
 70
     8
 71
     3
 72
    11
 73
     7
 74
     0
 42
0.000000001
 43
0.00000001
 40
0.0
 40
0.0
 40
0.0
 40
0.0
 40
0.2599014149170292
 40
0.4977063135432124
 40
0.7399588133441111
 40
1.0
 40
1.0
 40
1.0
 40
1.0
 10
-32.49467231057216
 20
1.651225106329286
 30
0.0
 10
-32.75323430918943
 20
1.627921617864545
 30
0.0
 10
-33.24837566575054
 20
1.583295876445689
 30
0.0
 10
-33.98381445601422
 20
1.551969387373071
 30
0.0
 10
-34.72026230380718
 20
1.545024446667654
 30
0.0
 10
-35.21973186620622
 20
1.565993956157208
 30
0.0
 10
-35.47831098278031
 20
1.576850027571773
 30
0.0
  0
SPLINE
  5
447
330
1F
100
AcDbEntity
  8
0
  6
Continuous
 62
     1
370
    15
100
AcDbSpline
210
0.0
220
0.0
230
1.0
 70
     8
 71
     3
 72
    12
 73
     8
 74
     0
 42
0.000000001
 43
0.00000001
 40
0.0
 40
0.0
 40
0.0
 40
0.0
 40
0.3093349043441566
 40
0.5448903451832552
 40
0.7489825299164147
 40
0.9449935987453639
 40
1.0
 40
1.0
 40
1.0
 40
1.0
 10
-24.6810517049963
 20
-1.576877430411642
 30
0.0
 10
-24.5134117575062
 20
-1.56918265442929
 30
0.0
 10
-24.21811566394684
 20
-1.555628383371455
 30
0.0
 10
-23.81348229238774
 20
-1.549130331724796
 30
0.0
 10
-23.46946247943243
 20
-1.549961016988064
 30
0.0
 10
-23.22299235489525
 20
-1.554241708358112
 30
0.0
 10
-23.08722639658007
 20
-1.558922528756895
 30
0.0
 10
-23.05747549208201
 20
-1.559948254516022
 30
0.0
  0
SPLINE
  5
448
330
1F
100
AcDbEntity
  8
0
  6
Continuous
 62
     1
370
    15
100
AcDbSpline
210
0.0
220
0.0
230
1.0
 70
     8
 71
     3
 72
    12
 73
     8
 74
     0
 42
0.000000001
 43
0.00000001
 40
0.0
 40
0.0
 40
0.0
 40
0.0
 40
0.3203797344890896
 40
0.5427102349748726
 40
0.6981907774985371
 40
0.8836152293111041
 40
0.9999999999999999
 40
0.9999999999999999
 40
0.9999999999999999
 40
0.9999999999999999
 10
-26.27231760092719
 20
1.492567241625537
 30
0.0
 10
-26.42882564567547
 20
1.469180523712659
 30
0.0
 10
-26.69394390565603
 20
1.429564375100668
 30
0.0
 10
-27.03461334737714
 20
1.389827497330004
 30
0.0
 10
-27.31215240678157
 20
1.362121961899995
 30
0.0
 10
-27.54104091206896
 20
1.342588571685198
 30
0.0
 10
-27.6912930134341
 20
1.333607839926451
 30
0.0
 10
-27.74923377554192
 20
1.33014465746404
 30
0.0
  0
SPLINE
  5
449
330
1F
100
AcDbEntity
  8
0
  6
Continuous
 62
     1
370
    15
100
AcDbSpline
210
0.0
220
0.0
230
1.0
 70
     8
 71
     3
 72
    18
 73
    14
 74
     0
 42
0.000000001
 43
0.00000001
 40
0.0
 40
0.0
 40
0.0
 40
0.0
 40
0.1172784164461732
 40
0.2052505003936552
 40
0.2645454786741082
 40
0.3560341370249526
 40
0.4715069228685971
 40
0.5550883680509525
 40
0.6395287315497332
 40
0.7114719043714218
 40
0.7728640857957394
 40
0.8649887688636217
 40
0.9999999999999999
 40
0.9999999999999999
 40
0.9999999999999999
 40
0.9999999999999999
 10
-40.55011224571482
 20
-1.358340310929939
 30
0.0
 10
-40.41352453711134
 20
-1.347549463975099
 30
0.0
 10
-40.17448059033914
 20
-1.328664260676255
 30
0.0
 10
-39.86749434478137
 20
-1.314774509282145
 30
0.0
 10
-39.59064803771668
 20
-1.307040085943789
 30
0.0
 10
-39.28188752215951
 20
-1.304433640072922
 30
0.0
 10
-38.94557380573892
 20
-1.3106291097506
 30
0.0
 10
-38.6154304932376
 20
-1.325075304723853
 30
0.0
 10
-38.33523914695665
 20
-1.343189740290711
 30
0.0
 10
-38.08232346959094
 20
-1.364579300766166
 30
0.0
 10
-37.8234096154271
 20
-1.390948515605941
 30
0.0
 10
-37.49041217770785
 20
-1.429740815564123
 30
0.0
 10
-37.22701249628134
 20
-1.469110020837085
 30
0.0
 10
-37.070445819475
 20
-1.492511361357735
 30
0.0
  0
SPLINE
  5
44A
330
1F
100
AcDbEntity
  8
0
  6
Continuous
 62
     1
370
    15
100
AcDbSpline
210
0.0
220
0.0
230
1.0
 70
     8
 71
     3
 72
    12
 73
     8
 74
     0
 42
0.000000001
 43
0.00000001
 40
0.0
 40
0.0
 40
0.0
 40
0.0
 40
0.3402769853506285
 40
0.5505753584313678
 40
0.7040270521062482
 40
0.9045503416657706
 40
1.0
 40
1.0
 40
1.0
 40
1.0
 10
-37.070445819475
 20
1.492511361357743
 30
0.0
 10
-37.24206086000707
 20
1.466933631658663
 30
0.0
 10
-37.51973762488081
 20
1.425548324091004
 30
0.0
 10
-37.86552832953198
 20
1.386373869474177
 30
0.0
 10
-38.13812339672123
 20
1.359447121029945
 30
0.0
 10
-38.36473001692512
 20
1.340765589684985
 30
0.0
 10
-38.51279255456695
 20
1.33254304701692
 30
0.0
 10
-38.56054191386003
 20
1.32989132193903
 30
0.0
  0
SPLINE
  5
44B
330
1F
100
AcDbEntity
  8
0
  6
Continuous
 62
     1
370
    15
100
AcDbSpline
210
0.0
220
0.0
230
1.0
 70
     8
 71
     3
 72
    11
 73
     7
 74
     0
 42
0.000000001
 43
0.00000001
 40
0.0
 40
0.0
 40
0.0
 40
0.0
 40
0.3438754460362577
 40
0.5868154064412848
 40
0.7094743037506954
 40
1.0
 40
1.0
 40
1.0
 40
1.0
 10
-29.73899048916105
 20
-1.357204783876632
 30
0.0
 10
-29.34242727540656
 20
-1.33229560271372
 30
0.0
 10
-28.66570142556359
 20
-1.289788667610558
 30
0.0
 10
-27.8365316224377
 20
-1.320705604432809
 30
0.0
 10
-27.08893675608429
 20
-1.377501652698313
 30
0.0
 10
-26.60945754624087
 20
-1.4450625925937
 30
0.0
 10
-26.27231760092719
 20
-1.492567241625529
 30
0.0
  0
LINE
  5
44C
330
1F
100
AcDbEntity
  8
외형선
  6
Continuous
370
    15
100
AcDbLine
 10
-16.5688423357461
 20
-2.381250000000001
 30
0.0
 11
-16.5688423357461
 21
2.381249999999995
 31
0.0
  0
LINE
  5
44D
330
1F
100
AcDbEntity
  8
외형선
  6
Continuous
370
    15
100
AcDbLine
 10
-18.05000000000002
 20
-1.984375
 30
0.0
 11
-18.05000000000002
 21
1.984375
 31
0.0
  0
SPLINE
  5
44E
330
1F
100
AcDbEntity
  8
외형선
  6
Continuous
370
    15
100
AcDbSpline
210
0.0
220
0.0
230
1.0
 70
     8
 71
     3
 72
     8
 73
     4
 74
     0
 42
0.000000001
 43
0.00000001
 40
0.0
 40
0.0
 40
0.0
 40
0.0
 40
1.0
 40
1.0
 40
1.0
 40
1.0
 10
-19.05000000000002
 20
1.737663587389243
 30
0.0
 10
-18.75130504732076
 20
1.654700020007873
 30
0.0
 10
-18.45877056494295
 20
1.552840454492071
 30
0.0
 10
-18.16011408850992
 20
1.434102674220981
 30
0.0
  0
LINE
  5
44F
330
1F
100
AcDbEntity
  8
외형선
  6
Continuous
370
    15
100
AcDbLine
 10
-19.05000000000002
 20
1.737663587389236
 30
0.0
 11
-19.05000000000002
 21
1.934732412954205
 31
0.0
  0
SPLINE
  5
450
330
1F
100
AcDbEntity
  8
외형선
  6
Continuous
370
    15
100
AcDbSpline
210
0.0
220
0.0
230
1.0
 70
     8
 71
     3
 72
     8
 73
     4
 74
     0
 42
0.000000001
 43
0.00000001
 40
0.0
 40
0.0
 40
0.0
 40
0.0
 40
1.0
 40
1.0
 40
1.0
 40
1.0
 10
-19.05000000000002
 20
1.934732412954205
 30
0.0
 10
-18.75128557270492
 20
1.896542254219753
 30
0.0
 10
-18.45873184126265
 20
1.836936933768123
 30
0.0
 10
-18.16005567216659
 20
1.757098779152678
 30
0.0
  0
LINE
  5
451
330
1F
100
AcDbEntity
  8
외형선
  6
Continuous
370
    15
100
AcDbLine
 10
-18.16005567216659
 20
1.984375
 30
0.0
 11
-18.16005567216659
 21
1.756783635917245
 31
0.0
  0
SPLINE
  5
452
330
1F
100
AcDbEntity
  8
외형선
  6
Continuous
370
    15
100
AcDbSpline
210
0.0
220
0.0
230
1.0
 70
     8
 71
     3
 72
     8
 73
     4
 74
     0
 42
0.000000001
 43
0.00000001
 40
0.0
 40
0.0
 40
0.0
 40
0.0
 40
1.0
 40
1.0
 40
1.0
 40
1.0
 10
-19.05000000000002
 20
-1.934732412954204
 30
0.0
 10
-18.75128557270492
 20
-1.896542254219753
 30
0.0
 10
-18.45873184126265
 20
-1.836936933768129
 30
0.0
 10
-18.16005567216659
 20
-1.757098779152684
 30
0.0
  0
LINE
  5
453
330
1F
100
AcDbEntity
  8
외형선
  6
Continuous
370
    15
100
AcDbLine
 10
-18.16005567216659
 20
1.434043893000251
 30
0.0
 11
-18.16005567216659
 21
-1.984375
 31
0.0
  0
SPLINE
  5
454
330
1F
100
AcDbEntity
  8
외형선
  6
Continuous
370
    15
100
AcDbSpline
210
0.0
220
0.0
230
1.0
 70
     8
 71
     3
 72
     8
 73
     4
 74
     0
 42
0.000000001
 43
0.00000001
 40
0.0
 40
0.0
 40
0.0
 40
0.0
 40
1.0
 40
1.0
 40
1.0
 40
1.0
 10
-19.05000000000005
 20
1.425235875216295
 30
0.0
 10
-18.75130504732082
 20
1.347137748647633
 30
0.0
 10
-18.45877056494295
 20
1.253610330819769
 30
0.0
 10
-18.16011408850992
 20
1.146506103943026
 30
0.0
  0
SPLINE
  5
455
330
1F
100
AcDbEntity
  8
외형선
  6
Continuous
370
    15
100
AcDbSpline
210
0.0
220
0.0
230
1.0
 70
     8
 71
     3
 72
    12
 73
     8
 74
     0
 42
0.000000001
 43
0.00000001
 40
0.0
 40
0.0
 40
0.0
 40
0.0
 40
0.2499999999999998
 40
0.2499999999999998
 40
0.4999999999999996
 40
0.4999999999999996
 40
1.0
 40
1.0
 40
1.0
 40
1.0
 10
-18.45551353169859
 20
-0.5537679191902423
 30
0.0
 10
-18.39333131735129
 20
-0.5807520108479021
 30
0.0
 10
-18.34951415375253
 20
-0.6330669075122368
 30
0.0
 10
-18.2784844694057
 20
-0.7412683460910325
 30
0.0
 10
-18.25128637699726
 20
-0.7999202367523988
 30
0.0
 10
-18.18541008760494
 20
-0.9779091316511592
 30
0.0
 10
-18.16005567216656
 20
-1.103014984869169
 30
0.0
 10
-18.16005567216656
 20
-1.230913162157619
 30
0.0
  0
SPLINE
  5
456
330
1F
100
AcDbEntity
  8
외형선
  6
Continuous
370
    15
100
AcDbSpline
210
0.0
220
0.0
230
1.0
 70
     8
 71
     3
 72
     8
 73
     4
 74
     0
 42
0.000000001
 43
0.00000001
 40
0.0
 40
0.0
 40
0.0
 40
0.0
 40
1.0
 40
1.0
 40
1.0
 40
1.0
 10
-19.05000000002557
 20
-0.2889461572789566
 30
0.0
 10
-18.85015095671339
 20
-0.3793682567884455
 30
0.0
 10
-18.65348973271697
 20
-0.4678557655240065
 30
0.0
 10
-18.45551353169862
 20
-0.5537679191902423
 30
0.0
  0
SPLINE
  5
457
330
1F
100
AcDbEntity
  8
외형선
  6
Continuous
370
    15
100
AcDbSpline
210
0.0
220
0.0
230
1.0
 70
    24
 71
     3
 72
    10
 73
     6
 74
     0
 42
0.000000001
 43
0.00000001
 40
0.0
 40
0.0
 40
0.0
 40
0.0
 40
0.5000000000000001
 40
0.5000000000000001
 40
1.0
 40
1.0
 40
1.0
 40
1.0
 10
-19.04999999999999
 20
-0.2889461572905171
 30
0.0
 10
-19.04999999999999
 20
0.016439965717368
 30
0.0
 10
-19.04999999999999
 20
0.3412158552371599
 30
0.0
 10
-19.04999999999999
 20
0.9404074176691215
 30
0.0
 10
-19.04999999999999
 20
1.21224393585618
 30
0.0
 10
-19.04999999999999
 20
1.425235875216288
 30
0.0
  0
LINE
  5
458
330
1F
100
AcDbEntity
  8
외형선
  6
Continuous
370
    15
100
AcDbLine
 10
-19.05000000000002
 20
-1.365859688307409
 30
0.0
 11
-18.92411736954572
 21
-1.352905632187017
 31
0.0
  0
SPLINE
  5
459
330
1F
100
AcDbEntity
  8
외형선
  6
Continuous
370
    15
100
AcDbSpline
210
0.0
220
0.0
230
1.0
 70
    24
 71
     3
 72
    14
 73
    10
 74
     0
 42
0.000000001
 43
0.00000001
 40
0.0
 40
0.0
 40
0.0
 40
0.0
 40
0.25
 40
0.25
 40
0.5
 40
0.5
 40
0.75
 40
0.75
 40
1.0
 40
1.0
 40
1.0
 40
1.0
 10
-19.05000000000002
 20
-1.365859688307409
 30
0.0
 10
-19.05000000000002
 20
-1.360322754182604
 30
0.0
 10
-19.05000000000002
 20
-1.333071742396292
 30
0.0
 10
-19.05000000000002
 20
-1.231305480144591
 30
0.0
 10
-19.05000000000002
 20
-1.156747794294304
 30
0.0
 10
-19.05000000000002
 20
-0.9653492112200364
 30
0.0
 10
-19.05000000000002
 20
-0.848610299163155
 30
0.0
 10
-19.05000000000002
 20
-0.586119936037576
 30
0.0
 10
-19.05000000000002
 20
-0.4405517952559274
 30
0.0
 10
-19.05000000000002
 20
-0.28894615729051
 30
0.0
  0
SPLINE
  5
45A
330
1F
100
AcDbEntity
  8
외형선
  6
Continuous
370
    15
100
AcDbSpline
210
0.0
220
0.0
230
1.0
 70
    24
 71
     3
 72
     8
 73
     4
 74
     0
 42
0.000000001
 43
0.00000001
 40
0.0
 40
0.0
 40
0.0
 40
0.0
 40
1.0
 40
1.0
 40
1.0
 40
1.0
 10
-19.05000000000002
 20
1.425235875216288
 30
0.0
 10
-19.05000000000002
 20
1.527320202759328
 30
0.0
 10
-19.05000000000002
 20
1.632122967901836
 30
0.0
 10
-19.05000000000002
 20
1.737663587388703
 30
0.0
  0
SPLINE
  5
45B
330
1F
100
AcDbEntity
  8
외형선
  6
Continuous
370
    15
100
AcDbSpline
210
0.0
220
0.0
230
1.0
 70
    24
 71
     3
 72
    10
 73
     6
 74
     0
 42
0.000000001
 43
0.00000001
 40
0.0
 40
0.0
 40
0.0
 40
0.0
 40
0.5
 40
0.5
 40
1.0
 40
1.0
 40
1.0
 40
1.0
 10
-19.05000000000002
 20
-1.934732412954204
 30
0.0
 10
-19.05000000000002
 20
-1.832383849019159
 30
0.0
 10
-19.05000000000002
 20
-1.726157201675178
 30
0.0
 10
-19.05000000000002
 20
-1.529631705345167
 30
0.0
 10
-19.05000000000002
 20
-1.439806348258855
 30
0.0
 10
-19.05000000000002
 20
-1.365859688307409
 30
0.0
  0
LINE
  5
45C
330
1F
100
AcDbEntity
  8
0
  6
Continuous
 62
     1
370
    15
100
AcDbLine
 10
-19.05000000000002
 20
1.934732412954205
 30
0.0
 11
-19.82078680622315
 21
1.971056819513749
 31
0.0
  0
SPLINE
  5
45D
330
1F
100
AcDbEntity
  8
0
  6
Continuous
 62
     1
370
    15
100
AcDbSpline
210
0.0
220
0.0
230
1.0
 70
     8
 71
     3
 72
    22
 73
    18
 74
     0
 42
0.000000001
 43
0.00000001
 40
0.0
 40
0.0
 40
0.0
 40
0.0
 40
0.0029155906803269
 40
0.0740932039948922
 40
0.1452819298024296
 40
0.2164942331990257
 40
0.2877424505083473
 40
0.3590349295600673
 40
0.4303048894327706
 40
0.5015330343757421
 40
0.5727316144709396
 40
0.6439130409333726
 40
0.7150898188263142
 40
0.7862744786908642
 40
0.8574795078800946
 40
0.9287172823937894
 40
1.0
 40
1.0
 40
1.0
 40
1.0
 10
-27.75159193818923
 20
-1.331258997406287
 30
0.0
 10
-27.76473332963011
 20
-1.337492989600086
 30
0.0
 10
-28.09869234636603
 20
-1.495915932310943
 30
0.0
 10
-28.75350910295877
 20
-1.715060286333802
 30
0.0
 10
-29.71618943475077
 20
-1.94355743013395
 30
0.0
 10
-30.67925407391321
 20
-2.009713789163996
 30
0.0
 10
-31.64286921779505
 20
-1.92191360315936
 30
0.0
 10
-32.60692895629322
 20
-1.683420883351537
 30
0.0
 10
-33.57079194433297
 20
-1.313724717047684
 30
0.0
 10
-34.53410834790854
 20
-0.8414638223218485
 30
0.0
 10
-35.49694843342923
 20
-0.3036742011362387
 30
0.0
 10
-36.45950969361039
 20
0.257809794578201
 30
0.0
 10
-37.42199601280934
 20
0.7989584464922435
 30
0.0
 10
-38.38460925237613
 20
1.278616135481024
 30
0.0
 10
-39.34755557872726
 20
1.655617735777398
 30
0.0
 10
-40.31102154208649
 20
1.91459794635329
 30
0.0
 10
-40.95360630211332
 20
1.959993101390332
 30
0.0
 10
-41.27500000000001
 20
1.984375
 30
0.0
  0
SPLINE
  5
45E
330
1F
100
AcDbEntity
  8
0
  6
Continuous
 62
     1
370
    15
100
AcDbSpline
210
0.0
220
0.0
230
1.0
 70
     8
 71
     3
 72
    14
 73
    10
 74
     0
 42
0.000000001
 43
0.00000001
 40
0.0
 40
0.0
 40
0.0
 40
0.0
 40
0.1283248794258844
 40
0.2740784882855453
 40
0.4198979309395625
 40
0.5658104729865795
 40
0.7117731395258002
 40
0.8576372657019086
 40
1.0
 40
1.0
 40
1.0
 40
1.0
 10
-36.34465995334492
 20
0.18831119710643
 30
0.0
 10
-36.06211506955396
 20
0.0741644575140304
 30
0.0
 10
-35.45865083901115
 20
-0.1696321154512072
 30
0.0
 10
-34.53409491630013
 20
-0.5362218264182625
 30
0.0
 10
-33.57077115334219
 20
-0.8748858790843523
 30
0.0
 10
-32.60691738102364
 20
-1.146177230919178
 30
0.0
 10
-31.64290643794235
 20
-1.325741054569341
 30
0.0
 10
-30.68681298445481
 20
-1.409338352878741
 30
0.0
 10
-30.05216924813997
 20
-1.373599581684978
 30
0.0
 10
-29.73870221922292
 20
-1.355947274126876
 30
0.0
  0
SPLINE
  5
45F
330
1F
100
AcDbEntity
  8
0
  6
Continuous
 62
     1
370
    15
100
AcDbSpline
210
0.0
220
0.0
230
1.0
 70
     8
 71
     3
 72
    19
 73
    15
 74
     0
 42
0.000000001
 43
0.00000001
 40
0.0
 40
0.0
 40
0.0
 40
0.0
 40
0.0844674141955788
 40
0.1689532395248524
 40
0.2534672224430885
 40
0.3380189913922242
 40
0.4226002811814271
 40
0.5059033198013081
 40
0.5891611499367628
 40
0.672388148406541
 40
0.7555988602657763
 40
0.8388079197327487
 40
0.9220299700833077
 40
1.0
 40
1.0
 40
1.0
 40
1.0
 10
-19.05000000000002
 20
-1.934732412954211
 30
0.0
 10
-19.37568497346061
 20
-1.961383755253649
 30
0.0
 10
-20.02712590905416
 20
-2.014692248973489
 30
0.0
 10
-21.00447916460949
 20
-1.891140998858972
 30
0.0
 10
-21.9822222458835
 20
-1.626765496987623
 30
0.0
 10
-22.96041801043439
 20
-1.228605562917621
 30
0.0
 10
-23.93406349755589
 20
-0.7350151301483616
 30
0.0
 10
-24.90256290189175
 20
-0.1857465106101013
 30
0.0
 10
-25.8657396065747
 20
0.3752568786453457
 30
0.0
 10
-26.8284878482061
 20
0.9066658427492276
 30
0.0
 10
-27.79101003832927
 20
1.368244463409646
 30
0.0
 10
-28.75351132343938
 20
1.719657982499904
 30
0.0
 10
-29.69582888148043
 20
1.945006670358794
 30
0.0
 10
-30.31738219183669
 20
1.968438328636517
 30
0.0
 10
-30.61803300621262
 20
1.979772428263999
 30
0.0
  0
SPLINE
  5
460
330
1F
100
AcDbEntity
  8
0
  6
Continuous
 62
     1
370
    15
100
AcDbSpline
210
0.0
220
0.0
230
1.0
 70
     8
 71
     3
 72
    10
 73
     6
 74
     0
 42
0.000000001
 43
0.00000001
 40
0.0
 40
0.0
 40
0.0
 40
0.0
 40
0.2900492812622028
 40
0.6449127010062818
 40
1.0
 40
1.0
 40
1.0
 40
1.0
 10
-38.56003322654909
 20
-1.329693514765246
 30
0.0
 10
-38.82249195598835
 20
-1.43774181839386
 30
0.0
 10
-39.40605819469358
 20
-1.677982797544181
 30
0.0
 10
-40.31102260742248
 20
-1.912800312715667
 30
0.0
 10
-40.95360665729996
 20
-1.959393764218944
 30
0.0
 10
-41.27500000000001
 20
-1.984375
 30
0.0
  0
SPLINE
  5
461
330
1F
100
AcDbEntity
  8
0
  6
Continuous
 62
     1
370
    15
100
AcDbSpline
210
0.0
220
0.0
230
1.0
 70
    24
 71
     3
 72
    10
 73
     6
 74
     0
 42
0.000000001
 43
0.00000001
 40
0.0
 40
0.0
 40
0.0
 40
0.0
 40
0.5
 40
0.5
 40
1.0
 40
1.0
 40
1.0
 40
1.0
 10
-41.27500000000001
 20
-1.389062499999994
 30
0.0
 10
-41.27500000000001
 20
-1.473264009602012
 30
0.0
 10
-41.27500000000001
 20
-1.571113961658177
 30
0.0
 10
-41.27500000000001
 20
-1.776402897531696
 30
0.0
 10
-41.27500000000001
 20
-1.883317599168542
 30
0.0
 10
-41.27500000000001
 20
-1.984375
 30
0.0
  0
LINE
  5
462
330
1F
100
AcDbEntity
  8
0
  6
Continuous
 62
     1
370
    15
100
AcDbLine
 10
-41.27500000000001
 20
-1.389062499999994
 30
0.0
 11
-40.54739307722239
 21
-1.348144399680329
 31
0.0
  0
SPLINE
  5
463
330
1F
100
AcDbEntity
  8
0
  6
Continuous
 62
     1
370
    15
100
AcDbSpline
210
0.0
220
0.0
230
1.0
 70
     8
 71
     3
 72
    14
 73
    10
 74
     0
 42
0.000000001
 43
0.00000001
 40
0.0
 40
0.0
 40
0.0
 40
0.0
 40
0.0992405920583221
 40
0.2475633470740343
 40
0.3959708430410408
 40
0.5442968971545104
 40
0.692534512361627
 40
0.8462770916249956
 40
1.0
 40
1.0
 40
1.0
 40
1.0
 10
-25.54752411665388
 20
0.1874484270877379
 30
0.0
 10
-25.3325948716412
 20
0.1012361659897683
 30
0.0
 10
-24.79643721502257
 20
-0.1138269999342394
 30
0.0
 10
-23.93880850378012
 20
-0.4586362661013647
 30
0.0
 10
-22.97478034884936
 20
-0.8082273505862925
 30
0.0
 10
-22.01102005002961
 20
-1.095922280553367
 30
0.0
 10
-21.03578357433947
 20
-1.298339024836117
 30
0.0
 10
-20.04881646671394
 20
-1.405807317018883
 30
0.0
 10
-19.38292462152854
 20
-1.379174996587707
 30
0.0
 10
-19.05000000000002
 20
-1.365859688307409
 30
0.0
  0
SPLINE
  5
464
330
1F
100
AcDbEntity
  8
외형선
  6
Continuous
370
    15
100
AcDbSpline
210
0.0
220
0.0
230
1.0
 70
    24
 71
     3
 72
    10
 73
     6
 74
     0
 42
0.000000001
 43
0.00000001
 40
0.0
 40
0.0
 40
0.0
 40
0.0
 40
0.5
 40
0.5
 40
1.0
 40
1.0
 40
1.0
 40
1.0
 10
-19.05000000000002
 20
-1.934732412954204
 30
0.0
 10
-19.05000000000002
 20
-1.832383849019159
 30
0.0
 10
-19.05000000000002
 20
-1.726157201675178
 30
0.0
 10
-19.05000000000002
 20
-1.529631705345167
 30
0.0
 10
-19.05000000000002
 20
-1.439806348258855
 30
0.0
 10
-19.05000000000002
 20
-1.365859688307409
 30
0.0
  0
SPLINE
  5
465
330
1F
100
AcDbEntity
  8
0
  6
Continuous
 62
     1
370
    15
100
AcDbSpline
210
0.0
220
0.0
230
1.0
 70
     8
 71
     3
 72
    18
 73
    14
 74
     0
 42
0.000000001
 43
0.00000001
 40
0.0
 40
0.0
 40
0.0
 40
0.0
 40
0.0994331162739717
 40
0.1988035384821966
 40
0.2981282825480878
 40
0.3974246130299962
 40
0.496709949821655
 40
0.5960017730574897
 40
0.695317527319635
 40
0.7946745262572028
 40
0.894089858720266
 40
0.993536585306018
 40
1.0
 40
1.0
 40
1.0
 40
1.0
 10
-41.27500000000001
 20
1.883054537382059
 30
0.0
 10
-40.95360710449925
 20
1.810243599637162
 30
0.0
 10
-40.31102395652122
 20
1.664667632531711
 30
0.0
 10
-39.34756042324504
 20
1.276967863432113
 30
0.0
 10
-38.38461654630542
 20
0.800266365895006
 30
0.0
 10
-37.42200573467554
 20
0.2583551942102536
 30
0.0
 10
-36.45952191664114
 20
-0.3028365025402019
 30
0.0
 10
-35.49696281687554
 20
-0.8409533064565333
 30
0.0
 10
-34.53412603689365
 20
-1.312258705115468
 30
0.0
 10
-33.57080847677438
 20
-1.685807215712365
 30
0.0
 10
-32.60696083282253
 20
-1.910874465673821
 30
0.0
 10
-31.94323086807285
 20
-2.006663712976838
 30
0.0
 10
-31.60094681554356
 20
-1.981214437377381
 30
0.0
 10
-31.5800581287011
 20
-1.979661335664239
 30
0.0
  0
SPLINE
  5
466
330
1F
100
AcDbEntity
  8
0
  6
Continuous
 62
     1
370
    15
100
AcDbSpline
210
0.0
220
0.0
230
1.0
 70
     8
 71
     3
 72
    12
 73
     8
 74
     0
 42
0.000000001
 43
0.00000001
 40
0.0
 40
0.0
 40
0.0
 40
0.0
 40
0.0237087659143877
 40
0.267917351597918
 40
0.5120168275197715
 40
0.7560349959812886
 40
1.0
 40
1.0
 40
1.0
 40
1.0
 10
-23.05533707170319
 20
1.560809461677409
 30
0.0
 10
-23.02367754789373
 20
1.573717763615044
 30
0.0
 10
-22.66591384975337
 20
1.719586092706728
 30
0.0
 10
-21.98224963667307
 20
1.88262193545252
 30
0.0
 10
-21.00449621477302
 20
2.007440495828903
 30
0.0
 10
-20.02713473483931
 20
1.968825014968239
 30
0.0
 10
-19.37568792049215
 20
1.814711799843359
 30
0.0
 10
-19.0500000000001
 20
1.737663587389264
 30
0.0
  0
SPLINE
  5
467
330
1F
100
AcDbEntity
  8
외형선
  6
Continuous
370
    15
100
AcDbSpline
210
0.0
220
0.0
230
1.0
 70
    24
 71
     3
 72
     8
 73
     4
 74
     0
 42
0.000000001
 43
0.00000001
 40
0.0
 40
0.0
 40
0.0
 40
0.0
 40
1.0
 40
1.0
 40
1.0
 40
1.0
 10
-19.05000000000002
 20
1.425235875216288
 30
0.0
 10
-19.05000000000002
 20
1.527320202759328
 30
0.0
 10
-19.05000000000002
 20
1.632122967901836
 30
0.0
 10
-19.05000000000002
 20
1.737663587388703
 30
0.0
  0
SPLINE
  5
468
330
1F
100
AcDbEntity
  8
0
  6
Continuous
 62
     1
370
    15
100
AcDbSpline
210
0.0
220
0.0
230
1.0
 70
     8
 71
     3
 72
    13
 73
     9
 74
     0
 42
0.000000001
 43
0.00000001
 40
0.0
 40
0.0
 40
0.0
 40
0.0
 40
0.1869616000667323
 40
0.3738000591531609
 40
0.5605487925401184
 40
0.7472417102232147
 40
0.9339130312983901
 40
0.9999999999999999
 40
0.9999999999999999
 40
0.9999999999999999
 40
0.9999999999999999
 10
-41.27500000000001
 20
1.565616837105687
 30
0.0
 10
-40.9536091299261
 20
1.495060560686263
 30
0.0
 10
-40.31103907167859
 20
1.353994479256742
 30
0.0
 10
-39.34756985922576
 20
1.004131688788953
 30
0.0
 10
-38.38462306555565
 20
0.5839955597901043
 30
0.0
 10
-37.42200721209264
 20
0.1188845523929634
 30
0.0
 10
-36.66677861646091
 20
-0.2612558057712202
 30
0.0
 10
-36.23238624395314
 20
-0.4590014875136953
 30
0.0
 10
-36.11880866297057
 20
-0.5107046885906423
 30
0.0
  0
SPLINE
  5
469
330
1F
100
AcDbEntity
  8
0
  6
Continuous
 62
     1
370
    15
100
AcDbSpline
210
0.0
220
0.0
230
1.0
 70
     8
 71
     3
 72
    10
 73
     6
 74
     0
 42
0.000000001
 43
0.00000001
 40
0.0
 40
0.0
 40
0.0
 40
0.0
 40
0.2459430181587582
 40
0.6229946630152228
 40
1.0
 40
1.0
 40
1.0
 40
1.0
 10
-21.69931601894243
 20
1.636574647159272
 30
0.0
 10
-21.48212409445657
 20
1.658078554631381
 30
0.0
 10
-20.93195840641366
 20
1.71254978820975
 30
0.0
 10
-20.04883318625242
 20
1.649467585828738
 30
0.0
 10
-19.38293076403213
 20
1.499976718594276
 30
0.0
 10
-19.05000000000002
 20
1.425235875216288
 30
0.0
  0
LINE
  5
46A
330
1F
100
AcDbEntity
  8
0
  6
Continuous
 62
     1
370
    15
100
AcDbLine
 10
-41.27500000000001
 20
1.883054537382059
 30
0.0
 11
-41.27500000000001
 21
1.565616837105687
 31
0.0
  0
SPLINE
  5
46B
330
1F
100
AcDbEntity
  8
0
  6
Continuous
 62
     1
370
    15
100
AcDbSpline
210
0.0
220
0.0
230
1.0
 70
     8
 71
     3
 72
    22
 73
    18
 74
     0
 42
0.000000001
 43
0.00000001
 40
0.0
 40
0.0
 40
0.0
 40
0.0
 40
0.0198707589064141
 40
0.0937405739858301
 40
0.1676337162319932
 40
0.2414809768357775
 40
0.3152910146898369
 40
0.3890766170006451
 40
0.4628507044385615
 40
0.5366262607452897
 40
0.6104162616106152
 40
0.684233603642527
 40
0.7580910342529946
 40
0.8330826116711447
 40
0.908048002745668
 40
0.9829799000921503
 40
1.0
 40
1.0
 40
1.0
 40
1.0
 10
-33.83024713472069
 20
1.562710914358924
 30
0.0
 10
-33.74382544186094
 20
1.59651790966877
 30
0.0
 10
-33.33612993653825
 20
1.756002867440465
 30
0.0
 10
-32.60694550307043
 20
1.915744624194993
 30
0.0
 10
-31.64289461404039
 20
2.011738305090156
 30
0.0
 10
-30.67928038254801
 20
1.941556423415201
 30
0.0
 10
-29.71621836640097
 20
1.722353814039757
 30
0.0
 10
-28.75354180092157
 20
1.368177530611327
 30
0.0
 10
-27.79104443019074
 20
0.9075022119455274
 30
0.0
 10
-26.82852423772625
 20
0.3759843559963945
 30
0.0
 10
-25.86577844035015
 20
-0.1848211040971175
 30
0.0
 10
-24.90260387645058
 20
-0.7315475237602693
 30
0.0
 10
-23.93410328655208
 20
-1.222742213743302
 30
0.0
 10
-22.96045177142458
 20
-1.622948283036528
 30
0.0
 10
-21.98225127662591
 20
-1.881545671245817
 30
0.0
 10
-21.25625897781519
 20
-1.997793863729775
 30
0.0
 10
-20.85635510338887
 20
-1.97461829122038
 30
0.0
 10
-20.78233383033868
 20
-1.970328546883017
 30
0.0
  0
SPLINE
  5
46C
330
1F
100
AcDbEntity
  8
0
  6
Continuous
 62
     1
370
    15
100
AcDbSpline
210
0.0
220
0.0
230
1.0
 70
     8
 71
     3
 72
    15
 73
    11
 74
     0
 42
0.000000001
 43
0.00000001
 40
0.0
 40
0.0
 40
0.0
 40
0.0
 40
0.1189055613712451
 40
0.2531916661997252
 40
0.3874070588462203
 40
0.5215760285775177
 40
0.6557231215046218
 40
0.789873005122638
 40
0.9240503314300978
 40
1.0
 40
1.0
 40
1.0
 40
1.0
 10
-32.49603268288079
 20
1.644349715292386
 30
0.0
 10
-32.21159098792189
 20
1.665770496859438
 30
0.0
 10
-31.60591480379075
 20
1.711382857742436
 30
0.0
 10
-30.6792904157529
 20
1.618974250725664
 30
0.0
 10
-29.71622576527424
 20
1.408628086471403
 30
0.0
 10
-28.7535449706947
 20
1.085329273037012
 30
0.0
 10
-27.79104454013422
 20
0.6777856519626728
 30
0.0
 10
-26.82851805200139
 20
0.2189695676069978
 30
0.0
 10
-26.0051572530301
 20
-0.19382385109683
 30
0.0
 10
-25.50258364493207
 20
-0.4269501099705261
 30
0.0
 10
-25.32093016918848
 20
-0.5112127822022994
 30
0.0
  0
LINE
  5
46D
330
1F
100
AcDbEntity
  8
0
  6
Continuous
 62
     1
370
    15
100
AcDbLine
 10
-41.27500000000001
 20
1.984375
 30
0.0
 11
-41.27500000000001
 21
1.883054537382059
 31
0.0
  0
SPLINE
  5
46E
330
1F
100
AcDbEntity
  8
0
  6
Continuous
 62
     1
370
    15
100
AcDbSpline
210
0.0
220
0.0
230
1.0
 70
     8
 71
     3
 72
     8
 73
     4
 74
     0
 42
0.000000001
 43
0.00000001
 40
0.0
 40
0.0
 40
0.0
 40
0.0
 40
1.0
 40
1.0
 40
1.0
 40
1.0
 10
-40.04650677959578
 20
-0.5557441175764164
 30
0.0
 10
-39.97623544869928
 20
-0.6389927033794716
 30
0.0
 10
-39.91350664401421
 20
-0.7191404837657056
 30
0.0
 10
-39.8601000523847
 20
-0.7954558122745605
 30
0.0
  0
LINE
  5
46F
330
1F
100
AcDbEntity
  8
0
  6
Continuous
 62
     1
370
    15
100
AcDbLine
 10
-39.88523597617294
 20
-0.8165473566545596
 30
0.0
 11
-41.27500000000001
 21
0.0000000000000005
 31
0.0
  0
LINE
  5
470
330
1F
100
AcDbEntity
  8
0
  6
Continuous
 62
     1
370
    15
100
AcDbLine
 10
-41.27500000000001
 20
0.0000000000000005
 30
0.0
 11
-41.27500000000001
 21
0.5303102210275772
 31
0.0
  0
SPLINE
  5
471
330
1F
100
AcDbEntity
  8
0
  6
Continuous
 62
     1
370
    15
100
AcDbSpline
210
0.0
220
0.0
230
1.0
 70
     8
 71
     3
 72
    10
 73
     6
 74
     0
 42
0.000000001
 43
0.00000001
 40
0.0
 40
0.0
 40
0.0
 40
0.0
 40
0.5
 40
0.5
 40
1.0
 40
1.0
 40
1.0
 40
1.0
 10
-41.27500000000001
 20
0.5303102210275772
 30
0.0
 10
-41.06233365854357
 20
0.3631162242342048
 30
0.0
 10
-40.8532234133983
 20
0.1890610906366637
 30
0.0
 10
-40.44228519211058
 20
-0.1730995957543153
 30
0.0
 10
-40.23854542687045
 20
-0.3631188210779323
 30
0.0
 10
-40.04650677959567
 20
-0.5557441175765017
 30
0.0
  0
SPLINE
  5
472
330
1F
100
AcDbEntity
  8
외형선
  6
Continuous
370
    15
100
AcDbSpline
210
0.0
220
0.0
230
1.0
 70
    24
 71
     3
 72
    10
 73
     6
 74
     0
 42
0.000000001
 43
0.00000001
 40
0.0
 40
0.0
 40
0.0
 40
0.0
 40
0.5
 40
0.5
 40
1.0
 40
1.0
 40
1.0
 40
1.0
 10
-19.04999999999999
 20
-0.2889461572905171
 30
0.0
 10
-19.04999999999999
 20
0.0164399657173751
 30
0.0
 10
-19.04999999999999
 20
0.3412158552371528
 30
0.0
 10
-19.04999999999999
 20
0.9404074176691215
 30
0.0
 10
-19.04999999999999
 20
1.212243935856173
 30
0.0
 10
-19.04999999999999
 20
1.425235875216288
 30
0.0
  0
SPLINE
  5
473
330
1F
100
AcDbEntity
  8
0
  6
Continuous
 62
     1
370
    15
100
AcDbSpline
210
0.0
220
0.0
230
1.0
 70
     8
 71
     3
 72
    13
 73
     9
 74
     0
 42
0.000000001
 43
0.00000001
 40
0.0
 40
0.0
 40
0.0
 40
0.0
 40
0.1820825146427854
 40
0.3637889313204379
 40
0.5744997229510892
 40
0.7851857966456655
 40
0.995886450545847
 40
1.0
 40
1.0
 40
1.0
 40
1.0
 10
-40.04650677959561
 20
-0.5557441175765088
 30
0.0
 10
-39.76916497669905
 20
-0.6723990672674414
 30
0.0
 10
-39.21505423034777
 20
-0.9054680116664069
 30
0.0
 10
-38.34040086838107
 20
-1.208949021055453
 30
0.0
 10
-37.42199107761977
 20
-1.450960804807898
 30
0.0
 10
-36.45951281341028
 20
-1.576177002575839
 30
0.0
 10
-35.81160682745944
 20
-1.614111669372434
 30
0.0
 10
-35.48449526117771
 20
-1.576399628070788
 30
0.0
 10
-35.47823129173847
 20
-1.575677467503709
 30
0.0
  0
SPLINE
  5
474
330
1F
100
AcDbEntity
  8
0
  6
Continuous
 62
     1
370
    15
100
AcDbSpline
210
0.0
220
0.0
230
1.0
 70
     8
 71
     3
 72
    15
 73
    11
 74
     0
 42
0.000000001
 43
0.00000001
 40
0.0
 40
0.0
 40
0.0
 40
0.0
 40
0.0572894004144962
 40
0.1905065206003007
 40
0.3238002700777285
 40
0.4571681933075589
 40
0.5904648220884876
 40
0.7236840403213871
 40
0.8618506278661983
 40
1.0
 40
1.0
 40
1.0
 40
1.0
 10
-26.28002643900499
 20
1.477304641037272
 30
0.0
 10
-26.14197201967961
 20
1.502477399808136
 30
0.0
 10
-25.68289465303088
 20
1.586185287351953
 30
0.0
 10
-24.90256076078493
 20
1.602007571895527
 30
0.0
 10
-23.93882405508774
 20
1.521893924011686
 30
0.0
 10
-22.97477744727141
 20
1.316312216059714
 30
0.0
 10
-22.01101790593237
 20
1.009649120423405
 30
0.0
 10
-21.03579133776626
 20
0.6193672516111666
 30
0.0
 10
-20.0488172366095
 20
0.1718991504028016
 30
0.0
 10
-19.38292524978551
 20
-0.135337435341611
 30
0.0
 10
-19.05000000002557
 20
-0.2889461572789566
 30
0.0
  0
SPLINE
  5
475
330
1F
100
AcDbEntity
  8
0
  6
Continuous
 62
     1
370
    15
100
AcDbSpline
210
0.0
220
0.0
230
1.0
 70
    24
 71
     3
 72
    10
 73
     6
 74
     0
 42
0.000000001
 43
0.00000001
 40
0.0
 40
0.0
 40
0.0
 40
0.0
 40
0.5
 40
0.5
 40
1.0
 40
1.0
 40
1.0
 40
1.0
 10
-41.27500000000001
 20
1.565616837105687
 30
0.0
 10
-41.27500000000001
 20
1.445600100054428
 30
0.0
 10
-41.27500000000001
 20
1.293954350876902
 30
0.0
 10
-41.27500000000001
 20
0.9413925783146344
 30
0.0
 10
-41.27500000000001
 20
0.740781957304947
 30
0.0
 10
-41.27500000000001
 20
0.5303102210276411
 30
0.0
  0
SPLINE
  5
476
330
1F
100
AcDbEntity
  8
0
  6
Continuous
 62
     1
370
    15
100
AcDbSpline
210
0.0
220
0.0
230
1.0
 70
     8
 71
     3
 72
    21
 73
    17
 74
     0
 42
0.000000001
 43
0.00000001
 40
0.0
 40
0.0
 40
0.0
 40
0.0
 40
0.0498798930790706
 40
0.1275182850184911
 40
0.2051764999529877
 40
0.282868878099589
 40
0.3606095703084016
 40
0.4383762734241589
 40
0.5160918375512391
 40
0.5937659057556928
 40
0.6714127302643785
 40
0.7490467146377794
 40
0.8266823339654843
 40
0.9043340542218893
 40
0.9820162517290304
 40
1.0
 40
1.0
 40
1.0
 40
1.0
 10
-37.07790556918733
 20
1.477872768441522
 30
0.0
 10
-36.87178153192551
 20
1.511179958289845
 30
0.0
 10
-36.34482403241677
 20
1.596330015077485
 30
0.0
 10
-35.49694693986758
 20
1.595616624334547
 30
0.0
 10
-34.53410276712797
 20
1.487997490744619
 30
0.0
 10
-33.57078171739429
 20
1.25952510911349
 30
0.0
 10
-32.60692558177349
 20
0.9340105435938431
 30
0.0
 10
-31.64289893398783
 20
0.5353816034834442
 30
0.0
 10
-30.67927754023166
 20
0.0949166075260171
 30
0.0
 10
-29.71620941959706
 20
-0.3528278341557959
 30
0.0
 10
-28.75352624434303
 20
-0.7731819509344997
 30
0.0
 10
-27.79102190373826
 20
-1.132489103075151
 30
0.0
 10
-26.82849666345889
 20
-1.40616771180472
 30
0.0
 10
-25.86573874240694
 20
-1.560149649894704
 30
0.0
 10
-25.14947671072293
 20
-1.612041497725115
 30
0.0
 10
-24.75407978639544
 20
-1.57318587607348
 30
0.0
 10
-24.67975115569633
 20
-1.56588160794535
 30
0.0
  0
SPLINE
  5
477
330
1F
100
AcDbEntity
  8
0
  6
Continuous
 62
     1
370
    15
100
AcDbSpline
210
0.0
220
0.0
230
1.0
 70
    24
 71
     3
 72
     8
 73
     4
 74
     0
 42
0.000000001
 43
0.00000001
 40
0.0
 40
0.0
 40
0.0
 40
0.0
 40
1.0
 40
1.0
 40
1.0
 40
1.0
 10
-40.0673762774749
 20
-0.9693812162995807
 30
0.0
 10
-40.00191450026558
 20
-0.9144522631870227
 30
0.0
 10
-39.93241308150835
 20
-0.8561336483414972
 30
0.0
 10
-39.8601000523847
 20
-0.7954558122745463
 30
0.0
  0
SPLINE
  5
478
330
1F
100
AcDbEntity
  8
0
  6
Continuous
 62
     1
370
    15
100
AcDbSpline
210
0.0
220
0.0
230
1.0
 70
     8
 71
     3
 72
    17
 73
    13
 74
     0
 42
0.000000001
 43
0.00000001
 40
0.0
 40
0.0
 40
0.0
 40
0.0
 40
0.0005163282802535
 40
0.0005163282802535
 40
0.0005163282802535
 40
0.0010326767457958
 40
0.0010326767457958
 40
0.0010326767457958
 40
0.0014638374883266
 40
0.0014638374883266
 40
0.0014638374883266
 40
0.0016321893726742
 40
0.0016321893726742
 40
0.0016321893726742
 40
0.0016321893726742
 10
-41.27500000000001
 20
-1.389062500000001
 30
0.0
 10
-41.14592116811915
 20
-1.354001784257754
 30
0.0
 10
-41.01725190197673
 20
-1.31624947155025
 30
0.0
 10
-40.88912807327691
 20
-1.275656025300186
 30
0.0
 10
-40.76100136219785
 20
-1.235061665826492
 30
0.0
 10
-40.63338056367949
 20
-1.191616621055182
 30
0.0
 10
-40.5064517371516
 20
-1.145048959270262
 30
0.0
 10
-40.40046046846178
 20
-1.106162870999213
 30
0.0
 10
-40.29492126998228
 20
-1.065092287991589
 30
0.0
 10
-40.18999202923053
 20
-1.021573906411099
 30
0.0
 10
-40.14902026607573
 20
-1.004581266321245
 30
0.0
 10
-40.10814281676387
 20
-0.9871951238823935
 30
0.0
 10
-40.06737627749087
 20
-0.9693812163065512
 30
0.0
  0
SPLINE
  5
479
330
1F
100
AcDbEntity
  8
외형선
  6
Continuous
370
    15
100
AcDbSpline
210
0.0
220
0.0
230
1.0
 70
    24
 71
     3
 72
    14
 73
    10
 74
     0
 42
0.000000001
 43
0.00000001
 40
0.0
 40
0.0
 40
0.0
 40
0.0
 40
0.25
 40
0.25
 40
0.5
 40
0.5
 40
0.75
 40
0.75
 40
1.0
 40
1.0
 40
1.0
 40
1.0
 10
-19.05000000000002
 20
-1.365859688307409
 30
0.0
 10
-19.05000000000002
 20
-1.360322754182604
 30
0.0
 10
-19.05000000000002
 20
-1.333071742396292
 30
0.0
 10
-19.05000000000002
 20
-1.231305480144591
 30
0.0
 10
-19.05000000000002
 20
-1.156747794294304
 30
0.0
 10
-19.05000000000002
 20
-0.9653492112200364
 30
0.0
 10
-19.05000000000002
 20
-0.848610299163155
 30
0.0
 10
-19.05000000000002
 20
-0.586119936037576
 30
0.0
 10
-19.05000000000002
 20
-0.4405517952559274
 30
0.0
 10
-19.05000000000002
 20
-0.28894615729051
 30
0.0
  0
LINE
  5
47A
330
1F
100
AcDbEntity
  8
0
  6
Continuous
 62
     1
370
    15
100
AcDbLine
 10
-41.27500000000001
 20
0.0000000000000005
 30
0.0
 11
-41.27500000000001
 21
-1.389062499999994
 31
0.0
  0
ENDSEC
  0
SECTION
  2
OBJECTS
  0
DICTIONARY
  5
C
330
0
100
AcDbDictionary
281
     1
  3
ACAD_GROUP
350
D
  3
ACAD_IMAGE_VARS
350
16E
  3
ACAD_LAYOUT
350
1A
  3
ACAD_MLINESTYLE
350
17
  3
ACAD_PLOTSETTINGS
350
19
  3
ACAD_PLOTSTYLENAME
350
E
  3
ACAD_SCALELIST
350
47
  3
APPDATA
350
16C
  3
DWGPROPS
350
4AB
  0
DICTIONARY
  5
260
330
2
100
AcDbDictionary
280
     1
281
     1
  3
ACAD_LAYERSTATES
360
261
  0
DICTIONARY
  5
D
102
{ACAD_REACTORS
330
C
102
}
330
C
100
AcDbDictionary
281
     1
  0
RASTERVARIABLES
  5
16E
102
{ACAD_REACTORS
330
C
102
}
330
C
100
AcDbRasterVariables
 90
        0
 70
     1
 71
     1
 72
     1
  0
DICTIONARY
  5
1A
102
{ACAD_REACTORS
330
C
102
}
330
C
100
AcDbDictionary
281
     1
  3
Layout1
350
1E
  3
Layout2
350
26
  3
Model
350
22
  0
DICTIONARY
  5
17
102
{ACAD_REACTORS
330
C
102
}
330
C
100
AcDbDictionary
281
     1
  3
Standard
350
18
  0
DICTIONARY
  5
19
102
{ACAD_REACTORS
330
C
102
}
330
C
100
AcDbDictionary
281
     1
  0
ACDBDICTIONARYWDFLT
  5
E
102
{ACAD_REACTORS
330
C
102
}
330
C
100
AcDbDictionary
281
     1
  3
Normal
350
F
100
AcDbDictionaryWithDefault
340
F
  0
DICTIONARY
  5
47
102
{ACAD_REACTORS
330
C
102
}
330
C
100
AcDbDictionary
281
     1
  3
A0
350
48
  3
A1
350
49
  3
A2
350
4A
  3
A3
350
4B
  3
A4
350
4C
  3
A5
350
4D
  3
A6
350
4E
  3
A7
350
4F
  3
A8
350
50
  3
A9
350
51
  3
B0
350
52
  3
B1
350
53
  3
B2
350
54
  3
B3
350
55
  3
B4
350
56
  3
B5
350
57
  3
B6
350
58
  3
B7
350
59
  3
B8
350
5A
  3
B9
350
5B
  3
C0
350
5C
  3
C1
350
5D
  3
C2
350
5E
  3
C3
350
5F
  3
C4
350
60
  3
C5
350
61
  3
C6
350
62
  3
C7
350
63
  3
C8
350
64
  3
C9
350
65
  3
D0
350
66
  3
D1
350
67
  3
D2
350
68
  0
DICTIONARY
  5
16C
102
{ACAD_REACTORS
330
C
102
}
330
C
100
AcDbDictionary
281
     1
  0
XRECORD
  5
4AB
102
{ACAD_REACTORS
330
C
102
}
330
C
100
AcDbXrecord
280
     1
  1
DWGPROPS COOKIE
  2

  3

  4

  6

  7

  8
12017012
  9

300
=
301
=
302
=
303
=
304
=
305
=
306
=
307
=
308
=
309
=
 40
0.0
 41
2458313.038095127
 42
2458319.980631238
  1

 90
        0
  0
DICTIONARY
  5
261
102
{ACAD_REACTORS
330
260
102
}
330
260
100
AcDbDictionary
281
     1
  0
LAYOUT
  5
1E
102
{ACAD_REACTORS
330
1A
102
}
330
1A
100
AcDbPlotSettings
  1

  2
none_device
  4

  6

 40
0.0
 41
0.0
 42
0.0
 43
0.0
 44
0.0
 45
0.0
 46
0.0
 47
0.0
 48
0.0
 49
0.0
140
0.0
141
0.0
142
1.0
143
1.0
 70
   688
 72
     1
 73
     0
 74
     5
  7

 75
    16
147
1.0
148
0.0
149
0.0
100
AcDbLayout
  1
Layout1
 70
     1
 71
     1
 10
0.0
 20
0.0
 11
420.0
 21
297.0
 12
0.0
 22
0.0
 32
0.0
 14
1.000000000000000E+20
 24
1.000000000000000E+20
 34
1.000000000000000E+20
 15
-1.000000000000000E+20
 25
-1.000000000000000E+20
 35
-1.000000000000000E+20
146
0.0
 13
0.0
 23
0.0
 33
0.0
 16
1.0
 26
0.0
 36
0.0
 17
0.0
 27
1.0
 37
0.0
 76
     0
330
1B
  0
LAYOUT
  5
26
102
{ACAD_REACTORS
330
1A
102
}
330
1A
100
AcDbPlotSettings
  1

  2
none_device
  4

  6

 40
0.0
 41
0.0
 42
0.0
 43
0.0
 44
0.0
 45
0.0
 46
0.0
 47
0.0
 48
0.0
 49
0.0
140
0.0
141
0.0
142
1.0
143
1.0
 70
   688
 72
     1
 73
     0
 74
     5
  7

 75
    16
147
1.0
148
0.0
149
0.0
100
AcDbLayout
  1
Layout2
 70
     1
 71
     2
 10
0.0
 20
0.0
 11
0.0
 21
0.0
 12
0.0
 22
0.0
 32
0.0
 14
0.0
 24
0.0
 34
0.0
 15
0.0
 25
0.0
 35
0.0
146
0.0
 13
0.0
 23
0.0
 33
0.0
 16
1.0
 26
0.0
 36
0.0
 17
0.0
 27
1.0
 37
0.0
 76
     0
330
23
  0
LAYOUT
  5
22
102
{ACAD_REACTORS
330
1A
102
}
330
1A
100
AcDbPlotSettings
  1

  2
none_device
  4
ANSI_A_(11.00_x_8.50_Inches)
  6

 40
6.35
 41
19.05
 42
6.35000508
 43
19.05000254
 44
279.4
 45
215.9
 46
57.3486820352212
 47
85.97511438692995
 48
0.0
 49
0.0
140
0.0
141
0.0
142
0.0332757097839367
143
1.0
 70
  1696
 72
     0
 73
     0
 74
     0
  7

 75
     0
147
0.0235690232323232
148
0.0
149
0.0
100
AcDbLayout
  1
Model
 70
     1
 71
     0
 10
0.0
 20
0.0
 11
420.0
 21
297.0
 12
0.0
 22
0.0
 32
0.0
 14
1.000000000000000E+20
 24
1.000000000000000E+20
 34
1.000000000000000E+20
 15
-1.000000000000000E+20
 25
-1.000000000000000E+20
 35
-1.000000000000000E+20
146
0.0
 13
0.0
 23
0.0
 33
0.0
 16
1.0
 26
0.0
 36
0.0
 17
0.0
 27
1.0
 37
0.0
 76
     0
330
1F
331
29
  0
MLINESTYLE
  5
18
102
{ACAD_REACTORS
330
17
102
}
330
17
100
AcDbMlineStyle
  2
Standard
 70
     0
  3

 62
   256
 51
90.0
 52
90.0
 71
     2
 49
0.5
 62
   256
  6
BYLAYER
 49
-0.5
 62
   256
  6
BYLAYER
  0
ACDBPLACEHOLDER
  5
F
102
{ACAD_REACTORS
330
E
102
}
330
E
  0
SCALE
  5
48
102
{ACAD_REACTORS
330
47
102
}
330
47
100
AcDbScale
 70
     0
300
1:1
140
1.0
141
1.0
290
     1
  0
SCALE
  5
49
102
{ACAD_REACTORS
330
47
102
}
330
47
100
AcDbScale
 70
     0
300
1:2
140
1.0
141
2.0
290
     0
  0
SCALE
  5
4A
102
{ACAD_REACTORS
330
47
102
}
330
47
100
AcDbScale
 70
     0
300
1:4
140
1.0
141
4.0
290
     0
  0
SCALE
  5
4B
102
{ACAD_REACTORS
330
47
102
}
330
47
100
AcDbScale
 70
     0
300
1:5
140
1.0
141
5.0
290
     0
  0
SCALE
  5
4C
102
{ACAD_REACTORS
330
47
102
}
330
47
100
AcDbScale
 70
     0
300
1:8
140
1.0
141
8.0
290
     0
  0
SCALE
  5
4D
102
{ACAD_REACTORS
330
47
102
}
330
47
100
AcDbScale
 70
     0
300
1:10
140
1.0
141
10.0
290
     0
  0
SCALE
  5
4E
102
{ACAD_REACTORS
330
47
102
}
330
47
100
AcDbScale
 70
     0
300
1:16
140
1.0
141
16.0
290
     0
  0
SCALE
  5
4F
102
{ACAD_REACTORS
330
47
102
}
330
47
100
AcDbScale
 70
     0
300
1:20
140
1.0
141
20.0
290
     0
  0
SCALE
  5
50
102
{ACAD_REACTORS
330
47
102
}
330
47
100
AcDbScale
 70
     0
300
1:30
140
1.0
141
30.0
290
     0
  0
SCALE
  5
51
102
{ACAD_REACTORS
330
47
102
}
330
47
100
AcDbScale
 70
     0
300
1:40
140
1.0
141
40.0
290
     0
  0
SCALE
  5
52
102
{ACAD_REACTORS
330
47
102
}
330
47
100
AcDbScale
 70
     0
300
1:50
140
1.0
141
50.0
290
     0
  0
SCALE
  5
53
102
{ACAD_REACTORS
330
47
102
}
330
47
100
AcDbScale
 70
     0
300
1:100
140
1.0
141
100.0
290
     0
  0
SCALE
  5
54
102
{ACAD_REACTORS
330
47
102
}
330
47
100
AcDbScale
 70
     0
300
2:1
140
2.0
141
1.0
290
     0
  0
SCALE
  5
55
102
{ACAD_REACTORS
330
47
102
}
330
47
100
AcDbScale
 70
     0
300
4:1
140
4.0
141
1.0
290
     0
  0
SCALE
  5
56
102
{ACAD_REACTORS
330
47
102
}
330
47
100
AcDbScale
 70
     0
300
8:1
140
8.0
141
1.0
290
     0
  0
SCALE
  5
57
102
{ACAD_REACTORS
330
47
102
}
330
47
100
AcDbScale
 70
     0
300
10:1
140
10.0
141
1.0
290
     0
  0
SCALE
  5
58
102
{ACAD_REACTORS
330
47
102
}
330
47
100
AcDbScale
 70
     0
300
100:1
140
100.0
141
1.0
290
     0
  0
SCALE
  5
59
102
{ACAD_REACTORS
330
47
102
}
330
47
100
AcDbScale
 70
     0
300
1/128" = 1'-0"
140
0.0078125
141
12.0
290
     0
  0
SCALE
  5
5A
102
{ACAD_REACTORS
330
47
102
}
330
47
100
AcDbScale
 70
     0
300
1/64" = 1'-0"
140
0.015625
141
12.0
290
     0
  0
SCALE
  5
5B
102
{ACAD_REACTORS
330
47
102
}
330
47
100
AcDbScale
 70
     0
300
1/32" = 1'-0"
140
0.03125
141
12.0
290
     0
  0
SCALE
  5
5C
102
{ACAD_REACTORS
330
47
102
}
330
47
100
AcDbScale
 70
     0
300
1/16" = 1'-0"
140
0.0625
141
12.0
290
     0
  0
SCALE
  5
5D
102
{ACAD_REACTORS
330
47
102
}
330
47
100
AcDbScale
 70
     0
300
3/32" = 1'-0"
140
0.09375
141
12.0
290
     0
  0
SCALE
  5
5E
102
{ACAD_REACTORS
330
47
102
}
330
47
100
AcDbScale
 70
     0
300
1/8" = 1'-0"
140
0.125
141
12.0
290
     0
  0
SCALE
  5
5F
102
{ACAD_REACTORS
330
47
102
}
330
47
100
AcDbScale
 70
     0
300
3/16" = 1'-0"
140
0.1875
141
12.0
290
     0
  0
SCALE
  5
60
102
{ACAD_REACTORS
330
47
102
}
330
47
100
AcDbScale
 70
     0
300
1/4" = 1'-0"
140
0.25
141
12.0
290
     0
  0
SCALE
  5
61
102
{ACAD_REACTORS
330
47
102
}
330
47
100
AcDbScale
 70
     0
300
3/8" = 1'-0"
140
0.375
141
12.0
290
     0
  0
SCALE
  5
62
102
{ACAD_REACTORS
330
47
102
}
330
47
100
AcDbScale
 70
     0
300
1/2" = 1'-0"
140
0.5
141
12.0
290
     0
  0
SCALE
  5
63
102
{ACAD_REACTORS
330
47
102
}
330
47
100
AcDbScale
 70
     0
300
3/4" = 1'-0"
140
0.75
141
12.0
290
     0
  0
SCALE
  5
64
102
{ACAD_REACTORS
330
47
102
}
330
47
100
AcDbScale
 70
     0
300
1" = 1'-0"
140
1.0
141
12.0
290
     0
  0
SCALE
  5
65
102
{ACAD_REACTORS
330
47
102
}
330
47
100
AcDbScale
 70
     0
300
1-1/2" = 1'-0"
140
1.5
141
12.0
290
     0
  0
SCALE
  5
66
102
{ACAD_REACTORS
330
47
102
}
330
47
100
AcDbScale
 70
     0
300
3" = 1'-0"
140
3.0
141
12.0
290
     0
  0
SCALE
  5
67
102
{ACAD_REACTORS
330
47
102
}
330
47
100
AcDbScale
 70
     0
300
6" = 1'-0"
140
6.0
141
12.0
290
     0
  0
SCALE
  5
68
102
{ACAD_REACTORS
330
47
102
}
330
47
100
AcDbScale
 70
     0
300
1'-0" = 1'-0"
140
12.0
141
12.0
290
     0
  0
ENDSEC
  0
EOF
