  0
SECTION
  2
HEADER
  9
$ACADVER
  1
AC1015
  9
$ACADMAINTVER
 70
     6
  9
$DWGCODEPAGE
  3
ANSI_949
  9
$INSBASE
 10
0.0
 20
0.0
 30
0.0
  9
$EXTMIN
 10
1.000000000000000E+20
 20
1.000000000000000E+20
 30
1.000000000000000E+20
  9
$EXTMAX
 10
-1.000000000000000E+20
 20
-1.000000000000000E+20
 30
-1.000000000000000E+20
  9
$LIMMIN
 10
0.0
 20
0.0
  9
$LIMMAX
 10
420.0
 20
297.0
  9
$ORTHOMODE
 70
     1
  9
$REGENMODE
 70
     1
  9
$FILLMODE
 70
     1
  9
$QTEXTMODE
 70
     0
  9
$MIRRTEXT
 70
     1
  9
$LTSCALE
 40
1.0
  9
$ATTMODE
 70
     1
  9
$TEXTSIZE
 40
3.5
  9
$TRACEWID
 40
1.0
  9
$TEXTSTYLE
  7
Standard
  9
$CLAYER
  8
0
  9
$CELTYPE
  6
ByLayer
  9
$CECOLOR
 62
   256
  9
$CELTSCALE
 40
1.0
  9
$DISPSILH
 70
     0
  9
$DIMSCALE
 40
1.0
  9
$DIMASZ
 40
3.302
  9
$DIMEXO
 40
1.0
  9
$DIMDLI
 40
3.75
  9
$DIMRND
 40
0.0
  9
$DIMDLE
 40
0.0
  9
$DIMEXE
 40
1.0
  9
$DIMTP
 40
0.0
  9
$DIMTM
 40
0.0
  9
$DIMTXT
 40
3.5
  9
$DIMCEN
 40
2.5
  9
$DIMTSZ
 40
0.0
  9
$DIMTOL
 70
     0
  9
$DIMLIM
 70
     0
  9
$DIMTIH
 70
     1
  9
$DIMTOH
 70
     1
  9
$DIMSE1
 70
     0
  9
$DIMSE2
 70
     0
  9
$DIMTAD
 70
     1
  9
$DIMZIN
 70
     0
  9
$DIMBLK
  1

  9
$DIMASO
 70
     1
  9
$DIMSHO
 70
     1
  9
$DIMPOST
  1

  9
$DIMAPOST
  1

  9
$DIMALT
 70
     0
  9
$DIMALTD
 70
     3
  9
$DIMALTF
 40
0.0393700787401575
  9
$DIMLFAC
 40
1.0
  9
$DIMTOFL
 70
     1
  9
$DIMTVP
 40
0.0
  9
$DIMTIX
 70
     0
  9
$DIMSOXD
 70
     0
  9
$DIMSAH
 70
     0
  9
$DIMBLK1
  1

  9
$DIMBLK2
  1

  9
$DIMSTYLE
  2
ISO-25
  9
$DIMCLRD
 70
     0
  9
$DIMCLRE
 70
     0
  9
$DIMCLRT
 70
     0
  9
$DIMTFAC
 40
1.0
  9
$DIMGAP
 40
1.524
  9
$DIMJUST
 70
     0
  9
$DIMSD1
 70
     0
  9
$DIMSD2
 70
     0
  9
$DIMTOLJ
 70
     0
  9
$DIMTZIN
 70
     0
  9
$DIMALTZ
 70
     0
  9
$DIMALTTZ
 70
     0
  9
$DIMUPT
 70
     0
  9
$DIMDEC
 70
     2
  9
$DIMTDEC
 70
     2
  9
$DIMALTU
 70
     2
  9
$DIMALTTD
 70
     3
  9
$DIMTXSTY
  7
Standard
  9
$DIMAUNIT
 70
     0
  9
$DIMADEC
 70
     2
  9
$DIMALTRND
 40
0.0
  9
$DIMAZIN
 70
     0
  9
$DIMDSEP
 70
    44
  9
$DIMATFIT
 70
     3
  9
$DIMFRAC
 70
     0
  9
$DIMLDRBLK
  1

  9
$DIMLUNIT
 70
     2
  9
$DIMLWD
 70
    -2
  9
$DIMLWE
 70
    -2
  9
$DIMTMOVE
 70
     0
  9
$LUNITS
 70
     2
  9
$LUPREC
 70
     2
  9
$SKETCHINC
 40
1.0
  9
$FILLETRAD
 40
10.0
  9
$AUNITS
 70
     0
  9
$AUPREC
 70
     2
  9
$MENU
  1
.
  9
$ELEVATION
 40
0.0
  9
$PELEVATION
 40
0.0
  9
$THICKNESS
 40
0.0
  9
$LIMCHECK
 70
     0
  9
$CHAMFERA
 40
0.0
  9
$CHAMFERB
 40
0.0
  9
$CHAMFERC
 40
0.0
  9
$CHAMFERD
 40
0.0
  9
$SKPOLY
 70
     0
  9
$TDCREATE
 40
2458313.412883333
  9
$TDUCREATE
 40
2458313.037883333
  9
$TDUPDATE
 40
2458320.357615891
  9
$TDUUPDATE
 40
2458319.982615891
  9
$TDINDWG
 40
0.0019789352
  9
$TDUSRTIMER
 40
2458319.980637338
  9
$USRTIMER
 70
     1
  9
$ANGBASE
 50
0.0
  9
$ANGDIR
 70
     0
  9
$PDMODE
 70
     0
  9
$PDSIZE
 40
-1.0
  9
$PLINEWID
 40
0.0
  9
$SPLFRAME
 70
     0
  9
$SPLINETYPE
 70
     6
  9
$SPLINESEGS
 70
     8
  9
$HANDSEED
  5
4BA
  9
$SURFTAB1
 70
     6
  9
$SURFTAB2
 70
     6
  9
$SURFTYPE
 70
     6
  9
$SURFU
 70
     6
  9
$SURFV
 70
     6
  9
$UCSBASE
  2

  9
$UCSNAME
  2

  9
$UCSORG
 10
0.0
 20
0.0
 30
0.0
  9
$UCSXDIR
 10
1.0
 20
0.0
 30
0.0
  9
$UCSYDIR
 10
0.0
 20
1.0
 30
0.0
  9
$UCSORTHOREF
  2

  9
$UCSORTHOVIEW
 70
     0
  9
$UCSORGTOP
 10
0.0
 20
0.0
 30
0.0
  9
$UCSORGBOTTOM
 10
0.0
 20
0.0
 30
0.0
  9
$UCSORGLEFT
 10
0.0
 20
0.0
 30
0.0
  9
$UCSORGRIGHT
 10
0.0
 20
0.0
 30
0.0
  9
$UCSORGFRONT
 10
0.0
 20
0.0
 30
0.0
  9
$UCSORGBACK
 10
0.0
 20
0.0
 30
0.0
  9
$PUCSBASE
  2

  9
$PUCSNAME
  2

  9
$PUCSORG
 10
0.0
 20
0.0
 30
0.0
  9
$PUCSXDIR
 10
1.0
 20
0.0
 30
0.0
  9
$PUCSYDIR
 10
0.0
 20
1.0
 30
0.0
  9
$PUCSORTHOREF
  2

  9
$PUCSORTHOVIEW
 70
     0
  9
$PUCSORGTOP
 10
0.0
 20
0.0
 30
0.0
  9
$PUCSORGBOTTOM
 10
0.0
 20
0.0
 30
0.0
  9
$PUCSORGLEFT
 10
0.0
 20
0.0
 30
0.0
  9
$PUCSORGRIGHT
 10
0.0
 20
0.0
 30
0.0
  9
$PUCSORGFRONT
 10
0.0
 20
0.0
 30
0.0
  9
$PUCSORGBACK
 10
0.0
 20
0.0
 30
0.0
  9
$USERI1
 70
     0
  9
$USERI2
 70
     0
  9
$USERI3
 70
     0
  9
$USERI4
 70
     0
  9
$USERI5
 70
     0
  9
$USERR1
 40
0.0
  9
$USERR2
 40
0.0
  9
$USERR3
 40
0.0
  9
$USERR4
 40
0.0
  9
$USERR5
 40
0.0
  9
$WORLDVIEW
 70
     1
  9
$SHADEDGE
 70
     3
  9
$SHADEDIF
 70
    70
  9
$TILEMODE
 70
     1
  9
$MAXACTVP
 70
    64
  9
$PINSBASE
 10
0.0
 20
0.0
 30
0.0
  9
$PLIMCHECK
 70
     0
  9
$PEXTMIN
 10
1.000000000000000E+20
 20
1.000000000000000E+20
 30
1.000000000000000E+20
  9
$PEXTMAX
 10
-1.000000000000000E+20
 20
-1.000000000000000E+20
 30
-1.000000000000000E+20
  9
$PLIMMIN
 10
0.0
 20
0.0
  9
$PLIMMAX
 10
0.0
 20
0.0
  9
$UNITMODE
 70
     0
  9
$VISRETAIN
 70
     1
  9
$PLINEGEN
 70
     0
  9
$PSLTSCALE
 70
     1
  9
$TREEDEPTH
 70
  3020
  9
$CMLSTYLE
  2
Standard
  9
$CMLJUST
 70
     0
  9
$CMLSCALE
 40
20.0
  9
$PROXYGRAPHICS
 70
     1
  9
$MEASUREMENT
 70
     1
  9
$CELWEIGHT
370
    -1
  9
$ENDCAPS
280
     0
  9
$JOINSTYLE
280
     0
  9
$LWDISPLAY
290
     1
  9
$INSUNITS
 70
     4
  9
$HYPERLINKBASE
  1

  9
$STYLESHEET
  1

  9
$XEDIT
290
     1
  9
$CEPSNTYPE
380
     0
  9
$PSTYLEMODE
290
     1
  9
$FINGERPRINTGUID
  2
{211C14C3-F665-4DA4-AA6F-074CF1C12EB5}
  9
$VERSIONGUID
  2
{FAEB1C32-E019-11D5-929B-00C0DF256EC4}
  9
$EXTNAMES
290
     1
  9
$PSVPSCALE
 40
0.0
  9
$OLESTARTUP
290
     0
  0
ENDSEC
  0
SECTION
  2
CLASSES
  0
CLASS
  1
ACDBDICTIONARYWDFLT
  2
AcDbDictionaryWithDefault
  3
ObjectDBX Classes
 90
        0
280
     0
281
     0
  0
CLASS
  1
VISUALSTYLE
  2
AcDbVisualStyle
  3
ObjectDBX Classes
 90
     4095
280
     0
281
     0
  0
CLASS
  1
MATERIAL
  2
AcDbMaterial
  3
ObjectDBX Classes
 90
     1153
280
     0
281
     0
  0
CLASS
  1
SCALE
  2
AcDbScale
  3
ObjectDBX Classes
 90
     1153
280
     0
281
     0
  0
CLASS
  1
SUN
  2
AcDbSun
  3
SCENEOE
 90
     1153
280
     0
281
     0
  0
CLASS
  1
ACDBPLACEHOLDER
  2
AcDbPlaceHolder
  3
ObjectDBX Classes
 90
        0
280
     0
281
     0
  0
CLASS
  1
LAYOUT
  2
AcDbLayout
  3
ObjectDBX Classes
 90
        0
280
     0
281
     0
  0
CLASS
  1
TABLESTYLE
  2
AcDbTableStyle
  3
ObjectDBX Classes
 90
     4095
280
     0
281
     0
  0
CLASS
  1
MLEADERSTYLE
  2
AcDbMLeaderStyle
  3
ACDB_MLEADERSTYLE_CLASS
 90
     4095
280
     0
281
     0
  0
CLASS
  1
RASTERVARIABLES
  2
AcDbRasterVariables
  3
ISM
 90
        0
280
     0
281
     0
  0
ENDSEC
  0
SECTION
  2
TABLES
  0
TABLE
  2
VPORT
  5
8
330
0
100
AcDbSymbolTable
 70
     1
  0
VPORT
  5
29
330
8
100
AcDbSymbolTableRecord
100
AcDbViewportTableRecord
  2
*Active
 70
     0
 10
0.0
 20
0.0
 11
1.0
 21
1.0
 12
-2.848162800366794
 22
2.82962337433738
 13
0.0
 23
0.0
 14
10.0
 24
10.0
 15
10.0
 25
10.0
 16
0.0
 26
0.0
 36
1.0
 17
0.0
 27
0.0
 37
0.0
 40
146.8246864942186
 41
1.632093933463796
 42
50.0
 43
0.0
 44
0.0
 50
0.0
 51
0.0
 71
    16
 72
  2000
 73
     1
 74
     3
 75
     0
 76
     0
 77
     0
 78
     0
281
     0
 65
     1
110
0.0
120
0.0
130
0.0
111
1.0
121
0.0
131
0.0
112
0.0
122
1.0
132
0.0
 79
     0
146
0.0
  0
ENDTAB
  0
TABLE
  2
LTYPE
  5
5
330
0
100
AcDbSymbolTable
 70
     6
  0
LTYPE
  5
14
330
5
100
AcDbSymbolTableRecord
100
AcDbLinetypeTableRecord
  2
ByBlock
 70
     0
  3

 72
    65
 73
     0
 40
0.0
  0
LTYPE
  5
15
330
5
100
AcDbSymbolTableRecord
100
AcDbLinetypeTableRecord
  2
ByLayer
 70
     0
  3

 72
    65
 73
     0
 40
0.0
  0
LTYPE
  5
16
330
5
100
AcDbSymbolTableRecord
100
AcDbLinetypeTableRecord
  2
Continuous
 70
     0
  3
Solid line
 72
    65
 73
     0
 40
0.0
  0
LTYPE
  5
6A
330
5
100
AcDbSymbolTableRecord
100
AcDbLinetypeTableRecord
  2
HIDDEN
 70
     0
  3
Hidden __ __ __ __ __ __ __ __ __ __ __ __ __ __
 72
    65
 73
     2
 40
1.905
 49
1.27
 74
     0
 49
-0.635
 74
     0
  0
LTYPE
  5
6B
330
5
100
AcDbSymbolTableRecord
100
AcDbLinetypeTableRecord
  2
PHANTOM
 70
     0
  3
Phantom ______  __  __  ______  __  __  ______
 72
    65
 73
     6
 40
12.7
 49
6.35
 74
     0
 49
-1.27
 74
     0
 49
1.27
 74
     0
 49
-1.27
 74
     0
 49
1.27
 74
     0
 49
-1.27
 74
     0
  0
LTYPE
  5
6C
330
5
100
AcDbSymbolTableRecord
100
AcDbLinetypeTableRecord
  2
CENTER
 70
     0
  3
Center ____ _ ____ _ ____ _ ____ _ ____ _ ____
 72
    65
 73
     4
 40
10.16
 49
6.35
 74
     0
 49
-1.27
 74
     0
 49
1.27
 74
     0
 49
-1.27
 74
     0
  0
LTYPE
  5
6D
330
5
100
AcDbSymbolTableRecord
100
AcDbLinetypeTableRecord
  2
CENTERX2
 70
     0
  3
Center (2x) ________  __  ________  __  _____
 72
    65
 73
     4
 40
20.32
 49
12.7
 74
     0
 49
-2.54
 74
     0
 49
2.54
 74
     0
 49
-2.54
 74
     0
  0
LTYPE
  5
6E
330
5
100
AcDbSymbolTableRecord
100
AcDbLinetypeTableRecord
  2
DOT2
 70
     0
  3
Dot (.5x) ........................................
 72
    65
 73
     2
 40
0.635
 49
0.0
 74
     0
 49
-0.635
 74
     0
  0
ENDTAB
  0
TABLE
  2
LAYER
  5
2
102
{ACAD_XDICTIONARY
360
268
102
}
330
0
100
AcDbSymbolTable
 70
    18
  0
LAYER
  5
10
330
2
100
AcDbSymbolTableRecord
100
AcDbLayerTableRecord
  2
0
 70
     0
 62
     7
  6
Continuous
370
    -3
390
F
  0
LAYER
  5
6F
330
2
100
AcDbSymbolTableRecord
100
AcDbLayerTableRecord
  2
FORMAT
 70
     0
 62
     2
  6
Continuous
370
    -3
390
F
  0
LAYER
  5
70
330
2
100
AcDbSymbolTableRecord
100
AcDbLayerTableRecord
  2
외형선
 70
     0
 62
     4
  6
Continuous
370
    30
390
F
  0
LAYER
  5
71
330
2
100
AcDbSymbolTableRecord
100
AcDbLayerTableRecord
  2
숨은선
 70
     0
 62
     2
  6
HIDDEN
370
    15
390
F
  0
LAYER
  5
72
330
2
100
AcDbSymbolTableRecord
100
AcDbLayerTableRecord
  2
중심선
 70
     0
 62
     1
  6
CENTERX2
370
    -3
390
F
  0
LAYER
  5
73
330
2
100
AcDbSymbolTableRecord
100
AcDbLayerTableRecord
  2
파단선
 70
     0
 62
     4
  6
Continuous
370
    -3
390
F
  0
LAYER
  5
74
330
2
100
AcDbSymbolTableRecord
100
AcDbLayerTableRecord
  2
해칭선
 70
     0
 62
   100
  6
Continuous
370
    -3
390
F
  0
LAYER
  5
75
330
2
100
AcDbSymbolTableRecord
100
AcDbLayerTableRecord
  2
가는실선
 70
     0
 62
     4
  6
Continuous
370
    -3
390
F
  0
LAYER
  5
76
330
2
100
AcDbSymbolTableRecord
100
AcDbLayerTableRecord
  2
치수_보조선
 70
     0
 62
     4
  6
Continuous
370
    -3
390
F
  0
LAYER
  5
77
330
2
100
AcDbSymbolTableRecord
100
AcDbLayerTableRecord
  2
치수문자_일반주서
 70
     0
 62
     7
  6
Continuous
370
    15
390
F
  0
LAYER
  5
78
330
2
100
AcDbSymbolTableRecord
100
AcDbLayerTableRecord
  2
개별주서
 70
     0
 62
   100
  6
Continuous
370
    30
390
F
  0
LAYER
  5
79
330
2
100
AcDbSymbolTableRecord
100
AcDbLayerTableRecord
  2
중간선
 70
     0
 62
     2
  6
Continuous
370
    15
390
F
  0
LAYER
  5
7A
330
2
100
AcDbSymbolTableRecord
100
AcDbLayerTableRecord
  2
윤곽선
 70
     0
 62
     3
  6
Continuous
370
    40
390
F
  0
LAYER
  5
7B
330
2
100
AcDbSymbolTableRecord
100
AcDbLayerTableRecord
  2
중심마크
 70
     0
 62
   100
  6
Continuous
370
    30
390
F
  0
LAYER
  5
7C
330
2
100
AcDbSymbolTableRecord
100
AcDbLayerTableRecord
  2
가상선
 70
     0
 62
     4
  6
PHANTOM
370
    -3
390
F
  0
LAYER
  5
7D
330
2
100
AcDbSymbolTableRecord
100
AcDbLayerTableRecord
  2
특수지정선
 70
     0
 62
     5
  6
CENTERX2
370
    60
390
F
  0
LAYER
  5
7E
330
2
100
AcDbSymbolTableRecord
100
AcDbLayerTableRecord
  2
참조1
 70
     0
 62
    -4
  6
Continuous
370
    -3
390
F
  0
LAYER
  5
170
330
2
100
AcDbSymbolTableRecord
100
AcDbLayerTableRecord
  2
Defpoints
 70
     0
 62
     7
  6
Continuous
290
     0
370
    -3
390
F
  0
ENDTAB
  0
TABLE
  2
STYLE
  5
3
330
0
100
AcDbSymbolTable
 70
     2
  0
STYLE
  5
11
330
3
100
AcDbSymbolTableRecord
100
AcDbTextStyleTableRecord
  2
Standard
 70
     0
 40
0.0
 41
1.0
 50
0.0
 71
     0
 42
3.5
  3
txt
  4

  0
STYLE
  5
94
330
3
100
AcDbSymbolTableRecord
100
AcDbTextStyleTableRecord
  2
SLDTEXTSTYLE0
 70
     0
 40
0.0
 41
0.75
 50
0.0
 71
     0
 42
3.5
  3
TXT
  4

  0
ENDTAB
  0
TABLE
  2
VIEW
  5
6
330
0
100
AcDbSymbolTable
 70
     0
  0
ENDTAB
  0
TABLE
  2
UCS
  5
7
330
0
100
AcDbSymbolTable
 70
     0
  0
ENDTAB
  0
TABLE
  2
APPID
  5
9
330
0
100
AcDbSymbolTable
 70
     1
  0
APPID
  5
12
330
9
100
AcDbSymbolTableRecord
100
AcDbRegAppTableRecord
  2
ACAD
 70
     0
  0
ENDTAB
  0
TABLE
  2
DIMSTYLE
  5
A
330
0
100
AcDbSymbolTable
 70
     3
100
AcDbDimStyleTable
  0
DIMSTYLE
105
27
330
A
100
AcDbSymbolTableRecord
100
AcDbDimStyleTableRecord
  2
ISO-25
 70
     0
 41
2.5
 42
0.625
 43
3.75
 44
1.25
 73
     0
 74
     0
 77
     1
 78
     8
140
2.5
141
2.5
143
0.03937007874016
147
0.625
171
     3
172
     1
178
     0
271
     2
272
     2
274
     3
278
    44
283
     0
284
     8
340
11
  0
DIMSTYLE
105
ED
102
{ACAD_REACTORS
330
EC
330
101
330
1E0
330
1ED
330
1FD
330
20D
330
115
330
12A
330
3E1
330
3F1
330
401
102
}
330
A
100
AcDbSymbolTableRecord
100
AcDbDimStyleTableRecord
  2
SLDDIMSTYLE0
 70
     0
 41
3.302
 44
0.0
 45
0.000000001
 73
     0
 74
     0
 77
     1
 78
    12
 79
     3
140
3.5
143
0.0393700787401575
147
0.875
148
0.000000001
170
     1
172
     1
173
     1
178
     0
271
     2
272
     2
276
     2
284
    12
289
     0
340
94
  0
DIMSTYLE
105
116
330
A
100
AcDbSymbolTableRecord
100
AcDbDimStyleTableRecord
  2
SLDDIMSTYLE1
 70
     0
 41
3.302
 44
0.0
 45
0.000000001
 73
     0
 74
     0
 77
     1
 78
    12
 79
     3
140
3.5
143
0.0393700787401575
147
0.875
148
0.000000001
170
     1
173
     1
178
     0
271
     2
272
     2
276
     2
284
    12
340
94
  0
ENDTAB
  0
TABLE
  2
BLOCK_RECORD
  5
1
330
0
100
AcDbSymbolTable
 70
    23
  0
BLOCK_RECORD
  5
1F
330
1
100
AcDbSymbolTableRecord
100
AcDbBlockTableRecord
  2
*Model_Space
340
22
  0
BLOCK_RECORD
  5
1B
330
1
100
AcDbSymbolTableRecord
100
AcDbBlockTableRecord
  2
*Paper_Space
340
1E
  0
BLOCK_RECORD
  5
23
330
1
100
AcDbSymbolTableRecord
100
AcDbBlockTableRecord
  2
*Paper_Space0
340
26
  0
BLOCK_RECORD
  5
7F
330
1
100
AcDbSymbolTableRecord
100
AcDbBlockTableRecord
  2
블럭10
340
0
102
{BLKREFS
331
E5
102
}
  0
BLOCK_RECORD
  5
EE
330
1
100
AcDbSymbolTableRecord
100
AcDbBlockTableRecord
  2
_D
340
0
  0
BLOCK_RECORD
  5
102
330
1
100
AcDbSymbolTableRecord
100
AcDbBlockTableRecord
  2
_D_1
340
0
  0
BLOCK_RECORD
  5
117
330
1
100
AcDbSymbolTableRecord
100
AcDbBlockTableRecord
  2
_D_2
340
0
  0
BLOCK_RECORD
  5
12B
330
1
100
AcDbSymbolTableRecord
100
AcDbBlockTableRecord
  2
_D_3
340
0
  0
BLOCK_RECORD
  5
144
330
1
100
AcDbSymbolTableRecord
100
AcDbBlockTableRecord
  2
SW_DOWELSYMBOL_0
340
0
102
{BLKREFS
331
14A
331
21A
331
0
331
40E
331
0
102
}
  0
BLOCK_RECORD
  5
26C
330
1
100
AcDbSymbolTableRecord
100
AcDbBlockTableRecord
  2
*D8
340
0
  0
BLOCK_RECORD
  5
278
330
1
100
AcDbSymbolTableRecord
100
AcDbBlockTableRecord
  2
*D9
340
0
  0
BLOCK_RECORD
  5
287
330
1
100
AcDbSymbolTableRecord
100
AcDbBlockTableRecord
  2
*D10
340
0
  0
BLOCK_RECORD
  5
296
330
1
100
AcDbSymbolTableRecord
100
AcDbBlockTableRecord
  2
*D11
340
0
  0
BLOCK_RECORD
  5
336
330
1
100
AcDbSymbolTableRecord
100
AcDbBlockTableRecord
  2
*D12
340
0
  0
BLOCK_RECORD
  5
342
330
1
100
AcDbSymbolTableRecord
100
AcDbBlockTableRecord
  2
*D13
340
0
  0
BLOCK_RECORD
  5
351
330
1
100
AcDbSymbolTableRecord
100
AcDbBlockTableRecord
  2
*D14
340
0
  0
BLOCK_RECORD
  5
360
330
1
100
AcDbSymbolTableRecord
100
AcDbBlockTableRecord
  2
*D15
340
0
  0
BLOCK_RECORD
  5
417
330
1
100
AcDbSymbolTableRecord
100
AcDbBlockTableRecord
  2
*D17
340
0
  0
BLOCK_RECORD
  5
426
330
1
100
AcDbSymbolTableRecord
100
AcDbBlockTableRecord
  2
*D18
340
0
  0
BLOCK_RECORD
  5
435
330
1
100
AcDbSymbolTableRecord
100
AcDbBlockTableRecord
  2
*D19
340
0
  0
BLOCK_RECORD
  5
48F
330
1
100
AcDbSymbolTableRecord
100
AcDbBlockTableRecord
  2
*D20
340
0
  0
BLOCK_RECORD
  5
49E
330
1
100
AcDbSymbolTableRecord
100
AcDbBlockTableRecord
  2
*D21
340
0
  0
BLOCK_RECORD
  5
4AD
330
1
100
AcDbSymbolTableRecord
100
AcDbBlockTableRecord
  2
*D22
340
0
  0
ENDTAB
  0
ENDSEC
  0
SECTION
  2
BLOCKS
  0
BLOCK
  5
20
330
1F
100
AcDbEntity
  8
0
100
AcDbBlockBegin
  2
*Model_Space
 70
     0
 10
0.0
 20
0.0
 30
0.0
  3
*Model_Space
  1
*Model_Space
  0
ENDBLK
  5
21
330
1F
100
AcDbEntity
  8
0
100
AcDbBlockEnd
  0
BLOCK
  5
1C
330
1B
100
AcDbEntity
 67
     1
  8
0
100
AcDbBlockBegin
  2
*Paper_Space
 70
     0
 10
0.0
 20
0.0
 30
0.0
  3
*Paper_Space
  1
*Paper_Space
  0
ENDBLK
  5
1D
330
1B
100
AcDbEntity
 67
     1
  8
0
100
AcDbBlockEnd
  0
BLOCK
  5
24
330
23
100
AcDbEntity
  8
0
100
AcDbBlockBegin
  2
*Paper_Space0
 70
     0
 10
0.0
 20
0.0
 30
0.0
  3
*Paper_Space0
  1
*Paper_Space0
  0
ENDBLK
  5
25
330
23
100
AcDbEntity
  8
0
100
AcDbBlockEnd
  0
BLOCK
  5
80
330
7F
100
AcDbEntity
  8
0
100
AcDbBlockBegin
  2
블럭10
 70
     2
 10
0.0
 20
0.0
 30
0.0
  3
블럭10
  1
블럭10
  0
ELLIPSE
  5
82
330
7F
100
AcDbEntity
  8
중심선
100
AcDbEllipse
 10
20.54032771741204
 20
12.0471743016438
 30
0.0
 11
6.600054785286829
 21
-1.261213355974178E-13
 31
0.0
210
0.0
220
0.0
230
1.0
 40
0.636358354079598
 41
0.9219305317359503
 42
6.513795318482858
  0
ELLIPSE
  5
83
330
7F
100
AcDbEntity
  8
중심선
100
AcDbEllipse
 10
20.54032771746488
 20
12.04717430159265
 30
0.0
 11
3.960054785062283
 21
1.540847449632565E-10
 31
0.0
210
0.0
220
0.0
230
1.0
 40
0.3939339440162632
 41
1.131841032648279
 42
5.62031148352944
  0
LINE
  5
84
330
7F
100
AcDbEntity
  8
중심선
100
AcDbLine
 10
2.268634060543552
 20
16.24717430164393
 30
0.0
 11
5.714909304380834
 21
16.24717430164393
 31
0.0
  0
LINE
  5
85
330
7F
100
AcDbEntity
  8
중심선
100
AcDbLine
 10
5.245725140726316
 20
7.84717430164391
 30
0.0
 11
8.692000384563599
 21
7.84717430164391
 31
0.0
  0
LINE
  5
86
330
7F
100
AcDbEntity
  8
중심선
100
AcDbLine
 10
15.74043728645272
 20
16.24717430164393
 30
0.0
 11
8.692000384563599
 21
7.84717430164391
 31
0.0
  0
LINE
  5
87
330
7F
100
AcDbEntity
  8
중심선
100
AcDbLine
 10
0.1404042013395286
 20
13.71084872107135
 30
0.0
 11
3.58671253028996
 21
13.71088815037384
 31
0.0
  0
LINE
  5
88
330
7F
100
AcDbEntity
  8
중심선
100
AcDbLine
 10
2.750260043222114
 20
10.84717430164391
 30
0.0
 11
6.196535287059397
 21
10.84717430164391
 31
0.0
  0
LINE
  5
89
330
7F
100
AcDbEntity
  8
중심선
100
AcDbLine
 10
12.29416204261559
 20
16.24717430164393
 30
0.0
 11
5.245725140726316
 21
7.84717430164391
 31
0.0
  0
LINE
  5
8A
330
7F
100
AcDbEntity
  8
중심선
100
AcDbLine
 10
10.72767329541681
 20
16.24717430164393
 30
0.0
 11
6.196535287059397
 21
10.84717430164391
 31
0.0
  0
LINE
  5
8B
330
7F
100
AcDbEntity
  8
중심선
100
AcDbLine
 10
7.28139805157953
 20
16.24717430164393
 30
0.0
 11
2.750260043222114
 21
10.84717430164391
 31
0.0
  0
LINE
  5
8C
330
7F
100
AcDbEntity
  8
중심선
100
AcDbLine
 10
5.714909304380834
 20
16.24717430164393
 30
0.0
 11
3.58671253028996
 21
13.71088815037384
 31
0.0
  0
LINE
  5
8D
330
7F
100
AcDbEntity
  8
중심선
100
AcDbLine
 10
2.268634060543552
 20
16.24717430164393
 30
0.0
 11
0.1404042013395286
 21
13.71084872107135
 31
0.0
  0
LINE
  5
8E
330
7F
100
AcDbEntity
  8
중심선
100
AcDbLine
 10
7.28139805157953
 20
16.24717430164393
 30
0.0
 11
10.72767329541681
 21
16.24717430164393
 31
0.0
  0
LINE
  5
8F
330
7F
100
AcDbEntity
  8
중심선
100
AcDbLine
 10
12.29416204261559
 20
16.24717430164393
 30
0.0
 11
15.74043728645272
 21
16.24717430164393
 31
0.0
  0
LINE
  5
90
330
7F
100
AcDbEntity
  8
중심선
100
AcDbLine
 10
19.22036997980202
 20
11.08717430171403
 30
0.0
 11
23.66174974927406
 21
11.08717430171406
 31
0.0
  0
LINE
  5
91
330
7F
100
AcDbEntity
  8
중심선
100
AcDbLine
 10
19.22039502424796
 20
13.00717430171391
 30
0.0
 11
19.22036997980202
 21
11.08717430171403
 31
0.0
  0
LINE
  5
92
330
7F
100
AcDbEntity
  8
중심선
100
AcDbLine
 10
19.22039502424796
 20
13.00717430171391
 30
0.0
 11
26.96566020931264
 21
13.00717430171391
 31
0.0
  0
LINE
  5
93
330
7F
100
AcDbEntity
  8
중심선
100
AcDbLine
 10
22.22332737316547
 20
13.45928029700563
 30
0.0
 11
24.52862924686651
 21
15.39360700705356
 31
0.0
  0
ATTDEF
  5
95
330
7F
100
AcDbEntity
  8
FORMAT
 62
     2
100
AcDbText
 10
4.408487351596664
 20
2.075366912832191
 30
0.0
 40
4.233333333333333
  1
E2005009
 41
0.75
  7
SLDTEXTSTYLE0
 11
4.408487351596664
 21
-0.0412997538344756
 31
0.0
100
AcDbAttributeDefinition
  3

  2
AUTOATTR0
 70
     0
 74
     1
  0
ENDBLK
  5
81
330
7F
100
AcDbEntity
  8
0
100
AcDbBlockEnd
  0
BLOCK
  5
EF
330
EE
100
AcDbEntity
  8
0
100
AcDbBlockBegin
  2
_D
 70
     0
 10
0.0
 20
0.0
 30
0.0
  3
_D
  1
_D
  0
LINE
  5
F1
330
EE
100
AcDbEntity
  8
치수문자_일반주서
 62
     0
370
    -2
100
AcDbLine
 10
-17.47826350361917
 20
2.381249999999995
 30
0.0
 11
-52.68750000000001
 21
2.381249999999864
 31
0.0
  0
LINE
  5
F2
330
EE
100
AcDbEntity
  8
치수문자_일반주서
 62
     0
370
    -2
100
AcDbLine
 10
-17.47826350361917
 20
-2.381250000000001
 30
0.0
 11
-52.6875
 21
-2.381250000000132
 31
0.0
  0
LINE
  5
F3
330
EE
100
AcDbEntity
  8
치수문자_일반주서
 62
     0
370
    -2
100
AcDbLine
 10
-52.68750000000001
 20
-0.9207500000001358
 30
0.0
 11
-52.68750000000001
 21
0.9207499999998672
 31
0.0
  0
SOLID
  5
F4
330
EE
100
AcDbEntity
  8
치수문자_일반주서
 62
     0
100
AcDbTrace
 10
-52.13716666666667
 20
-0.9207500000001342
 30
0.0
 11
-53.23783333333334
 21
-0.9207500000001375
 31
0.0
 12
-52.68750000000001
 22
2.381249999999864
 32
0.0
 13
-52.68750000000001
 23
2.381249999999864
 33
0.0
  0
SOLID
  5
F5
330
EE
100
AcDbEntity
  8
치수문자_일반주서
 62
     0
100
AcDbTrace
 10
-53.23783333333334
 20
0.9207499999998655
 30
0.0
 11
-52.13716666666667
 21
0.9207499999998688
 31
0.0
 12
-52.6875
 22
-2.381250000000132
 32
0.0
 13
-52.6875
 23
-2.381250000000132
 33
0.0
  0
MTEXT
  5
F6
330
EE
100
AcDbEntity
  8
치수문자_일반주서
 62
     0
100
AcDbMText
 10
-57.06250000000001
 20
-0.0000000000000101
 30
0.0
 40
3.5
 41
0.0
 71
     2
 72
     1
  1
\A1;%%c4.76 [3/16]
  7
SLDTEXTSTYLE0
 11
-2.983906501879688E-15
 21
1.0
 31
0.0
 73
     1
 44
1.0
  0
POINT
  5
F7
330
EE
100
AcDbEntity
  8
Defpoints
 62
     0
100
AcDbPoint
 10
-17.41576350361917
 20
2.381249999999995
 30
0.0
  0
POINT
  5
F8
330
EE
100
AcDbEntity
  8
Defpoints
 62
     0
100
AcDbPoint
 10
-17.41576350361917
 20
-2.381250000000001
 30
0.0
  0
POINT
  5
F9
330
EE
100
AcDbEntity
  8
Defpoints
 62
     0
100
AcDbPoint
 10
-52.6875
 20
-2.381250000000133
 30
0.0
  0
ENDBLK
  5
F0
330
EE
100
AcDbEntity
  8
0
100
AcDbBlockEnd
  0
BLOCK
  5
103
330
102
100
AcDbEntity
  8
0
100
AcDbBlockBegin
  2
_D_1
 70
     0
 10
0.0
 20
0.0
 30
0.0
  3
_D_1
  1
_D_1
  0
LINE
  5
105
330
102
100
AcDbEntity
  8
치수문자_일반주서
 62
     0
370
    -2
100
AcDbLine
 10
39.75000000000003
 20
-1.784428052824195
 30
0.0
 11
53.59326627031538
 21
-1.784428052824143
 31
0.0
  0
LINE
  5
106
330
102
100
AcDbEntity
  8
치수문자_일반주서
 62
     0
370
    -2
100
AcDbLine
 10
39.75000000000003
 20
1.784428052824194
 30
0.0
 11
53.59326627031536
 21
1.784428052824246
 31
0.0
  0
LINE
  5
107
330
102
100
AcDbEntity
  8
치수문자_일반주서
 62
     0
370
    -2
100
AcDbLine
 10
53.59326627031536
 20
1.784428052824246
 30
0.0
 11
53.59326627031522
 21
37.26342805282424
 31
0.0
  0
LINE
  5
108
330
102
100
AcDbEntity
  8
치수문자_일반주서
 62
     0
370
    -2
100
AcDbLine
 10
53.59326627031538
 20
-1.784428052824143
 30
0.0
 11
53.59326627031536
 21
1.784428052824246
 31
0.0
  0
LINE
  5
109
330
102
100
AcDbEntity
  8
치수문자_일반주서
 62
     0
370
    -2
100
AcDbLine
 10
53.59326627031539
 20
-5.086428052824143
 30
0.0
 11
53.5932662703154
 21
-8.388428052824143
 31
0.0
  0
LINE
  5
10A
330
102
100
AcDbEntity
  8
치수문자_일반주서
 62
     0
370
    -2
100
AcDbLine
 10
53.59326627031535
 20
5.086428052824246
 30
0.0
 11
53.59326627031533
 21
8.388428052824246
 31
0.0
  0
SOLID
  5
10B
330
102
100
AcDbEntity
  8
치수문자_일반주서
 62
     0
100
AcDbTrace
 10
54.14359960364872
 20
-5.086428052824141
 30
0.0
 11
53.04293293698206
 21
-5.086428052824145
 31
0.0
 12
53.59326627031538
 22
-1.784428052824143
 32
0.0
 13
53.59326627031538
 23
-1.784428052824143
 33
0.0
  0
SOLID
  5
10C
330
102
100
AcDbEntity
  8
치수문자_일반주서
 62
     0
100
AcDbTrace
 10
53.04293293698201
 20
5.086428052824244
 30
0.0
 11
54.14359960364868
 21
5.086428052824248
 31
0.0
 12
53.59326627031536
 22
1.784428052824246
 32
0.0
 13
53.59326627031536
 23
1.784428052824246
 33
0.0
  0
MTEXT
  5
10D
330
102
100
AcDbEntity
  8
치수문자_일반주서
 62
     0
100
AcDbMText
 10
49.21826627031528
 20
22.82592805282422
 30
0.0
 40
3.5
 41
0.0
 71
     2
 72
     1
  1
\A1;%%c3.57 [9/64]
  7
SLDTEXTSTYLE0
 11
-3.981907450039983E-15
 21
1.0
 31
0.0
 73
     1
 44
1.0
  0
POINT
  5
10E
330
102
100
AcDbEntity
  8
Defpoints
 62
     0
100
AcDbPoint
 10
39.68750000000003
 20
-1.784428052824196
 30
0.0
  0
POINT
  5
10F
330
102
100
AcDbEntity
  8
Defpoints
 62
     0
100
AcDbPoint
 10
39.68750000000003
 20
1.784428052824194
 30
0.0
  0
POINT
  5
110
330
102
100
AcDbEntity
  8
Defpoints
 62
     0
100
AcDbPoint
 10
53.59326627031536
 20
1.784428052824246
 30
0.0
  0
ENDBLK
  5
104
330
102
100
AcDbEntity
  8
0
100
AcDbBlockEnd
  0
BLOCK
  5
118
330
117
100
AcDbEntity
  8
0
100
AcDbBlockBegin
  2
_D_2
 70
     0
 10
0.0
 20
0.0
 30
0.0
  3
_D_2
  1
_D_2
  0
LINE
  5
11A
330
117
100
AcDbEntity
  8
치수문자_일반주서
 62
     0
370
    -2
100
AcDbLine
 10
39.68750000000003
 20
1.846928052824194
 30
0.0
 11
39.68750000000003
 21
16.16029805223447
 31
0.0
  0
LINE
  5
11B
330
117
100
AcDbEntity
  8
치수문자_일반주서
 62
     0
370
    -2
100
AcDbLine
 10
20.63750000000002
 20
1.842171464461585
 30
0.0
 11
20.63750000000002
 21
16.16029805223447
 31
0.0
  0
LINE
  5
11C
330
117
100
AcDbEntity
  8
치수문자_일반주서
 62
     0
370
    -2
100
AcDbLine
 10
20.63750000000002
 20
16.16029805223447
 30
0.0
 11
-10.90399999999998
 21
16.16029805223447
 31
0.0
  0
LINE
  5
11D
330
117
100
AcDbEntity
  8
치수문자_일반주서
 62
     0
370
    -2
100
AcDbLine
 10
39.68750000000003
 20
16.16029805223447
 30
0.0
 11
20.63750000000002
 21
16.16029805223447
 31
0.0
  0
LINE
  5
11E
330
117
100
AcDbEntity
  8
치수문자_일반주서
 62
     0
370
    -2
100
AcDbLine
 10
42.98950000000003
 20
16.16029805223447
 30
0.0
 11
46.29150000000003
 21
16.16029805223447
 31
0.0
  0
LINE
  5
11F
330
117
100
AcDbEntity
  8
치수문자_일반주서
 62
     0
370
    -2
100
AcDbLine
 10
17.33550000000002
 20
16.16029805223447
 30
0.0
 11
14.03350000000002
 21
16.16029805223447
 31
0.0
  0
SOLID
  5
120
330
117
100
AcDbEntity
  8
치수문자_일반주서
 62
     0
100
AcDbTrace
 10
42.98950000000003
 20
16.7106313855678
 30
0.0
 11
42.98950000000003
 21
15.60996471890113
 31
0.0
 12
39.68750000000003
 22
16.16029805223447
 32
0.0
 13
39.68750000000003
 23
16.16029805223447
 33
0.0
  0
SOLID
  5
121
330
117
100
AcDbEntity
  8
치수문자_일반주서
 62
     0
100
AcDbTrace
 10
17.33550000000002
 20
15.60996471890113
 30
0.0
 11
17.33550000000002
 21
16.7106313855678
 31
0.0
 12
20.63750000000002
 22
16.16029805223447
 32
0.0
 13
20.63750000000002
 23
16.16029805223447
 33
0.0
  0
MTEXT
  5
122
330
117
100
AcDbEntity
  8
치수문자_일반주서
 62
     0
100
AcDbMText
 10
1.564750000000023
 20
20.53529805223447
 30
0.0
 40
3.5
 41
0.0
 71
     2
 72
     1
  1
\A1;19.05 [3/4]
  7
SLDTEXTSTYLE0
 73
     1
 44
1.0
  0
POINT
  5
123
330
117
100
AcDbEntity
  8
Defpoints
 62
     0
100
AcDbPoint
 10
39.68750000000003
 20
1.784428052824194
 30
0.0
  0
POINT
  5
36D
330
117
100
AcDbEntity
  8
Defpoints
 62
     0
100
AcDbPoint
 10
20.63750000000002
 20
1.779671464461585
 30
0.0
  0
POINT
  5
36E
330
117
100
AcDbEntity
  8
Defpoints
 62
     0
100
AcDbPoint
 10
20.63750000000002
 20
16.16029805223447
 30
0.0
  0
ENDBLK
  5
119
330
117
100
AcDbEntity
  8
0
100
AcDbBlockEnd
  0
BLOCK
  5
12C
330
12B
100
AcDbEntity
  8
0
100
AcDbBlockBegin
  2
_D_3
 70
     0
 10
0.0
 20
0.0
 30
0.0
  3
_D_3
  1
_D_3
  0
LINE
  5
12E
330
12B
100
AcDbEntity
  8
치수문자_일반주서
 62
     0
370
    -2
100
AcDbLine
 10
-39.68750000000001
 20
1.846928052824204
 30
0.0
 11
-39.6875
 21
30.43016347307377
 31
0.0
  0
LINE
  5
12F
330
12B
100
AcDbEntity
  8
치수문자_일반주서
 62
     0
370
    -2
100
AcDbLine
 10
39.68750000000003
 20
1.846928052824194
 30
0.0
 11
39.68750000000004
 21
30.43016347307377
 31
0.0
  0
LINE
  5
130
330
12B
100
AcDbEntity
  8
치수문자_일반주서
 62
     0
370
    -2
100
AcDbLine
 10
-36.3855
 20
30.43016347307377
 30
0.0
 11
36.38550000000004
 21
30.43016347307377
 31
0.0
  0
SOLID
  5
131
330
12B
100
AcDbEntity
  8
치수문자_일반주서
 62
     0
100
AcDbTrace
 10
-36.3855
 20
30.98049680640711
 30
0.0
 11
-36.3855
 21
29.87983013974044
 31
0.0
 12
-39.6875
 22
30.43016347307377
 32
0.0
 13
-39.6875
 23
30.43016347307377
 33
0.0
  0
SOLID
  5
132
330
12B
100
AcDbEntity
  8
치수문자_일반주서
 62
     0
100
AcDbTrace
 10
36.38550000000004
 20
29.87983013974044
 30
0.0
 11
36.38550000000004
 21
30.98049680640711
 31
0.0
 12
39.68750000000004
 22
30.43016347307377
 32
0.0
 13
39.68750000000004
 23
30.43016347307377
 33
0.0
  0
MTEXT
  5
133
330
12B
100
AcDbEntity
  8
치수문자_일반주서
 62
     0
100
AcDbMText
 10
0.0000000000000231
 20
34.80516347307378
 30
0.0
 40
3.5
 41
0.0
 71
     2
 72
     1
  1
\A1;79.38 [3 1/8]
  7
SLDTEXTSTYLE0
 73
     1
 44
1.0
  0
POINT
  5
134
330
12B
100
AcDbEntity
  8
Defpoints
 62
     0
100
AcDbPoint
 10
-39.68750000000001
 20
1.784428052824204
 30
0.0
  0
POINT
  5
135
330
12B
100
AcDbEntity
  8
Defpoints
 62
     0
100
AcDbPoint
 10
39.68750000000003
 20
1.784428052824194
 30
0.0
  0
POINT
  5
136
330
12B
100
AcDbEntity
  8
Defpoints
 62
     0
100
AcDbPoint
 10
39.68750000000003
 20
30.43016347307377
 30
0.0
  0
ENDBLK
  5
12D
330
12B
100
AcDbEntity
  8
0
100
AcDbBlockEnd
  0
BLOCK
  5
145
330
144
100
AcDbEntity
  8
0
100
AcDbBlockBegin
  2
SW_DOWELSYMBOL_0
 70
     0
 10
0.0
 20
0.0
 30
0.0
  3
SW_DOWELSYMBOL_0
  1
SW_DOWELSYMBOL_0
  0
CIRCLE
  5
147
330
144
100
AcDbEntity
  8
해칭선
 62
     0
100
AcDbCircle
 10
0.0
 20
0.0
 30
0.0
 40
3.000000000000001
  0
HATCH
  5
148
330
144
100
AcDbEntity
  8
0
  6
Continuous
 62
     0
370
     0
100
AcDbHatch
 10
0.0
 20
0.0
 30
0.0
210
0.0
220
0.0
230
1.0
  2
SOLID
 70
     1
 71
     0
 91
        1
 92
        0
 93
        3
 72
     2
 10
0.0
 20
0.0
 40
3.000000000000001
 50
0.0
 51
90.0
 73
     1
 72
     1
 10
0.0
 20
3.000000000000001
 11
0.0
 21
0.0
 72
     1
 10
0.0
 20
0.0
 11
3.000000000000001
 21
0.0
 97
        0
 75
     0
 76
     1
 98
        1
 10
0.0
 20
0.0
  0
HATCH
  5
149
330
144
100
AcDbEntity
  8
0
  6
Continuous
 62
     0
370
     0
100
AcDbHatch
 10
0.0
 20
0.0
 30
0.0
210
0.0
220
0.0
230
1.0
  2
SOLID
 70
     1
 71
     0
 91
        1
 92
        0
 93
        3
 72
     2
 10
0.0
 20
0.0
 40
3.000000000000001
 50
180.0
 51
270.0000000000008
 73
     1
 72
     1
 10
0.0
 20
-3.000000000000001
 11
0.0
 21
0.0
 72
     1
 10
0.0
 20
0.0
 11
-3.000000000000001
 21
0.0
 97
        0
 75
     0
 76
     1
 98
        1
 10
0.0
 20
0.0
  0
ENDBLK
  5
146
330
144
100
AcDbEntity
  8
0
100
AcDbBlockEnd
  0
BLOCK
  5
26D
330
26C
100
AcDbEntity
  8
0
100
AcDbBlockBegin
  2
*D8
 70
     1
 10
0.0
 20
0.0
 30
0.0
  3
*D8
  1
*D8
  0
LINE
  5
26F
330
26C
100
AcDbEntity
  8
치수문자_일반주서
 62
     0
370
    -2
100
AcDbLine
 10
42.01865766425395
 20
15.50624999999999
 30
0.0
 11
4.375000000000028
 21
15.50624999999985
 31
0.0
  0
LINE
  5
270
330
26C
100
AcDbEntity
  8
치수문자_일반주서
 62
     0
370
    -2
100
AcDbLine
 10
42.01865766425394
 20
10.74375
 30
0.0
 11
4.375000000000044
 21
10.74374999999985
 31
0.0
  0
LINE
  5
271
330
26C
100
AcDbEntity
  8
치수문자_일반주서
 62
     0
370
    -2
100
AcDbLine
 10
4.375000000000039
 20
12.20424999999985
 30
0.0
 11
4.375000000000033
 21
14.04574999999985
 31
0.0
  0
SOLID
  5
272
330
26C
100
AcDbEntity
  8
치수문자_일반주서
 62
     0
100
AcDbTrace
 10
4.925333333333373
 20
12.20424999999985
 30
0.0
 11
3.824666666666706
 21
12.20424999999985
 31
0.0
 12
4.375000000000028
 22
15.50624999999985
 32
0.0
 13
4.375000000000028
 23
15.50624999999985
 33
0.0
  0
SOLID
  5
273
330
26C
100
AcDbEntity
  8
치수문자_일반주서
 62
     0
100
AcDbTrace
 10
3.8246666666667
 20
14.04574999999985
 30
0.0
 11
4.925333333333366
 21
14.04574999999985
 31
0.0
 12
4.375000000000044
 22
10.74374999999985
 32
0.0
 13
4.375000000000044
 23
10.74374999999985
 33
0.0
  0
MTEXT
  5
274
330
26C
100
AcDbEntity
  8
치수문자_일반주서
 62
     0
100
AcDbMText
 10
0.0000000000000355
 20
13.12499999999999
 30
0.0
 40
3.5
 41
0.0
 71
     2
 72
     1
  1
\A1;%%c4.76 [3/16]
  7
SLDTEXTSTYLE0
 11
-3.543388970982131E-15
 21
1.0
 31
0.0
 73
     1
 44
1.0
  0
POINT
  5
275
330
26C
100
AcDbEntity
  8
Defpoints
 62
     0
100
AcDbPoint
 10
42.08115766425395
 20
15.50624999999999
 30
0.0
  0
POINT
  5
276
330
26C
100
AcDbEntity
  8
Defpoints
 62
     0
100
AcDbPoint
 10
42.08115766425394
 20
10.74375
 30
0.0
  0
POINT
  5
277
330
26C
100
AcDbEntity
  8
Defpoints
 62
     0
100
AcDbPoint
 10
4.375000000000043
 20
10.74374999999985
 30
0.0
  0
ENDBLK
  5
26E
330
26C
100
AcDbEntity
  8
0
100
AcDbBlockEnd
  0
BLOCK
  5
279
330
278
100
AcDbEntity
  8
0
100
AcDbBlockBegin
  2
*D9
 70
     1
 10
0.0
 20
0.0
 30
0.0
  3
*D9
  1
*D9
  0
LINE
  5
27B
330
278
100
AcDbEntity
  8
치수문자_일반주서
 62
     0
370
    -2
100
AcDbLine
 10
99.98750000000007
 20
11.140625
 30
0.0
 11
113.3314599468515
 21
11.14062500000005
 31
0.0
  0
LINE
  5
27C
330
278
100
AcDbEntity
  8
치수문자_일반주서
 62
     0
370
    -2
100
AcDbLine
 10
99.98750000000007
 20
15.109375
 30
0.0
 11
113.3314599468515
 21
15.10937500000005
 31
0.0
  0
LINE
  5
27D
330
278
100
AcDbEntity
  8
치수문자_일반주서
 62
     0
370
    -2
100
AcDbLine
 10
113.3314599468515
 20
15.10937500000005
 30
0.0
 11
113.3314599468513
 21
55.02315168786481
 31
0.0
  0
LINE
  5
27E
330
278
100
AcDbEntity
  8
치수문자_일반주서
 62
     0
370
    -2
100
AcDbLine
 10
113.3314599468515
 20
11.14062500000005
 30
0.0
 11
113.3314599468515
 21
15.10937500000005
 31
0.0
  0
LINE
  5
27F
330
278
100
AcDbEntity
  8
치수문자_일반주서
 62
     0
370
    -2
100
AcDbLine
 10
113.3314599468515
 20
7.83862500000005
 30
0.0
 11
113.3314599468515
 21
4.536625000000051
 31
0.0
  0
LINE
  5
280
330
278
100
AcDbEntity
  8
치수문자_일반주서
 62
     0
370
    -2
100
AcDbLine
 10
113.3314599468515
 20
18.41137500000005
 30
0.0
 11
113.3314599468515
 21
21.71337500000005
 31
0.0
  0
SOLID
  5
281
330
278
100
AcDbEntity
  8
치수문자_일반주서
 62
     0
100
AcDbTrace
 10
113.8817932801848
 20
7.838625000000052
 30
0.0
 11
112.7811266135182
 21
7.838625000000048
 31
0.0
 12
113.3314599468515
 22
11.14062500000005
 32
0.0
 13
113.3314599468515
 23
11.14062500000005
 33
0.0
  0
SOLID
  5
282
330
278
100
AcDbEntity
  8
치수문자_일반주서
 62
     0
100
AcDbTrace
 10
112.7811266135181
 20
18.41137500000005
 30
0.0
 11
113.8817932801848
 21
18.41137500000005
 31
0.0
 12
113.3314599468515
 22
15.10937500000005
 32
0.0
 13
113.3314599468515
 23
15.10937500000005
 33
0.0
  0
MTEXT
  5
283
330
278
100
AcDbEntity
  8
치수문자_일반주서
 62
     0
100
AcDbMText
 10
108.9564599468514
 20
40.5856516878648
 30
0.0
 40
3.5
 41
0.0
 71
     2
 72
     1
  1
\A1;%%c3.97 [5/32]
  7
SLDTEXTSTYLE0
 11
-3.580687802255621E-15
 21
1.0
 31
0.0
 73
     1
 44
1.0
  0
POINT
  5
284
330
278
100
AcDbEntity
  8
Defpoints
 62
     0
100
AcDbPoint
 10
99.92500000000007
 20
11.140625
 30
0.0
  0
POINT
  5
285
330
278
100
AcDbEntity
  8
Defpoints
 62
     0
100
AcDbPoint
 10
99.92500000000007
 20
15.109375
 30
0.0
  0
POINT
  5
286
330
278
100
AcDbEntity
  8
Defpoints
 62
     0
100
AcDbPoint
 10
113.3314599468515
 20
15.10937500000005
 30
0.0
  0
ENDBLK
  5
27A
330
278
100
AcDbEntity
  8
0
100
AcDbBlockEnd
  0
BLOCK
  5
288
330
287
100
AcDbEntity
  8
0
100
AcDbBlockBegin
  2
*D10
 70
     1
 10
0.0
 20
0.0
 30
0.0
  3
*D10
  1
*D10
  0
LINE
  5
28A
330
287
100
AcDbEntity
  8
치수문자_일반주서
 62
     0
370
    -2
100
AcDbLine
 10
99.92500000000007
 20
15.171875
 30
0.0
 11
99.92500000000007
 21
25.69956754635238
 31
0.0
  0
LINE
  5
28B
330
287
100
AcDbEntity
  8
치수문자_일반주서
 62
     0
370
    -2
100
AcDbLine
 10
77.70000000000007
 20
14.5533596883074
 30
0.0
 11
77.70000000000007
 21
25.69956754635238
 31
0.0
  0
LINE
  5
28C
330
287
100
AcDbEntity
  8
치수문자_일반주서
 62
     0
370
    -2
100
AcDbLine
 10
77.70000000000007
 20
25.69956754635238
 30
0.0
 11
44.84600000000007
 21
25.69956754635238
 31
0.0
  0
LINE
  5
28D
330
287
100
AcDbEntity
  8
치수문자_일반주서
 62
     0
370
    -2
100
AcDbLine
 10
99.92500000000007
 20
25.69956754635238
 30
0.0
 11
77.70000000000007
 21
25.69956754635238
 31
0.0
  0
LINE
  5
28E
330
287
100
AcDbEntity
  8
치수문자_일반주서
 62
     0
370
    -2
100
AcDbLine
 10
103.2270000000001
 20
25.69956754635238
 30
0.0
 11
106.5290000000001
 21
25.69956754635238
 31
0.0
  0
LINE
  5
28F
330
287
100
AcDbEntity
  8
치수문자_일반주서
 62
     0
370
    -2
100
AcDbLine
 10
74.39800000000008
 20
25.69956754635238
 30
0.0
 11
71.09600000000009
 21
25.69956754635238
 31
0.0
  0
SOLID
  5
290
330
287
100
AcDbEntity
  8
치수문자_일반주서
 62
     0
100
AcDbTrace
 10
103.2270000000001
 20
26.24990087968571
 30
0.0
 11
103.2270000000001
 21
25.14923421301905
 31
0.0
 12
99.92500000000007
 22
25.69956754635238
 32
0.0
 13
99.92500000000007
 23
25.69956754635238
 33
0.0
  0
SOLID
  5
291
330
287
100
AcDbEntity
  8
치수문자_일반주서
 62
     0
100
AcDbTrace
 10
74.39800000000008
 20
25.14923421301905
 30
0.0
 11
74.39800000000008
 21
26.24990087968571
 31
0.0
 12
77.70000000000007
 22
25.69956754635238
 32
0.0
 13
77.70000000000007
 23
25.69956754635238
 33
0.0
  0
MTEXT
  5
292
330
287
100
AcDbEntity
  8
치수문자_일반주서
 62
     0
100
AcDbMText
 10
57.97100000000007
 20
30.07456754635238
 30
0.0
 40
3.5
 41
0.0
 71
     2
 72
     1
  1
\A1;22.23 [7/8]
  7
SLDTEXTSTYLE0
 73
     1
 44
1.0
  0
POINT
  5
293
330
287
100
AcDbEntity
  8
Defpoints
 62
     0
100
AcDbPoint
 10
99.92500000000007
 20
15.109375
 30
0.0
  0
POINT
  5
294
330
287
100
AcDbEntity
  8
Defpoints
 62
     0
100
AcDbPoint
 10
77.70000000000007
 20
14.4908596883074
 30
0.0
  0
POINT
  5
295
330
287
100
AcDbEntity
  8
Defpoints
 62
     0
100
AcDbPoint
 10
77.70000000000007
 20
25.69956754635238
 30
0.0
  0
ENDBLK
  5
289
330
287
100
AcDbEntity
  8
0
100
AcDbBlockEnd
  0
BLOCK
  5
297
330
296
100
AcDbEntity
  8
0
100
AcDbBlockBegin
  2
*D11
 70
     1
 10
0.0
 20
0.0
 30
0.0
  3
*D11
  1
*D11
  0
LINE
  5
299
330
296
100
AcDbEntity
  8
치수문자_일반주서
 62
     0
370
    -2
100
AcDbLine
 10
17.37500000000004
 20
15.171875
 30
0.0
 11
17.37500000000003
 21
39.20852496111696
 31
0.0
  0
LINE
  5
29A
330
296
100
AcDbEntity
  8
치수문자_일반주서
 62
     0
370
    -2
100
AcDbLine
 10
99.92500000000007
 20
15.171875
 30
0.0
 11
99.92500000000007
 21
39.20852496111696
 31
0.0
  0
LINE
  5
29B
330
296
100
AcDbEntity
  8
치수문자_일반주서
 62
     0
370
    -2
100
AcDbLine
 10
20.67700000000003
 20
39.20852496111696
 30
0.0
 11
96.62300000000008
 21
39.20852496111696
 31
0.0
  0
SOLID
  5
29C
330
296
100
AcDbEntity
  8
치수문자_일반주서
 62
     0
100
AcDbTrace
 10
20.67700000000003
 20
39.7588582944503
 30
0.0
 11
20.67700000000003
 21
38.65819162778363
 31
0.0
 12
17.37500000000003
 22
39.20852496111696
 32
0.0
 13
17.37500000000003
 23
39.20852496111696
 33
0.0
  0
SOLID
  5
29D
330
296
100
AcDbEntity
  8
치수문자_일반주서
 62
     0
100
AcDbTrace
 10
96.62300000000008
 20
38.65819162778363
 30
0.0
 11
96.62300000000008
 21
39.7588582944503
 31
0.0
 12
99.92500000000007
 22
39.20852496111696
 32
0.0
 13
99.92500000000007
 23
39.20852496111696
 33
0.0
  0
MTEXT
  5
29E
330
296
100
AcDbEntity
  8
치수문자_일반주서
 62
     0
100
AcDbMText
 10
57.16436273449283
 20
43.58352496111696
 30
0.0
 40
3.5
 41
0.0
 71
     2
 72
     1
  1
\A1;82.55 [3 1/4]
  7
SLDTEXTSTYLE0
 73
     1
 44
1.0
  0
POINT
  5
29F
330
296
100
AcDbEntity
  8
Defpoints
 62
     0
100
AcDbPoint
 10
17.37500000000004
 20
15.109375
 30
0.0
  0
POINT
  5
2A0
330
296
100
AcDbEntity
  8
Defpoints
 62
     0
100
AcDbPoint
 10
99.92500000000007
 20
15.109375
 30
0.0
  0
POINT
  5
2A1
330
296
100
AcDbEntity
  8
Defpoints
 62
     0
100
AcDbPoint
 10
99.92500000000007
 20
39.20852496111696
 30
0.0
  0
ENDBLK
  5
298
330
296
100
AcDbEntity
  8
0
100
AcDbBlockEnd
  0
BLOCK
  5
337
330
336
100
AcDbEntity
  8
0
100
AcDbBlockBegin
  2
*D12
 70
     1
 10
0.0
 20
0.0
 30
0.0
  3
*D12
  1
*D12
  0
LINE
  5
339
330
336
100
AcDbEntity
  8
치수문자_일반주서
 62
     0
370
    -2
100
AcDbLine
 10
97.90001237520447
 20
-50.86723845609801
 30
0.0
 11
60.25635471095055
 21
-50.86723845609815
 31
0.0
  0
LINE
  5
33A
330
336
100
AcDbEntity
  8
치수문자_일반주서
 62
     0
370
    -2
100
AcDbLine
 10
97.90001237520445
 20
-55.62973845609801
 30
0.0
 11
60.25635471095056
 21
-55.62973845609815
 31
0.0
  0
LINE
  5
33B
330
336
100
AcDbEntity
  8
치수문자_일반주서
 62
     0
370
    -2
100
AcDbLine
 10
60.25635471095055
 20
-54.16923845609815
 30
0.0
 11
60.25635471095055
 21
-52.32773845609815
 31
0.0
  0
SOLID
  5
33C
330
336
100
AcDbEntity
  8
치수문자_일반주서
 62
     0
100
AcDbTrace
 10
60.80668804428389
 20
-54.16923845609815
 30
0.0
 11
59.70602137761722
 21
-54.16923845609815
 31
0.0
 12
60.25635471095055
 22
-50.86723845609815
 32
0.0
 13
60.25635471095055
 23
-50.86723845609815
 33
0.0
  0
SOLID
  5
33D
330
336
100
AcDbEntity
  8
치수문자_일반주서
 62
     0
100
AcDbTrace
 10
59.70602137761722
 20
-52.32773845609815
 30
0.0
 11
60.80668804428389
 21
-52.32773845609815
 31
0.0
 12
60.25635471095056
 22
-55.62973845609815
 32
0.0
 13
60.25635471095056
 23
-55.62973845609815
 33
0.0
  0
MTEXT
  5
33E
330
336
100
AcDbEntity
  8
치수문자_일반주서
 62
     0
100
AcDbMText
 10
55.88135471095055
 20
-53.24848845609802
 30
0.0
 40
3.5
 41
0.0
 71
     2
 72
     1
  1
\A1;%%c4.76 [3/16]
  7
SLDTEXTSTYLE0
 11
-2.983906501879684E-15
 21
1.0
 31
0.0
 73
     1
 44
1.0
  0
POINT
  5
33F
330
336
100
AcDbEntity
  8
Defpoints
 62
     0
100
AcDbPoint
 10
97.96251237520447
 20
-50.86723845609801
 30
0.0
  0
POINT
  5
340
330
336
100
AcDbEntity
  8
Defpoints
 62
     0
100
AcDbPoint
 10
97.96251237520445
 20
-55.62973845609801
 30
0.0
  0
POINT
  5
341
330
336
100
AcDbEntity
  8
Defpoints
 62
     0
100
AcDbPoint
 10
60.25635471095056
 20
-55.62973845609815
 30
0.0
  0
ENDBLK
  5
338
330
336
100
AcDbEntity
  8
0
100
AcDbBlockEnd
  0
BLOCK
  5
343
330
342
100
AcDbEntity
  8
0
100
AcDbBlockBegin
  2
*D13
 70
     1
 10
0.0
 20
0.0
 30
0.0
  3
*D13
  1
*D13
  0
LINE
  5
345
330
342
100
AcDbEntity
  8
치수문자_일반주서
 62
     0
370
    -2
100
AcDbLine
 10
155.8688547109506
 20
-55.232863456098
 30
0.0
 11
169.2128146578019
 21
-55.23286345609795
 31
0.0
  0
LINE
  5
346
330
342
100
AcDbEntity
  8
치수문자_일반주서
 62
     0
370
    -2
100
AcDbLine
 10
155.8688547109506
 20
-51.264113456098
 30
0.0
 11
169.2128146578019
 21
-51.26411345609795
 31
0.0
  0
LINE
  5
347
330
342
100
AcDbEntity
  8
치수문자_일반주서
 62
     0
370
    -2
100
AcDbLine
 10
169.2128146578019
 20
-51.26411345609795
 30
0.0
 11
169.2128146578019
 21
-11.35033676823319
 31
0.0
  0
LINE
  5
348
330
342
100
AcDbEntity
  8
치수문자_일반주서
 62
     0
370
    -2
100
AcDbLine
 10
169.2128146578019
 20
-55.23286345609795
 30
0.0
 11
169.2128146578019
 21
-51.26411345609795
 31
0.0
  0
LINE
  5
349
330
342
100
AcDbEntity
  8
치수문자_일반주서
 62
     0
370
    -2
100
AcDbLine
 10
169.2128146578019
 20
-58.53486345609795
 30
0.0
 11
169.2128146578019
 21
-61.83686345609795
 31
0.0
  0
LINE
  5
34A
330
342
100
AcDbEntity
  8
치수문자_일반주서
 62
     0
370
    -2
100
AcDbLine
 10
169.2128146578019
 20
-47.96211345609795
 30
0.0
 11
169.2128146578019
 21
-44.66011345609795
 31
0.0
  0
SOLID
  5
34B
330
342
100
AcDbEntity
  8
치수문자_일반주서
 62
     0
100
AcDbTrace
 10
169.7631479911352
 20
-58.53486345609795
 30
0.0
 11
168.6624813244686
 21
-58.53486345609795
 31
0.0
 12
169.2128146578019
 22
-55.23286345609795
 32
0.0
 13
169.2128146578019
 23
-55.23286345609795
 33
0.0
  0
SOLID
  5
34C
330
342
100
AcDbEntity
  8
치수문자_일반주서
 62
     0
100
AcDbTrace
 10
168.6624813244686
 20
-47.96211345609795
 30
0.0
 11
169.7631479911352
 21
-47.96211345609795
 31
0.0
 12
169.2128146578019
 22
-51.26411345609795
 32
0.0
 13
169.2128146578019
 23
-51.26411345609795
 33
0.0
  0
MTEXT
  5
34D
330
342
100
AcDbEntity
  8
치수문자_일반주서
 62
     0
100
AcDbMText
 10
164.8378146578019
 20
-25.78783676823319
 30
0.0
 40
3.5
 41
0.0
 71
     2
 72
     1
  1
\A1;%%c3.97 [5/32]
  7
SLDTEXTSTYLE0
 11
0.0
 21
1.0
 31
0.0
 73
     1
 44
1.0
  0
POINT
  5
34E
330
342
100
AcDbEntity
  8
Defpoints
 62
     0
100
AcDbPoint
 10
155.8063547109506
 20
-55.232863456098
 30
0.0
  0
POINT
  5
34F
330
342
100
AcDbEntity
  8
Defpoints
 62
     0
100
AcDbPoint
 10
155.8063547109506
 20
-51.264113456098
 30
0.0
  0
POINT
  5
350
330
342
100
AcDbEntity
  8
Defpoints
 62
     0
100
AcDbPoint
 10
169.212814657802
 20
-51.26411345609795
 30
0.0
  0
ENDBLK
  5
344
330
342
100
AcDbEntity
  8
0
100
AcDbBlockEnd
  0
BLOCK
  5
352
330
351
100
AcDbEntity
  8
0
100
AcDbBlockBegin
  2
*D14
 70
     1
 10
0.0
 20
0.0
 30
0.0
  3
*D14
  1
*D14
  0
LINE
  5
354
330
351
100
AcDbEntity
  8
치수문자_일반주서
 62
     0
370
    -2
100
AcDbLine
 10
155.8063547109506
 20
-51.201613456098
 30
0.0
 11
155.8063547109506
 21
-40.67392090974562
 31
0.0
  0
LINE
  5
355
330
351
100
AcDbEntity
  8
치수문자_일반주서
 62
     0
370
    -2
100
AcDbLine
 10
133.5813547109506
 20
-51.8201287677906
 30
0.0
 11
133.5813547109506
 21
-40.67392090974562
 31
0.0
  0
LINE
  5
356
330
351
100
AcDbEntity
  8
치수문자_일반주서
 62
     0
370
    -2
100
AcDbLine
 10
133.5813547109506
 20
-40.67392090974562
 30
0.0
 11
100.7273547109506
 21
-40.67392090974562
 31
0.0
  0
LINE
  5
357
330
351
100
AcDbEntity
  8
치수문자_일반주서
 62
     0
370
    -2
100
AcDbLine
 10
155.8063547109506
 20
-40.67392090974562
 30
0.0
 11
133.5813547109506
 21
-40.67392090974562
 31
0.0
  0
LINE
  5
358
330
351
100
AcDbEntity
  8
치수문자_일반주서
 62
     0
370
    -2
100
AcDbLine
 10
159.1083547109506
 20
-40.67392090974562
 30
0.0
 11
162.4103547109506
 21
-40.67392090974562
 31
0.0
  0
LINE
  5
359
330
351
100
AcDbEntity
  8
치수문자_일반주서
 62
     0
370
    -2
100
AcDbLine
 10
130.2793547109506
 20
-40.67392090974562
 30
0.0
 11
126.9773547109506
 21
-40.67392090974562
 31
0.0
  0
SOLID
  5
35A
330
351
100
AcDbEntity
  8
치수문자_일반주서
 62
     0
100
AcDbTrace
 10
159.1083547109506
 20
-40.12358757641228
 30
0.0
 11
159.1083547109506
 21
-41.22425424307895
 31
0.0
 12
155.8063547109506
 22
-40.67392090974562
 32
0.0
 13
155.8063547109506
 23
-40.67392090974562
 33
0.0
  0
SOLID
  5
35B
330
351
100
AcDbEntity
  8
치수문자_일반주서
 62
     0
100
AcDbTrace
 10
130.2793547109506
 20
-41.22425424307895
 30
0.0
 11
130.2793547109506
 21
-40.12358757641228
 31
0.0
 12
133.5813547109506
 22
-40.67392090974562
 32
0.0
 13
133.5813547109506
 23
-40.67392090974562
 33
0.0
  0
MTEXT
  5
35C
330
351
100
AcDbEntity
  8
치수문자_일반주서
 62
     0
100
AcDbMText
 10
113.8523547109506
 20
-36.29892090974562
 30
0.0
 40
3.5
 41
0.0
 71
     2
 72
     1
  1
\A1;22.23 [7/8]
  7
SLDTEXTSTYLE0
 73
     1
 44
1.0
  0
POINT
  5
35D
330
351
100
AcDbEntity
  8
Defpoints
 62
     0
100
AcDbPoint
 10
155.8063547109506
 20
-51.264113456098
 30
0.0
  0
POINT
  5
35E
330
351
100
AcDbEntity
  8
Defpoints
 62
     0
100
AcDbPoint
 10
133.5813547109506
 20
-51.8826287677906
 30
0.0
  0
POINT
  5
35F
330
351
100
AcDbEntity
  8
Defpoints
 62
     0
100
AcDbPoint
 10
133.5813547109506
 20
-40.67392090974562
 30
0.0
  0
ENDBLK
  5
353
330
351
100
AcDbEntity
  8
0
100
AcDbBlockEnd
  0
BLOCK
  5
361
330
360
100
AcDbEntity
  8
0
100
AcDbBlockBegin
  2
*D15
 70
     1
 10
0.0
 20
0.0
 30
0.0
  3
*D15
  1
*D15
  0
LINE
  5
363
330
360
100
AcDbEntity
  8
치수문자_일반주서
 62
     0
370
    -2
100
AcDbLine
 10
73.25635471095055
 20
-51.201613456098
 30
0.0
 11
73.25635471095055
 21
-27.16496349498104
 31
0.0
  0
LINE
  5
364
330
360
100
AcDbEntity
  8
치수문자_일반주서
 62
     0
370
    -2
100
AcDbLine
 10
155.8063547109506
 20
-51.201613456098
 30
0.0
 11
155.8063547109506
 21
-27.16496349498104
 31
0.0
  0
LINE
  5
365
330
360
100
AcDbEntity
  8
치수문자_일반주서
 62
     0
370
    -2
100
AcDbLine
 10
76.55835471095054
 20
-27.16496349498104
 30
0.0
 11
152.5043547109506
 21
-27.16496349498104
 31
0.0
  0
SOLID
  5
366
330
360
100
AcDbEntity
  8
치수문자_일반주서
 62
     0
100
AcDbTrace
 10
76.55835471095054
 20
-26.6146301616477
 30
0.0
 11
76.55835471095054
 21
-27.71529682831437
 31
0.0
 12
73.25635471095055
 22
-27.16496349498104
 32
0.0
 13
73.25635471095055
 23
-27.16496349498104
 33
0.0
  0
SOLID
  5
367
330
360
100
AcDbEntity
  8
치수문자_일반주서
 62
     0
100
AcDbTrace
 10
152.5043547109506
 20
-27.71529682831437
 30
0.0
 11
152.5043547109506
 21
-26.6146301616477
 31
0.0
 12
155.8063547109506
 22
-27.16496349498104
 32
0.0
 13
155.8063547109506
 23
-27.16496349498104
 33
0.0
  0
MTEXT
  5
368
330
360
100
AcDbEntity
  8
치수문자_일반주서
 62
     0
100
AcDbMText
 10
113.0457174454434
 20
-22.78996349498104
 30
0.0
 40
3.5
 41
0.0
 71
     2
 72
     1
  1
\A1;82.55 [3 1/4]
  7
SLDTEXTSTYLE0
 73
     1
 44
1.0
  0
POINT
  5
369
330
360
100
AcDbEntity
  8
Defpoints
 62
     0
100
AcDbPoint
 10
73.25635471095055
 20
-51.264113456098
 30
0.0
  0
POINT
  5
36A
330
360
100
AcDbEntity
  8
Defpoints
 62
     0
100
AcDbPoint
 10
155.8063547109506
 20
-51.264113456098
 30
0.0
  0
POINT
  5
36B
330
360
100
AcDbEntity
  8
Defpoints
 62
     0
100
AcDbPoint
 10
155.8063547109506
 20
-27.16496349498104
 30
0.0
  0
ENDBLK
  5
362
330
360
100
AcDbEntity
  8
0
100
AcDbBlockEnd
  0
BLOCK
  5
418
330
417
100
AcDbEntity
  8
0
100
AcDbBlockBegin
  2
*D17
 70
     1
 10
0.0
 20
0.0
 30
0.0
  3
*D17
  1
*D17
  0
LINE
  5
41A
330
417
100
AcDbEntity
  8
치수문자_일반주서
 62
     0
370
    -2
100
AcDbLine
 10
82.43750000000003
 20
6.603999999999946
 30
0.0
 11
96.28076627031537
 21
6.603999999999996
 31
0.0
  0
LINE
  5
41B
330
417
100
AcDbEntity
  8
치수문자_일반주서
 62
     0
370
    -2
100
AcDbLine
 10
82.43750000000003
 20
10.17285610564834
 30
0.0
 11
96.28076627031535
 21
10.17285610564839
 31
0.0
  0
LINE
  5
41C
330
417
100
AcDbEntity
  8
치수문자_일반주서
 62
     0
370
    -2
100
AcDbLine
 10
96.28076627031535
 20
10.17285610564839
 30
0.0
 11
96.28076627031521
 21
45.65185610564838
 31
0.0
  0
LINE
  5
41D
330
417
100
AcDbEntity
  8
치수문자_일반주서
 62
     0
370
    -2
100
AcDbLine
 10
96.28076627031537
 20
6.603999999999996
 30
0.0
 11
96.28076627031535
 21
10.17285610564839
 31
0.0
  0
LINE
  5
41E
330
417
100
AcDbEntity
  8
치수문자_일반주서
 62
     0
370
    -2
100
AcDbLine
 10
96.28076627031538
 20
3.301999999999996
 30
0.0
 11
96.2807662703154
 21
-0.0000000000000036
 31
0.0
  0
LINE
  5
41F
330
417
100
AcDbEntity
  8
치수문자_일반주서
 62
     0
370
    -2
100
AcDbLine
 10
96.28076627031534
 20
13.47485610564839
 30
0.0
 11
96.28076627031533
 21
16.77685610564838
 31
0.0
  0
SOLID
  5
420
330
417
100
AcDbEntity
  8
치수문자_일반주서
 62
     0
100
AcDbTrace
 10
96.83109960364871
 20
3.301999999999998
 30
0.0
 11
95.73043293698206
 21
3.301999999999994
 31
0.0
 12
96.28076627031537
 22
6.603999999999996
 32
0.0
 13
96.28076627031537
 23
6.603999999999996
 33
0.0
  0
SOLID
  5
421
330
417
100
AcDbEntity
  8
치수문자_일반주서
 62
     0
100
AcDbTrace
 10
95.73043293698201
 20
13.47485610564838
 30
0.0
 11
96.83109960364867
 21
13.47485610564839
 31
0.0
 12
96.28076627031535
 22
10.17285610564839
 32
0.0
 13
96.28076627031535
 23
10.17285610564839
 33
0.0
  0
MTEXT
  5
422
330
417
100
AcDbEntity
  8
치수문자_일반주서
 62
     0
100
AcDbMText
 10
91.90576627031527
 20
31.21435610564837
 30
0.0
 40
3.5
 41
0.0
 71
     2
 72
     1
  1
\A1;%%c3.57 [9/64]
  7
SLDTEXTSTYLE0
 11
-3.981907450039983E-15
 21
1.0
 31
0.0
 73
     1
 44
1.0
  0
POINT
  5
423
330
417
100
AcDbEntity
  8
Defpoints
 62
     0
100
AcDbPoint
 10
82.37500000000003
 20
6.603999999999946
 30
0.0
  0
POINT
  5
424
330
417
100
AcDbEntity
  8
Defpoints
 62
     0
100
AcDbPoint
 10
82.37500000000003
 20
10.17285610564834
 30
0.0
  0
POINT
  5
425
330
417
100
AcDbEntity
  8
Defpoints
 62
     0
100
AcDbPoint
 10
96.28076627031535
 20
10.17285610564839
 30
0.0
  0
ENDBLK
  5
419
330
417
100
AcDbEntity
  8
0
100
AcDbBlockEnd
  0
BLOCK
  5
427
330
426
100
AcDbEntity
  8
0
100
AcDbBlockBegin
  2
*D18
 70
     1
 10
0.0
 20
0.0
 30
0.0
  3
*D18
  1
*D18
  0
LINE
  5
429
330
426
100
AcDbEntity
  8
치수문자_일반주서
 62
     0
370
    -2
100
AcDbLine
 10
82.37500000000003
 20
10.23535610564834
 30
0.0
 11
82.37500000000003
 21
24.54872610505861
 31
0.0
  0
LINE
  5
42A
330
426
100
AcDbEntity
  8
치수문자_일반주서
 62
     0
370
    -2
100
AcDbLine
 10
63.32500000000002
 20
10.23059951728573
 30
0.0
 11
63.32500000000002
 21
24.54872610505861
 31
0.0
  0
LINE
  5
42B
330
426
100
AcDbEntity
  8
치수문자_일반주서
 62
     0
370
    -2
100
AcDbLine
 10
63.32500000000002
 20
24.54872610505861
 30
0.0
 11
31.78350000000002
 21
24.54872610505861
 31
0.0
  0
LINE
  5
42C
330
426
100
AcDbEntity
  8
치수문자_일반주서
 62
     0
370
    -2
100
AcDbLine
 10
82.37500000000003
 20
24.54872610505861
 30
0.0
 11
63.32500000000002
 21
24.54872610505861
 31
0.0
  0
LINE
  5
42D
330
426
100
AcDbEntity
  8
치수문자_일반주서
 62
     0
370
    -2
100
AcDbLine
 10
85.67700000000002
 20
24.54872610505861
 30
0.0
 11
88.97900000000001
 21
24.54872610505861
 31
0.0
  0
LINE
  5
42E
330
426
100
AcDbEntity
  8
치수문자_일반주서
 62
     0
370
    -2
100
AcDbLine
 10
60.02300000000002
 20
24.54872610505861
 30
0.0
 11
56.72100000000002
 21
24.54872610505861
 31
0.0
  0
SOLID
  5
42F
330
426
100
AcDbEntity
  8
치수문자_일반주서
 62
     0
100
AcDbTrace
 10
85.67700000000002
 20
25.09905943839194
 30
0.0
 11
85.67700000000002
 21
23.99839277172527
 31
0.0
 12
82.37500000000003
 22
24.54872610505861
 32
0.0
 13
82.37500000000003
 23
24.54872610505861
 33
0.0
  0
SOLID
  5
430
330
426
100
AcDbEntity
  8
치수문자_일반주서
 62
     0
100
AcDbTrace
 10
60.02300000000002
 20
23.99839277172527
 30
0.0
 11
60.02300000000002
 21
25.09905943839194
 31
0.0
 12
63.32500000000002
 22
24.54872610505861
 32
0.0
 13
63.32500000000002
 23
24.54872610505861
 33
0.0
  0
MTEXT
  5
431
330
426
100
AcDbEntity
  8
치수문자_일반주서
 62
     0
100
AcDbMText
 10
44.25225000000002
 20
28.92372610505861
 30
0.0
 40
3.5
 41
0.0
 71
     2
 72
     1
  1
\A1;19.05 [3/4]
  7
SLDTEXTSTYLE0
 73
     1
 44
1.0
  0
POINT
  5
432
330
426
100
AcDbEntity
  8
Defpoints
 62
     0
100
AcDbPoint
 10
82.37500000000003
 20
10.17285610564834
 30
0.0
  0
POINT
  5
433
330
426
100
AcDbEntity
  8
Defpoints
 62
     0
100
AcDbPoint
 10
63.32500000000002
 20
10.16809951728573
 30
0.0
  0
POINT
  5
434
330
426
100
AcDbEntity
  8
Defpoints
 62
     0
100
AcDbPoint
 10
63.32500000000002
 20
24.54872610505861
 30
0.0
  0
ENDBLK
  5
428
330
426
100
AcDbEntity
  8
0
100
AcDbBlockEnd
  0
BLOCK
  5
436
330
435
100
AcDbEntity
  8
0
100
AcDbBlockBegin
  2
*D19
 70
     1
 10
0.0
 20
0.0
 30
0.0
  3
*D19
  1
*D19
  0
LINE
  5
438
330
435
100
AcDbEntity
  8
치수문자_일반주서
 62
     0
370
    -2
100
AcDbLine
 10
3.000000000000021
 20
10.40217805282413
 30
0.0
 11
3.000000000000028
 21
38.81859152589792
 31
0.0
  0
LINE
  5
439
330
435
100
AcDbEntity
  8
치수문자_일반주서
 62
     0
370
    -2
100
AcDbLine
 10
82.37500000000003
 20
10.23535610564834
 30
0.0
 11
82.37500000000003
 21
38.81859152589792
 31
0.0
  0
LINE
  5
43A
330
435
100
AcDbEntity
  8
치수문자_일반주서
 62
     0
370
    -2
100
AcDbLine
 10
6.302000000000028
 20
38.81859152589792
 30
0.0
 11
79.07300000000004
 21
38.81859152589792
 31
0.0
  0
SOLID
  5
43B
330
435
100
AcDbEntity
  8
치수문자_일반주서
 62
     0
100
AcDbTrace
 10
6.302000000000028
 20
39.36892485923125
 30
0.0
 11
6.302000000000028
 21
38.26825819256458
 31
0.0
 12
3.000000000000028
 22
38.81859152589792
 32
0.0
 13
3.000000000000028
 23
38.81859152589792
 33
0.0
  0
SOLID
  5
43C
330
435
100
AcDbEntity
  8
치수문자_일반주서
 62
     0
100
AcDbTrace
 10
79.07300000000004
 20
38.26825819256458
 30
0.0
 11
79.07300000000004
 21
39.36892485923125
 31
0.0
 12
82.37500000000003
 22
38.81859152589792
 32
0.0
 13
82.37500000000003
 23
38.81859152589792
 33
0.0
  0
MTEXT
  5
43D
330
435
100
AcDbEntity
  8
치수문자_일반주서
 62
     0
100
AcDbMText
 10
42.68750000000002
 20
43.19359152589792
 30
0.0
 40
3.5
 41
0.0
 71
     2
 72
     1
  1
\A1;79.38 [3 1/8]
  7
SLDTEXTSTYLE0
 73
     1
 44
1.0
  0
POINT
  5
43E
330
435
100
AcDbEntity
  8
Defpoints
 62
     0
100
AcDbPoint
 10
3.000000000000021
 20
10.33967805282413
 30
0.0
  0
POINT
  5
43F
330
435
100
AcDbEntity
  8
Defpoints
 62
     0
100
AcDbPoint
 10
82.37500000000003
 20
10.17285610564834
 30
0.0
  0
POINT
  5
440
330
435
100
AcDbEntity
  8
Defpoints
 62
     0
100
AcDbPoint
 10
82.37500000000003
 20
38.81859152589792
 30
0.0
  0
ENDBLK
  5
437
330
435
100
AcDbEntity
  8
0
100
AcDbBlockEnd
  0
BLOCK
  5
490
330
48F
100
AcDbEntity
  8
0
100
AcDbBlockBegin
  2
*D20
 70
     1
 10
0.0
 20
0.0
 30
0.0
  3
*D20
  1
*D20
  0
LINE
  5
492
330
48F
100
AcDbEntity
  8
치수문자_일반주서
 62
     0
370
    -2
100
AcDbLine
 10
166.0656574657924
 20
-47.01585664844292
 30
0.0
 11
179.9089237361077
 21
-47.01585664844287
 31
0.0
  0
LINE
  5
493
330
48F
100
AcDbEntity
  8
치수문자_일반주서
 62
     0
370
    -2
100
AcDbLine
 10
166.0656574657924
 20
-43.44700054279453
 30
0.0
 11
179.9089237361077
 21
-43.44700054279448
 31
0.0
  0
LINE
  5
494
330
48F
100
AcDbEntity
  8
치수문자_일반주서
 62
     0
370
    -2
100
AcDbLine
 10
179.9089237361077
 20
-43.44700054279448
 30
0.0
 11
179.9089237361077
 21
-7.968000542794478
 31
0.0
  0
LINE
  5
495
330
48F
100
AcDbEntity
  8
치수문자_일반주서
 62
     0
370
    -2
100
AcDbLine
 10
179.9089237361077
 20
-47.01585664844287
 30
0.0
 11
179.9089237361077
 21
-43.44700054279448
 31
0.0
  0
LINE
  5
496
330
48F
100
AcDbEntity
  8
치수문자_일반주서
 62
     0
370
    -2
100
AcDbLine
 10
179.9089237361077
 20
-50.31785664844287
 30
0.0
 11
179.9089237361077
 21
-53.61985664844287
 31
0.0
  0
LINE
  5
497
330
48F
100
AcDbEntity
  8
치수문자_일반주서
 62
     0
370
    -2
100
AcDbLine
 10
179.9089237361077
 20
-40.14500054279448
 30
0.0
 11
179.9089237361077
 21
-36.84300054279448
 31
0.0
  0
SOLID
  5
498
330
48F
100
AcDbEntity
  8
치수문자_일반주서
 62
     0
100
AcDbTrace
 10
180.459257069441
 20
-50.31785664844287
 30
0.0
 11
179.3585904027744
 21
-50.31785664844287
 31
0.0
 12
179.9089237361077
 22
-47.01585664844287
 32
0.0
 13
179.9089237361077
 23
-47.01585664844287
 33
0.0
  0
SOLID
  5
499
330
48F
100
AcDbEntity
  8
치수문자_일반주서
 62
     0
100
AcDbTrace
 10
179.3585904027744
 20
-40.14500054279448
 30
0.0
 11
180.459257069441
 21
-40.14500054279448
 31
0.0
 12
179.9089237361077
 22
-43.44700054279448
 32
0.0
 13
179.9089237361077
 23
-43.44700054279448
 33
0.0
  0
MTEXT
  5
49A
330
48F
100
AcDbEntity
  8
치수문자_일반주서
 62
     0
100
AcDbMText
 10
175.5339237361077
 20
-22.40550054279448
 30
0.0
 40
3.5
 41
0.0
 71
     2
 72
     1
  1
\A1;%%c3.57 [9/64]
  7
SLDTEXTSTYLE0
 11
0.0
 21
1.0
 31
0.0
 73
     1
 44
1.0
  0
POINT
  5
49B
330
48F
100
AcDbEntity
  8
Defpoints
 62
     0
100
AcDbPoint
 10
166.0031574657924
 20
-47.01585664844292
 30
0.0
  0
POINT
  5
49C
330
48F
100
AcDbEntity
  8
Defpoints
 62
     0
100
AcDbPoint
 10
166.0031574657924
 20
-43.44700054279453
 30
0.0
  0
POINT
  5
49D
330
48F
100
AcDbEntity
  8
Defpoints
 62
     0
100
AcDbPoint
 10
179.9089237361077
 20
-43.44700054279448
 30
0.0
  0
ENDBLK
  5
491
330
48F
100
AcDbEntity
  8
0
100
AcDbBlockEnd
  0
BLOCK
  5
49F
330
49E
100
AcDbEntity
  8
0
100
AcDbBlockBegin
  2
*D21
 70
     1
 10
0.0
 20
0.0
 30
0.0
  3
*D21
  1
*D21
  0
LINE
  5
4A1
330
49E
100
AcDbEntity
  8
치수문자_일반주서
 62
     0
370
    -2
100
AcDbLine
 10
166.0031574657924
 20
-43.38450054279453
 30
0.0
 11
166.0031574657924
 21
-29.07113054338425
 31
0.0
  0
LINE
  5
4A2
330
49E
100
AcDbEntity
  8
치수문자_일반주서
 62
     0
370
    -2
100
AcDbLine
 10
146.9531574657924
 20
-43.38925713115714
 30
0.0
 11
146.9531574657924
 21
-29.07113054338425
 31
0.0
  0
LINE
  5
4A3
330
49E
100
AcDbEntity
  8
치수문자_일반주서
 62
     0
370
    -2
100
AcDbLine
 10
146.9531574657924
 20
-29.07113054338425
 30
0.0
 11
115.4116574657924
 21
-29.07113054338425
 31
0.0
  0
LINE
  5
4A4
330
49E
100
AcDbEntity
  8
치수문자_일반주서
 62
     0
370
    -2
100
AcDbLine
 10
166.0031574657924
 20
-29.07113054338425
 30
0.0
 11
146.9531574657924
 21
-29.07113054338425
 31
0.0
  0
LINE
  5
4A5
330
49E
100
AcDbEntity
  8
치수문자_일반주서
 62
     0
370
    -2
100
AcDbLine
 10
169.3051574657924
 20
-29.07113054338425
 30
0.0
 11
172.6071574657924
 21
-29.07113054338425
 31
0.0
  0
LINE
  5
4A6
330
49E
100
AcDbEntity
  8
치수문자_일반주서
 62
     0
370
    -2
100
AcDbLine
 10
143.6511574657924
 20
-29.07113054338425
 30
0.0
 11
140.3491574657924
 21
-29.07113054338425
 31
0.0
  0
SOLID
  5
4A7
330
49E
100
AcDbEntity
  8
치수문자_일반주서
 62
     0
100
AcDbTrace
 10
169.3051574657924
 20
-28.52079721005092
 30
0.0
 11
169.3051574657924
 21
-29.62146387671759
 31
0.0
 12
166.0031574657924
 22
-29.07113054338425
 32
0.0
 13
166.0031574657924
 23
-29.07113054338425
 33
0.0
  0
SOLID
  5
4A8
330
49E
100
AcDbEntity
  8
치수문자_일반주서
 62
     0
100
AcDbTrace
 10
143.6511574657924
 20
-29.62146387671759
 30
0.0
 11
143.6511574657924
 21
-28.52079721005092
 31
0.0
 12
146.9531574657924
 22
-29.07113054338425
 32
0.0
 13
146.9531574657924
 23
-29.07113054338425
 33
0.0
  0
MTEXT
  5
4A9
330
49E
100
AcDbEntity
  8
치수문자_일반주서
 62
     0
100
AcDbMText
 10
127.8804074657924
 20
-24.69613054338425
 30
0.0
 40
3.5
 41
0.0
 71
     2
 72
     1
  1
\A1;19.05 [3/4]
  7
SLDTEXTSTYLE0
 73
     1
 44
1.0
  0
POINT
  5
4AA
330
49E
100
AcDbEntity
  8
Defpoints
 62
     0
100
AcDbPoint
 10
166.0031574657924
 20
-43.44700054279453
 30
0.0
  0
POINT
  5
4AB
330
49E
100
AcDbEntity
  8
Defpoints
 62
     0
100
AcDbPoint
 10
146.9531574657924
 20
-43.45175713115714
 30
0.0
  0
POINT
  5
4AC
330
49E
100
AcDbEntity
  8
Defpoints
 62
     0
100
AcDbPoint
 10
146.9531574657924
 20
-29.07113054338425
 30
0.0
  0
ENDBLK
  5
4A0
330
49E
100
AcDbEntity
  8
0
100
AcDbBlockEnd
  0
BLOCK
  5
4AE
330
4AD
100
AcDbEntity
  8
0
100
AcDbBlockBegin
  2
*D22
 70
     1
 10
0.0
 20
0.0
 30
0.0
  3
*D22
  1
*D22
  0
LINE
  5
4B0
330
4AD
100
AcDbEntity
  8
치수문자_일반주서
 62
     0
370
    -2
100
AcDbLine
 10
86.62815746579241
 20
-43.21767859561873
 30
0.0
 11
86.62815746579241
 21
-14.80126512254495
 31
0.0
  0
LINE
  5
4B1
330
4AD
100
AcDbEntity
  8
치수문자_일반주서
 62
     0
370
    -2
100
AcDbLine
 10
166.0031574657924
 20
-43.38450054279453
 30
0.0
 11
166.0031574657924
 21
-14.80126512254495
 31
0.0
  0
LINE
  5
4B2
330
4AD
100
AcDbEntity
  8
치수문자_일반주서
 62
     0
370
    -2
100
AcDbLine
 10
89.9301574657924
 20
-14.80126512254495
 30
0.0
 11
162.7011574657924
 21
-14.80126512254495
 31
0.0
  0
SOLID
  5
4B3
330
4AD
100
AcDbEntity
  8
치수문자_일반주서
 62
     0
100
AcDbTrace
 10
89.9301574657924
 20
-14.25093178921161
 30
0.0
 11
89.9301574657924
 21
-15.35159845587828
 31
0.0
 12
86.62815746579241
 22
-14.80126512254495
 32
0.0
 13
86.62815746579241
 23
-14.80126512254495
 33
0.0
  0
SOLID
  5
4B4
330
4AD
100
AcDbEntity
  8
치수문자_일반주서
 62
     0
100
AcDbTrace
 10
162.7011574657924
 20
-15.35159845587828
 30
0.0
 11
162.7011574657924
 21
-14.25093178921161
 31
0.0
 12
166.0031574657924
 22
-14.80126512254495
 32
0.0
 13
166.0031574657924
 23
-14.80126512254495
 33
0.0
  0
MTEXT
  5
4B5
330
4AD
100
AcDbEntity
  8
치수문자_일반주서
 62
     0
100
AcDbMText
 10
126.3156574657924
 20
-10.42626512254495
 30
0.0
 40
3.5
 41
0.0
 71
     2
 72
     1
  1
\A1;79.38 [3 1/8]
  7
SLDTEXTSTYLE0
 73
     1
 44
1.0
  0
POINT
  5
4B6
330
4AD
100
AcDbEntity
  8
Defpoints
 62
     0
100
AcDbPoint
 10
86.62815746579241
 20
-43.28017859561873
 30
0.0
  0
POINT
  5
4B7
330
4AD
100
AcDbEntity
  8
Defpoints
 62
     0
100
AcDbPoint
 10
166.0031574657924
 20
-43.44700054279453
 30
0.0
  0
POINT
  5
4B8
330
4AD
100
AcDbEntity
  8
Defpoints
 62
     0
100
AcDbPoint
 10
166.0031574657924
 20
-14.80126512254495
 30
0.0
  0
ENDBLK
  5
4AF
330
4AD
100
AcDbEntity
  8
0
100
AcDbBlockEnd
  0
ENDSEC
  0
SECTION
  2
ENTITIES
  0
LINE
  5
96
330
1F
100
AcDbEntity
  8
외형선
  6
Continuous
370
    15
100
AcDbLine
 10
17.41576350361918
 20
2.381249999999997
 30
0.0
 11
-17.41576350361917
 21
2.381249999999995
 31
0.0
  0
LINE
  5
97
330
1F
100
AcDbEntity
  8
외형선
  6
Continuous
370
    15
100
AcDbLine
 10
-17.41576350361917
 20
-2.381250000000001
 30
0.0
 11
17.41576350361918
 21
-2.381249999999999
 31
0.0
  0
LINE
  5
98
330
1F
100
AcDbEntity
  8
외형선
  6
Continuous
370
    15
100
AcDbLine
 10
17.41576350361918
 20
-2.381250000000001
 30
0.0
 11
19.63750000000002
 21
-1.785937500000001
 31
0.0
  0
LINE
  5
99
330
1F
100
AcDbEntity
  8
외형선
  6
Continuous
370
    15
100
AcDbLine
 10
19.63750000000002
 20
1.785937499999999
 30
0.0
 11
17.41576350361918
 21
2.381249999999999
 31
0.0
  0
LINE
  5
9C
330
1F
100
AcDbEntity
  8
외형선
  6
Continuous
370
    15
100
AcDbLine
 10
19.74748960378528
 20
1.785937499999999
 30
0.0
 11
19.63750000000002
 21
1.785937499999999
 31
0.0
  0
LINE
  5
9D
330
1F
100
AcDbEntity
  8
외형선
  6
Continuous
370
    15
100
AcDbLine
 10
20.63750000000002
 20
1.785937499999999
 30
0.0
 11
20.37892535774828
 21
1.785937499999999
 31
0.0
  0
LINE
  5
9E
330
1F
100
AcDbEntity
  8
외형선
  6
Continuous
370
    15
100
AcDbLine
 10
20.37892535774828
 20
-1.785937500000001
 30
0.0
 11
20.63750000000002
 21
-1.785937500000001
 31
0.0
  0
LINE
  5
9F
330
1F
100
AcDbEntity
  8
외형선
  6
Continuous
370
    15
100
AcDbLine
 10
19.63750000000002
 20
-1.785937500000001
 30
0.0
 11
19.74748960378528
 21
-1.785937500000001
 31
0.0
  0
LINE
  5
A0
330
1F
100
AcDbEntity
  8
0
  6
Continuous
 62
     1
370
    15
100
AcDbLine
 10
34.2564143121746
 20
0.4020550340477019
 30
0.0
 11
34.05203077483689
 21
0.513913258988414
 31
0.0
  0
LINE
  5
A1
330
1F
100
AcDbEntity
  8
0
  6
Continuous
 62
     1
370
    15
100
AcDbLine
 10
24.41474238243563
 20
0.4698525152682296
 30
0.0
 11
24.33462742445457
 21
0.5135849656558509
 31
0.0
  0
SPLINE
  5
A2
330
1F
100
AcDbEntity
  8
0
  6
Continuous
 62
     1
370
    15
100
AcDbSpline
210
0.0
220
0.0
230
1.0
 70
     8
 71
     3
 72
     9
 73
     5
 74
     0
 42
0.000000001
 43
0.00000001
 40
0.0
 40
0.0
 40
0.0
 40
0.0
 40
0.4916158051257595
 40
0.9999999999999999
 40
0.9999999999999999
 40
0.9999999999999999
 40
0.9999999999999999
 10
25.3414522027211
 20
0.4577957089682282
 30
0.0
 10
25.26061712041935
 20
0.4964738037570408
 30
0.0
 10
25.09618977398554
 20
0.5751492539470897
 30
0.0
 10
24.93169890907406
 20
0.6614641662853323
 30
0.0
 10
24.84807435315187
 20
0.7053453035000501
 30
0.0
  0
SPLINE
  5
A3
330
1F
100
AcDbEntity
  8
0
  6
Continuous
 62
     1
370
    15
100
AcDbSpline
210
0.0
220
0.0
230
1.0
 70
     8
 71
     3
 72
     9
 73
     5
 74
     0
 42
0.000000001
 43
0.00000001
 40
0.0
 40
0.0
 40
0.0
 40
0.0
 40
0.5561427454989626
 40
1.0
 40
1.0
 40
1.0
 40
1.0
 10
35.05990756639608
 20
0.4575813504369935
 30
0.0
 10
34.96882555814747
 20
0.5012802987682271
 30
0.0
 10
34.80505104344641
 20
0.5798553564937893
 30
0.0
 10
34.6400952576214
 20
0.6664722511201663
 30
0.0
 10
34.56687843541105
 20
0.7049177881624354
 30
0.0
  0
LINE
  5
A4
330
1F
100
AcDbEntity
  8
0
  6
Continuous
 62
     1
370
    15
100
AcDbLine
 10
20.63750000000002
 20
-1.785937500000003
 30
0.0
 11
21.24440819399761
 21
-1.785937500000003
 31
0.0
  0
LINE
  5
A5
330
1F
100
AcDbEntity
  8
0
  6
Continuous
 62
     1
370
    15
100
AcDbLine
 10
30.96221539819877
 20
1.785937500000001
 30
0.0
 11
30.09695219362016
 21
1.785937500000001
 31
0.0
  0
LINE
  5
A6
330
1F
100
AcDbEntity
  8
0
  6
Continuous
 62
     1
370
    15
100
AcDbLine
 10
30.09695219362019
 20
-1.785937500000003
 30
0.0
 11
30.96221539819879
 21
-1.785937500000003
 31
0.0
  0
LINE
  5
A7
330
1F
100
AcDbEntity
  8
0
  6
Continuous
 62
     1
370
    15
100
AcDbLine
 10
21.24440819399762
 20
1.785937500000001
 30
0.0
 11
20.63750000000002
 21
1.785937500000001
 31
0.0
  0
SPLINE
  5
A8
330
1F
100
AcDbEntity
  8
0
  6
Continuous
 62
     1
370
    15
100
AcDbSpline
210
0.0
220
0.0
230
1.0
 70
     8
 71
     3
 72
    10
 73
     6
 74
     0
 42
0.000000001
 43
0.00000001
 40
0.0
 40
0.0
 40
0.0
 40
0.0
 40
0.2647894370885733
 40
0.4520149260584153
 40
1.0
 40
1.0
 40
1.0
 40
1.0
 10
22.04948054822902
 20
-1.48785739686374
 30
0.0
 10
22.28868559478656
 20
-1.466296741791572
 30
0.0
 10
22.69702609590834
 20
-1.429491127431067
 30
0.0
 10
23.59633492743088
 20
-1.384877886000792
 30
0.0
 10
24.25877740514277
 20
-1.404524086598274
 30
0.0
 10
24.75252519447469
 20
-1.419167272142902
 30
0.0
  0
SPLINE
  5
A9
330
1F
100
AcDbEntity
  8
0
  6
Continuous
 62
     1
370
    15
100
AcDbSpline
210
0.0
220
0.0
230
1.0
 70
     8
 71
     3
 72
    11
 73
     7
 74
     0
 42
0.000000001
 43
0.00000001
 40
0.0
 40
0.0
 40
0.0
 40
0.0
 40
0.3931517228813002
 40
0.682203186924729
 40
0.9306254719498368
 40
1.0
 40
1.0
 40
1.0
 40
1.0
 10
34.47118777485158
 20
1.419202673987064
 30
0.0
 10
34.27580868980391
 20
1.41059424377166
 30
0.0
 10
33.93678376196912
 20
1.395656757336837
 30
0.0
 10
33.47516538394583
 20
1.393696484941553
 30
0.0
 10
33.17364713860263
 20
1.398071557308057
 30
0.0
 10
33.01594883253795
 20
1.403748882476451
 30
0.0
 10
32.98152354849663
 20
1.404988233338196
 30
0.0
  0
SPLINE
  5
AA
330
1F
100
AcDbEntity
  8
0
  6
Continuous
 62
     1
370
    15
100
AcDbSpline
210
0.0
220
0.0
230
1.0
 70
     8
 71
     3
 72
    14
 73
    10
 74
     0
 42
0.000000001
 43
0.00000001
 40
0.0
 40
0.0
 40
0.0
 40
0.0
 40
0.2195214037313429
 40
0.3854292196889146
 40
0.5178351172848878
 40
0.5935247703049452
 40
0.663454577854536
 40
0.7958433994778108
 40
1.0
 40
1.0
 40
1.0
 40
1.0
 10
31.78508095776152
 20
-1.486115056670314
 30
0.0
 10
31.98170322845321
 20
-1.468053288111319
 30
0.0
 10
32.32692682432136
 20
-1.436340966471762
 30
0.0
 10
32.79048300275947
 20
-1.410896983461575
 30
0.0
 10
33.12512806267871
 20
-1.399531881778684
 30
0.0
 10
33.37414816052699
 20
-1.39537879816339
 30
0.0
 10
33.62297258925746
 20
-1.394129365693587
 30
0.0
 10
33.98610149089729
 20
-1.39758966294638
 30
0.0
 10
34.2880303932619
 20
-1.411042099999668
 30
0.0
 10
34.47118777485158
 20
-1.419202673987066
 30
0.0
  0
SPLINE
  5
AB
330
1F
100
AcDbEntity
  8
0
  6
Continuous
 62
     1
370
    15
100
AcDbSpline
210
0.0
220
0.0
230
1.0
 70
     8
 71
     3
 72
     9
 73
     5
 74
     0
 42
0.000000001
 43
0.00000001
 40
0.0
 40
0.0
 40
0.0
 40
0.0
 40
0.9823944687749904
 40
1.0
 40
1.0
 40
1.0
 40
1.0
 10
24.75252519447469
 20
1.4191672721429
 30
0.0
 10
24.25885436904729
 20
1.400067203508797
 30
0.0
 10
23.75633644868176
 20
1.380624841767979
 30
0.0
 10
23.25430522635896
 20
1.405226247335431
 30
0.0
 10
23.24546669999843
 20
1.405659368149328
 30
0.0
  0
SPLINE
  5
AC
330
1F
100
AcDbEntity
  8
0
  6
Continuous
 62
     1
370
    15
100
AcDbSpline
210
0.0
220
0.0
230
1.0
 70
     8
 71
     3
 72
    13
 73
     9
 74
     0
 42
0.000000001
 43
0.00000001
 40
0.0
 40
0.0
 40
0.0
 40
0.0
 40
0.3008667285386671
 40
0.5095461654580961
 40
0.63835560109348
 40
0.7618467937036976
 40
0.8916392108598339
 40
0.9999999999999999
 40
0.9999999999999999
 40
0.9999999999999999
 40
0.9999999999999999
 10
26.18499059156998
 20
-1.343325555435993
 30
0.0
 10
26.32018730122077
 20
-1.32306771536392
 30
0.0
 10
26.54915567309663
 20
-1.288759153631872
 30
0.0
 10
26.83521434475963
 20
-1.25500494500114
 30
0.0
 10
27.04173804254014
 20
-1.233546895015194
 30
0.0
 10
27.21283586137297
 20
-1.218136632424155
 30
0.0
 10
27.37488874789465
 20
-1.205478788901101
 30
0.0
 10
27.48169470203304
 20
-1.199235033753767
 30
0.0
 10
27.53029189564336
 20
-1.196394096839731
 30
0.0
  0
SPLINE
  5
AD
330
1F
100
AcDbEntity
  8
0
  6
Continuous
 62
     1
370
    15
100
AcDbSpline
210
0.0
220
0.0
230
1.0
 70
     8
 71
     3
 72
    17
 73
    13
 74
     0
 42
0.000000001
 43
0.00000001
 40
0.0
 40
0.0
 40
0.0
 40
0.0
 40
0.1390740648037816
 40
0.2346614279460396
 40
0.2981136339276951
 40
0.3674300652208076
 40
0.4459953002851523
 40
0.5374558139952839
 40
0.6350959055758614
 40
0.7262206124898045
 40
0.8370759766632436
 40
1.0
 40
1.0
 40
1.0
 40
1.0
 10
39.04305193333887
 20
1.223172499024791
 30
0.0
 10
38.89673479449016
 20
1.211743604959091
 30
0.0
 10
38.64985203612927
 20
1.192459487499194
 30
0.0
 10
38.33742989889318
 20
1.180327736780788
 30
0.0
 10
38.09868977563597
 20
1.175463525001275
 30
0.0
 10
37.87765196055278
 20
1.174797001510976
 30
0.0
 10
37.62773052524174
 20
1.178856159035129
 30
0.0
 10
37.34783766804554
 20
1.189529516422678
 30
0.0
 10
37.05463204207302
 20
1.207552052907111
 30
0.0
 10
36.74162888107386
 20
1.234523284852325
 30
0.0
 10
36.36058841000058
 20
1.275767389905068
 30
0.0
 10
36.0737312450413
 20
1.318117468137012
 30
0.0
 10
35.90302473618696
 20
1.343319676370887
 30
0.0
  0
SPLINE
  5
AE
330
1F
100
AcDbEntity
  8
0
  6
Continuous
 62
     1
370
    15
100
AcDbSpline
210
0.0
220
0.0
230
1.0
 70
     8
 71
     3
 72
    12
 73
     8
 74
     0
 42
0.000000001
 43
0.00000001
 40
0.0
 40
0.0
 40
0.0
 40
0.0
 40
0.3217351933020011
 40
0.5605636519771849
 40
0.7355180725888841
 40
0.9165857725409802
 40
1.0
 40
1.0
 40
1.0
 40
1.0
 10
35.90302473618696
 20
-1.343319676370888
 30
0.0
 10
36.04897573456095
 20
-1.321563118854483
 30
0.0
 10
36.30326816622988
 20
-1.283656369484979
 30
0.0
 10
36.63601393959262
 20
-1.245591309276516
 30
0.0
 10
36.90490493471117
 20
-1.220014684925651
 30
0.0
 10
37.10381920133406
 20
-1.204296236470871
 30
0.0
 10
37.22360359103916
 20
-1.197954059162509
 30
0.0
 10
37.26138206016446
 20
-1.195953817309451
 30
0.0
  0
SPLINE
  5
AF
330
1F
100
AcDbEntity
  8
0
  6
Continuous
 62
     1
370
    15
100
AcDbSpline
210
0.0
220
0.0
230
1.0
 70
     8
 71
     3
 72
    17
 73
    13
 74
     0
 42
0.000000001
 43
0.00000001
 40
0.0
 40
0.0
 40
0.0
 40
0.0
 40
0.1288824831536298
 40
0.2186363294499223
 40
0.2747755330597319
 40
0.3287718694046975
 40
0.3849520532737686
 40
0.4464649207416246
 40
0.5531323728150145
 40
0.6650248029715045
 40
0.8056357121083572
 40
1.0
 40
1.0
 40
1.0
 40
1.0
 10
29.30465681772815
 20
1.221446982283904
 30
0.0
 10
29.17038455358983
 20
1.211049960004767
 30
0.0
 10
28.94260499612166
 20
1.193412444551172
 30
0.0
 10
28.65732120584214
 20
1.181688848690637
 30
0.0
 10
28.44950111391373
 20
1.176636914492837
 30
0.0
 10
28.2765744171418
 20
1.174918130199438
 30
0.0
 10
28.09810021211439
 20
1.175641079165787
 30
0.0
 10
27.86513696774851
 20
1.180188128401678
 30
0.0
 10
27.57378672206685
 20
1.19204003124455
 30
0.0
 10
27.20017271459327
 20
1.217575893833951
 30
0.0
 10
26.73672320181094
 20
1.262935468078586
 30
0.0
 10
26.38757724711157
 20
1.313807708141591
 30
0.0
 10
26.18499059156998
 20
1.343325555435991
 30
0.0
  0
LINE
  5
B0
330
1F
100
AcDbEntity
  8
외형선
  6
Continuous
370
    15
100
AcDbLine
 10
17.41576350361918
 20
2.381249999999999
 30
0.0
 11
17.41576350361918
 21
-2.381249999999999
 31
0.0
  0
LINE
  5
B2
330
1F
100
AcDbEntity
  8
외형선
  6
Continuous
370
    15
100
AcDbLine
 10
19.63750000000002
 20
1.785937499999999
 30
0.0
 11
19.63750000000002
 21
-1.785937500000001
 31
0.0
  0
SPLINE
  5
B4
330
1F
100
AcDbEntity
  8
외형선
  6
Continuous
370
    15
100
AcDbSpline
210
0.0
220
0.0
230
1.0
 70
     8
 71
     3
 72
     8
 73
     4
 74
     0
 42
0.000000001
 43
0.00000001
 40
0.0
 40
0.0
 40
0.0
 40
0.0
 40
1.0
 40
1.0
 40
1.0
 40
1.0
 10
20.63750000000002
 20
-1.751734020126356
 30
0.0
 10
20.33906013284757
 20
-1.718294411513864
 30
0.0
 10
20.04614269477558
 20
-1.660816509620551
 30
0.0
 10
19.74747869257648
 20
-1.580929910303486
 30
0.0
  0
LINE
  5
B5
330
1F
100
AcDbEntity
  8
외형선
  6
Continuous
370
    15
100
AcDbLine
 10
19.74748960378528
 20
-1.748893804452862
 30
0.0
 11
20.37892535774828
 21
-1.770729633611053
 31
0.0
  0
LINE
  5
B6
330
1F
100
AcDbEntity
  8
외형선
  6
Continuous
370
    15
100
AcDbLine
 10
19.74748960378528
 20
-1.785937500000001
 30
0.0
 11
19.74748960378528
 21
-1.74877007639416
 31
0.0
  0
LINE
  5
B7
330
1F
100
AcDbEntity
  8
외형선
  6
Continuous
370
    15
100
AcDbLine
 10
20.63750000000002
 20
1.785937499999999
 30
0.0
 11
20.63750000000002
 21
1.77967146447415
 31
0.0
  0
SPLINE
  5
B8
330
1F
100
AcDbEntity
  8
외형선
  6
Continuous
370
    15
100
AcDbSpline
210
0.0
220
0.0
230
1.0
 70
     8
 71
     3
 72
     8
 73
     4
 74
     0
 42
0.000000001
 43
0.00000001
 40
0.0
 40
0.0
 40
0.0
 40
0.0
 40
1.0
 40
1.0
 40
1.0
 40
1.0
 10
20.63750000000002
 20
1.779671464474148
 30
0.0
 10
20.33906376718765
 20
1.794040422639025
 30
0.0
 10
20.04614997809684
 20
1.783688430424372
 30
0.0
 10
19.74748960378528
 20
1.74889380445286
 30
0.0
  0
LINE
  5
B9
330
1F
100
AcDbEntity
  8
외형선
  6
Continuous
370
    15
100
AcDbLine
 10
19.74748960378528
 20
-1.580894302978725
 30
0.0
 11
19.74748960378528
 21
1.785937499999999
 31
0.0
  0
SPLINE
  5
BA
330
1F
100
AcDbEntity
  8
외형선
  6
Continuous
370
    15
100
AcDbSpline
210
0.0
220
0.0
230
1.0
 70
    24
 71
     3
 72
    10
 73
     6
 74
     0
 42
0.000000001
 43
0.00000001
 40
0.0
 40
0.0
 40
0.0
 40
0.0
 40
0.4999999999999999
 40
0.4999999999999999
 40
1.0
 40
1.0
 40
1.0
 40
1.0
 10
20.63750000000002
 20
-0.1780007887979488
 30
0.0
 10
20.63750000000002
 20
-0.4455256938558478
 30
0.0
 10
20.63750000000002
 20
-0.7115788847247636
 30
0.0
 10
20.63750000000002
 20
-1.162653472934642
 30
0.0
 10
20.63750000000002
 20
-1.345733268930344
 30
0.0
 10
20.63750000000002
 20
-1.468446120337987
 30
0.0
  0
SPLINE
  5
BB
330
1F
100
AcDbEntity
  8
외형선
  6
Continuous
370
    15
100
AcDbSpline
210
0.0
220
0.0
230
1.0
 70
     8
 71
     3
 72
     8
 73
     4
 74
     0
 42
0.000000001
 43
0.00000001
 40
0.0
 40
0.0
 40
0.0
 40
0.0
 40
1.0
 40
1.0
 40
1.0
 40
1.0
 10
20.63750000000003
 20
-1.468446120337988
 30
0.0
 10
20.33906013284758
 20
-1.431446933564039
 30
0.0
 10
20.04614269477559
 20
-1.374352520924469
 30
0.0
 10
19.74747869257648
 20
-1.298784419195056
 30
0.0
  0
SPLINE
  5
BC
330
1F
100
AcDbEntity
  8
외형선
  6
Continuous
370
    15
100
AcDbSpline
210
0.0
220
0.0
230
1.0
 70
     8
 71
     3
 72
    12
 73
     8
 74
     0
 42
0.000000001
 43
0.00000001
 40
0.0
 40
0.0
 40
0.0
 40
0.0
 40
0.25
 40
0.25
 40
0.5
 40
0.5
 40
1.0
 40
1.0
 40
1.0
 40
1.0
 10
20.04308625519585
 20
0.096547430010193
 30
0.0
 10
19.98130268064322
 20
0.1250156968292561
 30
0.0
 10
19.93768689558925
 20
0.1794127952298858
 30
0.0
 10
19.8668431764365
 20
0.2926170472114751
 30
0.0
 10
19.83959702383854
 20
0.3541955985818702
 30
0.0
 10
19.77340722348645
 20
0.5414486027513343
 30
0.0
 10
19.74748960378526
 20
0.6738213198108178
 30
0.0
 10
19.74748960378526
 20
0.8077930320468139
 30
0.0
  0
SPLINE
  5
BD
330
1F
100
AcDbEntity
  8
외형선
  6
Continuous
370
    15
100
AcDbSpline
210
0.0
220
0.0
230
1.0
 70
     8
 71
     3
 72
     8
 73
     4
 74
     0
 42
0.000000001
 43
0.00000001
 40
0.0
 40
0.0
 40
0.0
 40
0.0
 40
1.0
 40
1.0
 40
1.0
 40
1.0
 10
20.63750000000002
 20
-0.1780007887979468
 30
0.0
 10
20.43770470992546
 20
-0.0867671337747038
 30
0.0
 10
20.24183911434414
 20
0.004967273532419
 30
0.0
 10
20.04308625519585
 20
0.0965474300101927
 30
0.0
  0
SPLINE
  5
BE
330
1F
100
AcDbEntity
  8
외형선
  6
Continuous
370
    15
100
AcDbSpline
210
0.0
220
0.0
230
1.0
 70
     8
 71
     3
 72
    14
 73
    10
 74
     0
 42
0.000000001
 43
0.00000001
 40
0.0
 40
0.0
 40
0.0
 40
0.0
 40
0.25
 40
0.25
 40
0.5
 40
0.5
 40
0.75
 40
0.75
 40
1.0
 40
1.0
 40
1.0
 40
1.0
 10
19.74748960378972
 20
1.661252441081101
 30
0.0
 10
19.74748960378925
 20
1.601962335926998
 30
0.0
 10
19.76163629561042
 20
1.54587917698082
 30
0.0
 10
19.80396143736559
 20
1.448434982009162
 30
0.0
 10
19.83242292152107
 20
1.406016377611761
 30
0.0
 10
19.8980391580355
 20
1.335003785454368
 30
0.0
 10
19.93621390656947
 20
1.305247323658913
 30
0.0
 10
20.02292622146611
 20
1.262139766913683
 30
0.0
 10
20.07274793209889
 20
1.24824754711991
 30
0.0
 10
20.12757409846309
 20
1.249142238434357
 30
0.0
  0
SPLINE
  5
BF
330
1F
100
AcDbEntity
  8
외형선
  6
Continuous
370
    15
100
AcDbSpline
210
0.0
220
0.0
230
1.0
 70
    24
 71
     3
 72
    14
 73
    10
 74
     0
 42
0.000000001
 43
0.00000001
 40
0.0
 40
0.0
 40
0.0
 40
0.0
 40
0.25
 40
0.25
 40
0.5
 40
0.5
 40
0.75
 40
0.75
 40
1.0
 40
1.0
 40
1.0
 40
1.0
 10
20.63750000000002
 20
1.240416209147899
 30
0.0
 10
20.63750000000002
 20
1.187738929779842
 30
0.0
 10
20.63750000000002
 20
1.115084350177716
 30
0.0
 10
20.63750000000002
 20
0.931108626499662
 30
0.0
 10
20.63750000000002
 20
0.8198017308897114
 30
0.0
 10
20.63750000000002
 20
0.5677081358181194
 30
0.0
 10
20.63750000000002
 20
0.4270557623635167
 30
0.0
 10
20.63750000000002
 20
0.13126428638382
 30
0.0
 10
20.63750000000002
 20
-0.0237035164178906
 30
0.0
 10
20.63750000000002
 20
-0.1780007887979466
 30
0.0
  0
SPLINE
  5
C0
330
1F
100
AcDbEntity
  8
외형선
  6
Continuous
370
    15
100
AcDbSpline
210
0.0
220
0.0
230
1.0
 70
     8
 71
     3
 72
     8
 73
     4
 74
     0
 42
0.000000001
 43
0.00000001
 40
0.0
 40
0.0
 40
0.0
 40
0.0
 40
1.0
 40
1.0
 40
1.0
 40
1.0
 10
20.63750000000002
 20
1.240416209147899
 30
0.0
 10
20.46607245959617
 20
1.249016656113938
 30
0.0
 10
20.2973853852417
 20
1.251913336496671
 30
0.0
 10
20.12757409846309
 20
1.249142238434357
 30
0.0
  0
SPLINE
  5
C1
330
1F
100
AcDbEntity
  8
외형선
  6
Continuous
370
    15
100
AcDbSpline
210
0.0
220
0.0
230
1.0
 70
    24
 71
     3
 72
     8
 73
     4
 74
     0
 42
0.000000001
 43
0.00000001
 40
0.0
 40
0.0
 40
0.0
 40
0.0
 40
1.0
 40
1.0
 40
1.0
 40
1.0
 10
20.63750000000002
 20
-1.468446120337987
 30
0.0
 10
20.63750000000002
 20
-1.563349781239705
 30
0.0
 10
20.63750000000002
 20
-1.65838808607064
 30
0.0
 10
20.63750000000002
 20
-1.751734020117653
 30
0.0
  0
SPLINE
  5
C2
330
1F
100
AcDbEntity
  8
외형선
  6
Continuous
370
    15
100
AcDbSpline
210
0.0
220
0.0
230
1.0
 70
    24
 71
     3
 72
    10
 73
     6
 74
     0
 42
0.000000001
 43
0.00000001
 40
0.0
 40
0.0
 40
0.0
 40
0.0
 40
0.5
 40
0.5
 40
1.0
 40
1.0
 40
1.0
 40
1.0
 10
20.63750000000004
 20
1.779671464474143
 30
0.0
 10
20.63750000000004
 20
1.693777334485135
 30
0.0
 10
20.63750000000004
 20
1.598980092418592
 30
0.0
 10
20.63750000000004
 20
1.412373410062099
 30
0.0
 10
20.63750000000004
 20
1.321058041086904
 30
0.0
 10
20.63750000000004
 20
1.240416209147898
 30
0.0
  0
SPLINE
  5
C3
330
1F
100
AcDbEntity
  8
0
  6
Continuous
 62
     1
370
    15
100
AcDbSpline
210
0.0
220
0.0
230
1.0
 70
     8
 71
     3
 72
    20
 73
    16
 74
     0
 42
0.000000001
 43
0.00000001
 40
0.0
 40
0.0
 40
0.0
 40
0.0
 40
0.0159388934186711
 40
0.0979549893222239
 40
0.1799696517587644
 40
0.2619827092228961
 40
0.34399399072128
 40
0.4260033258265049
 40
0.5080105447305735
 40
0.5900154782979623
 40
0.6720179581182258
 40
0.7540178165581072
 40
0.8360148868131204
 40
0.9180090029585742
 40
1.0
 40
1.0
 40
1.0
 40
1.0
 10
27.53076380208712
 20
1.196611256423068
 30
0.0
 10
27.59535402069156
 20
1.226917263758448
 30
0.0
 10
27.99230342034731
 20
1.4131676229872
 30
0.0
 10
28.72160329175577
 20
1.6339502902807
 30
0.0
 10
29.71865622468807
 20
1.805235390988012
 30
0.0
 10
30.7156854942125
 20
1.78049750700288
 30
0.0
 10
31.71268893307102
 20
1.575104873507272
 30
0.0
 10
32.70966397017683
 20
1.206774934479891
 30
0.0
 10
33.70660815314413
 20
0.7143868530336184
 30
0.0
 10
34.70351901486735
 20
0.1483177723375086
 30
0.0
 10
35.70039408950845
 20
-0.4327497154324469
 30
0.0
 10
36.69723098673617
 20
-0.9701987172893676
 30
0.0
 10
37.69402708352763
 20
-1.404201823734592
 30
0.0
 10
38.69078068734814
 20
-1.706803322002761
 30
0.0
 10
39.35526444208783
 20
-1.758553470657599
 30
0.0
 10
39.68750000000003
 20
-1.784428052824193
 30
0.0
  0
SPLINE
  5
C4
330
1F
100
AcDbEntity
  8
0
  6
Continuous
 62
     1
370
    15
100
AcDbSpline
210
0.0
220
0.0
230
1.0
 70
     8
 71
     3
 72
    13
 73
     9
 74
     0
 42
0.000000001
 43
0.00000001
 40
0.0
 40
0.0
 40
0.0
 40
0.0
 40
0.0567190912900202
 40
0.2574306716257527
 40
0.4548767925717256
 40
0.6524610878712431
 40
0.8499860935813087
 40
1.0
 40
1.0
 40
1.0
 40
1.0
 10
35.24478906510038
 20
-0.1643812525317559
 30
0.0
 10
35.13239995215308
 20
-0.1204973475483133
 30
0.0
 10
34.6223000162866
 20
0.0786783246373244
 30
0.0
 10
33.72119528948844
 20
0.4506699449947872
 30
0.0
 10
32.54069430545876
 20
0.8637511345613832
 30
0.0
 10
31.3664664488293
 20
1.148612946076726
 30
0.0
 10
30.28622994131329
 20
1.279155020141988
 30
0.0
 10
29.59767165804634
 20
1.227299534106297
 30
0.0
 10
29.30045798134717
 20
1.204916302306999
 30
0.0
  0
SPLINE
  5
C5
330
1F
100
AcDbEntity
  8
0
  6
Continuous
 62
     1
370
    15
100
AcDbSpline
210
0.0
220
0.0
230
1.0
 70
     8
 71
     3
 72
    17
 73
    13
 74
     0
 42
0.000000001
 43
0.00000001
 40
0.0
 40
0.0
 40
0.0
 40
0.0
 40
0.1082374534156115
 40
0.2164766860846792
 40
0.3247157566208022
 40
0.4329527238580454
 40
0.5383664409421287
 40
0.6437789802131738
 40
0.7491901196927274
 40
0.8545996378502171
 40
0.9600073136734013
 40
0.9999999999999999
 40
0.9999999999999999
 40
0.9999999999999999
 40
0.9999999999999999
 10
20.63749999999835
 20
1.779671464474232
 30
0.0
 10
20.97880608866238
 20
1.74425528024716
 30
0.0
 10
21.66142387652561
 20
1.673422329606664
 30
0.0
 10
22.68536063279315
 20
1.333811673665365
 30
0.0
 10
23.70928491435542
 20
0.8632968885839764
 30
0.0
 10
24.72433335050943
 20
0.3003699463587451
 30
0.0
 10
25.73032360937054
 20
-0.287974037147271
 30
0.0
 10
26.72743944288128
 20
-0.8408605071008326
 30
0.0
 10
27.72452940894062
 20
-1.310218459914593
 30
0.0
 10
28.72160341106197
 20
-1.632925462366529
 30
0.0
 10
29.51240920631718
 20
-1.790200619527837
 30
0.0
 10
29.97085553288913
 20
-1.769770144044017
 30
0.0
 10
30.09695219362018
 20
-1.764150697259655
 30
0.0
  0
SPLINE
  5
C6
330
1F
100
AcDbEntity
  8
0
  6
Continuous
 62
     1
370
    15
100
AcDbSpline
210
0.0
220
0.0
230
1.0
 70
     8
 71
     3
 72
    10
 73
     6
 74
     0
 42
0.000000001
 43
0.00000001
 40
0.0
 40
0.0
 40
0.0
 40
0.0
 40
0.1782331836311236
 40
0.589124407086525
 40
1.0
 40
1.0
 40
1.0
 40
1.0
 10
37.26167079839139
 20
1.196078183179306
 30
0.0
 10
37.40579331063005
 20
1.260535473667306
 30
0.0
 10
37.88216975097987
 20
1.473589868295287
 30
0.0
 10
38.69078045866758
 20
1.702788631296233
 30
0.0
 10
39.35526436586194
 20
1.757215257391538
 30
0.0
 10
39.68750000000003
 20
1.784428052824192
 30
0.0
  0
SPLINE
  5
C7
330
1F
100
AcDbEntity
  8
0
  6
Continuous
 62
     1
370
    15
100
AcDbSpline
210
0.0
220
0.0
230
1.0
 70
    24
 71
     3
 72
    10
 73
     6
 74
     0
 42
0.000000001
 43
0.00000001
 40
0.0
 40
0.0
 40
0.0
 40
0.0
 40
0.5
 40
0.5
 40
1.0
 40
1.0
 40
1.0
 40
1.0
 10
39.68750000000003
 20
1.250156249999999
 30
0.0
 10
39.68750000000004
 20
1.325937608641811
 30
0.0
 10
39.68750000000004
 20
1.414002565492367
 30
0.0
 10
39.68750000000003
 20
1.598762607778529
 30
0.0
 10
39.68750000000004
 20
1.694985839251694
 30
0.0
 10
39.68750000000004
 20
1.784428052824194
 30
0.0
  0
LINE
  5
C8
330
1F
100
AcDbEntity
  8
0
  6
Continuous
 62
     1
370
    15
100
AcDbLine
 10
39.68750000000003
 20
1.250156249999999
 30
0.0
 11
39.03730487227863
 21
1.200020311767114
 31
0.0
  0
SPLINE
  5
C9
330
1F
100
AcDbEntity
  8
0
  6
Continuous
 62
     1
370
    15
100
AcDbSpline
210
0.0
220
0.0
230
1.0
 70
     8
 71
     3
 72
    12
 73
     8
 74
     0
 42
0.000000001
 43
0.00000001
 40
0.0
 40
0.0
 40
0.0
 40
0.0
 40
0.0207750444758556
 40
0.2655802136396508
 40
0.5100561956011197
 40
0.7549340894422578
 40
1.0
 40
1.0
 40
1.0
 40
1.0
 10
25.52835512165731
 20
-0.1668371287378076
 30
0.0
 10
25.49448231224342
 20
-0.1538688889492139
 30
0.0
 10
25.06146528688044
 20
0.0119121228598156
 30
0.0
 10
24.22992272981707
 20
0.3631933707285488
 30
0.0
 10
23.03331063039578
 20
0.7947964643049853
 30
0.0
 10
21.83591184286411
 20
1.125980549646623
 30
0.0
 10
21.03707279954051
 20
1.202261231702994
 30
0.0
 10
20.63750000000002
 20
1.240416209147899
 30
0.0
  0
SPLINE
  5
CA
330
1F
100
AcDbEntity
  8
외형선
  6
Continuous
370
    15
100
AcDbSpline
210
0.0
220
0.0
230
1.0
 70
    24
 71
     3
 72
    10
 73
     6
 74
     0
 42
0.000000001
 43
0.00000001
 40
0.0
 40
0.0
 40
0.0
 40
0.0
 40
0.5
 40
0.5
 40
1.0
 40
1.0
 40
1.0
 40
1.0
 10
20.63750000000004
 20
1.779671464461581
 30
0.0
 10
20.63750000000004
 20
1.693777334473821
 30
0.0
 10
20.63750000000004
 20
1.598980092409415
 30
0.0
 10
20.63750000000004
 20
1.412373410057628
 30
0.0
 10
20.63750000000004
 20
1.321058041084939
 30
0.0
 10
20.63750000000004
 20
1.240416209147898
 30
0.0
  0
SPLINE
  5
CB
330
1F
100
AcDbEntity
  8
0
  6
Continuous
 62
     1
370
    15
100
AcDbSpline
210
0.0
220
0.0
230
1.0
 70
     8
 71
     3
 72
    20
 73
    16
 74
     0
 42
0.000000001
 43
0.00000001
 40
0.0
 40
0.0
 40
0.0
 40
0.0
 40
0.0230164154928781
 40
0.107974953554637
 40
0.1929355080606862
 40
0.2778979024433256
 40
0.3628619595485338
 40
0.4478275016917864
 40
0.532794350714232
 40
0.6177623280391977
 40
0.7027312547289791
 40
0.789975646410213
 40
0.8772217331414813
 40
0.9644679504271819
 40
1.0
 40
1.0
 40
1.0
 40
1.0
 10
32.9797608297288
 20
-1.405660821032496
 30
0.0
 10
32.88972989753654
 20
-1.441283273702094
 30
0.0
 10
32.4673754381748
 20
-1.608395857922356
 30
0.0
 10
31.71268433457305
 20
-1.757177450280974
 30
0.0
 10
30.7156806984578
 20
-1.813156501233866
 30
0.0
 10
29.71865069886564
 20
-1.671582223815695
 30
0.0
 10
28.72159759583417
 20
-1.360759107691626
 30
0.0
 10
27.72452283480554
 20
-0.9089980363775215
 30
0.0
 10
26.72743237694104
 20
-0.3638821377974139
 30
0.0
 10
25.73031597641506
 20
0.218984654786229
 30
0.0
 10
24.72432604459417
 20
0.7834742958482753
 30
0.0
 10
23.70927873624365
 20
1.273358032832192
 30
0.0
 10
22.68535670311267
 20
1.617548255800684
 30
0.0
 10
21.86372539074085
 20
1.788148987873321
 30
0.0
 10
21.38341119665742
 20
1.768169558267091
 30
0.0
 10
21.24440819399762
 20
1.762387508223795
 30
0.0
  0
SPLINE
  5
CC
330
1F
100
AcDbEntity
  8
0
  6
Continuous
 62
     1
370
    15
100
AcDbSpline
210
0.0
220
0.0
230
1.0
 70
     8
 71
     3
 72
    16
 73
    12
 74
     0
 42
0.000000001
 43
0.00000001
 40
0.0
 40
0.0
 40
0.0
 40
0.0
 40
0.063281947317078
 40
0.1917347522258598
 40
0.3202269145777509
 40
0.4488177296958815
 40
0.5775563783941766
 40
0.7062303523717683
 40
0.8347720063541637
 40
0.9632401441508643
 40
1.0
 40
1.0
 40
1.0
 40
1.0
 10
31.78780727215757
 20
-1.47236746608967
 30
0.0
 10
31.65150736045945
 20
-1.488739940927833
 30
0.0
 10
31.23853919329955
 20
-1.538346069365857
 30
0.0
 10
30.54885330109923
 20
-1.504015847663563
 30
0.0
 10
29.71845636108266
 20
-1.375843402020339
 30
0.0
 10
28.88737019576785
 20
-1.143240949415307
 30
0.0
 10
28.05567069026766
 20
-0.830530651502519
 30
0.0
 10
27.22418893334744
 20
-0.456994767931077
 30
0.0
 10
26.39343496372874
 20
-0.0535387752484934
 30
0.0
 10
25.7607141173207
 20
0.2646738178204208
 30
0.0
 10
25.40484749567807
 20
0.4258536460842971
 30
0.0
 10
25.32567443653446
 20
0.4617128677696283
 30
0.0
  0
SPLINE
  5
CD
330
1F
100
AcDbEntity
  8
0
  6
Continuous
 62
     1
370
    15
100
AcDbSpline
210
0.0
220
0.0
230
1.0
 70
     8
 71
     3
 72
    16
 73
    12
 74
     0
 42
0.000000001
 43
0.00000001
 40
0.0
 40
0.0
 40
0.0
 40
0.0
 40
0.114235202427198
 40
0.2284747507732426
 40
0.3427184151423213
 40
0.4569659643424692
 40
0.5712171659558349
 40
0.6854717864097745
 40
0.7997295910487299
 40
0.9139903442068404
 40
1.0
 40
1.0
 40
1.0
 40
1.0
 10
39.68750000000004
 20
-1.694749083643849
 30
0.0
 10
39.35526426325191
 20
-1.617147191962824
 30
0.0
 10
38.69078015031076
 20
-1.461940456345109
 30
0.0
 10
37.69402600821584
 20
-1.031834827244041
 30
0.0
 10
36.69722937067591
 20
-0.5080353583651426
 30
0.0
 10
35.70039193390916
 20
0.0715583640194958
 30
0.0
 10
34.70351630780831
 20
0.642458945779444
 30
0.0
 10
33.70660493249072
 20
1.149062710104316
 30
0.0
 10
32.7096600887257
 20
1.531253851239143
 30
0.0
 10
31.79486061517205
 20
1.757896432565776
 30
0.0
 10
31.21237437651822
 20
1.765480422097063
 30
0.0
 10
30.96221539819877
 20
1.768737500027551
 30
0.0
  0
SPLINE
  5
CE
330
1F
100
AcDbEntity
  8
0
  6
Continuous
 62
     1
370
    15
100
AcDbSpline
210
0.0
220
0.0
230
1.0
 70
     8
 71
     3
 72
    10
 73
     6
 74
     0
 42
0.000000001
 43
0.00000001
 40
0.0
 40
0.0
 40
0.0
 40
0.0
 40
0.2147691841958258
 40
0.6073878189525365
 40
1.0
 40
1.0
 40
1.0
 40
1.0
 10
23.24546669999843
 20
-1.40565936814933
 30
0.0
 10
23.05876291643565
 20
-1.473367953870811
 30
0.0
 10
22.53074673798343
 20
-1.664854317986406
 30
0.0
 10
21.66142218588582
 20
-1.806721478119412
 30
0.0
 10
20.97880552518074
 20
-1.770063072360246
 30
0.0
 10
20.63749999999667
 20
-1.751734020125981
 30
0.0
  0
SPLINE
  5
CF
330
1F
100
AcDbEntity
  8
외형선
  6
Continuous
370
    15
100
AcDbSpline
210
0.0
220
0.0
230
1.0
 70
    24
 71
     3
 72
     8
 73
     4
 74
     0
 42
0.000000001
 43
0.00000001
 40
0.0
 40
0.0
 40
0.0
 40
0.0
 40
1.0
 40
1.0
 40
1.0
 40
1.0
 10
20.63750000000002
 20
-1.468446120337987
 30
0.0
 10
20.63750000000002
 20
-1.563349781239705
 30
0.0
 10
20.63750000000002
 20
-1.65838808607064
 30
0.0
 10
20.63750000000002
 20
-1.751734020117653
 30
0.0
  0
SPLINE
  5
D0
330
1F
100
AcDbEntity
  8
0
  6
Continuous
 62
     1
370
    15
100
AcDbSpline
210
0.0
220
0.0
230
1.0
 70
     8
 71
     3
 72
    13
 73
     9
 74
     0
 42
0.000000001
 43
0.00000001
 40
0.0
 40
0.0
 40
0.0
 40
0.0
 40
0.1791290383402446
 40
0.3580567250011673
 40
0.5368645783300483
 40
0.7156353064065055
 40
0.8944519871759882
 40
1.0
 40
1.0
 40
1.0
 40
1.0
 10
39.68750000000003
 20
-1.409055153395112
 30
0.0
 10
39.4101940507167
 20
-1.348629015199833
 30
0.0
 10
38.85589386050895
 20
-1.227844661377906
 30
0.0
 10
38.02497495540165
 20
-0.9315207308442551
 30
0.0
 10
37.19468115105335
 20
-0.5753484536001444
 30
0.0
 10
36.36458320773635
 20
-0.1774604320489694
 30
0.0
 10
35.64784736525034
 20
0.181210023346573
 30
0.0
 10
35.20770347154016
 20
0.3857624823474124
 30
0.0
 10
35.04433469058965
 20
0.4616864843498105
 30
0.0
  0
SPLINE
  5
D1
330
1F
100
AcDbEntity
  8
0
  6
Continuous
 62
     1
370
    15
100
AcDbSpline
210
0.0
220
0.0
230
1.0
 70
     8
 71
     3
 72
     9
 73
     5
 74
     0
 42
0.000000001
 43
0.00000001
 40
0.0
 40
0.0
 40
0.0
 40
0.0
 40
0.4337124092926518
 40
1.0
 40
1.0
 40
1.0
 40
1.0
 10
22.0510920288488
 20
-1.478553884620737
 30
0.0
 10
21.84669591276478
 20
-1.497316730860505
 30
0.0
 10
21.37542483150295
 20
-1.540577762451391
 30
0.0
 10
20.90429498543831
 20
-1.494525145715261
 30
0.0
 10
20.63750000000003
 20
-1.468446120337989
 30
0.0
  0
LINE
  5
D2
330
1F
100
AcDbEntity
  8
0
  6
Continuous
 62
     1
370
    15
100
AcDbLine
 10
39.68750000000003
 20
-1.69474908364385
 30
0.0
 11
39.68750000000003
 21
-1.409055153395112
 31
0.0
  0
LINE
  5
D3
330
1F
100
AcDbEntity
  8
0
  6
Continuous
 62
     1
370
    15
100
AcDbLine
 10
39.68750000000003
 20
-1.784428052824196
 30
0.0
 11
39.68750000000003
 21
-1.69474908364385
 31
0.0
  0
SPLINE
  5
D4
330
1F
100
AcDbEntity
  8
0
  6
Continuous
 62
     1
370
    15
100
AcDbSpline
210
0.0
220
0.0
230
1.0
 70
     8
 71
     3
 72
     8
 73
     4
 74
     0
 42
0.000000001
 43
0.00000001
 40
0.0
 40
0.0
 40
0.0
 40
0.0
 40
1.0
 40
1.0
 40
1.0
 40
1.0
 10
38.58185610163611
 20
0.5001697058188493
 30
0.0
 10
38.51861190382927
 20
0.5750934330415787
 30
0.0
 10
38.46215597961277
 20
0.6472264353891679
 30
0.0
 10
38.41409004714622
 20
0.715910231047119
 30
0.0
  0
LINE
  5
D5
330
1F
100
AcDbEntity
  8
0
  6
Continuous
 62
     1
370
    15
100
AcDbLine
 10
38.43671237855565
 20
0.7348926209891092
 30
0.0
 11
39.68750000000003
 21
0.0000000000000016
 31
0.0
  0
LINE
  5
D6
330
1F
100
AcDbEntity
  8
0
  6
Continuous
 62
     1
370
    15
100
AcDbLine
 10
39.68750000000003
 20
0.0000000000000016
 30
0.0
 11
39.68750000000003
 21
-0.4772791989248174
 31
0.0
  0
SPLINE
  5
D7
330
1F
100
AcDbEntity
  8
0
  6
Continuous
 62
     1
370
    15
100
AcDbSpline
210
0.0
220
0.0
230
1.0
 70
     8
 71
     3
 72
    10
 73
     6
 74
     0
 42
0.000000001
 43
0.00000001
 40
0.0
 40
0.0
 40
0.0
 40
0.0
 40
0.5
 40
0.5
 40
1.0
 40
1.0
 40
1.0
 40
1.0
 10
39.68750000000003
 20
-0.4772791989248172
 30
0.0
 10
39.49610029268982
 20
-0.3268046018112331
 30
0.0
 10
39.30790107205964
 20
-0.1701549815739411
 30
0.0
 10
38.93805667290175
 20
0.1557896361768834
 30
0.0
 10
38.75469088418618
 20
0.3268069389675565
 30
0.0
 10
38.58185610163923
 20
0.5001697058157226
 30
0.0
  0
SPLINE
  5
D8
330
1F
100
AcDbEntity
  8
외형선
  6
Continuous
370
    15
100
AcDbSpline
210
0.0
220
0.0
230
1.0
 70
    24
 71
     3
 72
    10
 73
     6
 74
     0
 42
0.000000001
 43
0.00000001
 40
0.0
 40
0.0
 40
0.0
 40
0.0
 40
0.4999999999999999
 40
0.4999999999999999
 40
1.0
 40
1.0
 40
1.0
 40
1.0
 10
20.63750000000002
 20
-0.1780007887979488
 30
0.0
 10
20.63750000000002
 20
-0.4455256938644822
 30
0.0
 10
20.63750000000002
 20
-0.7115788847165673
 30
0.0
 10
20.63750000000002
 20
-1.162653472931541
 30
0.0
 10
20.63750000000002
 20
-1.345733268929319
 30
0.0
 10
20.63750000000002
 20
-1.468446120337987
 30
0.0
  0
SPLINE
  5
D9
330
1F
100
AcDbEntity
  8
0
  6
Continuous
 62
     1
370
    15
100
AcDbSpline
210
0.0
220
0.0
230
1.0
 70
     8
 71
     3
 72
    12
 73
     8
 74
     0
 42
0.000000001
 43
0.00000001
 40
0.0
 40
0.0
 40
0.0
 40
0.0
 40
0.2357871902001638
 40
0.4715744392799852
 40
0.7073617476025231
 40
0.9431491155306926
 40
1.0
 40
1.0
 40
1.0
 40
1.0
 10
38.58185610164001
 20
0.5001697058171574
 30
0.0
 10
38.25866206931377
 20
0.6350643534151376
 30
0.0
 10
37.61227392395481
 20
0.9048536822963487
 30
0.0
 10
36.64269296012603
 20
1.21115105477599
 30
0.0
 10
35.67310605733391
 20
1.391550333480242
 30
0.0
 10
34.9488045712494
 20
1.456195065778184
 30
0.0
 10
34.54767127783372
 20
1.414185946663163
 30
0.0
 10
34.46974304277239
 20
1.406024827746208
 30
0.0
  0
SPLINE
  5
DA
330
1F
100
AcDbEntity
  8
0
  6
Continuous
 62
     1
370
    15
100
AcDbSpline
210
0.0
220
0.0
230
1.0
 70
     8
 71
     3
 72
    13
 73
     9
 74
     0
 42
0.000000001
 43
0.00000001
 40
0.0
 40
0.0
 40
0.0
 40
0.0
 40
0.0834986914759826
 40
0.262948725493779
 40
0.4472093554226501
 40
0.6314737783555722
 40
0.8157384935847453
 40
1.0
 40
1.0
 40
1.0
 40
1.0
 10
26.1942938930762
 20
-1.32477851171572
 30
0.0
 10
26.03963902352629
 20
-1.352981024650463
 30
0.0
 10
25.55260982437709
 20
-1.441794570118366
 30
0.0
 10
24.72431530033271
 20
-1.438084238683028
 30
0.0
 10
23.70928389055824
 20
-1.309677987107783
 30
0.0
 10
22.68535858939433
 20
-1.029736720066992
 30
0.0
 10
21.66142384305901
 20
-0.641535081520853
 30
0.0
 10
20.97880596646709
 20
-0.332511322799944
 30
0.0
 10
20.63750000000002
 20
-0.1780007887979468
 30
0.0
  0
SPLINE
  5
DB
330
1F
100
AcDbEntity
  8
0
  6
Continuous
 62
     1
370
    15
100
AcDbSpline
210
0.0
220
0.0
230
1.0
 70
    24
 71
     3
 72
    10
 73
     6
 74
     0
 42
0.000000001
 43
0.00000001
 40
0.0
 40
0.0
 40
0.0
 40
0.0
 40
0.4999999999999998
 40
0.4999999999999998
 40
1.0
 40
1.0
 40
1.0
 40
1.0
 10
39.68750000000003
 20
-1.409055153395112
 30
0.0
 10
39.68750000000003
 20
-1.301040090048984
 30
0.0
 10
39.68750000000002
 20
-1.164558915789209
 30
0.0
 10
39.68750000000003
 20
-0.8472533204831675
 30
0.0
 10
39.68750000000004
 20
-0.6667037615744483
 30
0.0
 10
39.68750000000003
 20
-0.4772791989248749
 30
0.0
  0
SPLINE
  5
DC
330
1F
100
AcDbEntity
  8
0
  6
Continuous
 62
     1
370
    15
100
AcDbSpline
210
0.0
220
0.0
230
1.0
 70
     8
 71
     3
 72
    19
 73
    15
 74
     0
 42
0.000000001
 43
0.00000001
 40
0.0
 40
0.0
 40
0.0
 40
0.0
 40
0.0212158766141592
 40
0.1081192754963022
 40
0.1974694629729797
 40
0.2868222881484776
 40
0.3761775558507622
 40
0.4655350701214566
 40
0.5548946342778778
 40
0.6442560509755733
 40
0.7336191222713079
 40
0.8229836496864673
 40
0.9123494342708283
 40
1.0
 40
1.0
 40
1.0
 40
1.0
 10
35.90981556169345
 20
-1.330561639468298
 30
0.0
 10
35.83091353225991
 20
-1.346610002802257
 30
0.0
 10
35.42881700744095
 20
-1.428394858932641
 30
0.0
 10
34.69443589347603
 20
-1.44493161472775
 30
0.0
 10
33.706603946141
 20
-1.360834450071003
 30
0.0
 10
32.70966241404331
 20
-1.125088035678943
 30
0.0
 10
31.71268648751511
 20
-0.7763483664523649
 30
0.0
 10
30.71568312484276
 20
-0.34689809974215
 30
0.0
 10
29.71865360938531
 20
0.1181316639617102
 30
0.0
 10
28.72160075346713
 20
0.5708429264936874
 30
0.0
 10
27.72452698009816
 20
0.9655416662524211
 30
0.0
 10
26.72743478704668
 20
1.257859077816289
 30
0.0
 10
25.73670998684875
 20
1.430512974949095
 30
0.0
 10
25.07834882723206
 20
1.421988710541987
 30
0.0
 10
24.7523578778519
 20
1.41776787672418
 30
0.0
  0
SPLINE
  5
DD
330
1F
100
AcDbEntity
  8
0
  6
Continuous
 62
     1
370
    15
100
AcDbSpline
210
0.0
220
0.0
230
1.0
 70
    24
 71
     3
 72
     8
 73
     4
 74
     0
 42
0.000000001
 43
0.00000001
 40
0.0
 40
0.0
 40
0.0
 40
0.0
 40
1.0
 40
1.0
 40
1.0
 40
1.0
 10
38.60063864972744
 20
0.8724430946696216
 30
0.0
 10
38.54172132641294
 20
0.8230055904064745
 30
0.0
 10
38.47917021350776
 20
0.7705189746379797
 30
0.0
 10
38.41409004714626
 20
0.7159102310470963
 30
0.0
  0
SPLINE
  5
DE
330
1F
100
AcDbEntity
  8
외형선
  6
Continuous
370
    15
100
AcDbSpline
210
0.0
220
0.0
230
1.0
 70
    24
 71
     3
 72
    14
 73
    10
 74
     0
 42
0.000000001
 43
0.00000001
 40
0.0
 40
0.0
 40
0.0
 40
0.0
 40
0.25
 40
0.25
 40
0.5
 40
0.5
 40
0.75
 40
0.75
 40
1.0
 40
1.0
 40
1.0
 40
1.0
 10
20.63750000000002
 20
1.240416209147899
 30
0.0
 10
20.63750000000002
 20
1.187738929779842
 30
0.0
 10
20.63750000000002
 20
1.115084350177716
 30
0.0
 10
20.63750000000002
 20
0.931108626499662
 30
0.0
 10
20.63750000000002
 20
0.8198017308897114
 30
0.0
 10
20.63750000000002
 20
0.5677081358181194
 30
0.0
 10
20.63750000000002
 20
0.4270557623635167
 30
0.0
 10
20.63750000000002
 20
0.13126428638382
 30
0.0
 10
20.63750000000002
 20
-0.0237035164178906
 30
0.0
 10
20.63750000000002
 20
-0.1780007887979466
 30
0.0
  0
SPLINE
  5
DF
330
1F
100
AcDbEntity
  8
0
  6
Continuous
 62
     1
370
    15
100
AcDbSpline
210
0.0
220
0.0
230
1.0
 70
     8
 71
     3
 72
    17
 73
    13
 74
     0
 42
0.000000001
 43
0.00000001
 40
0.0
 40
0.0
 40
0.0
 40
0.0
 40
0.0004646954522281
 40
0.0004646954522281
 40
0.0004646954522281
 40
0.0009294090712162
 40
0.0009294090712162
 40
0.0009294090712162
 40
0.001317453739494
 40
0.001317453739494
 40
0.001317453739494
 40
0.0014689704354266
 40
0.0014689704354266
 40
0.0014689704354266
 40
0.0014689704354266
 10
39.68750000000003
 20
1.250156250000001
 30
0.0
 10
39.57132905130726
 20
1.218601605831984
 30
0.0
 10
39.45552671177905
 20
1.184624524395231
 30
0.0
 10
39.34021526594924
 20
1.148090422770173
 30
0.0
 10
39.22490122597807
 20
1.111555499243848
 30
0.0
 10
39.11004250731156
 20
1.072454958949667
 30
0.0
 10
38.99580656343647
 20
1.030544063343238
 30
0.0
 10
38.90041442161561
 20
0.9955465838992936
 30
0.0
 10
38.80542914298408
 20
0.958583059192434
 30
0.0
 10
38.7109928263075
 20
0.9194165157699895
 30
0.0
 10
38.67411823946337
 20
0.9041231396871264
 30
0.0
 10
38.63732853507788
 20
0.8884756114900769
 30
0.0
 10
38.60063864972743
 20
0.8724430946696252
 30
0.0
  0
LINE
  5
E0
330
1F
100
AcDbEntity
  8
0
  6
Continuous
 62
     1
370
    15
100
AcDbLine
 10
39.68750000000003
 20
0.0000000000000016
 30
0.0
 11
39.68750000000003
 21
1.250156250000001
 31
0.0
  0
LINE
  5
E1
330
1F
100
AcDbEntity
  8
중심선
 48
0.8
100
AcDbLine
 10
-42.6875
 20
-0.0000000000000052
 30
0.0
 11
42.68750000000001
 21
0.0000000000000052
 31
0.0
  0
LINE
  5
E2
330
1F
100
AcDbEntity
  8
참조1
100
AcDbLine
 10
-10.23171167873052
 20
0.0010749287238892
 30
0.0
 11
-10.23171167873052
 21
-39.99892507127611
 31
0.0
  0
LINE
  5
E3
330
1F
100
AcDbEntity
  8
참조1
100
AcDbLine
 10
-10.23171167873052
 20
-39.99892507127611
 30
0.0
 11
-29.45992727542973
 21
-39.9989250712761
 31
0.0
  0
CIRCLE
  5
E4
330
1F
100
AcDbEntity
  8
해칭선
100
AcDbCircle
 10
0.0
 20
0.0
 30
0.0
 40
3.000000000000002
  0
INSERT
  5
E5
330
1F
100
AcDbEntity
  8
0
  6
Continuous
 62
     7
100
AcDbBlockReference
 66
     1
  2
블럭10
 10
-13.9402729321252
 20
-52.04717430164393
 30
0.0
  0
ATTRIB
  5
E6
330
E5
100
AcDbEntity
  8
FORMAT
 62
     2
100
AcDbText
 10
-23.12156822086648
 20
-49.97180738881175
 30
0.0
 40
4.233333333333333
  1
E2005009 [ 2 FLUTE ]
 41
0.75
  7
SLDTEXTSTYLE0
 11
-23.12156822086648
 21
-52.08847405547841
 31
0.0
100
AcDbAttribute
  2
AUTOATTR0
 70
     0
 74
     1
  0
SEQEND
  5
E7
330
E5
100
AcDbEntity
  8
0
  6
Continuous
 62
     7
  0
HATCH
  5
E8
330
1F
100
AcDbEntity
  8
중심선
100
AcDbHatch
 10
0.0
 20
0.0
 30
0.0
210
0.0
220
0.0
230
1.0
  2
SOLID
 70
     1
 71
     0
 91
        1
 92
        0
 93
        4
 72
     1
 10
-8.225363627744365
 20
-35.8
 11
-11.67163887158165
 21
-35.8
 72
     1
 10
-11.67163887158165
 20
-35.8
 11
-13.79986873078567
 21
-38.3363255805726
 72
     1
 10
-13.79986873078567
 20
-38.3363255805726
 11
-10.35356040183524
 21
-38.33628615127011
 72
     1
 10
-10.35356040183524
 20
-38.33628615127011
 11
-8.225363627744365
 21
-35.8
 97
        0
 75
     0
 76
     1
 98
        1
 10
10.23171167873053
 20
-0.0010749287238945
  0
HATCH
  5
E9
330
1F
100
AcDbEntity
  8
중심선
100
AcDbHatch
 10
0.0
 20
0.0
 30
0.0
210
0.0
220
0.0
230
1.0
  2
SOLID
 70
     1
 71
     0
 91
        1
 92
        0
 93
        4
 72
     1
 10
-3.212599636708413
 20
-35.79999999999998
 11
-6.658874880545639
 21
-35.8
 72
     1
 10
-6.658874880545639
 20
-35.8
 11
-11.19001288890308
 21
-41.20000000000002
 72
     1
 10
-11.19001288890308
 20
-41.20000000000002
 11
-7.743737645065799
 21
-41.20000000000002
 72
     1
 10
-7.743737645065799
 20
-41.20000000000002
 11
-3.212599636708413
 21
-35.79999999999998
 97
        0
 75
     0
 76
     1
 98
        1
 10
10.23171167873053
 20
-0.0010749287238945
  0
HATCH
  5
EA
330
1F
100
AcDbEntity
  8
중심선
100
AcDbHatch
 10
0.0
 20
0.0
 30
0.0
210
0.0
220
0.0
230
1.0
  2
SOLID
 70
     1
 71
     0
 91
        1
 92
        0
 93
        4
 72
     1
 10
1.800164354327483
 20
-35.79999999999998
 11
-1.646110889509632
 21
-35.8
 72
     1
 10
-1.646110889509632
 20
-35.8
 11
-8.694547791398882
 21
-44.20000000000002
 72
     1
 10
-8.694547791398882
 20
-44.20000000000002
 11
-5.2482725475616
 21
-44.20000000000002
 72
     1
 10
-5.2482725475616
 20
-44.20000000000002
 11
1.800164354327483
 21
-35.79999999999998
 97
        0
 75
     0
 76
     1
 98
        1
 10
10.23171167873053
 20
-0.0010749287238945
  0
HATCH
  5
EB
330
1F
100
AcDbEntity
  8
중심선
100
AcDbHatch
 10
0.0
 20
0.0
 30
0.0
210
0.0
220
0.0
230
1.0
  2
SOLID
 70
     1
 71
     0
 91
        1
 92
        0
 93
        6
 72
     3
 10
6.600054785339682
 20
-40.00000000005127
 11
3.960054785062284
 21
1.540882976769353E-10
 40
0.3939339440162627
 50
17.09539180608437
 51
320.0019657685087
 73
     0
 72
     1
 10
8.28305444104025
 20
-38.58789400463836
 11
10.58835631474131
 21
-36.65356729459041
 72
     3
 10
6.600054785286836
 20
-40.00000000000015
 11
6.60005478528683
 21
-1.278976924368180E-13
 40
0.636358354079598
 50
39.99873849337382
 51
368.4976242363725
 73
     1
 72
     1
 10
13.02538727718744
 20
-39.03999999993002
 11
5.280122092122786
 21
-39.03999999993002
 72
     1
 10
5.280122092122786
 20
-39.03999999993002
 11
5.280097047676824
 21
-40.95999999992991
 72
     1
 10
5.280097047676824
 20
-40.95999999992991
 11
9.721476817148861
 21
-40.95999999992988
 97
        0
 75
     0
 76
     1
 98
        1
 10
10.23171167873053
 20
-0.0010749287238945
  0
DIMENSION
  5
EC
330
1F
100
AcDbEntity
  8
치수문자_일반주서
100
AcDbDimension
  2
_D
 10
-52.6875
 20
-2.381250000000132
 30
0.0
 11
-52.68750000000001
 21
0.0000000000000031
 31
0.0
 70
   160
  1
%%c<>
 71
     2
 42
4.762499999999996
 52
-270.0
  3
SLDDIMSTYLE0
100
AcDbAlignedDimension
 13
-17.41576350361917
 23
2.381249999999995
 33
0.0
 14
-17.41576350361917
 24
-2.381250000000001
 34
0.0
 50
90.0000000000002
100
AcDbRotatedDimension
1001
ACAD
1000
DSTYLE
1002
{
1070
   171
1070
     6
1070
   273
1070
     7
1002
}
  0
DIMENSION
  5
101
330
1F
100
AcDbEntity
  8
치수문자_일반주서
100
AcDbDimension
  2
_D_1
 10
53.59326627031536
 20
1.784428052824246
 30
0.0
 11
53.59326627031528
 21
22.82592805282424
 31
0.0
 70
   160
  1
%%c<>
 71
     2
 42
3.568856105648389
 52
-270.0
  3
SLDDIMSTYLE0
100
AcDbAlignedDimension
 13
39.68750000000003
 23
-1.784428052824196
 33
0.0
 14
39.68750000000003
 24
1.784428052824194
 34
0.0
 50
90.0000000000002
100
AcDbRotatedDimension
1001
ACAD
1000
DSTYLE
1002
{
1070
   171
1070
     6
1070
   273
1070
     7
1002
}
  0
DIMENSION
  5
115
330
1F
100
AcDbEntity
  8
치수문자_일반주서
100
AcDbDimension
  2
_D_2
 10
20.63750000000002
 20
16.16029805223447
 30
0.0
 11
1.564750000000023
 21
16.16029805223447
 31
0.0
 70
   160
  1
<>
 71
     2
 42
19.05
  3
SLDDIMSTYLE0
100
AcDbAlignedDimension
 13
39.68750000000003
 23
1.784428052824194
 33
0.0
 14
20.63750000000002
 24
1.779671464461585
 34
0.0
100
AcDbRotatedDimension
1001
ACAD
1000
DSTYLE
1002
{
1070
   171
1070
     6
1070
   273
1070
     7
1002
}
  0
DIMENSION
  5
12A
330
1F
100
AcDbEntity
  8
치수문자_일반주서
100
AcDbDimension
  2
_D_3
 10
39.68750000000004
 20
30.43016347307377
 30
0.0
 11
0.0000000000000231
 21
30.43016347307377
 31
0.0
 70
   160
  1
<>
 71
     2
 42
79.37500000000003
  3
SLDDIMSTYLE0
100
AcDbAlignedDimension
 13
-39.68750000000001
 23
1.784428052824204
 33
0.0
 14
39.68750000000003
 24
1.784428052824194
 34
0.0
100
AcDbRotatedDimension
1001
ACAD
1000
DSTYLE
1002
{
1070
   171
1070
     6
1070
   273
1070
     7
1002
}
  0
LINE
  5
13D
330
1F
100
AcDbEntity
  8
참조1
100
AcDbLine
 10
68.51241335422453
 20
7.441074928723896
 30
0.0
 11
68.51241335422453
 21
-7.438925071276109
 31
0.0
  0
LINE
  5
13E
330
1F
100
AcDbEntity
  8
참조1
100
AcDbLine
 10
81.21241335422454
 20
5.441074928723896
 30
0.0
 11
68.51241335422453
 21
5.441074928723896
 31
0.0
  0
SOLID
  5
13F
330
1F
100
AcDbEntity
  8
참조1
100
AcDbTrace
 10
68.51241335422453
 20
5.441074928723896
 30
0.0
 11
74.86241335422453
 21
4.425074928723896
 31
0.0
 12
74.86241335422453
 22
6.457074928723896
 32
0.0
 13
74.86241335422453
 23
6.457074928723896
 33
0.0
  0
LINE
  5
140
330
1F
100
AcDbEntity
  8
참조1
100
AcDbLine
 10
81.21241335422454
 20
-5.438925071276109
 30
0.0
 11
68.51241335422453
 21
-5.438925071276109
 31
0.0
  0
SOLID
  5
141
330
1F
100
AcDbEntity
  8
참조1
100
AcDbTrace
 10
68.51241335422453
 20
-5.438925071276109
 30
0.0
 11
74.86241335422453
 21
-6.454925071276109
 31
0.0
 12
74.86241335422453
 22
-4.422925071276109
 32
0.0
 13
74.86241335422453
 23
-4.422925071276109
 33
0.0
  0
MTEXT
  5
142
330
1F
100
AcDbEntity
  8
참조1
100
AcDbMText
 10
77.89676348685053
 20
11.01136670591222
 30
0.0
 40
3.5
 41
0.0
 71
     1
 72
     1
  1
A
  7
SLDTEXTSTYLE0
 73
     1
 44
1.0
  0
MTEXT
  5
143
330
1F
100
AcDbEntity
  8
참조1
100
AcDbMText
 10
77.89676348685053
 20
0.1313667059122192
 30
0.0
 40
3.5
 41
0.0
 71
     1
 72
     1
  1
A
  7
SLDTEXTSTYLE0
 73
     1
 44
1.0
  0
INSERT
  5
14A
330
1F
100
AcDbEntity
  8
해칭선
100
AcDbBlockReference
  2
SW_DOWELSYMBOL_0
 10
0.0
 20
0.0
 30
0.0
  0
LINE
  5
444
330
1F
100
AcDbEntity
  8
외형선
  6
Continuous
370
    15
100
AcDbLine
 10
-17.41576350361917
 20
2.381249999999995
 30
0.0
 11
-19.63750000000002
 21
1.785937500000004
 31
0.0
  0
LINE
  5
445
330
1F
100
AcDbEntity
  8
외형선
  6
Continuous
370
    15
100
AcDbLine
 10
-19.63750000000002
 20
-1.785937499999995
 30
0.0
 11
-17.41576350361917
 21
-2.381250000000001
 31
0.0
  0
LINE
  5
446
330
1F
100
AcDbEntity
  8
외형선
  6
Continuous
370
    15
100
AcDbLine
 10
-19.74748960378526
 20
-1.785937499999995
 30
0.0
 11
-19.63750000000002
 21
-1.785937499999995
 31
0.0
  0
LINE
  5
447
330
1F
100
AcDbEntity
  8
외형선
  6
Continuous
370
    15
100
AcDbLine
 10
-20.63750000000002
 20
-1.785937499999995
 30
0.0
 11
-20.37892535774828
 21
-1.785937499999995
 31
0.0
  0
LINE
  5
448
330
1F
100
AcDbEntity
  8
외형선
  6
Continuous
370
    15
100
AcDbLine
 10
-20.37892535774828
 20
1.785937500000004
 30
0.0
 11
-20.63750000000002
 21
1.785937500000004
 31
0.0
  0
LINE
  5
449
330
1F
100
AcDbEntity
  8
외형선
  6
Continuous
370
    15
100
AcDbLine
 10
-19.63750000000002
 20
1.785937500000004
 30
0.0
 11
-19.74748960378526
 21
1.785937500000004
 31
0.0
  0
LINE
  5
44A
330
1F
100
AcDbEntity
  8
0
  6
Continuous
 62
     1
370
    15
100
AcDbLine
 10
-34.25641431217458
 20
-0.402055034047698
 30
0.0
 11
-34.05203077483686
 21
-0.5139132589884092
 31
0.0
  0
LINE
  5
44B
330
1F
100
AcDbEntity
  8
0
  6
Continuous
 62
     1
370
    15
100
AcDbLine
 10
-24.41474238243564
 20
-0.4698525152682216
 30
0.0
 11
-24.33462742445455
 21
-0.5135849656558442
 31
0.0
  0
SPLINE
  5
44C
330
1F
100
AcDbEntity
  8
0
  6
Continuous
 62
     1
370
    15
100
AcDbSpline
210
0.0
220
0.0
230
1.0
 70
     8
 71
     3
 72
     9
 73
     5
 74
     0
 42
0.000000001
 43
0.00000001
 40
0.0
 40
0.0
 40
0.0
 40
0.0
 40
0.4916158051257595
 40
0.9999999999999999
 40
0.9999999999999999
 40
0.9999999999999999
 40
0.9999999999999999
 10
-25.34145220272109
 20
-0.4577957089682265
 30
0.0
 10
-25.26061712041935
 20
-0.4964738037570335
 30
0.0
 10
-25.09618977398555
 20
-0.575149253947081
 30
0.0
 10
-24.93169890907405
 20
-0.6614641662853267
 30
0.0
 10
-24.84807435315185
 20
-0.7053453035000452
 30
0.0
  0
SPLINE
  5
44D
330
1F
100
AcDbEntity
  8
0
  6
Continuous
 62
     1
370
    15
100
AcDbSpline
210
0.0
220
0.0
230
1.0
 70
     8
 71
     3
 72
     9
 73
     5
 74
     0
 42
0.000000001
 43
0.00000001
 40
0.0
 40
0.0
 40
0.0
 40
0.0
 40
0.5561427454989626
 40
1.0
 40
1.0
 40
1.0
 40
1.0
 10
-35.05990756639608
 20
-0.4575813504369883
 30
0.0
 10
-34.96882555814745
 20
-0.5012802987682214
 30
0.0
 10
-34.80505104344639
 20
-0.5798553564937869
 30
0.0
 10
-34.6400952576214
 20
-0.6664722511201611
 30
0.0
 10
-34.56687843541102
 20
-0.7049177881624324
 30
0.0
  0
LINE
  5
44E
330
1F
100
AcDbEntity
  8
0
  6
Continuous
 62
     1
370
    15
100
AcDbLine
 10
-20.63750000000002
 20
1.785937500000011
 30
0.0
 11
-21.24440819399761
 21
1.785937500000011
 31
0.0
  0
LINE
  5
44F
330
1F
100
AcDbEntity
  8
0
  6
Continuous
 62
     1
370
    15
100
AcDbLine
 10
-30.96221539819874
 20
-1.785937499999995
 30
0.0
 11
-30.09695219362016
 21
-1.785937499999995
 31
0.0
  0
LINE
  5
450
330
1F
100
AcDbEntity
  8
0
  6
Continuous
 62
     1
370
    15
100
AcDbLine
 10
-30.09695219362016
 20
1.785937500000011
 30
0.0
 11
-30.9622153981988
 21
1.785937500000011
 31
0.0
  0
LINE
  5
451
330
1F
100
AcDbEntity
  8
0
  6
Continuous
 62
     1
370
    15
100
AcDbLine
 10
-21.24440819399761
 20
-1.785937499999995
 30
0.0
 11
-20.63750000000002
 21
-1.785937499999995
 31
0.0
  0
SPLINE
  5
452
330
1F
100
AcDbEntity
  8
0
  6
Continuous
 62
     1
370
    15
100
AcDbSpline
210
0.0
220
0.0
230
1.0
 70
     8
 71
     3
 72
    10
 73
     6
 74
     0
 42
0.000000001
 43
0.00000001
 40
0.0
 40
0.0
 40
0.0
 40
0.0
 40
0.2647894370885733
 40
0.4520149260584153
 40
1.0
 40
1.0
 40
1.0
 40
1.0
 10
-22.04948054822902
 20
1.487857396863746
 30
0.0
 10
-22.28868559478656
 20
1.466296741791574
 30
0.0
 10
-22.69702609590832
 20
1.429491127431071
 30
0.0
 10
-23.59633492743087
 20
1.384877886000795
 30
0.0
 10
-24.25877740514276
 20
1.40452408659828
 30
0.0
 10
-24.75252519447469
 20
1.419167272142908
 30
0.0
  0
SPLINE
  5
453
330
1F
100
AcDbEntity
  8
0
  6
Continuous
 62
     1
370
    15
100
AcDbSpline
210
0.0
220
0.0
230
1.0
 70
     8
 71
     3
 72
    11
 73
     7
 74
     0
 42
0.000000001
 43
0.00000001
 40
0.0
 40
0.0
 40
0.0
 40
0.0
 40
0.3931517228813002
 40
0.682203186924729
 40
0.9306254719498368
 40
1.0
 40
1.0
 40
1.0
 40
1.0
 10
-34.47118777485156
 20
-1.419202673987058
 30
0.0
 10
-34.27580868980392
 20
-1.410594243771654
 30
0.0
 10
-33.93678376196909
 20
-1.39565675733683
 30
0.0
 10
-33.47516538394581
 20
-1.39369648494155
 30
0.0
 10
-33.17364713860264
 20
-1.39807155730805
 30
0.0
 10
-33.01594883253797
 20
-1.403748882476449
 30
0.0
 10
-32.98152354849663
 20
-1.404988233338194
 30
0.0
  0
SPLINE
  5
454
330
1F
100
AcDbEntity
  8
0
  6
Continuous
 62
     1
370
    15
100
AcDbSpline
210
0.0
220
0.0
230
1.0
 70
     8
 71
     3
 72
    14
 73
    10
 74
     0
 42
0.000000001
 43
0.00000001
 40
0.0
 40
0.0
 40
0.0
 40
0.0
 40
0.2195214037313429
 40
0.3854292196889146
 40
0.5178351172848878
 40
0.5935247703049452
 40
0.663454577854536
 40
0.7958433994778108
 40
1.0
 40
1.0
 40
1.0
 40
1.0
 10
-31.78508095776153
 20
1.486115056670322
 30
0.0
 10
-31.98170322845321
 20
1.468053288111322
 30
0.0
 10
-32.32692682432134
 20
1.436340966471769
 30
0.0
 10
-32.79048300275947
 20
1.410896983461577
 30
0.0
 10
-33.12512806267871
 20
1.399531881778693
 30
0.0
 10
-33.37414816052701
 20
1.395378798163393
 30
0.0
 10
-33.62297258925745
 20
1.394129365693595
 30
0.0
 10
-33.98610149089729
 20
1.397589662946381
 30
0.0
 10
-34.28803039326187
 20
1.41104209999967
 30
0.0
 10
-34.47118777485156
 20
1.419202673987073
 30
0.0
  0
SPLINE
  5
455
330
1F
100
AcDbEntity
  8
0
  6
Continuous
 62
     1
370
    15
100
AcDbSpline
210
0.0
220
0.0
230
1.0
 70
     8
 71
     3
 72
     9
 73
     5
 74
     0
 42
0.000000001
 43
0.00000001
 40
0.0
 40
0.0
 40
0.0
 40
0.0
 40
0.9823944687749904
 40
1.0
 40
1.0
 40
1.0
 40
1.0
 10
-24.75252519447469
 20
-1.419167272142892
 30
0.0
 10
-24.25885436904728
 20
-1.40006720350879
 30
0.0
 10
-23.75633644868174
 20
-1.380624841767975
 30
0.0
 10
-23.25430522635896
 20
-1.405226247335427
 30
0.0
 10
-23.24546669999842
 20
-1.405659368149322
 30
0.0
  0
SPLINE
  5
456
330
1F
100
AcDbEntity
  8
0
  6
Continuous
 62
     1
370
    15
100
AcDbSpline
210
0.0
220
0.0
230
1.0
 70
     8
 71
     3
 72
    13
 73
     9
 74
     0
 42
0.000000001
 43
0.00000001
 40
0.0
 40
0.0
 40
0.0
 40
0.0
 40
0.3008667285386671
 40
0.5095461654580961
 40
0.63835560109348
 40
0.7618467937036976
 40
0.8916392108598339
 40
0.9999999999999999
 40
0.9999999999999999
 40
0.9999999999999999
 40
0.9999999999999999
 10
-26.18499059156998
 20
1.343325555435997
 30
0.0
 10
-26.32018730122076
 20
1.323067715363927
 30
0.0
 10
-26.54915567309661
 20
1.28875915363188
 30
0.0
 10
-26.83521434475961
 20
1.255004945001148
 30
0.0
 10
-27.04173804254012
 20
1.233546895015203
 30
0.0
 10
-27.21283586137296
 20
1.218136632424156
 30
0.0
 10
-27.37488874789467
 20
1.205478788901104
 30
0.0
 10
-27.48169470203303
 20
1.199235033753774
 30
0.0
 10
-27.53029189564337
 20
1.196394096839733
 30
0.0
  0
SPLINE
  5
457
330
1F
100
AcDbEntity
  8
0
  6
Continuous
 62
     1
370
    15
100
AcDbSpline
210
0.0
220
0.0
230
1.0
 70
     8
 71
     3
 72
    17
 73
    13
 74
     0
 42
0.000000001
 43
0.00000001
 40
0.0
 40
0.0
 40
0.0
 40
0.0
 40
0.1390740648037816
 40
0.2346614279460396
 40
0.2981136339276951
 40
0.3674300652208076
 40
0.4459953002851523
 40
0.5374558139952839
 40
0.6350959055758614
 40
0.7262206124898045
 40
0.8370759766632436
 40
1.0
 40
1.0
 40
1.0
 40
1.0
 10
-39.04305193333887
 20
-1.223172499024791
 30
0.0
 10
-38.89673479449016
 20
-1.211743604959089
 30
0.0
 10
-38.64985203612927
 20
-1.192459487499192
 30
0.0
 10
-38.33742989889317
 20
-1.180327736780782
 30
0.0
 10
-38.09868977563594
 20
-1.175463525001269
 30
0.0
 10
-37.87765196055279
 20
-1.174797001510974
 30
0.0
 10
-37.62773052524171
 20
-1.178856159035127
 30
0.0
 10
-37.34783766804555
 20
-1.189529516422673
 30
0.0
 10
-37.05463204207303
 20
-1.207552052907104
 30
0.0
 10
-36.74162888107384
 20
-1.234523284852322
 30
0.0
 10
-36.36058841000057
 20
-1.275767389905062
 30
0.0
 10
-36.07373124504131
 20
-1.31811746813701
 30
0.0
 10
-35.90302473618696
 20
-1.343319676370881
 30
0.0
  0
SPLINE
  5
458
330
1F
100
AcDbEntity
  8
0
  6
Continuous
 62
     1
370
    15
100
AcDbSpline
210
0.0
220
0.0
230
1.0
 70
     8
 71
     3
 72
    12
 73
     8
 74
     0
 42
0.000000001
 43
0.00000001
 40
0.0
 40
0.0
 40
0.0
 40
0.0
 40
0.3217351933020011
 40
0.5605636519771849
 40
0.7355180725888841
 40
0.9165857725409802
 40
1.0
 40
1.0
 40
1.0
 40
1.0
 10
-35.90302473618696
 20
1.34331967637089
 30
0.0
 10
-36.04897573456095
 20
1.321563118854485
 30
0.0
 10
-36.30326816622989
 20
1.283656369484981
 30
0.0
 10
-36.63601393959261
 20
1.245591309276521
 30
0.0
 10
-36.90490493471118
 20
1.220014684925652
 30
0.0
 10
-37.10381920133404
 20
1.204296236470875
 30
0.0
 10
-37.22360359103914
 20
1.197954059162513
 30
0.0
 10
-37.26138206016447
 20
1.195953817309452
 30
0.0
  0
SPLINE
  5
459
330
1F
100
AcDbEntity
  8
0
  6
Continuous
 62
     1
370
    15
100
AcDbSpline
210
0.0
220
0.0
230
1.0
 70
     8
 71
     3
 72
    17
 73
    13
 74
     0
 42
0.000000001
 43
0.00000001
 40
0.0
 40
0.0
 40
0.0
 40
0.0
 40
0.1288824831536298
 40
0.2186363294499223
 40
0.2747755330597319
 40
0.3287718694046975
 40
0.3849520532737686
 40
0.4464649207416246
 40
0.5531323728150145
 40
0.6650248029715045
 40
0.8056357121083572
 40
1.0
 40
1.0
 40
1.0
 40
1.0
 10
-29.30465681772814
 20
-1.2214469822839
 30
0.0
 10
-29.17038455358983
 20
-1.211049960004764
 30
0.0
 10
-28.94260499612165
 20
-1.193412444551164
 30
0.0
 10
-28.65732120584213
 20
-1.181688848690633
 30
0.0
 10
-28.4495011139137
 20
-1.176636914492831
 30
0.0
 10
-28.27657441714178
 20
-1.174918130199436
 30
0.0
 10
-28.0981002121144
 20
-1.175641079165778
 30
0.0
 10
-27.86513696774851
 20
-1.180188128401674
 30
0.0
 10
-27.57378672206682
 20
-1.192040031244544
 30
0.0
 10
-27.20017271459324
 20
-1.217575893833945
 30
0.0
 10
-26.73672320181092
 20
-1.26293546807858
 30
0.0
 10
-26.38757724711156
 20
-1.313807708141588
 30
0.0
 10
-26.18499059156995
 20
-1.343325555435988
 30
0.0
  0
LINE
  5
45A
330
1F
100
AcDbEntity
  8
외형선
  6
Continuous
370
    15
100
AcDbLine
 10
-17.41576350361917
 20
-2.381250000000001
 30
0.0
 11
-17.41576350361917
 21
2.381249999999995
 31
0.0
  0
LINE
  5
45B
330
1F
100
AcDbEntity
  8
외형선
  6
Continuous
370
    15
100
AcDbLine
 10
-19.63750000000002
 20
-1.785937499999995
 30
0.0
 11
-19.63750000000002
 21
1.785937500000004
 31
0.0
  0
SPLINE
  5
45C
330
1F
100
AcDbEntity
  8
외형선
  6
Continuous
370
    15
100
AcDbSpline
210
0.0
220
0.0
230
1.0
 70
     8
 71
     3
 72
     8
 73
     4
 74
     0
 42
0.000000001
 43
0.00000001
 40
0.0
 40
0.0
 40
0.0
 40
0.0
 40
1.0
 40
1.0
 40
1.0
 40
1.0
 10
-20.63750000000002
 20
1.751734020126357
 30
0.0
 10
-20.33906013284759
 20
1.718294411513867
 30
0.0
 10
-20.04614269477558
 20
1.660816509620553
 30
0.0
 10
-19.74747869257647
 20
1.58092991030349
 30
0.0
  0
LINE
  5
45D
330
1F
100
AcDbEntity
  8
외형선
  6
Continuous
370
    15
100
AcDbLine
 10
-19.74748960378526
 20
1.74889380445287
 30
0.0
 11
-20.37892535774828
 21
1.770729633611055
 31
0.0
  0
LINE
  5
45E
330
1F
100
AcDbEntity
  8
외형선
  6
Continuous
370
    15
100
AcDbLine
 10
-19.74748960378526
 20
1.785937500000004
 30
0.0
 11
-19.74748960378526
 21
1.748770076394167
 31
0.0
  0
LINE
  5
45F
330
1F
100
AcDbEntity
  8
외형선
  6
Continuous
370
    15
100
AcDbLine
 10
-20.63750000000002
 20
-1.785937499999995
 30
0.0
 11
-20.63750000000002
 21
-1.779671464474148
 31
0.0
  0
SPLINE
  5
460
330
1F
100
AcDbEntity
  8
외형선
  6
Continuous
370
    15
100
AcDbSpline
210
0.0
220
0.0
230
1.0
 70
     8
 71
     3
 72
     8
 73
     4
 74
     0
 42
0.000000001
 43
0.00000001
 40
0.0
 40
0.0
 40
0.0
 40
0.0
 40
1.0
 40
1.0
 40
1.0
 40
1.0
 10
-20.63750000000002
 20
-1.779671464474141
 30
0.0
 10
-20.33906376718765
 20
-1.794040422639021
 30
0.0
 10
-20.04614997809683
 20
-1.783688430424369
 30
0.0
 10
-19.74748960378526
 20
-1.748893804452855
 30
0.0
  0
LINE
  5
461
330
1F
100
AcDbEntity
  8
외형선
  6
Continuous
370
    15
100
AcDbLine
 10
-19.74748960378526
 20
1.580894302978728
 30
0.0
 11
-19.74748960378526
 21
-1.785937499999995
 31
0.0
  0
SPLINE
  5
462
330
1F
100
AcDbEntity
  8
외형선
  6
Continuous
370
    15
100
AcDbSpline
210
0.0
220
0.0
230
1.0
 70
    24
 71
     3
 72
    10
 73
     6
 74
     0
 42
0.000000001
 43
0.00000001
 40
0.0
 40
0.0
 40
0.0
 40
0.0
 40
0.4999999999999999
 40
0.4999999999999999
 40
1.0
 40
1.0
 40
1.0
 40
1.0
 10
-20.63750000000002
 20
0.1780007887979529
 30
0.0
 10
-20.63750000000002
 20
0.4455256938558498
 30
0.0
 10
-20.63750000000002
 20
0.7115788847247664
 30
0.0
 10
-20.63750000000002
 20
1.162653472934644
 30
0.0
 10
-20.63750000000002
 20
1.345733268930346
 30
0.0
 10
-20.63750000000002
 20
1.468446120337995
 30
0.0
  0
SPLINE
  5
463
330
1F
100
AcDbEntity
  8
외형선
  6
Continuous
370
    15
100
AcDbSpline
210
0.0
220
0.0
230
1.0
 70
     8
 71
     3
 72
     8
 73
     4
 74
     0
 42
0.000000001
 43
0.00000001
 40
0.0
 40
0.0
 40
0.0
 40
0.0
 40
1.0
 40
1.0
 40
1.0
 40
1.0
 10
-20.63750000000002
 20
1.468446120337995
 30
0.0
 10
-20.33906013284759
 20
1.43144693356404
 30
0.0
 10
-20.04614269477558
 20
1.374352520924476
 30
0.0
 10
-19.74747869257647
 20
1.298784419195059
 30
0.0
  0
SPLINE
  5
464
330
1F
100
AcDbEntity
  8
외형선
  6
Continuous
370
    15
100
AcDbSpline
210
0.0
220
0.0
230
1.0
 70
     8
 71
     3
 72
    12
 73
     8
 74
     0
 42
0.000000001
 43
0.00000001
 40
0.0
 40
0.0
 40
0.0
 40
0.0
 40
0.25
 40
0.25
 40
0.5
 40
0.5
 40
1.0
 40
1.0
 40
1.0
 40
1.0
 10
-20.04308625519582
 20
-0.0965474300101896
 30
0.0
 10
-19.98130268064322
 20
-0.1250156968292508
 30
0.0
 10
-19.93768689558926
 20
-0.1794127952298787
 30
0.0
 10
-19.86684317643648
 20
-0.2926170472114713
 30
0.0
 10
-19.83959702383854
 20
-0.3541955985818668
 30
0.0
 10
-19.77340722348644
 20
-0.5414486027513299
 30
0.0
 10
-19.74748960378526
 20
-0.6738213198108121
 30
0.0
 10
-19.74748960378526
 20
-0.8077930320468092
 30
0.0
  0
SPLINE
  5
465
330
1F
100
AcDbEntity
  8
외형선
  6
Continuous
370
    15
100
AcDbSpline
210
0.0
220
0.0
230
1.0
 70
     8
 71
     3
 72
     8
 73
     4
 74
     0
 42
0.000000001
 43
0.00000001
 40
0.0
 40
0.0
 40
0.0
 40
0.0
 40
1.0
 40
1.0
 40
1.0
 40
1.0
 10
-20.63750000000002
 20
0.1780007887979529
 30
0.0
 10
-20.43770470992545
 20
0.0867671337747076
 30
0.0
 10
-20.24183911434412
 20
-0.0049672735324144
 30
0.0
 10
-20.04308625519582
 20
-0.0965474300101896
 30
0.0
  0
SPLINE
  5
466
330
1F
100
AcDbEntity
  8
외형선
  6
Continuous
370
    15
100
AcDbSpline
210
0.0
220
0.0
230
1.0
 70
     8
 71
     3
 72
    14
 73
    10
 74
     0
 42
0.000000001
 43
0.00000001
 40
0.0
 40
0.0
 40
0.0
 40
0.0
 40
0.25
 40
0.25
 40
0.5
 40
0.5
 40
0.75
 40
0.75
 40
1.0
 40
1.0
 40
1.0
 40
1.0
 10
-19.7474896037897
 20
-1.661252441081096
 30
0.0
 10
-19.74748960378924
 20
-1.601962335926991
 30
0.0
 10
-19.76163629561041
 20
-1.545879176980811
 30
0.0
 10
-19.80396143736559
 20
-1.448434982009153
 30
0.0
 10
-19.83242292152108
 20
-1.406016377611756
 30
0.0
 10
-19.89803915803549
 20
-1.335003785454361
 30
0.0
 10
-19.93621390656947
 20
-1.30524732365891
 30
0.0
 10
-20.0229262214661
 20
-1.262139766913676
 30
0.0
 10
-20.07274793209888
 20
-1.248247547119909
 30
0.0
 10
-20.12757409846308
 20
-1.249142238434352
 30
0.0
  0
SPLINE
  5
467
330
1F
100
AcDbEntity
  8
외형선
  6
Continuous
370
    15
100
AcDbSpline
210
0.0
220
0.0
230
1.0
 70
    24
 71
     3
 72
    14
 73
    10
 74
     0
 42
0.000000001
 43
0.00000001
 40
0.0
 40
0.0
 40
0.0
 40
0.0
 40
0.25
 40
0.25
 40
0.5
 40
0.5
 40
0.75
 40
0.75
 40
1.0
 40
1.0
 40
1.0
 40
1.0
 10
-20.63750000000002
 20
-1.240416209147895
 30
0.0
 10
-20.63750000000002
 20
-1.18773892977984
 30
0.0
 10
-20.63750000000002
 20
-1.11508435017771
 30
0.0
 10
-20.63750000000002
 20
-0.9311086264996569
 30
0.0
 10
-20.63750000000002
 20
-0.8198017308897072
 30
0.0
 10
-20.63750000000002
 20
-0.5677081358181149
 30
0.0
 10
-20.63750000000002
 20
-0.4270557623635149
 30
0.0
 10
-20.63750000000002
 20
-0.1312642863838172
 30
0.0
 10
-20.63750000000002
 20
0.0237035164178969
 30
0.0
 10
-20.63750000000002
 20
0.1780007887979529
 30
0.0
  0
SPLINE
  5
468
330
1F
100
AcDbEntity
  8
외형선
  6
Continuous
370
    15
100
AcDbSpline
210
0.0
220
0.0
230
1.0
 70
     8
 71
     3
 72
     8
 73
     4
 74
     0
 42
0.000000001
 43
0.00000001
 40
0.0
 40
0.0
 40
0.0
 40
0.0
 40
1.0
 40
1.0
 40
1.0
 40
1.0
 10
-20.63750000000002
 20
-1.240416209147895
 30
0.0
 10
-20.46607245959616
 20
-1.24901665611393
 30
0.0
 10
-20.29738538524169
 20
-1.251913336496663
 30
0.0
 10
-20.12757409846308
 20
-1.249142238434352
 30
0.0
  0
SPLINE
  5
469
330
1F
100
AcDbEntity
  8
외형선
  6
Continuous
370
    15
100
AcDbSpline
210
0.0
220
0.0
230
1.0
 70
    24
 71
     3
 72
     8
 73
     4
 74
     0
 42
0.000000001
 43
0.00000001
 40
0.0
 40
0.0
 40
0.0
 40
0.0
 40
1.0
 40
1.0
 40
1.0
 40
1.0
 10
-20.63750000000002
 20
1.468446120337995
 30
0.0
 10
-20.63750000000002
 20
1.563349781239709
 30
0.0
 10
-20.63750000000002
 20
1.658388086070645
 30
0.0
 10
-20.63750000000002
 20
1.75173402011766
 30
0.0
  0
SPLINE
  5
46A
330
1F
100
AcDbEntity
  8
외형선
  6
Continuous
370
    15
100
AcDbSpline
210
0.0
220
0.0
230
1.0
 70
    24
 71
     3
 72
    10
 73
     6
 74
     0
 42
0.000000001
 43
0.00000001
 40
0.0
 40
0.0
 40
0.0
 40
0.0
 40
0.5
 40
0.5
 40
1.0
 40
1.0
 40
1.0
 40
1.0
 10
-20.63750000000002
 20
-1.779671464474141
 30
0.0
 10
-20.63750000000002
 20
-1.693777334485126
 30
0.0
 10
-20.63750000000002
 20
-1.598980092418585
 30
0.0
 10
-20.63750000000002
 20
-1.412373410062094
 30
0.0
 10
-20.63750000000002
 20
-1.321058041086899
 30
0.0
 10
-20.63750000000002
 20
-1.240416209147895
 30
0.0
  0
SPLINE
  5
46B
330
1F
100
AcDbEntity
  8
0
  6
Continuous
 62
     1
370
    15
100
AcDbSpline
210
0.0
220
0.0
230
1.0
 70
     8
 71
     3
 72
    20
 73
    16
 74
     0
 42
0.000000001
 43
0.00000001
 40
0.0
 40
0.0
 40
0.0
 40
0.0
 40
0.0159388934186711
 40
0.0979549893222239
 40
0.1799696517587644
 40
0.2619827092228961
 40
0.34399399072128
 40
0.4260033258265049
 40
0.5080105447305735
 40
0.5900154782979623
 40
0.6720179581182258
 40
0.7540178165581072
 40
0.8360148868131204
 40
0.9180090029585742
 40
1.0
 40
1.0
 40
1.0
 40
1.0
 10
-27.53076380208712
 20
-1.196611256423061
 30
0.0
 10
-27.59535402069157
 20
-1.226917263758444
 30
0.0
 10
-27.99230342034731
 20
-1.413167622987195
 30
0.0
 10
-28.72160329175575
 20
-1.633950290280693
 30
0.0
 10
-29.71865622468807
 20
-1.805235390988009
 30
0.0
 10
-30.7156854942125
 20
-1.780497507002877
 30
0.0
 10
-31.71268893307101
 20
-1.575104873507264
 30
0.0
 10
-32.70966397017683
 20
-1.206774934479888
 30
0.0
 10
-33.70660815314412
 20
-0.7143868530336157
 30
0.0
 10
-34.70351901486735
 20
-0.1483177723375058
 30
0.0
 10
-35.70039408950846
 20
0.4327497154324511
 30
0.0
 10
-36.69723098673615
 20
0.9701987172893716
 30
0.0
 10
-37.69402708352761
 20
1.404201823734596
 30
0.0
 10
-38.69078068734814
 20
1.706803322002764
 30
0.0
 10
-39.35526444208782
 20
1.758553470657603
 30
0.0
 10
-39.68750000000001
 20
1.784428052824197
 30
0.0
  0
SPLINE
  5
46C
330
1F
100
AcDbEntity
  8
0
  6
Continuous
 62
     1
370
    15
100
AcDbSpline
210
0.0
220
0.0
230
1.0
 70
     8
 71
     3
 72
    13
 73
     9
 74
     0
 42
0.000000001
 43
0.00000001
 40
0.0
 40
0.0
 40
0.0
 40
0.0
 40
0.0567190912900202
 40
0.2574306716257527
 40
0.4548767925717256
 40
0.6524610878712431
 40
0.8499860935813087
 40
1.0
 40
1.0
 40
1.0
 40
1.0
 10
-35.24478906510036
 20
0.1643812525317621
 30
0.0
 10
-35.13239995215307
 20
0.1204973475483164
 30
0.0
 10
-34.62230001628661
 20
-0.0786783246373155
 30
0.0
 10
-33.72119528948844
 20
-0.4506699449947782
 30
0.0
 10
-32.54069430545878
 20
-0.8637511345613753
 30
0.0
 10
-31.36646644882928
 20
-1.148612946076717
 30
0.0
 10
-30.28622994131326
 20
-1.279155020141985
 30
0.0
 10
-29.59767165804636
 20
-1.227299534106293
 30
0.0
 10
-29.30045798134717
 20
-1.20491630230699
 30
0.0
  0
SPLINE
  5
46D
330
1F
100
AcDbEntity
  8
0
  6
Continuous
 62
     1
370
    15
100
AcDbSpline
210
0.0
220
0.0
230
1.0
 70
     8
 71
     3
 72
    17
 73
    13
 74
     0
 42
0.000000001
 43
0.00000001
 40
0.0
 40
0.0
 40
0.0
 40
0.0
 40
0.1082374534156115
 40
0.2164766860846792
 40
0.3247157566208022
 40
0.4329527238580454
 40
0.5383664409421287
 40
0.6437789802131738
 40
0.7491901196927274
 40
0.8545996378502171
 40
0.9600073136734013
 40
0.9999999999999999
 40
0.9999999999999999
 40
0.9999999999999999
 40
0.9999999999999999
 10
-20.63749999999835
 20
-1.779671464474226
 30
0.0
 10
-20.97880608866237
 20
-1.744255280247152
 30
0.0
 10
-21.6614238765256
 20
-1.673422329606658
 30
0.0
 10
-22.68536063279314
 20
-1.333811673665358
 30
0.0
 10
-23.70928491435541
 20
-0.8632968885839738
 30
0.0
 10
-24.72433335050943
 20
-0.3003699463587417
 30
0.0
 10
-25.73032360937055
 20
0.2879740371472728
 30
0.0
 10
-26.7274394428813
 20
0.8408605071008359
 30
0.0
 10
-27.72452940894062
 20
1.310218459914595
 30
0.0
 10
-28.72160341106196
 20
1.632925462366537
 30
0.0
 10
-29.51240920631717
 20
1.790200619527845
 30
0.0
 10
-29.97085553288913
 20
1.769770144044025
 30
0.0
 10
-30.09695219362016
 20
1.764150697259659
 30
0.0
  0
SPLINE
  5
46E
330
1F
100
AcDbEntity
  8
0
  6
Continuous
 62
     1
370
    15
100
AcDbSpline
210
0.0
220
0.0
230
1.0
 70
     8
 71
     3
 72
    10
 73
     6
 74
     0
 42
0.000000001
 43
0.00000001
 40
0.0
 40
0.0
 40
0.0
 40
0.0
 40
0.1782331836311236
 40
0.589124407086525
 40
1.0
 40
1.0
 40
1.0
 40
1.0
 10
-37.26167079839139
 20
-1.196078183179302
 30
0.0
 10
-37.40579331063004
 20
-1.260535473667303
 30
0.0
 10
-37.88216975097988
 20
-1.473589868295284
 30
0.0
 10
-38.69078045866758
 20
-1.702788631296229
 30
0.0
 10
-39.35526436586193
 20
-1.757215257391535
 30
0.0
 10
-39.68750000000001
 20
-1.784428052824189
 30
0.0
  0
SPLINE
  5
46F
330
1F
100
AcDbEntity
  8
0
  6
Continuous
 62
     1
370
    15
100
AcDbSpline
210
0.0
220
0.0
230
1.0
 70
    24
 71
     3
 72
    10
 73
     6
 74
     0
 42
0.000000001
 43
0.00000001
 40
0.0
 40
0.0
 40
0.0
 40
0.0
 40
0.5
 40
0.5
 40
1.0
 40
1.0
 40
1.0
 40
1.0
 10
-39.68750000000001
 20
-1.250156249999996
 30
0.0
 10
-39.68750000000001
 20
-1.325937608641808
 30
0.0
 10
-39.68750000000001
 20
-1.41400256549236
 30
0.0
 10
-39.68750000000001
 20
-1.598762607778524
 30
0.0
 10
-39.68750000000001
 20
-1.694985839251692
 30
0.0
 10
-39.68750000000001
 20
-1.784428052824189
 30
0.0
  0
LINE
  5
470
330
1F
100
AcDbEntity
  8
0
  6
Continuous
 62
     1
370
    15
100
AcDbLine
 10
-39.68750000000001
 20
-1.250156249999996
 30
0.0
 11
-39.03730487227862
 21
-1.200020311767111
 31
0.0
  0
SPLINE
  5
471
330
1F
100
AcDbEntity
  8
0
  6
Continuous
 62
     1
370
    15
100
AcDbSpline
210
0.0
220
0.0
230
1.0
 70
     8
 71
     3
 72
    12
 73
     8
 74
     0
 42
0.000000001
 43
0.00000001
 40
0.0
 40
0.0
 40
0.0
 40
0.0
 40
0.0207750444758556
 40
0.2655802136396508
 40
0.5100561956011197
 40
0.7549340894422578
 40
1.0
 40
1.0
 40
1.0
 40
1.0
 10
-25.52835512165729
 20
0.1668371287378114
 30
0.0
 10
-25.49448231224341
 20
0.1538688889492199
 30
0.0
 10
-25.06146528688044
 20
-0.0119121228598111
 30
0.0
 10
-24.22992272981708
 20
-0.3631933707285449
 30
0.0
 10
-23.03331063039577
 20
-0.7947964643049794
 30
0.0
 10
-21.83591184286411
 20
-1.125980549646619
 30
0.0
 10
-21.03707279954052
 20
-1.20226123170299
 30
0.0
 10
-20.63750000000002
 20
-1.240416209147895
 30
0.0
  0
SPLINE
  5
472
330
1F
100
AcDbEntity
  8
외형선
  6
Continuous
370
    15
100
AcDbSpline
210
0.0
220
0.0
230
1.0
 70
    24
 71
     3
 72
    10
 73
     6
 74
     0
 42
0.000000001
 43
0.00000001
 40
0.0
 40
0.0
 40
0.0
 40
0.0
 40
0.5
 40
0.5
 40
1.0
 40
1.0
 40
1.0
 40
1.0
 10
-20.63750000000002
 20
-1.779671464461578
 30
0.0
 10
-20.63750000000002
 20
-1.693777334473814
 30
0.0
 10
-20.63750000000002
 20
-1.598980092409412
 30
0.0
 10
-20.63750000000002
 20
-1.412373410057625
 30
0.0
 10
-20.63750000000002
 20
-1.321058041084931
 30
0.0
 10
-20.63750000000002
 20
-1.240416209147895
 30
0.0
  0
SPLINE
  5
473
330
1F
100
AcDbEntity
  8
0
  6
Continuous
 62
     1
370
    15
100
AcDbSpline
210
0.0
220
0.0
230
1.0
 70
     8
 71
     3
 72
    20
 73
    16
 74
     0
 42
0.000000001
 43
0.00000001
 40
0.0
 40
0.0
 40
0.0
 40
0.0
 40
0.0230164154928781
 40
0.107974953554637
 40
0.1929355080606862
 40
0.2778979024433256
 40
0.3628619595485338
 40
0.4478275016917864
 40
0.532794350714232
 40
0.6177623280391977
 40
0.7027312547289791
 40
0.789975646410213
 40
0.8772217331414813
 40
0.9644679504271819
 40
1.0
 40
1.0
 40
1.0
 40
1.0
 10
-32.97976082972878
 20
1.405660821032499
 30
0.0
 10
-32.88972989753655
 20
1.441283273702098
 30
0.0
 10
-32.46737543817478
 20
1.608395857922361
 30
0.0
 10
-31.71268433457306
 20
1.757177450280978
 30
0.0
 10
-30.7156806984578
 20
1.81315650123387
 30
0.0
 10
-29.71865069886565
 20
1.671582223815698
 30
0.0
 10
-28.72159759583418
 20
1.360759107691629
 30
0.0
 10
-27.72452283480553
 20
0.9089980363775261
 30
0.0
 10
-26.72743237694102
 20
0.3638821377974188
 30
0.0
 10
-25.73031597641506
 20
-0.2189846547862253
 30
0.0
 10
-24.72432604459417
 20
-0.7834742958482714
 30
0.0
 10
-23.70927873624365
 20
-1.273358032832184
 30
0.0
 10
-22.68535670311264
 20
-1.617548255800677
 30
0.0
 10
-21.86372539074086
 20
-1.78814898787332
 30
0.0
 10
-21.3834111966574
 20
-1.768169558267082
 30
0.0
 10
-21.24440819399761
 20
-1.762387508223788
 30
0.0
  0
SPLINE
  5
474
330
1F
100
AcDbEntity
  8
0
  6
Continuous
 62
     1
370
    15
100
AcDbSpline
210
0.0
220
0.0
230
1.0
 70
     8
 71
     3
 72
    16
 73
    12
 74
     0
 42
0.000000001
 43
0.00000001
 40
0.0
 40
0.0
 40
0.0
 40
0.0
 40
0.063281947317078
 40
0.1917347522258598
 40
0.3202269145777509
 40
0.4488177296958815
 40
0.5775563783941766
 40
0.7062303523717683
 40
0.8347720063541637
 40
0.9632401441508643
 40
1.0
 40
1.0
 40
1.0
 40
1.0
 10
-31.78780727215756
 20
1.472367466089673
 30
0.0
 10
-31.65150736045945
 20
1.488739940927837
 30
0.0
 10
-31.23853919329952
 20
1.538346069365865
 30
0.0
 10
-30.54885330109921
 20
1.504015847663567
 30
0.0
 10
-29.71845636108265
 20
1.375843402020344
 30
0.0
 10
-28.88737019576786
 20
1.143240949415308
 30
0.0
 10
-28.05567069026765
 20
0.8305306515025215
 30
0.0
 10
-27.22418893334743
 20
0.4569947679310793
 30
0.0
 10
-26.39343496372874
 20
0.0535387752484986
 30
0.0
 10
-25.76071411732068
 20
-0.2646738178204153
 30
0.0
 10
-25.40484749567805
 20
-0.4258536460842912
 30
0.0
 10
-25.32567443653443
 20
-0.4617128677696265
 30
0.0
  0
SPLINE
  5
475
330
1F
100
AcDbEntity
  8
0
  6
Continuous
 62
     1
370
    15
100
AcDbSpline
210
0.0
220
0.0
230
1.0
 70
     8
 71
     3
 72
    16
 73
    12
 74
     0
 42
0.000000001
 43
0.00000001
 40
0.0
 40
0.0
 40
0.0
 40
0.0
 40
0.114235202427198
 40
0.2284747507732426
 40
0.3427184151423213
 40
0.4569659643424692
 40
0.5712171659558349
 40
0.6854717864097745
 40
0.7997295910487299
 40
0.9139903442068404
 40
1.0
 40
1.0
 40
1.0
 40
1.0
 10
-39.68750000000001
 20
1.69474908364385
 30
0.0
 10
-39.35526426325192
 20
1.61714719196283
 30
0.0
 10
-38.69078015031074
 20
1.461940456345112
 30
0.0
 10
-37.69402600821582
 20
1.031834827244048
 30
0.0
 10
-36.69722937067591
 20
0.5080353583651493
 30
0.0
 10
-35.70039193390915
 20
-0.0715583640194872
 30
0.0
 10
-34.70351630780829
 20
-0.6424589457794376
 30
0.0
 10
-33.70660493249071
 20
-1.14906271010431
 30
0.0
 10
-32.70966008872569
 20
-1.531253851239135
 30
0.0
 10
-31.79486061517205
 20
-1.757896432565772
 30
0.0
 10
-31.21237437651821
 20
-1.765480422097055
 30
0.0
 10
-30.96221539819874
 20
-1.768737500027547
 30
0.0
  0
SPLINE
  5
476
330
1F
100
AcDbEntity
  8
0
  6
Continuous
 62
     1
370
    15
100
AcDbSpline
210
0.0
220
0.0
230
1.0
 70
     8
 71
     3
 72
    10
 73
     6
 74
     0
 42
0.000000001
 43
0.00000001
 40
0.0
 40
0.0
 40
0.0
 40
0.0
 40
0.2147691841958258
 40
0.6073878189525365
 40
1.0
 40
1.0
 40
1.0
 40
1.0
 10
-23.24546669999842
 20
1.405659368149337
 30
0.0
 10
-23.05876291643563
 20
1.473367953870814
 30
0.0
 10
-22.53074673798341
 20
1.664854317986411
 30
0.0
 10
-21.66142218588579
 20
1.806721478119415
 30
0.0
 10
-20.97880552518073
 20
1.770063072360252
 30
0.0
 10
-20.63749999999667
 20
1.751734020125988
 30
0.0
  0
SPLINE
  5
477
330
1F
100
AcDbEntity
  8
외형선
  6
Continuous
370
    15
100
AcDbSpline
210
0.0
220
0.0
230
1.0
 70
    24
 71
     3
 72
     8
 73
     4
 74
     0
 42
0.000000001
 43
0.00000001
 40
0.0
 40
0.0
 40
0.0
 40
0.0
 40
1.0
 40
1.0
 40
1.0
 40
1.0
 10
-20.63750000000002
 20
1.468446120337995
 30
0.0
 10
-20.63750000000002
 20
1.563349781239709
 30
0.0
 10
-20.63750000000002
 20
1.658388086070645
 30
0.0
 10
-20.63750000000002
 20
1.75173402011766
 30
0.0
  0
SPLINE
  5
478
330
1F
100
AcDbEntity
  8
0
  6
Continuous
 62
     1
370
    15
100
AcDbSpline
210
0.0
220
0.0
230
1.0
 70
     8
 71
     3
 72
    13
 73
     9
 74
     0
 42
0.000000001
 43
0.00000001
 40
0.0
 40
0.0
 40
0.0
 40
0.0
 40
0.1791290383402446
 40
0.3580567250011673
 40
0.5368645783300483
 40
0.7156353064065055
 40
0.8944519871759882
 40
1.0
 40
1.0
 40
1.0
 40
1.0
 10
-39.68750000000001
 20
1.409055153395116
 30
0.0
 10
-39.41019405071669
 20
1.348629015199841
 30
0.0
 10
-38.85589386050896
 20
1.227844661377909
 30
0.0
 10
-38.02497495540164
 20
0.931520730844263
 30
0.0
 10
-37.19468115105332
 20
0.5753484536001501
 30
0.0
 10
-36.36458320773637
 20
0.177460432048975
 30
0.0
 10
-35.64784736525034
 20
-0.1812100233465721
 30
0.0
 10
-35.20770347154014
 20
-0.3857624823474091
 30
0.0
 10
-35.04433469058964
 20
-0.4616864843498043
 30
0.0
  0
SPLINE
  5
479
330
1F
100
AcDbEntity
  8
0
  6
Continuous
 62
     1
370
    15
100
AcDbSpline
210
0.0
220
0.0
230
1.0
 70
     8
 71
     3
 72
     9
 73
     5
 74
     0
 42
0.000000001
 43
0.00000001
 40
0.0
 40
0.0
 40
0.0
 40
0.0
 40
0.4337124092926518
 40
1.0
 40
1.0
 40
1.0
 40
1.0
 10
-22.05109202884879
 20
1.478553884620745
 30
0.0
 10
-21.84669591276478
 20
1.497316730860512
 30
0.0
 10
-21.37542483150293
 20
1.540577762451399
 30
0.0
 10
-20.90429498543831
 20
1.494525145715266
 30
0.0
 10
-20.63750000000002
 20
1.468446120337995
 30
0.0
  0
LINE
  5
47A
330
1F
100
AcDbEntity
  8
0
  6
Continuous
 62
     1
370
    15
100
AcDbLine
 10
-39.68750000000001
 20
1.694749083643857
 30
0.0
 11
-39.68750000000001
 21
1.409055153395116
 31
0.0
  0
LINE
  5
47B
330
1F
100
AcDbEntity
  8
0
  6
Continuous
 62
     1
370
    15
100
AcDbLine
 10
-39.68750000000001
 20
1.784428052824204
 30
0.0
 11
-39.68750000000001
 21
1.694749083643857
 31
0.0
  0
SPLINE
  5
47C
330
1F
100
AcDbEntity
  8
0
  6
Continuous
 62
     1
370
    15
100
AcDbSpline
210
0.0
220
0.0
230
1.0
 70
     8
 71
     3
 72
     8
 73
     4
 74
     0
 42
0.000000001
 43
0.00000001
 40
0.0
 40
0.0
 40
0.0
 40
0.0
 40
1.0
 40
1.0
 40
1.0
 40
1.0
 10
-38.58185610163611
 20
-0.5001697058188406
 30
0.0
 10
-38.51861190382926
 20
-0.5750934330415725
 30
0.0
 10
-38.46215597961277
 20
-0.6472264353891639
 30
0.0
 10
-38.41409004714621
 20
-0.7159102310471106
 30
0.0
  0
LINE
  5
47D
330
1F
100
AcDbEntity
  8
0
  6
Continuous
 62
     1
370
    15
100
AcDbLine
 10
-38.43671237855563
 20
-0.7348926209891069
 30
0.0
 11
-39.68750000000001
 21
0.0000000000000007
 31
0.0
  0
LINE
  5
47E
330
1F
100
AcDbEntity
  8
0
  6
Continuous
 62
     1
370
    15
100
AcDbLine
 10
-39.68750000000001
 20
0.0000000000000007
 30
0.0
 11
-39.68750000000001
 21
0.4772791989248197
 31
0.0
  0
SPLINE
  5
47F
330
1F
100
AcDbEntity
  8
0
  6
Continuous
 62
     1
370
    15
100
AcDbSpline
210
0.0
220
0.0
230
1.0
 70
     8
 71
     3
 72
    10
 73
     6
 74
     0
 42
0.000000001
 43
0.00000001
 40
0.0
 40
0.0
 40
0.0
 40
0.0
 40
0.5
 40
0.5
 40
1.0
 40
1.0
 40
1.0
 40
1.0
 10
-39.68750000000001
 20
0.4772791989248197
 30
0.0
 10
-39.4961002926898
 20
0.3268046018112407
 30
0.0
 10
-39.30790107205963
 20
0.1701549815739447
 30
0.0
 10
-38.93805667290173
 20
-0.1557896361768762
 30
0.0
 10
-38.75469088418618
 20
-0.3268069389675496
 30
0.0
 10
-38.58185610163924
 20
-0.5001697058157142
 30
0.0
  0
SPLINE
  5
480
330
1F
100
AcDbEntity
  8
외형선
  6
Continuous
370
    15
100
AcDbSpline
210
0.0
220
0.0
230
1.0
 70
    24
 71
     3
 72
    10
 73
     6
 74
     0
 42
0.000000001
 43
0.00000001
 40
0.0
 40
0.0
 40
0.0
 40
0.0
 40
0.4999999999999999
 40
0.4999999999999999
 40
1.0
 40
1.0
 40
1.0
 40
1.0
 10
-20.63750000000002
 20
0.1780007887979529
 30
0.0
 10
-20.63750000000002
 20
0.44552569386449
 30
0.0
 10
-20.63750000000002
 20
0.7115788847165738
 30
0.0
 10
-20.63750000000002
 20
1.162653472931546
 30
0.0
 10
-20.63750000000002
 20
1.345733268929323
 30
0.0
 10
-20.63750000000002
 20
1.468446120337995
 30
0.0
  0
SPLINE
  5
481
330
1F
100
AcDbEntity
  8
0
  6
Continuous
 62
     1
370
    15
100
AcDbSpline
210
0.0
220
0.0
230
1.0
 70
     8
 71
     3
 72
    12
 73
     8
 74
     0
 42
0.000000001
 43
0.00000001
 40
0.0
 40
0.0
 40
0.0
 40
0.0
 40
0.2357871902001638
 40
0.4715744392799852
 40
0.7073617476025231
 40
0.9431491155306926
 40
1.0
 40
1.0
 40
1.0
 40
1.0
 10
-38.58185610163998
 20
-0.5001697058171495
 30
0.0
 10
-38.25866206931375
 20
-0.635064353415131
 30
0.0
 10
-37.61227392395478
 20
-0.9048536822963407
 30
0.0
 10
-36.64269296012601
 20
-1.211151054775989
 30
0.0
 10
-35.67310605733389
 20
-1.391550333480239
 30
0.0
 10
-34.94880457124939
 20
-1.456195065778181
 30
0.0
 10
-34.54767127783374
 20
-1.414185946663159
 30
0.0
 10
-34.4697430427724
 20
-1.4060248277462
 30
0.0
  0
SPLINE
  5
482
330
1F
100
AcDbEntity
  8
0
  6
Continuous
 62
     1
370
    15
100
AcDbSpline
210
0.0
220
0.0
230
1.0
 70
     8
 71
     3
 72
    13
 73
     9
 74
     0
 42
0.000000001
 43
0.00000001
 40
0.0
 40
0.0
 40
0.0
 40
0.0
 40
0.0834986914759826
 40
0.262948725493779
 40
0.4472093554226501
 40
0.6314737783555722
 40
0.8157384935847453
 40
1.0
 40
1.0
 40
1.0
 40
1.0
 10
-26.19429389307619
 20
1.324778511715728
 30
0.0
 10
-26.03963902352627
 20
1.352981024650469
 30
0.0
 10
-25.55260982437708
 20
1.441794570118369
 30
0.0
 10
-24.72431530033271
 20
1.438084238683033
 30
0.0
 10
-23.70928389055823
 20
1.309677987107783
 30
0.0
 10
-22.6853585893943
 20
1.029736720067
 30
0.0
 10
-21.661423843059
 20
0.6415350815208576
 30
0.0
 10
-20.97880596646707
 20
0.332511322799953
 30
0.0
 10
-20.63750000000002
 20
0.1780007887979529
 30
0.0
  0
SPLINE
  5
483
330
1F
100
AcDbEntity
  8
0
  6
Continuous
 62
     1
370
    15
100
AcDbSpline
210
0.0
220
0.0
230
1.0
 70
    24
 71
     3
 72
    10
 73
     6
 74
     0
 42
0.000000001
 43
0.00000001
 40
0.0
 40
0.0
 40
0.0
 40
0.0
 40
0.4999999999999998
 40
0.4999999999999998
 40
1.0
 40
1.0
 40
1.0
 40
1.0
 10
-39.68750000000001
 20
1.409055153395116
 30
0.0
 10
-39.68750000000001
 20
1.301040090048986
 30
0.0
 10
-39.68750000000001
 20
1.164558915789215
 30
0.0
 10
-39.68750000000001
 20
0.8472533204831698
 30
0.0
 10
-39.68750000000001
 20
0.666703761574454
 30
0.0
 10
-39.68750000000001
 20
0.4772791989248837
 30
0.0
  0
SPLINE
  5
484
330
1F
100
AcDbEntity
  8
0
  6
Continuous
 62
     1
370
    15
100
AcDbSpline
210
0.0
220
0.0
230
1.0
 70
     8
 71
     3
 72
    19
 73
    15
 74
     0
 42
0.000000001
 43
0.00000001
 40
0.0
 40
0.0
 40
0.0
 40
0.0
 40
0.0212158766141592
 40
0.1081192754963022
 40
0.1974694629729797
 40
0.2868222881484776
 40
0.3761775558507622
 40
0.4655350701214566
 40
0.5548946342778778
 40
0.6442560509755733
 40
0.7336191222713079
 40
0.8229836496864673
 40
0.9123494342708283
 40
1.0
 40
1.0
 40
1.0
 40
1.0
 10
-35.90981556169346
 20
1.330561639468301
 30
0.0
 10
-35.83091353225991
 20
1.346610002802259
 30
0.0
 10
-35.42881700744096
 20
1.428394858932642
 30
0.0
 10
-34.694435893476
 20
1.444931614727758
 30
0.0
 10
-33.70660394614101
 20
1.360834450071011
 30
0.0
 10
-32.7096624140433
 20
1.12508803567895
 30
0.0
 10
-31.71268648751511
 20
0.7763483664523683
 30
0.0
 10
-30.71568312484278
 20
0.346898099742156
 30
0.0
 10
-29.71865360938529
 20
-0.1181316639617045
 30
0.0
 10
-28.72160075346711
 20
-0.5708429264936818
 30
0.0
 10
-27.72452698009815
 20
-0.9655416662524126
 30
0.0
 10
-26.72743478704667
 20
-1.257859077816284
 30
0.0
 10
-25.73670998684873
 20
-1.430512974949088
 30
0.0
 10
-25.07834882723206
 20
-1.421988710541981
 30
0.0
 10
-24.7523578778519
 20
-1.417767876724177
 30
0.0
  0
SPLINE
  5
485
330
1F
100
AcDbEntity
  8
0
  6
Continuous
 62
     1
370
    15
100
AcDbSpline
210
0.0
220
0.0
230
1.0
 70
    24
 71
     3
 72
     8
 73
     4
 74
     0
 42
0.000000001
 43
0.00000001
 40
0.0
 40
0.0
 40
0.0
 40
0.0
 40
1.0
 40
1.0
 40
1.0
 40
1.0
 10
-38.60063864972745
 20
-0.8724430946696125
 30
0.0
 10
-38.54172132641293
 20
-0.8230055904064735
 30
0.0
 10
-38.47917021350776
 20
-0.7705189746379724
 30
0.0
 10
-38.41409004714627
 20
-0.7159102310470893
 30
0.0
  0
SPLINE
  5
486
330
1F
100
AcDbEntity
  8
외형선
  6
Continuous
370
    15
100
AcDbSpline
210
0.0
220
0.0
230
1.0
 70
    24
 71
     3
 72
    14
 73
    10
 74
     0
 42
0.000000001
 43
0.00000001
 40
0.0
 40
0.0
 40
0.0
 40
0.0
 40
0.25
 40
0.25
 40
0.5
 40
0.5
 40
0.75
 40
0.75
 40
1.0
 40
1.0
 40
1.0
 40
1.0
 10
-20.63750000000002
 20
-1.240416209147895
 30
0.0
 10
-20.63750000000002
 20
-1.18773892977984
 30
0.0
 10
-20.63750000000002
 20
-1.11508435017771
 30
0.0
 10
-20.63750000000002
 20
-0.9311086264996569
 30
0.0
 10
-20.63750000000002
 20
-0.8198017308897072
 30
0.0
 10
-20.63750000000002
 20
-0.5677081358181149
 30
0.0
 10
-20.63750000000002
 20
-0.4270557623635149
 30
0.0
 10
-20.63750000000002
 20
-0.1312642863838172
 30
0.0
 10
-20.63750000000002
 20
0.0237035164178969
 30
0.0
 10
-20.63750000000002
 20
0.1780007887979529
 30
0.0
  0
SPLINE
  5
487
330
1F
100
AcDbEntity
  8
0
  6
Continuous
 62
     1
370
    15
100
AcDbSpline
210
0.0
220
0.0
230
1.0
 70
     8
 71
     3
 72
    17
 73
    13
 74
     0
 42
0.000000001
 43
0.00000001
 40
0.0
 40
0.0
 40
0.0
 40
0.0
 40
0.0004646954522281
 40
0.0004646954522281
 40
0.0004646954522281
 40
0.0009294090712162
 40
0.0009294090712162
 40
0.0009294090712162
 40
0.001317453739494
 40
0.001317453739494
 40
0.001317453739494
 40
0.0014689704354266
 40
0.0014689704354266
 40
0.0014689704354266
 40
0.0014689704354266
 10
-39.68750000000001
 20
-1.250156249999996
 30
0.0
 10
-39.57132905130727
 20
-1.218601605831977
 30
0.0
 10
-39.45552671177905
 20
-1.184624524395225
 30
0.0
 10
-39.34021526594922
 20
-1.148090422770166
 30
0.0
 10
-39.22490122597805
 20
-1.111555499243841
 30
0.0
 10
-39.11004250731157
 20
-1.072454958949663
 30
0.0
 10
-38.99580656343648
 20
-1.030544063343235
 30
0.0
 10
-38.90041442161561
 20
-0.9955465838992901
 30
0.0
 10
-38.80542914298406
 20
-0.9585830591924271
 30
0.0
 10
-38.7109928263075
 20
-0.9194165157699878
 30
0.0
 10
-38.67411823946336
 20
-0.9041231396871219
 30
0.0
 10
-38.63732853507788
 20
-0.8884756114900718
 30
0.0
 10
-38.60063864972742
 20
-0.8724430946696196
 30
0.0
  0
LINE
  5
488
330
1F
100
AcDbEntity
  8
0
  6
Continuous
 62
     1
370
    15
100
AcDbLine
 10
-39.68750000000001
 20
0.0000000000000007
 30
0.0
 11
-39.68750000000001
 21
-1.250156249999996
 31
0.0
  0
ENDSEC
  0
SECTION
  2
OBJECTS
  0
DICTIONARY
  5
C
330
0
100
AcDbDictionary
281
     1
  3
ACAD_GROUP
350
D
  3
ACAD_IMAGE_VARS
350
16E
  3
ACAD_LAYOUT
350
1A
  3
ACAD_MLINESTYLE
350
17
  3
ACAD_PLOTSETTINGS
350
19
  3
ACAD_PLOTSTYLENAME
350
E
  3
ACAD_SCALELIST
350
47
  3
APPDATA
350
16C
  3
DWGPROPS
350
4B9
  0
DICTIONARY
  5
268
330
2
100
AcDbDictionary
280
     1
281
     1
  3
ACAD_LAYERSTATES
360
269
  0
DICTIONARY
  5
D
102
{ACAD_REACTORS
330
C
102
}
330
C
100
AcDbDictionary
281
     1
  0
RASTERVARIABLES
  5
16E
102
{ACAD_REACTORS
330
C
102
}
330
C
100
AcDbRasterVariables
 90
        0
 70
     1
 71
     1
 72
     1
  0
DICTIONARY
  5
1A
102
{ACAD_REACTORS
330
C
102
}
330
C
100
AcDbDictionary
281
     1
  3
Layout1
350
1E
  3
Layout2
350
26
  3
Model
350
22
  0
DICTIONARY
  5
17
102
{ACAD_REACTORS
330
C
102
}
330
C
100
AcDbDictionary
281
     1
  3
Standard
350
18
  0
DICTIONARY
  5
19
102
{ACAD_REACTORS
330
C
102
}
330
C
100
AcDbDictionary
281
     1
  0
ACDBDICTIONARYWDFLT
  5
E
102
{ACAD_REACTORS
330
C
102
}
330
C
100
AcDbDictionary
281
     1
  3
Normal
350
F
100
AcDbDictionaryWithDefault
340
F
  0
DICTIONARY
  5
47
102
{ACAD_REACTORS
330
C
102
}
330
C
100
AcDbDictionary
281
     1
  3
A0
350
48
  3
A1
350
49
  3
A2
350
4A
  3
A3
350
4B
  3
A4
350
4C
  3
A5
350
4D
  3
A6
350
4E
  3
A7
350
4F
  3
A8
350
50
  3
A9
350
51
  3
B0
350
52
  3
B1
350
53
  3
B2
350
54
  3
B3
350
55
  3
B4
350
56
  3
B5
350
57
  3
B6
350
58
  3
B7
350
59
  3
B8
350
5A
  3
B9
350
5B
  3
C0
350
5C
  3
C1
350
5D
  3
C2
350
5E
  3
C3
350
5F
  3
C4
350
60
  3
C5
350
61
  3
C6
350
62
  3
C7
350
63
  3
C8
350
64
  3
C9
350
65
  3
D0
350
66
  3
D1
350
67
  3
D2
350
68
  0
DICTIONARY
  5
16C
102
{ACAD_REACTORS
330
C
102
}
330
C
100
AcDbDictionary
281
     1
  0
XRECORD
  5
4B9
102
{ACAD_REACTORS
330
C
102
}
330
C
100
AcDbXrecord
280
     1
  1
DWGPROPS COOKIE
  2

  3

  4

  6

  7

  8
12017012
  9

300
=
301
=
302
=
303
=
304
=
305
=
306
=
307
=
308
=
309
=
 40
0.0
 41
2458313.037883333
 42
2458319.982615891
  1

 90
        0
  0
DICTIONARY
  5
269
102
{ACAD_REACTORS
330
268
102
}
330
268
100
AcDbDictionary
281
     1
  0
LAYOUT
  5
1E
102
{ACAD_REACTORS
330
1A
102
}
330
1A
100
AcDbPlotSettings
  1

  2
none_device
  4

  6

 40
0.0
 41
0.0
 42
0.0
 43
0.0
 44
0.0
 45
0.0
 46
0.0
 47
0.0
 48
0.0
 49
0.0
140
0.0
141
0.0
142
1.0
143
1.0
 70
   688
 72
     1
 73
     0
 74
     5
  7

 75
    16
147
1.0
148
0.0
149
0.0
100
AcDbLayout
  1
Layout1
 70
     1
 71
     1
 10
0.0
 20
0.0
 11
420.0
 21
297.0
 12
0.0
 22
0.0
 32
0.0
 14
1.000000000000000E+20
 24
1.000000000000000E+20
 34
1.000000000000000E+20
 15
-1.000000000000000E+20
 25
-1.000000000000000E+20
 35
-1.000000000000000E+20
146
0.0
 13
0.0
 23
0.0
 33
0.0
 16
1.0
 26
0.0
 36
0.0
 17
0.0
 27
1.0
 37
0.0
 76
     0
330
1B
  0
LAYOUT
  5
26
102
{ACAD_REACTORS
330
1A
102
}
330
1A
100
AcDbPlotSettings
  1

  2
none_device
  4

  6

 40
0.0
 41
0.0
 42
0.0
 43
0.0
 44
0.0
 45
0.0
 46
0.0
 47
0.0
 48
0.0
 49
0.0
140
0.0
141
0.0
142
1.0
143
1.0
 70
   688
 72
     1
 73
     0
 74
     5
  7

 75
    16
147
1.0
148
0.0
149
0.0
100
AcDbLayout
  1
Layout2
 70
     1
 71
     2
 10
0.0
 20
0.0
 11
0.0
 21
0.0
 12
0.0
 22
0.0
 32
0.0
 14
0.0
 24
0.0
 34
0.0
 15
0.0
 25
0.0
 35
0.0
146
0.0
 13
0.0
 23
0.0
 33
0.0
 16
1.0
 26
0.0
 36
0.0
 17
0.0
 27
1.0
 37
0.0
 76
     0
330
23
  0
LAYOUT
  5
22
102
{ACAD_REACTORS
330
1A
102
}
330
1A
100
AcDbPlotSettings
  1

  2
none_device
  4
ANSI_A_(11.00_x_8.50_Inches)
  6

 40
6.35
 41
19.05
 42
6.35000508
 43
19.05000254
 44
279.4
 45
215.9
 46
64.47685395351371
 47
88.01735977447083
 48
0.0
 49
0.0
140
0.0
141
0.0
142
0.0370829098887224
143
1.0
 70
  1696
 72
     0
 73
     0
 74
     0
  7

 75
     0
147
0.0235690232323232
148
0.0
149
0.0
100
AcDbLayout
  1
Model
 70
     1
 71
     0
 10
0.0
 20
0.0
 11
420.0
 21
297.0
 12
0.0
 22
0.0
 32
0.0
 14
1.000000000000000E+20
 24
1.000000000000000E+20
 34
1.000000000000000E+20
 15
-1.000000000000000E+20
 25
-1.000000000000000E+20
 35
-1.000000000000000E+20
146
0.0
 13
0.0
 23
0.0
 33
0.0
 16
1.0
 26
0.0
 36
0.0
 17
0.0
 27
1.0
 37
0.0
 76
     0
330
1F
331
29
  0
MLINESTYLE
  5
18
102
{ACAD_REACTORS
330
17
102
}
330
17
100
AcDbMlineStyle
  2
Standard
 70
     0
  3

 62
   256
 51
90.0
 52
90.0
 71
     2
 49
0.5
 62
   256
  6
BYLAYER
 49
-0.5
 62
   256
  6
BYLAYER
  0
ACDBPLACEHOLDER
  5
F
102
{ACAD_REACTORS
330
E
102
}
330
E
  0
SCALE
  5
48
102
{ACAD_REACTORS
330
47
102
}
330
47
100
AcDbScale
 70
     0
300
1:1
140
1.0
141
1.0
290
     1
  0
SCALE
  5
49
102
{ACAD_REACTORS
330
47
102
}
330
47
100
AcDbScale
 70
     0
300
1:2
140
1.0
141
2.0
290
     0
  0
SCALE
  5
4A
102
{ACAD_REACTORS
330
47
102
}
330
47
100
AcDbScale
 70
     0
300
1:4
140
1.0
141
4.0
290
     0
  0
SCALE
  5
4B
102
{ACAD_REACTORS
330
47
102
}
330
47
100
AcDbScale
 70
     0
300
1:5
140
1.0
141
5.0
290
     0
  0
SCALE
  5
4C
102
{ACAD_REACTORS
330
47
102
}
330
47
100
AcDbScale
 70
     0
300
1:8
140
1.0
141
8.0
290
     0
  0
SCALE
  5
4D
102
{ACAD_REACTORS
330
47
102
}
330
47
100
AcDbScale
 70
     0
300
1:10
140
1.0
141
10.0
290
     0
  0
SCALE
  5
4E
102
{ACAD_REACTORS
330
47
102
}
330
47
100
AcDbScale
 70
     0
300
1:16
140
1.0
141
16.0
290
     0
  0
SCALE
  5
4F
102
{ACAD_REACTORS
330
47
102
}
330
47
100
AcDbScale
 70
     0
300
1:20
140
1.0
141
20.0
290
     0
  0
SCALE
  5
50
102
{ACAD_REACTORS
330
47
102
}
330
47
100
AcDbScale
 70
     0
300
1:30
140
1.0
141
30.0
290
     0
  0
SCALE
  5
51
102
{ACAD_REACTORS
330
47
102
}
330
47
100
AcDbScale
 70
     0
300
1:40
140
1.0
141
40.0
290
     0
  0
SCALE
  5
52
102
{ACAD_REACTORS
330
47
102
}
330
47
100
AcDbScale
 70
     0
300
1:50
140
1.0
141
50.0
290
     0
  0
SCALE
  5
53
102
{ACAD_REACTORS
330
47
102
}
330
47
100
AcDbScale
 70
     0
300
1:100
140
1.0
141
100.0
290
     0
  0
SCALE
  5
54
102
{ACAD_REACTORS
330
47
102
}
330
47
100
AcDbScale
 70
     0
300
2:1
140
2.0
141
1.0
290
     0
  0
SCALE
  5
55
102
{ACAD_REACTORS
330
47
102
}
330
47
100
AcDbScale
 70
     0
300
4:1
140
4.0
141
1.0
290
     0
  0
SCALE
  5
56
102
{ACAD_REACTORS
330
47
102
}
330
47
100
AcDbScale
 70
     0
300
8:1
140
8.0
141
1.0
290
     0
  0
SCALE
  5
57
102
{ACAD_REACTORS
330
47
102
}
330
47
100
AcDbScale
 70
     0
300
10:1
140
10.0
141
1.0
290
     0
  0
SCALE
  5
58
102
{ACAD_REACTORS
330
47
102
}
330
47
100
AcDbScale
 70
     0
300
100:1
140
100.0
141
1.0
290
     0
  0
SCALE
  5
59
102
{ACAD_REACTORS
330
47
102
}
330
47
100
AcDbScale
 70
     0
300
1/128" = 1'-0"
140
0.0078125
141
12.0
290
     0
  0
SCALE
  5
5A
102
{ACAD_REACTORS
330
47
102
}
330
47
100
AcDbScale
 70
     0
300
1/64" = 1'-0"
140
0.015625
141
12.0
290
     0
  0
SCALE
  5
5B
102
{ACAD_REACTORS
330
47
102
}
330
47
100
AcDbScale
 70
     0
300
1/32" = 1'-0"
140
0.03125
141
12.0
290
     0
  0
SCALE
  5
5C
102
{ACAD_REACTORS
330
47
102
}
330
47
100
AcDbScale
 70
     0
300
1/16" = 1'-0"
140
0.0625
141
12.0
290
     0
  0
SCALE
  5
5D
102
{ACAD_REACTORS
330
47
102
}
330
47
100
AcDbScale
 70
     0
300
3/32" = 1'-0"
140
0.09375
141
12.0
290
     0
  0
SCALE
  5
5E
102
{ACAD_REACTORS
330
47
102
}
330
47
100
AcDbScale
 70
     0
300
1/8" = 1'-0"
140
0.125
141
12.0
290
     0
  0
SCALE
  5
5F
102
{ACAD_REACTORS
330
47
102
}
330
47
100
AcDbScale
 70
     0
300
3/16" = 1'-0"
140
0.1875
141
12.0
290
     0
  0
SCALE
  5
60
102
{ACAD_REACTORS
330
47
102
}
330
47
100
AcDbScale
 70
     0
300
1/4" = 1'-0"
140
0.25
141
12.0
290
     0
  0
SCALE
  5
61
102
{ACAD_REACTORS
330
47
102
}
330
47
100
AcDbScale
 70
     0
300
3/8" = 1'-0"
140
0.375
141
12.0
290
     0
  0
SCALE
  5
62
102
{ACAD_REACTORS
330
47
102
}
330
47
100
AcDbScale
 70
     0
300
1/2" = 1'-0"
140
0.5
141
12.0
290
     0
  0
SCALE
  5
63
102
{ACAD_REACTORS
330
47
102
}
330
47
100
AcDbScale
 70
     0
300
3/4" = 1'-0"
140
0.75
141
12.0
290
     0
  0
SCALE
  5
64
102
{ACAD_REACTORS
330
47
102
}
330
47
100
AcDbScale
 70
     0
300
1" = 1'-0"
140
1.0
141
12.0
290
     0
  0
SCALE
  5
65
102
{ACAD_REACTORS
330
47
102
}
330
47
100
AcDbScale
 70
     0
300
1-1/2" = 1'-0"
140
1.5
141
12.0
290
     0
  0
SCALE
  5
66
102
{ACAD_REACTORS
330
47
102
}
330
47
100
AcDbScale
 70
     0
300
3" = 1'-0"
140
3.0
141
12.0
290
     0
  0
SCALE
  5
67
102
{ACAD_REACTORS
330
47
102
}
330
47
100
AcDbScale
 70
     0
300
6" = 1'-0"
140
6.0
141
12.0
290
     0
  0
SCALE
  5
68
102
{ACAD_REACTORS
330
47
102
}
330
47
100
AcDbScale
 70
     0
300
1'-0" = 1'-0"
140
12.0
141
12.0
290
     0
  0
ENDSEC
  0
EOF
