  0
SECTION
  2
HEADER
  9
$ACADVER
  1
AC1015
  9
$ACADMAINTVER
 70
     6
  9
$DWGCODEPAGE
  3
ANSI_949
  9
$INSBASE
 10
0.0
 20
0.0
 30
0.0
  9
$EXTMIN
 10
1.000000000000000E+20
 20
1.000000000000000E+20
 30
1.000000000000000E+20
  9
$EXTMAX
 10
-1.000000000000000E+20
 20
-1.000000000000000E+20
 30
-1.000000000000000E+20
  9
$LIMMIN
 10
0.0
 20
0.0
  9
$LIMMAX
 10
420.0
 20
297.0
  9
$ORTHOMODE
 70
     0
  9
$REGENMODE
 70
     1
  9
$FILLMODE
 70
     1
  9
$QTEXTMODE
 70
     0
  9
$MIRRTEXT
 70
     1
  9
$LTSCALE
 40
1.0
  9
$ATTMODE
 70
     1
  9
$TEXTSIZE
 40
3.5
  9
$TRACEWID
 40
1.0
  9
$TEXTSTYLE
  7
Standard
  9
$CLAYER
  8
0
  9
$CELTYPE
  6
ByLayer
  9
$CECOLOR
 62
   256
  9
$CELTSCALE
 40
1.0
  9
$DISPSILH
 70
     0
  9
$DIMSCALE
 40
1.0
  9
$DIMASZ
 40
3.302
  9
$DIMEXO
 40
1.0
  9
$DIMDLI
 40
3.75
  9
$DIMRND
 40
0.0
  9
$DIMDLE
 40
0.0
  9
$DIMEXE
 40
1.0
  9
$DIMTP
 40
0.0
  9
$DIMTM
 40
0.0
  9
$DIMTXT
 40
3.5
  9
$DIMCEN
 40
2.5
  9
$DIMTSZ
 40
0.0
  9
$DIMTOL
 70
     0
  9
$DIMLIM
 70
     0
  9
$DIMTIH
 70
     1
  9
$DIMTOH
 70
     1
  9
$DIMSE1
 70
     0
  9
$DIMSE2
 70
     0
  9
$DIMTAD
 70
     1
  9
$DIMZIN
 70
     0
  9
$DIMBLK
  1

  9
$DIMASO
 70
     1
  9
$DIMSHO
 70
     1
  9
$DIMPOST
  1

  9
$DIMAPOST
  1

  9
$DIMALT
 70
     0
  9
$DIMALTD
 70
     3
  9
$DIMALTF
 40
0.0393700787401575
  9
$DIMLFAC
 40
1.0
  9
$DIMTOFL
 70
     1
  9
$DIMTVP
 40
0.0
  9
$DIMTIX
 70
     0
  9
$DIMSOXD
 70
     0
  9
$DIMSAH
 70
     0
  9
$DIMBLK1
  1

  9
$DIMBLK2
  1

  9
$DIMSTYLE
  2
ISO-25
  9
$DIMCLRD
 70
     0
  9
$DIMCLRE
 70
     0
  9
$DIMCLRT
 70
     0
  9
$DIMTFAC
 40
1.0
  9
$DIMGAP
 40
1.524
  9
$DIMJUST
 70
     0
  9
$DIMSD1
 70
     0
  9
$DIMSD2
 70
     0
  9
$DIMTOLJ
 70
     0
  9
$DIMTZIN
 70
     0
  9
$DIMALTZ
 70
     0
  9
$DIMALTTZ
 70
     0
  9
$DIMUPT
 70
     0
  9
$DIMDEC
 70
     2
  9
$DIMTDEC
 70
     2
  9
$DIMALTU
 70
     2
  9
$DIMALTTD
 70
     3
  9
$DIMTXSTY
  7
Standard
  9
$DIMAUNIT
 70
     0
  9
$DIMADEC
 70
     2
  9
$DIMALTRND
 40
0.0
  9
$DIMAZIN
 70
     0
  9
$DIMDSEP
 70
    44
  9
$DIMATFIT
 70
     3
  9
$DIMFRAC
 70
     0
  9
$DIMLDRBLK
  1

  9
$DIMLUNIT
 70
     2
  9
$DIMLWD
 70
    -2
  9
$DIMLWE
 70
    -2
  9
$DIMTMOVE
 70
     0
  9
$LUNITS
 70
     2
  9
$LUPREC
 70
     2
  9
$SKETCHINC
 40
1.0
  9
$FILLETRAD
 40
10.0
  9
$AUNITS
 70
     0
  9
$AUPREC
 70
     2
  9
$MENU
  1
.
  9
$ELEVATION
 40
0.0
  9
$PELEVATION
 40
0.0
  9
$THICKNESS
 40
0.0
  9
$LIMCHECK
 70
     0
  9
$CHAMFERA
 40
0.0
  9
$CHAMFERB
 40
0.0
  9
$CHAMFERC
 40
0.0
  9
$CHAMFERD
 40
0.0
  9
$SKPOLY
 70
     0
  9
$TDCREATE
 40
2458313.41267118
  9
$TDUCREATE
 40
2458313.03767118
  9
$TDUPDATE
 40
2458320.362586921
  9
$TDUUPDATE
 40
2458319.987586921
  9
$TDINDWG
 40
0.0037059954
  9
$TDUSRTIMER
 40
2458319.982620602
  9
$USRTIMER
 70
     1
  9
$ANGBASE
 50
0.0
  9
$ANGDIR
 70
     0
  9
$PDMODE
 70
     0
  9
$PDSIZE
 40
-1.0
  9
$PLINEWID
 40
0.0
  9
$SPLFRAME
 70
     0
  9
$SPLINETYPE
 70
     6
  9
$SPLINESEGS
 70
     8
  9
$HANDSEED
  5
600
  9
$SURFTAB1
 70
     6
  9
$SURFTAB2
 70
     6
  9
$SURFTYPE
 70
     6
  9
$SURFU
 70
     6
  9
$SURFV
 70
     6
  9
$UCSBASE
  2

  9
$UCSNAME
  2

  9
$UCSORG
 10
0.0
 20
0.0
 30
0.0
  9
$UCSXDIR
 10
1.0
 20
0.0
 30
0.0
  9
$UCSYDIR
 10
0.0
 20
1.0
 30
0.0
  9
$UCSORTHOREF
  2

  9
$UCSORTHOVIEW
 70
     0
  9
$UCSORGTOP
 10
0.0
 20
0.0
 30
0.0
  9
$UCSORGBOTTOM
 10
0.0
 20
0.0
 30
0.0
  9
$UCSORGLEFT
 10
0.0
 20
0.0
 30
0.0
  9
$UCSORGRIGHT
 10
0.0
 20
0.0
 30
0.0
  9
$UCSORGFRONT
 10
0.0
 20
0.0
 30
0.0
  9
$UCSORGBACK
 10
0.0
 20
0.0
 30
0.0
  9
$PUCSBASE
  2

  9
$PUCSNAME
  2

  9
$PUCSORG
 10
0.0
 20
0.0
 30
0.0
  9
$PUCSXDIR
 10
1.0
 20
0.0
 30
0.0
  9
$PUCSYDIR
 10
0.0
 20
1.0
 30
0.0
  9
$PUCSORTHOREF
  2

  9
$PUCSORTHOVIEW
 70
     0
  9
$PUCSORGTOP
 10
0.0
 20
0.0
 30
0.0
  9
$PUCSORGBOTTOM
 10
0.0
 20
0.0
 30
0.0
  9
$PUCSORGLEFT
 10
0.0
 20
0.0
 30
0.0
  9
$PUCSORGRIGHT
 10
0.0
 20
0.0
 30
0.0
  9
$PUCSORGFRONT
 10
0.0
 20
0.0
 30
0.0
  9
$PUCSORGBACK
 10
0.0
 20
0.0
 30
0.0
  9
$USERI1
 70
     0
  9
$USERI2
 70
     0
  9
$USERI3
 70
     0
  9
$USERI4
 70
     0
  9
$USERI5
 70
     0
  9
$USERR1
 40
0.0
  9
$USERR2
 40
0.0
  9
$USERR3
 40
0.0
  9
$USERR4
 40
0.0
  9
$USERR5
 40
0.0
  9
$WORLDVIEW
 70
     1
  9
$SHADEDGE
 70
     3
  9
$SHADEDIF
 70
    70
  9
$TILEMODE
 70
     1
  9
$MAXACTVP
 70
    64
  9
$PINSBASE
 10
0.0
 20
0.0
 30
0.0
  9
$PLIMCHECK
 70
     0
  9
$PEXTMIN
 10
1.000000000000000E+20
 20
1.000000000000000E+20
 30
1.000000000000000E+20
  9
$PEXTMAX
 10
-1.000000000000000E+20
 20
-1.000000000000000E+20
 30
-1.000000000000000E+20
  9
$PLIMMIN
 10
0.0
 20
0.0
  9
$PLIMMAX
 10
0.0
 20
0.0
  9
$UNITMODE
 70
     0
  9
$VISRETAIN
 70
     1
  9
$PLINEGEN
 70
     0
  9
$PSLTSCALE
 70
     1
  9
$TREEDEPTH
 70
  3020
  9
$CMLSTYLE
  2
Standard
  9
$CMLJUST
 70
     0
  9
$CMLSCALE
 40
20.0
  9
$PROXYGRAPHICS
 70
     1
  9
$MEASUREMENT
 70
     1
  9
$CELWEIGHT
370
    -1
  9
$ENDCAPS
280
     0
  9
$JOINSTYLE
280
     0
  9
$LWDISPLAY
290
     1
  9
$INSUNITS
 70
     4
  9
$HYPERLINKBASE
  1

  9
$STYLESHEET
  1

  9
$XEDIT
290
     1
  9
$CEPSNTYPE
380
     0
  9
$PSTYLEMODE
290
     1
  9
$FINGERPRINTGUID
  2
{A03B1333-E07F-42E7-A2D1-28C04149A77B}
  9
$VERSIONGUID
  2
{FAEB1C32-E019-11D5-929B-00C0DF256EC4}
  9
$EXTNAMES
290
     1
  9
$PSVPSCALE
 40
0.0
  9
$OLESTARTUP
290
     0
  0
ENDSEC
  0
SECTION
  2
CLASSES
  0
CLASS
  1
ACDBDICTIONARYWDFLT
  2
AcDbDictionaryWithDefault
  3
ObjectDBX Classes
 90
        0
280
     0
281
     0
  0
CLASS
  1
VISUALSTYLE
  2
AcDbVisualStyle
  3
ObjectDBX Classes
 90
     4095
280
     0
281
     0
  0
CLASS
  1
MATERIAL
  2
AcDbMaterial
  3
ObjectDBX Classes
 90
     1153
280
     0
281
     0
  0
CLASS
  1
SCALE
  2
AcDbScale
  3
ObjectDBX Classes
 90
     1153
280
     0
281
     0
  0
CLASS
  1
SUN
  2
AcDbSun
  3
SCENEOE
 90
     1153
280
     0
281
     0
  0
CLASS
  1
ACDBPLACEHOLDER
  2
AcDbPlaceHolder
  3
ObjectDBX Classes
 90
        0
280
     0
281
     0
  0
CLASS
  1
LAYOUT
  2
AcDbLayout
  3
ObjectDBX Classes
 90
        0
280
     0
281
     0
  0
CLASS
  1
TABLESTYLE
  2
AcDbTableStyle
  3
ObjectDBX Classes
 90
     4095
280
     0
281
     0
  0
CLASS
  1
MLEADERSTYLE
  2
AcDbMLeaderStyle
  3
ACDB_MLEADERSTYLE_CLASS
 90
     4095
280
     0
281
     0
  0
CLASS
  1
RASTERVARIABLES
  2
AcDbRasterVariables
  3
ISM
 90
        0
280
     0
281
     0
  0
ENDSEC
  0
SECTION
  2
TABLES
  0
TABLE
  2
VPORT
  5
8
330
0
100
AcDbSymbolTable
 70
     1
  0
VPORT
  5
29
330
8
100
AcDbSymbolTableRecord
100
AcDbViewportTableRecord
  2
*Active
 70
     0
 10
0.0
 20
0.0
 11
1.0
 21
1.0
 12
25.12224993912311
 22
-29.20327907845595
 13
0.0
 23
0.0
 14
10.0
 24
10.0
 15
10.0
 25
10.0
 16
0.0
 26
0.0
 36
1.0
 17
0.0
 27
0.0
 37
0.0
 40
93.96779935629992
 41
1.632093933463796
 42
50.0
 43
0.0
 44
0.0
 50
0.0
 51
0.0
 71
    16
 72
  2000
 73
     1
 74
     3
 75
     0
 76
     0
 77
     0
 78
     0
281
     0
 65
     1
110
0.0
120
0.0
130
0.0
111
1.0
121
0.0
131
0.0
112
0.0
122
1.0
132
0.0
 79
     0
146
0.0
  0
ENDTAB
  0
TABLE
  2
LTYPE
  5
5
330
0
100
AcDbSymbolTable
 70
     6
  0
LTYPE
  5
14
330
5
100
AcDbSymbolTableRecord
100
AcDbLinetypeTableRecord
  2
ByBlock
 70
     0
  3

 72
    65
 73
     0
 40
0.0
  0
LTYPE
  5
15
330
5
100
AcDbSymbolTableRecord
100
AcDbLinetypeTableRecord
  2
ByLayer
 70
     0
  3

 72
    65
 73
     0
 40
0.0
  0
LTYPE
  5
16
330
5
100
AcDbSymbolTableRecord
100
AcDbLinetypeTableRecord
  2
Continuous
 70
     0
  3
Solid line
 72
    65
 73
     0
 40
0.0
  0
LTYPE
  5
6A
330
5
100
AcDbSymbolTableRecord
100
AcDbLinetypeTableRecord
  2
HIDDEN
 70
     0
  3
Hidden __ __ __ __ __ __ __ __ __ __ __ __ __ __
 72
    65
 73
     2
 40
1.905
 49
1.27
 74
     0
 49
-0.635
 74
     0
  0
LTYPE
  5
6B
330
5
100
AcDbSymbolTableRecord
100
AcDbLinetypeTableRecord
  2
PHANTOM
 70
     0
  3
Phantom ______  __  __  ______  __  __  ______
 72
    65
 73
     6
 40
12.7
 49
6.35
 74
     0
 49
-1.27
 74
     0
 49
1.27
 74
     0
 49
-1.27
 74
     0
 49
1.27
 74
     0
 49
-1.27
 74
     0
  0
LTYPE
  5
6C
330
5
100
AcDbSymbolTableRecord
100
AcDbLinetypeTableRecord
  2
CENTER
 70
     0
  3
Center ____ _ ____ _ ____ _ ____ _ ____ _ ____
 72
    65
 73
     4
 40
10.16
 49
6.35
 74
     0
 49
-1.27
 74
     0
 49
1.27
 74
     0
 49
-1.27
 74
     0
  0
LTYPE
  5
6D
330
5
100
AcDbSymbolTableRecord
100
AcDbLinetypeTableRecord
  2
CENTERX2
 70
     0
  3
Center (2x) ________  __  ________  __  _____
 72
    65
 73
     4
 40
20.32
 49
12.7
 74
     0
 49
-2.54
 74
     0
 49
2.54
 74
     0
 49
-2.54
 74
     0
  0
LTYPE
  5
6E
330
5
100
AcDbSymbolTableRecord
100
AcDbLinetypeTableRecord
  2
DOT2
 70
     0
  3
Dot (.5x) ........................................
 72
    65
 73
     2
 40
0.635
 49
0.0
 74
     0
 49
-0.635
 74
     0
  0
ENDTAB
  0
TABLE
  2
LAYER
  5
2
102
{ACAD_XDICTIONARY
360
269
102
}
330
0
100
AcDbSymbolTable
 70
    18
  0
LAYER
  5
10
330
2
100
AcDbSymbolTableRecord
100
AcDbLayerTableRecord
  2
0
 70
     0
 62
     7
  6
Continuous
370
    -3
390
F
  0
LAYER
  5
6F
330
2
100
AcDbSymbolTableRecord
100
AcDbLayerTableRecord
  2
FORMAT
 70
     0
 62
     2
  6
Continuous
370
    -3
390
F
  0
LAYER
  5
70
330
2
100
AcDbSymbolTableRecord
100
AcDbLayerTableRecord
  2
외형선
 70
     0
 62
     4
  6
Continuous
370
    30
390
F
  0
LAYER
  5
71
330
2
100
AcDbSymbolTableRecord
100
AcDbLayerTableRecord
  2
숨은선
 70
     0
 62
     2
  6
HIDDEN
370
    15
390
F
  0
LAYER
  5
72
330
2
100
AcDbSymbolTableRecord
100
AcDbLayerTableRecord
  2
중심선
 70
     0
 62
     1
  6
CENTERX2
370
    -3
390
F
  0
LAYER
  5
73
330
2
100
AcDbSymbolTableRecord
100
AcDbLayerTableRecord
  2
파단선
 70
     0
 62
     4
  6
Continuous
370
    -3
390
F
  0
LAYER
  5
74
330
2
100
AcDbSymbolTableRecord
100
AcDbLayerTableRecord
  2
해칭선
 70
     0
 62
   100
  6
Continuous
370
    -3
390
F
  0
LAYER
  5
75
330
2
100
AcDbSymbolTableRecord
100
AcDbLayerTableRecord
  2
가는실선
 70
     0
 62
     4
  6
Continuous
370
    -3
390
F
  0
LAYER
  5
76
330
2
100
AcDbSymbolTableRecord
100
AcDbLayerTableRecord
  2
치수_보조선
 70
     0
 62
     4
  6
Continuous
370
    -3
390
F
  0
LAYER
  5
77
330
2
100
AcDbSymbolTableRecord
100
AcDbLayerTableRecord
  2
치수문자_일반주서
 70
     0
 62
     7
  6
Continuous
370
    15
390
F
  0
LAYER
  5
78
330
2
100
AcDbSymbolTableRecord
100
AcDbLayerTableRecord
  2
개별주서
 70
     0
 62
   100
  6
Continuous
370
    30
390
F
  0
LAYER
  5
79
330
2
100
AcDbSymbolTableRecord
100
AcDbLayerTableRecord
  2
중간선
 70
     0
 62
     2
  6
Continuous
370
    15
390
F
  0
LAYER
  5
7A
330
2
100
AcDbSymbolTableRecord
100
AcDbLayerTableRecord
  2
윤곽선
 70
     0
 62
     3
  6
Continuous
370
    40
390
F
  0
LAYER
  5
7B
330
2
100
AcDbSymbolTableRecord
100
AcDbLayerTableRecord
  2
중심마크
 70
     0
 62
   100
  6
Continuous
370
    30
390
F
  0
LAYER
  5
7C
330
2
100
AcDbSymbolTableRecord
100
AcDbLayerTableRecord
  2
가상선
 70
     0
 62
     4
  6
PHANTOM
370
    -3
390
F
  0
LAYER
  5
7D
330
2
100
AcDbSymbolTableRecord
100
AcDbLayerTableRecord
  2
특수지정선
 70
     0
 62
     5
  6
CENTERX2
370
    60
390
F
  0
LAYER
  5
7E
330
2
100
AcDbSymbolTableRecord
100
AcDbLayerTableRecord
  2
참조1
 70
     0
 62
    -4
  6
Continuous
370
    -3
390
F
  0
LAYER
  5
171
330
2
100
AcDbSymbolTableRecord
100
AcDbLayerTableRecord
  2
Defpoints
 70
     0
 62
     7
  6
Continuous
290
     0
370
    -3
390
F
  0
ENDTAB
  0
TABLE
  2
STYLE
  5
3
330
0
100
AcDbSymbolTable
 70
     2
  0
STYLE
  5
11
330
3
100
AcDbSymbolTableRecord
100
AcDbTextStyleTableRecord
  2
Standard
 70
     0
 40
0.0
 41
1.0
 50
0.0
 71
     0
 42
3.5
  3
txt
  4

  0
STYLE
  5
94
330
3
100
AcDbSymbolTableRecord
100
AcDbTextStyleTableRecord
  2
SLDTEXTSTYLE0
 70
     0
 40
0.0
 41
0.75
 50
0.0
 71
     0
 42
3.5
  3
TXT
  4

  0
ENDTAB
  0
TABLE
  2
VIEW
  5
6
330
0
100
AcDbSymbolTable
 70
     0
  0
ENDTAB
  0
TABLE
  2
UCS
  5
7
330
0
100
AcDbSymbolTable
 70
     0
  0
ENDTAB
  0
TABLE
  2
APPID
  5
9
330
0
100
AcDbSymbolTable
 70
     1
  0
APPID
  5
12
330
9
100
AcDbSymbolTableRecord
100
AcDbRegAppTableRecord
  2
ACAD
 70
     0
  0
ENDTAB
  0
TABLE
  2
DIMSTYLE
  5
A
330
0
100
AcDbSymbolTable
 70
     3
100
AcDbDimStyleTable
  0
DIMSTYLE
105
27
330
A
100
AcDbSymbolTableRecord
100
AcDbDimStyleTableRecord
  2
ISO-25
 70
     0
 41
2.5
 42
0.625
 43
3.75
 44
1.25
 73
     0
 74
     0
 77
     1
 78
     8
140
2.5
141
2.5
143
0.03937007874016
147
0.625
171
     3
172
     1
178
     0
271
     2
272
     2
274
     3
278
    44
283
     0
284
     8
340
11
  0
DIMSTYLE
105
EE
102
{ACAD_REACTORS
330
ED
330
102
330
1E1
330
1EE
330
1FE
330
20E
330
116
330
12B
330
526
330
536
330
546
102
}
330
A
100
AcDbSymbolTableRecord
100
AcDbDimStyleTableRecord
  2
SLDDIMSTYLE0
 70
     0
 41
3.302
 44
0.0
 45
0.000000001
 73
     0
 74
     0
 77
     1
 78
    12
 79
     3
140
3.5
143
0.0393700787401575
147
0.875
148
0.000000001
170
     1
172
     1
173
     1
178
     0
271
     2
272
     2
276
     2
284
    12
289
     0
340
94
  0
DIMSTYLE
105
117
330
A
100
AcDbSymbolTableRecord
100
AcDbDimStyleTableRecord
  2
SLDDIMSTYLE1
 70
     0
 41
3.302
 44
0.0
 45
0.000000001
 73
     0
 74
     0
 77
     1
 78
    12
 79
     3
140
3.5
143
0.0393700787401575
147
0.875
148
0.000000001
170
     1
173
     1
178
     0
271
     2
272
     2
276
     2
284
    12
340
94
  0
ENDTAB
  0
TABLE
  2
BLOCK_RECORD
  5
1
330
0
100
AcDbSymbolTable
 70
    23
  0
BLOCK_RECORD
  5
1F
330
1
100
AcDbSymbolTableRecord
100
AcDbBlockTableRecord
  2
*Model_Space
340
22
  0
BLOCK_RECORD
  5
1B
330
1
100
AcDbSymbolTableRecord
100
AcDbBlockTableRecord
  2
*Paper_Space
340
1E
  0
BLOCK_RECORD
  5
23
330
1
100
AcDbSymbolTableRecord
100
AcDbBlockTableRecord
  2
*Paper_Space0
340
26
  0
BLOCK_RECORD
  5
7F
330
1
100
AcDbSymbolTableRecord
100
AcDbBlockTableRecord
  2
블럭10
340
0
102
{BLKREFS
331
E6
102
}
  0
BLOCK_RECORD
  5
EF
330
1
100
AcDbSymbolTableRecord
100
AcDbBlockTableRecord
  2
_D
340
0
  0
BLOCK_RECORD
  5
103
330
1
100
AcDbSymbolTableRecord
100
AcDbBlockTableRecord
  2
_D_1
340
0
  0
BLOCK_RECORD
  5
118
330
1
100
AcDbSymbolTableRecord
100
AcDbBlockTableRecord
  2
_D_2
340
0
  0
BLOCK_RECORD
  5
12C
330
1
100
AcDbSymbolTableRecord
100
AcDbBlockTableRecord
  2
_D_3
340
0
  0
BLOCK_RECORD
  5
145
330
1
100
AcDbSymbolTableRecord
100
AcDbBlockTableRecord
  2
SW_DOWELSYMBOL_0
340
0
102
{BLKREFS
331
14B
331
21B
331
0
331
553
331
0
102
}
  0
BLOCK_RECORD
  5
26D
330
1
100
AcDbSymbolTableRecord
100
AcDbBlockTableRecord
  2
*D8
340
0
  0
BLOCK_RECORD
  5
279
330
1
100
AcDbSymbolTableRecord
100
AcDbBlockTableRecord
  2
*D9
340
0
  0
BLOCK_RECORD
  5
288
330
1
100
AcDbSymbolTableRecord
100
AcDbBlockTableRecord
  2
*D10
340
0
  0
BLOCK_RECORD
  5
297
330
1
100
AcDbSymbolTableRecord
100
AcDbBlockTableRecord
  2
*D11
340
0
  0
BLOCK_RECORD
  5
337
330
1
100
AcDbSymbolTableRecord
100
AcDbBlockTableRecord
  2
*D12
340
0
  0
BLOCK_RECORD
  5
343
330
1
100
AcDbSymbolTableRecord
100
AcDbBlockTableRecord
  2
*D13
340
0
  0
BLOCK_RECORD
  5
352
330
1
100
AcDbSymbolTableRecord
100
AcDbBlockTableRecord
  2
*D14
340
0
  0
BLOCK_RECORD
  5
361
330
1
100
AcDbSymbolTableRecord
100
AcDbBlockTableRecord
  2
*D15
340
0
  0
BLOCK_RECORD
  5
55C
330
1
100
AcDbSymbolTableRecord
100
AcDbBlockTableRecord
  2
*D17
340
0
  0
BLOCK_RECORD
  5
56B
330
1
100
AcDbSymbolTableRecord
100
AcDbBlockTableRecord
  2
*D18
340
0
  0
BLOCK_RECORD
  5
57A
330
1
100
AcDbSymbolTableRecord
100
AcDbBlockTableRecord
  2
*D19
340
0
  0
BLOCK_RECORD
  5
5D5
330
1
100
AcDbSymbolTableRecord
100
AcDbBlockTableRecord
  2
*D20
340
0
  0
BLOCK_RECORD
  5
5E4
330
1
100
AcDbSymbolTableRecord
100
AcDbBlockTableRecord
  2
*D21
340
0
  0
BLOCK_RECORD
  5
5F3
330
1
100
AcDbSymbolTableRecord
100
AcDbBlockTableRecord
  2
*D22
340
0
  0
ENDTAB
  0
ENDSEC
  0
SECTION
  2
BLOCKS
  0
BLOCK
  5
20
330
1F
100
AcDbEntity
  8
0
100
AcDbBlockBegin
  2
*Model_Space
 70
     0
 10
0.0
 20
0.0
 30
0.0
  3
*Model_Space
  1
*Model_Space
  0
ENDBLK
  5
21
330
1F
100
AcDbEntity
  8
0
100
AcDbBlockEnd
  0
BLOCK
  5
1C
330
1B
100
AcDbEntity
 67
     1
  8
0
100
AcDbBlockBegin
  2
*Paper_Space
 70
     0
 10
0.0
 20
0.0
 30
0.0
  3
*Paper_Space
  1
*Paper_Space
  0
ENDBLK
  5
1D
330
1B
100
AcDbEntity
 67
     1
  8
0
100
AcDbBlockEnd
  0
BLOCK
  5
24
330
23
100
AcDbEntity
  8
0
100
AcDbBlockBegin
  2
*Paper_Space0
 70
     0
 10
0.0
 20
0.0
 30
0.0
  3
*Paper_Space0
  1
*Paper_Space0
  0
ENDBLK
  5
25
330
23
100
AcDbEntity
  8
0
100
AcDbBlockEnd
  0
BLOCK
  5
80
330
7F
100
AcDbEntity
  8
0
100
AcDbBlockBegin
  2
블럭10
 70
     2
 10
0.0
 20
0.0
 30
0.0
  3
블럭10
  1
블럭10
  0
ELLIPSE
  5
82
330
7F
100
AcDbEntity
  8
중심선
100
AcDbEllipse
 10
20.54032771741204
 20
12.0471743016438
 30
0.0
 11
6.600054785286829
 21
-1.261213355974178E-13
 31
0.0
210
0.0
220
0.0
230
1.0
 40
0.636358354079598
 41
0.9219305317359503
 42
6.513795318482858
  0
ELLIPSE
  5
83
330
7F
100
AcDbEntity
  8
중심선
100
AcDbEllipse
 10
20.54032771746488
 20
12.04717430159265
 30
0.0
 11
3.960054785062283
 21
1.540847449632565E-10
 31
0.0
210
0.0
220
0.0
230
1.0
 40
0.3939339440162632
 41
1.131841032648279
 42
5.62031148352944
  0
LINE
  5
84
330
7F
100
AcDbEntity
  8
중심선
100
AcDbLine
 10
2.268634060543552
 20
16.24717430164393
 30
0.0
 11
5.714909304380834
 21
16.24717430164393
 31
0.0
  0
LINE
  5
85
330
7F
100
AcDbEntity
  8
중심선
100
AcDbLine
 10
5.245725140726316
 20
7.84717430164391
 30
0.0
 11
8.692000384563599
 21
7.84717430164391
 31
0.0
  0
LINE
  5
86
330
7F
100
AcDbEntity
  8
중심선
100
AcDbLine
 10
15.74043728645272
 20
16.24717430164393
 30
0.0
 11
8.692000384563599
 21
7.84717430164391
 31
0.0
  0
LINE
  5
87
330
7F
100
AcDbEntity
  8
중심선
100
AcDbLine
 10
0.1404042013395286
 20
13.71084872107135
 30
0.0
 11
3.58671253028996
 21
13.71088815037384
 31
0.0
  0
LINE
  5
88
330
7F
100
AcDbEntity
  8
중심선
100
AcDbLine
 10
2.750260043222114
 20
10.84717430164391
 30
0.0
 11
6.196535287059397
 21
10.84717430164391
 31
0.0
  0
LINE
  5
89
330
7F
100
AcDbEntity
  8
중심선
100
AcDbLine
 10
12.29416204261559
 20
16.24717430164393
 30
0.0
 11
5.245725140726316
 21
7.84717430164391
 31
0.0
  0
LINE
  5
8A
330
7F
100
AcDbEntity
  8
중심선
100
AcDbLine
 10
10.72767329541681
 20
16.24717430164393
 30
0.0
 11
6.196535287059397
 21
10.84717430164391
 31
0.0
  0
LINE
  5
8B
330
7F
100
AcDbEntity
  8
중심선
100
AcDbLine
 10
7.28139805157953
 20
16.24717430164393
 30
0.0
 11
2.750260043222114
 21
10.84717430164391
 31
0.0
  0
LINE
  5
8C
330
7F
100
AcDbEntity
  8
중심선
100
AcDbLine
 10
5.714909304380834
 20
16.24717430164393
 30
0.0
 11
3.58671253028996
 21
13.71088815037384
 31
0.0
  0
LINE
  5
8D
330
7F
100
AcDbEntity
  8
중심선
100
AcDbLine
 10
2.268634060543552
 20
16.24717430164393
 30
0.0
 11
0.1404042013395286
 21
13.71084872107135
 31
0.0
  0
LINE
  5
8E
330
7F
100
AcDbEntity
  8
중심선
100
AcDbLine
 10
7.28139805157953
 20
16.24717430164393
 30
0.0
 11
10.72767329541681
 21
16.24717430164393
 31
0.0
  0
LINE
  5
8F
330
7F
100
AcDbEntity
  8
중심선
100
AcDbLine
 10
12.29416204261559
 20
16.24717430164393
 30
0.0
 11
15.74043728645272
 21
16.24717430164393
 31
0.0
  0
LINE
  5
90
330
7F
100
AcDbEntity
  8
중심선
100
AcDbLine
 10
19.22036997980202
 20
11.08717430171403
 30
0.0
 11
23.66174974927406
 21
11.08717430171406
 31
0.0
  0
LINE
  5
91
330
7F
100
AcDbEntity
  8
중심선
100
AcDbLine
 10
19.22039502424796
 20
13.00717430171391
 30
0.0
 11
19.22036997980202
 21
11.08717430171403
 31
0.0
  0
LINE
  5
92
330
7F
100
AcDbEntity
  8
중심선
100
AcDbLine
 10
19.22039502424796
 20
13.00717430171391
 30
0.0
 11
26.96566020931264
 21
13.00717430171391
 31
0.0
  0
LINE
  5
93
330
7F
100
AcDbEntity
  8
중심선
100
AcDbLine
 10
22.22332737316547
 20
13.45928029700563
 30
0.0
 11
24.52862924686651
 21
15.39360700705356
 31
0.0
  0
ATTDEF
  5
95
330
7F
100
AcDbEntity
  8
FORMAT
 62
     2
100
AcDbText
 10
4.408487351596664
 20
2.075366912832191
 30
0.0
 40
4.233333333333333
  1
E2005008
 41
0.75
  7
SLDTEXTSTYLE0
 11
4.408487351596664
 21
-0.0412997538344756
 31
0.0
100
AcDbAttributeDefinition
  3

  2
AUTOATTR0
 70
     0
 74
     1
  0
ENDBLK
  5
81
330
7F
100
AcDbEntity
  8
0
100
AcDbBlockEnd
  0
BLOCK
  5
F0
330
EF
100
AcDbEntity
  8
0
100
AcDbBlockBegin
  2
_D
 70
     0
 10
0.0
 20
0.0
 30
0.0
  3
_D
  1
_D
  0
LINE
  5
F2
330
EF
100
AcDbEntity
  8
치수문자_일반주서
 62
     0
370
    -2
100
AcDbLine
 10
-16.73768467149223
 20
2.381249999999995
 30
0.0
 11
-52.68750000000001
 21
2.381249999999861
 31
0.0
  0
LINE
  5
F3
330
EF
100
AcDbEntity
  8
치수문자_일반주서
 62
     0
370
    -2
100
AcDbLine
 10
-16.73768467149223
 20
-2.381250000000001
 30
0.0
 11
-52.6875
 21
-2.381250000000135
 31
0.0
  0
LINE
  5
F4
330
EF
100
AcDbEntity
  8
치수문자_일반주서
 62
     0
370
    -2
100
AcDbLine
 10
-52.68750000000001
 20
-0.9207500000001385
 30
0.0
 11
-52.68750000000001
 21
0.9207499999998645
 31
0.0
  0
SOLID
  5
F5
330
EF
100
AcDbEntity
  8
치수문자_일반주서
 62
     0
100
AcDbTrace
 10
-52.13716666666667
 20
-0.9207500000001368
 30
0.0
 11
-53.23783333333334
 21
-0.9207500000001402
 31
0.0
 12
-52.68750000000001
 22
2.381249999999861
 32
0.0
 13
-52.68750000000001
 23
2.381249999999861
 33
0.0
  0
SOLID
  5
F6
330
EF
100
AcDbEntity
  8
치수문자_일반주서
 62
     0
100
AcDbTrace
 10
-53.23783333333334
 20
0.9207499999998628
 30
0.0
 11
-52.13716666666667
 21
0.9207499999998662
 31
0.0
 12
-52.6875
 22
-2.381250000000135
 32
0.0
 13
-52.6875
 23
-2.381250000000135
 33
0.0
  0
MTEXT
  5
F7
330
EF
100
AcDbEntity
  8
치수문자_일반주서
 62
     0
100
AcDbMText
 10
-57.06250000000001
 20
-0.0000000000000101
 30
0.0
 40
3.5
 41
0.0
 71
     2
 72
     1
  1
\A1;%%c4.76 [3/16]
  7
SLDTEXTSTYLE0
 11
-2.983906501879688E-15
 21
1.0
 31
0.0
 73
     1
 44
1.0
  0
POINT
  5
F8
330
EF
100
AcDbEntity
  8
Defpoints
 62
     0
100
AcDbPoint
 10
-16.67518467149223
 20
2.381249999999995
 30
0.0
  0
POINT
  5
F9
330
EF
100
AcDbEntity
  8
Defpoints
 62
     0
100
AcDbPoint
 10
-16.67518467149223
 20
-2.381250000000001
 30
0.0
  0
POINT
  5
FA
330
EF
100
AcDbEntity
  8
Defpoints
 62
     0
100
AcDbPoint
 10
-52.6875
 20
-2.381250000000136
 30
0.0
  0
ENDBLK
  5
F1
330
EF
100
AcDbEntity
  8
0
100
AcDbBlockEnd
  0
BLOCK
  5
104
330
103
100
AcDbEntity
  8
0
100
AcDbBlockBegin
  2
_D_1
 70
     0
 10
0.0
 20
0.0
 30
0.0
  3
_D_1
  1
_D_1
  0
LINE
  5
106
330
103
100
AcDbEntity
  8
치수문자_일반주서
 62
     0
370
    -2
100
AcDbLine
 10
39.75000000000004
 20
-1.587499999999995
 30
0.0
 11
58.68750000000023
 21
-1.587499999999924
 31
0.0
  0
LINE
  5
107
330
103
100
AcDbEntity
  8
치수문자_일반주서
 62
     0
370
    -2
100
AcDbLine
 10
39.75000000000004
 20
1.587500000000008
 30
0.0
 11
58.68750000000022
 21
1.58750000000008
 31
0.0
  0
LINE
  5
108
330
103
100
AcDbEntity
  8
치수문자_일반주서
 62
     0
370
    -2
100
AcDbLine
 10
58.68750000000022
 20
1.58750000000008
 30
0.0
 11
58.68750000000008
 21
32.98037018544231
 31
0.0
  0
LINE
  5
109
330
103
100
AcDbEntity
  8
치수문자_일반주서
 62
     0
370
    -2
100
AcDbLine
 10
58.68750000000023
 20
-1.587499999999924
 30
0.0
 11
58.68750000000022
 21
1.58750000000008
 31
0.0
  0
LINE
  5
10A
330
103
100
AcDbEntity
  8
치수문자_일반주서
 62
     0
370
    -2
100
AcDbLine
 10
58.68750000000025
 20
-4.889499999999924
 30
0.0
 11
58.68750000000026
 21
-8.191499999999923
 31
0.0
  0
LINE
  5
10B
330
103
100
AcDbEntity
  8
치수문자_일반주서
 62
     0
370
    -2
100
AcDbLine
 10
58.68750000000021
 20
4.88950000000008
 30
0.0
 11
58.68750000000019
 21
8.19150000000008
 31
0.0
  0
SOLID
  5
10C
330
103
100
AcDbEntity
  8
치수문자_일반주서
 62
     0
100
AcDbTrace
 10
59.23783333333358
 20
-4.889499999999921
 30
0.0
 11
58.13716666666691
 21
-4.889499999999926
 31
0.0
 12
58.68750000000023
 22
-1.587499999999924
 32
0.0
 13
58.68750000000023
 23
-1.587499999999924
 33
0.0
  0
SOLID
  5
10D
330
103
100
AcDbEntity
  8
치수문자_일반주서
 62
     0
100
AcDbTrace
 10
58.13716666666687
 20
4.889500000000077
 30
0.0
 11
59.23783333333354
 21
4.889500000000083
 31
0.0
 12
58.68750000000022
 22
1.58750000000008
 32
0.0
 13
58.68750000000022
 23
1.58750000000008
 33
0.0
  0
MTEXT
  5
10E
330
103
100
AcDbEntity
  8
치수문자_일반주서
 62
     0
100
AcDbMText
 10
54.31250000000014
 20
20.73037018544229
 30
0.0
 40
3.5
 41
0.0
 71
     2
 72
     1
  1
\A1;%%c3.18 [1/8]
  7
SLDTEXTSTYLE0
 11
-4.475859752819526E-15
 21
1.0
 31
0.0
 73
     1
 44
1.0
  0
POINT
  5
10F
330
103
100
AcDbEntity
  8
Defpoints
 62
     0
100
AcDbPoint
 10
39.68750000000004
 20
-1.587499999999995
 30
0.0
  0
POINT
  5
110
330
103
100
AcDbEntity
  8
Defpoints
 62
     0
100
AcDbPoint
 10
39.68750000000004
 20
1.587500000000008
 30
0.0
  0
POINT
  5
111
330
103
100
AcDbEntity
  8
Defpoints
 62
     0
100
AcDbPoint
 10
58.68750000000022
 20
1.587500000000079
 30
0.0
  0
ENDBLK
  5
105
330
103
100
AcDbEntity
  8
0
100
AcDbBlockEnd
  0
BLOCK
  5
119
330
118
100
AcDbEntity
  8
0
100
AcDbBlockBegin
  2
_D_2
 70
     0
 10
0.0
 20
0.0
 30
0.0
  3
_D_2
  1
_D_2
  0
LINE
  5
11B
330
118
100
AcDbEntity
  8
치수문자_일반주서
 62
     0
370
    -2
100
AcDbLine
 10
39.68750000000004
 20
1.650000000000008
 30
0.0
 11
39.68750000000004
 21
13.13250263812486
 31
0.0
  0
LINE
  5
11C
330
118
100
AcDbEntity
  8
치수문자_일반주서
 62
     0
370
    -2
100
AcDbLine
 10
20.63750000000002
 20
1.109813479171005
 30
0.0
 11
20.63750000000002
 21
13.13250263812486
 31
0.0
  0
LINE
  5
11D
330
118
100
AcDbEntity
  8
치수문자_일반주서
 62
     0
370
    -2
100
AcDbLine
 10
20.63750000000002
 20
13.13250263812486
 30
0.0
 11
-10.90399999999998
 21
13.13250263812486
 31
0.0
  0
LINE
  5
11E
330
118
100
AcDbEntity
  8
치수문자_일반주서
 62
     0
370
    -2
100
AcDbLine
 10
39.68750000000004
 20
13.13250263812486
 30
0.0
 11
20.63750000000002
 21
13.13250263812486
 31
0.0
  0
LINE
  5
11F
330
118
100
AcDbEntity
  8
치수문자_일반주서
 62
     0
370
    -2
100
AcDbLine
 10
42.98950000000004
 20
13.13250263812486
 30
0.0
 11
46.29150000000003
 21
13.13250263812486
 31
0.0
  0
LINE
  5
120
330
118
100
AcDbEntity
  8
치수문자_일반주서
 62
     0
370
    -2
100
AcDbLine
 10
17.33550000000002
 20
13.13250263812486
 30
0.0
 11
14.03350000000002
 21
13.13250263812486
 31
0.0
  0
SOLID
  5
121
330
118
100
AcDbEntity
  8
치수문자_일반주서
 62
     0
100
AcDbTrace
 10
42.98950000000004
 20
13.68283597145819
 30
0.0
 11
42.98950000000004
 21
12.58216930479153
 31
0.0
 12
39.68750000000004
 22
13.13250263812486
 32
0.0
 13
39.68750000000004
 23
13.13250263812486
 33
0.0
  0
SOLID
  5
122
330
118
100
AcDbEntity
  8
치수문자_일반주서
 62
     0
100
AcDbTrace
 10
17.33550000000002
 20
12.58216930479153
 30
0.0
 11
17.33550000000002
 21
13.68283597145819
 31
0.0
 12
20.63750000000002
 22
13.13250263812486
 32
0.0
 13
20.63750000000002
 23
13.13250263812486
 33
0.0
  0
MTEXT
  5
123
330
118
100
AcDbEntity
  8
치수문자_일반주서
 62
     0
100
AcDbMText
 10
1.564750000000025
 20
17.50750263812486
 30
0.0
 40
3.5
 41
0.0
 71
     2
 72
     1
  1
\A1;19.05 [3/4]
  7
SLDTEXTSTYLE0
 73
     1
 44
1.0
  0
POINT
  5
124
330
118
100
AcDbEntity
  8
Defpoints
 62
     0
100
AcDbPoint
 10
39.68750000000004
 20
1.587500000000008
 30
0.0
  0
POINT
  5
36D
330
118
100
AcDbEntity
  8
Defpoints
 62
     0
100
AcDbPoint
 10
20.63750000000002
 20
1.047313479171005
 30
0.0
  0
POINT
  5
36E
330
118
100
AcDbEntity
  8
Defpoints
 62
     0
100
AcDbPoint
 10
20.63750000000002
 20
13.13250263812486
 30
0.0
  0
ENDBLK
  5
11A
330
118
100
AcDbEntity
  8
0
100
AcDbBlockEnd
  0
BLOCK
  5
12D
330
12C
100
AcDbEntity
  8
0
100
AcDbBlockBegin
  2
_D_3
 70
     0
 10
0.0
 20
0.0
 30
0.0
  3
_D_3
  1
_D_3
  0
LINE
  5
12F
330
12C
100
AcDbEntity
  8
치수문자_일반주서
 62
     0
370
    -2
100
AcDbLine
 10
-39.68750000000004
 20
1.649999999999999
 30
0.0
 11
-39.68750000000004
 21
23.2234673928743
 31
0.0
  0
LINE
  5
130
330
12C
100
AcDbEntity
  8
치수문자_일반주서
 62
     0
370
    -2
100
AcDbLine
 10
39.68750000000004
 20
1.650000000000008
 30
0.0
 11
39.68750000000004
 21
23.2234673928743
 31
0.0
  0
LINE
  5
131
330
12C
100
AcDbEntity
  8
치수문자_일반주서
 62
     0
370
    -2
100
AcDbLine
 10
-36.38550000000004
 20
23.2234673928743
 30
0.0
 11
36.38550000000004
 21
23.2234673928743
 31
0.0
  0
SOLID
  5
132
330
12C
100
AcDbEntity
  8
치수문자_일반주서
 62
     0
100
AcDbTrace
 10
-36.38550000000004
 20
23.77380072620764
 30
0.0
 11
-36.38550000000004
 21
22.67313405954097
 31
0.0
 12
-39.68750000000004
 22
23.2234673928743
 32
0.0
 13
-39.68750000000004
 23
23.2234673928743
 33
0.0
  0
SOLID
  5
133
330
12C
100
AcDbEntity
  8
치수문자_일반주서
 62
     0
100
AcDbTrace
 10
36.38550000000004
 20
22.67313405954097
 30
0.0
 11
36.38550000000004
 21
23.77380072620764
 31
0.0
 12
39.68750000000004
 22
23.2234673928743
 32
0.0
 13
39.68750000000004
 23
23.2234673928743
 33
0.0
  0
MTEXT
  5
134
330
12C
100
AcDbEntity
  8
치수문자_일반주서
 62
     0
100
AcDbMText
 10
0.9227551274348968
 20
27.5984673928743
 30
0.0
 40
3.5
 41
0.0
 71
     2
 72
     1
  1
\A1;79.38 [3 1/8]
  7
SLDTEXTSTYLE0
 73
     1
 44
1.0
  0
POINT
  5
135
330
12C
100
AcDbEntity
  8
Defpoints
 62
     0
100
AcDbPoint
 10
-39.68750000000004
 20
1.587499999999999
 30
0.0
  0
POINT
  5
136
330
12C
100
AcDbEntity
  8
Defpoints
 62
     0
100
AcDbPoint
 10
39.68750000000004
 20
1.587500000000008
 30
0.0
  0
POINT
  5
137
330
12C
100
AcDbEntity
  8
Defpoints
 62
     0
100
AcDbPoint
 10
39.68750000000004
 20
23.2234673928743
 30
0.0
  0
ENDBLK
  5
12E
330
12C
100
AcDbEntity
  8
0
100
AcDbBlockEnd
  0
BLOCK
  5
146
330
145
100
AcDbEntity
  8
0
100
AcDbBlockBegin
  2
SW_DOWELSYMBOL_0
 70
     0
 10
0.0
 20
0.0
 30
0.0
  3
SW_DOWELSYMBOL_0
  1
SW_DOWELSYMBOL_0
  0
CIRCLE
  5
148
330
145
100
AcDbEntity
  8
해칭선
 62
     0
100
AcDbCircle
 10
0.0
 20
0.0
 30
0.0
 40
3.000000000000001
  0
HATCH
  5
149
330
145
100
AcDbEntity
  8
0
  6
Continuous
 62
     0
370
     0
100
AcDbHatch
 10
0.0
 20
0.0
 30
0.0
210
0.0
220
0.0
230
1.0
  2
SOLID
 70
     1
 71
     0
 91
        1
 92
        0
 93
        3
 72
     2
 10
0.0
 20
0.0
 40
3.000000000000001
 50
0.0
 51
90.0
 73
     1
 72
     1
 10
0.0
 20
3.000000000000001
 11
0.0
 21
0.0
 72
     1
 10
0.0
 20
0.0
 11
3.000000000000001
 21
0.0
 97
        0
 75
     0
 76
     1
 98
        1
 10
0.0
 20
0.0
  0
HATCH
  5
14A
330
145
100
AcDbEntity
  8
0
  6
Continuous
 62
     0
370
     0
100
AcDbHatch
 10
0.0
 20
0.0
 30
0.0
210
0.0
220
0.0
230
1.0
  2
SOLID
 70
     1
 71
     0
 91
        1
 92
        0
 93
        3
 72
     2
 10
0.0
 20
0.0
 40
3.000000000000001
 50
180.0
 51
270.0000000000008
 73
     1
 72
     1
 10
0.0
 20
-3.000000000000001
 11
0.0
 21
0.0
 72
     1
 10
0.0
 20
0.0
 11
-3.000000000000001
 21
0.0
 97
        0
 75
     0
 76
     1
 98
        1
 10
0.0
 20
0.0
  0
ENDBLK
  5
147
330
145
100
AcDbEntity
  8
0
100
AcDbBlockEnd
  0
BLOCK
  5
26E
330
26D
100
AcDbEntity
  8
0
100
AcDbBlockBegin
  2
*D8
 70
     1
 10
0.0
 20
0.0
 30
0.0
  3
*D8
  1
*D8
  0
LINE
  5
270
330
26D
100
AcDbEntity
  8
치수문자_일반주서
 62
     0
370
    -2
100
AcDbLine
 10
39.58423649638087
 20
15.50624999999999
 30
0.0
 11
4.375000000000028
 21
15.50624999999986
 31
0.0
  0
LINE
  5
271
330
26D
100
AcDbEntity
  8
치수문자_일반주서
 62
     0
370
    -2
100
AcDbLine
 10
39.58423649638087
 20
10.74375
 30
0.0
 11
4.375000000000044
 21
10.74374999999986
 31
0.0
  0
LINE
  5
272
330
26D
100
AcDbEntity
  8
치수문자_일반주서
 62
     0
370
    -2
100
AcDbLine
 10
4.375000000000039
 20
12.20424999999986
 30
0.0
 11
4.375000000000033
 21
14.04574999999986
 31
0.0
  0
SOLID
  5
273
330
26D
100
AcDbEntity
  8
치수문자_일반주서
 62
     0
100
AcDbTrace
 10
4.925333333333373
 20
12.20424999999986
 30
0.0
 11
3.824666666666706
 21
12.20424999999986
 31
0.0
 12
4.375000000000028
 22
15.50624999999986
 32
0.0
 13
4.375000000000028
 23
15.50624999999986
 33
0.0
  0
SOLID
  5
274
330
26D
100
AcDbEntity
  8
치수문자_일반주서
 62
     0
100
AcDbTrace
 10
3.8246666666667
 20
14.04574999999986
 30
0.0
 11
4.925333333333366
 21
14.04574999999986
 31
0.0
 12
4.375000000000044
 22
10.74374999999986
 32
0.0
 13
4.375000000000044
 23
10.74374999999986
 33
0.0
  0
MTEXT
  5
275
330
26D
100
AcDbEntity
  8
치수문자_일반주서
 62
     0
100
AcDbMText
 10
0.0000000000000355
 20
13.12499999999999
 30
0.0
 40
3.5
 41
0.0
 71
     2
 72
     1
  1
\A1;%%c4.76 [3/16]
  7
SLDTEXTSTYLE0
 11
-3.543388970982130E-15
 21
1.0
 31
0.0
 73
     1
 44
1.0
  0
POINT
  5
276
330
26D
100
AcDbEntity
  8
Defpoints
 62
     0
100
AcDbPoint
 10
39.64673649638087
 20
15.50624999999999
 30
0.0
  0
POINT
  5
277
330
26D
100
AcDbEntity
  8
Defpoints
 62
     0
100
AcDbPoint
 10
39.64673649638087
 20
10.74375
 30
0.0
  0
POINT
  5
278
330
26D
100
AcDbEntity
  8
Defpoints
 62
     0
100
AcDbPoint
 10
4.375000000000043
 20
10.74374999999986
 30
0.0
  0
ENDBLK
  5
26F
330
26D
100
AcDbEntity
  8
0
100
AcDbBlockEnd
  0
BLOCK
  5
27A
330
279
100
AcDbEntity
  8
0
100
AcDbBlockBegin
  2
*D9
 70
     1
 10
0.0
 20
0.0
 30
0.0
  3
*D9
  1
*D9
  0
LINE
  5
27C
330
279
100
AcDbEntity
  8
치수문자_일반주서
 62
     0
370
    -2
100
AcDbLine
 10
96.81250000000007
 20
11.3405719471758
 30
0.0
 11
110.6557662703154
 21
11.34057194717585
 31
0.0
  0
LINE
  5
27D
330
279
100
AcDbEntity
  8
치수문자_일반주서
 62
     0
370
    -2
100
AcDbLine
 10
96.81250000000007
 20
14.90942805282419
 30
0.0
 11
110.6557662703154
 21
14.90942805282424
 31
0.0
  0
LINE
  5
27E
330
279
100
AcDbEntity
  8
치수문자_일반주서
 62
     0
370
    -2
100
AcDbLine
 10
110.6557662703154
 20
14.90942805282424
 30
0.0
 11
110.6557662703153
 21
50.38842805282424
 31
0.0
  0
LINE
  5
27F
330
279
100
AcDbEntity
  8
치수문자_일반주서
 62
     0
370
    -2
100
AcDbLine
 10
110.6557662703154
 20
11.34057194717585
 30
0.0
 11
110.6557662703154
 21
14.90942805282424
 31
0.0
  0
LINE
  5
280
330
279
100
AcDbEntity
  8
치수문자_일반주서
 62
     0
370
    -2
100
AcDbLine
 10
110.6557662703154
 20
8.038571947175853
 30
0.0
 11
110.6557662703155
 21
4.736571947175854
 31
0.0
  0
LINE
  5
281
330
279
100
AcDbEntity
  8
치수문자_일반주서
 62
     0
370
    -2
100
AcDbLine
 10
110.6557662703154
 20
18.21142805282424
 30
0.0
 11
110.6557662703154
 21
21.51342805282424
 31
0.0
  0
SOLID
  5
282
330
279
100
AcDbEntity
  8
치수문자_일반주서
 62
     0
100
AcDbTrace
 10
111.2060996036488
 20
8.038571947175855
 30
0.0
 11
110.1054329369821
 21
8.038571947175852
 31
0.0
 12
110.6557662703154
 22
11.34057194717585
 32
0.0
 13
110.6557662703154
 23
11.34057194717585
 33
0.0
  0
SOLID
  5
283
330
279
100
AcDbEntity
  8
치수문자_일반주서
 62
     0
100
AcDbTrace
 10
110.1054329369821
 20
18.21142805282424
 30
0.0
 11
111.2060996036487
 21
18.21142805282424
 31
0.0
 12
110.6557662703154
 22
14.90942805282424
 32
0.0
 13
110.6557662703154
 23
14.90942805282424
 33
0.0
  0
MTEXT
  5
284
330
279
100
AcDbEntity
  8
치수문자_일반주서
 62
     0
100
AcDbMText
 10
106.2807662703153
 20
35.95092805282422
 30
0.0
 40
3.5
 41
0.0
 71
     2
 72
     1
  1
\A1;%%c3.57 [9/64]
  7
SLDTEXTSTYLE0
 11
-3.981907450039985E-15
 21
1.0
 31
0.0
 73
     1
 44
1.0
  0
POINT
  5
285
330
279
100
AcDbEntity
  8
Defpoints
 62
     0
100
AcDbPoint
 10
96.75000000000007
 20
11.3405719471758
 30
0.0
  0
POINT
  5
286
330
279
100
AcDbEntity
  8
Defpoints
 62
     0
100
AcDbPoint
 10
96.75000000000007
 20
14.90942805282419
 30
0.0
  0
POINT
  5
287
330
279
100
AcDbEntity
  8
Defpoints
 62
     0
100
AcDbPoint
 10
110.6557662703154
 20
14.90942805282424
 30
0.0
  0
ENDBLK
  5
27B
330
279
100
AcDbEntity
  8
0
100
AcDbBlockEnd
  0
BLOCK
  5
289
330
288
100
AcDbEntity
  8
0
100
AcDbBlockBegin
  2
*D10
 70
     1
 10
0.0
 20
0.0
 30
0.0
  3
*D10
  1
*D10
  0
LINE
  5
28B
330
288
100
AcDbEntity
  8
치수문자_일반주서
 62
     0
370
    -2
100
AcDbLine
 10
96.75000000000007
 20
14.97192805282419
 30
0.0
 11
96.75000000000007
 21
29.28529805223446
 31
0.0
  0
LINE
  5
28C
330
288
100
AcDbEntity
  8
치수문자_일반주서
 62
     0
370
    -2
100
AcDbLine
 10
77.70000000000007
 20
14.96717146446158
 30
0.0
 11
77.70000000000007
 21
29.28529805223446
 31
0.0
  0
LINE
  5
28D
330
288
100
AcDbEntity
  8
치수문자_일반주서
 62
     0
370
    -2
100
AcDbLine
 10
77.70000000000007
 20
29.28529805223446
 30
0.0
 11
46.15850000000007
 21
29.28529805223446
 31
0.0
  0
LINE
  5
28E
330
288
100
AcDbEntity
  8
치수문자_일반주서
 62
     0
370
    -2
100
AcDbLine
 10
96.75000000000007
 20
29.28529805223446
 30
0.0
 11
77.70000000000007
 21
29.28529805223446
 31
0.0
  0
LINE
  5
28F
330
288
100
AcDbEntity
  8
치수문자_일반주서
 62
     0
370
    -2
100
AcDbLine
 10
100.0520000000001
 20
29.28529805223446
 30
0.0
 11
103.3540000000001
 21
29.28529805223446
 31
0.0
  0
LINE
  5
290
330
288
100
AcDbEntity
  8
치수문자_일반주서
 62
     0
370
    -2
100
AcDbLine
 10
74.39800000000008
 20
29.28529805223446
 30
0.0
 11
71.09600000000009
 21
29.28529805223446
 31
0.0
  0
SOLID
  5
291
330
288
100
AcDbEntity
  8
치수문자_일반주서
 62
     0
100
AcDbTrace
 10
100.0520000000001
 20
29.8356313855678
 30
0.0
 11
100.0520000000001
 21
28.73496471890113
 31
0.0
 12
96.75000000000007
 22
29.28529805223446
 32
0.0
 13
96.75000000000007
 23
29.28529805223446
 33
0.0
  0
SOLID
  5
292
330
288
100
AcDbEntity
  8
치수문자_일반주서
 62
     0
100
AcDbTrace
 10
74.39800000000008
 20
28.73496471890113
 30
0.0
 11
74.39800000000008
 21
29.8356313855678
 31
0.0
 12
77.70000000000007
 22
29.28529805223446
 32
0.0
 13
77.70000000000007
 23
29.28529805223446
 33
0.0
  0
MTEXT
  5
293
330
288
100
AcDbEntity
  8
치수문자_일반주서
 62
     0
100
AcDbMText
 10
58.62725000000007
 20
33.66029805223447
 30
0.0
 40
3.5
 41
0.0
 71
     2
 72
     1
  1
\A1;19.05 [3/4]
  7
SLDTEXTSTYLE0
 73
     1
 44
1.0
  0
POINT
  5
294
330
288
100
AcDbEntity
  8
Defpoints
 62
     0
100
AcDbPoint
 10
96.75000000000007
 20
14.90942805282419
 30
0.0
  0
POINT
  5
295
330
288
100
AcDbEntity
  8
Defpoints
 62
     0
100
AcDbPoint
 10
77.70000000000007
 20
14.90467146446158
 30
0.0
  0
POINT
  5
296
330
288
100
AcDbEntity
  8
Defpoints
 62
     0
100
AcDbPoint
 10
77.70000000000007
 20
29.28529805223446
 30
0.0
  0
ENDBLK
  5
28A
330
288
100
AcDbEntity
  8
0
100
AcDbBlockEnd
  0
BLOCK
  5
298
330
297
100
AcDbEntity
  8
0
100
AcDbBlockBegin
  2
*D11
 70
     1
 10
0.0
 20
0.0
 30
0.0
  3
*D11
  1
*D11
  0
LINE
  5
29A
330
297
100
AcDbEntity
  8
치수문자_일반주서
 62
     0
370
    -2
100
AcDbLine
 10
17.37500000000004
 20
14.9719280528242
 30
0.0
 11
17.37500000000004
 21
43.55516347307377
 31
0.0
  0
LINE
  5
29B
330
297
100
AcDbEntity
  8
치수문자_일반주서
 62
     0
370
    -2
100
AcDbLine
 10
96.75000000000007
 20
14.97192805282419
 30
0.0
 11
96.75000000000009
 21
43.55516347307377
 31
0.0
  0
LINE
  5
29C
330
297
100
AcDbEntity
  8
치수문자_일반주서
 62
     0
370
    -2
100
AcDbLine
 10
20.67700000000004
 20
43.55516347307377
 30
0.0
 11
93.44800000000009
 21
43.55516347307377
 31
0.0
  0
SOLID
  5
29D
330
297
100
AcDbEntity
  8
치수문자_일반주서
 62
     0
100
AcDbTrace
 10
20.67700000000004
 20
44.1054968064071
 30
0.0
 11
20.67700000000004
 21
43.00483013974043
 31
0.0
 12
17.37500000000004
 22
43.55516347307377
 32
0.0
 13
17.37500000000004
 23
43.55516347307377
 33
0.0
  0
SOLID
  5
29E
330
297
100
AcDbEntity
  8
치수문자_일반주서
 62
     0
100
AcDbTrace
 10
93.44800000000009
 20
43.00483013974043
 30
0.0
 11
93.44800000000009
 21
44.1054968064071
 31
0.0
 12
96.75000000000009
 22
43.55516347307377
 32
0.0
 13
96.75000000000009
 23
43.55516347307377
 33
0.0
  0
MTEXT
  5
29F
330
297
100
AcDbEntity
  8
치수문자_일반주서
 62
     0
100
AcDbMText
 10
57.06250000000006
 20
47.93016347307377
 30
0.0
 40
3.5
 41
0.0
 71
     2
 72
     1
  1
\A1;79.38 [3 1/8]
  7
SLDTEXTSTYLE0
 73
     1
 44
1.0
  0
POINT
  5
2A0
330
297
100
AcDbEntity
  8
Defpoints
 62
     0
100
AcDbPoint
 10
17.37500000000004
 20
14.9094280528242
 30
0.0
  0
POINT
  5
2A1
330
297
100
AcDbEntity
  8
Defpoints
 62
     0
100
AcDbPoint
 10
96.75000000000007
 20
14.90942805282419
 30
0.0
  0
POINT
  5
2A2
330
297
100
AcDbEntity
  8
Defpoints
 62
     0
100
AcDbPoint
 10
96.75000000000007
 20
43.55516347307377
 30
0.0
  0
ENDBLK
  5
299
330
297
100
AcDbEntity
  8
0
100
AcDbBlockEnd
  0
BLOCK
  5
338
330
337
100
AcDbEntity
  8
0
100
AcDbBlockBegin
  2
*D12
 70
     1
 10
0.0
 20
0.0
 30
0.0
  3
*D12
  1
*D12
  0
LINE
  5
33A
330
337
100
AcDbEntity
  8
치수문자_일반주서
 62
     0
370
    -2
100
AcDbLine
 10
95.82475139934269
 20
-37.22852230596294
 30
0.0
 11
60.61551490296185
 21
-37.22852230596307
 31
0.0
  0
LINE
  5
33B
330
337
100
AcDbEntity
  8
치수문자_일반주서
 62
     0
370
    -2
100
AcDbLine
 10
95.82475139934269
 20
-41.99102230596294
 30
0.0
 11
60.61551490296186
 21
-41.99102230596307
 31
0.0
  0
LINE
  5
33C
330
337
100
AcDbEntity
  8
치수문자_일반주서
 62
     0
370
    -2
100
AcDbLine
 10
60.61551490296186
 20
-40.53052230596307
 30
0.0
 11
60.61551490296186
 21
-38.68902230596307
 31
0.0
  0
SOLID
  5
33D
330
337
100
AcDbEntity
  8
치수문자_일반주서
 62
     0
100
AcDbTrace
 10
61.16584823629519
 20
-40.53052230596307
 30
0.0
 11
60.06518156962852
 21
-40.53052230596307
 31
0.0
 12
60.61551490296185
 22
-37.22852230596307
 32
0.0
 13
60.61551490296185
 23
-37.22852230596307
 33
0.0
  0
SOLID
  5
33E
330
337
100
AcDbEntity
  8
치수문자_일반주서
 62
     0
100
AcDbTrace
 10
60.06518156962852
 20
-38.68902230596307
 30
0.0
 11
61.16584823629519
 21
-38.68902230596307
 31
0.0
 12
60.61551490296186
 22
-41.99102230596307
 32
0.0
 13
60.61551490296186
 23
-41.99102230596307
 33
0.0
  0
MTEXT
  5
33F
330
337
100
AcDbEntity
  8
치수문자_일반주서
 62
     0
100
AcDbMText
 10
56.24051490296186
 20
-39.60977230596295
 30
0.0
 40
3.5
 41
0.0
 71
     2
 72
     1
  1
\A1;%%c4.76 [3/16]
  7
SLDTEXTSTYLE0
 11
-2.983906501879679E-15
 21
1.0
 31
0.0
 73
     1
 44
1.0
  0
POINT
  5
340
330
337
100
AcDbEntity
  8
Defpoints
 62
     0
100
AcDbPoint
 10
95.88725139934269
 20
-37.22852230596294
 30
0.0
  0
POINT
  5
341
330
337
100
AcDbEntity
  8
Defpoints
 62
     0
100
AcDbPoint
 10
95.88725139934269
 20
-41.99102230596294
 30
0.0
  0
POINT
  5
342
330
337
100
AcDbEntity
  8
Defpoints
 62
     0
100
AcDbPoint
 10
60.61551490296186
 20
-41.99102230596308
 30
0.0
  0
ENDBLK
  5
339
330
337
100
AcDbEntity
  8
0
100
AcDbBlockEnd
  0
BLOCK
  5
344
330
343
100
AcDbEntity
  8
0
100
AcDbBlockBegin
  2
*D13
 70
     1
 10
0.0
 20
0.0
 30
0.0
  3
*D13
  1
*D13
  0
LINE
  5
346
330
343
100
AcDbEntity
  8
치수문자_일반주서
 62
     0
370
    -2
100
AcDbLine
 10
153.0530149029619
 20
-41.39420035878713
 30
0.0
 11
166.8962811732771
 21
-41.39420035878708
 31
0.0
  0
LINE
  5
347
330
343
100
AcDbEntity
  8
치수문자_일반주서
 62
     0
370
    -2
100
AcDbLine
 10
153.0530149029619
 20
-37.82534425313874
 30
0.0
 11
166.8962811732771
 21
-37.8253442531387
 31
0.0
  0
LINE
  5
348
330
343
100
AcDbEntity
  8
치수문자_일반주서
 62
     0
370
    -2
100
AcDbLine
 10
166.8962811732771
 20
-37.8253442531387
 30
0.0
 11
166.8962811732771
 21
-2.346344253138696
 31
0.0
  0
LINE
  5
349
330
343
100
AcDbEntity
  8
치수문자_일반주서
 62
     0
370
    -2
100
AcDbLine
 10
166.8962811732771
 20
-41.39420035878708
 30
0.0
 11
166.8962811732771
 21
-37.8253442531387
 31
0.0
  0
LINE
  5
34A
330
343
100
AcDbEntity
  8
치수문자_일반주서
 62
     0
370
    -2
100
AcDbLine
 10
166.8962811732771
 20
-44.69620035878708
 30
0.0
 11
166.8962811732771
 21
-47.99820035878708
 31
0.0
  0
LINE
  5
34B
330
343
100
AcDbEntity
  8
치수문자_일반주서
 62
     0
370
    -2
100
AcDbLine
 10
166.8962811732771
 20
-34.5233442531387
 30
0.0
 11
166.8962811732771
 21
-31.2213442531387
 31
0.0
  0
SOLID
  5
34C
330
343
100
AcDbEntity
  8
치수문자_일반주서
 62
     0
100
AcDbTrace
 10
167.4466145066105
 20
-44.69620035878708
 30
0.0
 11
166.3459478399438
 21
-44.69620035878708
 31
0.0
 12
166.8962811732771
 22
-41.39420035878708
 32
0.0
 13
166.8962811732771
 23
-41.39420035878708
 33
0.0
  0
SOLID
  5
34D
330
343
100
AcDbEntity
  8
치수문자_일반주서
 62
     0
100
AcDbTrace
 10
166.3459478399438
 20
-34.5233442531387
 30
0.0
 11
167.4466145066105
 21
-34.5233442531387
 31
0.0
 12
166.8962811732771
 22
-37.8253442531387
 32
0.0
 13
166.8962811732771
 23
-37.8253442531387
 33
0.0
  0
MTEXT
  5
34E
330
343
100
AcDbEntity
  8
치수문자_일반주서
 62
     0
100
AcDbMText
 10
162.5212811732771
 20
-16.7838442531387
 30
0.0
 40
3.5
 41
0.0
 71
     2
 72
     1
  1
\A1;%%c3.57 [9/64]
  7
SLDTEXTSTYLE0
 11
0.0
 21
1.0
 31
0.0
 73
     1
 44
1.0
  0
POINT
  5
34F
330
343
100
AcDbEntity
  8
Defpoints
 62
     0
100
AcDbPoint
 10
152.9905149029619
 20
-41.39420035878713
 30
0.0
  0
POINT
  5
350
330
343
100
AcDbEntity
  8
Defpoints
 62
     0
100
AcDbPoint
 10
152.9905149029619
 20
-37.82534425313874
 30
0.0
  0
POINT
  5
351
330
343
100
AcDbEntity
  8
Defpoints
 62
     0
100
AcDbPoint
 10
166.8962811732772
 20
-37.8253442531387
 30
0.0
  0
ENDBLK
  5
345
330
343
100
AcDbEntity
  8
0
100
AcDbBlockEnd
  0
BLOCK
  5
353
330
352
100
AcDbEntity
  8
0
100
AcDbBlockBegin
  2
*D14
 70
     1
 10
0.0
 20
0.0
 30
0.0
  3
*D14
  1
*D14
  0
LINE
  5
355
330
352
100
AcDbEntity
  8
치수문자_일반주서
 62
     0
370
    -2
100
AcDbLine
 10
152.9905149029619
 20
-37.76284425313874
 30
0.0
 11
152.9905149029619
 21
-23.44947425372847
 31
0.0
  0
LINE
  5
356
330
352
100
AcDbEntity
  8
치수문자_일반주서
 62
     0
370
    -2
100
AcDbLine
 10
133.9405149029619
 20
-37.76760084150136
 30
0.0
 11
133.9405149029619
 21
-23.44947425372847
 31
0.0
  0
LINE
  5
357
330
352
100
AcDbEntity
  8
치수문자_일반주서
 62
     0
370
    -2
100
AcDbLine
 10
133.9405149029619
 20
-23.44947425372847
 30
0.0
 11
102.3990149029619
 21
-23.44947425372847
 31
0.0
  0
LINE
  5
358
330
352
100
AcDbEntity
  8
치수문자_일반주서
 62
     0
370
    -2
100
AcDbLine
 10
152.9905149029619
 20
-23.44947425372847
 30
0.0
 11
133.9405149029619
 21
-23.44947425372847
 31
0.0
  0
LINE
  5
359
330
352
100
AcDbEntity
  8
치수문자_일반주서
 62
     0
370
    -2
100
AcDbLine
 10
156.2925149029619
 20
-23.44947425372847
 30
0.0
 11
159.5945149029619
 21
-23.44947425372847
 31
0.0
  0
LINE
  5
35A
330
352
100
AcDbEntity
  8
치수문자_일반주서
 62
     0
370
    -2
100
AcDbLine
 10
130.6385149029619
 20
-23.44947425372847
 30
0.0
 11
127.3365149029619
 21
-23.44947425372847
 31
0.0
  0
SOLID
  5
35B
330
352
100
AcDbEntity
  8
치수문자_일반주서
 62
     0
100
AcDbTrace
 10
156.2925149029619
 20
-22.89914092039514
 30
0.0
 11
156.2925149029619
 21
-23.99980758706181
 31
0.0
 12
152.9905149029619
 22
-23.44947425372847
 32
0.0
 13
152.9905149029619
 23
-23.44947425372847
 33
0.0
  0
SOLID
  5
35C
330
352
100
AcDbEntity
  8
치수문자_일반주서
 62
     0
100
AcDbTrace
 10
130.6385149029619
 20
-23.99980758706181
 30
0.0
 11
130.6385149029619
 21
-22.89914092039514
 31
0.0
 12
133.9405149029619
 22
-23.44947425372847
 32
0.0
 13
133.9405149029619
 23
-23.44947425372847
 33
0.0
  0
MTEXT
  5
35D
330
352
100
AcDbEntity
  8
치수문자_일반주서
 62
     0
100
AcDbMText
 10
114.8677649029619
 20
-19.07447425372847
 30
0.0
 40
3.5
 41
0.0
 71
     2
 72
     1
  1
\A1;19.05 [3/4]
  7
SLDTEXTSTYLE0
 73
     1
 44
1.0
  0
POINT
  5
35E
330
352
100
AcDbEntity
  8
Defpoints
 62
     0
100
AcDbPoint
 10
152.9905149029619
 20
-37.82534425313874
 30
0.0
  0
POINT
  5
35F
330
352
100
AcDbEntity
  8
Defpoints
 62
     0
100
AcDbPoint
 10
133.9405149029619
 20
-37.83010084150136
 30
0.0
  0
POINT
  5
360
330
352
100
AcDbEntity
  8
Defpoints
 62
     0
100
AcDbPoint
 10
133.9405149029619
 20
-23.44947425372847
 30
0.0
  0
ENDBLK
  5
354
330
352
100
AcDbEntity
  8
0
100
AcDbBlockEnd
  0
BLOCK
  5
362
330
361
100
AcDbEntity
  8
0
100
AcDbBlockBegin
  2
*D15
 70
     1
 10
0.0
 20
0.0
 30
0.0
  3
*D15
  1
*D15
  0
LINE
  5
364
330
361
100
AcDbEntity
  8
치수문자_일반주서
 62
     0
370
    -2
100
AcDbLine
 10
73.61551490296185
 20
-37.76284425313874
 30
0.0
 11
73.61551490296185
 21
-9.179608832889166
 31
0.0
  0
LINE
  5
365
330
361
100
AcDbEntity
  8
치수문자_일반주서
 62
     0
370
    -2
100
AcDbLine
 10
152.9905149029619
 20
-37.76284425313874
 30
0.0
 11
152.9905149029619
 21
-9.179608832889166
 31
0.0
  0
LINE
  5
366
330
361
100
AcDbEntity
  8
치수문자_일반주서
 62
     0
370
    -2
100
AcDbLine
 10
76.91751490296184
 20
-9.179608832889166
 30
0.0
 11
149.6885149029619
 21
-9.179608832889166
 31
0.0
  0
SOLID
  5
367
330
361
100
AcDbEntity
  8
치수문자_일반주서
 62
     0
100
AcDbTrace
 10
76.91751490296184
 20
-8.629275499555833
 30
0.0
 11
76.91751490296184
 21
-9.729942166222498
 31
0.0
 12
73.61551490296185
 22
-9.179608832889166
 32
0.0
 13
73.61551490296185
 23
-9.179608832889166
 33
0.0
  0
SOLID
  5
368
330
361
100
AcDbEntity
  8
치수문자_일반주서
 62
     0
100
AcDbTrace
 10
149.6885149029619
 20
-9.729942166222498
 30
0.0
 11
149.6885149029619
 21
-8.629275499555833
 31
0.0
 12
152.9905149029619
 22
-9.179608832889166
 32
0.0
 13
152.9905149029619
 23
-9.179608832889166
 33
0.0
  0
MTEXT
  5
369
330
361
100
AcDbEntity
  8
치수문자_일반주서
 62
     0
100
AcDbMText
 10
113.3030149029619
 20
-4.804608832889166
 30
0.0
 40
3.5
 41
0.0
 71
     2
 72
     1
  1
\A1;79.38 [3 1/8]
  7
SLDTEXTSTYLE0
 73
     1
 44
1.0
  0
POINT
  5
36A
330
361
100
AcDbEntity
  8
Defpoints
 62
     0
100
AcDbPoint
 10
73.61551490296185
 20
-37.82534425313874
 30
0.0
  0
POINT
  5
36B
330
361
100
AcDbEntity
  8
Defpoints
 62
     0
100
AcDbPoint
 10
152.9905149029619
 20
-37.82534425313874
 30
0.0
  0
POINT
  5
36C
330
361
100
AcDbEntity
  8
Defpoints
 62
     0
100
AcDbPoint
 10
152.9905149029619
 20
-9.179608832889166
 30
0.0
  0
ENDBLK
  5
363
330
361
100
AcDbEntity
  8
0
100
AcDbBlockEnd
  0
BLOCK
  5
55D
330
55C
100
AcDbEntity
  8
0
100
AcDbBlockBegin
  2
*D17
 70
     1
 10
0.0
 20
0.0
 30
0.0
  3
*D17
  1
*D17
  0
LINE
  5
55F
330
55C
100
AcDbEntity
  8
치수문자_일반주서
 62
     0
370
    -2
100
AcDbLine
 10
82.43750000000003
 20
6.603999999999927
 30
0.0
 11
101.3750000000002
 21
6.603999999999999
 31
0.0
  0
LINE
  5
560
330
55C
100
AcDbEntity
  8
치수문자_일반주서
 62
     0
370
    -2
100
AcDbLine
 10
82.43750000000003
 20
9.77899999999993
 30
0.0
 11
101.3750000000002
 21
9.779
 31
0.0
  0
LINE
  5
561
330
55C
100
AcDbEntity
  8
치수문자_일반주서
 62
     0
370
    -2
100
AcDbLine
 10
101.3750000000002
 20
9.779
 30
0.0
 11
101.3750000000001
 21
41.17187018544223
 31
0.0
  0
LINE
  5
562
330
55C
100
AcDbEntity
  8
치수문자_일반주서
 62
     0
370
    -2
100
AcDbLine
 10
101.3750000000002
 20
6.603999999999999
 30
0.0
 11
101.3750000000002
 21
9.779
 31
0.0
  0
LINE
  5
563
330
55C
100
AcDbEntity
  8
치수문자_일반주서
 62
     0
370
    -2
100
AcDbLine
 10
101.3750000000003
 20
3.302
 30
0.0
 11
101.3750000000003
 21
0.0
 31
0.0
  0
LINE
  5
564
330
55C
100
AcDbEntity
  8
치수문자_일반주서
 62
     0
370
    -2
100
AcDbLine
 10
101.3750000000002
 20
13.081
 30
0.0
 11
101.3750000000002
 21
16.383
 31
0.0
  0
SOLID
  5
565
330
55C
100
AcDbEntity
  8
치수문자_일반주서
 62
     0
100
AcDbTrace
 10
101.9253333333336
 20
3.302000000000002
 30
0.0
 11
100.8246666666669
 21
3.301999999999997
 31
0.0
 12
101.3750000000002
 22
6.603999999999999
 32
0.0
 13
101.3750000000002
 23
6.603999999999999
 33
0.0
  0
SOLID
  5
566
330
55C
100
AcDbEntity
  8
치수문자_일반주서
 62
     0
100
AcDbTrace
 10
100.8246666666669
 20
13.081
 30
0.0
 11
101.9253333333335
 21
13.081
 31
0.0
 12
101.3750000000002
 22
9.779
 32
0.0
 13
101.3750000000002
 23
9.779
 33
0.0
  0
MTEXT
  5
567
330
55C
100
AcDbEntity
  8
치수문자_일반주서
 62
     0
100
AcDbMText
 10
97.00000000000014
 20
28.92187018544222
 30
0.0
 40
3.5
 41
0.0
 71
     2
 72
     1
  1
\A1;%%c3.18 [1/8]
  7
SLDTEXTSTYLE0
 11
-4.475859752819524E-15
 21
1.0
 31
0.0
 73
     1
 44
1.0
  0
POINT
  5
568
330
55C
100
AcDbEntity
  8
Defpoints
 62
     0
100
AcDbPoint
 10
82.37500000000003
 20
6.603999999999927
 30
0.0
  0
POINT
  5
569
330
55C
100
AcDbEntity
  8
Defpoints
 62
     0
100
AcDbPoint
 10
82.37500000000003
 20
9.77899999999993
 30
0.0
  0
POINT
  5
56A
330
55C
100
AcDbEntity
  8
Defpoints
 62
     0
100
AcDbPoint
 10
101.3750000000002
 20
9.779000000000002
 30
0.0
  0
ENDBLK
  5
55E
330
55C
100
AcDbEntity
  8
0
100
AcDbBlockEnd
  0
BLOCK
  5
56C
330
56B
100
AcDbEntity
  8
0
100
AcDbBlockBegin
  2
*D18
 70
     1
 10
0.0
 20
0.0
 30
0.0
  3
*D18
  1
*D18
  0
LINE
  5
56E
330
56B
100
AcDbEntity
  8
치수문자_일반주서
 62
     0
370
    -2
100
AcDbLine
 10
82.37500000000003
 20
9.84149999999993
 30
0.0
 11
82.37500000000003
 21
21.32400263812479
 31
0.0
  0
LINE
  5
56F
330
56B
100
AcDbEntity
  8
치수문자_일반주서
 62
     0
370
    -2
100
AcDbLine
 10
63.32500000000002
 20
9.301313479170927
 30
0.0
 11
63.32500000000002
 21
21.32400263812479
 31
0.0
  0
LINE
  5
570
330
56B
100
AcDbEntity
  8
치수문자_일반주서
 62
     0
370
    -2
100
AcDbLine
 10
63.32500000000002
 20
21.32400263812479
 30
0.0
 11
31.78350000000002
 21
21.32400263812479
 31
0.0
  0
LINE
  5
571
330
56B
100
AcDbEntity
  8
치수문자_일반주서
 62
     0
370
    -2
100
AcDbLine
 10
82.37500000000003
 20
21.32400263812479
 30
0.0
 11
63.32500000000002
 21
21.32400263812479
 31
0.0
  0
LINE
  5
572
330
56B
100
AcDbEntity
  8
치수문자_일반주서
 62
     0
370
    -2
100
AcDbLine
 10
85.67700000000002
 20
21.32400263812479
 30
0.0
 11
88.97900000000001
 21
21.32400263812479
 31
0.0
  0
LINE
  5
573
330
56B
100
AcDbEntity
  8
치수문자_일반주서
 62
     0
370
    -2
100
AcDbLine
 10
60.02300000000002
 20
21.32400263812479
 30
0.0
 11
56.72100000000002
 21
21.32400263812479
 31
0.0
  0
SOLID
  5
574
330
56B
100
AcDbEntity
  8
치수문자_일반주서
 62
     0
100
AcDbTrace
 10
85.67700000000002
 20
21.87433597145812
 30
0.0
 11
85.67700000000002
 21
20.77366930479145
 31
0.0
 12
82.37500000000003
 22
21.32400263812479
 32
0.0
 13
82.37500000000003
 23
21.32400263812479
 33
0.0
  0
SOLID
  5
575
330
56B
100
AcDbEntity
  8
치수문자_일반주서
 62
     0
100
AcDbTrace
 10
60.02300000000002
 20
20.77366930479145
 30
0.0
 11
60.02300000000002
 21
21.87433597145812
 31
0.0
 12
63.32500000000002
 22
21.32400263812479
 32
0.0
 13
63.32500000000002
 23
21.32400263812479
 33
0.0
  0
MTEXT
  5
576
330
56B
100
AcDbEntity
  8
치수문자_일반주서
 62
     0
100
AcDbMText
 10
44.25225000000002
 20
25.69900263812479
 30
0.0
 40
3.5
 41
0.0
 71
     2
 72
     1
  1
\A1;19.05 [3/4]
  7
SLDTEXTSTYLE0
 73
     1
 44
1.0
  0
POINT
  5
577
330
56B
100
AcDbEntity
  8
Defpoints
 62
     0
100
AcDbPoint
 10
82.37500000000003
 20
9.77899999999993
 30
0.0
  0
POINT
  5
578
330
56B
100
AcDbEntity
  8
Defpoints
 62
     0
100
AcDbPoint
 10
63.32500000000002
 20
9.238813479170927
 30
0.0
  0
POINT
  5
579
330
56B
100
AcDbEntity
  8
Defpoints
 62
     0
100
AcDbPoint
 10
63.32500000000002
 20
21.32400263812479
 30
0.0
  0
ENDBLK
  5
56D
330
56B
100
AcDbEntity
  8
0
100
AcDbBlockEnd
  0
BLOCK
  5
57B
330
57A
100
AcDbEntity
  8
0
100
AcDbBlockBegin
  2
*D19
 70
     1
 10
0.0
 20
0.0
 30
0.0
  3
*D19
  1
*D19
  0
LINE
  5
57D
330
57A
100
AcDbEntity
  8
치수문자_일반주서
 62
     0
370
    -2
100
AcDbLine
 10
3.000000000000021
 20
10.20524999999991
 30
0.0
 11
3.000000000000028
 21
31.41496739287423
 31
0.0
  0
LINE
  5
57E
330
57A
100
AcDbEntity
  8
치수문자_일반주서
 62
     0
370
    -2
100
AcDbLine
 10
82.37500000000003
 20
9.84149999999993
 30
0.0
 11
82.37500000000003
 21
31.41496739287423
 31
0.0
  0
LINE
  5
57F
330
57A
100
AcDbEntity
  8
치수문자_일반주서
 62
     0
370
    -2
100
AcDbLine
 10
6.302000000000028
 20
31.41496739287423
 30
0.0
 11
79.07300000000004
 21
31.41496739287423
 31
0.0
  0
SOLID
  5
580
330
57A
100
AcDbEntity
  8
치수문자_일반주서
 62
     0
100
AcDbTrace
 10
6.302000000000028
 20
31.96530072620756
 30
0.0
 11
6.302000000000028
 21
30.86463405954089
 31
0.0
 12
3.000000000000028
 22
31.41496739287423
 32
0.0
 13
3.000000000000028
 23
31.41496739287423
 33
0.0
  0
SOLID
  5
581
330
57A
100
AcDbEntity
  8
치수문자_일반주서
 62
     0
100
AcDbTrace
 10
79.07300000000004
 20
30.86463405954089
 30
0.0
 11
79.07300000000004
 21
31.96530072620756
 31
0.0
 12
82.37500000000003
 22
31.41496739287423
 32
0.0
 13
82.37500000000003
 23
31.41496739287423
 33
0.0
  0
MTEXT
  5
582
330
57A
100
AcDbEntity
  8
치수문자_일반주서
 62
     0
100
AcDbMText
 10
43.6102551274349
 20
35.78996739287423
 30
0.0
 40
3.5
 41
0.0
 71
     2
 72
     1
  1
\A1;79.38 [3 1/8]
  7
SLDTEXTSTYLE0
 73
     1
 44
1.0
  0
POINT
  5
583
330
57A
100
AcDbEntity
  8
Defpoints
 62
     0
100
AcDbPoint
 10
3.000000000000021
 20
10.14274999999991
 30
0.0
  0
POINT
  5
584
330
57A
100
AcDbEntity
  8
Defpoints
 62
     0
100
AcDbPoint
 10
82.37500000000003
 20
9.77899999999993
 30
0.0
  0
POINT
  5
585
330
57A
100
AcDbEntity
  8
Defpoints
 62
     0
100
AcDbPoint
 10
82.37500000000003
 20
31.41496739287423
 30
0.0
  0
ENDBLK
  5
57C
330
57A
100
AcDbEntity
  8
0
100
AcDbBlockEnd
  0
BLOCK
  5
5D6
330
5D5
100
AcDbEntity
  8
0
100
AcDbBlockBegin
  2
*D20
 70
     1
 10
0.0
 20
0.0
 30
0.0
  3
*D20
  1
*D20
  0
LINE
  5
5D8
330
5D5
100
AcDbEntity
  8
치수문자_일반주서
 62
     0
370
    -2
100
AcDbLine
 10
158.1175445333254
 20
-45.63967858004625
 30
0.0
 11
177.0550445333255
 21
-45.63967858004618
 31
0.0
  0
LINE
  5
5D9
330
5D5
100
AcDbEntity
  8
치수문자_일반주서
 62
     0
370
    -2
100
AcDbLine
 10
158.1175445333254
 20
-42.46467858004625
 30
0.0
 11
177.0550445333255
 21
-42.46467858004618
 31
0.0
  0
LINE
  5
5DA
330
5D5
100
AcDbEntity
  8
치수문자_일반주서
 62
     0
370
    -2
100
AcDbLine
 10
177.0550445333255
 20
-42.46467858004618
 30
0.0
 11
177.0550445333255
 21
-11.07180839460394
 31
0.0
  0
LINE
  5
5DB
330
5D5
100
AcDbEntity
  8
치수문자_일반주서
 62
     0
370
    -2
100
AcDbLine
 10
177.0550445333255
 20
-45.63967858004618
 30
0.0
 11
177.0550445333255
 21
-42.46467858004618
 31
0.0
  0
LINE
  5
5DC
330
5D5
100
AcDbEntity
  8
치수문자_일반주서
 62
     0
370
    -2
100
AcDbLine
 10
177.0550445333255
 20
-48.94167858004618
 30
0.0
 11
177.0550445333255
 21
-52.24367858004618
 31
0.0
  0
LINE
  5
5DD
330
5D5
100
AcDbEntity
  8
치수문자_일반주서
 62
     0
370
    -2
100
AcDbLine
 10
177.0550445333255
 20
-39.16267858004618
 30
0.0
 11
177.0550445333255
 21
-35.86067858004618
 31
0.0
  0
SOLID
  5
5DE
330
5D5
100
AcDbEntity
  8
치수문자_일반주서
 62
     0
100
AcDbTrace
 10
177.6053778666588
 20
-48.94167858004618
 30
0.0
 11
176.5047111999922
 21
-48.94167858004618
 31
0.0
 12
177.0550445333255
 22
-45.63967858004618
 32
0.0
 13
177.0550445333255
 23
-45.63967858004618
 33
0.0
  0
SOLID
  5
5DF
330
5D5
100
AcDbEntity
  8
치수문자_일반주서
 62
     0
100
AcDbTrace
 10
176.5047111999922
 20
-39.16267858004618
 30
0.0
 11
177.6053778666588
 21
-39.16267858004618
 31
0.0
 12
177.0550445333255
 22
-42.46467858004618
 32
0.0
 13
177.0550445333255
 23
-42.46467858004618
 33
0.0
  0
MTEXT
  5
5E0
330
5D5
100
AcDbEntity
  8
치수문자_일반주서
 62
     0
100
AcDbMText
 10
172.6800445333255
 20
-23.32180839460394
 30
0.0
 40
3.5
 41
0.0
 71
     2
 72
     1
  1
\A1;%%c3.18 [1/8]
  7
SLDTEXTSTYLE0
 11
0.0
 21
1.0
 31
0.0
 73
     1
 44
1.0
  0
POINT
  5
5E1
330
5D5
100
AcDbEntity
  8
Defpoints
 62
     0
100
AcDbPoint
 10
158.0550445333254
 20
-45.63967858004625
 30
0.0
  0
POINT
  5
5E2
330
5D5
100
AcDbEntity
  8
Defpoints
 62
     0
100
AcDbPoint
 10
158.0550445333254
 20
-42.46467858004625
 30
0.0
  0
POINT
  5
5E3
330
5D5
100
AcDbEntity
  8
Defpoints
 62
     0
100
AcDbPoint
 10
177.0550445333255
 20
-42.46467858004618
 30
0.0
  0
ENDBLK
  5
5D7
330
5D5
100
AcDbEntity
  8
0
100
AcDbBlockEnd
  0
BLOCK
  5
5E5
330
5E4
100
AcDbEntity
  8
0
100
AcDbBlockBegin
  2
*D21
 70
     1
 10
0.0
 20
0.0
 30
0.0
  3
*D21
  1
*D21
  0
LINE
  5
5E7
330
5E4
100
AcDbEntity
  8
치수문자_일반주서
 62
     0
370
    -2
100
AcDbLine
 10
158.0550445333254
 20
-42.40217858004625
 30
0.0
 11
158.0550445333254
 21
-30.91967594192139
 31
0.0
  0
LINE
  5
5E8
330
5E4
100
AcDbEntity
  8
치수문자_일반주서
 62
     0
370
    -2
100
AcDbLine
 10
139.0050445333254
 20
-42.94236510087525
 30
0.0
 11
139.0050445333254
 21
-30.91967594192139
 31
0.0
  0
LINE
  5
5E9
330
5E4
100
AcDbEntity
  8
치수문자_일반주서
 62
     0
370
    -2
100
AcDbLine
 10
139.0050445333254
 20
-30.91967594192139
 30
0.0
 11
107.4635445333253
 21
-30.91967594192139
 31
0.0
  0
LINE
  5
5EA
330
5E4
100
AcDbEntity
  8
치수문자_일반주서
 62
     0
370
    -2
100
AcDbLine
 10
158.0550445333254
 20
-30.91967594192139
 30
0.0
 11
139.0050445333254
 21
-30.91967594192139
 31
0.0
  0
LINE
  5
5EB
330
5E4
100
AcDbEntity
  8
치수문자_일반주서
 62
     0
370
    -2
100
AcDbLine
 10
161.3570445333254
 20
-30.91967594192139
 30
0.0
 11
164.6590445333254
 21
-30.91967594192139
 31
0.0
  0
LINE
  5
5EC
330
5E4
100
AcDbEntity
  8
치수문자_일반주서
 62
     0
370
    -2
100
AcDbLine
 10
135.7030445333254
 20
-30.91967594192139
 30
0.0
 11
132.4010445333254
 21
-30.91967594192139
 31
0.0
  0
SOLID
  5
5ED
330
5E4
100
AcDbEntity
  8
치수문자_일반주서
 62
     0
100
AcDbTrace
 10
161.3570445333254
 20
-30.36934260858806
 30
0.0
 11
161.3570445333254
 21
-31.47000927525473
 31
0.0
 12
158.0550445333254
 22
-30.91967594192139
 32
0.0
 13
158.0550445333254
 23
-30.91967594192139
 33
0.0
  0
SOLID
  5
5EE
330
5E4
100
AcDbEntity
  8
치수문자_일반주서
 62
     0
100
AcDbTrace
 10
135.7030445333254
 20
-31.47000927525473
 30
0.0
 11
135.7030445333254
 21
-30.36934260858806
 31
0.0
 12
139.0050445333254
 22
-30.91967594192139
 32
0.0
 13
139.0050445333254
 23
-30.91967594192139
 33
0.0
  0
MTEXT
  5
5EF
330
5E4
100
AcDbEntity
  8
치수문자_일반주서
 62
     0
100
AcDbMText
 10
119.9322945333253
 20
-26.54467594192139
 30
0.0
 40
3.5
 41
0.0
 71
     2
 72
     1
  1
\A1;19.05 [3/4]
  7
SLDTEXTSTYLE0
 73
     1
 44
1.0
  0
POINT
  5
5F0
330
5E4
100
AcDbEntity
  8
Defpoints
 62
     0
100
AcDbPoint
 10
158.0550445333254
 20
-42.46467858004625
 30
0.0
  0
POINT
  5
5F1
330
5E4
100
AcDbEntity
  8
Defpoints
 62
     0
100
AcDbPoint
 10
139.0050445333254
 20
-43.00486510087525
 30
0.0
  0
POINT
  5
5F2
330
5E4
100
AcDbEntity
  8
Defpoints
 62
     0
100
AcDbPoint
 10
139.0050445333254
 20
-30.91967594192139
 30
0.0
  0
ENDBLK
  5
5E6
330
5E4
100
AcDbEntity
  8
0
100
AcDbBlockEnd
  0
BLOCK
  5
5F4
330
5F3
100
AcDbEntity
  8
0
100
AcDbBlockBegin
  2
*D22
 70
     1
 10
0.0
 20
0.0
 30
0.0
  3
*D22
  1
*D22
  0
LINE
  5
5F6
330
5F3
100
AcDbEntity
  8
치수문자_일반주서
 62
     0
370
    -2
100
AcDbLine
 10
78.68004453332534
 20
-42.03842858004626
 30
0.0
 11
78.68004453332534
 21
-20.82871118717195
 31
0.0
  0
LINE
  5
5F7
330
5F3
100
AcDbEntity
  8
치수문자_일반주서
 62
     0
370
    -2
100
AcDbLine
 10
158.0550445333254
 20
-42.40217858004625
 30
0.0
 11
158.0550445333254
 21
-20.82871118717195
 31
0.0
  0
LINE
  5
5F8
330
5F3
100
AcDbEntity
  8
치수문자_일반주서
 62
     0
370
    -2
100
AcDbLine
 10
81.98204453332534
 20
-20.82871118717195
 30
0.0
 11
154.7530445333254
 21
-20.82871118717195
 31
0.0
  0
SOLID
  5
5F9
330
5F3
100
AcDbEntity
  8
치수문자_일반주서
 62
     0
100
AcDbTrace
 10
81.98204453332534
 20
-20.27837785383862
 30
0.0
 11
81.98204453332534
 21
-21.37904452050529
 31
0.0
 12
78.68004453332534
 22
-20.82871118717195
 32
0.0
 13
78.68004453332534
 23
-20.82871118717195
 33
0.0
  0
SOLID
  5
5FA
330
5F3
100
AcDbEntity
  8
치수문자_일반주서
 62
     0
100
AcDbTrace
 10
154.7530445333254
 20
-21.37904452050529
 30
0.0
 11
154.7530445333254
 21
-20.27837785383862
 31
0.0
 12
158.0550445333254
 22
-20.82871118717195
 32
0.0
 13
158.0550445333254
 23
-20.82871118717195
 33
0.0
  0
MTEXT
  5
5FB
330
5F3
100
AcDbEntity
  8
치수문자_일반주서
 62
     0
100
AcDbMText
 10
119.2902996607602
 20
-16.45371118717195
 30
0.0
 40
3.5
 41
0.0
 71
     2
 72
     1
  1
\A1;79.38 [3 1/8]
  7
SLDTEXTSTYLE0
 73
     1
 44
1.0
  0
POINT
  5
5FC
330
5F3
100
AcDbEntity
  8
Defpoints
 62
     0
100
AcDbPoint
 10
78.68004453332534
 20
-42.10092858004626
 30
0.0
  0
POINT
  5
5FD
330
5F3
100
AcDbEntity
  8
Defpoints
 62
     0
100
AcDbPoint
 10
158.0550445333254
 20
-42.46467858004625
 30
0.0
  0
POINT
  5
5FE
330
5F3
100
AcDbEntity
  8
Defpoints
 62
     0
100
AcDbPoint
 10
158.0550445333254
 20
-20.82871118717195
 30
0.0
  0
ENDBLK
  5
5F5
330
5F3
100
AcDbEntity
  8
0
100
AcDbBlockEnd
  0
ENDSEC
  0
SECTION
  2
ENTITIES
  0
LINE
  5
96
330
1F
100
AcDbEntity
  8
외형선
  6
Continuous
370
    15
100
AcDbLine
 10
16.67518467149223
 20
2.381249999999997
 30
0.0
 11
-16.67518467149221
 21
2.381249999999995
 31
0.0
  0
LINE
  5
97
330
1F
100
AcDbEntity
  8
외형선
  6
Continuous
370
    15
100
AcDbLine
 10
-16.67518467149223
 20
-2.381250000000001
 30
0.0
 11
16.67518467149223
 21
-2.381249999999999
 31
0.0
  0
LINE
  5
98
330
1F
100
AcDbEntity
  8
외형선
  6
Continuous
370
    15
100
AcDbLine
 10
16.67518467149223
 20
-2.381250000000001
 30
0.0
 11
19.63750000000002
 21
-1.587500000000001
 31
0.0
  0
LINE
  5
99
330
1F
100
AcDbEntity
  8
외형선
  6
Continuous
370
    15
100
AcDbLine
 10
19.63750000000002
 20
1.587499999999999
 30
0.0
 11
16.67518467149223
 21
2.381249999999999
 31
0.0
  0
LINE
  5
9C
330
1F
100
AcDbEntity
  8
외형선
  6
Continuous
370
    15
100
AcDbLine
 10
19.74756418551181
 20
1.587499999999999
 30
0.0
 11
19.63750000000002
 21
1.587499999999999
 31
0.0
  0
LINE
  5
9D
330
1F
100
AcDbEntity
  8
외형선
  6
Continuous
370
    15
100
AcDbLine
 10
19.63750000000002
 20
-1.587500000000001
 30
0.0
 11
19.74756418551181
 21
-1.587500000000001
 31
0.0
  0
SPLINE
  5
9E
330
1F
100
AcDbEntity
  8
외형선
  6
Continuous
370
    15
100
AcDbSpline
210
0.0
220
0.0
230
1.0
 70
     8
 71
     3
 72
     9
 73
     5
 74
     0
 42
0.000000001
 43
0.00000001
 40
0.0
 40
0.0
 40
0.0
 40
0.0
 40
0.462112659489699
 40
1.0
 40
1.0
 40
1.0
 40
1.0
 10
20.63750000000002
 20
1.047313479165092
 30
0.0
 10
20.55061605562648
 20
1.049736148508571
 30
0.0
 10
20.36260141766029
 20
1.054978743130745
 30
0.0
 10
20.17442870818203
 20
1.06782920826541
 30
0.0
 10
20.07321298992415
 20
1.074741310781014
 30
0.0
  0
SPLINE
  5
9F
330
1F
100
AcDbEntity
  8
외형선
  6
Continuous
370
    15
100
AcDbSpline
210
0.0
220
0.0
230
1.0
 70
     8
 71
     3
 72
     9
 73
     5
 74
     0
 42
0.000000001
 43
0.00000001
 40
0.0
 40
0.0
 40
0.0
 40
0.0
 40
0.8741019233636625
 40
1.0
 40
1.0
 40
1.0
 40
1.0
 10
19.74758035408285
 20
-1.102922225500155
 30
0.0
 10
19.89564418046741
 20
-1.088098117003904
 30
0.0
 10
20.06503383907243
 20
-1.071138872206448
 30
0.0
 10
20.23443083122883
 20
-1.064374056609726
 30
0.0
 10
20.2557575867293
 20
-1.063522379337299
 30
0.0
  0
ARC
  5
A0
330
1F
100
AcDbEntity
  8
외형선
  6
Continuous
370
    15
100
AcDbCircle
 10
20.09756415447105
 20
1.423437006609092
 30
0.0
 40
0.3499999689679433
100
AcDbArc
 50
180.0201419426161
 51
266.3959110216305
  0
LINE
  5
A1
330
1F
100
AcDbEntity
  8
0
  6
Continuous
 62
     1
370
    15
100
AcDbLine
 10
26.24704892514639
 20
0.3441072298759991
 30
0.0
 11
26.04065183261567
 21
0.4564371813166317
 31
0.0
  0
SPLINE
  5
A2
330
1F
100
AcDbEntity
  8
0
  6
Continuous
 62
     1
370
    15
100
AcDbSpline
210
0.0
220
0.0
230
1.0
 70
     8
 71
     3
 72
     9
 73
     5
 74
     0
 42
0.000000001
 43
0.00000001
 40
0.0
 40
0.0
 40
0.0
 40
0.0
 40
0.499583537431313
 40
1.0
 40
1.0
 40
1.0
 40
1.0
 10
26.93485748269168
 20
0.4072100602969144
 30
0.0
 10
26.86186760017869
 20
0.4421560131381186
 30
0.0
 10
26.7157661435769
 20
0.5121061820745979
 30
0.0
 10
26.56964205099435
 20
0.5887974302150747
 30
0.0
 10
26.49651914948813
 20
0.6271749933195092
 30
0.0
  0
LINE
  5
A3
330
1F
100
AcDbEntity
  8
0
  6
Continuous
 62
     1
370
    15
100
AcDbLine
 10
35.16414196427297
 20
0.6119558364164279
 30
0.0
 11
35.13611487235237
 21
0.6264460782246896
 31
0.0
  0
SPLINE
  5
A4
330
1F
100
AcDbEntity
  8
0
  6
Continuous
 62
     1
370
    15
100
AcDbSpline
210
0.0
220
0.0
230
1.0
 70
     8
 71
     3
 72
     9
 73
     5
 74
     0
 42
0.000000001
 43
0.00000001
 40
0.0
 40
0.0
 40
0.0
 40
0.0
 40
0.533769827102743
 40
1.0
 40
1.0
 40
1.0
 40
1.0
 10
35.57407833764471
 20
0.4067418611343745
 30
0.0
 10
35.50114554694183
 20
0.4416081290290095
 30
0.0
 10
35.36450839174938
 20
0.5069289211087828
 30
0.0
 10
35.22785424891417
 20
0.5785594994784211
 30
0.0
 10
35.16414196427297
 20
0.611955836416428
 30
0.0
  0
LINE
  5
A5
330
1F
100
AcDbEntity
  8
0
  6
Continuous
 62
     1
370
    15
100
AcDbLine
 10
22.5242721067764
 20
-1.587500000000003
 30
0.0
 11
23.29361852925746
 21
-1.587500000000003
 31
0.0
  0
LINE
  5
A6
330
1F
100
AcDbEntity
  8
0
  6
Continuous
 62
     1
370
    15
100
AcDbLine
 10
31.9317318789203
 20
1.587500000000001
 30
0.0
 11
31.16255406604828
 21
1.587500000000001
 31
0.0
  0
LINE
  5
A7
330
1F
100
AcDbEntity
  8
0
  6
Continuous
 62
     1
370
    15
100
AcDbLine
 10
31.16255406604828
 20
-1.587500000000003
 30
0.0
 11
31.9317318789203
 21
-1.587500000000003
 31
0.0
  0
LINE
  5
A8
330
1F
100
AcDbEntity
  8
0
  6
Continuous
 62
     1
370
    15
100
AcDbLine
 10
23.29361852925746
 20
1.587500000000001
 30
0.0
 11
22.5242721067764
 21
1.587500000000001
 31
0.0
  0
SPLINE
  5
A9
330
1F
100
AcDbEntity
  8
0
  6
Continuous
 62
     1
370
    15
100
AcDbSpline
210
0.0
220
0.0
230
1.0
 70
     8
 71
     3
 72
    11
 73
     7
 74
     0
 42
0.000000001
 43
0.00000001
 40
0.0
 40
0.0
 40
0.0
 40
0.0
 40
0.3669896859142905
 40
0.5341912761451496
 40
0.6693686536827469
 40
1.0
 40
1.0
 40
1.0
 40
1.0
 10
24.02494295638087
 20
-1.320987656942789
 30
0.0
 10
24.3170832483891
 20
-1.295710592061964
 30
0.0
 10
24.74232352459058
 20
-1.258917221392019
 30
0.0
 10
25.27437860554496
 20
-1.242148712784896
 30
0.0
 10
25.77805460687821
 20
-1.236399594598726
 30
0.0
 10
26.1486991534093
 20
-1.251063661330449
 30
0.0
 10
26.41178290248676
 20
-1.261472225785558
 30
0.0
  0
SPLINE
  5
AA
330
1F
100
AcDbEntity
  8
0
  6
Continuous
 62
     1
370
    15
100
AcDbSpline
210
0.0
220
0.0
230
1.0
 70
     8
 71
     3
 72
     9
 73
     5
 74
     0
 42
0.000000001
 43
0.00000001
 40
0.0
 40
0.0
 40
0.0
 40
0.0
 40
0.9645156807624653
 40
1.0
 40
1.0
 40
1.0
 40
1.0
 10
35.05083859653453
 20
1.261516706195697
 30
0.0
 10
34.62873550251317
 20
1.24583699795203
 30
0.0
 10
34.1911033287286
 20
1.22958043669916
 30
0.0
 10
33.75423008354721
 20
1.24794999911944
 30
0.0
 10
33.73872793384886
 20
1.248601830536615
 30
0.0
  0
SPLINE
  5
AB
330
1F
100
AcDbEntity
  8
0
  6
Continuous
 62
     1
370
    15
100
AcDbSpline
210
0.0
220
0.0
230
1.0
 70
     8
 71
     3
 72
     9
 73
     5
 74
     0
 42
0.000000001
 43
0.00000001
 40
0.0
 40
0.0
 40
0.0
 40
0.0
 40
0.5000761739788872
 40
0.9999999999999999
 40
0.9999999999999999
 40
0.9999999999999999
 40
0.9999999999999999
 10
32.66321619624608
 20
-1.320982258969867
 30
0.0
 10
33.06118237381077
 20
-1.287783112914415
 30
0.0
 10
33.85699348874203
 20
-1.221394934906851
 30
0.0
 10
34.65293064707056
 20
-1.248144140828381
 30
0.0
 10
35.05083859653453
 20
-1.261516706195699
 30
0.0
  0
SPLINE
  5
AC
330
1F
100
AcDbEntity
  8
0
  6
Continuous
 62
     1
370
    15
100
AcDbSpline
210
0.0
220
0.0
230
1.0
 70
     8
 71
     3
 72
     9
 73
     5
 74
     0
 42
0.000000001
 43
0.00000001
 40
0.0
 40
0.0
 40
0.0
 40
0.0
 40
0.6814559739650755
 40
1.0
 40
1.0
 40
1.0
 40
1.0
 10
26.41178290248676
 20
1.261472225785556
 30
0.0
 10
26.10904545329804
 20
1.249340659709776
 30
0.0
 10
25.66479452476449
 20
1.231538238806203
 30
0.0
 10
25.22069216722211
 20
1.246060177892629
 30
0.0
 10
25.07922601427896
 20
1.250686054835053
 30
0.0
  0
SPLINE
  5
AD
330
1F
100
AcDbEntity
  8
0
  6
Continuous
 62
     1
370
    15
100
AcDbSpline
210
0.0
220
0.0
230
1.0
 70
     8
 71
     3
 72
    11
 73
     7
 74
     0
 42
0.000000001
 43
0.00000001
 40
0.0
 40
0.0
 40
0.0
 40
0.0
 40
0.3854649313301929
 40
0.6670694839019838
 40
0.9171278013913845
 40
1.0
 40
1.0
 40
1.0
 40
1.0
 10
27.68550041796479
 20
-1.194030686982883
 30
0.0
 10
27.83763575843993
 20
-1.171530200632837
 30
0.0
 10
28.10091481395294
 20
-1.132591800282712
 30
0.0
 10
28.46155648539462
 20
-1.094498774596435
 30
0.0
 10
28.70346576570452
 20
-1.073223804885672
 30
0.0
 10
28.83467380937221
 20
-1.06658863773186
 30
0.0
 10
28.86733377452444
 20
-1.064937029172162
 30
0.0
  0
SPLINE
  5
AE
330
1F
100
AcDbEntity
  8
0
  6
Continuous
 62
     1
370
    15
100
AcDbSpline
210
0.0
220
0.0
230
1.0
 70
     8
 71
     3
 72
    18
 73
    14
 74
     0
 42
0.000000001
 43
0.00000001
 40
0.0
 40
0.0
 40
0.0
 40
0.0
 40
0.137498113433583
 40
0.2331622758146198
 40
0.3002282729912272
 40
0.3787829898378985
 40
0.4687578198611921
 40
0.5519716541687275
 40
0.6550827173695499
 40
0.7383796653818999
 40
0.7973034866977814
 40
0.8846622261559687
 40
1.0
 40
1.0
 40
1.0
 40
1.0
 10
39.09513751209249
 20
1.085611276497119
 30
0.0
 10
38.96795894446782
 20
1.075852539576059
 30
0.0
 10
38.75229602719779
 20
1.059304172091077
 30
0.0
 10
38.47542095038285
 20
1.048796533444311
 30
0.0
 10
38.25233595832616
 20
1.044514445627093
 30
0.0
 10
38.03471020595262
 20
1.044461957813935
 30
0.0
 10
37.80248326544422
 20
1.04948528743028
 30
0.0
 10
37.54723781163793
 20
1.060584227766953
 30
0.0
 10
37.2980219824382
 20
1.077152638858011
 30
0.0
 10
37.07158429146102
 20
1.097592122205443
 30
0.0
 10
36.85973534267382
 20
1.120297866937981
 30
0.0
 10
36.6180819731899
 20
1.149679945770363
 30
0.0
 10
36.43042802865871
 20
1.177953583084529
 30
0.0
 10
36.32364973305474
 20
1.194041765032816
 30
0.0
  0
SPLINE
  5
AF
330
1F
100
AcDbEntity
  8
0
  6
Continuous
 62
     1
370
    15
100
AcDbSpline
210
0.0
220
0.0
230
1.0
 70
     8
 71
     3
 72
     9
 73
     5
 74
     0
 42
0.000000001
 43
0.00000001
 40
0.0
 40
0.0
 40
0.0
 40
0.0
 40
0.4719409702305263
 40
1.0
 40
1.0
 40
1.0
 40
1.0
 10
21.82056361021046
 20
1.085771612064269
 30
0.0
 10
21.63331138701435
 20
1.071936483609346
 30
0.0
 10
21.23654095382935
 20
1.042621104509784
 30
0.0
 10
20.84451358959866
 20
1.045691911699751
 30
0.0
 10
20.63749999999992
 20
1.047313479165094
 30
0.0
  0
SPLINE
  5
B0
330
1F
100
AcDbEntity
  8
0
  6
Continuous
 62
     1
370
    15
100
AcDbSpline
210
0.0
220
0.0
230
1.0
 70
     8
 71
     3
 72
    12
 73
     8
 74
     0
 42
0.000000001
 43
0.00000001
 40
0.0
 40
0.0
 40
0.0
 40
0.0
 40
0.265731908150236
 40
0.4670016548787805
 40
0.6027589090021752
 40
0.7946705109058421
 40
1.0
 40
1.0
 40
1.0
 40
1.0
 10
36.32364973305474
 20
-1.194041765032818
 30
0.0
 10
36.43042801160873
 20
-1.177956556273952
 30
0.0
 10
36.61808192617598
 20
-1.149688144092099
 30
0.0
 10
36.85973546088685
 20
-1.120277252879598
 30
0.0
 10
37.07158395542932
 20
-1.097650719628368
 30
0.0
 10
37.28511112843297
 20
-1.077981041058671
 30
0.0
 10
37.44445609106589
 20
-1.068209951551767
 30
0.0
 10
37.52681972491091
 20
-1.063159384372762
 30
0.0
  0
SPLINE
  5
B1
330
1F
100
AcDbEntity
  8
0
  6
Continuous
 62
     1
370
    15
100
AcDbSpline
210
0.0
220
0.0
230
1.0
 70
     8
 71
     3
 72
    11
 73
     7
 74
     0
 42
0.000000001
 43
0.00000001
 40
0.0
 40
0.0
 40
0.0
 40
0.0
 40
0.3310222570585232
 40
0.5123130771007522
 40
0.6492335799628409
 40
0.9999999999999999
 40
0.9999999999999999
 40
0.9999999999999999
 40
0.9999999999999999
 10
30.45835401636236
 20
1.085734770327874
 30
0.0
 10
30.15215268815173
 20
1.066209975366474
 30
0.0
 10
29.67825420754235
 20
1.035992044175618
 30
0.0
 10
29.07903095470034
 20
1.050987042119414
 30
0.0
 10
28.46078265905135
 20
1.086941330054073
 30
0.0
 10
28.00983924792511
 20
1.149229922968456
 30
0.0
 10
27.68550041796479
 20
1.194030686982881
 30
0.0
  0
LINE
  5
B2
330
1F
100
AcDbEntity
  8
외형선
  6
Continuous
370
    15
100
AcDbLine
 10
16.67518467149223
 20
2.381249999999999
 30
0.0
 11
16.67518467149223
 21
-2.381249999999999
 31
0.0
  0
LINE
  5
B4
330
1F
100
AcDbEntity
  8
외형선
  6
Continuous
370
    15
100
AcDbLine
 10
19.63750000000002
 20
1.587499999999999
 30
0.0
 11
19.63750000000002
 21
-1.587500000000001
 31
0.0
  0
SPLINE
  5
B6
330
1F
100
AcDbEntity
  8
외형선
  6
Continuous
370
    15
100
AcDbSpline
210
0.0
220
0.0
230
1.0
 70
     8
 71
     3
 72
    10
 73
     6
 74
     0
 42
0.000000001
 43
0.00000001
 40
0.0
 40
0.0
 40
0.0
 40
0.0
 40
0.5
 40
0.5
 40
1.0
 40
1.0
 40
1.0
 40
1.0
 10
20.63750000000002
 20
-0.9025523134634891
 30
0.0
 10
20.49042805518286
 20
-0.8322957089004381
 30
0.0
 10
20.34083196872517
 20
-0.7576951772441247
 30
0.0
 10
20.04241016800677
 20
-0.6026189046097634
 30
0.0
 10
19.89498937836396
 20
-0.5224141348206494
 30
0.0
 10
19.74763122038316
 20
-0.4403097925227837
 30
0.0
  0
LINE
  5
B7
330
1F
100
AcDbEntity
  8
외형선
  6
Continuous
370
    15
100
AcDbLine
 10
20.63750000000002
 20
-0.9025523134634869
 30
0.0
 11
20.63750000000002
 21
-1.22813176707446
 31
0.0
  0
SPLINE
  5
B8
330
1F
100
AcDbEntity
  8
외형선
  6
Continuous
370
    15
100
AcDbSpline
210
0.0
220
0.0
230
1.0
 70
     8
 71
     3
 72
    10
 73
     6
 74
     0
 42
0.000000001
 43
0.00000001
 40
0.0
 40
0.0
 40
0.0
 40
0.0
 40
0.5
 40
0.5
 40
1.0
 40
1.0
 40
1.0
 40
1.0
 10
20.63750000000002
 20
-1.228131767074459
 30
0.0
 10
20.49041690443145
 20
-1.174013371068683
 30
0.0
 10
20.34080928316408
 20
-1.114219423476172
 30
0.0
 10
20.04236497604056
 20
-0.985471893968033
 30
0.0
 10
19.89493422666237
 20
-0.9167581516176713
 30
0.0
 10
19.74756418551181
 20
-0.8443866435154804
 30
0.0
  0
LINE
  5
B9
330
1F
100
AcDbEntity
  8
외형선
  6
Continuous
370
    15
100
AcDbLine
 10
19.74756418551181
 20
-1.587500000000001
 30
0.0
 11
19.74756418551181
 21
-0.8439273248499909
 31
0.0
  0
LINE
  5
BA
330
1F
100
AcDbEntity
  8
외형선
  6
Continuous
370
    15
100
AcDbLine
 10
20.25590872166328
 20
1.06358754953606
 30
0.0
 11
20.63750000000002
 21
1.228131767074457
 31
0.0
  0
LINE
  5
BB
330
1F
100
AcDbEntity
  8
외형선
  6
Continuous
370
    15
100
AcDbLine
 10
19.74756418551181
 20
-0.440244425655926
 30
0.0
 11
19.74756418551181
 21
1.587499999999999
 31
0.0
  0
SPLINE
  5
BC
330
1F
100
AcDbEntity
  8
외형선
  6
Continuous
370
    15
100
AcDbSpline
210
0.0
220
0.0
230
1.0
 70
    24
 71
     3
 72
     8
 73
     4
 74
     0
 42
0.000000001
 43
0.00000001
 40
0.0
 40
0.0
 40
0.0
 40
0.0
 40
1.0
 40
1.0
 40
1.0
 40
1.0
 10
20.63750000000002
 20
-0.6988684431467018
 30
0.0
 10
20.63750000000002
 20
-0.7623609056502353
 30
0.0
 10
20.63750000000002
 20
-0.8306723561222046
 30
0.0
 10
20.63750000000002
 20
-0.9025523134631225
 30
0.0
  0
SPLINE
  5
BD
330
1F
100
AcDbEntity
  8
외형선
  6
Continuous
370
    15
100
AcDbSpline
210
0.0
220
0.0
230
1.0
 70
     8
 71
     3
 72
    10
 73
     6
 74
     0
 42
0.000000001
 43
0.00000001
 40
0.0
 40
0.0
 40
0.0
 40
0.0
 40
0.5000000000000001
 40
0.5000000000000001
 40
1.0
 40
1.0
 40
1.0
 40
1.0
 10
20.6374999999988
 20
-0.6988684431461847
 30
0.0
 10
20.49042805518182
 20
-0.6367714107901937
 30
0.0
 10
20.34083196872434
 20
-0.5712669477292385
 30
0.0
 10
20.04241016800636
 20
-0.4359245946838446
 30
0.0
 10
19.89498937836376
 20
-0.3663204641637697
 30
0.0
 10
19.74763122038316
 20
-0.2954443459535434
 30
0.0
  0
SPLINE
  5
BE
330
1F
100
AcDbEntity
  8
외형선
  6
Continuous
370
    15
100
AcDbSpline
210
0.0
220
0.0
230
1.0
 70
    24
 71
     3
 72
    10
 73
     6
 74
     0
 42
0.000000001
 43
0.00000001
 40
0.0
 40
0.0
 40
0.0
 40
0.0
 40
0.5
 40
0.5
 40
1.0
 40
1.0
 40
1.0
 40
1.0
 10
20.63750000000002
 20
0.7636590534532594
 30
0.0
 10
20.63750000000002
 20
0.552304186992507
 30
0.0
 10
20.63750000000002
 20
0.3033970999587086
 30
0.0
 10
20.63750000000002
 20
-0.2078287320527851
 30
0.0
 10
20.63750000000002
 20
-0.4679469611972962
 30
0.0
 10
20.63750000000002
 20
-0.6988684431467014
 30
0.0
  0
SPLINE
  5
BF
330
1F
100
AcDbEntity
  8
외형선
  6
Continuous
370
    15
100
AcDbSpline
210
0.0
220
0.0
230
1.0
 70
     8
 71
     3
 72
    12
 73
     8
 74
     0
 42
0.000000001
 43
0.00000001
 40
0.0
 40
0.0
 40
0.0
 40
0.0
 40
0.2499999999999999
 40
0.2499999999999999
 40
0.4999999999999998
 40
0.4999999999999998
 40
1.0
 40
1.0
 40
1.0
 40
1.0
 10
20.04322199805992
 20
0.9632125651210571
 30
0.0
 10
19.98186336788459
 20
0.9816600426477927
 30
0.0
 10
19.93849668387137
 20
1.018565570360619
 30
0.0
 10
19.867902890832
 20
1.092989779388516
 30
0.0
 10
19.84062812278029
 20
1.132756949344236
 30
0.0
 10
19.77413831867018
 20
1.252125777084902
 30
0.0
 10
19.7475641855118
 20
1.334004778597224
 30
0.0
 10
19.74756418551179
 20
1.421610331800521
 30
0.0
  0
SPLINE
  5
C0
330
1F
100
AcDbEntity
  8
외형선
  6
Continuous
370
    15
100
AcDbSpline
210
0.0
220
0.0
230
1.0
 70
     8
 71
     3
 72
     8
 73
     4
 74
     0
 42
0.000000001
 43
0.00000001
 40
0.0
 40
0.0
 40
0.0
 40
0.0
 40
1.0
 40
1.0
 40
1.0
 40
1.0
 10
20.63749999999999
 20
0.7636590534532705
 30
0.0
 10
20.44159271583238
 20
0.8363759884552957
 30
0.0
 10
20.24119958952687
 20
0.9036905849375437
 30
0.0
 10
20.04322199805992
 20
0.9632125651210561
 30
0.0
  0
SPLINE
  5
C1
330
1F
100
AcDbEntity
  8
외형선
  6
Continuous
370
    15
100
AcDbSpline
210
0.0
220
0.0
230
1.0
 70
    24
 71
     3
 72
    10
 73
     6
 74
     0
 42
0.000000001
 43
0.00000001
 40
0.0
 40
0.0
 40
0.0
 40
0.0
 40
0.1233611355782312
 40
0.4210826401637193
 40
1.0
 40
1.0
 40
1.0
 40
1.0
 10
20.63750000000002
 20
1.041409468871975
 30
0.0
 10
20.63750000000002
 20
1.042641178617243
 30
0.0
 10
20.63750000000002
 20
1.046845514034729
 30
0.0
 10
20.63750000000002
 20
0.9891241572497066
 30
0.0
 10
20.63750000000002
 20
0.8533331316164621
 30
0.0
 10
20.63750000000002
 20
0.7636590534532598
 30
0.0
  0
SPLINE
  5
C2
330
1F
100
AcDbEntity
  8
외형선
  6
Continuous
370
    15
100
AcDbSpline
210
0.0
220
0.0
230
1.0
 70
    24
 71
     3
 72
    10
 73
     6
 74
     0
 42
0.000000001
 43
0.00000001
 40
0.0
 40
0.0
 40
0.0
 40
0.0
 40
0.1883550669884994
 40
0.6751647219642584
 40
1.0
 40
1.0
 40
1.0
 40
1.0
 10
20.63750000000002
 20
1.228131767074459
 30
0.0
 10
20.63750000000002
 20
1.215699349518856
 30
0.0
 10
20.63750000000002
 20
1.171134953792858
 30
0.0
 10
20.63750000000002
 20
1.108047947033144
 30
0.0
 10
20.63750000000002
 20
1.064672952356529
 30
0.0
 10
20.63750000000002
 20
1.047313479165095
 30
0.0
  0
SPLINE
  5
C3
330
1F
100
AcDbEntity
  8
0
  6
Continuous
 62
     1
370
    15
100
AcDbSpline
210
0.0
220
0.0
230
1.0
 70
     8
 71
     3
 72
    20
 73
    16
 74
     0
 42
0.000000001
 43
0.00000001
 40
0.0
 40
0.0
 40
0.0
 40
0.0
 40
0.0778393253798318
 40
0.155667923712938
 40
0.2334871780776594
 40
0.3112984833352549
 40
0.3891032444005453
 40
0.4680315516694716
 40
0.5469576478925785
 40
0.6258820991518836
 40
0.7048054726639126
 40
0.7837283363889657
 40
0.8626512586392865
 40
0.9415748076867095
 40
1.0
 40
1.0
 40
1.0
 40
1.0
 10
20.63750000000002
 20
1.22813176707446
 30
0.0
 10
20.91060655937248
 20
1.317447168241914
 30
0.0
 10
21.45678204126983
 20
1.496065662010721
 30
0.0
 10
22.27596461065485
 20
1.603245614434356
 30
0.0
 10
23.09503004869247
 20
1.576979453690595
 30
0.0
 10
23.91399846263888
 20
1.409755527742234
 30
0.0
 10
24.73682982124649
 20
1.117548266979773
 30
0.0
 10
25.56361500440774
 20
0.7235729124524648
 30
0.0
 10
26.39431064951298
 20
0.2622239087355625
 30
0.0
 10
27.22498905565893
 20
-0.2229825519052061
 30
0.0
 10
28.05565291182896
 20
-0.6876340552643899
 30
0.0
 10
28.88631055384181
 20
-1.091279813455328
 30
0.0
 10
29.71696897901408
 20
-1.391222262659865
 30
0.0
 10
30.47571621498019
 20
-1.566537646377449
 30
0.0
 10
30.95757972251018
 20
-1.571500492685906
 30
0.0
 10
31.16255406604828
 20
-1.573611580469604
 30
0.0
  0
SPLINE
  5
C4
330
1F
100
AcDbEntity
  8
0
  6
Continuous
 62
     1
370
    15
100
AcDbSpline
210
0.0
220
0.0
230
1.0
 70
     8
 71
     3
 72
    10
 73
     6
 74
     0
 42
0.000000001
 43
0.00000001
 40
0.0
 40
0.0
 40
0.0
 40
0.0
 40
0.2306379809232109
 40
0.615302514459669
 40
1.0
 40
1.0
 40
1.0
 40
1.0
 10
37.52681972491091
 20
1.063159384372761
 30
0.0
 10
37.69292788797983
 20
1.134753356630699
 30
0.0
 10
38.13607593323877
 20
1.325753776310632
 30
0.0
 10
38.85630099542065
 20
1.521856653215232
 30
0.0
 10
39.41042575403088
 20
1.564723785185783
 30
0.0
 10
39.68750000000004
 20
1.587500000000005
 30
0.0
  0
SPLINE
  5
C5
330
1F
100
AcDbEntity
  8
0
  6
Continuous
 62
     1
370
    15
100
AcDbSpline
210
0.0
220
0.0
230
1.0
 70
    24
 71
     3
 72
    10
 73
     6
 74
     0
 42
0.000000001
 43
0.00000001
 40
0.0
 40
0.0
 40
0.0
 40
0.0
 40
0.5
 40
0.5
 40
1.0
 40
1.0
 40
1.0
 40
1.0
 10
39.68750000000003
 20
1.111249999999999
 30
0.0
 10
39.68750000000004
 20
1.17861120768161
 30
0.0
 10
39.68750000000004
 20
1.256891169326548
 30
0.0
 10
39.68750000000002
 20
1.421122318025358
 30
0.0
 10
39.68750000000004
 20
1.506654079334839
 30
0.0
 10
39.68750000000004
 20
1.587500000000005
 30
0.0
  0
LINE
  5
C6
330
1F
100
AcDbEntity
  8
0
  6
Continuous
 62
     1
370
    15
100
AcDbLine
 10
39.68750000000003
 20
1.111249999999999
 30
0.0
 11
39.09264841727961
 21
1.075208908946768
 31
0.0
  0
SPLINE
  5
C7
330
1F
100
AcDbEntity
  8
0
  6
Continuous
 62
     1
370
    15
100
AcDbSpline
210
0.0
220
0.0
230
1.0
 70
     8
 71
     3
 72
    14
 73
    10
 74
     0
 42
0.000000001
 43
0.00000001
 40
0.0
 40
0.0
 40
0.0
 40
0.0
 40
0.1343940673957235
 40
0.2915317775535104
 40
0.4486742767826427
 40
0.605822787687058
 40
0.7629785286442442
 40
0.9201427129558865
 40
1.0
 40
1.0
 40
1.0
 40
1.0
 10
27.10478919751998
 20
-0.1504194459457953
 30
0.0
 10
26.86796868168614
 20
-0.0547688183733382
 30
0.0
 10
26.35425027669964
 20
0.1527194883701378
 30
0.0
 10
25.56362330378973
 20
0.464882065614679
 30
0.0
 10
24.73289756172968
 20
0.7492814672893781
 30
0.0
 10
23.90213591050864
 20
0.9673741427386546
 30
0.0
 10
23.07133517396297
 20
1.092965547009237
 30
0.0
 10
22.3767202068454
 20
1.130069773044766
 30
0.0
 10
21.95905760205547
 20
1.08812606591782
 30
0.0
 10
21.81833869449185
 20
1.073994389827162
 30
0.0
  0
SPLINE
  5
C8
330
1F
100
AcDbEntity
  8
외형선
  6
Continuous
370
    15
100
AcDbSpline
210
0.0
220
0.0
230
1.0
 70
    24
 71
     3
 72
    10
 73
     6
 74
     0
 42
0.000000001
 43
0.00000001
 40
0.0
 40
0.0
 40
0.0
 40
0.0
 40
0.1883550669885028
 40
0.675164721964261
 40
0.9999999999999999
 40
0.9999999999999999
 40
0.9999999999999999
 40
0.9999999999999999
 10
20.63750000000002
 20
1.228131767074459
 30
0.0
 10
20.63750000000002
 20
1.215699349518856
 30
0.0
 10
20.63750000000002
 20
1.171134953792857
 30
0.0
 10
20.63750000000002
 20
1.108047947033144
 30
0.0
 10
20.63750000000002
 20
1.064672952356529
 30
0.0
 10
20.63750000000002
 20
1.047313479165095
 30
0.0
  0
SPLINE
  5
C9
330
1F
100
AcDbEntity
  8
0
  6
Continuous
 62
     1
370
    15
100
AcDbSpline
210
0.0
220
0.0
230
1.0
 70
     8
 71
     3
 72
    10
 73
     6
 74
     0
 42
0.000000001
 43
0.00000001
 40
0.0
 40
0.0
 40
0.0
 40
0.0
 40
0.4342334271607245
 40
0.868407012560999
 40
1.0
 40
1.0
 40
1.0
 40
1.0
 10
20.63750000000002
 20
-1.228131767074462
 30
0.0
 10
20.91060632569582
 20
-1.31551933924892
 30
0.0
 10
21.45678134027208
 20
-1.490282440706078
 30
0.0
 10
22.0857012383807
 20
-1.594764750049474
 30
0.0
 10
22.4415130050687
 20
-1.57683404917832
 30
0.0
 10
22.5242721067764
 20
-1.572663504986095
 30
0.0
  0
SPLINE
  5
CA
330
1F
100
AcDbEntity
  8
0
  6
Continuous
 62
     1
370
    15
100
AcDbSpline
210
0.0
220
0.0
230
1.0
 70
     8
 71
     3
 72
    21
 73
    17
 74
     0
 42
0.000000001
 43
0.00000001
 40
0.0
 40
0.0
 40
0.0
 40
0.0
 40
0.0016457491114393
 40
0.078426499270726
 40
0.1552078592142216
 40
0.2319903813684389
 40
0.3087746173579134
 40
0.3855611176253638
 40
0.4623504310535958
 40
0.5391431045897039
 40
0.6159396828721175
 40
0.6927407078610354
 40
0.7695467184727797
 40
0.8463582502185941
 40
0.9231758348484002
 40
1.0
 40
1.0
 40
1.0
 40
1.0
 10
28.86850575630389
 20
1.065496495030622
 30
0.0
 10
28.87444062967991
 20
1.06833580832292
 30
0.0
 10
29.15726098137319
 20
1.203640394119111
 30
0.0
 10
29.71696889139181
 20
1.387841245443563
 30
0.0
 10
30.54763518479957
 20
1.573488487528895
 30
0.0
 10
31.37831653111363
 20
1.606389367999093
 30
0.0
 10
32.20902013300004
 20
1.496475217760236
 30
0.0
 10
33.0397531231328
 20
1.250240463790057
 30
0.0
 10
33.87052262688908
 20
0.8909123646592225
 30
0.0
 10
34.70133574194855
 20
0.4508130504131231
 30
0.0
 10
35.53219952664082
 20
-0.0301847906638599
 30
0.0
 10
36.36312103663984
 20
-0.5082640740384061
 30
0.0
 10
37.19410715978756
 20
-0.9410354451703435
 30
0.0
 10
38.02516521045011
 20
-1.285770542702788
 30
0.0
 10
38.85630068769775
 20
-1.524303009836563
 30
0.0
 10
39.41042565145365
 20
-1.565539260676603
 30
0.0
 10
39.68750000000004
 20
-1.587499999999992
 30
0.0
  0
SPLINE
  5
CB
330
1F
100
AcDbEntity
  8
0
  6
Continuous
 62
     1
370
    15
100
AcDbSpline
210
0.0
220
0.0
230
1.0
 70
     8
 71
     3
 72
    15
 73
    11
 74
     0
 42
0.000000001
 43
0.00000001
 40
0.0
 40
0.0
 40
0.0
 40
0.0
 40
0.0401323240636385
 40
0.1972862089997824
 40
0.3544314027414187
 40
0.511569117349184
 40
0.6687005701326793
 40
0.825826982802631
 40
0.9829495806165107
 40
1.0
 40
1.0
 40
1.0
 40
1.0
 10
35.74436658457885
 20
-0.149961260058117
 30
0.0
 10
35.67364050833227
 20
-0.1222137792073048
 30
0.0
 10
35.32595868861033
 20
0.0141898663346345
 30
0.0
 10
34.70134194568035
 20
0.2716372147156159
 30
0.0
 10
33.87052890258434
 20
0.584331751360178
 30
0.0
 10
33.03975992774048
 20
0.8447996950593044
 30
0.0
 10
32.20902731257766
 20
1.030958813872569
 30
0.0
 10
31.37832423936917
 20
1.114023992498707
 30
0.0
 10
30.79448392824587
 20
1.127110723394231
 30
0.0
 10
30.48754401256751
 20
1.085064996077517
 30
0.0
 10
30.45749656680317
 20
1.080948989502162
 30
0.0
  0
SPLINE
  5
CC
330
1F
100
AcDbEntity
  8
0
  6
Continuous
 62
     1
370
    15
100
AcDbSpline
210
0.0
220
0.0
230
1.0
 70
     8
 71
     3
 72
    20
 73
    16
 74
     0
 42
0.000000001
 43
0.00000001
 40
0.0
 40
0.0
 40
0.0
 40
0.0
 40
0.0655519304589047
 40
0.1452002328601455
 40
0.2248461866238079
 40
0.3044903628566102
 40
0.3841333338912206
 40
0.46377567289209
 40
0.543417953460058
 40
0.623060749236317
 40
0.7027046335063125
 40
0.7823501788041723
 40
0.861997956518242
 40
0.940513185752418
 40
1.0
 40
1.0
 40
1.0
 40
1.0
 10
33.72347538054704
 20
-1.253219382977423
 30
0.0
 10
33.49557210728814
 20
-1.329037647125893
 30
0.0
 10
32.99075694600884
 20
-1.496978233045194
 30
0.0
 10
32.20904567381591
 20
-1.601520946491864
 30
0.0
 10
31.37834476127435
 20
-1.579914749149472
 30
0.0
 10
30.54766629457606
 20
-1.411842092451738
 30
0.0
 10
29.71700285155385
 20
-1.116748332006247
 30
0.0
 10
28.88634735164979
 20
-0.720232970987938
 30
0.0
 10
28.05569250809427
 20
-0.2585524613422374
 30
0.0
 10
27.2250314831431
 20
0.2266606499451527
 30
0.0
 10
26.3943558459734
 20
0.6910028582927068
 30
0.0
 10
25.56366311709496
 20
1.093987584881595
 30
0.0
 10
24.73687592824361
 20
1.391791995541425
 30
0.0
 10
23.98021570424799
 20
1.565855312154591
 30
0.0
 10
23.50043262034686
 20
1.571972810876159
 30
0.0
 10
23.29361852925746
 20
1.574609804509938
 30
0.0
  0
SPLINE
  5
CD
330
1F
100
AcDbEntity
  8
0
  6
Continuous
 62
     1
370
    15
100
AcDbSpline
210
0.0
220
0.0
230
1.0
 70
     8
 71
     3
 72
    15
 73
    11
 74
     0
 42
0.000000001
 43
0.00000001
 40
0.0
 40
0.0
 40
0.0
 40
0.0
 40
0.0794904651317323
 40
0.2241182272409826
 40
0.3687426169601062
 40
0.5133647201219909
 40
0.6579856241554906
 40
0.8026064173267754
 40
0.9472281879794414
 40
1.0
 40
1.0
 40
1.0
 40
1.0
 10
32.66560994378813
 20
-1.305701210631306
 30
0.0
 10
32.51341925058785
 20
-1.323322518769001
 30
0.0
 10
32.08432743050478
 20
-1.373004657814766
 30
0.0
 10
31.37834533820773
 20
-1.319916201670179
 30
0.0
 10
30.54766653370387
 20
-1.159121021177138
 30
0.0
 10
29.71700300763932
 20
-0.8877883809203811
 30
0.0
 10
28.88634737430053
 20
-0.536849151036818
 30
0.0
 10
28.05569234333288
 20
-0.139487018615603
 30
0.0
 10
27.40088711923764
 20
0.1913516886809625
 30
0.0
 10
27.02296514301697
 20
0.3630670737888775
 30
0.0
 10
26.92193031089392
 20
0.4089739969078221
 30
0.0
  0
SPLINE
  5
CE
330
1F
100
AcDbEntity
  8
0
  6
Continuous
 62
     1
370
    15
100
AcDbSpline
210
0.0
220
0.0
230
1.0
 70
     8
 71
     3
 72
    17
 73
    13
 74
     0
 42
0.000000001
 43
0.00000001
 40
0.0
 40
0.0
 40
0.0
 40
0.0
 40
0.1071679448355108
 40
0.2143267084599915
 40
0.3214770271076626
 40
0.4286196427509406
 40
0.5357553026108859
 40
0.6428847586600281
 40
0.7500087671182777
 40
0.8571280879426413
 40
0.9642434843114587
 40
1.0
 40
1.0
 40
1.0
 40
1.0
 10
39.68750000000004
 20
-1.506443629905643
 30
0.0
 10
39.41042657953575
 20
-1.44265869208928
 30
0.0
 10
38.85630347583151
 20
-1.315094280991452
 30
0.0
 10
38.02517079713007
 20
-0.9679685582770938
 30
0.0
 10
37.19411555662826
 20
-0.5429152280297993
 30
0.0
 10
36.36313225571973
 20
-0.0660978787513421
 30
0.0
 10
35.53221357070673
 20
0.4161838459584661
 30
0.0
 10
34.70135263986505
 20
0.8602172988648737
 30
0.0
 10
33.87054230156204
 20
1.228903625680517
 30
0.0
 10
33.0397758842617
 20
1.476325573202141
 30
0.0
 10
32.39351029755244
 20
1.5935446470821
 30
0.0
 10
32.02416726268765
 20
1.575853036642544
 30
0.0
 10
31.9317318789203
 20
1.571425361971377
 30
0.0
  0
SPLINE
  5
CF
330
1F
100
AcDbEntity
  8
0
  6
Continuous
 62
     1
370
    15
100
AcDbSpline
210
0.0
220
0.0
230
1.0
 70
     8
 71
     3
 72
    13
 73
     9
 74
     0
 42
0.000000001
 43
0.00000001
 40
0.0
 40
0.0
 40
0.0
 40
0.0
 40
0.0782538683458336
 40
0.2625654710164038
 40
0.4468925720366974
 40
0.631238497194766
 40
0.8156065484817664
 40
1.0
 40
1.0
 40
1.0
 40
1.0
 10
25.08063343473699
 20
-1.250180553140341
 30
0.0
 10
24.96473707953665
 20
-1.293980632089271
 30
0.0
 10
24.57586964415599
 20
-1.440943186182531
 30
0.0
 10
23.91403958947838
 20
-1.566111114418457
 30
0.0
 10
23.09506027336811
 20
-1.608308658828304
 30
0.0
 10
22.27598485530368
 20
-1.500680372716354
 30
0.0
 10
21.456792113415
 20
-1.268344977969569
 30
0.0
 10
20.91060991145159
 20
-1.024488800556573
 30
0.0
 10
20.63750000000008
 20
-0.9025523134635205
 30
0.0
  0
SPLINE
  5
D0
330
1F
100
AcDbEntity
  8
외형선
  6
Continuous
370
    15
100
AcDbSpline
210
0.0
220
0.0
230
1.0
 70
    24
 71
     3
 72
     8
 73
     4
 74
     0
 42
0.000000001
 43
0.00000001
 40
0.0
 40
0.0
 40
0.0
 40
0.0
 40
1.0
 40
1.0
 40
1.0
 40
1.0
 10
20.63750000000002
 20
-0.6988684431467018
 30
0.0
 10
20.63750000000002
 20
-0.7623609056502352
 30
0.0
 10
20.63750000000002
 20
-0.8306723561222046
 30
0.0
 10
20.63750000000002
 20
-0.9025523134631224
 30
0.0
  0
SPLINE
  5
D1
330
1F
100
AcDbEntity
  8
0
  6
Continuous
 62
     1
370
    15
100
AcDbSpline
210
0.0
220
0.0
230
1.0
 70
     8
 71
     3
 72
    12
 73
     8
 74
     0
 42
0.000000001
 43
0.00000001
 40
0.0
 40
0.0
 40
0.0
 40
0.0
 40
0.2010447800963389
 40
0.4020715684585865
 40
0.6030818073294192
 40
0.8040769503235357
 40
1.0
 40
1.0
 40
1.0
 40
1.0
 10
39.68750000000003
 20
-1.252493469684544
 30
0.0
 10
39.41042680910255
 20
-1.190838645252206
 30
0.0
 10
38.85630522291369
 20
-1.067534513950364
 30
0.0
 10
38.02517219211676
 20
-0.755213029571536
 30
0.0
 10
37.19411699764156
 20
-0.3833553483078689
 30
0.0
 10
36.37010423007401
 20
0.0247725366387229
 30
0.0
 10
35.82311300957539
 20
0.286849097877457
 30
0.0
 10
35.55311231410391
 20
0.4162128813340354
 30
0.0
  0
SPLINE
  5
D2
330
1F
100
AcDbEntity
  8
0
  6
Continuous
 62
     1
370
    15
100
AcDbSpline
210
0.0
220
0.0
230
1.0
 70
     8
 71
     3
 72
    12
 73
     8
 74
     0
 42
0.000000001
 43
0.00000001
 40
0.0
 40
0.0
 40
0.0
 40
0.0
 40
0.0367339094410224
 40
0.2818667497378556
 40
0.5270122442565687
 40
0.7634739354031574
 40
1.0
 40
1.0
 40
1.0
 40
1.0
 10
24.02668611478428
 20
-1.313282947947145
 30
0.0
 10
23.98518712946569
 20
-1.319857640949673
 30
0.0
 10
23.66675698448073
 20
-1.370306596025424
 30
0.0
 10
23.07137953489929
 20
-1.349589454519865
 30
0.0
 10
22.25034304270025
 20
-1.239962077450807
 30
0.0
 10
21.43908366857087
 20
-1.017531907028749
 30
0.0
 10
20.9047187984734
 20
-0.8050992351084799
 30
0.0
 10
20.6374999999988
 20
-0.6988684431461846
 30
0.0
  0
LINE
  5
D3
330
1F
100
AcDbEntity
  8
0
  6
Continuous
 62
     1
370
    15
100
AcDbLine
 10
39.68750000000003
 20
-1.506443629905645
 30
0.0
 11
39.68750000000003
 21
-1.252493469684544
 31
0.0
  0
LINE
  5
D4
330
1F
100
AcDbEntity
  8
0
  6
Continuous
 62
     1
370
    15
100
AcDbLine
 10
39.68750000000004
 20
-1.587499999999995
 30
0.0
 11
39.68750000000003
 21
-1.506443629905645
 31
0.0
  0
SPLINE
  5
D5
330
1F
100
AcDbEntity
  8
0
  6
Continuous
 62
     1
370
    15
100
AcDbSpline
210
0.0
220
0.0
230
1.0
 70
     8
 71
     3
 72
     8
 73
     4
 74
     0
 42
0.000000001
 43
0.00000001
 40
0.0
 40
0.0
 40
0.0
 40
0.0
 40
1.0
 40
1.0
 40
1.0
 40
1.0
 10
38.70470542367677
 20
0.444595294061054
 30
0.0
 10
38.64848835895954
 20
0.5111941627035262
 30
0.0
 10
38.59830531521142
 20
0.5753123870125391
 30
0.0
 10
38.55558004190779
 20
0.6363646498196541
 30
0.0
  0
LINE
  5
D6
330
1F
100
AcDbEntity
  8
0
  6
Continuous
 62
     1
370
    15
100
AcDbLine
 10
38.57568878093836
 20
0.6532378853236529
 30
0.0
 11
39.68750000000003
 21
0.0000000000000016
 31
0.0
  0
LINE
  5
D7
330
1F
100
AcDbEntity
  8
0
  6
Continuous
 62
     1
370
    15
100
AcDbLine
 10
39.68750000000003
 20
0.0000000000000016
 30
0.0
 11
39.68750000000003
 21
-0.4242481768220596
 31
0.0
  0
SPLINE
  5
D8
330
1F
100
AcDbEntity
  8
0
  6
Continuous
 62
     1
370
    15
100
AcDbSpline
210
0.0
220
0.0
230
1.0
 70
     8
 71
     3
 72
    10
 73
     6
 74
     0
 42
0.000000001
 43
0.00000001
 40
0.0
 40
0.0
 40
0.0
 40
0.0
 40
0.5
 40
0.5
 40
1.0
 40
1.0
 40
1.0
 40
1.0
 10
39.68750000000003
 20
-0.4242481768220595
 30
0.0
 10
39.51736692683637
 20
-0.2904929793885271
 30
0.0
 10
39.35007873072157
 20
-0.151248872511762
 30
0.0
 10
39.02132815369417
 20
0.1384796765982943
 30
0.0
 10
38.85833634150342
 20
0.2904950568556925
 30
0.0
 10
38.70470542368457
 20
0.4445952940531483
 30
0.0
  0
SPLINE
  5
D9
330
1F
100
AcDbEntity
  8
외형선
  6
Continuous
370
    15
100
AcDbSpline
210
0.0
220
0.0
230
1.0
 70
    24
 71
     3
 72
    10
 73
     6
 74
     0
 42
0.000000001
 43
0.00000001
 40
0.0
 40
0.0
 40
0.0
 40
0.0
 40
0.5
 40
0.5
 40
1.0
 40
1.0
 40
1.0
 40
1.0
 10
20.63750000000002
 20
0.7636590534532594
 30
0.0
 10
20.63750000000002
 20
0.5523041869925072
 30
0.0
 10
20.63750000000002
 20
0.3033970999587082
 30
0.0
 10
20.63750000000002
 20
-0.2078287320527852
 30
0.0
 10
20.63750000000002
 20
-0.4679469611972965
 30
0.0
 10
20.63750000000002
 20
-0.6988684431467014
 30
0.0
  0
SPLINE
  5
DA
330
1F
100
AcDbEntity
  8
0
  6
Continuous
 62
     1
370
    15
100
AcDbSpline
210
0.0
220
0.0
230
1.0
 70
     8
 71
     3
 72
    12
 73
     8
 74
     0
 42
0.000000001
 43
0.00000001
 40
0.0
 40
0.0
 40
0.0
 40
0.0
 40
0.2065880147559165
 40
0.4132150776273704
 40
0.6405236621348374
 40
0.8678166162046909
 40
1.0
 40
1.0
 40
1.0
 40
1.0
 10
38.70470542367655
 20
0.4445952940611959
 30
0.0
 10
38.45296539681435
 20
0.5501293450962025
 30
0.0
 10
37.94943776059265
 20
0.7612173946245557
 30
0.0
 10
37.16888575738745
 20
1.021402918568348
 30
0.0
 10
36.36312774890283
 20
1.202782611202618
 30
0.0
 10
35.64808631299971
 20
1.285817304381546
 30
0.0
 10
35.21004258833732
 20
1.257775509168167
 30
0.0
 10
35.04896911651983
 20
1.247464234159046
 30
0.0
  0
SPLINE
  5
DB
330
1F
100
AcDbEntity
  8
0
  6
Continuous
 62
     1
370
    15
100
AcDbSpline
210
0.0
220
0.0
230
1.0
 70
     8
 71
     3
 72
    16
 73
    12
 74
     0
 42
0.000000001
 43
0.00000001
 40
0.0
 40
0.0
 40
0.0
 40
0.0
 40
0.0662528025748028
 40
0.1839984091204224
 40
0.3017466162103484
 40
0.4194983186033481
 40
0.5372544086137924
 40
0.6550157754911787
 40
0.7727833048041941
 40
0.8863759656617375
 40
0.9999999999999999
 40
0.9999999999999999
 40
0.9999999999999999
 40
0.9999999999999999
 10
27.69240894768397
 20
-1.179617123784731
 30
0.0
 10
27.53660860849705
 20
-1.206192777636686
 30
0.0
 10
27.10391725904891
 20
-1.279999135104716
 30
0.0
 10
26.39432723334995
 20
-1.276653086809129
 30
0.0
 10
25.5636296226161
 20
-1.175920100394552
 30
0.0
 10
24.73290432862841
 20
-0.9635670348589078
 30
0.0
 10
23.90214288954942
 20
-0.6653507189742125
 30
0.0
 10
23.07134341639546
 20
-0.3061326905493119
 30
0.0
 10
22.25031392007324
 20
0.0748785759609513
 30
0.0
 10
21.43906300906711
 20
0.4491094642873578
 30
0.0
 10
20.90471226360192
 20
0.6587995392475181
 30
0.0
 10
20.63750000000002
 20
0.7636590534532592
 30
0.0
  0
SPLINE
  5
DC
330
1F
100
AcDbEntity
  8
0
  6
Continuous
 62
     1
370
    15
100
AcDbSpline
210
0.0
220
0.0
230
1.0
 70
    24
 71
     3
 72
    10
 73
     6
 74
     0
 42
0.000000001
 43
0.00000001
 40
0.0
 40
0.0
 40
0.0
 40
0.0
 40
0.5
 40
0.5
 40
1.0
 40
1.0
 40
1.0
 40
1.0
 10
39.68750000000003
 20
-1.252493469684543
 30
0.0
 10
39.68750000000004
 20
-1.156480080043541
 30
0.0
 10
39.68750000000004
 20
-1.035163480701519
 30
0.0
 10
39.68750000000003
 20
-0.7531140626517041
 30
0.0
 10
39.68750000000004
 20
-0.5926255658439535
 30
0.0
 10
39.68750000000003
 20
-0.4242481768221105
 30
0.0
  0
SPLINE
  5
DD
330
1F
100
AcDbEntity
  8
0
  6
Continuous
 62
     1
370
    15
100
AcDbSpline
210
0.0
220
0.0
230
1.0
 70
     8
 71
     3
 72
    19
 73
    15
 74
     0
 42
0.000000001
 43
0.00000001
 40
0.0
 40
0.0
 40
0.0
 40
0.0
 40
0.0799509846208606
 40
0.1637632355380478
 40
0.2475709719383292
 40
0.3313748234606127
 40
0.4151754224527744
 40
0.4989734035340632
 40
0.5827694031541321
 40
0.666564059149359
 40
0.750358010297099
 40
0.8341518958685389
 40
0.9179463551808177
 40
1.0
 40
1.0
 40
1.0
 40
1.0
 10
36.32477953898336
 20
-1.191385122777728
 30
0.0
 10
36.06058264717277
 20
-1.224396122714246
 30
0.0
 10
35.51942936398094
 20
-1.292012402658597
 30
0.0
 10
34.70134326646581
 20
-1.250320258849041
 30
0.0
 10
33.87053088942233
 20
-1.103384699687257
 30
0.0
 10
33.03976228403386
 20
-0.8541443879581331
 30
0.0
 10
32.20903014852401
 20
-0.5281382851988201
 30
0.0
 10
31.37832741409505
 20
-0.1541291194414124
 30
0.0
 10
30.54764692273992
 20
0.2338407671878376
 30
0.0
 10
29.71698151344682
 20
0.6004678947126113
 30
0.0
 10
28.88632403030145
 20
0.9133076919147286
 30
0.0
 10
28.05566723477591
 20
1.141088907087717
 30
0.0
 10
27.23076046267141
 20
1.27319842913229
 30
0.0
 10
26.6827372915033
 20
1.264561846227322
 30
0.0
 10
26.41160185178754
 20
1.260288881457258
 30
0.0
  0
SPLINE
  5
DE
330
1F
100
AcDbEntity
  8
0
  6
Continuous
 62
     1
370
    15
100
AcDbSpline
210
0.0
220
0.0
230
1.0
 70
    24
 71
     3
 72
     8
 73
     4
 74
     0
 42
0.000000001
 43
0.00000001
 40
0.0
 40
0.0
 40
0.0
 40
0.0
 40
1.0
 40
1.0
 40
1.0
 40
1.0
 10
38.72140102197996
 20
0.7755049730396655
 30
0.0
 10
38.66907355845534
 20
0.7315970176957247
 30
0.0
 10
38.61343116363165
 20
0.6849075047213337
 30
0.0
 10
38.55558004190778
 20
0.6363646498196439
 30
0.0
  0
SPLINE
  5
DF
330
1F
100
AcDbEntity
  8
0
  6
Continuous
 62
     1
370
    15
100
AcDbSpline
210
0.0
220
0.0
230
1.0
 70
     8
 71
     3
 72
     8
 73
     4
 74
     0
 42
0.000000001
 43
0.00000001
 40
0.0
 40
0.0
 40
0.0
 40
0.0
 40
1.0
 40
1.0
 40
1.0
 40
1.0
 10
39.68750000000003
 20
1.111250000000001
 30
0.0
 10
39.36098911934133
 20
1.022562296472517
 30
0.0
 10
39.03760172563285
 20
0.9136763805407461
 30
0.0
 10
38.72140102198993
 20
0.7755049730440424
 30
0.0
  0
SPLINE
  5
E0
330
1F
100
AcDbEntity
  8
외형선
  6
Continuous
370
    15
100
AcDbSpline
210
0.0
220
0.0
230
1.0
 70
    24
 71
     3
 72
    11
 73
     7
 74
     0
 42
0.000000001
 43
0.00000001
 40
0.0
 40
0.0
 40
0.0
 40
0.0
 40
0.1308071013319518
 40
0.4253205871738414
 40
0.7086390666317774
 40
1.0
 40
1.0
 40
1.0
 40
1.0
 10
20.63750000000002
 20
1.041319709732206
 30
0.0
 10
20.63750000000002
 20
1.042771222006501
 30
0.0
 10
20.63750000000002
 20
1.047490828560783
 30
0.0
 10
20.63750000000002
 20
1.002218272246433
 30
0.0
 10
20.63750000000002
 20
0.9120983541713045
 30
0.0
 10
20.63750000000002
 20
0.8135983125140943
 30
0.0
 10
20.63750000000002
 20
0.7636590534532599
 30
0.0
  0
LINE
  5
E1
330
1F
100
AcDbEntity
  8
0
  6
Continuous
 62
     1
370
    15
100
AcDbLine
 10
39.68750000000003
 20
0.0000000000000016
 30
0.0
 11
39.68750000000003
 21
1.11125
 31
0.0
  0
LINE
  5
E2
330
1F
100
AcDbEntity
  8
중심선
 48
0.8
100
AcDbLine
 10
-42.6875
 20
-0.0000000000000052
 30
0.0
 11
42.68750000000001
 21
0.0000000000000052
 31
0.0
  0
LINE
  5
E3
330
1F
100
AcDbEntity
  8
참조1
100
AcDbLine
 10
-10.23171167873052
 20
0.0010749287238892
 30
0.0
 11
-10.23171167873052
 21
-39.99892507127611
 31
0.0
  0
LINE
  5
E4
330
1F
100
AcDbEntity
  8
참조1
100
AcDbLine
 10
-10.23171167873052
 20
-39.99892507127611
 30
0.0
 11
-29.45992727542973
 21
-39.9989250712761
 31
0.0
  0
CIRCLE
  5
E5
330
1F
100
AcDbEntity
  8
해칭선
100
AcDbCircle
 10
0.0
 20
0.0
 30
0.0
 40
3.000000000000001
  0
INSERT
  5
E6
330
1F
100
AcDbEntity
  8
0
  6
Continuous
 62
     7
100
AcDbBlockReference
 66
     1
  2
블럭10
 10
-16.22362829639181
 20
-53.00609937264456
 30
0.0
  0
ATTRIB
  5
E7
330
E6
100
AcDbEntity
  8
FORMAT
 62
     2
100
AcDbText
 10
-25.40492358513309
 20
-50.93073245981237
 30
0.0
 40
4.233333333333333
  1
E2005008 [ 2 FLUTE ]
 41
0.75
  7
SLDTEXTSTYLE0
 11
-25.40492358513309
 21
-53.04739912647904
 31
0.0
100
AcDbAttribute
  2
AUTOATTR0
 70
     0
 74
     1
  0
SEQEND
  5
E8
330
E6
100
AcDbEntity
  8
0
  6
Continuous
 62
     7
  0
HATCH
  5
E9
330
1F
100
AcDbEntity
  8
중심선
100
AcDbHatch
 10
0.0
 20
0.0
 30
0.0
210
0.0
220
0.0
230
1.0
  2
SOLID
 70
     1
 71
     0
 91
        1
 92
        0
 93
        4
 72
     1
 10
-10.50871899201098
 20
-36.75892507100062
 11
-13.95499423584826
 21
-36.75892507100062
 72
     1
 10
-13.95499423584826
 20
-36.75892507100062
 11
-16.08322409505228
 21
-39.29525065157322
 72
     1
 10
-16.08322409505228
 20
-39.29525065157322
 11
-12.63691576610185
 21
-39.29521122227073
 72
     1
 10
-12.63691576610185
 20
-39.29521122227073
 11
-10.50871899201098
 21
-36.75892507100062
 97
        0
 75
     0
 76
     1
 98
        1
 10
7.948356314463915
 20
-0.9599999997245163
  0
HATCH
  5
EA
330
1F
100
AcDbEntity
  8
중심선
100
AcDbHatch
 10
0.0
 20
0.0
 30
0.0
210
0.0
220
0.0
230
1.0
  2
SOLID
 70
     1
 71
     0
 91
        1
 92
        0
 93
        4
 72
     1
 10
-5.495955000975025
 20
-36.7589250710006
 11
-8.94223024481225
 21
-36.75892507100062
 72
     1
 10
-8.94223024481225
 20
-36.75892507100062
 11
-13.4733682531697
 21
-42.15892507100064
 72
     1
 10
-13.4733682531697
 20
-42.15892507100064
 11
-10.02709300933241
 21
-42.15892507100064
 72
     1
 10
-10.02709300933241
 20
-42.15892507100064
 11
-5.495955000975025
 21
-36.7589250710006
 97
        0
 75
     0
 76
     1
 98
        1
 10
7.948356314463915
 20
-0.9599999997245163
  0
HATCH
  5
EB
330
1F
100
AcDbEntity
  8
중심선
100
AcDbHatch
 10
0.0
 20
0.0
 30
0.0
210
0.0
220
0.0
230
1.0
  2
SOLID
 70
     1
 71
     0
 91
        1
 92
        0
 93
        4
 72
     1
 10
-0.4831910099391283
 20
-36.7589250710006
 11
-3.929466253776244
 21
-36.75892507100062
 72
     1
 10
-3.929466253776244
 20
-36.75892507100062
 11
-10.97790315566549
 21
-45.15892507100064
 72
     1
 10
-10.97790315566549
 20
-45.15892507100064
 11
-7.531627911828211
 21
-45.15892507100064
 72
     1
 10
-7.531627911828211
 20
-45.15892507100064
 11
-0.4831910099391283
 21
-36.7589250710006
 97
        0
 75
     0
 76
     1
 98
        1
 10
7.948356314463915
 20
-0.9599999997245163
  0
HATCH
  5
EC
330
1F
100
AcDbEntity
  8
중심선
100
AcDbHatch
 10
0.0
 20
0.0
 30
0.0
210
0.0
220
0.0
230
1.0
  2
SOLID
 70
     1
 71
     0
 91
        1
 92
        0
 93
        6
 72
     3
 10
4.31669942107307
 20
-40.95892507105189
 11
3.960054785062284
 21
1.540882976769353E-10
 40
0.3939339440162627
 50
17.09539180608437
 51
320.0019657685087
 73
     0
 72
     1
 10
5.999699076773638
 20
-39.54681907563898
 11
8.305000950474703
 21
-37.61249236559103
 72
     3
 10
4.316699421020224
 20
-40.95892507100077
 11
6.60005478528683
 21
-1.278976924368180E-13
 40
0.636358354079598
 50
39.99873849337382
 51
368.4976242363725
 73
     1
 72
     1
 10
10.74203191292083
 20
-39.99892507093065
 11
2.996766727856174
 21
-39.99892507093065
 72
     1
 10
2.996766727856174
 20
-39.99892507093065
 11
2.996741683410212
 21
-41.91892507093053
 72
     1
 10
2.996741683410212
 20
-41.91892507093053
 11
7.43812145288225
 21
-41.91892507093051
 97
        0
 75
     0
 76
     1
 98
        1
 10
7.948356314463915
 20
-0.9599999997245163
  0
DIMENSION
  5
ED
330
1F
100
AcDbEntity
  8
치수문자_일반주서
100
AcDbDimension
  2
_D
 10
-52.6875
 20
-2.381250000000135
 30
0.0
 11
-52.68750000000001
 21
0.0000000000000031
 31
0.0
 70
   160
  1
%%c<>
 71
     2
 42
4.762499999999996
 52
-270.0
  3
SLDDIMSTYLE0
100
AcDbAlignedDimension
 13
-16.67518467149223
 23
2.381249999999995
 33
0.0
 14
-16.67518467149223
 24
-2.381250000000001
 34
0.0
 50
90.0000000000002
100
AcDbRotatedDimension
1001
ACAD
1000
DSTYLE
1002
{
1070
   171
1070
     6
1070
   273
1070
     7
1002
}
  0
DIMENSION
  5
102
330
1F
100
AcDbEntity
  8
치수문자_일반주서
100
AcDbDimension
  2
_D_1
 10
58.68750000000022
 20
1.58750000000008
 30
0.0
 11
58.68750000000014
 21
20.73037018544231
 31
0.0
 70
   160
  1
%%c<>
 71
     2
 42
3.175000000000002
 52
-270.0
  3
SLDDIMSTYLE0
100
AcDbAlignedDimension
 13
39.68750000000004
 23
-1.587499999999995
 33
0.0
 14
39.68750000000004
 24
1.587500000000008
 34
0.0
 50
90.0000000000002
100
AcDbRotatedDimension
1001
ACAD
1000
DSTYLE
1002
{
1070
   171
1070
     6
1070
   273
1070
     7
1002
}
  0
DIMENSION
  5
116
330
1F
100
AcDbEntity
  8
치수문자_일반주서
100
AcDbDimension
  2
_D_2
 10
20.63750000000002
 20
13.13250263812486
 30
0.0
 11
1.564750000000025
 21
13.13250263812486
 31
0.0
 70
   160
  1
<>
 71
     2
 42
19.05000000000001
  3
SLDDIMSTYLE0
100
AcDbAlignedDimension
 13
39.68750000000004
 23
1.587500000000008
 33
0.0
 14
20.63750000000002
 24
1.047313479171005
 34
0.0
100
AcDbRotatedDimension
1001
ACAD
1000
DSTYLE
1002
{
1070
   171
1070
     6
1070
   273
1070
     7
1002
}
  0
DIMENSION
  5
12B
330
1F
100
AcDbEntity
  8
치수문자_일반주서
100
AcDbDimension
  2
_D_3
 10
39.68750000000004
 20
23.2234673928743
 30
0.0
 11
0.9227551274348968
 21
23.2234673928743
 31
0.0
 70
   160
  1
<>
 71
     2
 42
79.37500000000007
  3
SLDDIMSTYLE0
100
AcDbAlignedDimension
 13
-39.68750000000004
 23
1.587499999999999
 33
0.0
 14
39.68750000000004
 24
1.587500000000008
 34
0.0
100
AcDbRotatedDimension
1001
ACAD
1000
DSTYLE
1002
{
1070
   171
1070
     6
1070
   273
1070
     7
1002
}
  0
LINE
  5
13E
330
1F
100
AcDbEntity
  8
참조1
100
AcDbLine
 10
68.51241335422453
 20
7.441074928723896
 30
0.0
 11
68.51241335422453
 21
-7.438925071276109
 31
0.0
  0
LINE
  5
13F
330
1F
100
AcDbEntity
  8
참조1
100
AcDbLine
 10
81.21241335422454
 20
5.441074928723896
 30
0.0
 11
68.51241335422453
 21
5.441074928723896
 31
0.0
  0
SOLID
  5
140
330
1F
100
AcDbEntity
  8
참조1
100
AcDbTrace
 10
68.51241335422453
 20
5.441074928723896
 30
0.0
 11
74.86241335422453
 21
4.425074928723896
 31
0.0
 12
74.86241335422453
 22
6.457074928723896
 32
0.0
 13
74.86241335422453
 23
6.457074928723896
 33
0.0
  0
LINE
  5
141
330
1F
100
AcDbEntity
  8
참조1
100
AcDbLine
 10
81.21241335422454
 20
-5.438925071276109
 30
0.0
 11
68.51241335422453
 21
-5.438925071276109
 31
0.0
  0
SOLID
  5
142
330
1F
100
AcDbEntity
  8
참조1
100
AcDbTrace
 10
68.51241335422453
 20
-5.438925071276109
 30
0.0
 11
74.86241335422453
 21
-6.454925071276109
 31
0.0
 12
74.86241335422453
 22
-4.422925071276109
 32
0.0
 13
74.86241335422453
 23
-4.422925071276109
 33
0.0
  0
MTEXT
  5
143
330
1F
100
AcDbEntity
  8
참조1
100
AcDbMText
 10
77.89676348685053
 20
11.01136670591222
 30
0.0
 40
3.5
 41
0.0
 71
     1
 72
     1
  1
A
  7
SLDTEXTSTYLE0
 73
     1
 44
1.0
  0
MTEXT
  5
144
330
1F
100
AcDbEntity
  8
참조1
100
AcDbMText
 10
77.89676348685053
 20
0.1313667059122192
 30
0.0
 40
3.5
 41
0.0
 71
     1
 72
     1
  1
A
  7
SLDTEXTSTYLE0
 73
     1
 44
1.0
  0
INSERT
  5
14B
330
1F
100
AcDbEntity
  8
해칭선
100
AcDbBlockReference
  2
SW_DOWELSYMBOL_0
 10
0.0
 20
0.0
 30
0.0
  0
LINE
  5
589
330
1F
100
AcDbEntity
  8
외형선
  6
Continuous
370
    15
100
AcDbLine
 10
-16.67518467149223
 20
2.381249999999995
 30
0.0
 11
-19.63750000000002
 21
1.587499999999999
 31
0.0
  0
LINE
  5
58A
330
1F
100
AcDbEntity
  8
외형선
  6
Continuous
370
    15
100
AcDbLine
 10
-19.63750000000002
 20
-1.587500000000005
 30
0.0
 11
-16.67518467149223
 21
-2.381250000000001
 31
0.0
  0
LINE
  5
58B
330
1F
100
AcDbEntity
  8
외형선
  6
Continuous
370
    15
100
AcDbLine
 10
-19.74756418551178
 20
-1.587500000000005
 30
0.0
 11
-19.63750000000002
 21
-1.587500000000005
 31
0.0
  0
LINE
  5
58C
330
1F
100
AcDbEntity
  8
외형선
  6
Continuous
370
    15
100
AcDbLine
 10
-19.63750000000002
 20
1.587499999999999
 30
0.0
 11
-19.74756418551178
 21
1.587499999999999
 31
0.0
  0
SPLINE
  5
58D
330
1F
100
AcDbEntity
  8
외형선
  6
Continuous
370
    15
100
AcDbSpline
210
0.0
220
0.0
230
1.0
 70
     8
 71
     3
 72
     9
 73
     5
 74
     0
 42
0.000000001
 43
0.00000001
 40
0.0
 40
0.0
 40
0.0
 40
0.0
 40
0.462112659489699
 40
1.0
 40
1.0
 40
1.0
 40
1.0
 10
-20.63750000000002
 20
-1.047313479165097
 30
0.0
 10
-20.55061605562648
 20
-1.049736148508571
 30
0.0
 10
-20.36260141766028
 20
-1.054978743130746
 30
0.0
 10
-20.17442870818204
 20
-1.067829208265408
 30
0.0
 10
-20.07321298992415
 20
-1.074741310781021
 30
0.0
  0
SPLINE
  5
58E
330
1F
100
AcDbEntity
  8
외형선
  6
Continuous
370
    15
100
AcDbSpline
210
0.0
220
0.0
230
1.0
 70
     8
 71
     3
 72
     9
 73
     5
 74
     0
 42
0.000000001
 43
0.00000001
 40
0.0
 40
0.0
 40
0.0
 40
0.0
 40
0.8741019233636625
 40
1.0
 40
1.0
 40
1.0
 40
1.0
 10
-19.74758035408284
 20
1.102922225500152
 30
0.0
 10
-19.89564418046741
 20
1.088098117003903
 30
0.0
 10
-20.06503383907242
 20
1.071138872206448
 30
0.0
 10
-20.23443083122883
 20
1.064374056609723
 30
0.0
 10
-20.2557575867293
 20
1.063522379337301
 30
0.0
  0
ARC
  5
58F
330
1F
100
AcDbEntity
  8
외형선
  6
Continuous
370
    15
100
AcDbCircle
 10
-20.09756415447104
 20
-1.423437006609091
 30
0.0
 40
0.3499999689679433
100
AcDbArc
 50
0.0201419426154951
 51
86.39591102163047
  0
LINE
  5
590
330
1F
100
AcDbEntity
  8
0
  6
Continuous
 62
     1
370
    15
100
AcDbLine
 10
-26.24704892514638
 20
-0.3441072298760013
 30
0.0
 11
-26.04065183261569
 21
-0.4564371813166297
 31
0.0
  0
SPLINE
  5
591
330
1F
100
AcDbEntity
  8
0
  6
Continuous
 62
     1
370
    15
100
AcDbSpline
210
0.0
220
0.0
230
1.0
 70
     8
 71
     3
 72
     9
 73
     5
 74
     0
 42
0.000000001
 43
0.00000001
 40
0.0
 40
0.0
 40
0.0
 40
0.0
 40
0.499583537431313
 40
1.0
 40
1.0
 40
1.0
 40
1.0
 10
-26.93485748269169
 20
-0.4072100602969109
 30
0.0
 10
-26.86186760017868
 20
-0.4421560131381164
 30
0.0
 10
-26.71576614357688
 20
-0.5121061820745958
 30
0.0
 10
-26.56964205099434
 20
-0.5887974302150802
 30
0.0
 10
-26.49651914948812
 20
-0.6271749933195132
 30
0.0
  0
LINE
  5
592
330
1F
100
AcDbEntity
  8
0
  6
Continuous
 62
     1
370
    15
100
AcDbLine
 10
-35.16414196427295
 20
-0.6119558364164199
 30
0.0
 11
-35.13611487235236
 21
-0.6264460782246808
 31
0.0
  0
SPLINE
  5
593
330
1F
100
AcDbEntity
  8
0
  6
Continuous
 62
     1
370
    15
100
AcDbSpline
210
0.0
220
0.0
230
1.0
 70
     8
 71
     3
 72
     9
 73
     5
 74
     0
 42
0.000000001
 43
0.00000001
 40
0.0
 40
0.0
 40
0.0
 40
0.0
 40
0.533769827102743
 40
1.0
 40
1.0
 40
1.0
 40
1.0
 10
-35.5740783376447
 20
-0.4067418611343705
 30
0.0
 10
-35.50114554694182
 20
-0.4416081290290059
 30
0.0
 10
-35.36450839174936
 20
-0.50692892110878
 30
0.0
 10
-35.22785424891416
 20
-0.5785594994784156
 30
0.0
 10
-35.16414196427295
 20
-0.6119558364164199
 30
0.0
  0
LINE
  5
594
330
1F
100
AcDbEntity
  8
0
  6
Continuous
 62
     1
370
    15
100
AcDbLine
 10
-22.52427210677642
 20
1.587499999999999
 30
0.0
 11
-23.29361852925744
 21
1.587499999999999
 31
0.0
  0
LINE
  5
595
330
1F
100
AcDbEntity
  8
0
  6
Continuous
 62
     1
370
    15
100
AcDbLine
 10
-31.9317318789203
 20
-1.587499999999998
 30
0.0
 11
-31.16255406604828
 21
-1.587499999999998
 31
0.0
  0
LINE
  5
596
330
1F
100
AcDbEntity
  8
0
  6
Continuous
 62
     1
370
    15
100
AcDbLine
 10
-31.16255406604828
 20
1.587500000000006
 30
0.0
 11
-31.93173187892027
 21
1.587500000000006
 31
0.0
  0
LINE
  5
597
330
1F
100
AcDbEntity
  8
0
  6
Continuous
 62
     1
370
    15
100
AcDbLine
 10
-23.29361852925744
 20
-1.587500000000005
 30
0.0
 11
-22.52427210677642
 21
-1.587500000000005
 31
0.0
  0
SPLINE
  5
598
330
1F
100
AcDbEntity
  8
0
  6
Continuous
 62
     1
370
    15
100
AcDbSpline
210
0.0
220
0.0
230
1.0
 70
     8
 71
     3
 72
    11
 73
     7
 74
     0
 42
0.000000001
 43
0.00000001
 40
0.0
 40
0.0
 40
0.0
 40
0.0
 40
0.3669896859142905
 40
0.5341912761451496
 40
0.6693686536827469
 40
1.0
 40
1.0
 40
1.0
 40
1.0
 10
-24.02494295638085
 20
1.320987656942784
 30
0.0
 10
-24.31708324838909
 20
1.295710592061959
 30
0.0
 10
-24.74232352459055
 20
1.258917221392019
 30
0.0
 10
-25.27437860554497
 20
1.242148712784897
 30
0.0
 10
-25.77805460687822
 20
1.236399594598723
 30
0.0
 10
-26.1486991534093
 20
1.251063661330449
 30
0.0
 10
-26.41178290248676
 20
1.261472225785554
 30
0.0
  0
SPLINE
  5
599
330
1F
100
AcDbEntity
  8
0
  6
Continuous
 62
     1
370
    15
100
AcDbSpline
210
0.0
220
0.0
230
1.0
 70
     8
 71
     3
 72
     9
 73
     5
 74
     0
 42
0.000000001
 43
0.00000001
 40
0.0
 40
0.0
 40
0.0
 40
0.0
 40
0.9645156807624653
 40
1.0
 40
1.0
 40
1.0
 40
1.0
 10
-35.05083859653454
 20
-1.261516706195692
 30
0.0
 10
-34.62873550251314
 20
-1.245836997952025
 30
0.0
 10
-34.19110332872859
 20
-1.229580436699158
 30
0.0
 10
-33.75423008354719
 20
-1.247949999119434
 30
0.0
 10
-33.73872793384886
 20
-1.248601830536607
 30
0.0
  0
SPLINE
  5
59A
330
1F
100
AcDbEntity
  8
0
  6
Continuous
 62
     1
370
    15
100
AcDbSpline
210
0.0
220
0.0
230
1.0
 70
     8
 71
     3
 72
     9
 73
     5
 74
     0
 42
0.000000001
 43
0.00000001
 40
0.0
 40
0.0
 40
0.0
 40
0.0
 40
0.5000761739788872
 40
0.9999999999999999
 40
0.9999999999999999
 40
0.9999999999999999
 40
0.9999999999999999
 10
-32.66321619624606
 20
1.320982258969871
 30
0.0
 10
-33.06118237381074
 20
1.287783112914419
 30
0.0
 10
-33.85699348874201
 20
1.221394934906855
 30
0.0
 10
-34.65293064707055
 20
1.248144140828388
 30
0.0
 10
-35.05083859653454
 20
1.2615167061957
 30
0.0
  0
SPLINE
  5
59B
330
1F
100
AcDbEntity
  8
0
  6
Continuous
 62
     1
370
    15
100
AcDbSpline
210
0.0
220
0.0
230
1.0
 70
     8
 71
     3
 72
     9
 73
     5
 74
     0
 42
0.000000001
 43
0.00000001
 40
0.0
 40
0.0
 40
0.0
 40
0.0
 40
0.6814559739650755
 40
1.0
 40
1.0
 40
1.0
 40
1.0
 10
-26.41178290248676
 20
-1.26147222578556
 30
0.0
 10
-26.10904545329803
 20
-1.24934065970978
 30
0.0
 10
-25.66479452476447
 20
-1.231538238806208
 30
0.0
 10
-25.2206921672221
 20
-1.24606017789263
 30
0.0
 10
-25.07922601427894
 20
-1.250686054835057
 30
0.0
  0
SPLINE
  5
59C
330
1F
100
AcDbEntity
  8
0
  6
Continuous
 62
     1
370
    15
100
AcDbSpline
210
0.0
220
0.0
230
1.0
 70
     8
 71
     3
 72
    11
 73
     7
 74
     0
 42
0.000000001
 43
0.00000001
 40
0.0
 40
0.0
 40
0.0
 40
0.0
 40
0.3854649313301929
 40
0.6670694839019838
 40
0.9171278013913845
 40
1.0
 40
1.0
 40
1.0
 40
1.0
 10
-27.6855004179648
 20
1.194030686982885
 30
0.0
 10
-27.83763575843992
 20
1.171530200632838
 30
0.0
 10
-28.10091481395293
 20
1.132591800282719
 30
0.0
 10
-28.4615564853946
 20
1.094498774596439
 30
0.0
 10
-28.70346576570453
 20
1.073223804885679
 30
0.0
 10
-28.8346738093722
 20
1.066588637731862
 30
0.0
 10
-28.86733377452445
 20
1.064937029172164
 30
0.0
  0
SPLINE
  5
59D
330
1F
100
AcDbEntity
  8
0
  6
Continuous
 62
     1
370
    15
100
AcDbSpline
210
0.0
220
0.0
230
1.0
 70
     8
 71
     3
 72
    18
 73
    14
 74
     0
 42
0.000000001
 43
0.00000001
 40
0.0
 40
0.0
 40
0.0
 40
0.0
 40
0.137498113433583
 40
0.2331622758146198
 40
0.3002282729912272
 40
0.3787829898378985
 40
0.4687578198611921
 40
0.5519716541687275
 40
0.6550827173695499
 40
0.7383796653818999
 40
0.7973034866977814
 40
0.8846622261559687
 40
1.0
 40
1.0
 40
1.0
 40
1.0
 10
-39.09513751209247
 20
-1.085611276497111
 30
0.0
 10
-38.96795894446783
 20
-1.075852539576054
 30
0.0
 10
-38.75229602719779
 20
-1.059304172091074
 30
0.0
 10
-38.47542095038285
 20
-1.04879653344431
 30
0.0
 10
-38.25233595832615
 20
-1.044514445627086
 30
0.0
 10
-38.03471020595263
 20
-1.044461957813929
 30
0.0
 10
-37.80248326544422
 20
-1.049485287430279
 30
0.0
 10
-37.54723781163793
 20
-1.060584227766945
 30
0.0
 10
-37.29802198243821
 20
-1.077152638858002
 30
0.0
 10
-37.071584291461
 20
-1.09759212220544
 30
0.0
 10
-36.85973534267382
 20
-1.120297866937974
 30
0.0
 10
-36.61808197318991
 20
-1.149679945770358
 30
0.0
 10
-36.4304280286587
 20
-1.177953583084523
 30
0.0
 10
-36.32364973305474
 20
-1.194041765032814
 30
0.0
  0
SPLINE
  5
59E
330
1F
100
AcDbEntity
  8
0
  6
Continuous
 62
     1
370
    15
100
AcDbSpline
210
0.0
220
0.0
230
1.0
 70
     8
 71
     3
 72
     9
 73
     5
 74
     0
 42
0.000000001
 43
0.00000001
 40
0.0
 40
0.0
 40
0.0
 40
0.0
 40
0.4719409702305263
 40
1.0
 40
1.0
 40
1.0
 40
1.0
 10
-21.82056361021046
 20
-1.08577161206427
 30
0.0
 10
-21.63331138701435
 20
-1.071936483609348
 30
0.0
 10
-21.23654095382935
 20
-1.042621104509784
 30
0.0
 10
-20.84451358959866
 20
-1.045691911699755
 30
0.0
 10
-20.63749999999991
 20
-1.047313479165097
 30
0.0
  0
SPLINE
  5
59F
330
1F
100
AcDbEntity
  8
0
  6
Continuous
 62
     1
370
    15
100
AcDbSpline
210
0.0
220
0.0
230
1.0
 70
     8
 71
     3
 72
    12
 73
     8
 74
     0
 42
0.000000001
 43
0.00000001
 40
0.0
 40
0.0
 40
0.0
 40
0.0
 40
0.265731908150236
 40
0.4670016548787805
 40
0.6027589090021752
 40
0.7946705109058421
 40
1.0
 40
1.0
 40
1.0
 40
1.0
 10
-36.32364973305474
 20
1.194041765032822
 30
0.0
 10
-36.43042801160872
 20
1.177956556273956
 30
0.0
 10
-36.61808192617597
 20
1.149688144092104
 30
0.0
 10
-36.85973546088685
 20
1.120277252879604
 30
0.0
 10
-37.07158395542931
 20
1.09765071962837
 30
0.0
 10
-37.28511112843294
 20
1.077981041058678
 30
0.0
 10
-37.44445609106587
 20
1.068209951551773
 30
0.0
 10
-37.5268197249109
 20
1.063159384372768
 30
0.0
  0
SPLINE
  5
5A0
330
1F
100
AcDbEntity
  8
0
  6
Continuous
 62
     1
370
    15
100
AcDbSpline
210
0.0
220
0.0
230
1.0
 70
     8
 71
     3
 72
    11
 73
     7
 74
     0
 42
0.000000001
 43
0.00000001
 40
0.0
 40
0.0
 40
0.0
 40
0.0
 40
0.3310222570585232
 40
0.5123130771007522
 40
0.6492335799628409
 40
0.9999999999999999
 40
0.9999999999999999
 40
0.9999999999999999
 40
0.9999999999999999
 10
-30.45835401636234
 20
-1.085734770327867
 30
0.0
 10
-30.15215268815172
 20
-1.066209975366468
 30
0.0
 10
-29.67825420754233
 20
-1.035992044175614
 30
0.0
 10
-29.07903095470031
 20
-1.050987042119409
 30
0.0
 10
-28.46078265905133
 20
-1.086941330054066
 30
0.0
 10
-28.00983924792511
 20
-1.149229922968451
 30
0.0
 10
-27.6855004179648
 20
-1.194030686982877
 30
0.0
  0
LINE
  5
5A1
330
1F
100
AcDbEntity
  8
외형선
  6
Continuous
370
    15
100
AcDbLine
 10
-16.67518467149223
 20
-2.381250000000001
 30
0.0
 11
-16.67518467149223
 21
2.381249999999995
 31
0.0
  0
LINE
  5
5A2
330
1F
100
AcDbEntity
  8
외형선
  6
Continuous
370
    15
100
AcDbLine
 10
-19.63750000000002
 20
-1.587500000000005
 30
0.0
 11
-19.63750000000002
 21
1.587499999999999
 31
0.0
  0
SPLINE
  5
5A3
330
1F
100
AcDbEntity
  8
외형선
  6
Continuous
370
    15
100
AcDbSpline
210
0.0
220
0.0
230
1.0
 70
     8
 71
     3
 72
    10
 73
     6
 74
     0
 42
0.000000001
 43
0.00000001
 40
0.0
 40
0.0
 40
0.0
 40
0.0
 40
0.5
 40
0.5
 40
1.0
 40
1.0
 40
1.0
 40
1.0
 10
-20.63750000000002
 20
0.9025523134634887
 30
0.0
 10
-20.49042805518284
 20
0.8322957089004326
 30
0.0
 10
-20.34083196872516
 20
0.757695177244124
 30
0.0
 10
-20.04241016800675
 20
0.6026189046097634
 30
0.0
 10
-19.89498937836394
 20
0.5224141348206508
 30
0.0
 10
-19.74763122038315
 20
0.4403097925227832
 30
0.0
  0
LINE
  5
5A4
330
1F
100
AcDbEntity
  8
외형선
  6
Continuous
370
    15
100
AcDbLine
 10
-20.63750000000002
 20
0.9025523134634816
 30
0.0
 11
-20.63750000000002
 21
1.228131767074459
 31
0.0
  0
SPLINE
  5
5A5
330
1F
100
AcDbEntity
  8
외형선
  6
Continuous
370
    15
100
AcDbSpline
210
0.0
220
0.0
230
1.0
 70
     8
 71
     3
 72
    10
 73
     6
 74
     0
 42
0.000000001
 43
0.00000001
 40
0.0
 40
0.0
 40
0.0
 40
0.0
 40
0.5
 40
0.5
 40
1.0
 40
1.0
 40
1.0
 40
1.0
 10
-20.63750000000002
 20
1.228131767074459
 30
0.0
 10
-20.49041690443145
 20
1.174013371068683
 30
0.0
 10
-20.34080928316408
 20
1.114219423476172
 30
0.0
 10
-20.04236497604055
 20
0.9854718939680331
 30
0.0
 10
-19.89493422666235
 20
0.9167581516176717
 30
0.0
 10
-19.74756418551178
 20
0.8443866435154781
 30
0.0
  0
LINE
  5
5A6
330
1F
100
AcDbEntity
  8
외형선
  6
Continuous
370
    15
100
AcDbLine
 10
-19.74756418551178
 20
1.587499999999999
 30
0.0
 11
-19.74756418551178
 21
0.8439273248499866
 31
0.0
  0
LINE
  5
5A7
330
1F
100
AcDbEntity
  8
외형선
  6
Continuous
370
    15
100
AcDbLine
 10
-20.25590872166328
 20
-1.063587549536066
 30
0.0
 11
-20.63750000000002
 21
-1.228131767074458
 31
0.0
  0
LINE
  5
5A8
330
1F
100
AcDbEntity
  8
외형선
  6
Continuous
370
    15
100
AcDbLine
 10
-19.74756418551178
 20
0.4402444256559199
 30
0.0
 11
-19.74756418551178
 21
-1.587500000000005
 31
0.0
  0
SPLINE
  5
5A9
330
1F
100
AcDbEntity
  8
외형선
  6
Continuous
370
    15
100
AcDbSpline
210
0.0
220
0.0
230
1.0
 70
    24
 71
     3
 72
     8
 73
     4
 74
     0
 42
0.000000001
 43
0.00000001
 40
0.0
 40
0.0
 40
0.0
 40
0.0
 40
1.0
 40
1.0
 40
1.0
 40
1.0
 10
-20.63750000000002
 20
0.6988684431467014
 30
0.0
 10
-20.63750000000002
 20
0.7623609056502338
 30
0.0
 10
-20.63750000000002
 20
0.8306723561222007
 30
0.0
 10
-20.63750000000002
 20
0.9025523134631193
 30
0.0
  0
SPLINE
  5
5AA
330
1F
100
AcDbEntity
  8
외형선
  6
Continuous
370
    15
100
AcDbSpline
210
0.0
220
0.0
230
1.0
 70
     8
 71
     3
 72
    10
 73
     6
 74
     0
 42
0.000000001
 43
0.00000001
 40
0.0
 40
0.0
 40
0.0
 40
0.0
 40
0.5000000000000001
 40
0.5000000000000001
 40
1.0
 40
1.0
 40
1.0
 40
1.0
 10
-20.63749999999877
 20
0.6988684431461827
 30
0.0
 10
-20.49042805518182
 20
0.6367714107901896
 30
0.0
 10
-20.34083196872434
 20
0.5712669477292358
 30
0.0
 10
-20.04241016800635
 20
0.4359245946838406
 30
0.0
 10
-19.89498937836377
 20
0.3663204641637641
 30
0.0
 10
-19.74763122038315
 20
0.2954443459535419
 30
0.0
  0
SPLINE
  5
5AB
330
1F
100
AcDbEntity
  8
외형선
  6
Continuous
370
    15
100
AcDbSpline
210
0.0
220
0.0
230
1.0
 70
    24
 71
     3
 72
    10
 73
     6
 74
     0
 42
0.000000001
 43
0.00000001
 40
0.0
 40
0.0
 40
0.0
 40
0.0
 40
0.5
 40
0.5
 40
1.0
 40
1.0
 40
1.0
 40
1.0
 10
-20.63750000000002
 20
-0.7636590534532595
 30
0.0
 10
-20.63750000000002
 20
-0.5523041869925074
 30
0.0
 10
-20.63750000000002
 20
-0.3033970999587148
 30
0.0
 10
-20.63750000000002
 20
0.2078287320527827
 30
0.0
 10
-20.63750000000002
 20
0.4679469611972926
 30
0.0
 10
-20.63750000000002
 20
0.6988684431467014
 30
0.0
  0
SPLINE
  5
5AC
330
1F
100
AcDbEntity
  8
외형선
  6
Continuous
370
    15
100
AcDbSpline
210
0.0
220
0.0
230
1.0
 70
     8
 71
     3
 72
    12
 73
     8
 74
     0
 42
0.000000001
 43
0.00000001
 40
0.0
 40
0.0
 40
0.0
 40
0.0
 40
0.2499999999999999
 40
0.2499999999999999
 40
0.4999999999999998
 40
0.4999999999999998
 40
1.0
 40
1.0
 40
1.0
 40
1.0
 10
-20.04322199805993
 20
-0.9632125651210608
 30
0.0
 10
-19.98186336788459
 20
-0.9816600426477955
 30
0.0
 10
-19.93849668387137
 20
-1.018565570360621
 30
0.0
 10
-19.86790289083198
 20
-1.092989779388517
 30
0.0
 10
-19.84062812278029
 20
-1.13275694934424
 30
0.0
 10
-19.77413831867018
 20
-1.252125777084905
 30
0.0
 10
-19.74756418551178
 20
-1.334004778597225
 30
0.0
 10
-19.74756418551178
 20
-1.421610331800522
 30
0.0
  0
SPLINE
  5
5AD
330
1F
100
AcDbEntity
  8
외형선
  6
Continuous
370
    15
100
AcDbSpline
210
0.0
220
0.0
230
1.0
 70
     8
 71
     3
 72
     8
 73
     4
 74
     0
 42
0.000000001
 43
0.00000001
 40
0.0
 40
0.0
 40
0.0
 40
0.0
 40
1.0
 40
1.0
 40
1.0
 40
1.0
 10
-20.63749999999997
 20
-0.7636590534532737
 30
0.0
 10
-20.44159271583238
 20
-0.8363759884553013
 30
0.0
 10
-20.24119958952688
 20
-0.9036905849375494
 30
0.0
 10
-20.04322199805993
 20
-0.9632125651210608
 30
0.0
  0
SPLINE
  5
5AE
330
1F
100
AcDbEntity
  8
외형선
  6
Continuous
370
    15
100
AcDbSpline
210
0.0
220
0.0
230
1.0
 70
    24
 71
     3
 72
    10
 73
     6
 74
     0
 42
0.000000001
 43
0.00000001
 40
0.0
 40
0.0
 40
0.0
 40
0.0
 40
0.1233611355782312
 40
0.4210826401637193
 40
1.0
 40
1.0
 40
1.0
 40
1.0
 10
-20.63750000000002
 20
-1.041409468871975
 30
0.0
 10
-20.63750000000002
 20
-1.042641178617244
 30
0.0
 10
-20.63750000000002
 20
-1.046845514034728
 30
0.0
 10
-20.63750000000002
 20
-0.9891241572497045
 30
0.0
 10
-20.63750000000002
 20
-0.8533331316164656
 30
0.0
 10
-20.63750000000002
 20
-0.7636590534532595
 30
0.0
  0
SPLINE
  5
5AF
330
1F
100
AcDbEntity
  8
외형선
  6
Continuous
370
    15
100
AcDbSpline
210
0.0
220
0.0
230
1.0
 70
    24
 71
     3
 72
    10
 73
     6
 74
     0
 42
0.000000001
 43
0.00000001
 40
0.0
 40
0.0
 40
0.0
 40
0.0
 40
0.1883550669884994
 40
0.6751647219642584
 40
1.0
 40
1.0
 40
1.0
 40
1.0
 10
-20.63750000000002
 20
-1.228131767074458
 30
0.0
 10
-20.63750000000002
 20
-1.215699349518857
 30
0.0
 10
-20.63750000000002
 20
-1.171134953792858
 30
0.0
 10
-20.63750000000002
 20
-1.108047947033149
 30
0.0
 10
-20.63750000000002
 20
-1.064672952356531
 30
0.0
 10
-20.63750000000002
 20
-1.047313479165097
 30
0.0
  0
SPLINE
  5
5B0
330
1F
100
AcDbEntity
  8
0
  6
Continuous
 62
     1
370
    15
100
AcDbSpline
210
0.0
220
0.0
230
1.0
 70
     8
 71
     3
 72
    20
 73
    16
 74
     0
 42
0.000000001
 43
0.00000001
 40
0.0
 40
0.0
 40
0.0
 40
0.0
 40
0.0778393253798318
 40
0.155667923712938
 40
0.2334871780776594
 40
0.3112984833352549
 40
0.3891032444005453
 40
0.4680315516694716
 40
0.5469576478925785
 40
0.6258820991518836
 40
0.7048054726639126
 40
0.7837283363889657
 40
0.8626512586392865
 40
0.9415748076867095
 40
1.0
 40
1.0
 40
1.0
 40
1.0
 10
-20.63750000000002
 20
-1.228131767074458
 30
0.0
 10
-20.91060655937248
 20
-1.317447168241912
 30
0.0
 10
-21.45678204126981
 20
-1.496065662010721
 30
0.0
 10
-22.27596461065483
 20
-1.603245614434356
 30
0.0
 10
-23.09503004869246
 20
-1.576979453690597
 30
0.0
 10
-23.91399846263889
 20
-1.409755527742234
 30
0.0
 10
-24.73682982124647
 20
-1.117548266979774
 30
0.0
 10
-25.56361500440776
 20
-0.7235729124524675
 30
0.0
 10
-26.39431064951297
 20
-0.2622239087355631
 30
0.0
 10
-27.22498905565892
 20
0.222982551905212
 30
0.0
 10
-28.05565291182896
 20
0.6876340552643974
 30
0.0
 10
-28.88631055384182
 20
1.091279813455331
 30
0.0
 10
-29.71696897901408
 20
1.391222262659867
 30
0.0
 10
-30.47571621498017
 20
1.566537646377456
 30
0.0
 10
-30.9575797225102
 20
1.571500492685907
 30
0.0
 10
-31.16255406604828
 20
1.57361158046961
 30
0.0
  0
SPLINE
  5
5B1
330
1F
100
AcDbEntity
  8
0
  6
Continuous
 62
     1
370
    15
100
AcDbSpline
210
0.0
220
0.0
230
1.0
 70
     8
 71
     3
 72
    10
 73
     6
 74
     0
 42
0.000000001
 43
0.00000001
 40
0.0
 40
0.0
 40
0.0
 40
0.0
 40
0.2306379809232109
 40
0.615302514459669
 40
1.0
 40
1.0
 40
1.0
 40
1.0
 10
-37.5268197249109
 20
-1.063159384372759
 30
0.0
 10
-37.69292788797984
 20
-1.134753356630696
 30
0.0
 10
-38.13607593323875
 20
-1.325753776310626
 30
0.0
 10
-38.85630099542065
 20
-1.52185665321523
 30
0.0
 10
-39.41042575403086
 20
-1.564723785185776
 30
0.0
 10
-39.68750000000004
 20
-1.587499999999998
 30
0.0
  0
SPLINE
  5
5B2
330
1F
100
AcDbEntity
  8
0
  6
Continuous
 62
     1
370
    15
100
AcDbSpline
210
0.0
220
0.0
230
1.0
 70
    24
 71
     3
 72
    10
 73
     6
 74
     0
 42
0.000000001
 43
0.00000001
 40
0.0
 40
0.0
 40
0.0
 40
0.0
 40
0.5
 40
0.5
 40
1.0
 40
1.0
 40
1.0
 40
1.0
 10
-39.68750000000004
 20
-1.111249999999991
 30
0.0
 10
-39.68750000000004
 20
-1.178611207681605
 30
0.0
 10
-39.68750000000004
 20
-1.256891169326543
 30
0.0
 10
-39.68750000000004
 20
-1.421122318025353
 30
0.0
 10
-39.68750000000004
 20
-1.506654079334836
 30
0.0
 10
-39.68750000000004
 20
-1.587499999999998
 30
0.0
  0
LINE
  5
5B3
330
1F
100
AcDbEntity
  8
0
  6
Continuous
 62
     1
370
    15
100
AcDbLine
 10
-39.68750000000004
 20
-1.111249999999991
 30
0.0
 11
-39.09264841727961
 21
-1.075208908946762
 31
0.0
  0
SPLINE
  5
5B4
330
1F
100
AcDbEntity
  8
0
  6
Continuous
 62
     1
370
    15
100
AcDbSpline
210
0.0
220
0.0
230
1.0
 70
     8
 71
     3
 72
    14
 73
    10
 74
     0
 42
0.000000001
 43
0.00000001
 40
0.0
 40
0.0
 40
0.0
 40
0.0
 40
0.1343940673957235
 40
0.2915317775535104
 40
0.4486742767826427
 40
0.605822787687058
 40
0.7629785286442442
 40
0.9201427129558865
 40
1.0
 40
1.0
 40
1.0
 40
1.0
 10
-27.10478919751998
 20
0.1504194459458013
 30
0.0
 10
-26.86796868168611
 20
0.0547688183733406
 30
0.0
 10
-26.35425027669962
 20
-0.1527194883701377
 30
0.0
 10
-25.56362330378972
 20
-0.4648820656146804
 30
0.0
 10
-24.73289756172969
 20
-0.749281467289378
 30
0.0
 10
-23.90213591050864
 20
-0.9673741427386553
 30
0.0
 10
-23.07133517396299
 20
-1.092965547009242
 30
0.0
 10
-22.3767202068454
 20
-1.130069773044766
 30
0.0
 10
-21.95905760205546
 20
-1.088126065917819
 30
0.0
 10
-21.81833869449185
 20
-1.073994389827163
 30
0.0
  0
SPLINE
  5
5B5
330
1F
100
AcDbEntity
  8
외형선
  6
Continuous
370
    15
100
AcDbSpline
210
0.0
220
0.0
230
1.0
 70
    24
 71
     3
 72
    10
 73
     6
 74
     0
 42
0.000000001
 43
0.00000001
 40
0.0
 40
0.0
 40
0.0
 40
0.0
 40
0.1883550669885028
 40
0.675164721964261
 40
0.9999999999999999
 40
0.9999999999999999
 40
0.9999999999999999
 40
0.9999999999999999
 10
-20.63750000000002
 20
-1.228131767074458
 30
0.0
 10
-20.63750000000002
 20
-1.215699349518857
 30
0.0
 10
-20.63750000000002
 20
-1.171134953792858
 30
0.0
 10
-20.63750000000002
 20
-1.108047947033142
 30
0.0
 10
-20.63750000000002
 20
-1.064672952356531
 30
0.0
 10
-20.63750000000002
 20
-1.047313479165097
 30
0.0
  0
SPLINE
  5
5B6
330
1F
100
AcDbEntity
  8
0
  6
Continuous
 62
     1
370
    15
100
AcDbSpline
210
0.0
220
0.0
230
1.0
 70
     8
 71
     3
 72
    10
 73
     6
 74
     0
 42
0.000000001
 43
0.00000001
 40
0.0
 40
0.0
 40
0.0
 40
0.0
 40
0.4342334271607245
 40
0.868407012560999
 40
1.0
 40
1.0
 40
1.0
 40
1.0
 10
-20.63750000000002
 20
1.228131767074459
 30
0.0
 10
-20.9106063256958
 20
1.315519339248916
 30
0.0
 10
-21.45678134027205
 20
1.490282440706076
 30
0.0
 10
-22.0857012383807
 20
1.594764750049472
 30
0.0
 10
-22.44151300506869
 20
1.576834049178317
 30
0.0
 10
-22.52427210677642
 20
1.57266350498609
 30
0.0
  0
SPLINE
  5
5B7
330
1F
100
AcDbEntity
  8
0
  6
Continuous
 62
     1
370
    15
100
AcDbSpline
210
0.0
220
0.0
230
1.0
 70
     8
 71
     3
 72
    21
 73
    17
 74
     0
 42
0.000000001
 43
0.00000001
 40
0.0
 40
0.0
 40
0.0
 40
0.0
 40
0.0016457491114393
 40
0.078426499270726
 40
0.1552078592142216
 40
0.2319903813684389
 40
0.3087746173579134
 40
0.3855611176253638
 40
0.4623504310535958
 40
0.5391431045897039
 40
0.6159396828721175
 40
0.6927407078610354
 40
0.7695467184727797
 40
0.8463582502185941
 40
0.9231758348484002
 40
1.0
 40
1.0
 40
1.0
 40
1.0
 10
-28.86850575630388
 20
-1.065496495030622
 30
0.0
 10
-28.8744406296799
 20
-1.068335808322913
 30
0.0
 10
-29.15726098137319
 20
-1.203640394119105
 30
0.0
 10
-29.71696889139182
 20
-1.38784124544356
 30
0.0
 10
-30.54763518479957
 20
-1.573488487528891
 30
0.0
 10
-31.3783165311136
 20
-1.606389367999092
 30
0.0
 10
-32.20902013300003
 20
-1.496475217760227
 30
0.0
 10
-33.03975312313279
 20
-1.250240463790056
 30
0.0
 10
-33.87052262688909
 20
-0.8909123646592214
 30
0.0
 10
-34.70133574194856
 20
-0.4508130504131167
 30
0.0
 10
-35.53219952664083
 20
0.0301847906638606
 30
0.0
 10
-36.36312103663983
 20
0.5082640740384086
 30
0.0
 10
-37.19410715978754
 20
0.9410354451703504
 30
0.0
 10
-38.0251652104501
 20
1.285770542702793
 30
0.0
 10
-38.85630068769772
 20
1.524303009836566
 30
0.0
 10
-39.41042565145364
 20
1.565539260676609
 30
0.0
 10
-39.68750000000004
 20
1.587499999999999
 30
0.0
  0
SPLINE
  5
5B8
330
1F
100
AcDbEntity
  8
0
  6
Continuous
 62
     1
370
    15
100
AcDbSpline
210
0.0
220
0.0
230
1.0
 70
     8
 71
     3
 72
    15
 73
    11
 74
     0
 42
0.000000001
 43
0.00000001
 40
0.0
 40
0.0
 40
0.0
 40
0.0
 40
0.0401323240636385
 40
0.1972862089997824
 40
0.3544314027414187
 40
0.511569117349184
 40
0.6687005701326793
 40
0.825826982802631
 40
0.9829495806165107
 40
1.0
 40
1.0
 40
1.0
 40
1.0
 10
-35.74436658457885
 20
0.1499612600581208
 30
0.0
 10
-35.67364050833226
 20
0.1222137792073077
 30
0.0
 10
-35.32595868861032
 20
-0.0141898663346318
 30
0.0
 10
-34.70134194568036
 20
-0.2716372147156101
 30
0.0
 10
-33.87052890258432
 20
-0.584331751360174
 30
0.0
 10
-33.03975992774046
 20
-0.8447996950593002
 30
0.0
 10
-32.20902731257767
 20
-1.030958813872565
 30
0.0
 10
-31.37832423936917
 20
-1.114023992498701
 30
0.0
 10
-30.79448392824586
 20
-1.127110723394224
 30
0.0
 10
-30.4875440125675
 20
-1.085064996077512
 30
0.0
 10
-30.45749656680315
 20
-1.080948989502154
 30
0.0
  0
SPLINE
  5
5B9
330
1F
100
AcDbEntity
  8
0
  6
Continuous
 62
     1
370
    15
100
AcDbSpline
210
0.0
220
0.0
230
1.0
 70
     8
 71
     3
 72
    20
 73
    16
 74
     0
 42
0.000000001
 43
0.00000001
 40
0.0
 40
0.0
 40
0.0
 40
0.0
 40
0.0655519304589047
 40
0.1452002328601455
 40
0.2248461866238079
 40
0.3044903628566102
 40
0.3841333338912206
 40
0.46377567289209
 40
0.543417953460058
 40
0.623060749236317
 40
0.7027046335063125
 40
0.7823501788041723
 40
0.861997956518242
 40
0.940513185752418
 40
1.0
 40
1.0
 40
1.0
 40
1.0
 10
-33.72347538054704
 20
1.253219382977428
 30
0.0
 10
-33.49557210728813
 20
1.329037647125894
 30
0.0
 10
-32.99075694600882
 20
1.496978233045198
 30
0.0
 10
-32.2090456738159
 20
1.601520946491868
 30
0.0
 10
-31.37834476127436
 20
1.579914749149474
 30
0.0
 10
-30.54766629457604
 20
1.411842092451743
 30
0.0
 10
-29.71700285155382
 20
1.116748332006254
 30
0.0
 10
-28.8863473516498
 20
0.7202329709879443
 30
0.0
 10
-28.05569250809427
 20
0.2585524613422414
 30
0.0
 10
-27.22503148314309
 20
-0.226660649945152
 30
0.0
 10
-26.3943558459734
 20
-0.6910028582927048
 30
0.0
 10
-25.56366311709494
 20
-1.093987584881595
 30
0.0
 10
-24.7368759282436
 20
-1.391791995541424
 30
0.0
 10
-23.98021570424797
 20
-1.565855312154596
 30
0.0
 10
-23.50043262034686
 20
-1.571972810876161
 30
0.0
 10
-23.29361852925744
 20
-1.574609804509939
 30
0.0
  0
SPLINE
  5
5BA
330
1F
100
AcDbEntity
  8
0
  6
Continuous
 62
     1
370
    15
100
AcDbSpline
210
0.0
220
0.0
230
1.0
 70
     8
 71
     3
 72
    15
 73
    11
 74
     0
 42
0.000000001
 43
0.00000001
 40
0.0
 40
0.0
 40
0.0
 40
0.0
 40
0.0794904651317323
 40
0.2241182272409826
 40
0.3687426169601062
 40
0.5133647201219909
 40
0.6579856241554906
 40
0.8026064173267754
 40
0.9472281879794414
 40
1.0
 40
1.0
 40
1.0
 40
1.0
 10
-32.66560994378811
 20
1.305701210631313
 30
0.0
 10
-32.51341925058782
 20
1.323322518769005
 30
0.0
 10
-32.08432743050478
 20
1.373004657814769
 30
0.0
 10
-31.37834533820772
 20
1.319916201670183
 30
0.0
 10
-30.54766653370385
 20
1.159121021177143
 30
0.0
 10
-29.71700300763931
 20
0.8877883809203844
 30
0.0
 10
-28.88634737430053
 20
0.5368491510368265
 30
0.0
 10
-28.05569234333289
 20
0.1394870186156048
 30
0.0
 10
-27.40088711923764
 20
-0.1913516886809596
 30
0.0
 10
-27.02296514301694
 20
-0.3630670737888757
 30
0.0
 10
-26.92193031089392
 20
-0.4089739969078174
 30
0.0
  0
SPLINE
  5
5BB
330
1F
100
AcDbEntity
  8
0
  6
Continuous
 62
     1
370
    15
100
AcDbSpline
210
0.0
220
0.0
230
1.0
 70
     8
 71
     3
 72
    17
 73
    13
 74
     0
 42
0.000000001
 43
0.00000001
 40
0.0
 40
0.0
 40
0.0
 40
0.0
 40
0.1071679448355108
 40
0.2143267084599915
 40
0.3214770271076626
 40
0.4286196427509406
 40
0.5357553026108859
 40
0.6428847586600281
 40
0.7500087671182777
 40
0.8571280879426413
 40
0.9642434843114587
 40
1.0
 40
1.0
 40
1.0
 40
1.0
 10
-39.68750000000004
 20
1.506443629905647
 30
0.0
 10
-39.41042657953574
 20
1.442658692089282
 30
0.0
 10
-38.85630347583149
 20
1.315094280991453
 30
0.0
 10
-38.02517079713008
 20
0.9679685582771007
 30
0.0
 10
-37.19411555662825
 20
0.5429152280298062
 30
0.0
 10
-36.36313225571971
 20
0.0660978787513436
 30
0.0
 10
-35.53221357070672
 20
-0.4161838459584637
 30
0.0
 10
-34.70135263986504
 20
-0.8602172988648669
 30
0.0
 10
-33.87054230156205
 20
-1.228903625680508
 30
0.0
 10
-33.03977588426168
 20
-1.476325573202139
 30
0.0
 10
-32.39351029755242
 20
-1.593544647082097
 30
0.0
 10
-32.02416726268766
 20
-1.575853036642541
 30
0.0
 10
-31.9317318789203
 20
-1.571425361971371
 30
0.0
  0
SPLINE
  5
5BC
330
1F
100
AcDbEntity
  8
0
  6
Continuous
 62
     1
370
    15
100
AcDbSpline
210
0.0
220
0.0
230
1.0
 70
     8
 71
     3
 72
    13
 73
     9
 74
     0
 42
0.000000001
 43
0.00000001
 40
0.0
 40
0.0
 40
0.0
 40
0.0
 40
0.0782538683458336
 40
0.2625654710164038
 40
0.4468925720366974
 40
0.631238497194766
 40
0.8156065484817664
 40
1.0
 40
1.0
 40
1.0
 40
1.0
 10
-25.08063343473697
 20
1.25018055314034
 30
0.0
 10
-24.96473707953667
 20
1.293980632089266
 30
0.0
 10
-24.57586964415598
 20
1.44094318618253
 30
0.0
 10
-23.91403958947837
 20
1.566111114418455
 30
0.0
 10
-23.0950602733681
 20
1.6083086588283
 30
0.0
 10
-22.27598485530368
 20
1.500680372716354
 30
0.0
 10
-21.456792113415
 20
1.26834497796957
 30
0.0
 10
-20.91060991145159
 20
1.024488800556569
 30
0.0
 10
-20.63750000000008
 20
0.9025523134635172
 30
0.0
  0
SPLINE
  5
5BD
330
1F
100
AcDbEntity
  8
외형선
  6
Continuous
370
    15
100
AcDbSpline
210
0.0
220
0.0
230
1.0
 70
    24
 71
     3
 72
     8
 73
     4
 74
     0
 42
0.000000001
 43
0.00000001
 40
0.0
 40
0.0
 40
0.0
 40
0.0
 40
1.0
 40
1.0
 40
1.0
 40
1.0
 10
-20.63750000000002
 20
0.6988684431467014
 30
0.0
 10
-20.63750000000002
 20
0.7623609056502338
 30
0.0
 10
-20.63750000000002
 20
0.8306723561222007
 30
0.0
 10
-20.63750000000002
 20
0.9025523134631193
 30
0.0
  0
SPLINE
  5
5BE
330
1F
100
AcDbEntity
  8
0
  6
Continuous
 62
     1
370
    15
100
AcDbSpline
210
0.0
220
0.0
230
1.0
 70
     8
 71
     3
 72
    12
 73
     8
 74
     0
 42
0.000000001
 43
0.00000001
 40
0.0
 40
0.0
 40
0.0
 40
0.0
 40
0.2010447800963389
 40
0.4020715684585865
 40
0.6030818073294192
 40
0.8040769503235357
 40
1.0
 40
1.0
 40
1.0
 40
1.0
 10
-39.68750000000004
 20
1.252493469684546
 30
0.0
 10
-39.41042680910252
 20
1.190838645252207
 30
0.0
 10
-38.85630522291368
 20
1.067534513950371
 30
0.0
 10
-38.02517219211675
 20
0.7552130295715436
 30
0.0
 10
-37.19411699764155
 20
0.3833553483078738
 30
0.0
 10
-36.370104230074
 20
-0.0247725366387137
 30
0.0
 10
-35.8231130095754
 20
-0.2868490978774496
 30
0.0
 10
-35.55311231410392
 20
-0.4162128813340324
 30
0.0
  0
SPLINE
  5
5BF
330
1F
100
AcDbEntity
  8
0
  6
Continuous
 62
     1
370
    15
100
AcDbSpline
210
0.0
220
0.0
230
1.0
 70
     8
 71
     3
 72
    12
 73
     8
 74
     0
 42
0.000000001
 43
0.00000001
 40
0.0
 40
0.0
 40
0.0
 40
0.0
 40
0.0367339094410224
 40
0.2818667497378556
 40
0.5270122442565687
 40
0.7634739354031574
 40
1.0
 40
1.0
 40
1.0
 40
1.0
 10
-24.02668611478428
 20
1.313282947947145
 30
0.0
 10
-23.98518712946569
 20
1.319857640949672
 30
0.0
 10
-23.66675698448072
 20
1.370306596025423
 30
0.0
 10
-23.07137953489926
 20
1.349589454519859
 30
0.0
 10
-22.25034304270023
 20
1.239962077450806
 30
0.0
 10
-21.43908366857088
 20
1.017531907028748
 30
0.0
 10
-20.9047187984734
 20
0.8050992351084794
 30
0.0
 10
-20.63749999999877
 20
0.6988684431461827
 30
0.0
  0
LINE
  5
5C0
330
1F
100
AcDbEntity
  8
0
  6
Continuous
 62
     1
370
    15
100
AcDbLine
 10
-39.68750000000004
 20
1.506443629905647
 30
0.0
 11
-39.68750000000004
 21
1.252493469684546
 31
0.0
  0
LINE
  5
5C1
330
1F
100
AcDbEntity
  8
0
  6
Continuous
 62
     1
370
    15
100
AcDbLine
 10
-39.68750000000004
 20
1.587499999999999
 30
0.0
 11
-39.68750000000004
 21
1.506443629905647
 31
0.0
  0
SPLINE
  5
5C2
330
1F
100
AcDbEntity
  8
0
  6
Continuous
 62
     1
370
    15
100
AcDbSpline
210
0.0
220
0.0
230
1.0
 70
     8
 71
     3
 72
     8
 73
     4
 74
     0
 42
0.000000001
 43
0.00000001
 40
0.0
 40
0.0
 40
0.0
 40
0.0
 40
1.0
 40
1.0
 40
1.0
 40
1.0
 10
-38.70470542367676
 20
-0.4445952940610518
 30
0.0
 10
-38.64848835895953
 20
-0.5111941627035244
 30
0.0
 10
-38.59830531521141
 20
-0.5753123870125372
 30
0.0
 10
-38.55558004190778
 20
-0.6363646498196467
 30
0.0
  0
LINE
  5
5C3
330
1F
100
AcDbEntity
  8
0
  6
Continuous
 62
     1
370
    15
100
AcDbLine
 10
-38.57568878093836
 20
-0.6532378853236473
 30
0.0
 11
-39.68750000000004
 21
0.0000000000000007
 31
0.0
  0
LINE
  5
5C4
330
1F
100
AcDbEntity
  8
0
  6
Continuous
 62
     1
370
    15
100
AcDbLine
 10
-39.68750000000004
 20
0.0000000000000007
 30
0.0
 11
-39.68750000000004
 21
0.4242481768220621
 31
0.0
  0
SPLINE
  5
5C5
330
1F
100
AcDbEntity
  8
0
  6
Continuous
 62
     1
370
    15
100
AcDbSpline
210
0.0
220
0.0
230
1.0
 70
     8
 71
     3
 72
    10
 73
     6
 74
     0
 42
0.000000001
 43
0.00000001
 40
0.0
 40
0.0
 40
0.0
 40
0.0
 40
0.5
 40
0.5
 40
1.0
 40
1.0
 40
1.0
 40
1.0
 10
-39.68750000000004
 20
0.4242481768220621
 30
0.0
 10
-39.51736692683637
 20
0.2904929793885322
 30
0.0
 10
-39.35007873072156
 20
0.1512488725117656
 30
0.0
 10
-39.02132815369416
 20
-0.1384796765982863
 30
0.0
 10
-38.85833634150342
 20
-0.2904950568556892
 30
0.0
 10
-38.70470542368455
 20
-0.4445952940531435
 30
0.0
  0
SPLINE
  5
5C6
330
1F
100
AcDbEntity
  8
외형선
  6
Continuous
370
    15
100
AcDbSpline
210
0.0
220
0.0
230
1.0
 70
    24
 71
     3
 72
    10
 73
     6
 74
     0
 42
0.000000001
 43
0.00000001
 40
0.0
 40
0.0
 40
0.0
 40
0.0
 40
0.5
 40
0.5
 40
1.0
 40
1.0
 40
1.0
 40
1.0
 10
-20.63750000000002
 20
-0.7636590534532595
 30
0.0
 10
-20.63750000000002
 20
-0.5523041869925074
 30
0.0
 10
-20.63750000000002
 20
-0.3033970999587148
 30
0.0
 10
-20.63750000000002
 20
0.2078287320527827
 30
0.0
 10
-20.63750000000002
 20
0.4679469611972926
 30
0.0
 10
-20.63750000000002
 20
0.6988684431467014
 30
0.0
  0
SPLINE
  5
5C7
330
1F
100
AcDbEntity
  8
0
  6
Continuous
 62
     1
370
    15
100
AcDbSpline
210
0.0
220
0.0
230
1.0
 70
     8
 71
     3
 72
    12
 73
     8
 74
     0
 42
0.000000001
 43
0.00000001
 40
0.0
 40
0.0
 40
0.0
 40
0.0
 40
0.2065880147559165
 40
0.4132150776273704
 40
0.6405236621348374
 40
0.8678166162046909
 40
1.0
 40
1.0
 40
1.0
 40
1.0
 10
-38.70470542367654
 20
-0.4445952940611939
 30
0.0
 10
-38.45296539681434
 20
-0.5501293450962017
 30
0.0
 10
-37.94943776059265
 20
-0.7612173946245513
 30
0.0
 10
-37.16888575738742
 20
-1.021402918568341
 30
0.0
 10
-36.36312774890283
 20
-1.202782611202614
 30
0.0
 10
-35.64808631299972
 20
-1.285817304381545
 30
0.0
 10
-35.21004258833731
 20
-1.257775509168162
 30
0.0
 10
-35.04896911651984
 20
-1.247464234159039
 30
0.0
  0
SPLINE
  5
5C8
330
1F
100
AcDbEntity
  8
0
  6
Continuous
 62
     1
370
    15
100
AcDbSpline
210
0.0
220
0.0
230
1.0
 70
     8
 71
     3
 72
    16
 73
    12
 74
     0
 42
0.000000001
 43
0.00000001
 40
0.0
 40
0.0
 40
0.0
 40
0.0
 40
0.0662528025748028
 40
0.1839984091204224
 40
0.3017466162103484
 40
0.4194983186033481
 40
0.5372544086137924
 40
0.6550157754911787
 40
0.7727833048041941
 40
0.8863759656617375
 40
0.9999999999999999
 40
0.9999999999999999
 40
0.9999999999999999
 40
0.9999999999999999
 10
-27.69240894768397
 20
1.179617123784738
 30
0.0
 10
-27.53660860849707
 20
1.206192777636695
 30
0.0
 10
-27.10391725904888
 20
1.279999135104725
 30
0.0
 10
-26.39432723334992
 20
1.276653086809127
 30
0.0
 10
-25.56362962261611
 20
1.17592010039455
 30
0.0
 10
-24.7329043286284
 20
0.9635670348589052
 30
0.0
 10
-23.90214288954943
 20
0.6653507189742107
 30
0.0
 10
-23.07134341639546
 20
0.3061326905493125
 30
0.0
 10
-22.25031392007325
 20
-0.0748785759609511
 30
0.0
 10
-21.43906300906711
 20
-0.4491094642873599
 30
0.0
 10
-20.90471226360192
 20
-0.6587995392475243
 30
0.0
 10
-20.63750000000002
 20
-0.7636590534532595
 30
0.0
  0
SPLINE
  5
5C9
330
1F
100
AcDbEntity
  8
0
  6
Continuous
 62
     1
370
    15
100
AcDbSpline
210
0.0
220
0.0
230
1.0
 70
    24
 71
     3
 72
    10
 73
     6
 74
     0
 42
0.000000001
 43
0.00000001
 40
0.0
 40
0.0
 40
0.0
 40
0.0
 40
0.5
 40
0.5
 40
1.0
 40
1.0
 40
1.0
 40
1.0
 10
-39.68750000000004
 20
1.252493469684546
 30
0.0
 10
-39.68750000000004
 20
1.156480080043544
 30
0.0
 10
-39.68750000000004
 20
1.035163480701521
 30
0.0
 10
-39.68750000000004
 20
0.7531140626517121
 30
0.0
 10
-39.68750000000004
 20
0.5926255658439608
 30
0.0
 10
-39.68750000000004
 20
0.4242481768221118
 30
0.0
  0
SPLINE
  5
5CA
330
1F
100
AcDbEntity
  8
0
  6
Continuous
 62
     1
370
    15
100
AcDbSpline
210
0.0
220
0.0
230
1.0
 70
     8
 71
     3
 72
    19
 73
    15
 74
     0
 42
0.000000001
 43
0.00000001
 40
0.0
 40
0.0
 40
0.0
 40
0.0
 40
0.0799509846208606
 40
0.1637632355380478
 40
0.2475709719383292
 40
0.3313748234606127
 40
0.4151754224527744
 40
0.4989734035340632
 40
0.5827694031541321
 40
0.666564059149359
 40
0.750358010297099
 40
0.8341518958685389
 40
0.9179463551808177
 40
1.0
 40
1.0
 40
1.0
 40
1.0
 10
-36.32477953898334
 20
1.191385122777732
 30
0.0
 10
-36.06058264717277
 20
1.224396122714247
 30
0.0
 10
-35.51942936398095
 20
1.2920124026586
 30
0.0
 10
-34.70134326646579
 20
1.250320258849045
 30
0.0
 10
-33.87053088942233
 20
1.103384699687262
 30
0.0
 10
-33.03976228403386
 20
0.8541443879581372
 30
0.0
 10
-32.209030148524
 20
0.528138285198829
 30
0.0
 10
-31.37832741409503
 20
0.1541291194414149
 30
0.0
 10
-30.54764692273992
 20
-0.2338407671878351
 30
0.0
 10
-29.71698151344683
 20
-0.6004678947126074
 30
0.0
 10
-28.88632403030145
 20
-0.9133076919147236
 30
0.0
 10
-28.05566723477589
 20
-1.141088907087713
 30
0.0
 10
-27.23076046267139
 20
-1.273198429132285
 30
0.0
 10
-26.68273729150329
 20
-1.264561846227323
 30
0.0
 10
-26.41160185178754
 20
-1.260288881457256
 30
0.0
  0
SPLINE
  5
5CB
330
1F
100
AcDbEntity
  8
0
  6
Continuous
 62
     1
370
    15
100
AcDbSpline
210
0.0
220
0.0
230
1.0
 70
    24
 71
     3
 72
     8
 73
     4
 74
     0
 42
0.000000001
 43
0.00000001
 40
0.0
 40
0.0
 40
0.0
 40
0.0
 40
1.0
 40
1.0
 40
1.0
 40
1.0
 10
-38.72140102197995
 20
-0.7755049730396586
 30
0.0
 10
-38.66907355845533
 20
-0.7315970176957187
 30
0.0
 10
-38.61343116363165
 20
-0.6849075047213298
 30
0.0
 10
-38.55558004190775
 20
-0.6363646498196396
 30
0.0
  0
SPLINE
  5
5CC
330
1F
100
AcDbEntity
  8
0
  6
Continuous
 62
     1
370
    15
100
AcDbSpline
210
0.0
220
0.0
230
1.0
 70
     8
 71
     3
 72
     8
 73
     4
 74
     0
 42
0.000000001
 43
0.00000001
 40
0.0
 40
0.0
 40
0.0
 40
0.0
 40
1.0
 40
1.0
 40
1.0
 40
1.0
 10
-39.68750000000004
 20
-1.111249999999998
 30
0.0
 10
-39.36098911934133
 20
-1.022562296472514
 30
0.0
 10
-39.03760172563285
 20
-0.913676380540742
 30
0.0
 10
-38.72140102198993
 20
-0.7755049730440355
 30
0.0
  0
SPLINE
  5
5CD
330
1F
100
AcDbEntity
  8
외형선
  6
Continuous
370
    15
100
AcDbSpline
210
0.0
220
0.0
230
1.0
 70
    24
 71
     3
 72
    11
 73
     7
 74
     0
 42
0.000000001
 43
0.00000001
 40
0.0
 40
0.0
 40
0.0
 40
0.0
 40
0.1308071013319518
 40
0.4253205871738414
 40
0.7086390666317774
 40
1.0
 40
1.0
 40
1.0
 40
1.0
 10
-20.63750000000002
 20
-1.041319709732206
 30
0.0
 10
-20.63750000000002
 20
-1.042771222006507
 30
0.0
 10
-20.63750000000002
 20
-1.047490828560782
 30
0.0
 10
-20.63750000000002
 20
-1.002218272246437
 30
0.0
 10
-20.63750000000002
 20
-0.9120983541713052
 30
0.0
 10
-20.63750000000002
 20
-0.8135983125140946
 30
0.0
 10
-20.63750000000002
 20
-0.7636590534532666
 30
0.0
  0
LINE
  5
5CE
330
1F
100
AcDbEntity
  8
0
  6
Continuous
 62
     1
370
    15
100
AcDbLine
 10
-39.68750000000004
 20
0.0000000000000007
 30
0.0
 11
-39.68750000000004
 21
-1.111249999999998
 31
0.0
  0
ENDSEC
  0
SECTION
  2
OBJECTS
  0
DICTIONARY
  5
C
330
0
100
AcDbDictionary
281
     1
  3
ACAD_GROUP
350
D
  3
ACAD_IMAGE_VARS
350
16F
  3
ACAD_LAYOUT
350
1A
  3
ACAD_MLINESTYLE
350
17
  3
ACAD_PLOTSETTINGS
350
19
  3
ACAD_PLOTSTYLENAME
350
E
  3
ACAD_SCALELIST
350
47
  3
APPDATA
350
16D
  3
DWGPROPS
350
5FF
  0
DICTIONARY
  5
269
330
2
100
AcDbDictionary
280
     1
281
     1
  3
ACAD_LAYERSTATES
360
26A
  0
DICTIONARY
  5
D
102
{ACAD_REACTORS
330
C
102
}
330
C
100
AcDbDictionary
281
     1
  0
RASTERVARIABLES
  5
16F
102
{ACAD_REACTORS
330
C
102
}
330
C
100
AcDbRasterVariables
 90
        0
 70
     1
 71
     1
 72
     1
  0
DICTIONARY
  5
1A
102
{ACAD_REACTORS
330
C
102
}
330
C
100
AcDbDictionary
281
     1
  3
Layout1
350
1E
  3
Layout2
350
26
  3
Model
350
22
  0
DICTIONARY
  5
17
102
{ACAD_REACTORS
330
C
102
}
330
C
100
AcDbDictionary
281
     1
  3
Standard
350
18
  0
DICTIONARY
  5
19
102
{ACAD_REACTORS
330
C
102
}
330
C
100
AcDbDictionary
281
     1
  0
ACDBDICTIONARYWDFLT
  5
E
102
{ACAD_REACTORS
330
C
102
}
330
C
100
AcDbDictionary
281
     1
  3
Normal
350
F
100
AcDbDictionaryWithDefault
340
F
  0
DICTIONARY
  5
47
102
{ACAD_REACTORS
330
C
102
}
330
C
100
AcDbDictionary
281
     1
  3
A0
350
48
  3
A1
350
49
  3
A2
350
4A
  3
A3
350
4B
  3
A4
350
4C
  3
A5
350
4D
  3
A6
350
4E
  3
A7
350
4F
  3
A8
350
50
  3
A9
350
51
  3
B0
350
52
  3
B1
350
53
  3
B2
350
54
  3
B3
350
55
  3
B4
350
56
  3
B5
350
57
  3
B6
350
58
  3
B7
350
59
  3
B8
350
5A
  3
B9
350
5B
  3
C0
350
5C
  3
C1
350
5D
  3
C2
350
5E
  3
C3
350
5F
  3
C4
350
60
  3
C5
350
61
  3
C6
350
62
  3
C7
350
63
  3
C8
350
64
  3
C9
350
65
  3
D0
350
66
  3
D1
350
67
  3
D2
350
68
  0
DICTIONARY
  5
16D
102
{ACAD_REACTORS
330
C
102
}
330
C
100
AcDbDictionary
281
     1
  0
XRECORD
  5
5FF
102
{ACAD_REACTORS
330
C
102
}
330
C
100
AcDbXrecord
280
     1
  1
DWGPROPS COOKIE
  2

  3

  4

  6

  7

  8
12017012
  9

300
=
301
=
302
=
303
=
304
=
305
=
306
=
307
=
308
=
309
=
 40
0.0
 41
2458313.03767118
 42
2458319.987586921
  1

 90
        0
  0
DICTIONARY
  5
26A
102
{ACAD_REACTORS
330
269
102
}
330
269
100
AcDbDictionary
281
     1
  0
LAYOUT
  5
1E
102
{ACAD_REACTORS
330
1A
102
}
330
1A
100
AcDbPlotSettings
  1

  2
none_device
  4

  6

 40
0.0
 41
0.0
 42
0.0
 43
0.0
 44
0.0
 45
0.0
 46
0.0
 47
0.0
 48
0.0
 49
0.0
140
0.0
141
0.0
142
1.0
143
1.0
 70
   688
 72
     1
 73
     0
 74
     5
  7

 75
    16
147
1.0
148
0.0
149
0.0
100
AcDbLayout
  1
Layout1
 70
     1
 71
     1
 10
0.0
 20
0.0
 11
420.0
 21
297.0
 12
0.0
 22
0.0
 32
0.0
 14
1.000000000000000E+20
 24
1.000000000000000E+20
 34
1.000000000000000E+20
 15
-1.000000000000000E+20
 25
-1.000000000000000E+20
 35
-1.000000000000000E+20
146
0.0
 13
0.0
 23
0.0
 33
0.0
 16
1.0
 26
0.0
 36
0.0
 17
0.0
 27
1.0
 37
0.0
 76
     0
330
1B
  0
LAYOUT
  5
26
102
{ACAD_REACTORS
330
1A
102
}
330
1A
100
AcDbPlotSettings
  1

  2
none_device
  4

  6

 40
0.0
 41
0.0
 42
0.0
 43
0.0
 44
0.0
 45
0.0
 46
0.0
 47
0.0
 48
0.0
 49
0.0
140
0.0
141
0.0
142
1.0
143
1.0
 70
   688
 72
     1
 73
     0
 74
     5
  7

 75
    16
147
1.0
148
0.0
149
0.0
100
AcDbLayout
  1
Layout2
 70
     1
 71
     2
 10
0.0
 20
0.0
 11
0.0
 21
0.0
 12
0.0
 22
0.0
 32
0.0
 14
0.0
 24
0.0
 34
0.0
 15
0.0
 25
0.0
 35
0.0
146
0.0
 13
0.0
 23
0.0
 33
0.0
 16
1.0
 26
0.0
 36
0.0
 17
0.0
 27
1.0
 37
0.0
 76
     0
330
23
  0
LAYOUT
  5
22
102
{ACAD_REACTORS
330
1A
102
}
330
1A
100
AcDbPlotSettings
  1

  2
none_device
  4
ANSI_A_(11.00_x_8.50_Inches)
  6

 40
6.35
 41
19.05
 42
6.35000508
 43
19.05000254
 44
279.4
 45
215.9
 46
64.47685395351371
 47
90.39425226795558
 48
0.0
 49
0.0
140
0.0
141
0.0
142
0.0370829098887224
143
1.0
 70
  1696
 72
     0
 73
     0
 74
     0
  7

 75
     0
147
0.0235690232323232
148
0.0
149
0.0
100
AcDbLayout
  1
Model
 70
     1
 71
     0
 10
0.0
 20
0.0
 11
420.0
 21
297.0
 12
0.0
 22
0.0
 32
0.0
 14
1.000000000000000E+20
 24
1.000000000000000E+20
 34
1.000000000000000E+20
 15
-1.000000000000000E+20
 25
-1.000000000000000E+20
 35
-1.000000000000000E+20
146
0.0
 13
0.0
 23
0.0
 33
0.0
 16
1.0
 26
0.0
 36
0.0
 17
0.0
 27
1.0
 37
0.0
 76
     0
330
1F
331
29
  0
MLINESTYLE
  5
18
102
{ACAD_REACTORS
330
17
102
}
330
17
100
AcDbMlineStyle
  2
Standard
 70
     0
  3

 62
   256
 51
90.0
 52
90.0
 71
     2
 49
0.5
 62
   256
  6
BYLAYER
 49
-0.5
 62
   256
  6
BYLAYER
  0
ACDBPLACEHOLDER
  5
F
102
{ACAD_REACTORS
330
E
102
}
330
E
  0
SCALE
  5
48
102
{ACAD_REACTORS
330
47
102
}
330
47
100
AcDbScale
 70
     0
300
1:1
140
1.0
141
1.0
290
     1
  0
SCALE
  5
49
102
{ACAD_REACTORS
330
47
102
}
330
47
100
AcDbScale
 70
     0
300
1:2
140
1.0
141
2.0
290
     0
  0
SCALE
  5
4A
102
{ACAD_REACTORS
330
47
102
}
330
47
100
AcDbScale
 70
     0
300
1:4
140
1.0
141
4.0
290
     0
  0
SCALE
  5
4B
102
{ACAD_REACTORS
330
47
102
}
330
47
100
AcDbScale
 70
     0
300
1:5
140
1.0
141
5.0
290
     0
  0
SCALE
  5
4C
102
{ACAD_REACTORS
330
47
102
}
330
47
100
AcDbScale
 70
     0
300
1:8
140
1.0
141
8.0
290
     0
  0
SCALE
  5
4D
102
{ACAD_REACTORS
330
47
102
}
330
47
100
AcDbScale
 70
     0
300
1:10
140
1.0
141
10.0
290
     0
  0
SCALE
  5
4E
102
{ACAD_REACTORS
330
47
102
}
330
47
100
AcDbScale
 70
     0
300
1:16
140
1.0
141
16.0
290
     0
  0
SCALE
  5
4F
102
{ACAD_REACTORS
330
47
102
}
330
47
100
AcDbScale
 70
     0
300
1:20
140
1.0
141
20.0
290
     0
  0
SCALE
  5
50
102
{ACAD_REACTORS
330
47
102
}
330
47
100
AcDbScale
 70
     0
300
1:30
140
1.0
141
30.0
290
     0
  0
SCALE
  5
51
102
{ACAD_REACTORS
330
47
102
}
330
47
100
AcDbScale
 70
     0
300
1:40
140
1.0
141
40.0
290
     0
  0
SCALE
  5
52
102
{ACAD_REACTORS
330
47
102
}
330
47
100
AcDbScale
 70
     0
300
1:50
140
1.0
141
50.0
290
     0
  0
SCALE
  5
53
102
{ACAD_REACTORS
330
47
102
}
330
47
100
AcDbScale
 70
     0
300
1:100
140
1.0
141
100.0
290
     0
  0
SCALE
  5
54
102
{ACAD_REACTORS
330
47
102
}
330
47
100
AcDbScale
 70
     0
300
2:1
140
2.0
141
1.0
290
     0
  0
SCALE
  5
55
102
{ACAD_REACTORS
330
47
102
}
330
47
100
AcDbScale
 70
     0
300
4:1
140
4.0
141
1.0
290
     0
  0
SCALE
  5
56
102
{ACAD_REACTORS
330
47
102
}
330
47
100
AcDbScale
 70
     0
300
8:1
140
8.0
141
1.0
290
     0
  0
SCALE
  5
57
102
{ACAD_REACTORS
330
47
102
}
330
47
100
AcDbScale
 70
     0
300
10:1
140
10.0
141
1.0
290
     0
  0
SCALE
  5
58
102
{ACAD_REACTORS
330
47
102
}
330
47
100
AcDbScale
 70
     0
300
100:1
140
100.0
141
1.0
290
     0
  0
SCALE
  5
59
102
{ACAD_REACTORS
330
47
102
}
330
47
100
AcDbScale
 70
     0
300
1/128" = 1'-0"
140
0.0078125
141
12.0
290
     0
  0
SCALE
  5
5A
102
{ACAD_REACTORS
330
47
102
}
330
47
100
AcDbScale
 70
     0
300
1/64" = 1'-0"
140
0.015625
141
12.0
290
     0
  0
SCALE
  5
5B
102
{ACAD_REACTORS
330
47
102
}
330
47
100
AcDbScale
 70
     0
300
1/32" = 1'-0"
140
0.03125
141
12.0
290
     0
  0
SCALE
  5
5C
102
{ACAD_REACTORS
330
47
102
}
330
47
100
AcDbScale
 70
     0
300
1/16" = 1'-0"
140
0.0625
141
12.0
290
     0
  0
SCALE
  5
5D
102
{ACAD_REACTORS
330
47
102
}
330
47
100
AcDbScale
 70
     0
300
3/32" = 1'-0"
140
0.09375
141
12.0
290
     0
  0
SCALE
  5
5E
102
{ACAD_REACTORS
330
47
102
}
330
47
100
AcDbScale
 70
     0
300
1/8" = 1'-0"
140
0.125
141
12.0
290
     0
  0
SCALE
  5
5F
102
{ACAD_REACTORS
330
47
102
}
330
47
100
AcDbScale
 70
     0
300
3/16" = 1'-0"
140
0.1875
141
12.0
290
     0
  0
SCALE
  5
60
102
{ACAD_REACTORS
330
47
102
}
330
47
100
AcDbScale
 70
     0
300
1/4" = 1'-0"
140
0.25
141
12.0
290
     0
  0
SCALE
  5
61
102
{ACAD_REACTORS
330
47
102
}
330
47
100
AcDbScale
 70
     0
300
3/8" = 1'-0"
140
0.375
141
12.0
290
     0
  0
SCALE
  5
62
102
{ACAD_REACTORS
330
47
102
}
330
47
100
AcDbScale
 70
     0
300
1/2" = 1'-0"
140
0.5
141
12.0
290
     0
  0
SCALE
  5
63
102
{ACAD_REACTORS
330
47
102
}
330
47
100
AcDbScale
 70
     0
300
3/4" = 1'-0"
140
0.75
141
12.0
290
     0
  0
SCALE
  5
64
102
{ACAD_REACTORS
330
47
102
}
330
47
100
AcDbScale
 70
     0
300
1" = 1'-0"
140
1.0
141
12.0
290
     0
  0
SCALE
  5
65
102
{ACAD_REACTORS
330
47
102
}
330
47
100
AcDbScale
 70
     0
300
1-1/2" = 1'-0"
140
1.5
141
12.0
290
     0
  0
SCALE
  5
66
102
{ACAD_REACTORS
330
47
102
}
330
47
100
AcDbScale
 70
     0
300
3" = 1'-0"
140
3.0
141
12.0
290
     0
  0
SCALE
  5
67
102
{ACAD_REACTORS
330
47
102
}
330
47
100
AcDbScale
 70
     0
300
6" = 1'-0"
140
6.0
141
12.0
290
     0
  0
SCALE
  5
68
102
{ACAD_REACTORS
330
47
102
}
330
47
100
AcDbScale
 70
     0
300
1'-0" = 1'-0"
140
12.0
141
12.0
290
     0
  0
ENDSEC
  0
EOF
