  0
SECTION
  2
HEADER
  9
$ACADVER
  1
AC1015
  9
$ACADMAINTVER
 70
     6
  9
$DWGCODEPAGE
  3
ANSI_949
  9
$INSBASE
 10
0.0
 20
0.0
 30
0.0
  9
$EXTMIN
 10
-42.95000000000011
 20
-49.97180738881175
 30
0.0
  9
$EXTMAX
 10
92.3384838153456
 20
37.26493750000016
 30
0.0
  9
$LIMMIN
 10
0.0
 20
0.0
  9
$LIMMAX
 10
420.0
 20
297.0
  9
$ORTHOMODE
 70
     1
  9
$REGENMODE
 70
     1
  9
$FILLMODE
 70
     1
  9
$QTEXTMODE
 70
     0
  9
$MIRRTEXT
 70
     1
  9
$LTSCALE
 40
1.0
  9
$ATTMODE
 70
     1
  9
$TEXTSIZE
 40
3.5
  9
$TRACEWID
 40
1.0
  9
$TEXTSTYLE
  7
Standard
  9
$CLAYER
  8
0
  9
$CELTYPE
  6
ByLayer
  9
$CECOLOR
 62
   256
  9
$CELTSCALE
 40
1.0
  9
$DISPSILH
 70
     0
  9
$DIMSCALE
 40
1.0
  9
$DIMASZ
 40
3.302
  9
$DIMEXO
 40
1.0
  9
$DIMDLI
 40
3.75
  9
$DIMRND
 40
0.0
  9
$DIMDLE
 40
0.0
  9
$DIMEXE
 40
1.0
  9
$DIMTP
 40
0.0
  9
$DIMTM
 40
0.0
  9
$DIMTXT
 40
3.5
  9
$DIMCEN
 40
2.5
  9
$DIMTSZ
 40
0.0
  9
$DIMTOL
 70
     0
  9
$DIMLIM
 70
     0
  9
$DIMTIH
 70
     1
  9
$DIMTOH
 70
     1
  9
$DIMSE1
 70
     0
  9
$DIMSE2
 70
     0
  9
$DIMTAD
 70
     1
  9
$DIMZIN
 70
     0
  9
$DIMBLK
  1

  9
$DIMASO
 70
     1
  9
$DIMSHO
 70
     1
  9
$DIMPOST
  1

  9
$DIMAPOST
  1

  9
$DIMALT
 70
     0
  9
$DIMALTD
 70
     3
  9
$DIMALTF
 40
0.0393700787401575
  9
$DIMLFAC
 40
1.0
  9
$DIMTOFL
 70
     1
  9
$DIMTVP
 40
0.0
  9
$DIMTIX
 70
     0
  9
$DIMSOXD
 70
     0
  9
$DIMSAH
 70
     0
  9
$DIMBLK1
  1

  9
$DIMBLK2
  1

  9
$DIMSTYLE
  2
ISO-25
  9
$DIMCLRD
 70
     0
  9
$DIMCLRE
 70
     0
  9
$DIMCLRT
 70
     0
  9
$DIMTFAC
 40
1.0
  9
$DIMGAP
 40
1.524
  9
$DIMJUST
 70
     0
  9
$DIMSD1
 70
     0
  9
$DIMSD2
 70
     0
  9
$DIMTOLJ
 70
     0
  9
$DIMTZIN
 70
     0
  9
$DIMALTZ
 70
     0
  9
$DIMALTTZ
 70
     0
  9
$DIMUPT
 70
     0
  9
$DIMDEC
 70
     2
  9
$DIMTDEC
 70
     2
  9
$DIMALTU
 70
     2
  9
$DIMALTTD
 70
     3
  9
$DIMTXSTY
  7
Standard
  9
$DIMAUNIT
 70
     0
  9
$DIMADEC
 70
     2
  9
$DIMALTRND
 40
0.0
  9
$DIMAZIN
 70
     0
  9
$DIMDSEP
 70
    44
  9
$DIMATFIT
 70
     3
  9
$DIMFRAC
 70
     0
  9
$DIMLDRBLK
  1

  9
$DIMLUNIT
 70
     2
  9
$DIMLWD
 70
    -2
  9
$DIMLWE
 70
    -2
  9
$DIMTMOVE
 70
     0
  9
$LUNITS
 70
     2
  9
$LUPREC
 70
     2
  9
$SKETCHINC
 40
1.0
  9
$FILLETRAD
 40
10.0
  9
$AUNITS
 70
     0
  9
$AUPREC
 70
     2
  9
$MENU
  1
.
  9
$ELEVATION
 40
0.0
  9
$PELEVATION
 40
0.0
  9
$THICKNESS
 40
0.0
  9
$LIMCHECK
 70
     0
  9
$CHAMFERA
 40
0.0
  9
$CHAMFERB
 40
0.0
  9
$CHAMFERC
 40
0.0
  9
$CHAMFERD
 40
0.0
  9
$SKPOLY
 70
     0
  9
$TDCREATE
 40
2458313.458316748
  9
$TDUCREATE
 40
2458313.083316748
  9
$TDUPDATE
 40
2458318.657675845
  9
$TDUUPDATE
 40
2458318.282675845
  9
$TDINDWG
 40
0.0001539468
  9
$TDUSRTIMER
 40
2458318.282637419
  9
$USRTIMER
 70
     1
  9
$ANGBASE
 50
0.0
  9
$ANGDIR
 70
     0
  9
$PDMODE
 70
     0
  9
$PDSIZE
 40
-1.0
  9
$PLINEWID
 40
0.0
  9
$SPLFRAME
 70
     0
  9
$SPLINETYPE
 70
     6
  9
$SPLINESEGS
 70
     8
  9
$HANDSEED
  5
22E
  9
$SURFTAB1
 70
     6
  9
$SURFTAB2
 70
     6
  9
$SURFTYPE
 70
     6
  9
$SURFU
 70
     6
  9
$SURFV
 70
     6
  9
$UCSBASE
  2

  9
$UCSNAME
  2

  9
$UCSORG
 10
0.0
 20
0.0
 30
0.0
  9
$UCSXDIR
 10
1.0
 20
0.0
 30
0.0
  9
$UCSYDIR
 10
0.0
 20
1.0
 30
0.0
  9
$UCSORTHOREF
  2

  9
$UCSORTHOVIEW
 70
     0
  9
$UCSORGTOP
 10
0.0
 20
0.0
 30
0.0
  9
$UCSORGBOTTOM
 10
0.0
 20
0.0
 30
0.0
  9
$UCSORGLEFT
 10
0.0
 20
0.0
 30
0.0
  9
$UCSORGRIGHT
 10
0.0
 20
0.0
 30
0.0
  9
$UCSORGFRONT
 10
0.0
 20
0.0
 30
0.0
  9
$UCSORGBACK
 10
0.0
 20
0.0
 30
0.0
  9
$PUCSBASE
  2

  9
$PUCSNAME
  2

  9
$PUCSORG
 10
0.0
 20
0.0
 30
0.0
  9
$PUCSXDIR
 10
1.0
 20
0.0
 30
0.0
  9
$PUCSYDIR
 10
0.0
 20
1.0
 30
0.0
  9
$PUCSORTHOREF
  2

  9
$PUCSORTHOVIEW
 70
     0
  9
$PUCSORGTOP
 10
0.0
 20
0.0
 30
0.0
  9
$PUCSORGBOTTOM
 10
0.0
 20
0.0
 30
0.0
  9
$PUCSORGLEFT
 10
0.0
 20
0.0
 30
0.0
  9
$PUCSORGRIGHT
 10
0.0
 20
0.0
 30
0.0
  9
$PUCSORGFRONT
 10
0.0
 20
0.0
 30
0.0
  9
$PUCSORGBACK
 10
0.0
 20
0.0
 30
0.0
  9
$USERI1
 70
     0
  9
$USERI2
 70
     0
  9
$USERI3
 70
     0
  9
$USERI4
 70
     0
  9
$USERI5
 70
     0
  9
$USERR1
 40
0.0
  9
$USERR2
 40
0.0
  9
$USERR3
 40
0.0
  9
$USERR4
 40
0.0
  9
$USERR5
 40
0.0
  9
$WORLDVIEW
 70
     1
  9
$SHADEDGE
 70
     3
  9
$SHADEDIF
 70
    70
  9
$TILEMODE
 70
     1
  9
$MAXACTVP
 70
    64
  9
$PINSBASE
 10
0.0
 20
0.0
 30
0.0
  9
$PLIMCHECK
 70
     0
  9
$PEXTMIN
 10
1.000000000000000E+20
 20
1.000000000000000E+20
 30
1.000000000000000E+20
  9
$PEXTMAX
 10
-1.000000000000000E+20
 20
-1.000000000000000E+20
 30
-1.000000000000000E+20
  9
$PLIMMIN
 10
0.0
 20
0.0
  9
$PLIMMAX
 10
0.0
 20
0.0
  9
$UNITMODE
 70
     0
  9
$VISRETAIN
 70
     1
  9
$PLINEGEN
 70
     0
  9
$PSLTSCALE
 70
     1
  9
$TREEDEPTH
 70
  3020
  9
$CMLSTYLE
  2
Standard
  9
$CMLJUST
 70
     0
  9
$CMLSCALE
 40
20.0
  9
$PROXYGRAPHICS
 70
     1
  9
$MEASUREMENT
 70
     1
  9
$CELWEIGHT
370
    -1
  9
$ENDCAPS
280
     0
  9
$JOINSTYLE
280
     0
  9
$LWDISPLAY
290
     1
  9
$INSUNITS
 70
     4
  9
$HYPERLINKBASE
  1

  9
$STYLESHEET
  1

  9
$XEDIT
290
     1
  9
$CEPSNTYPE
380
     0
  9
$PSTYLEMODE
290
     1
  9
$FINGERPRINTGUID
  2
{A4C1EABB-DE3D-405C-9A87-2DDEE241EB4A}
  9
$VERSIONGUID
  2
{FAEB1C32-E019-11D5-929B-00C0DF256EC4}
  9
$EXTNAMES
290
     1
  9
$PSVPSCALE
 40
0.0
  9
$OLESTARTUP
290
     0
  0
ENDSEC
  0
SECTION
  2
CLASSES
  0
CLASS
  1
ACDBDICTIONARYWDFLT
  2
AcDbDictionaryWithDefault
  3
ObjectDBX Classes
 90
        0
280
     0
281
     0
  0
CLASS
  1
VISUALSTYLE
  2
AcDbVisualStyle
  3
ObjectDBX Classes
 90
     4095
280
     0
281
     0
  0
CLASS
  1
MATERIAL
  2
AcDbMaterial
  3
ObjectDBX Classes
 90
     1153
280
     0
281
     0
  0
CLASS
  1
SCALE
  2
AcDbScale
  3
ObjectDBX Classes
 90
     1153
280
     0
281
     0
  0
CLASS
  1
SUN
  2
AcDbSun
  3
SCENEOE
 90
     1153
280
     0
281
     0
  0
CLASS
  1
ACDBPLACEHOLDER
  2
AcDbPlaceHolder
  3
ObjectDBX Classes
 90
        0
280
     0
281
     0
  0
CLASS
  1
LAYOUT
  2
AcDbLayout
  3
ObjectDBX Classes
 90
        0
280
     0
281
     0
  0
CLASS
  1
TABLESTYLE
  2
AcDbTableStyle
  3
ObjectDBX Classes
 90
     4095
280
     0
281
     0
  0
CLASS
  1
MLEADERSTYLE
  2
AcDbMLeaderStyle
  3
ACDB_MLEADERSTYLE_CLASS
 90
     4095
280
     0
281
     0
  0
CLASS
  1
DICTIONARYVAR
  2
AcDbDictionaryVar
  3
ObjectDBX Classes
 90
        0
280
     0
281
     0
  0
CLASS
  1
RASTERVARIABLES
  2
AcDbRasterVariables
  3
ISM
 90
        0
280
     0
281
     0
  0
ENDSEC
  0
SECTION
  2
TABLES
  0
TABLE
  2
VPORT
  5
8
330
0
100
AcDbSymbolTable
 70
     1
  0
VPORT
  5
29
330
8
100
AcDbSymbolTableRecord
100
AcDbViewportTableRecord
  2
*Active
 70
     0
 10
0.0
 20
0.0
 11
1.0
 21
1.0
 12
24.69424190767274
 22
-6.353434944405791
 13
0.0
 23
0.0
 14
10.0
 24
10.0
 15
10.0
 25
10.0
 16
0.0
 26
0.0
 36
1.0
 17
0.0
 27
0.0
 37
0.0
 40
88.98147978658814
 41
1.782762691853601
 42
50.0
 43
0.0
 44
0.0
 50
0.0
 51
0.0
 71
    16
 72
  2000
 73
     1
 74
     3
 75
     0
 76
     0
 77
     0
 78
     0
281
     0
 65
     1
110
0.0
120
0.0
130
0.0
111
1.0
121
0.0
131
0.0
112
0.0
122
1.0
132
0.0
 79
     0
146
0.0
  0
ENDTAB
  0
TABLE
  2
LTYPE
  5
5
330
0
100
AcDbSymbolTable
 70
     6
  0
LTYPE
  5
14
330
5
100
AcDbSymbolTableRecord
100
AcDbLinetypeTableRecord
  2
ByBlock
 70
     0
  3

 72
    65
 73
     0
 40
0.0
  0
LTYPE
  5
15
330
5
100
AcDbSymbolTableRecord
100
AcDbLinetypeTableRecord
  2
ByLayer
 70
     0
  3

 72
    65
 73
     0
 40
0.0
  0
LTYPE
  5
16
330
5
100
AcDbSymbolTableRecord
100
AcDbLinetypeTableRecord
  2
Continuous
 70
     0
  3
Solid line
 72
    65
 73
     0
 40
0.0
  0
LTYPE
  5
6A
330
5
100
AcDbSymbolTableRecord
100
AcDbLinetypeTableRecord
  2
HIDDEN
 70
     0
  3
Hidden __ __ __ __ __ __ __ __ __ __ __ __ __ __
 72
    65
 73
     2
 40
1.905
 49
1.27
 74
     0
 49
-0.635
 74
     0
  0
LTYPE
  5
6B
330
5
100
AcDbSymbolTableRecord
100
AcDbLinetypeTableRecord
  2
PHANTOM
 70
     0
  3
Phantom ______  __  __  ______  __  __  ______
 72
    65
 73
     6
 40
12.7
 49
6.35
 74
     0
 49
-1.27
 74
     0
 49
1.27
 74
     0
 49
-1.27
 74
     0
 49
1.27
 74
     0
 49
-1.27
 74
     0
  0
LTYPE
  5
6C
330
5
100
AcDbSymbolTableRecord
100
AcDbLinetypeTableRecord
  2
CENTER
 70
     0
  3
Center ____ _ ____ _ ____ _ ____ _ ____ _ ____
 72
    65
 73
     4
 40
10.16
 49
6.35
 74
     0
 49
-1.27
 74
     0
 49
1.27
 74
     0
 49
-1.27
 74
     0
  0
LTYPE
  5
6D
330
5
100
AcDbSymbolTableRecord
100
AcDbLinetypeTableRecord
  2
CENTERX2
 70
     0
  3
Center (2x) ________  __  ________  __  _____
 72
    65
 73
     4
 40
20.32
 49
12.7
 74
     0
 49
-2.54
 74
     0
 49
2.54
 74
     0
 49
-2.54
 74
     0
  0
LTYPE
  5
6E
330
5
100
AcDbSymbolTableRecord
100
AcDbLinetypeTableRecord
  2
DOT2
 70
     0
  3
Dot (.5x) ........................................
 72
    65
 73
     2
 40
0.635
 49
0.0
 74
     0
 49
-0.635
 74
     0
  0
ENDTAB
  0
TABLE
  2
LAYER
  5
2
102
{ACAD_XDICTIONARY
360
189
102
}
330
0
100
AcDbSymbolTable
 70
    18
  0
LAYER
  5
10
330
2
100
AcDbSymbolTableRecord
100
AcDbLayerTableRecord
  2
0
 70
     0
 62
     7
  6
Continuous
370
    -3
390
F
  0
LAYER
  5
6F
330
2
100
AcDbSymbolTableRecord
100
AcDbLayerTableRecord
  2
FORMAT
 70
     0
 62
     2
  6
Continuous
370
    -3
390
F
  0
LAYER
  5
70
330
2
100
AcDbSymbolTableRecord
100
AcDbLayerTableRecord
  2
외형선
 70
     0
 62
     4
  6
Continuous
370
    30
390
F
  0
LAYER
  5
71
330
2
100
AcDbSymbolTableRecord
100
AcDbLayerTableRecord
  2
숨은선
 70
     0
 62
     2
  6
HIDDEN
370
    15
390
F
  0
LAYER
  5
72
330
2
100
AcDbSymbolTableRecord
100
AcDbLayerTableRecord
  2
중심선
 70
     0
 62
     1
  6
CENTERX2
370
    -3
390
F
  0
LAYER
  5
73
330
2
100
AcDbSymbolTableRecord
100
AcDbLayerTableRecord
  2
파단선
 70
     0
 62
     4
  6
Continuous
370
    -3
390
F
  0
LAYER
  5
74
330
2
100
AcDbSymbolTableRecord
100
AcDbLayerTableRecord
  2
해칭선
 70
     0
 62
   100
  6
Continuous
370
    -3
390
F
  0
LAYER
  5
75
330
2
100
AcDbSymbolTableRecord
100
AcDbLayerTableRecord
  2
가는실선
 70
     0
 62
     4
  6
Continuous
370
    -3
390
F
  0
LAYER
  5
76
330
2
100
AcDbSymbolTableRecord
100
AcDbLayerTableRecord
  2
치수_보조선
 70
     0
 62
     4
  6
Continuous
370
    -3
390
F
  0
LAYER
  5
77
330
2
100
AcDbSymbolTableRecord
100
AcDbLayerTableRecord
  2
치수문자_일반주서
 70
     0
 62
     7
  6
Continuous
370
    15
390
F
  0
LAYER
  5
78
330
2
100
AcDbSymbolTableRecord
100
AcDbLayerTableRecord
  2
개별주서
 70
     0
 62
   100
  6
Continuous
370
    30
390
F
  0
LAYER
  5
79
330
2
100
AcDbSymbolTableRecord
100
AcDbLayerTableRecord
  2
중간선
 70
     0
 62
     2
  6
Continuous
370
    15
390
F
  0
LAYER
  5
7A
330
2
100
AcDbSymbolTableRecord
100
AcDbLayerTableRecord
  2
윤곽선
 70
     0
 62
     3
  6
Continuous
370
    40
390
F
  0
LAYER
  5
7B
330
2
100
AcDbSymbolTableRecord
100
AcDbLayerTableRecord
  2
중심마크
 70
     0
 62
   100
  6
Continuous
370
    30
390
F
  0
LAYER
  5
7C
330
2
100
AcDbSymbolTableRecord
100
AcDbLayerTableRecord
  2
가상선
 70
     0
 62
     4
  6
PHANTOM
370
    -3
390
F
  0
LAYER
  5
7D
330
2
100
AcDbSymbolTableRecord
100
AcDbLayerTableRecord
  2
특수지정선
 70
     0
 62
     5
  6
CENTERX2
370
    60
390
F
  0
LAYER
  5
7E
330
2
100
AcDbSymbolTableRecord
100
AcDbLayerTableRecord
  2
참조1
 70
     0
 62
    -4
  6
Continuous
370
    -3
390
F
  0
LAYER
  5
152
330
2
100
AcDbSymbolTableRecord
100
AcDbLayerTableRecord
  2
Defpoints
 70
     0
 62
     7
  6
Continuous
290
     0
370
    -3
390
F
  0
ENDTAB
  0
TABLE
  2
STYLE
  5
3
330
0
100
AcDbSymbolTable
 70
     2
  0
STYLE
  5
11
330
3
100
AcDbSymbolTableRecord
100
AcDbTextStyleTableRecord
  2
Standard
 70
     0
 40
0.0
 41
1.0
 50
0.0
 71
     0
 42
3.5
  3
txt
  4

  0
STYLE
  5
94
330
3
100
AcDbSymbolTableRecord
100
AcDbTextStyleTableRecord
  2
SLDTEXTSTYLE0
 70
     0
 40
0.0
 41
0.75
 50
0.0
 71
     0
 42
3.5
  3
TXT
  4

  0
ENDTAB
  0
TABLE
  2
VIEW
  5
6
330
0
100
AcDbSymbolTable
 70
     0
  0
ENDTAB
  0
TABLE
  2
UCS
  5
7
330
0
100
AcDbSymbolTable
 70
     0
  0
ENDTAB
  0
TABLE
  2
APPID
  5
9
330
0
100
AcDbSymbolTable
 70
     2
  0
APPID
  5
12
330
9
100
AcDbSymbolTableRecord
100
AcDbRegAppTableRecord
  2
ACAD
 70
     0
  0
APPID
  5
159
330
9
100
AcDbSymbolTableRecord
100
AcDbRegAppTableRecord
  2
PE_URL
 70
     0
  0
ENDTAB
  0
TABLE
  2
DIMSTYLE
  5
A
330
0
100
AcDbSymbolTable
 70
     3
100
AcDbDimStyleTable
  0
DIMSTYLE
105
27
330
A
100
AcDbSymbolTableRecord
100
AcDbDimStyleTableRecord
  2
ISO-25
 70
     0
 41
2.5
 42
0.625
 43
3.75
 44
1.25
 73
     0
 74
     0
 77
     1
 78
     8
140
2.5
141
2.5
143
0.03937007874016
147
0.625
171
     3
172
     1
178
     0
271
     2
272
     2
274
     3
278
    44
283
     0
284
     8
340
11
  0
DIMSTYLE
105
D1
102
{ACAD_REACTORS
330
D0
330
10D
330
E5
330
FA
102
}
330
A
100
AcDbSymbolTableRecord
100
AcDbDimStyleTableRecord
  2
SLDDIMSTYLE0
 70
     0
 41
3.302
 44
0.0
 45
0.000000001
 73
     0
 74
     0
 77
     1
 78
    12
 79
     3
140
3.5
143
0.0393700787401575
147
0.875
148
0.000000001
170
     1
172
     1
173
     1
178
     0
271
     2
272
     2
276
     2
284
    12
289
     0
340
94
  0
DIMSTYLE
105
E6
330
A
100
AcDbSymbolTableRecord
100
AcDbDimStyleTableRecord
  2
SLDDIMSTYLE1
 70
     0
 41
3.302
 44
0.0
 45
0.000000001
 73
     0
 74
     0
 77
     1
 78
    12
 79
     3
140
3.5
143
0.0393700787401575
147
0.875
148
0.000000001
170
     1
173
     1
178
     0
271
     2
272
     2
276
     2
284
    12
340
94
  0
ENDTAB
  0
TABLE
  2
BLOCK_RECORD
  5
1
330
0
100
AcDbSymbolTable
 70
     9
  0
BLOCK_RECORD
  5
1F
330
1
100
AcDbSymbolTableRecord
100
AcDbBlockTableRecord
  2
*Model_Space
340
22
  0
BLOCK_RECORD
  5
1B
330
1
100
AcDbSymbolTableRecord
100
AcDbBlockTableRecord
  2
*Paper_Space
340
1E
  0
BLOCK_RECORD
  5
23
330
1
100
AcDbSymbolTableRecord
100
AcDbBlockTableRecord
  2
*Paper_Space0
340
26
  0
BLOCK_RECORD
  5
7F
330
1
100
AcDbSymbolTableRecord
100
AcDbBlockTableRecord
  2
블럭10
340
0
102
{BLKREFS
331
C9
102
}
  0
BLOCK_RECORD
  5
D2
330
1
100
AcDbSymbolTableRecord
100
AcDbBlockTableRecord
  2
_D
340
0
  0
BLOCK_RECORD
  5
E7
330
1
100
AcDbSymbolTableRecord
100
AcDbBlockTableRecord
  2
_D_1
340
0
  0
BLOCK_RECORD
  5
FB
330
1
100
AcDbSymbolTableRecord
100
AcDbBlockTableRecord
  2
_D_2
340
0
  0
BLOCK_RECORD
  5
10E
330
1
100
AcDbSymbolTableRecord
100
AcDbBlockTableRecord
  2
_D_3
340
0
  0
BLOCK_RECORD
  5
128
330
1
100
AcDbSymbolTableRecord
100
AcDbBlockTableRecord
  2
SW_DOWELSYMBOL_0
340
0
102
{BLKREFS
331
12E
102
}
  0
BLOCK_RECORD
  5
18D
330
1
100
AcDbSymbolTableRecord
100
AcDbBlockTableRecord
  2
*D7
340
0
  0
BLOCK_RECORD
  5
19F
330
1
100
AcDbSymbolTableRecord
100
AcDbBlockTableRecord
  2
*D8
340
0
  0
ENDTAB
  0
ENDSEC
  0
SECTION
  2
BLOCKS
  0
BLOCK
  5
20
330
1F
100
AcDbEntity
  8
0
100
AcDbBlockBegin
  2
*Model_Space
 70
     0
 10
0.0
 20
0.0
 30
0.0
  3
*Model_Space
  1
*Model_Space
  0
ENDBLK
  5
21
330
1F
100
AcDbEntity
  8
0
100
AcDbBlockEnd
  0
BLOCK
  5
1C
330
1B
100
AcDbEntity
 67
     1
  8
0
100
AcDbBlockBegin
  2
*Paper_Space
 70
     0
 10
0.0
 20
0.0
 30
0.0
  3
*Paper_Space
  1
*Paper_Space
  0
ENDBLK
  5
1D
330
1B
100
AcDbEntity
 67
     1
  8
0
100
AcDbBlockEnd
  0
BLOCK
  5
24
330
23
100
AcDbEntity
  8
0
100
AcDbBlockBegin
  2
*Paper_Space0
 70
     0
 10
0.0
 20
0.0
 30
0.0
  3
*Paper_Space0
  1
*Paper_Space0
  0
ENDBLK
  5
25
330
23
100
AcDbEntity
  8
0
100
AcDbBlockEnd
  0
BLOCK
  5
80
330
7F
100
AcDbEntity
  8
0
100
AcDbBlockBegin
  2
블럭10
 70
     2
 10
0.0
 20
0.0
 30
0.0
  3
블럭10
  1
블럭10
  0
ELLIPSE
  5
82
330
7F
100
AcDbEntity
  8
중심선
100
AcDbEllipse
 10
20.54032771741204
 20
12.0471743016438
 30
0.0
 11
6.600054785286829
 21
-1.261213355974178E-13
 31
0.0
210
0.0
220
0.0
230
1.0
 40
0.636358354079598
 41
0.9219305317359503
 42
6.513795318482858
  0
ELLIPSE
  5
83
330
7F
100
AcDbEntity
  8
중심선
100
AcDbEllipse
 10
20.54032771746488
 20
12.04717430159265
 30
0.0
 11
3.960054785062283
 21
1.540847449632565E-10
 31
0.0
210
0.0
220
0.0
230
1.0
 40
0.3939339440162632
 41
1.131841032648279
 42
5.62031148352944
  0
LINE
  5
84
330
7F
100
AcDbEntity
  8
중심선
100
AcDbLine
 10
2.268634060543552
 20
16.24717430164393
 30
0.0
 11
5.714909304380834
 21
16.24717430164393
 31
0.0
  0
LINE
  5
85
330
7F
100
AcDbEntity
  8
중심선
100
AcDbLine
 10
5.245725140726316
 20
7.84717430164391
 30
0.0
 11
8.692000384563599
 21
7.84717430164391
 31
0.0
  0
LINE
  5
86
330
7F
100
AcDbEntity
  8
중심선
100
AcDbLine
 10
15.74043728645272
 20
16.24717430164393
 30
0.0
 11
8.692000384563599
 21
7.84717430164391
 31
0.0
  0
LINE
  5
87
330
7F
100
AcDbEntity
  8
중심선
100
AcDbLine
 10
0.1404042013395286
 20
13.71084872107135
 30
0.0
 11
3.58671253028996
 21
13.71088815037384
 31
0.0
  0
LINE
  5
88
330
7F
100
AcDbEntity
  8
중심선
100
AcDbLine
 10
2.750260043222114
 20
10.84717430164391
 30
0.0
 11
6.196535287059397
 21
10.84717430164391
 31
0.0
  0
LINE
  5
89
330
7F
100
AcDbEntity
  8
중심선
100
AcDbLine
 10
12.29416204261559
 20
16.24717430164393
 30
0.0
 11
5.245725140726316
 21
7.84717430164391
 31
0.0
  0
LINE
  5
8A
330
7F
100
AcDbEntity
  8
중심선
100
AcDbLine
 10
10.72767329541681
 20
16.24717430164393
 30
0.0
 11
6.196535287059397
 21
10.84717430164391
 31
0.0
  0
LINE
  5
8B
330
7F
100
AcDbEntity
  8
중심선
100
AcDbLine
 10
7.28139805157953
 20
16.24717430164393
 30
0.0
 11
2.750260043222114
 21
10.84717430164391
 31
0.0
  0
LINE
  5
8C
330
7F
100
AcDbEntity
  8
중심선
100
AcDbLine
 10
5.714909304380834
 20
16.24717430164393
 30
0.0
 11
3.58671253028996
 21
13.71088815037384
 31
0.0
  0
LINE
  5
8D
330
7F
100
AcDbEntity
  8
중심선
100
AcDbLine
 10
2.268634060543552
 20
16.24717430164393
 30
0.0
 11
0.1404042013395286
 21
13.71084872107135
 31
0.0
  0
LINE
  5
8E
330
7F
100
AcDbEntity
  8
중심선
100
AcDbLine
 10
7.28139805157953
 20
16.24717430164393
 30
0.0
 11
10.72767329541681
 21
16.24717430164393
 31
0.0
  0
LINE
  5
8F
330
7F
100
AcDbEntity
  8
중심선
100
AcDbLine
 10
12.29416204261559
 20
16.24717430164393
 30
0.0
 11
15.74043728645272
 21
16.24717430164393
 31
0.0
  0
LINE
  5
90
330
7F
100
AcDbEntity
  8
중심선
100
AcDbLine
 10
19.22036997980202
 20
11.08717430171403
 30
0.0
 11
23.66174974927406
 21
11.08717430171406
 31
0.0
  0
LINE
  5
91
330
7F
100
AcDbEntity
  8
중심선
100
AcDbLine
 10
19.22039502424796
 20
13.00717430171391
 30
0.0
 11
19.22036997980202
 21
11.08717430171403
 31
0.0
  0
LINE
  5
92
330
7F
100
AcDbEntity
  8
중심선
100
AcDbLine
 10
19.22039502424796
 20
13.00717430171391
 30
0.0
 11
26.96566020931264
 21
13.00717430171391
 31
0.0
  0
LINE
  5
93
330
7F
100
AcDbEntity
  8
중심선
100
AcDbLine
 10
22.22332737316547
 20
13.45928029700563
 30
0.0
 11
24.52862924686651
 21
15.39360700705356
 31
0.0
  0
ATTDEF
  5
95
330
7F
100
AcDbEntity
  8
FORMAT
 62
     2
100
AcDbText
 10
4.408487351596664
 20
2.075366912832191
 30
0.0
 40
4.233333333333333
  1
E1004009
 41
0.75
  7
SLDTEXTSTYLE0
 11
4.408487351596664
 21
-0.0412997538344756
 31
0.0
100
AcDbAttributeDefinition
  3

  2
AUTOATTR0
 70
     0
 74
     1
  0
ENDBLK
  5
81
330
7F
100
AcDbEntity
  8
0
100
AcDbBlockEnd
  0
BLOCK
  5
D3
330
D2
100
AcDbEntity
  8
0
100
AcDbBlockBegin
  2
_D
 70
     0
 10
0.0
 20
0.0
 30
0.0
  3
_D
  1
_D
  0
LINE
  5
D5
330
D2
100
AcDbEntity
  8
치수문자_일반주서
 62
     0
370
    -2
100
AcDbLine
 10
28.63750000000002
 20
1.779369878307617
 30
0.0
 11
70.80461479776059
 21
1.779369878307772
 31
0.0
  0
LINE
  5
D6
330
D2
100
AcDbEntity
  8
치수문자_일반주서
 62
     0
370
    -2
100
AcDbLine
 10
28.63750000000002
 20
-1.779369878307616
 30
0.0
 11
70.8046147977606
 21
-1.77936987830746
 31
0.0
  0
LINE
  5
D7
330
D2
100
AcDbEntity
  8
치수문자_일반주서
 62
     0
370
    -2
100
AcDbLine
 10
70.80461479776059
 20
1.779369878307772
 30
0.0
 11
70.80461479776045
 21
37.26493750000016
 31
0.0
  0
LINE
  5
D8
330
D2
100
AcDbEntity
  8
치수문자_일반주서
 62
     0
370
    -2
100
AcDbLine
 10
70.80461479776059
 20
1.779369878307772
 30
0.0
 11
70.8046147977606
 21
-1.77936987830746
 31
0.0
  0
LINE
  5
D9
330
D2
100
AcDbEntity
  8
치수문자_일반주서
 62
     0
370
    -2
100
AcDbLine
 10
70.80461479776058
 20
5.081369878307772
 30
0.0
 11
70.80461479776056
 21
8.383369878307771
 31
0.0
  0
LINE
  5
DA
330
D2
100
AcDbEntity
  8
치수문자_일반주서
 62
     0
370
    -2
100
AcDbLine
 10
70.80461479776062
 20
-5.081369878307459
 30
0.0
 11
70.80461479776064
 21
-8.383369878307459
 31
0.0
  0
SOLID
  5
DB
330
D2
100
AcDbEntity
  8
치수문자_일반주서
 62
     0
100
AcDbTrace
 10
70.25428146442725
 20
5.08136987830777
 30
0.0
 11
71.3549481310939
 21
5.081369878307774
 31
0.0
 12
70.80461479776059
 22
1.779369878307772
 32
0.0
 13
70.80461479776059
 23
1.779369878307772
 33
0.0
  0
SOLID
  5
DC
330
D2
100
AcDbEntity
  8
치수문자_일반주서
 62
     0
100
AcDbTrace
 10
71.35494813109395
 20
-5.081369878307457
 30
0.0
 11
70.2542814644273
 21
-5.081369878307461
 31
0.0
 12
70.8046147977606
 22
-1.77936987830746
 32
0.0
 13
70.8046147977606
 23
-1.77936987830746
 33
0.0
  0
MTEXT
  5
DD
330
D2
100
AcDbEntity
  8
치수문자_일반주서
 62
     0
100
AcDbMText
 10
66.42961479776051
 20
22.82743750000014
 30
0.0
 40
3.5
 41
0.0
 71
     2
 72
     1
  1
\A1;%%c3.56 [9/64]
  7
SLDTEXTSTYLE0
 11
-3.993226728306243E-15
 21
1.0
 31
0.0
 73
     1
 44
1.0
  0
POINT
  5
DE
330
D2
100
AcDbEntity
  8
Defpoints
 62
     0
100
AcDbPoint
 10
28.57500000000002
 20
1.779369878307617
 30
0.0
  0
POINT
  5
DF
330
D2
100
AcDbEntity
  8
Defpoints
 62
     0
100
AcDbPoint
 10
28.57500000000002
 20
-1.779369878307617
 30
0.0
  0
POINT
  5
E0
330
D2
100
AcDbEntity
  8
Defpoints
 62
     0
100
AcDbPoint
 10
70.8046147977606
 20
-1.779369878307459
 30
0.0
  0
ENDBLK
  5
D4
330
D2
100
AcDbEntity
  8
0
100
AcDbBlockEnd
  0
BLOCK
  5
E8
330
E7
100
AcDbEntity
  8
0
100
AcDbBlockBegin
  2
_D_1
 70
     0
 10
0.0
 20
0.0
 30
0.0
  3
_D_1
  1
_D_1
  0
LINE
  5
EA
330
E7
100
AcDbEntity
  8
치수문자_일반주서
 62
     0
370
    -2
100
AcDbLine
 10
28.57500000000001
 20
1.841869878307617
 30
0.0
 11
28.57500000000001
 21
12.38124999999999
 31
0.0
  0
LINE
  5
EB
330
E7
100
AcDbEntity
  8
치수문자_일반주서
 62
     0
370
    -2
100
AcDbLine
 10
18.25625000000002
 20
1.778958286847594
 30
0.0
 11
18.25625000000002
 21
12.38124999999999
 31
0.0
  0
LINE
  5
EC
330
E7
100
AcDbEntity
  8
치수문자_일반주서
 62
     0
370
    -2
100
AcDbLine
 10
28.57500000000001
 20
12.38124999999999
 30
0.0
 11
64.4915
 21
12.38124999999999
 31
0.0
  0
LINE
  5
ED
330
E7
100
AcDbEntity
  8
치수문자_일반주서
 62
     0
370
    -2
100
AcDbLine
 10
28.57500000000001
 20
12.38124999999999
 30
0.0
 11
18.25625000000002
 21
12.38124999999999
 31
0.0
  0
LINE
  5
EE
330
E7
100
AcDbEntity
  8
치수문자_일반주서
 62
     0
370
    -2
100
AcDbLine
 10
31.87700000000001
 20
12.38124999999999
 30
0.0
 11
35.17900000000001
 21
12.38124999999999
 31
0.0
  0
LINE
  5
EF
330
E7
100
AcDbEntity
  8
치수문자_일반주서
 62
     0
370
    -2
100
AcDbLine
 10
14.95425000000002
 20
12.38124999999999
 30
0.0
 11
11.65225000000002
 21
12.38124999999999
 31
0.0
  0
SOLID
  5
F0
330
E7
100
AcDbEntity
  8
치수문자_일반주서
 62
     0
100
AcDbTrace
 10
31.87700000000001
 20
12.93158333333333
 30
0.0
 11
31.87700000000001
 21
11.83091666666666
 31
0.0
 12
28.57500000000001
 22
12.38124999999999
 32
0.0
 13
28.57500000000001
 23
12.38124999999999
 33
0.0
  0
SOLID
  5
F1
330
E7
100
AcDbEntity
  8
치수문자_일반주서
 62
     0
100
AcDbTrace
 10
14.95425000000002
 20
11.83091666666666
 30
0.0
 11
14.95425000000002
 21
12.93158333333333
 31
0.0
 12
18.25625000000002
 22
12.38124999999999
 32
0.0
 13
18.25625000000002
 23
12.38124999999999
 33
0.0
  0
MTEXT
  5
F2
330
E7
100
AcDbEntity
  8
치수문자_일반주서
 62
     0
100
AcDbMText
 10
49.83525000000001
 20
16.75624999999999
 30
0.0
 40
3.5
 41
0.0
 71
     2
 72
     1
  1
\A1;10.32 [13/32]
  7
SLDTEXTSTYLE0
 73
     1
 44
1.0
  0
POINT
  5
F3
330
E7
100
AcDbEntity
  8
Defpoints
 62
     0
100
AcDbPoint
 10
28.57500000000001
 20
1.779369878307617
 30
0.0
  0
POINT
  5
F4
330
E7
100
AcDbEntity
  8
Defpoints
 62
     0
100
AcDbPoint
 10
18.25625000000002
 20
1.716458286847594
 30
0.0
  0
POINT
  5
F5
330
E7
100
AcDbEntity
  8
Defpoints
 62
     0
100
AcDbPoint
 10
18.25625000000002
 20
12.38124999999999
 30
0.0
  0
ENDBLK
  5
E9
330
E7
100
AcDbEntity
  8
0
100
AcDbBlockEnd
  0
BLOCK
  5
FC
330
FB
100
AcDbEntity
  8
0
100
AcDbBlockBegin
  2
_D_2
 70
     0
 10
0.0
 20
0.0
 30
0.0
  3
_D_2
  1
_D_2
  0
LINE
  5
FE
330
FB
100
AcDbEntity
  8
치수문자_일반주서
 62
     0
370
    -2
100
AcDbLine
 10
28.57500000000001
 20
1.841869878307617
 30
0.0
 11
28.57500000000001
 21
22.38125
 31
0.0
  0
LINE
  5
FF
330
FB
100
AcDbEntity
  8
치수문자_일반주서
 62
     0
370
    -2
100
AcDbLine
 10
-28.57500000000004
 20
1.841869878307625
 30
0.0
 11
-28.57500000000004
 21
22.38125
 31
0.0
  0
LINE
  5
100
330
FB
100
AcDbEntity
  8
치수문자_일반주서
 62
     0
370
    -2
100
AcDbLine
 10
25.27300000000001
 20
22.38125
 30
0.0
 11
-25.27300000000004
 21
22.38125
 31
0.0
  0
SOLID
  5
101
330
FB
100
AcDbEntity
  8
치수문자_일반주서
 62
     0
100
AcDbTrace
 10
25.27300000000001
 20
21.83091666666666
 30
0.0
 11
25.27300000000001
 21
22.93158333333333
 31
0.0
 12
28.57500000000001
 22
22.38125
 32
0.0
 13
28.57500000000001
 23
22.38125
 33
0.0
  0
SOLID
  5
102
330
FB
100
AcDbEntity
  8
치수문자_일반주서
 62
     0
100
AcDbTrace
 10
-25.27300000000004
 20
22.93158333333333
 30
0.0
 11
-25.27300000000004
 21
21.83091666666666
 31
0.0
 12
-28.57500000000004
 22
22.38125
 32
0.0
 13
-28.57500000000004
 23
22.38125
 33
0.0
  0
MTEXT
  5
103
330
FB
100
AcDbEntity
  8
치수문자_일반주서
 62
     0
100
AcDbMText
 10
-1.4581794861211
 20
26.75625
 30
0.0
 40
3.5
 41
0.0
 71
     2
 72
     1
  1
\A1;57.15 [2 1/4]
  7
SLDTEXTSTYLE0
 73
     1
 44
1.0
  0
POINT
  5
104
330
FB
100
AcDbEntity
  8
Defpoints
 62
     0
100
AcDbPoint
 10
28.57500000000001
 20
1.779369878307617
 30
0.0
  0
POINT
  5
105
330
FB
100
AcDbEntity
  8
Defpoints
 62
     0
100
AcDbPoint
 10
-28.57500000000004
 20
1.779369878307625
 30
0.0
  0
POINT
  5
106
330
FB
100
AcDbEntity
  8
Defpoints
 62
     0
100
AcDbPoint
 10
-28.57500000000004
 20
22.38125
 30
0.0
  0
ENDBLK
  5
FD
330
FB
100
AcDbEntity
  8
0
100
AcDbBlockEnd
  0
BLOCK
  5
10F
330
10E
100
AcDbEntity
  8
0
100
AcDbBlockBegin
  2
_D_3
 70
     0
 10
0.0
 20
0.0
 30
0.0
  3
_D_3
  1
_D_3
  0
LINE
  5
111
330
10E
100
AcDbEntity
  8
치수문자_일반주서
 62
     0
370
    -2
100
AcDbLine
 10
-15.09701350361915
 20
2.381250000000004
 30
0.0
 11
-38.575
 21
2.381249999999916
 31
0.0
  0
LINE
  5
112
330
10E
100
AcDbEntity
  8
치수문자_일반주서
 62
     0
370
    -2
100
AcDbLine
 10
-15.09701350361914
 20
-2.381250000000003
 30
0.0
 11
-38.57499999999999
 21
-2.38125000000009
 31
0.0
  0
LINE
  5
113
330
10E
100
AcDbEntity
  8
치수문자_일반주서
 62
     0
370
    -2
100
AcDbLine
 10
-38.575
 20
2.381249999999916
 30
0.0
 11
-38.57500000000011
 21
36.98524999999997
 31
0.0
  0
LINE
  5
114
330
10E
100
AcDbEntity
  8
치수문자_일반주서
 62
     0
370
    -2
100
AcDbLine
 10
-38.575
 20
2.381249999999916
 30
0.0
 11
-38.57499999999999
 21
-2.38125000000009
 31
0.0
  0
LINE
  5
115
330
10E
100
AcDbEntity
  8
치수문자_일반주서
 62
     0
370
    -2
100
AcDbLine
 10
-38.57500000000001
 20
5.683249999999916
 30
0.0
 11
-38.57500000000002
 21
8.985249999999915
 31
0.0
  0
LINE
  5
116
330
10E
100
AcDbEntity
  8
치수문자_일반주서
 62
     0
370
    -2
100
AcDbLine
 10
-38.57499999999998
 20
-5.68325000000009
 30
0.0
 11
-38.57499999999997
 21
-8.98525000000009
 31
0.0
  0
SOLID
  5
117
330
10E
100
AcDbEntity
  8
치수문자_일반주서
 62
     0
100
AcDbTrace
 10
-39.12533333333334
 20
5.683249999999914
 30
0.0
 11
-38.02466666666668
 21
5.683249999999918
 31
0.0
 12
-38.575
 22
2.381249999999916
 32
0.0
 13
-38.575
 23
2.381249999999916
 33
0.0
  0
SOLID
  5
118
330
10E
100
AcDbEntity
  8
치수문자_일반주서
 62
     0
100
AcDbTrace
 10
-38.02466666666665
 20
-5.683250000000088
 30
0.0
 11
-39.12533333333332
 21
-5.683250000000092
 31
0.0
 12
-38.57499999999999
 22
-2.38125000000009
 32
0.0
 13
-38.57499999999999
 23
-2.38125000000009
 33
0.0
  0
MTEXT
  5
119
330
10E
100
AcDbEntity
  8
치수문자_일반주서
 62
     0
100
AcDbMText
 10
-42.95000000000007
 20
22.98524999999995
 30
0.0
 40
3.5
 41
0.0
 71
     2
 72
     1
  1
\A1;%%c4.76 [3/16]
  7
SLDTEXTSTYLE0
 11
-2.983906501879681E-15
 21
1.0
 31
0.0
 73
     1
 44
1.0
  0
POINT
  5
1B1
330
10E
100
AcDbEntity
  8
Defpoints
 62
     0
100
AcDbPoint
 10
-15.03451350361915
 20
2.381250000000005
 30
0.0
  0
POINT
  5
1B2
330
10E
100
AcDbEntity
  8
Defpoints
 62
     0
100
AcDbPoint
 10
-15.03451350361914
 20
-2.381250000000003
 30
0.0
  0
POINT
  5
1B3
330
10E
100
AcDbEntity
  8
Defpoints
 62
     0
100
AcDbPoint
 10
-38.57499999999999
 20
-2.381250000000091
 30
0.0
  0
ENDBLK
  5
110
330
10E
100
AcDbEntity
  8
0
100
AcDbBlockEnd
  0
BLOCK
  5
129
330
128
100
AcDbEntity
  8
0
100
AcDbBlockBegin
  2
SW_DOWELSYMBOL_0
 70
     0
 10
0.0
 20
0.0
 30
0.0
  3
SW_DOWELSYMBOL_0
  1
SW_DOWELSYMBOL_0
  0
CIRCLE
  5
12B
330
128
100
AcDbEntity
  8
해칭선
 62
     0
100
AcDbCircle
 10
0.0
 20
0.0
 30
0.0
 40
3.000000000000001
  0
HATCH
  5
12C
330
128
100
AcDbEntity
  8
0
  6
Continuous
 62
     0
370
     0
100
AcDbHatch
 10
0.0
 20
0.0
 30
0.0
210
0.0
220
0.0
230
1.0
  2
SOLID
 70
     1
 71
     0
 91
        1
 92
        0
 93
        3
 72
     2
 10
0.0
 20
0.0
 40
3.000000000000001
 50
0.0
 51
90.0
 73
     1
 72
     1
 10
0.0
 20
3.000000000000001
 11
0.0
 21
0.0
 72
     1
 10
0.0
 20
0.0
 11
3.000000000000001
 21
0.0
 97
        0
 75
     0
 76
     1
 98
        1
 10
0.0
 20
0.0
  0
HATCH
  5
12D
330
128
100
AcDbEntity
  8
0
  6
Continuous
 62
     0
370
     0
100
AcDbHatch
 10
0.0
 20
0.0
 30
0.0
210
0.0
220
0.0
230
1.0
  2
SOLID
 70
     1
 71
     0
 91
        1
 92
        0
 93
        3
 72
     2
 10
0.0
 20
0.0
 40
3.000000000000001
 50
180.0
 51
270.0000000000007
 73
     1
 72
     1
 10
0.0
 20
-3.000000000000001
 11
0.0
 21
0.0
 72
     1
 10
0.0
 20
0.0
 11
-3.000000000000001
 21
0.0
 97
        0
 75
     0
 76
     1
 98
        1
 10
0.0
 20
0.0
  0
ENDBLK
  5
12A
330
128
100
AcDbEntity
  8
0
100
AcDbBlockEnd
  0
BLOCK
  5
18E
330
18D
100
AcDbEntity
  8
0
100
AcDbBlockBegin
  2
*D7
 70
     1
 10
0.0
 20
0.0
 30
0.0
  3
*D7
  1
*D7
  0
LINE
  5
190
330
18D
100
AcDbEntity
  8
치수문자_일반주서
 62
     0
370
    -2
100
AcDbLine
 10
16.12900000000002
 20
3.225824228102428
 30
0.0
 11
16.12900000000002
 21
13.96291211405121
 31
0.0
  0
LINE
  5
191
330
18D
100
AcDbEntity
  8
치수문자_일반주서
 62
     0
370
    -2
100
AcDbLine
 10
6.603999999999999
 20
3.101127653826765
 30
0.0
 11
6.603999999999999
 21
13.96291211405121
 31
0.0
  0
LINE
  5
192
330
18D
100
AcDbEntity
  8
치수문자_일반주서
 62
     0
370
    -2
100
AcDbLine
 10
16.12900000000002
 20
13.96291211405121
 30
0.0
 11
46.57675
 21
13.96291211405121
 31
0.0
  0
LINE
  5
193
330
18D
100
AcDbEntity
  8
치수문자_일반주서
 62
     0
370
    -2
100
AcDbLine
 10
16.12900000000002
 20
13.96291211405121
 30
0.0
 11
6.603999999999999
 21
13.96291211405121
 31
0.0
  0
LINE
  5
194
330
18D
100
AcDbEntity
  8
치수문자_일반주서
 62
     0
370
    -2
100
AcDbLine
 10
19.43100000000002
 20
13.96291211405121
 30
0.0
 11
22.73300000000002
 21
13.96291211405121
 31
0.0
  0
LINE
  5
195
330
18D
100
AcDbEntity
  8
치수문자_일반주서
 62
     0
370
    -2
100
AcDbLine
 10
3.302
 20
13.96291211405121
 30
0.0
 11
0.0
 21
13.96291211405121
 31
0.0
  0
SOLID
  5
196
330
18D
100
AcDbEntity
  8
치수문자_일반주서
 62
     0
100
AcDbTrace
 10
19.43100000000002
 20
14.51324544738455
 30
0.0
 11
19.43100000000002
 21
13.41257878071788
 31
0.0
 12
16.12900000000002
 22
13.96291211405121
 32
0.0
 13
16.12900000000002
 23
13.96291211405121
 33
0.0
  0
SOLID
  5
197
330
18D
100
AcDbEntity
  8
치수문자_일반주서
 62
     0
100
AcDbTrace
 10
3.302
 20
13.41257878071788
 30
0.0
 11
3.302
 21
14.51324544738455
 31
0.0
 12
6.603999999999999
 22
13.96291211405121
 32
0.0
 13
6.603999999999999
 23
13.96291211405121
 33
0.0
  0
MTEXT
  5
198
330
18D
100
AcDbEntity
  8
치수문자_일반주서
 62
     0
100
AcDbMText
 10
34.76425
 20
18.33791211405121
 30
0.0
 40
3.5
 41
0.0
 71
     2
 72
     1
  1
\A1;9.53 [3/8]
  7
SLDTEXTSTYLE0
 73
     1
 44
1.0
  0
POINT
  5
199
330
18D
100
AcDbEntity
  8
Defpoints
 62
     0
100
AcDbPoint
 10
16.12900000000002
 20
3.163324228102428
 30
0.0
  0
POINT
  5
19A
330
18D
100
AcDbEntity
  8
Defpoints
 62
     0
100
AcDbPoint
 10
6.603999999999999
 20
3.038627653826765
 30
0.0
  0
POINT
  5
19B
330
18D
100
AcDbEntity
  8
Defpoints
 62
     0
100
AcDbPoint
 10
6.603999999999999
 20
13.96291211405121
 30
0.0
  0
ENDBLK
  5
18F
330
18D
100
AcDbEntity
  8
0
100
AcDbBlockEnd
  0
BLOCK
  5
1A0
330
19F
100
AcDbEntity
  8
0
100
AcDbBlockBegin
  2
*D8
 70
     1
 10
0.0
 20
0.0
 30
0.0
  3
*D8
  1
*D8
  0
LINE
  5
1A2
330
19F
100
AcDbEntity
  8
치수문자_일반주서
 62
     0
370
    -2
100
AcDbLine
 10
73.99461082350527
 20
-9.836079564245079
 30
0.0
 11
73.99461082350527
 21
0.9010083217037064
 31
0.0
  0
LINE
  5
1A3
330
19F
100
AcDbEntity
  8
치수문자_일반주서
 62
     0
370
    -2
100
AcDbLine
 10
64.46961082350525
 20
-9.960776138520743
 30
0.0
 11
64.46961082350525
 21
0.9010083217037064
 31
0.0
  0
LINE
  5
1A4
330
19F
100
AcDbEntity
  8
치수문자_일반주서
 62
     0
370
    -2
100
AcDbLine
 10
73.99461082350527
 20
0.9010083217037064
 30
0.0
 11
104.4423608235053
 21
0.9010083217037064
 31
0.0
  0
LINE
  5
1A5
330
19F
100
AcDbEntity
  8
치수문자_일반주서
 62
     0
370
    -2
100
AcDbLine
 10
73.99461082350527
 20
0.9010083217037064
 30
0.0
 11
64.46961082350525
 21
0.9010083217037064
 31
0.0
  0
LINE
  5
1A6
330
19F
100
AcDbEntity
  8
치수문자_일반주서
 62
     0
370
    -2
100
AcDbLine
 10
77.29661082350526
 20
0.9010083217037064
 30
0.0
 11
80.59861082350525
 21
0.9010083217037064
 31
0.0
  0
LINE
  5
1A7
330
19F
100
AcDbEntity
  8
치수문자_일반주서
 62
     0
370
    -2
100
AcDbLine
 10
61.16761082350525
 20
0.9010083217037064
 30
0.0
 11
57.86561082350525
 21
0.9010083217037064
 31
0.0
  0
SOLID
  5
1A8
330
19F
100
AcDbEntity
  8
치수문자_일반주서
 62
     0
100
AcDbTrace
 10
77.29661082350526
 20
1.451341655037039
 30
0.0
 11
77.29661082350526
 21
0.3506749883703731
 31
0.0
 12
73.99461082350527
 22
0.9010083217037064
 32
0.0
 13
73.99461082350527
 23
0.9010083217037064
 33
0.0
  0
SOLID
  5
1A9
330
19F
100
AcDbEntity
  8
치수문자_일반주서
 62
     0
100
AcDbTrace
 10
61.16761082350525
 20
0.3506749883703731
 30
0.0
 11
61.16761082350525
 21
1.451341655037039
 31
0.0
 12
64.46961082350525
 22
0.9010083217037064
 32
0.0
 13
64.46961082350525
 23
0.9010083217037064
 33
0.0
  0
MTEXT
  5
1AA
330
19F
100
AcDbEntity
  8
치수문자_일반주서
 62
     0
100
AcDbMText
 10
92.62986082350525
 20
5.276008321703706
 30
0.0
 40
3.5
 41
0.0
 71
     2
 72
     1
  1
\A1;9.53 [3/8]
  7
SLDTEXTSTYLE0
 73
     1
 44
1.0
  0
POINT
  5
1AB
330
19F
100
AcDbEntity
  8
Defpoints
 62
     0
100
AcDbPoint
 10
73.99461082350527
 20
-9.898579564245079
 30
0.0
  0
POINT
  5
1AC
330
19F
100
AcDbEntity
  8
Defpoints
 62
     0
100
AcDbPoint
 10
64.46961082350525
 20
-10.02327613852074
 30
0.0
  0
POINT
  5
1AD
330
19F
100
AcDbEntity
  8
Defpoints
 62
     0
100
AcDbPoint
 10
64.46961082350525
 20
0.9010083217037064
 30
0.0
  0
ENDBLK
  5
1A1
330
19F
100
AcDbEntity
  8
0
100
AcDbBlockEnd
  0
ENDSEC
  0
SECTION
  2
ENTITIES
  0
LINE
  5
96
330
1F
100
AcDbEntity
  8
0
  6
Continuous
 62
     1
370
    15
100
AcDbLine
 10
23.98185578468715
 20
-1.785937500000001
 30
0.0
 11
25.06991975091642
 21
-1.785937500000001
 31
0.0
1001
PE_URL
1000

  0
LINE
  5
97
330
1F
100
AcDbEntity
  8
0
  6
Continuous
 62
     1
370
    15
100
AcDbLine
 10
20.21084735889898
 20
1.785937500000001
 30
0.0
 11
19.12146631692877
 21
1.785937500000001
 31
0.0
1001
PE_URL
1000

  0
LINE
  5
98
330
1F
100
AcDbEntity
  8
0
  6
Continuous
 62
     1
370
    15
100
AcDbLine
 10
25.06991975091642
 20
1.785937500000001
 30
0.0
 11
23.98185578468717
 21
1.785937500000001
 31
0.0
1001
PE_URL
1000

  0
LINE
  5
99
330
1F
100
AcDbEntity
  8
0
  6
Continuous
 62
     1
370
    15
100
AcDbLine
 10
19.12146631692877
 20
-1.785937500000001
 30
0.0
 11
20.21084735889896
 21
-1.785937500000001
 31
0.0
1001
PE_URL
1000

  0
LINE
  5
9A
330
1F
100
AcDbEntity
  8
외형선
  6
Continuous
370
    15
100
AcDbLine
 10
15.03451350361914
 20
-2.381250000000005
 30
0.0
 11
17.25625
 21
-1.7859375
 31
0.0
  0
LINE
  5
9B
330
1F
100
AcDbEntity
  8
외형선
  6
Continuous
370
    15
100
AcDbLine
 10
17.25625
 20
1.7859375
 30
0.0
 11
15.03451350361914
 21
2.381250000000006
 31
0.0
  0
LINE
  5
9C
330
1F
100
AcDbEntity
  8
외형선
  6
Continuous
370
    15
100
AcDbLine
 10
-15.03451350361914
 20
-2.381250000000003
 30
0.0
 11
15.03451350361914
 21
-2.381250000000003
 31
0.0
  0
LINE
  5
9D
330
1F
100
AcDbEntity
  8
외형선
  6
Continuous
370
    15
100
AcDbLine
 10
15.03451350361914
 20
2.381250000000003
 30
0.0
 11
-15.03451350361915
 21
2.381250000000003
 31
0.0
  0
LINE
  5
A0
330
1F
100
AcDbEntity
  8
외형선
  6
Continuous
370
    15
100
AcDbLine
 10
17.25625
 20
-1.7859375
 30
0.0
 11
17.75638744461446
 21
-1.7859375
 31
0.0
  0
LINE
  5
A1
330
1F
100
AcDbEntity
  8
외형선
  6
Continuous
370
    15
100
AcDbLine
 10
17.75638744461446
 20
1.7859375
 30
0.0
 11
17.25625
 21
1.7859375
 31
0.0
  0
LINE
  5
A2
330
1F
100
AcDbEntity
  8
0
  6
Continuous
 62
     1
370
    15
100
AcDbLine
 10
28.57500000000001
 20
-1.617490284686434
 30
0.0
 11
28.57500000000001
 21
0.1530215346864555
 31
0.0
1001
PE_URL
1000

  0
SPLINE
  5
A3
330
1F
100
AcDbEntity
  8
0
  6
Continuous
 62
     1
370
    15
100
AcDbSpline
210
0.0
220
0.0
230
1.0
 70
     8
 71
     3
 72
    18
 73
    14
 74
     0
 42
0.000000001
 43
0.00000001
 40
0.0
 40
0.0
 40
0.0
 40
0.0
 40
0.0625163097342756
 40
0.1612477417226697
 40
0.2598878381579407
 40
0.3584855036088214
 40
0.4570900910756135
 40
0.5475609948317268
 40
0.6382140138396749
 40
0.7286782225759603
 40
0.8190264153913113
 40
0.909415132475096
 40
1.0
 40
1.0
 40
1.0
 40
1.0
 10
20.21084735889899
 20
1.771168761751072
 30
0.0
 10
20.38521133642232
 20
1.772073678692768
 30
0.0
 10
20.83494673719894
 20
1.774407722623305
 30
0.0
 10
21.55962878256877
 20
1.635223202002804
 30
0.0
 10
22.3847741909692
 20
1.380273899053539
 30
0.0
 10
23.20947724986143
 20
1.022487286852152
 30
0.0
 10
24.01148113418455
 20
0.6056079473837782
 30
0.0
 10
24.79120510597308
 20
0.1619180081522929
 30
0.0
 10
25.54887251559834
 20
-0.2772924643571171
 30
0.0
 10
26.30560418178089
 20
-0.7012986542927445
 30
0.0
 10
27.06145140132385
 20
-1.081529266100026
 30
0.0
 10
27.81765221844898
 20
-1.404344919364198
 30
0.0
 10
28.32236839187637
 20
-1.546390510293245
 30
0.0
 10
28.57500000000002
 20
-1.617490284686434
 30
0.0
1001
PE_URL
1000

  0
SPLINE
  5
A4
330
1F
100
AcDbEntity
  8
0
  6
Continuous
 62
     1
370
    15
100
AcDbSpline
210
0.0
220
0.0
230
1.0
 70
     8
 71
     3
 72
    15
 73
    11
 74
     0
 42
0.000000001
 43
0.00000001
 40
0.0
 40
0.0
 40
0.0
 40
0.0
 40
0.1272532429781581
 40
0.2543602236319436
 40
0.3813834484974702
 40
0.5083863075614764
 40
0.635432406312742
 40
0.7625848930159054
 40
0.8898789340918255
 40
1.0
 40
1.0
 40
1.0
 40
1.0
 10
28.57500000000002
 20
0.1530215346864554
 30
0.0
 10
28.29947895618925
 20
0.3102807546454529
 30
0.0
 10
27.7487535469276
 20
0.6246184439711493
 30
0.0
 10
26.92326680432075
 20
1.049230059780884
 30
0.0
 10
26.09841120991393
 20
1.400249405230237
 30
0.0
 10
25.27372196125173
 20
1.651801681346784
 30
0.0
 10
24.44868443609099
 20
1.787125465517173
 30
0.0
 10
23.62291859765436
 20
1.793711806038653
 30
0.0
 10
22.83343631126132
 20
1.686574178876628
 30
0.0
 10
22.31958080197851
 20
1.529943731302495
 30
0.0
 10
22.08123743316836
 20
1.457293291911149
 30
0.0
1001
PE_URL
1000

  0
SPLINE
  5
A5
330
1F
100
AcDbEntity
  8
0
  6
Continuous
 62
     1
370
    15
100
AcDbSpline
210
0.0
220
0.0
230
1.0
 70
     8
 71
     3
 72
    18
 73
    14
 74
     0
 42
0.000000001
 43
0.00000001
 40
0.0
 40
0.0
 40
0.0
 40
0.0
 40
0.0949122836773448
 40
0.1899087329355638
 40
0.2850027725949997
 40
0.3800079331400127
 40
0.4749252052718511
 40
0.5698016478279104
 40
0.6646847511526812
 40
0.7517411481166429
 40
0.838972787031317
 40
0.9260227416554788
 40
1.0
 40
1.0
 40
1.0
 40
1.0
 10
18.25625000000014
 20
1.054882645090321
 30
0.0
 10
18.53123067628605
 20
0.9194433409555974
 30
0.0
 10
19.08143587409536
 20
0.6484446288675082
 30
0.0
 10
19.90729707446908
 20
0.176023198798204
 30
0.0
 10
20.73371027103471
 20
-0.3031659603269987
 30
0.0
 10
21.55962748799697
 20
-0.7626522499287842
 30
0.0
 10
22.38477453572535
 20
-1.167630694525802
 30
0.0
 10
23.20947716428621
 20
-1.490064787675653
 30
0.0
 10
24.01148112947612
 20
-1.700843136518225
 30
0.0
 10
24.79120519307318
 20
-1.796946701627613
 30
0.0
 10
25.54887216872977
 20
-1.780869018987239
 30
0.0
 10
26.26805832103806
 20
-1.673290971546058
 30
0.0
 10
26.73445257452821
 20
-1.527726833997391
 30
0.0
 10
26.94871802410507
 20
-1.460853442782271
 30
0.0
1001
PE_URL
1000

  0
SPLINE
  5
A6
330
1F
100
AcDbEntity
  8
외형선
  6
Continuous
370
    15
100
AcDbSpline
210
0.0
220
0.0
230
1.0
 70
    24
 71
     3
 72
    11
 73
     7
 74
     0
 42
0.000000001
 43
0.00000001
 40
0.0
 40
0.0
 40
0.0
 40
0.0
 40
0.2289938710840893
 40
0.4626787903089292
 40
0.7331548077930338
 40
1.0
 40
1.0
 40
1.0
 40
1.0
 10
18.25624999999997
 20
1.716458286847481
 30
0.0
 10
18.25624999999998
 20
1.66614438212174
 30
0.0
 10
18.25625000000003
 20
1.564485868450533
 30
0.0
 10
18.25624999999997
 20
1.406180642966823
 30
0.0
 10
18.25625
 20
1.245166893989321
 30
0.0
 10
18.25625000000002
 20
1.144266663408173
 30
0.0
 10
18.25625000000003
 20
1.094157453241997
 30
0.0
  0
SPLINE
  5
A7
330
1F
100
AcDbEntity
  8
0
  6
Continuous
 62
     1
370
    15
100
AcDbSpline
210
0.0
220
0.0
230
1.0
 70
     8
 71
     3
 72
    38
 73
    34
 74
     0
 42
0.000000001
 43
0.00000001
 40
0.0
 40
0.0
 40
0.0
 40
0.0
 40
0.0625
 40
0.0625
 40
0.125
 40
0.125
 40
0.1875
 40
0.1875
 40
0.25
 40
0.25
 40
0.3125
 40
0.3125
 40
0.375
 40
0.375
 40
0.4375
 40
0.4375
 40
0.5
 40
0.5
 40
0.5625
 40
0.5625
 40
0.625
 40
0.625
 40
0.6875
 40
0.6875
 40
0.75
 40
0.75
 40
0.8125
 40
0.8125
 40
0.875
 40
0.875
 40
0.9375
 40
0.9375
 40
1.0
 40
1.0
 40
1.0
 40
1.0
 10
28.57500000000002
 20
-1.779369878307617
 30
0.0
 10
28.36268647259305
 20
-1.76877987800325
 30
0.0
 10
28.14510287396228
 20
-1.745179936853319
 30
0.0
 10
27.71337943441598
 20
-1.673066628914275
 30
0.0
 10
27.50196699632413
 20
-1.624910989167091
 30
0.0
 10
27.07034304021336
 20
-1.505178914009501
 30
0.0
 10
26.8527097577944
 20
-1.433662691283383
 30
0.0
 10
26.42779489704775
 20
-1.272267685846404
 30
0.0
 10
26.21054809012093
 20
-1.181146957500195
 30
0.0
 10
25.77873059627331
 20
-0.9834109729909247
 30
0.0
 10
25.56730858494294
 20
-0.8774080451262589
 30
0.0
 10
25.13578953722312
 20
-0.6528483236222662
 30
0.0
 10
24.91810935917596
 20
-0.5346324164578465
 30
0.0
 10
24.49291183835294
 20
-0.2940752832921583
 30
0.0
 10
24.27599249310875
 20
-0.1699814264102682
 30
0.0
 10
23.84408637804592
 20
0.0785334203429043
 30
0.0
 10
23.63264522063945
 20
0.2022557601998772
 30
0.0
 10
23.20123650186061
 20
0.446621827438599
 30
0.0
 10
22.98351221837141
 20
0.5667914471791832
 30
0.0
 10
22.55803719497889
 20
0.7954543339652927
 30
0.0
 10
22.34143596780551
 20
0.9055326593438792
 30
0.0
 10
21.90944666833811
 20
1.110747521922144
 30
0.0
 10
21.69797679281981
 20
1.205351254662914
 30
0.0
 10
21.26668381890022
 20
1.377019203832645
 30
0.0
 10
21.0489182220614
 20
1.453650910811013
 30
0.0
 10
20.62317086505354
 20
1.583827991771372
 30
0.0
 10
20.40687839912954
 20
1.638251125848046
 30
0.0
 10
19.97481135556508
 20
1.72246844440496
 30
0.0
 10
19.76330319110191
 20
1.752134539144865
 30
0.0
 10
19.33213137310254
 20
1.786135604608603
 30
0.0
 10
19.11432725679242
 20
1.790214206795415
 30
0.0
 10
18.68831274636631
 20
1.772570993359265
 30
0.0
 10
18.47231967204263
 20
1.750797208628218
 30
0.0
 10
18.25625000000012
 20
1.716458286847502
 30
0.0
1001
PE_URL
1000

  0
SPLINE
  5
A8
330
1F
100
AcDbEntity
  8
0
  6
Continuous
 62
     1
370
    15
100
AcDbSpline
210
0.0
220
0.0
230
1.0
 70
     8
 71
     3
 72
    12
 73
     8
 74
     0
 42
0.000000001
 43
0.00000001
 40
0.0
 40
0.0
 40
0.0
 40
0.0
 40
0.2157137488289453
 40
0.4316187866277639
 40
0.6477456249194161
 40
0.8636704614656525
 40
1.0
 40
1.0
 40
1.0
 40
1.0
 10
18.25625000000016
 20
-1.441109072552631
 30
0.0
 10
18.53123061221082
 20
-1.524934023122595
 30
0.0
 10
19.08143568181276
 20
-1.692658257903892
 30
0.0
 10
19.90729784472498
 20
-1.798069694849364
 30
0.0
 10
20.73370738048816
 20
-1.779211664520161
 30
0.0
 10
21.45840703866108
 20
-1.664601988879846
 30
0.0
 10
21.90744910755583
 20
-1.515138624523088
 30
0.0
 10
22.08123743316833
 20
-1.457293291911148
 30
0.0
1001
PE_URL
1000

  0
SPLINE
  5
A9
330
1F
100
AcDbEntity
  8
외형선
  6
Continuous
370
    15
100
AcDbSpline
210
0.0
220
0.0
230
1.0
 70
    24
 71
     3
 72
    22
 73
    18
 74
     0
 42
0.000000001
 43
0.00000001
 40
0.0
 40
0.0
 40
0.0
 40
0.0
 40
0.0243084065240854
 40
0.0964747317434213
 40
0.1707338852830121
 40
0.2429002105023505
 40
0.3171593640419436
 40
0.3893256892614678
 40
0.4635848428008698
 40
0.5357511680199532
 40
0.6100103215592688
 40
0.6821766467788626
 40
0.7564358003187349
 40
0.8286021255380039
 40
0.9028612790776639
 40
0.9511263062660271
 40
1.0
 40
1.0
 40
1.0
 40
1.0
 10
18.25624999999999
 20
0.4689392481739178
 30
0.0
 10
18.25625
 20
0.465537674014799
 30
0.0
 10
18.25624999999998
 20
0.4520375725506741
 30
0.0
 10
18.25625000000002
 20
0.4008287064597583
 30
0.0
 10
18.25625000000004
 20
0.3138188236406294
 30
0.0
 10
18.25624999999998
 20
0.1988793971132767
 30
0.0
 10
18.25624999999996
 20
0.0634735860293316
 30
0.0
 10
18.25625000000003
 20
-0.0915778552128796
 30
0.0
 10
18.25625000000002
 20
-0.2589417089428155
 30
0.0
 10
18.25625000000002
 20
-0.4369348489972756
 30
0.0
 10
18.25625
 20
-0.6173024344966221
 30
0.0
 10
18.25624999999999
 20
-0.7981965483224247
 30
0.0
 10
18.25625
 20
-0.9712102036545521
 30
0.0
 10
18.25625
 20
-1.134673477567201
 30
0.0
 10
18.25625000000001
 20
-1.264640773625863
 30
0.0
 10
18.25624999999998
 20
-1.366797799357916
 30
0.0
 10
18.25624999999999
 20
-1.416235390299968
 30
0.0
 10
18.25625
 20
-1.441109072552579
 30
0.0
  0
SPLINE
  5
AA
330
1F
100
AcDbEntity
  8
0
  6
Continuous
 62
     1
370
    15
100
AcDbSpline
210
0.0
220
0.0
230
1.0
 70
     8
 71
     3
 72
    15
 73
    11
 74
     0
 42
0.000000001
 43
0.00000001
 40
0.0
 40
0.0
 40
0.0
 40
0.0
 40
0.0626404768127739
 40
0.2070038379224438
 40
0.3392440554567852
 40
0.471252984927923
 40
0.6032587769293067
 40
0.7354896528381427
 40
0.8678997588740118
 40
1.0
 40
1.0
 40
1.0
 40
1.0
 10
23.98185578468715
 20
-1.770335479066912
 30
0.0
 10
23.86229726842588
 20
-1.773960349356715
 30
0.0
 10
23.46720015260466
 20
-1.785939218294816
 30
0.0
 10
22.81940705557253
 20
-1.675443685604899
 30
0.0
 10
22.03952692927398
 20
-1.461344551915
 30
0.0
 10
21.28354310286933
 20
-1.159943588860306
 30
0.0
 10
20.52757708484667
 20
-0.7910479770983512
 30
0.0
 10
19.77055653604713
 20
-0.3751820294827571
 30
0.0
 10
19.01296431678349
 20
0.0644413356857712
 30
0.0
 10
18.50829103637816
 20
0.3504579963718915
 30
0.0
 10
18.25625000000012
 20
0.4932987973011898
 30
0.0
1001
PE_URL
1000

  0
LINE
  5
AB
330
1F
100
AcDbEntity
  8
외형선
  6
Continuous
370
    15
100
AcDbLine
 10
18.25624999999996
 20
0.4932987973012603
 30
0.0
 11
18.25624999999999
 21
1.054882645090388
 31
0.0
  0
LINE
  5
AC
330
1F
100
AcDbEntity
  8
0
  6
Continuous
 62
     1
370
    15
100
AcDbLine
 10
28.57500000000001
 20
-1.779369878307617
 30
0.0
 11
28.57500000000001
 21
-1.617490284686434
 31
0.0
1001
PE_URL
1000

  0
SPLINE
  5
AD
330
1F
100
AcDbEntity
  8
0
  6
Continuous
 62
     1
370
    15
100
AcDbSpline
210
0.0
220
0.0
230
1.0
 70
     8
 71
     3
 72
    12
 73
     8
 74
     0
 42
0.000000001
 43
0.00000001
 40
0.0
 40
0.0
 40
0.0
 40
0.0
 40
0.1367136000662801
 40
0.3525774645339081
 40
0.5681644941584283
 40
0.7838482219723317
 40
1.0
 40
1.0
 40
1.0
 40
1.0
 10
25.06991975091642
 20
1.773509833354063
 30
0.0
 10
25.22972492977881
 20
1.774280221919453
 30
0.0
 10
25.6418544088897
 20
1.776267015091162
 30
0.0
 10
26.30560711475583
 20
1.659463290999968
 30
0.0
 10
27.06145061928594
 20
1.442969937451916
 30
0.0
 10
27.81765241449014
 20
1.139297243577108
 30
0.0
 10
28.32236845727062
 20
0.8846340230044132
 30
0.0
 10
28.57500000000002
 20
0.7571644027892681
 30
0.0
1001
PE_URL
1000

  0
LINE
  5
AE
330
1F
100
AcDbEntity
  8
0
  6
Continuous
 62
     1
370
    15
100
AcDbLine
 10
28.57500000000001
 20
0.1530215346864554
 30
0.0
 11
28.57500000000001
 21
0.7571644027892681
 31
0.0
1001
PE_URL
1000

  0
SPLINE
  5
AF
330
1F
100
AcDbEntity
  8
0
  6
Continuous
 62
     1
370
    15
100
AcDbSpline
210
0.0
220
0.0
230
1.0
 70
     8
 71
     3
 72
     9
 73
     5
 74
     0
 42
0.000000001
 43
0.00000001
 40
0.0
 40
0.0
 40
0.0
 40
0.0
 40
0.5081690905158167
 40
1.0
 40
1.0
 40
1.0
 40
1.0
 10
28.57500000000002
 20
1.779369878307617
 30
0.0
 10
28.29947746512321
 20
1.754970903988031
 30
0.0
 10
27.75729074023378
 20
1.706957408529623
 30
0.0
 10
27.21529049678242
 20
1.541989673793221
 30
0.0
 10
26.94871802410507
 20
1.460853442782271
 30
0.0
1001
PE_URL
1000

  0
SPLINE
  5
B0
330
1F
100
AcDbEntity
  8
0
  6
Continuous
 62
     1
370
    15
100
AcDbSpline
210
0.0
220
0.0
230
1.0
 70
     8
 71
     3
 72
     9
 73
     5
 74
     0
 42
0.000000001
 43
0.00000001
 40
0.0
 40
0.0
 40
0.0
 40
0.0
 40
0.1259155261524667
 40
1.0
 40
1.0
 40
1.0
 40
1.0
 10
19.12146631692877
 20
-1.77937313286285
 30
0.0
 10
19.0851356916327
 20
-1.781511740303058
 30
0.0
 10
18.7966039560619
 20
-1.798496202073225
 30
0.0
 10
18.50827439375972
 20
-1.754721272836819
 30
0.0
 10
18.25625000000012
 20
-1.716458286847502
 30
0.0
1001
PE_URL
1000

  0
LINE
  5
B1
330
1F
100
AcDbEntity
  8
0
  6
Continuous
 62
     1
370
    15
100
AcDbLine
 10
28.57500000000001
 20
0.7488174798123339
 30
0.0
 11
28.57500000000001
 21
1.779369878307617
 31
0.0
1001
PE_URL
1000

  0
LINE
  5
B2
330
1F
100
AcDbEntity
  8
외형선
  6
Continuous
370
    15
100
AcDbLine
 10
18.25624999999996
 20
-1.716458286847481
 30
0.0
 11
18.25625
 21
-1.441109072552579
 31
0.0
  0
LINE
  5
B3
330
1F
100
AcDbEntity
  8
외형선
  6
Continuous
370
    15
100
AcDbLine
 10
17.25625
 20
0.0
 30
0.0
 11
17.25625
 21
1.7859375
 31
0.0
  0
LINE
  5
B4
330
1F
100
AcDbEntity
  8
외형선
  6
Continuous
370
    15
100
AcDbLine
 10
17.25625
 20
-1.7859375
 30
0.0
 11
17.25625
 21
0.0
 31
0.0
  0
LINE
  5
B5
330
1F
100
AcDbEntity
  8
외형선
  6
Continuous
370
    15
100
AcDbLine
 10
15.03451350361914
 20
0.0
 30
0.0
 11
15.03451350361914
 21
2.381250000000006
 31
0.0
  0
LINE
  5
B6
330
1F
100
AcDbEntity
  8
외형선
  6
Continuous
370
    15
100
AcDbLine
 10
15.03451350361914
 20
-2.381250000000007
 30
0.0
 11
15.03451350361914
 21
0.0
 31
0.0
  0
SPLINE
  5
BB
330
1F
100
AcDbEntity
  8
외형선
  6
Continuous
370
    15
100
AcDbSpline
210
0.0
220
0.0
230
1.0
 70
     8
 71
     3
 72
     8
 73
     4
 74
     0
 42
0.000000001
 43
0.00000001
 40
0.0
 40
0.0
 40
0.0
 40
0.0
 40
1.0
 40
1.0
 40
1.0
 40
1.0
 10
18.25625000000002
 20
1.716458286847484
 30
0.0
 10
18.08820423512721
 20
1.68975157543815
 30
0.0
 10
17.9229364566885
 20
1.655670521325211
 30
0.0
 10
17.75638744461448
 20
1.614451743022124
 30
0.0
  0
LINE
  5
BC
330
1F
100
AcDbEntity
  8
외형선
  6
Continuous
370
    15
100
AcDbLine
 10
17.75638744461446
 20
1.273451847773611
 30
0.0
 11
17.75638744461446
 21
1.7859375
 31
0.0
  0
SPLINE
  5
BD
330
1F
100
AcDbEntity
  8
외형선
  6
Continuous
370
    15
100
AcDbSpline
210
0.0
220
0.0
230
1.0
 70
     8
 71
     3
 72
     8
 73
     4
 74
     0
 42
0.000000001
 43
0.00000001
 40
0.0
 40
0.0
 40
0.0
 40
0.0
 40
1.0
 40
1.0
 40
1.0
 40
1.0
 10
18.25625000000018
 20
1.054882645090309
 30
0.0
 10
18.08820423512732
 20
1.132902872020936
 30
0.0
 10
17.92293645668856
 20
1.20586801285833
 30
0.0
 10
17.75638744461446
 20
1.273456593726038
 30
0.0
  0
SPLINE
  5
BE
330
1F
100
AcDbEntity
  8
외형선
  6
Continuous
370
    15
100
AcDbSpline
210
0.0
220
0.0
230
1.0
 70
     8
 71
     3
 72
     8
 73
     4
 74
     0
 42
0.000000001
 43
0.00000001
 40
0.0
 40
0.0
 40
0.0
 40
0.0
 40
1.0
 40
1.0
 40
1.0
 40
1.0
 10
18.25625000000002
 20
0.4932987973012484
 30
0.0
 10
18.08820423512721
 20
0.5862261597107743
 30
0.0
 10
17.9229364566885
 20
0.6764769731696633
 30
0.0
 10
17.75638744461448
 20
0.7636218457843416
 30
0.0
  0
LINE
  5
BF
330
1F
100
AcDbEntity
  8
외형선
  6
Continuous
370
    15
100
AcDbLine
 10
17.75638744461446
 20
-1.252155399823925
 30
0.0
 11
17.75638744461446
 21
0.7636214973443151
 31
0.0
  0
SPLINE
  5
C0
330
1F
100
AcDbEntity
  8
외형선
  6
Continuous
370
    15
100
AcDbSpline
210
0.0
220
0.0
230
1.0
 70
     8
 71
     3
 72
     8
 73
     4
 74
     0
 42
0.000000001
 43
0.00000001
 40
0.0
 40
0.0
 40
0.0
 40
0.0
 40
1.0
 40
1.0
 40
1.0
 40
1.0
 10
18.25625000000018
 20
-1.441109072552633
 30
0.0
 10
18.08820423512732
 20
-1.383998764302791
 30
0.0
 10
17.92293645668856
 20
-1.320889210334907
 30
0.0
 10
17.75638744461446
 20
-1.252150573134841
 30
0.0
  0
SPLINE
  5
C1
330
1F
100
AcDbEntity
  8
외형선
  6
Continuous
370
    15
100
AcDbSpline
210
0.0
220
0.0
230
1.0
 70
     8
 71
     3
 72
     8
 73
     4
 74
     0
 42
0.000000001
 43
0.00000001
 40
0.0
 40
0.0
 40
0.0
 40
0.0
 40
1.0
 40
1.0
 40
1.0
 40
1.0
 10
18.25625000000002
 20
-1.716458286847484
 30
0.0
 10
18.08820423512721
 20
-1.68975157543815
 30
0.0
 10
17.9229364566885
 20
-1.655670521325211
 30
0.0
 10
17.75638744461448
 20
-1.614451743022124
 30
0.0
  0
LINE
  5
C2
330
1F
100
AcDbEntity
  8
외형선
  6
Continuous
370
    15
100
AcDbLine
 10
17.75638744461446
 20
-1.7859375
 30
0.0
 11
17.75638744461446
 21
-1.614451907831226
 31
0.0
  0
SPLINE
  5
C3
330
1F
100
AcDbEntity
  8
외형선
  6
Continuous
370
    15
100
AcDbSpline
210
0.0
220
0.0
230
1.0
 70
    24
 71
     3
 72
    14
 73
    10
 74
     0
 42
0.000000001
 43
0.00000001
 40
0.0
 40
0.0
 40
0.0
 40
0.0
 40
0.129747010564129
 40
0.2755100968822076
 40
0.4212731832005548
 40
0.5670362695187664
 40
0.7127993558369747
 40
0.8585624421551828
 40
1.0
 40
1.0
 40
1.0
 40
1.0
 10
18.25625000000002
 20
-1.441109072552583
 30
0.0
 10
18.25625000000002
 20
-1.37005045226296
 30
0.0
 10
18.25625000000001
 20
-1.219161678215764
 30
0.0
 10
18.25624999999998
 20
-0.8986675472969434
 30
0.0
 10
18.25624999999998
 20
-0.5366734247866182
 30
0.0
 10
18.25625000000008
 20
-0.1768891345840196
 30
0.0
 10
18.25624999999999
 20
0.1347579773113602
 30
0.0
 10
18.25625000000001
 20
0.3729233571769767
 30
0.0
 10
18.25625
 20
0.4393263227285644
 30
0.0
 10
18.25624999999999
 20
0.4720277580217907
 30
0.0
  0
SPLINE
  5
C4
330
1F
100
AcDbEntity
  8
외형선
  6
Continuous
370
    15
100
AcDbSpline
210
0.0
220
0.0
230
1.0
 70
    24
 71
     3
 72
    12
 73
     8
 74
     0
 42
0.000000001
 43
0.00000001
 40
0.0
 40
0.0
 40
0.0
 40
0.0
 40
0.1156646982229605
 40
0.3852116040622799
 40
0.6625753884313472
 40
0.8303737441324062
 40
1.0
 40
1.0
 40
1.0
 40
1.0
 10
18.25625000000001
 20
1.094157453241997
 30
0.0
 10
18.25625000000001
 20
1.114781113372338
 30
0.0
 10
18.25625
 20
1.183466488620796
 30
0.0
 10
18.25625
 20
1.318634727415949
 30
0.0
 10
18.25625
 20
1.47029837516038
 30
0.0
 10
18.25624999999999
 20
1.604784836529471
 30
0.0
 10
18.25625
 20
1.679099610482326
 30
0.0
 10
18.25625000000002
 20
1.716458286847594
 30
0.0
  0
LINE
  5
C5
330
1F
100
AcDbEntity
  8
중심선
 62
     1
100
AcDbLine
 10
-31.575
 20
-0.0000000000000039
 30
0.0
 11
31.575
 21
0.0000000000000039
 31
0.0
  0
LINE
  5
C6
330
1F
100
AcDbEntity
  8
참조1
100
AcDbLine
 10
-0.0000000000000018
 20
-0.0000000000000039
 30
0.0
 11
0.0000000000000053
 21
-40.00000000000001
 31
0.0
  0
LINE
  5
C7
330
1F
100
AcDbEntity
  8
참조1
100
AcDbLine
 10
0.0000000000000053
 20
-40.00000000000001
 30
0.0
 11
-18.33385681430867
 21
-40.0
 31
0.0
  0
CIRCLE
  5
C8
330
1F
100
AcDbEntity
  8
해칭선
100
AcDbCircle
 10
0.0
 20
0.0
 30
0.0
 40
3.000000000000001
  0
INSERT
  5
C9
330
1F
100
AcDbEntity
  8
0
  6
Continuous
 62
     7
100
AcDbBlockReference
 66
     1
  2
블럭10
 10
-13.9402729321252
 20
-52.04717430164393
 30
0.0
  0
ATTRIB
  5
CA
330
C9
100
AcDbEntity
  8
FORMAT
 62
     2
100
AcDbText
 10
-23.12156822086648
 20
-49.97180738881174
 30
0.0
 40
4.233333333333333
  1
E2004009 [ 4 FLUTE ]
 41
0.75
  7
SLDTEXTSTYLE0
 11
-23.12156822086648
 21
-52.08847405547841
 31
0.0
100
AcDbAttribute
  2
AUTOATTR0
 70
     0
 74
     1
  0
SEQEND
  5
CB
330
C9
100
AcDbEntity
  8
0
  6
Continuous
 62
     7
  0
HATCH
  5
CC
330
1F
100
AcDbEntity
  8
중심선
100
AcDbHatch
 10
0.0
 20
0.0
 30
0.0
210
0.0
220
0.0
230
1.0
  2
SOLID
 70
     1
 71
     0
 91
        1
 92
        0
 93
        4
 72
     1
 10
-8.22536362774435
 20
-35.8
 11
-11.67163887158163
 21
-35.8
 72
     1
 10
-11.67163887158163
 20
-35.8
 11
-13.79986873078565
 21
-38.3363255805726
 72
     1
 10
-13.79986873078565
 20
-38.3363255805726
 11
-10.35356040183522
 21
-38.33628615127011
 72
     1
 10
-10.35356040183522
 20
-38.33628615127011
 11
-8.22536362774435
 21
-35.8
 97
        0
 75
     0
 76
     1
 98
        1
 10
10.91911934298439
 20
-0.0010749287238931
  0
HATCH
  5
CD
330
1F
100
AcDbEntity
  8
중심선
100
AcDbHatch
 10
0.0
 20
0.0
 30
0.0
210
0.0
220
0.0
230
1.0
  2
SOLID
 70
     1
 71
     0
 91
        1
 92
        0
 93
        4
 72
     1
 10
-3.21259963670837
 20
-35.80000000000003
 11
-6.658874880545653
 21
-35.79999999999998
 72
     1
 10
-6.658874880545653
 20
-35.79999999999998
 11
-11.19001288890307
 21
-41.20000000000002
 72
     1
 10
-11.19001288890307
 20
-41.20000000000002
 11
-7.743737645065789
 21
-41.20000000000002
 72
     1
 10
-7.743737645065789
 20
-41.20000000000002
 11
-3.21259963670837
 21
-35.80000000000003
 97
        0
 75
     0
 76
     1
 98
        1
 10
10.91911934298439
 20
-0.0010749287238931
  0
HATCH
  5
CE
330
1F
100
AcDbEntity
  8
중심선
100
AcDbHatch
 10
0.0
 20
0.0
 30
0.0
210
0.0
220
0.0
230
1.0
  2
SOLID
 70
     1
 71
     0
 91
        1
 92
        0
 93
        4
 72
     1
 10
1.800164354327524
 20
-35.8
 11
-1.646110889509592
 21
-35.8
 72
     1
 10
-1.646110889509592
 20
-35.8
 11
-8.694547791398868
 21
-44.20000000000002
 72
     1
 10
-8.694547791398868
 20
-44.20000000000002
 11
-5.248272547561587
 21
-44.20000000000002
 72
     1
 10
-5.248272547561587
 20
-44.20000000000002
 11
1.800164354327524
 21
-35.8
 97
        0
 75
     0
 76
     1
 98
        1
 10
10.91911934298439
 20
-0.0010749287238931
  0
HATCH
  5
CF
330
1F
100
AcDbEntity
  8
중심선
100
AcDbHatch
 10
0.0
 20
0.0
 30
0.0
210
0.0
220
0.0
230
1.0
  2
SOLID
 70
     1
 71
     0
 91
        1
 92
        0
 93
        6
 72
     3
 10
6.600054785339696
 20
-40.00000000005127
 11
3.960054785062283
 21
1.540882976769353E-10
 40
0.3939339440162628
 50
17.09539180608436
 51
320.0019657685075
 73
     0
 72
     1
 10
8.283054441040292
 20
-38.58789400463827
 11
10.58835631474136
 21
-36.65356729459038
 72
     3
 10
6.600054785286849
 20
-40.00000000000015
 11
6.600054785286829
 21
-1.278976924368180E-13
 40
0.636358354079598
 50
39.99873849337385
 51
368.4976242363724
 73
     1
 72
     1
 10
13.02538727718746
 20
-39.03999999993002
 11
5.280122092122772
 21
-39.03999999993002
 72
     1
 10
5.280122092122772
 20
-39.03999999993002
 11
5.280097047676838
 21
-40.95999999992991
 72
     1
 10
5.280097047676838
 20
-40.95999999992991
 11
9.721476817148876
 21
-40.95999999992988
 97
        0
 75
     0
 76
     1
 98
        1
 10
10.91911934298439
 20
-0.0010749287238931
  0
DIMENSION
  5
D0
330
1F
100
AcDbEntity
  8
치수문자_일반주서
100
AcDbDimension
  2
_D
 10
70.8046147977606
 20
-1.77936987830746
 30
0.0
 11
70.80461479776051
 21
22.82743750000016
 31
0.0
 70
   160
  1
%%c<>
 71
     2
 42
3.558739756615233
 52
-270.0
  3
SLDDIMSTYLE0
100
AcDbAlignedDimension
 13
28.57500000000002
 23
1.779369878307617
 33
0.0
 14
28.57500000000002
 24
-1.779369878307617
 34
0.0
 50
90.0000000000002
100
AcDbRotatedDimension
1001
PE_URL
1000

1001
ACAD
1000
DSTYLE
1002
{
1070
   171
1070
     8
1070
   273
1070
     7
1002
}
  0
DIMENSION
  5
E5
330
1F
100
AcDbEntity
  8
치수문자_일반주서
100
AcDbDimension
  2
_D_1
 10
18.25625000000002
 20
12.38124999999999
 30
0.0
 11
49.83525000000001
 21
12.38124999999999
 31
0.0
 70
   160
  1
<>
 71
     2
 42
10.31874999999999
  3
SLDDIMSTYLE0
100
AcDbAlignedDimension
 13
28.57500000000001
 23
1.779369878307617
 33
0.0
 14
18.25625000000002
 24
1.716458286847594
 34
0.0
 50
-0.0000000000000395
100
AcDbRotatedDimension
1001
PE_URL
1000

1001
ACAD
1000
DSTYLE
1002
{
1070
   171
1070
     8
1070
   273
1070
     7
1002
}
  0
DIMENSION
  5
FA
330
1F
100
AcDbEntity
  8
치수문자_일반주서
100
AcDbDimension
  2
_D_2
 10
-28.57500000000004
 20
22.38125
 30
0.0
 11
-1.4581794861211
 21
22.38125
 31
0.0
 70
   160
  1
<>
 71
     2
 42
57.15000000000005
  3
SLDDIMSTYLE0
100
AcDbAlignedDimension
 13
28.57500000000001
 23
1.779369878307617
 33
0.0
 14
-28.57500000000004
 24
1.779369878307625
 34
0.0
100
AcDbRotatedDimension
1001
PE_URL
1000

1001
ACAD
1000
DSTYLE
1002
{
1070
   171
1070
     8
1070
   273
1070
     7
1002
}
  0
DIMENSION
  5
10D
330
1F
100
AcDbEntity
  8
치수문자_일반주서
100
AcDbDimension
  2
_D_3
 10
-38.57499999999999
 20
-2.38125000000009
 30
0.0
 11
-38.57500000000007
 21
22.98524999999997
 31
0.0
 70
   160
  1
%%c<>
 71
     2
 42
4.762500000000007
 52
-270.0
  3
SLDDIMSTYLE0
100
AcDbAlignedDimension
 13
-15.03451350361915
 23
2.381250000000005
 33
0.0
 14
-15.03451350361914
 24
-2.381250000000003
 34
0.0
 50
90.0000000000002
100
AcDbRotatedDimension
1001
PE_URL
1000

1001
ACAD
1000
DSTYLE
1002
{
1070
   171
1070
     8
1070
   273
1070
     7
1002
}
  0
LINE
  5
121
330
1F
100
AcDbEntity
  8
참조1
100
AcDbLine
 10
79.6384838153456
 20
7.440000000000002
 30
0.0
 11
79.6384838153456
 21
-7.440000000000002
 31
0.0
  0
LINE
  5
122
330
1F
100
AcDbEntity
  8
참조1
100
AcDbLine
 10
92.3384838153456
 20
5.440000000000002
 30
0.0
 11
79.6384838153456
 21
5.440000000000002
 31
0.0
  0
SOLID
  5
123
330
1F
100
AcDbEntity
  8
참조1
100
AcDbTrace
 10
79.6384838153456
 20
5.440000000000002
 30
0.0
 11
85.98848381534559
 21
4.424000000000002
 31
0.0
 12
85.98848381534559
 22
6.456000000000002
 32
0.0
 13
85.98848381534559
 23
6.456000000000002
 33
0.0
  0
LINE
  5
124
330
1F
100
AcDbEntity
  8
참조1
100
AcDbLine
 10
92.3384838153456
 20
-5.440000000000002
 30
0.0
 11
79.6384838153456
 21
-5.440000000000002
 31
0.0
  0
SOLID
  5
125
330
1F
100
AcDbEntity
  8
참조1
100
AcDbTrace
 10
79.6384838153456
 20
-5.440000000000002
 30
0.0
 11
85.98848381534559
 21
-6.456000000000002
 31
0.0
 12
85.98848381534559
 22
-4.424000000000002
 32
0.0
 13
85.98848381534559
 23
-4.424000000000002
 33
0.0
  0
MTEXT
  5
126
330
1F
100
AcDbEntity
  8
참조1
100
AcDbMText
 10
89.02283394797159
 20
11.01029177718833
 30
0.0
 40
3.5
 41
0.0
 71
     1
 72
     1
  1
A
  7
SLDTEXTSTYLE0
 73
     1
 44
1.0
  0
MTEXT
  5
127
330
1F
100
AcDbEntity
  8
참조1
100
AcDbMText
 10
89.02283394797159
 20
0.1302917771883287
 30
0.0
 40
3.5
 41
0.0
 71
     1
 72
     1
  1
A
  7
SLDTEXTSTYLE0
 73
     1
 44
1.0
  0
INSERT
  5
12E
330
1F
100
AcDbEntity
  8
해칭선
100
AcDbBlockReference
  2
SW_DOWELSYMBOL_0
 10
0.0
 20
0.0
 30
0.0
  0
LINE
  5
1DB
330
1F
100
AcDbEntity
  8
0
  6
Continuous
 62
     1
370
    15
100
AcDbLine
 10
-23.98185578468716
 20
1.785937500000005
 30
0.0
 11
-25.06991975091643
 21
1.785937500000007
 31
0.0
1001
PE_URL
1000

  0
LINE
  5
1DC
330
1F
100
AcDbEntity
  8
0
  6
Continuous
 62
     1
370
    15
100
AcDbLine
 10
-20.210847358899
 20
-1.785937499999999
 30
0.0
 11
-19.12146631692879
 21
-1.785937500000001
 31
0.0
1001
PE_URL
1000

  0
LINE
  5
1DD
330
1F
100
AcDbEntity
  8
0
  6
Continuous
 62
     1
370
    15
100
AcDbLine
 10
-25.06991975091643
 20
-1.785937499999996
 30
0.0
 11
-23.98185578468718
 21
-1.785937499999996
 31
0.0
1001
PE_URL
1000

  0
LINE
  5
1DE
330
1F
100
AcDbEntity
  8
0
  6
Continuous
 62
     1
370
    15
100
AcDbLine
 10
-19.12146631692879
 20
1.785937500000001
 30
0.0
 11
-20.21084735889897
 21
1.785937500000001
 31
0.0
1001
PE_URL
1000

  0
LINE
  5
1DF
330
1F
100
AcDbEntity
  8
외형선
  6
Continuous
370
    15
100
AcDbLine
 10
-15.03451350361915
 20
2.381250000000003
 30
0.0
 11
-17.25625000000002
 21
1.785937499999998
 31
0.0
  0
LINE
  5
1E0
330
1F
100
AcDbEntity
  8
외형선
  6
Continuous
370
    15
100
AcDbLine
 10
-17.25625000000002
 20
-1.785937500000001
 30
0.0
 11
-15.03451350361916
 21
-2.381250000000008
 31
0.0
  0
LINE
  5
1E1
330
1F
100
AcDbEntity
  8
외형선
  6
Continuous
370
    15
100
AcDbLine
 10
-17.25625000000002
 20
1.785937499999998
 30
0.0
 11
-17.75638744461448
 21
1.7859375
 31
0.0
  0
LINE
  5
1E2
330
1F
100
AcDbEntity
  8
외형선
  6
Continuous
370
    15
100
AcDbLine
 10
-17.75638744461448
 20
-1.785937500000001
 30
0.0
 11
-17.25625000000002
 21
-1.785937500000001
 31
0.0
  0
LINE
  5
1E3
330
1F
100
AcDbEntity
  8
0
  6
Continuous
 62
     1
370
    15
100
AcDbLine
 10
-28.57500000000002
 20
1.617490284686442
 30
0.0
 11
-28.57500000000002
 21
-0.1530215346864467
 31
0.0
1001
PE_URL
1000

  0
SPLINE
  5
1E4
330
1F
100
AcDbEntity
  8
0
  6
Continuous
 62
     1
370
    15
100
AcDbSpline
210
0.0
220
0.0
230
1.0
 70
     8
 71
     3
 72
    18
 73
    14
 74
     0
 42
0.000000001
 43
0.00000001
 40
0.0
 40
0.0
 40
0.0
 40
0.0
 40
0.0625163097342756
 40
0.1612477417226697
 40
0.2598878381579407
 40
0.3584855036088214
 40
0.4570900910756135
 40
0.5475609948317268
 40
0.6382140138396749
 40
0.7286782225759603
 40
0.8190264153913113
 40
0.909415132475096
 40
1.0
 40
1.0
 40
1.0
 40
1.0
 10
-20.210847358899
 20
-1.77116876175107
 30
0.0
 10
-20.38521133642233
 20
-1.772073678692766
 30
0.0
 10
-20.83494673719896
 20
-1.774407722623303
 30
0.0
 10
-21.55962878256879
 20
-1.635223202002802
 30
0.0
 10
-22.38477419096921
 20
-1.380273899053536
 30
0.0
 10
-23.20947724986145
 20
-1.022487286852147
 30
0.0
 10
-24.01148113418456
 20
-0.6056079473837739
 30
0.0
 10
-24.79120510597309
 20
-0.1619180081522875
 30
0.0
 10
-25.54887251559836
 20
0.2772924643571229
 30
0.0
 10
-26.30560418178091
 20
0.7012986542927513
 30
0.0
 10
-27.06145140132386
 20
1.081529266100034
 30
0.0
 10
-27.817652218449
 20
1.404344919364206
 30
0.0
 10
-28.32236839187638
 20
1.546390510293254
 30
0.0
 10
-28.57500000000004
 20
1.617490284686444
 30
0.0
1001
PE_URL
1000

  0
SPLINE
  5
1E5
330
1F
100
AcDbEntity
  8
0
  6
Continuous
 62
     1
370
    15
100
AcDbSpline
210
0.0
220
0.0
230
1.0
 70
     8
 71
     3
 72
    15
 73
    11
 74
     0
 42
0.000000001
 43
0.00000001
 40
0.0
 40
0.0
 40
0.0
 40
0.0
 40
0.1272532429781581
 40
0.2543602236319436
 40
0.3813834484974702
 40
0.5083863075614764
 40
0.635432406312742
 40
0.7625848930159054
 40
0.8898789340918255
 40
1.0
 40
1.0
 40
1.0
 40
1.0
 10
-28.57500000000004
 20
-0.1530215346864467
 30
0.0
 10
-28.29947895618926
 20
-0.3102807546454433
 30
0.0
 10
-27.74875354692761
 20
-0.6246184439711404
 30
0.0
 10
-26.92326680432077
 20
-1.049230059780877
 30
0.0
 10
-26.09841120991395
 20
-1.40024940523023
 30
0.0
 10
-25.27372196125175
 20
-1.651801681346779
 30
0.0
 10
-24.44868443609101
 20
-1.787125465517167
 30
0.0
 10
-23.62291859765438
 20
-1.793711806038649
 30
0.0
 10
-22.83343631126134
 20
-1.686574178876626
 30
0.0
 10
-22.31958080197853
 20
-1.529943731302492
 30
0.0
 10
-22.08123743316838
 20
-1.457293291911146
 30
0.0
1001
PE_URL
1000

  0
SPLINE
  5
1E6
330
1F
100
AcDbEntity
  8
0
  6
Continuous
 62
     1
370
    15
100
AcDbSpline
210
0.0
220
0.0
230
1.0
 70
     8
 71
     3
 72
    18
 73
    14
 74
     0
 42
0.000000001
 43
0.00000001
 40
0.0
 40
0.0
 40
0.0
 40
0.0
 40
0.0949122836773448
 40
0.1899087329355638
 40
0.2850027725949997
 40
0.3800079331400127
 40
0.4749252052718511
 40
0.5698016478279104
 40
0.6646847511526812
 40
0.7517411481166429
 40
0.838972787031317
 40
0.9260227416554788
 40
1.0
 40
1.0
 40
1.0
 40
1.0
 10
-18.25625000000015
 20
-1.054882645090321
 30
0.0
 10
-18.53123067628607
 20
-0.9194433409555971
 30
0.0
 10
-19.08143587409537
 20
-0.6484446288675085
 30
0.0
 10
-19.9072970744691
 20
-0.1760231987982032
 30
0.0
 10
-20.73371027103473
 20
0.3031659603270003
 30
0.0
 10
-21.55962748799698
 20
0.7626522499287864
 30
0.0
 10
-22.38477453572536
 20
1.167630694525805
 30
0.0
 10
-23.20947716428621
 20
1.490064787675657
 30
0.0
 10
-24.01148112947613
 20
1.700843136518231
 30
0.0
 10
-24.7912051930732
 20
1.796946701627619
 30
0.0
 10
-25.54887216872978
 20
1.780869018987245
 30
0.0
 10
-26.26805832103808
 20
1.673290971546065
 30
0.0
 10
-26.73445257452822
 20
1.527726833997397
 30
0.0
 10
-26.94871802410508
 20
1.460853442782279
 30
0.0
1001
PE_URL
1000

  0
SPLINE
  5
1E7
330
1F
100
AcDbEntity
  8
외형선
  6
Continuous
370
    15
100
AcDbSpline
210
0.0
220
0.0
230
1.0
 70
    24
 71
     3
 72
    11
 73
     7
 74
     0
 42
0.000000001
 43
0.00000001
 40
0.0
 40
0.0
 40
0.0
 40
0.0
 40
0.2289938710840893
 40
0.4626787903089292
 40
0.7331548077930338
 40
1.0
 40
1.0
 40
1.0
 40
1.0
 10
-18.25624999999999
 20
-1.716458286847482
 30
0.0
 10
-18.25625
 20
-1.666144382121741
 30
0.0
 10
-18.25625000000005
 20
-1.564485868450534
 30
0.0
 10
-18.25624999999998
 20
-1.406180642966824
 30
0.0
 10
-18.25625000000002
 20
-1.245166893989323
 30
0.0
 10
-18.25625000000003
 20
-1.144266663408173
 30
0.0
 10
-18.25625000000005
 20
-1.094157453241998
 30
0.0
  0
SPLINE
  5
1E8
330
1F
100
AcDbEntity
  8
0
  6
Continuous
 62
     1
370
    15
100
AcDbSpline
210
0.0
220
0.0
230
1.0
 70
     8
 71
     3
 72
    38
 73
    34
 74
     0
 42
0.000000001
 43
0.00000001
 40
0.0
 40
0.0
 40
0.0
 40
0.0
 40
0.0625
 40
0.0625
 40
0.125
 40
0.125
 40
0.1875
 40
0.1875
 40
0.25
 40
0.25
 40
0.3125
 40
0.3125
 40
0.375
 40
0.375
 40
0.4375
 40
0.4375
 40
0.5
 40
0.5
 40
0.5625
 40
0.5625
 40
0.625
 40
0.625
 40
0.6875
 40
0.6875
 40
0.75
 40
0.75
 40
0.8125
 40
0.8125
 40
0.875
 40
0.875
 40
0.9375
 40
0.9375
 40
1.0
 40
1.0
 40
1.0
 40
1.0
 10
-28.57500000000004
 20
1.779369878307625
 30
0.0
 10
-28.36268647259307
 20
1.76877987800326
 30
0.0
 10
-28.14510287396229
 20
1.745179936853328
 30
0.0
 10
-27.713379434416
 20
1.673066628914283
 30
0.0
 10
-27.50196699632414
 20
1.624910989167099
 30
0.0
 10
-27.07034304021337
 20
1.505178914009509
 30
0.0
 10
-26.85270975779441
 20
1.43366269128339
 30
0.0
 10
-26.42779489704776
 20
1.27226768584641
 30
0.0
 10
-26.21054809012094
 20
1.181146957500202
 30
0.0
 10
-25.77873059627332
 20
0.9834109729909317
 30
0.0
 10
-25.56730858494295
 20
0.8774080451262647
 30
0.0
 10
-25.13578953722313
 20
0.6528483236222729
 30
0.0
 10
-24.91810935917598
 20
0.5346324164578518
 30
0.0
 10
-24.49291183835295
 20
0.2940752832921645
 30
0.0
 10
-24.27599249310877
 20
0.1699814264102726
 30
0.0
 10
-23.84408637804593
 20
-0.0785334203429
 30
0.0
 10
-23.63264522063947
 20
-0.2022557601998735
 30
0.0
 10
-23.20123650186063
 20
-0.4466218274385942
 30
0.0
 10
-22.98351221837142
 20
-0.5667914471791791
 30
0.0
 10
-22.55803719497891
 20
-0.7954543339652884
 30
0.0
 10
-22.34143596780552
 20
-0.9055326593438762
 30
0.0
 10
-21.90944666833813
 20
-1.110747521922141
 30
0.0
 10
-21.69797679281983
 20
-1.205351254662911
 30
0.0
 10
-21.26668381890024
 20
-1.377019203832644
 30
0.0
 10
-21.04891822206142
 20
-1.453650910811012
 30
0.0
 10
-20.62317086505356
 20
-1.58382799177137
 30
0.0
 10
-20.40687839912956
 20
-1.638251125848045
 30
0.0
 10
-19.9748113555651
 20
-1.72246844440496
 30
0.0
 10
-19.76330319110193
 20
-1.752134539144864
 30
0.0
 10
-19.33213137310256
 20
-1.786135604608603
 30
0.0
 10
-19.11432725679244
 20
-1.790214206795415
 30
0.0
 10
-18.68831274636633
 20
-1.772570993359265
 30
0.0
 10
-18.47231967204264
 20
-1.750797208628219
 30
0.0
 10
-18.25625000000014
 20
-1.716458286847503
 30
0.0
1001
PE_URL
1000

  0
SPLINE
  5
1E9
330
1F
100
AcDbEntity
  8
0
  6
Continuous
 62
     1
370
    15
100
AcDbSpline
210
0.0
220
0.0
230
1.0
 70
     8
 71
     3
 72
    12
 73
     8
 74
     0
 42
0.000000001
 43
0.00000001
 40
0.0
 40
0.0
 40
0.0
 40
0.0
 40
0.2157137488289453
 40
0.4316187866277639
 40
0.6477456249194161
 40
0.8636704614656525
 40
1.0
 40
1.0
 40
1.0
 40
1.0
 10
-18.25625000000017
 20
1.44110907255263
 30
0.0
 10
-18.53123061221083
 20
1.524934023122594
 30
0.0
 10
-19.08143568181277
 20
1.692658257903892
 30
0.0
 10
-19.90729784472499
 20
1.798069694849366
 30
0.0
 10
-20.73370738048817
 20
1.779211664520164
 30
0.0
 10
-21.45840703866109
 20
1.664601988879849
 30
0.0
 10
-21.90744910755584
 20
1.515138624523092
 30
0.0
 10
-22.08123743316834
 20
1.457293291911151
 30
0.0
1001
PE_URL
1000

  0
SPLINE
  5
1EA
330
1F
100
AcDbEntity
  8
외형선
  6
Continuous
370
    15
100
AcDbSpline
210
0.0
220
0.0
230
1.0
 70
    24
 71
     3
 72
    22
 73
    18
 74
     0
 42
0.000000001
 43
0.00000001
 40
0.0
 40
0.0
 40
0.0
 40
0.0
 40
0.0243084065240854
 40
0.0964747317434213
 40
0.1707338852830121
 40
0.2429002105023505
 40
0.3171593640419436
 40
0.3893256892614678
 40
0.4635848428008698
 40
0.5357511680199532
 40
0.6100103215592688
 40
0.6821766467788626
 40
0.7564358003187349
 40
0.8286021255380039
 40
0.9028612790776639
 40
0.9511263062660271
 40
1.0
 40
1.0
 40
1.0
 40
1.0
 10
-18.25625
 20
-0.4689392481739174
 30
0.0
 10
-18.25625000000001
 20
-0.4655376740147987
 30
0.0
 10
-18.25625
 20
-0.4520375725506739
 30
0.0
 10
-18.25625000000003
 20
-0.4008287064597586
 30
0.0
 10
-18.25625000000006
 20
-0.3138188236406305
 30
0.0
 10
-18.25625
 20
-0.1988793971132769
 30
0.0
 10
-18.25624999999998
 20
-0.0634735860293316
 30
0.0
 10
-18.25625000000004
 20
0.0915778552128795
 30
0.0
 10
-18.25625000000003
 20
0.2589417089428159
 30
0.0
 10
-18.25625000000003
 20
0.4369348489972754
 30
0.0
 10
-18.25625000000001
 20
0.6173024344966225
 30
0.0
 10
-18.25625
 20
0.7981965483224249
 30
0.0
 10
-18.25625000000002
 20
0.9712102036545522
 30
0.0
 10
-18.25625000000002
 20
1.1346734775672
 30
0.0
 10
-18.25625000000002
 20
1.264640773625862
 30
0.0
 10
-18.25625
 20
1.366797799357915
 30
0.0
 10
-18.25625
 20
1.416235390299967
 30
0.0
 10
-18.25625000000002
 20
1.441109072552578
 30
0.0
  0
SPLINE
  5
1EB
330
1F
100
AcDbEntity
  8
0
  6
Continuous
 62
     1
370
    15
100
AcDbSpline
210
0.0
220
0.0
230
1.0
 70
     8
 71
     3
 72
    15
 73
    11
 74
     0
 42
0.000000001
 43
0.00000001
 40
0.0
 40
0.0
 40
0.0
 40
0.0
 40
0.0626404768127739
 40
0.2070038379224438
 40
0.3392440554567852
 40
0.471252984927923
 40
0.6032587769293067
 40
0.7354896528381427
 40
0.8678997588740118
 40
1.0
 40
1.0
 40
1.0
 40
1.0
 10
-23.98185578468716
 20
1.770335479066917
 30
0.0
 10
-23.8622972684259
 20
1.77396034935672
 30
0.0
 10
-23.46720015260468
 20
1.78593921829482
 30
0.0
 10
-22.81940705557254
 20
1.675443685604902
 30
0.0
 10
-22.039526929274
 20
1.461344551915003
 30
0.0
 10
-21.28354310286934
 20
1.159943588860308
 30
0.0
 10
-20.52757708484668
 20
0.7910479770983534
 30
0.0
 10
-19.77055653604714
 20
0.3751820294827584
 30
0.0
 10
-19.0129643167835
 20
-0.0644413356857709
 30
0.0
 10
-18.50829103637817
 20
-0.3504579963718918
 30
0.0
 10
-18.25625000000014
 20
-0.4932987973011895
 30
0.0
1001
PE_URL
1000

  0
LINE
  5
1EC
330
1F
100
AcDbEntity
  8
외형선
  6
Continuous
370
    15
100
AcDbLine
 10
-18.25624999999998
 20
-0.4932987973012605
 30
0.0
 11
-18.25625
 21
-1.054882645090389
 31
0.0
  0
LINE
  5
1ED
330
1F
100
AcDbEntity
  8
0
  6
Continuous
 62
     1
370
    15
100
AcDbLine
 10
-28.57500000000002
 20
1.779369878307625
 30
0.0
 11
-28.57500000000002
 21
1.617490284686442
 31
0.0
1001
PE_URL
1000

  0
SPLINE
  5
1EE
330
1F
100
AcDbEntity
  8
0
  6
Continuous
 62
     1
370
    15
100
AcDbSpline
210
0.0
220
0.0
230
1.0
 70
     8
 71
     3
 72
    12
 73
     8
 74
     0
 42
0.000000001
 43
0.00000001
 40
0.0
 40
0.0
 40
0.0
 40
0.0
 40
0.1367136000662801
 40
0.3525774645339081
 40
0.5681644941584283
 40
0.7838482219723317
 40
1.0
 40
1.0
 40
1.0
 40
1.0
 10
-25.06991975091643
 20
-1.773509833354056
 30
0.0
 10
-25.22972492977883
 20
-1.774280221919447
 30
0.0
 10
-25.64185440888971
 20
-1.776267015091155
 30
0.0
 10
-26.30560711475584
 20
-1.659463290999962
 30
0.0
 10
-27.06145061928595
 20
-1.442969937451908
 30
0.0
 10
-27.81765241449015
 20
-1.139297243577099
 30
0.0
 10
-28.32236845727063
 20
-0.8846340230044036
 30
0.0
 10
-28.57500000000004
 20
-0.757164402789259
 30
0.0
1001
PE_URL
1000

  0
LINE
  5
1EF
330
1F
100
AcDbEntity
  8
0
  6
Continuous
 62
     1
370
    15
100
AcDbLine
 10
-28.57500000000002
 20
-0.1530215346864467
 30
0.0
 11
-28.57500000000002
 21
-0.757164402789259
 31
0.0
1001
PE_URL
1000

  0
SPLINE
  5
1F0
330
1F
100
AcDbEntity
  8
0
  6
Continuous
 62
     1
370
    15
100
AcDbSpline
210
0.0
220
0.0
230
1.0
 70
     8
 71
     3
 72
     9
 73
     5
 74
     0
 42
0.000000001
 43
0.00000001
 40
0.0
 40
0.0
 40
0.0
 40
0.0
 40
0.5081690905158167
 40
1.0
 40
1.0
 40
1.0
 40
1.0
 10
-28.57500000000004
 20
-1.779369878307607
 30
0.0
 10
-28.29947746512323
 20
-1.754970903988022
 30
0.0
 10
-27.7572907402338
 20
-1.706957408529614
 30
0.0
 10
-27.21529049678243
 20
-1.541989673793214
 30
0.0
 10
-26.94871802410508
 20
-1.460853442782264
 30
0.0
1001
PE_URL
1000

  0
SPLINE
  5
1F1
330
1F
100
AcDbEntity
  8
0
  6
Continuous
 62
     1
370
    15
100
AcDbSpline
210
0.0
220
0.0
230
1.0
 70
     8
 71
     3
 72
     9
 73
     5
 74
     0
 42
0.000000001
 43
0.00000001
 40
0.0
 40
0.0
 40
0.0
 40
0.0
 40
0.1259155261524667
 40
1.0
 40
1.0
 40
1.0
 40
1.0
 10
-19.12146631692879
 20
1.779373132862851
 30
0.0
 10
-19.08513569163271
 20
1.781511740303058
 30
0.0
 10
-18.79660395606192
 20
1.798496202073226
 30
0.0
 10
-18.50827439375973
 20
1.754721272836818
 30
0.0
 10
-18.25625000000014
 20
1.716458286847502
 30
0.0
1001
PE_URL
1000

  0
LINE
  5
1F2
330
1F
100
AcDbEntity
  8
0
  6
Continuous
 62
     1
370
    15
100
AcDbLine
 10
-28.57500000000002
 20
-0.7488174798123255
 30
0.0
 11
-28.57500000000002
 21
-1.779369878307607
 31
0.0
1001
PE_URL
1000

  0
LINE
  5
1F3
330
1F
100
AcDbEntity
  8
외형선
  6
Continuous
370
    15
100
AcDbLine
 10
-18.25624999999997
 20
1.71645828684748
 30
0.0
 11
-18.25625000000002
 21
1.441109072552578
 31
0.0
  0
LINE
  5
1F4
330
1F
100
AcDbEntity
  8
외형선
  6
Continuous
370
    15
100
AcDbLine
 10
-17.25625000000002
 20
-0.0000000000000015
 30
0.0
 11
-17.25625000000002
 21
-1.785937500000001
 31
0.0
  0
LINE
  5
1F5
330
1F
100
AcDbEntity
  8
외형선
  6
Continuous
370
    15
100
AcDbLine
 10
-17.25625000000002
 20
1.785937499999998
 30
0.0
 11
-17.25625000000002
 21
-0.0000000000000015
 31
0.0
  0
LINE
  5
1F6
330
1F
100
AcDbEntity
  8
외형선
  6
Continuous
370
    15
100
AcDbLine
 10
-15.03451350361916
 20
-0.0000000000000033
 30
0.0
 11
-15.03451350361916
 21
-2.381250000000008
 31
0.0
  0
LINE
  5
1F7
330
1F
100
AcDbEntity
  8
외형선
  6
Continuous
370
    15
100
AcDbLine
 10
-15.03451350361915
 20
2.381250000000005
 30
0.0
 11
-15.03451350361916
 21
-0.0000000000000033
 31
0.0
  0
SPLINE
  5
1F8
330
1F
100
AcDbEntity
  8
외형선
  6
Continuous
370
    15
100
AcDbSpline
210
0.0
220
0.0
230
1.0
 70
     8
 71
     3
 72
     8
 73
     4
 74
     0
 42
0.000000001
 43
0.00000001
 40
0.0
 40
0.0
 40
0.0
 40
0.0
 40
1.0
 40
1.0
 40
1.0
 40
1.0
 10
-18.25625000000003
 20
-1.716458286847484
 30
0.0
 10
-18.08820423512723
 20
-1.68975157543815
 30
0.0
 10
-17.92293645668852
 20
-1.655670521325211
 30
0.0
 10
-17.75638744461449
 20
-1.614451743022126
 30
0.0
  0
LINE
  5
1F9
330
1F
100
AcDbEntity
  8
외형선
  6
Continuous
370
    15
100
AcDbLine
 10
-17.75638744461448
 20
-1.273451847773613
 30
0.0
 11
-17.75638744461448
 21
-1.785937500000001
 31
0.0
  0
SPLINE
  5
1FA
330
1F
100
AcDbEntity
  8
외형선
  6
Continuous
370
    15
100
AcDbSpline
210
0.0
220
0.0
230
1.0
 70
     8
 71
     3
 72
     8
 73
     4
 74
     0
 42
0.000000001
 43
0.00000001
 40
0.0
 40
0.0
 40
0.0
 40
0.0
 40
1.0
 40
1.0
 40
1.0
 40
1.0
 10
-18.25625000000019
 20
-1.054882645090309
 30
0.0
 10
-18.08820423512734
 20
-1.132902872020937
 30
0.0
 10
-17.92293645668858
 20
-1.20586801285833
 30
0.0
 10
-17.75638744461448
 20
-1.27345659372604
 30
0.0
  0
SPLINE
  5
1FB
330
1F
100
AcDbEntity
  8
외형선
  6
Continuous
370
    15
100
AcDbSpline
210
0.0
220
0.0
230
1.0
 70
     8
 71
     3
 72
     8
 73
     4
 74
     0
 42
0.000000001
 43
0.00000001
 40
0.0
 40
0.0
 40
0.0
 40
0.0
 40
1.0
 40
1.0
 40
1.0
 40
1.0
 10
-18.25625000000003
 20
-0.4932987973012481
 30
0.0
 10
-18.08820423512722
 20
-0.5862261597107741
 30
0.0
 10
-17.92293645668852
 20
-0.6764769731696647
 30
0.0
 10
-17.75638744461449
 20
-0.7636218457843424
 30
0.0
  0
LINE
  5
1FC
330
1F
100
AcDbEntity
  8
외형선
  6
Continuous
370
    15
100
AcDbLine
 10
-17.75638744461448
 20
1.252155399823924
 30
0.0
 11
-17.75638744461448
 21
-0.7636214973443154
 31
0.0
  0
SPLINE
  5
1FD
330
1F
100
AcDbEntity
  8
외형선
  6
Continuous
370
    15
100
AcDbSpline
210
0.0
220
0.0
230
1.0
 70
     8
 71
     3
 72
     8
 73
     4
 74
     0
 42
0.000000001
 43
0.00000001
 40
0.0
 40
0.0
 40
0.0
 40
0.0
 40
1.0
 40
1.0
 40
1.0
 40
1.0
 10
-18.25625000000019
 20
1.441109072552633
 30
0.0
 10
-18.08820423512733
 20
1.38399876430279
 30
0.0
 10
-17.92293645668858
 20
1.320889210334906
 30
0.0
 10
-17.75638744461448
 20
1.25215057313484
 30
0.0
  0
SPLINE
  5
1FE
330
1F
100
AcDbEntity
  8
외형선
  6
Continuous
370
    15
100
AcDbSpline
210
0.0
220
0.0
230
1.0
 70
     8
 71
     3
 72
     8
 73
     4
 74
     0
 42
0.000000001
 43
0.00000001
 40
0.0
 40
0.0
 40
0.0
 40
0.0
 40
1.0
 40
1.0
 40
1.0
 40
1.0
 10
-18.25625000000003
 20
1.716458286847482
 30
0.0
 10
-18.08820423512722
 20
1.689751575438148
 30
0.0
 10
-17.92293645668851
 20
1.65567052132521
 30
0.0
 10
-17.75638744461449
 20
1.614451743022123
 30
0.0
  0
LINE
  5
1FF
330
1F
100
AcDbEntity
  8
외형선
  6
Continuous
370
    15
100
AcDbLine
 10
-17.75638744461448
 20
1.7859375
 30
0.0
 11
-17.75638744461448
 21
1.614451907831224
 31
0.0
  0
SPLINE
  5
200
330
1F
100
AcDbEntity
  8
외형선
  6
Continuous
370
    15
100
AcDbSpline
210
0.0
220
0.0
230
1.0
 70
    24
 71
     3
 72
    14
 73
    10
 74
     0
 42
0.000000001
 43
0.00000001
 40
0.0
 40
0.0
 40
0.0
 40
0.0
 40
0.129747010564129
 40
0.2755100968822076
 40
0.4212731832005548
 40
0.5670362695187664
 40
0.7127993558369747
 40
0.8585624421551828
 40
1.0
 40
1.0
 40
1.0
 40
1.0
 10
-18.25625000000004
 20
1.441109072552582
 30
0.0
 10
-18.25625000000003
 20
1.370050452262959
 30
0.0
 10
-18.25625000000002
 20
1.219161678215764
 30
0.0
 10
-18.25625
 20
0.8986675472969436
 30
0.0
 10
-18.25625
 20
0.5366734247866172
 30
0.0
 10
-18.25625000000009
 20
0.1768891345840198
 30
0.0
 10
-18.25625
 20
-0.1347579773113609
 30
0.0
 10
-18.25625000000003
 20
-0.3729233571769776
 30
0.0
 10
-18.25625000000001
 20
-0.4393263227285648
 30
0.0
 10
-18.25625
 20
-0.4720277580217915
 30
0.0
  0
SPLINE
  5
201
330
1F
100
AcDbEntity
  8
외형선
  6
Continuous
370
    15
100
AcDbSpline
210
0.0
220
0.0
230
1.0
 70
    24
 71
     3
 72
    12
 73
     8
 74
     0
 42
0.000000001
 43
0.00000001
 40
0.0
 40
0.0
 40
0.0
 40
0.0
 40
0.1156646982229605
 40
0.3852116040622799
 40
0.6625753884313472
 40
0.8303737441324062
 40
1.0
 40
1.0
 40
1.0
 40
1.0
 10
-18.25625000000003
 20
-1.094157453241998
 30
0.0
 10
-18.25625000000003
 20
-1.114781113372338
 30
0.0
 10
-18.25625000000001
 20
-1.183466488620796
 30
0.0
 10
-18.25625000000001
 20
-1.318634727415949
 30
0.0
 10
-18.25625000000002
 20
-1.47029837516038
 30
0.0
 10
-18.25625
 20
-1.604784836529472
 30
0.0
 10
-18.25625000000002
 20
-1.679099610482327
 30
0.0
 10
-18.25625000000004
 20
-1.716458286847594
 30
0.0
  0
ENDSEC
  0
SECTION
  2
OBJECTS
  0
DICTIONARY
  5
C
330
0
100
AcDbDictionary
281
     1
  3
ACAD_DETAILVIEWSTYLE
350
207
  3
ACAD_GROUP
350
D
  3
ACAD_IMAGE_VARS
350
22C
  3
ACAD_LAYOUT
350
1A
  3
ACAD_MLINESTYLE
350
17
  3
ACAD_PLOTSETTINGS
350
19
  3
ACAD_PLOTSTYLENAME
350
E
  3
ACAD_SCALELIST
350
47
  3
ACAD_SECTIONVIEWSTYLE
350
208
  3
AcDbVariableDictionary
350
202
  3
APPDATA
350
150
  3
DWGPROPS
350
22D
  0
DICTIONARY
  5
189
330
2
100
AcDbDictionary
280
     1
281
     1
  3
ACAD_LAYERSTATES
360
18A
  0
DICTIONARY
  5
207
102
{ACAD_REACTORS
330
C
102
}
330
C
100
AcDbDictionary
281
     1
  0
DICTIONARY
  5
D
102
{ACAD_REACTORS
330
C
102
}
330
C
100
AcDbDictionary
281
     1
  0
RASTERVARIABLES
  5
22C
102
{ACAD_REACTORS
330
C
102
}
330
C
100
AcDbRasterVariables
 90
        0
 70
     1
 71
     1
 72
     1
  0
DICTIONARY
  5
1A
102
{ACAD_REACTORS
330
C
102
}
330
C
100
AcDbDictionary
281
     1
  3
Layout1
350
1E
  3
Layout2
350
26
  3
Model
350
22
  0
DICTIONARY
  5
17
102
{ACAD_REACTORS
330
C
102
}
330
C
100
AcDbDictionary
281
     1
  3
Standard
350
18
  0
DICTIONARY
  5
19
102
{ACAD_REACTORS
330
C
102
}
330
C
100
AcDbDictionary
281
     1
  0
ACDBDICTIONARYWDFLT
  5
E
102
{ACAD_REACTORS
330
C
102
}
330
C
100
AcDbDictionary
281
     1
  3
Normal
350
F
100
AcDbDictionaryWithDefault
340
F
  0
DICTIONARY
  5
47
102
{ACAD_REACTORS
330
C
102
}
330
C
100
AcDbDictionary
281
     1
  3
A0
350
48
  3
A1
350
49
  3
A2
350
4A
  3
A3
350
4B
  3
A4
350
4C
  3
A5
350
4D
  3
A6
350
4E
  3
A7
350
4F
  3
A8
350
50
  3
A9
350
51
  3
B0
350
52
  3
B1
350
53
  3
B2
350
54
  3
B3
350
55
  3
B4
350
56
  3
B5
350
57
  3
B6
350
58
  3
B7
350
59
  3
B8
350
5A
  3
B9
350
5B
  3
C0
350
5C
  3
C1
350
5D
  3
C2
350
5E
  3
C3
350
5F
  3
C4
350
60
  3
C5
350
61
  3
C6
350
62
  3
C7
350
63
  3
C8
350
64
  3
C9
350
65
  3
D0
350
66
  3
D1
350
67
  3
D2
350
68
  0
DICTIONARY
  5
208
102
{ACAD_REACTORS
330
C
102
}
330
C
100
AcDbDictionary
281
     1
  0
DICTIONARY
  5
202
102
{ACAD_REACTORS
330
C
102
}
330
C
100
AcDbDictionary
281
     1
  0
DICTIONARY
  5
150
102
{ACAD_REACTORS
330
C
102
}
330
C
100
AcDbDictionary
281
     1
  0
XRECORD
  5
22D
102
{ACAD_REACTORS
330
C
102
}
330
C
100
AcDbXrecord
280
     1
  1
DWGPROPS COOKIE
  2

  3

  4

  6

  7

  8
12016016
  9

300
=
301
=
302
=
303
=
304
=
305
=
306
=
307
=
308
=
309
=
 40
0.0
 41
2458313.083316748
 42
2458318.282675845
  1

 90
        0
  0
DICTIONARY
  5
18A
102
{ACAD_REACTORS
330
189
102
}
330
189
100
AcDbDictionary
281
     1
  0
LAYOUT
  5
1E
102
{ACAD_REACTORS
330
1A
102
}
330
1A
100
AcDbPlotSettings
  1

  2
none_device
  4

  6

 40
0.0
 41
0.0
 42
0.0
 43
0.0
 44
0.0
 45
0.0
 46
0.0
 47
0.0
 48
0.0
 49
0.0
140
0.0
141
0.0
142
1.0
143
1.0
 70
   688
 72
     1
 73
     0
 74
     5
  7

 75
    16
147
1.0
148
0.0
149
0.0
100
AcDbLayout
  1
Layout1
 70
     1
 71
     1
 10
0.0
 20
0.0
 11
420.0
 21
297.0
 12
0.0
 22
0.0
 32
0.0
 14
1.000000000000000E+20
 24
1.000000000000000E+20
 34
1.000000000000000E+20
 15
-1.000000000000000E+20
 25
-1.000000000000000E+20
 35
-1.000000000000000E+20
146
0.0
 13
0.0
 23
0.0
 33
0.0
 16
1.0
 26
0.0
 36
0.0
 17
0.0
 27
1.0
 37
0.0
 76
     0
330
1B
  0
LAYOUT
  5
26
102
{ACAD_REACTORS
330
1A
102
}
330
1A
100
AcDbPlotSettings
  1

  2
none_device
  4

  6

 40
0.0
 41
0.0
 42
0.0
 43
0.0
 44
0.0
 45
0.0
 46
0.0
 47
0.0
 48
0.0
 49
0.0
140
0.0
141
0.0
142
1.0
143
1.0
 70
   688
 72
     1
 73
     0
 74
     5
  7

 75
    16
147
1.0
148
0.0
149
0.0
100
AcDbLayout
  1
Layout2
 70
     1
 71
     2
 10
0.0
 20
0.0
 11
0.0
 21
0.0
 12
0.0
 22
0.0
 32
0.0
 14
0.0
 24
0.0
 34
0.0
 15
0.0
 25
0.0
 35
0.0
146
0.0
 13
0.0
 23
0.0
 33
0.0
 16
1.0
 26
0.0
 36
0.0
 17
0.0
 27
1.0
 37
0.0
 76
     0
330
23
  0
LAYOUT
  5
22
102
{ACAD_REACTORS
330
1A
102
}
330
1A
100
AcDbPlotSettings
  1

  2
none_device
  4
ANSI_A_(11.00_x_8.50_Inches)
  6

 40
6.35
 41
19.05
 42
6.35000508
 43
19.05000254
 44
279.4
 45
215.9
 46
116.0200047679344
 47
79.86907891165426
 48
0.0
 49
0.0
140
0.0
141
0.0
142
0.0752558462788414
143
1.0
 70
  1696
 72
     0
 73
     0
 74
     0
  7

 75
     0
147
0.0235690232323232
148
0.0
149
0.0
100
AcDbLayout
  1
Model
 70
     1
 71
     0
 10
0.0
 20
0.0
 11
420.0
 21
297.0
 12
0.0
 22
0.0
 32
0.0
 14
-42.95000000000011
 24
-49.97180738881175
 34
0.0
 15
92.3384838153456
 25
37.26493750000016
 35
0.0
146
0.0
 13
0.0
 23
0.0
 33
0.0
 16
1.0
 26
0.0
 36
0.0
 17
0.0
 27
1.0
 37
0.0
 76
     0
330
1F
331
29
  0
MLINESTYLE
  5
18
102
{ACAD_REACTORS
330
17
102
}
330
17
100
AcDbMlineStyle
  2
Standard
 70
     0
  3

 62
   256
 51
90.0
 52
90.0
 71
     2
 49
0.5
 62
   256
  6
BYLAYER
 49
-0.5
 62
   256
  6
BYLAYER
  0
ACDBPLACEHOLDER
  5
F
102
{ACAD_REACTORS
330
E
102
}
330
E
  0
SCALE
  5
48
102
{ACAD_REACTORS
330
47
102
}
330
47
100
AcDbScale
 70
     0
300
1:1
140
1.0
141
1.0
290
     1
  0
SCALE
  5
49
102
{ACAD_REACTORS
330
47
102
}
330
47
100
AcDbScale
 70
     0
300
1:2
140
1.0
141
2.0
290
     0
  0
SCALE
  5
4A
102
{ACAD_REACTORS
330
47
102
}
330
47
100
AcDbScale
 70
     0
300
1:4
140
1.0
141
4.0
290
     0
  0
SCALE
  5
4B
102
{ACAD_REACTORS
330
47
102
}
330
47
100
AcDbScale
 70
     0
300
1:5
140
1.0
141
5.0
290
     0
  0
SCALE
  5
4C
102
{ACAD_REACTORS
330
47
102
}
330
47
100
AcDbScale
 70
     0
300
1:8
140
1.0
141
8.0
290
     0
  0
SCALE
  5
4D
102
{ACAD_REACTORS
330
47
102
}
330
47
100
AcDbScale
 70
     0
300
1:10
140
1.0
141
10.0
290
     0
  0
SCALE
  5
4E
102
{ACAD_REACTORS
330
47
102
}
330
47
100
AcDbScale
 70
     0
300
1:16
140
1.0
141
16.0
290
     0
  0
SCALE
  5
4F
102
{ACAD_REACTORS
330
47
102
}
330
47
100
AcDbScale
 70
     0
300
1:20
140
1.0
141
20.0
290
     0
  0
SCALE
  5
50
102
{ACAD_REACTORS
330
47
102
}
330
47
100
AcDbScale
 70
     0
300
1:30
140
1.0
141
30.0
290
     0
  0
SCALE
  5
51
102
{ACAD_REACTORS
330
47
102
}
330
47
100
AcDbScale
 70
     0
300
1:40
140
1.0
141
40.0
290
     0
  0
SCALE
  5
52
102
{ACAD_REACTORS
330
47
102
}
330
47
100
AcDbScale
 70
     0
300
1:50
140
1.0
141
50.0
290
     0
  0
SCALE
  5
53
102
{ACAD_REACTORS
330
47
102
}
330
47
100
AcDbScale
 70
     0
300
1:100
140
1.0
141
100.0
290
     0
  0
SCALE
  5
54
102
{ACAD_REACTORS
330
47
102
}
330
47
100
AcDbScale
 70
     0
300
2:1
140
2.0
141
1.0
290
     0
  0
SCALE
  5
55
102
{ACAD_REACTORS
330
47
102
}
330
47
100
AcDbScale
 70
     0
300
4:1
140
4.0
141
1.0
290
     0
  0
SCALE
  5
56
102
{ACAD_REACTORS
330
47
102
}
330
47
100
AcDbScale
 70
     0
300
8:1
140
8.0
141
1.0
290
     0
  0
SCALE
  5
57
102
{ACAD_REACTORS
330
47
102
}
330
47
100
AcDbScale
 70
     0
300
10:1
140
10.0
141
1.0
290
     0
  0
SCALE
  5
58
102
{ACAD_REACTORS
330
47
102
}
330
47
100
AcDbScale
 70
     0
300
100:1
140
100.0
141
1.0
290
     0
  0
SCALE
  5
59
102
{ACAD_REACTORS
330
47
102
}
330
47
100
AcDbScale
 70
     0
300
1/128" = 1'-0"
140
0.0078125
141
12.0
290
     0
  0
SCALE
  5
5A
102
{ACAD_REACTORS
330
47
102
}
330
47
100
AcDbScale
 70
     0
300
1/64" = 1'-0"
140
0.015625
141
12.0
290
     0
  0
SCALE
  5
5B
102
{ACAD_REACTORS
330
47
102
}
330
47
100
AcDbScale
 70
     0
300
1/32" = 1'-0"
140
0.03125
141
12.0
290
     0
  0
SCALE
  5
5C
102
{ACAD_REACTORS
330
47
102
}
330
47
100
AcDbScale
 70
     0
300
1/16" = 1'-0"
140
0.0625
141
12.0
290
     0
  0
SCALE
  5
5D
102
{ACAD_REACTORS
330
47
102
}
330
47
100
AcDbScale
 70
     0
300
3/32" = 1'-0"
140
0.09375
141
12.0
290
     0
  0
SCALE
  5
5E
102
{ACAD_REACTORS
330
47
102
}
330
47
100
AcDbScale
 70
     0
300
1/8" = 1'-0"
140
0.125
141
12.0
290
     0
  0
SCALE
  5
5F
102
{ACAD_REACTORS
330
47
102
}
330
47
100
AcDbScale
 70
     0
300
3/16" = 1'-0"
140
0.1875
141
12.0
290
     0
  0
SCALE
  5
60
102
{ACAD_REACTORS
330
47
102
}
330
47
100
AcDbScale
 70
     0
300
1/4" = 1'-0"
140
0.25
141
12.0
290
     0
  0
SCALE
  5
61
102
{ACAD_REACTORS
330
47
102
}
330
47
100
AcDbScale
 70
     0
300
3/8" = 1'-0"
140
0.375
141
12.0
290
     0
  0
SCALE
  5
62
102
{ACAD_REACTORS
330
47
102
}
330
47
100
AcDbScale
 70
     0
300
1/2" = 1'-0"
140
0.5
141
12.0
290
     0
  0
SCALE
  5
63
102
{ACAD_REACTORS
330
47
102
}
330
47
100
AcDbScale
 70
     0
300
3/4" = 1'-0"
140
0.75
141
12.0
290
     0
  0
SCALE
  5
64
102
{ACAD_REACTORS
330
47
102
}
330
47
100
AcDbScale
 70
     0
300
1" = 1'-0"
140
1.0
141
12.0
290
     0
  0
SCALE
  5
65
102
{ACAD_REACTORS
330
47
102
}
330
47
100
AcDbScale
 70
     0
300
1-1/2" = 1'-0"
140
1.5
141
12.0
290
     0
  0
SCALE
  5
66
102
{ACAD_REACTORS
330
47
102
}
330
47
100
AcDbScale
 70
     0
300
3" = 1'-0"
140
3.0
141
12.0
290
     0
  0
SCALE
  5
67
102
{ACAD_REACTORS
330
47
102
}
330
47
100
AcDbScale
 70
     0
300
6" = 1'-0"
140
6.0
141
12.0
290
     0
  0
SCALE
  5
68
102
{ACAD_REACTORS
330
47
102
}
330
47
100
AcDbScale
 70
     0
300
1'-0" = 1'-0"
140
12.0
141
12.0
290
     0
  0
ENDSEC
  0
EOF
