  0
SECTION
  2
HEADER
  9
$ACADVER
  1
AC1015
  9
$ACADMAINTVER
 70
     6
  9
$DWGCODEPAGE
  3
ANSI_949
  9
$INSBASE
 10
0.0
 20
0.0
 30
0.0
  9
$EXTMIN
 10
-42.9500000000001
 20
-49.97180738881175
 30
0.0
  9
$EXTMAX
 10
92.3384838153456
 20
36.98524999999992
 30
0.0
  9
$LIMMIN
 10
0.0
 20
0.0
  9
$LIMMAX
 10
420.0
 20
297.0
  9
$ORTHOMODE
 70
     1
  9
$REGENMODE
 70
     1
  9
$FILLMODE
 70
     1
  9
$QTEXTMODE
 70
     0
  9
$MIRRTEXT
 70
     1
  9
$LTSCALE
 40
1.0
  9
$ATTMODE
 70
     1
  9
$TEXTSIZE
 40
3.5
  9
$TRACEWID
 40
1.0
  9
$TEXTSTYLE
  7
Standard
  9
$CLAYER
  8
0
  9
$CELTYPE
  6
ByLayer
  9
$CECOLOR
 62
   256
  9
$CELTSCALE
 40
1.0
  9
$DISPSILH
 70
     0
  9
$DIMSCALE
 40
1.0
  9
$DIMASZ
 40
3.302
  9
$DIMEXO
 40
1.0
  9
$DIMDLI
 40
3.75
  9
$DIMRND
 40
0.0
  9
$DIMDLE
 40
0.0
  9
$DIMEXE
 40
1.0
  9
$DIMTP
 40
0.0
  9
$DIMTM
 40
0.0
  9
$DIMTXT
 40
3.5
  9
$DIMCEN
 40
2.5
  9
$DIMTSZ
 40
0.0
  9
$DIMTOL
 70
     0
  9
$DIMLIM
 70
     0
  9
$DIMTIH
 70
     1
  9
$DIMTOH
 70
     1
  9
$DIMSE1
 70
     0
  9
$DIMSE2
 70
     0
  9
$DIMTAD
 70
     1
  9
$DIMZIN
 70
     0
  9
$DIMBLK
  1

  9
$DIMASO
 70
     1
  9
$DIMSHO
 70
     1
  9
$DIMPOST
  1

  9
$DIMAPOST
  1

  9
$DIMALT
 70
     0
  9
$DIMALTD
 70
     3
  9
$DIMALTF
 40
0.0393700787401575
  9
$DIMLFAC
 40
1.0
  9
$DIMTOFL
 70
     1
  9
$DIMTVP
 40
0.0
  9
$DIMTIX
 70
     0
  9
$DIMSOXD
 70
     0
  9
$DIMSAH
 70
     0
  9
$DIMBLK1
  1

  9
$DIMBLK2
  1

  9
$DIMSTYLE
  2
ISO-25
  9
$DIMCLRD
 70
     0
  9
$DIMCLRE
 70
     0
  9
$DIMCLRT
 70
     0
  9
$DIMTFAC
 40
1.0
  9
$DIMGAP
 40
1.524
  9
$DIMJUST
 70
     0
  9
$DIMSD1
 70
     0
  9
$DIMSD2
 70
     0
  9
$DIMTOLJ
 70
     0
  9
$DIMTZIN
 70
     0
  9
$DIMALTZ
 70
     0
  9
$DIMALTTZ
 70
     0
  9
$DIMUPT
 70
     0
  9
$DIMDEC
 70
     2
  9
$DIMTDEC
 70
     2
  9
$DIMALTU
 70
     2
  9
$DIMALTTD
 70
     3
  9
$DIMTXSTY
  7
Standard
  9
$DIMAUNIT
 70
     0
  9
$DIMADEC
 70
     2
  9
$DIMALTRND
 40
0.0
  9
$DIMAZIN
 70
     0
  9
$DIMDSEP
 70
    44
  9
$DIMATFIT
 70
     3
  9
$DIMFRAC
 70
     0
  9
$DIMLDRBLK
  1

  9
$DIMLUNIT
 70
     2
  9
$DIMLWD
 70
    -2
  9
$DIMLWE
 70
    -2
  9
$DIMTMOVE
 70
     0
  9
$LUNITS
 70
     2
  9
$LUPREC
 70
     2
  9
$SKETCHINC
 40
1.0
  9
$FILLETRAD
 40
10.0
  9
$AUNITS
 70
     0
  9
$AUPREC
 70
     2
  9
$MENU
  1
.
  9
$ELEVATION
 40
0.0
  9
$PELEVATION
 40
0.0
  9
$THICKNESS
 40
0.0
  9
$LIMCHECK
 70
     0
  9
$CHAMFERA
 40
0.0
  9
$CHAMFERB
 40
0.0
  9
$CHAMFERC
 40
0.0
  9
$CHAMFERD
 40
0.0
  9
$SKPOLY
 70
     0
  9
$TDCREATE
 40
2458313.458105151
  9
$TDUCREATE
 40
2458313.083105151
  9
$TDUPDATE
 40
2458318.657718229
  9
$TDUUPDATE
 40
2458318.282718229
  9
$TDINDWG
 40
0.0022031713
  9
$TDUSRTIMER
 40
2458318.282682049
  9
$USRTIMER
 70
     1
  9
$ANGBASE
 50
0.0
  9
$ANGDIR
 70
     0
  9
$PDMODE
 70
     0
  9
$PDSIZE
 40
-1.0
  9
$PLINEWID
 40
0.0
  9
$SPLFRAME
 70
     0
  9
$SPLINETYPE
 70
     6
  9
$SPLINESEGS
 70
     8
  9
$HANDSEED
  5
224
  9
$SURFTAB1
 70
     6
  9
$SURFTAB2
 70
     6
  9
$SURFTYPE
 70
     6
  9
$SURFU
 70
     6
  9
$SURFV
 70
     6
  9
$UCSBASE
  2

  9
$UCSNAME
  2

  9
$UCSORG
 10
0.0
 20
0.0
 30
0.0
  9
$UCSXDIR
 10
1.0
 20
0.0
 30
0.0
  9
$UCSYDIR
 10
0.0
 20
1.0
 30
0.0
  9
$UCSORTHOREF
  2

  9
$UCSORTHOVIEW
 70
     0
  9
$UCSORGTOP
 10
0.0
 20
0.0
 30
0.0
  9
$UCSORGBOTTOM
 10
0.0
 20
0.0
 30
0.0
  9
$UCSORGLEFT
 10
0.0
 20
0.0
 30
0.0
  9
$UCSORGRIGHT
 10
0.0
 20
0.0
 30
0.0
  9
$UCSORGFRONT
 10
0.0
 20
0.0
 30
0.0
  9
$UCSORGBACK
 10
0.0
 20
0.0
 30
0.0
  9
$PUCSBASE
  2

  9
$PUCSNAME
  2

  9
$PUCSORG
 10
0.0
 20
0.0
 30
0.0
  9
$PUCSXDIR
 10
1.0
 20
0.0
 30
0.0
  9
$PUCSYDIR
 10
0.0
 20
1.0
 30
0.0
  9
$PUCSORTHOREF
  2

  9
$PUCSORTHOVIEW
 70
     0
  9
$PUCSORGTOP
 10
0.0
 20
0.0
 30
0.0
  9
$PUCSORGBOTTOM
 10
0.0
 20
0.0
 30
0.0
  9
$PUCSORGLEFT
 10
0.0
 20
0.0
 30
0.0
  9
$PUCSORGRIGHT
 10
0.0
 20
0.0
 30
0.0
  9
$PUCSORGFRONT
 10
0.0
 20
0.0
 30
0.0
  9
$PUCSORGBACK
 10
0.0
 20
0.0
 30
0.0
  9
$USERI1
 70
     0
  9
$USERI2
 70
     0
  9
$USERI3
 70
     0
  9
$USERI4
 70
     0
  9
$USERI5
 70
     0
  9
$USERR1
 40
0.0
  9
$USERR2
 40
0.0
  9
$USERR3
 40
0.0
  9
$USERR4
 40
0.0
  9
$USERR5
 40
0.0
  9
$WORLDVIEW
 70
     1
  9
$SHADEDGE
 70
     3
  9
$SHADEDIF
 70
    70
  9
$TILEMODE
 70
     1
  9
$MAXACTVP
 70
    64
  9
$PINSBASE
 10
0.0
 20
0.0
 30
0.0
  9
$PLIMCHECK
 70
     0
  9
$PEXTMIN
 10
1.000000000000000E+20
 20
1.000000000000000E+20
 30
1.000000000000000E+20
  9
$PEXTMAX
 10
-1.000000000000000E+20
 20
-1.000000000000000E+20
 30
-1.000000000000000E+20
  9
$PLIMMIN
 10
0.0
 20
0.0
  9
$PLIMMAX
 10
0.0
 20
0.0
  9
$UNITMODE
 70
     0
  9
$VISRETAIN
 70
     1
  9
$PLINEGEN
 70
     0
  9
$PSLTSCALE
 70
     1
  9
$TREEDEPTH
 70
  3020
  9
$CMLSTYLE
  2
Standard
  9
$CMLJUST
 70
     0
  9
$CMLSCALE
 40
20.0
  9
$PROXYGRAPHICS
 70
     1
  9
$MEASUREMENT
 70
     1
  9
$CELWEIGHT
370
    -1
  9
$ENDCAPS
280
     0
  9
$JOINSTYLE
280
     0
  9
$LWDISPLAY
290
     1
  9
$INSUNITS
 70
     4
  9
$HYPERLINKBASE
  1

  9
$STYLESHEET
  1

  9
$XEDIT
290
     1
  9
$CEPSNTYPE
380
     0
  9
$PSTYLEMODE
290
     1
  9
$FINGERPRINTGUID
  2
{DA23BC88-358E-4031-AA7F-D6BD1B51E857}
  9
$VERSIONGUID
  2
{FAEB1C32-E019-11D5-929B-00C0DF256EC4}
  9
$EXTNAMES
290
     1
  9
$PSVPSCALE
 40
0.0
  9
$OLESTARTUP
290
     0
  0
ENDSEC
  0
SECTION
  2
CLASSES
  0
CLASS
  1
ACDBDICTIONARYWDFLT
  2
AcDbDictionaryWithDefault
  3
ObjectDBX Classes
 90
        0
280
     0
281
     0
  0
CLASS
  1
VISUALSTYLE
  2
AcDbVisualStyle
  3
ObjectDBX Classes
 90
     4095
280
     0
281
     0
  0
CLASS
  1
MATERIAL
  2
AcDbMaterial
  3
ObjectDBX Classes
 90
     1153
280
     0
281
     0
  0
CLASS
  1
SCALE
  2
AcDbScale
  3
ObjectDBX Classes
 90
     1153
280
     0
281
     0
  0
CLASS
  1
SUN
  2
AcDbSun
  3
SCENEOE
 90
     1153
280
     0
281
     0
  0
CLASS
  1
ACDBPLACEHOLDER
  2
AcDbPlaceHolder
  3
ObjectDBX Classes
 90
        0
280
     0
281
     0
  0
CLASS
  1
LAYOUT
  2
AcDbLayout
  3
ObjectDBX Classes
 90
        0
280
     0
281
     0
  0
CLASS
  1
TABLESTYLE
  2
AcDbTableStyle
  3
ObjectDBX Classes
 90
     4095
280
     0
281
     0
  0
CLASS
  1
MLEADERSTYLE
  2
AcDbMLeaderStyle
  3
ACDB_MLEADERSTYLE_CLASS
 90
     4095
280
     0
281
     0
  0
CLASS
  1
RASTERVARIABLES
  2
AcDbRasterVariables
  3
ISM
 90
        0
280
     0
281
     0
  0
ENDSEC
  0
SECTION
  2
TABLES
  0
TABLE
  2
VPORT
  5
8
330
0
100
AcDbSymbolTable
 70
     1
  0
VPORT
  5
29
330
8
100
AcDbSymbolTableRecord
100
AcDbViewportTableRecord
  2
*Active
 70
     0
 10
0.0
 20
0.0
 11
1.0
 21
1.0
 12
24.69424190767275
 22
-6.493278694405916
 13
0.0
 23
0.0
 14
10.0
 24
10.0
 15
10.0
 25
10.0
 16
0.0
 26
0.0
 36
1.0
 17
0.0
 27
0.0
 37
0.0
 40
88.6961985365879
 41
1.782762691853601
 42
50.0
 43
0.0
 44
0.0
 50
0.0
 51
0.0
 71
    16
 72
  2000
 73
     1
 74
     3
 75
     0
 76
     0
 77
     0
 78
     0
281
     0
 65
     1
110
0.0
120
0.0
130
0.0
111
1.0
121
0.0
131
0.0
112
0.0
122
1.0
132
0.0
 79
     0
146
0.0
  0
ENDTAB
  0
TABLE
  2
LTYPE
  5
5
330
0
100
AcDbSymbolTable
 70
     6
  0
LTYPE
  5
14
330
5
100
AcDbSymbolTableRecord
100
AcDbLinetypeTableRecord
  2
ByBlock
 70
     0
  3

 72
    65
 73
     0
 40
0.0
  0
LTYPE
  5
15
330
5
100
AcDbSymbolTableRecord
100
AcDbLinetypeTableRecord
  2
ByLayer
 70
     0
  3

 72
    65
 73
     0
 40
0.0
  0
LTYPE
  5
16
330
5
100
AcDbSymbolTableRecord
100
AcDbLinetypeTableRecord
  2
Continuous
 70
     0
  3
Solid line
 72
    65
 73
     0
 40
0.0
  0
LTYPE
  5
6A
330
5
100
AcDbSymbolTableRecord
100
AcDbLinetypeTableRecord
  2
HIDDEN
 70
     0
  3
Hidden __ __ __ __ __ __ __ __ __ __ __ __ __ __
 72
    65
 73
     2
 40
1.905
 49
1.27
 74
     0
 49
-0.635
 74
     0
  0
LTYPE
  5
6B
330
5
100
AcDbSymbolTableRecord
100
AcDbLinetypeTableRecord
  2
PHANTOM
 70
     0
  3
Phantom ______  __  __  ______  __  __  ______
 72
    65
 73
     6
 40
12.7
 49
6.35
 74
     0
 49
-1.27
 74
     0
 49
1.27
 74
     0
 49
-1.27
 74
     0
 49
1.27
 74
     0
 49
-1.27
 74
     0
  0
LTYPE
  5
6C
330
5
100
AcDbSymbolTableRecord
100
AcDbLinetypeTableRecord
  2
CENTER
 70
     0
  3
Center ____ _ ____ _ ____ _ ____ _ ____ _ ____
 72
    65
 73
     4
 40
10.16
 49
6.35
 74
     0
 49
-1.27
 74
     0
 49
1.27
 74
     0
 49
-1.27
 74
     0
  0
LTYPE
  5
6D
330
5
100
AcDbSymbolTableRecord
100
AcDbLinetypeTableRecord
  2
CENTERX2
 70
     0
  3
Center (2x) ________  __  ________  __  _____
 72
    65
 73
     4
 40
20.32
 49
12.7
 74
     0
 49
-2.54
 74
     0
 49
2.54
 74
     0
 49
-2.54
 74
     0
  0
LTYPE
  5
6E
330
5
100
AcDbSymbolTableRecord
100
AcDbLinetypeTableRecord
  2
DOT2
 70
     0
  3
Dot (.5x) ........................................
 72
    65
 73
     2
 40
0.635
 49
0.0
 74
     0
 49
-0.635
 74
     0
  0
ENDTAB
  0
TABLE
  2
LAYER
  5
2
102
{ACAD_XDICTIONARY
360
187
102
}
330
0
100
AcDbSymbolTable
 70
    18
  0
LAYER
  5
10
330
2
100
AcDbSymbolTableRecord
100
AcDbLayerTableRecord
  2
0
 70
     0
 62
     7
  6
Continuous
370
    -3
390
F
  0
LAYER
  5
6F
330
2
100
AcDbSymbolTableRecord
100
AcDbLayerTableRecord
  2
FORMAT
 70
     0
 62
     2
  6
Continuous
370
    -3
390
F
  0
LAYER
  5
70
330
2
100
AcDbSymbolTableRecord
100
AcDbLayerTableRecord
  2
외형선
 70
     0
 62
     4
  6
Continuous
370
    30
390
F
  0
LAYER
  5
71
330
2
100
AcDbSymbolTableRecord
100
AcDbLayerTableRecord
  2
숨은선
 70
     0
 62
     2
  6
HIDDEN
370
    15
390
F
  0
LAYER
  5
72
330
2
100
AcDbSymbolTableRecord
100
AcDbLayerTableRecord
  2
중심선
 70
     0
 62
     1
  6
CENTERX2
370
    -3
390
F
  0
LAYER
  5
73
330
2
100
AcDbSymbolTableRecord
100
AcDbLayerTableRecord
  2
파단선
 70
     0
 62
     4
  6
Continuous
370
    -3
390
F
  0
LAYER
  5
74
330
2
100
AcDbSymbolTableRecord
100
AcDbLayerTableRecord
  2
해칭선
 70
     0
 62
   100
  6
Continuous
370
    -3
390
F
  0
LAYER
  5
75
330
2
100
AcDbSymbolTableRecord
100
AcDbLayerTableRecord
  2
가는실선
 70
     0
 62
     4
  6
Continuous
370
    -3
390
F
  0
LAYER
  5
76
330
2
100
AcDbSymbolTableRecord
100
AcDbLayerTableRecord
  2
치수_보조선
 70
     0
 62
     4
  6
Continuous
370
    -3
390
F
  0
LAYER
  5
77
330
2
100
AcDbSymbolTableRecord
100
AcDbLayerTableRecord
  2
치수문자_일반주서
 70
     0
 62
     7
  6
Continuous
370
    15
390
F
  0
LAYER
  5
78
330
2
100
AcDbSymbolTableRecord
100
AcDbLayerTableRecord
  2
개별주서
 70
     0
 62
   100
  6
Continuous
370
    30
390
F
  0
LAYER
  5
79
330
2
100
AcDbSymbolTableRecord
100
AcDbLayerTableRecord
  2
중간선
 70
     0
 62
     2
  6
Continuous
370
    15
390
F
  0
LAYER
  5
7A
330
2
100
AcDbSymbolTableRecord
100
AcDbLayerTableRecord
  2
윤곽선
 70
     0
 62
     3
  6
Continuous
370
    40
390
F
  0
LAYER
  5
7B
330
2
100
AcDbSymbolTableRecord
100
AcDbLayerTableRecord
  2
중심마크
 70
     0
 62
   100
  6
Continuous
370
    30
390
F
  0
LAYER
  5
7C
330
2
100
AcDbSymbolTableRecord
100
AcDbLayerTableRecord
  2
가상선
 70
     0
 62
     4
  6
PHANTOM
370
    -3
390
F
  0
LAYER
  5
7D
330
2
100
AcDbSymbolTableRecord
100
AcDbLayerTableRecord
  2
특수지정선
 70
     0
 62
     5
  6
CENTERX2
370
    60
390
F
  0
LAYER
  5
7E
330
2
100
AcDbSymbolTableRecord
100
AcDbLayerTableRecord
  2
참조1
 70
     0
 62
    -4
  6
Continuous
370
    -3
390
F
  0
LAYER
  5
154
330
2
100
AcDbSymbolTableRecord
100
AcDbLayerTableRecord
  2
Defpoints
 70
     0
 62
     7
  6
Continuous
290
     0
370
    -3
390
F
  0
ENDTAB
  0
TABLE
  2
STYLE
  5
3
330
0
100
AcDbSymbolTable
 70
     2
  0
STYLE
  5
11
330
3
100
AcDbSymbolTableRecord
100
AcDbTextStyleTableRecord
  2
Standard
 70
     0
 40
0.0
 41
1.0
 50
0.0
 71
     0
 42
3.5
  3
txt
  4

  0
STYLE
  5
94
330
3
100
AcDbSymbolTableRecord
100
AcDbTextStyleTableRecord
  2
SLDTEXTSTYLE0
 70
     0
 40
0.0
 41
0.75
 50
0.0
 71
     0
 42
3.5
  3
TXT
  4

  0
ENDTAB
  0
TABLE
  2
VIEW
  5
6
330
0
100
AcDbSymbolTable
 70
     0
  0
ENDTAB
  0
TABLE
  2
UCS
  5
7
330
0
100
AcDbSymbolTable
 70
     0
  0
ENDTAB
  0
TABLE
  2
APPID
  5
9
330
0
100
AcDbSymbolTable
 70
     2
  0
APPID
  5
12
330
9
100
AcDbSymbolTableRecord
100
AcDbRegAppTableRecord
  2
ACAD
 70
     0
  0
APPID
  5
1A6
330
9
100
AcDbSymbolTableRecord
100
AcDbRegAppTableRecord
  2
PE_URL
 70
     0
  0
ENDTAB
  0
TABLE
  2
DIMSTYLE
  5
A
330
0
100
AcDbSymbolTable
 70
     3
100
AcDbDimStyleTable
  0
DIMSTYLE
105
27
330
A
100
AcDbSymbolTableRecord
100
AcDbDimStyleTableRecord
  2
ISO-25
 70
     0
 41
2.5
 42
0.625
 43
3.75
 44
1.25
 73
     0
 74
     0
 77
     1
 78
     8
140
2.5
141
2.5
143
0.03937007874016
147
0.625
171
     3
172
     1
178
     0
271
     2
272
     2
274
     3
278
    44
283
     0
284
     8
340
11
  0
DIMSTYLE
105
D3
102
{ACAD_REACTORS
330
D2
330
10F
330
E7
330
FC
102
}
330
A
100
AcDbSymbolTableRecord
100
AcDbDimStyleTableRecord
  2
SLDDIMSTYLE0
 70
     0
 41
3.302
 44
0.0
 45
0.000000001
 73
     0
 74
     0
 77
     1
 78
    12
 79
     3
140
3.5
143
0.0393700787401575
147
0.875
148
0.000000001
170
     1
172
     1
173
     1
178
     0
271
     2
272
     2
276
     2
284
    12
289
     0
340
94
  0
DIMSTYLE
105
E8
330
A
100
AcDbSymbolTableRecord
100
AcDbDimStyleTableRecord
  2
SLDDIMSTYLE1
 70
     0
 41
3.302
 44
0.0
 45
0.000000001
 73
     0
 74
     0
 77
     1
 78
    12
 79
     3
140
3.5
143
0.0393700787401575
147
0.875
148
0.000000001
170
     1
173
     1
178
     0
271
     2
272
     2
276
     2
284
    12
340
94
  0
ENDTAB
  0
TABLE
  2
BLOCK_RECORD
  5
1
330
0
100
AcDbSymbolTable
 70
     9
  0
BLOCK_RECORD
  5
1F
330
1
100
AcDbSymbolTableRecord
100
AcDbBlockTableRecord
  2
*Model_Space
340
22
  0
BLOCK_RECORD
  5
1B
330
1
100
AcDbSymbolTableRecord
100
AcDbBlockTableRecord
  2
*Paper_Space
340
1E
  0
BLOCK_RECORD
  5
23
330
1
100
AcDbSymbolTableRecord
100
AcDbBlockTableRecord
  2
*Paper_Space0
340
26
  0
BLOCK_RECORD
  5
7F
330
1
100
AcDbSymbolTableRecord
100
AcDbBlockTableRecord
  2
블럭10
340
0
102
{BLKREFS
331
CB
102
}
  0
BLOCK_RECORD
  5
D4
330
1
100
AcDbSymbolTableRecord
100
AcDbBlockTableRecord
  2
_D
340
0
  0
BLOCK_RECORD
  5
E9
330
1
100
AcDbSymbolTableRecord
100
AcDbBlockTableRecord
  2
_D_1
340
0
  0
BLOCK_RECORD
  5
FD
330
1
100
AcDbSymbolTableRecord
100
AcDbBlockTableRecord
  2
_D_2
340
0
  0
BLOCK_RECORD
  5
110
330
1
100
AcDbSymbolTableRecord
100
AcDbBlockTableRecord
  2
_D_3
340
0
  0
BLOCK_RECORD
  5
12A
330
1
100
AcDbSymbolTableRecord
100
AcDbBlockTableRecord
  2
SW_DOWELSYMBOL_0
340
0
102
{BLKREFS
331
130
102
}
  0
BLOCK_RECORD
  5
18B
330
1
100
AcDbSymbolTableRecord
100
AcDbBlockTableRecord
  2
*D7
340
0
  0
BLOCK_RECORD
  5
19A
330
1
100
AcDbSymbolTableRecord
100
AcDbBlockTableRecord
  2
*D8
340
0
  0
ENDTAB
  0
ENDSEC
  0
SECTION
  2
BLOCKS
  0
BLOCK
  5
20
330
1F
100
AcDbEntity
  8
0
100
AcDbBlockBegin
  2
*Model_Space
 70
     0
 10
0.0
 20
0.0
 30
0.0
  3
*Model_Space
  1
*Model_Space
  0
ENDBLK
  5
21
330
1F
100
AcDbEntity
  8
0
100
AcDbBlockEnd
  0
BLOCK
  5
1C
330
1B
100
AcDbEntity
 67
     1
  8
0
100
AcDbBlockBegin
  2
*Paper_Space
 70
     0
 10
0.0
 20
0.0
 30
0.0
  3
*Paper_Space
  1
*Paper_Space
  0
ENDBLK
  5
1D
330
1B
100
AcDbEntity
 67
     1
  8
0
100
AcDbBlockEnd
  0
BLOCK
  5
24
330
23
100
AcDbEntity
  8
0
100
AcDbBlockBegin
  2
*Paper_Space0
 70
     0
 10
0.0
 20
0.0
 30
0.0
  3
*Paper_Space0
  1
*Paper_Space0
  0
ENDBLK
  5
25
330
23
100
AcDbEntity
  8
0
100
AcDbBlockEnd
  0
BLOCK
  5
80
330
7F
100
AcDbEntity
  8
0
100
AcDbBlockBegin
  2
블럭10
 70
     2
 10
0.0
 20
0.0
 30
0.0
  3
블럭10
  1
블럭10
  0
ELLIPSE
  5
82
330
7F
100
AcDbEntity
  8
중심선
100
AcDbEllipse
 10
20.54032771741204
 20
12.0471743016438
 30
0.0
 11
6.600054785286829
 21
-1.261213355974178E-13
 31
0.0
210
0.0
220
0.0
230
1.0
 40
0.636358354079598
 41
0.9219305317359503
 42
6.513795318482858
  0
ELLIPSE
  5
83
330
7F
100
AcDbEntity
  8
중심선
100
AcDbEllipse
 10
20.54032771746488
 20
12.04717430159265
 30
0.0
 11
3.960054785062283
 21
1.540847449632565E-10
 31
0.0
210
0.0
220
0.0
230
1.0
 40
0.3939339440162632
 41
1.131841032648279
 42
5.62031148352944
  0
LINE
  5
84
330
7F
100
AcDbEntity
  8
중심선
100
AcDbLine
 10
2.268634060543552
 20
16.24717430164393
 30
0.0
 11
5.714909304380834
 21
16.24717430164393
 31
0.0
  0
LINE
  5
85
330
7F
100
AcDbEntity
  8
중심선
100
AcDbLine
 10
5.245725140726316
 20
7.84717430164391
 30
0.0
 11
8.692000384563599
 21
7.84717430164391
 31
0.0
  0
LINE
  5
86
330
7F
100
AcDbEntity
  8
중심선
100
AcDbLine
 10
15.74043728645272
 20
16.24717430164393
 30
0.0
 11
8.692000384563599
 21
7.84717430164391
 31
0.0
  0
LINE
  5
87
330
7F
100
AcDbEntity
  8
중심선
100
AcDbLine
 10
0.1404042013395286
 20
13.71084872107135
 30
0.0
 11
3.58671253028996
 21
13.71088815037384
 31
0.0
  0
LINE
  5
88
330
7F
100
AcDbEntity
  8
중심선
100
AcDbLine
 10
2.750260043222114
 20
10.84717430164391
 30
0.0
 11
6.196535287059397
 21
10.84717430164391
 31
0.0
  0
LINE
  5
89
330
7F
100
AcDbEntity
  8
중심선
100
AcDbLine
 10
12.29416204261559
 20
16.24717430164393
 30
0.0
 11
5.245725140726316
 21
7.84717430164391
 31
0.0
  0
LINE
  5
8A
330
7F
100
AcDbEntity
  8
중심선
100
AcDbLine
 10
10.72767329541681
 20
16.24717430164393
 30
0.0
 11
6.196535287059397
 21
10.84717430164391
 31
0.0
  0
LINE
  5
8B
330
7F
100
AcDbEntity
  8
중심선
100
AcDbLine
 10
7.28139805157953
 20
16.24717430164393
 30
0.0
 11
2.750260043222114
 21
10.84717430164391
 31
0.0
  0
LINE
  5
8C
330
7F
100
AcDbEntity
  8
중심선
100
AcDbLine
 10
5.714909304380834
 20
16.24717430164393
 30
0.0
 11
3.58671253028996
 21
13.71088815037384
 31
0.0
  0
LINE
  5
8D
330
7F
100
AcDbEntity
  8
중심선
100
AcDbLine
 10
2.268634060543552
 20
16.24717430164393
 30
0.0
 11
0.1404042013395286
 21
13.71084872107135
 31
0.0
  0
LINE
  5
8E
330
7F
100
AcDbEntity
  8
중심선
100
AcDbLine
 10
7.28139805157953
 20
16.24717430164393
 30
0.0
 11
10.72767329541681
 21
16.24717430164393
 31
0.0
  0
LINE
  5
8F
330
7F
100
AcDbEntity
  8
중심선
100
AcDbLine
 10
12.29416204261559
 20
16.24717430164393
 30
0.0
 11
15.74043728645272
 21
16.24717430164393
 31
0.0
  0
LINE
  5
90
330
7F
100
AcDbEntity
  8
중심선
100
AcDbLine
 10
19.22036997980202
 20
11.08717430171403
 30
0.0
 11
23.66174974927406
 21
11.08717430171406
 31
0.0
  0
LINE
  5
91
330
7F
100
AcDbEntity
  8
중심선
100
AcDbLine
 10
19.22039502424796
 20
13.00717430171391
 30
0.0
 11
19.22036997980202
 21
11.08717430171403
 31
0.0
  0
LINE
  5
92
330
7F
100
AcDbEntity
  8
중심선
100
AcDbLine
 10
19.22039502424796
 20
13.00717430171391
 30
0.0
 11
26.96566020931264
 21
13.00717430171391
 31
0.0
  0
LINE
  5
93
330
7F
100
AcDbEntity
  8
중심선
100
AcDbLine
 10
22.22332737316547
 20
13.45928029700563
 30
0.0
 11
24.52862924686651
 21
15.39360700705356
 31
0.0
  0
ATTDEF
  5
95
330
7F
100
AcDbEntity
  8
FORMAT
 62
     2
100
AcDbText
 10
4.408487351596664
 20
2.075366912832191
 30
0.0
 40
4.233333333333333
  1
E1004008
 41
0.75
  7
SLDTEXTSTYLE0
 11
4.408487351596664
 21
-0.0412997538344756
 31
0.0
100
AcDbAttributeDefinition
  3

  2
AUTOATTR0
 70
     0
 74
     1
  0
ENDBLK
  5
81
330
7F
100
AcDbEntity
  8
0
100
AcDbBlockEnd
  0
BLOCK
  5
D5
330
D4
100
AcDbEntity
  8
0
100
AcDbBlockBegin
  2
_D
 70
     0
 10
0.0
 20
0.0
 30
0.0
  3
_D
  1
_D
  0
LINE
  5
D7
330
D4
100
AcDbEntity
  8
치수문자_일반주서
 62
     0
370
    -2
100
AcDbLine
 10
28.6375
 20
1.581662114051214
 30
0.0
 11
65.88671367720067
 21
1.581662114051351
 31
0.0
  0
LINE
  5
D8
330
D4
100
AcDbEntity
  8
치수문자_일반주서
 62
     0
370
    -2
100
AcDbLine
 10
28.6375
 20
-1.581662114051213
 30
0.0
 11
65.88671367720069
 21
-1.581662114051074
 31
0.0
  0
LINE
  5
D9
330
D4
100
AcDbEntity
  8
치수문자_일반주서
 62
     0
370
    -2
100
AcDbLine
 10
65.88671367720067
 20
1.581662114051351
 30
0.0
 11
65.88671367720053
 21
32.91025000000014
 31
0.0
  0
LINE
  5
DA
330
D4
100
AcDbEntity
  8
치수문자_일반주서
 62
     0
370
    -2
100
AcDbLine
 10
65.88671367720067
 20
1.581662114051351
 30
0.0
 11
65.88671367720069
 21
-1.581662114051074
 31
0.0
  0
LINE
  5
DB
330
D4
100
AcDbEntity
  8
치수문자_일반주서
 62
     0
370
    -2
100
AcDbLine
 10
65.88671367720066
 20
4.883662114051351
 30
0.0
 11
65.88671367720065
 21
8.18566211405135
 31
0.0
  0
LINE
  5
DC
330
D4
100
AcDbEntity
  8
치수문자_일반주서
 62
     0
370
    -2
100
AcDbLine
 10
65.8867136772007
 20
-4.883662114051074
 30
0.0
 11
65.88671367720072
 21
-8.185662114051073
 31
0.0
  0
SOLID
  5
DD
330
D4
100
AcDbEntity
  8
치수문자_일반주서
 62
     0
100
AcDbTrace
 10
65.33638034386733
 20
4.883662114051348
 30
0.0
 11
66.43704701053399
 21
4.883662114051353
 31
0.0
 12
65.88671367720067
 22
1.581662114051351
 32
0.0
 13
65.88671367720067
 23
1.581662114051351
 33
0.0
  0
SOLID
  5
DE
330
D4
100
AcDbEntity
  8
치수문자_일반주서
 62
     0
100
AcDbTrace
 10
66.43704701053403
 20
-4.883662114051071
 30
0.0
 11
65.33638034386738
 21
-4.883662114051076
 31
0.0
 12
65.88671367720069
 22
-1.581662114051074
 32
0.0
 13
65.88671367720069
 23
-1.581662114051074
 33
0.0
  0
MTEXT
  5
DF
330
D4
100
AcDbEntity
  8
치수문자_일반주서
 62
     0
100
AcDbMText
 10
61.51171367720059
 20
20.66025000000012
 30
0.0
 40
3.5
 41
0.0
 71
     2
 72
     1
  1
\A1;%%c3.16 [1/8]
  7
SLDTEXTSTYLE0
 11
-4.492380069344527E-15
 21
1.0
 31
0.0
 73
     1
 44
1.0
  0
POINT
  5
E0
330
D4
100
AcDbEntity
  8
Defpoints
 62
     0
100
AcDbPoint
 10
28.575
 20
1.581662114051214
 30
0.0
  0
POINT
  5
E1
330
D4
100
AcDbEntity
  8
Defpoints
 62
     0
100
AcDbPoint
 10
28.575
 20
-1.581662114051214
 30
0.0
  0
POINT
  5
E2
330
D4
100
AcDbEntity
  8
Defpoints
 62
     0
100
AcDbPoint
 10
65.88671367720069
 20
-1.581662114051074
 30
0.0
  0
ENDBLK
  5
D6
330
D4
100
AcDbEntity
  8
0
100
AcDbBlockEnd
  0
BLOCK
  5
EA
330
E9
100
AcDbEntity
  8
0
100
AcDbBlockBegin
  2
_D_1
 70
     0
 10
0.0
 20
0.0
 30
0.0
  3
_D_1
  1
_D_1
  0
LINE
  5
EC
330
E9
100
AcDbEntity
  8
치수문자_일반주서
 62
     0
370
    -2
100
AcDbLine
 10
28.575
 20
1.644162114051214
 30
0.0
 11
28.575
 21
12.38125
 31
0.0
  0
LINE
  5
ED
330
E9
100
AcDbEntity
  8
치수문자_일반주서
 62
     0
370
    -2
100
AcDbLine
 10
19.04999999999998
 20
1.519465539775551
 30
0.0
 11
19.04999999999998
 21
12.38125
 31
0.0
  0
LINE
  5
EE
330
E9
100
AcDbEntity
  8
치수문자_일반주서
 62
     0
370
    -2
100
AcDbLine
 10
28.575
 20
12.38125
 30
0.0
 11
59.02274999999999
 21
12.38125
 31
0.0
  0
LINE
  5
EF
330
E9
100
AcDbEntity
  8
치수문자_일반주서
 62
     0
370
    -2
100
AcDbLine
 10
28.575
 20
12.38125
 30
0.0
 11
19.04999999999998
 21
12.38125
 31
0.0
  0
LINE
  5
F0
330
E9
100
AcDbEntity
  8
치수문자_일반주서
 62
     0
370
    -2
100
AcDbLine
 10
31.877
 20
12.38125
 30
0.0
 11
35.17899999999999
 21
12.38125
 31
0.0
  0
LINE
  5
F1
330
E9
100
AcDbEntity
  8
치수문자_일반주서
 62
     0
370
    -2
100
AcDbLine
 10
15.74799999999998
 20
12.38125
 30
0.0
 11
12.44599999999998
 21
12.38125
 31
0.0
  0
SOLID
  5
F2
330
E9
100
AcDbEntity
  8
치수문자_일반주서
 62
     0
100
AcDbTrace
 10
31.877
 20
12.93158333333334
 30
0.0
 11
31.877
 21
11.83091666666667
 31
0.0
 12
28.575
 22
12.38125
 32
0.0
 13
28.575
 23
12.38125
 33
0.0
  0
SOLID
  5
F3
330
E9
100
AcDbEntity
  8
치수문자_일반주서
 62
     0
100
AcDbTrace
 10
15.74799999999998
 20
11.83091666666667
 30
0.0
 11
15.74799999999998
 21
12.93158333333334
 31
0.0
 12
19.04999999999998
 22
12.38125
 32
0.0
 13
19.04999999999998
 23
12.38125
 33
0.0
  0
MTEXT
  5
F4
330
E9
100
AcDbEntity
  8
치수문자_일반주서
 62
     0
100
AcDbMText
 10
47.21024999999999
 20
16.75625
 30
0.0
 40
3.5
 41
0.0
 71
     2
 72
     1
  1
\A1;9.53 [3/8]
  7
SLDTEXTSTYLE0
 73
     1
 44
1.0
  0
POINT
  5
F5
330
E9
100
AcDbEntity
  8
Defpoints
 62
     0
100
AcDbPoint
 10
28.575
 20
1.581662114051214
 30
0.0
  0
POINT
  5
F6
330
E9
100
AcDbEntity
  8
Defpoints
 62
     0
100
AcDbPoint
 10
19.04999999999998
 20
1.456965539775551
 30
0.0
  0
POINT
  5
F7
330
E9
100
AcDbEntity
  8
Defpoints
 62
     0
100
AcDbPoint
 10
19.04999999999998
 20
12.38125
 30
0.0
  0
ENDBLK
  5
EB
330
E9
100
AcDbEntity
  8
0
100
AcDbBlockEnd
  0
BLOCK
  5
FE
330
FD
100
AcDbEntity
  8
0
100
AcDbBlockBegin
  2
_D_2
 70
     0
 10
0.0
 20
0.0
 30
0.0
  3
_D_2
  1
_D_2
  0
LINE
  5
100
330
FD
100
AcDbEntity
  8
치수문자_일반주서
 62
     0
370
    -2
100
AcDbLine
 10
28.575
 20
1.644162114051214
 30
0.0
 11
28.575
 21
22.38125
 31
0.0
  0
LINE
  5
101
330
FD
100
AcDbEntity
  8
치수문자_일반주서
 62
     0
370
    -2
100
AcDbLine
 10
-28.57500000000001
 20
1.644162114051222
 30
0.0
 11
-28.57500000000001
 21
22.38125
 31
0.0
  0
LINE
  5
102
330
FD
100
AcDbEntity
  8
치수문자_일반주서
 62
     0
370
    -2
100
AcDbLine
 10
25.273
 20
22.38125
 30
0.0
 11
-25.27300000000001
 21
22.38125
 31
0.0
  0
SOLID
  5
103
330
FD
100
AcDbEntity
  8
치수문자_일반주서
 62
     0
100
AcDbTrace
 10
25.273
 20
21.83091666666667
 30
0.0
 11
25.273
 21
22.93158333333334
 31
0.0
 12
28.575
 22
22.38125
 32
0.0
 13
28.575
 23
22.38125
 33
0.0
  0
SOLID
  5
104
330
FD
100
AcDbEntity
  8
치수문자_일반주서
 62
     0
100
AcDbTrace
 10
-25.27300000000001
 20
22.93158333333334
 30
0.0
 11
-25.27300000000001
 21
21.83091666666667
 31
0.0
 12
-28.57500000000001
 22
22.38125
 32
0.0
 13
-28.57500000000001
 23
22.38125
 33
0.0
  0
MTEXT
  5
105
330
FD
100
AcDbEntity
  8
치수문자_일반주서
 62
     0
100
AcDbMText
 10
-1.458179486121107
 20
26.75625
 30
0.0
 40
3.5
 41
0.0
 71
     2
 72
     1
  1
\A1;57.15 [2 1/4]
  7
SLDTEXTSTYLE0
 73
     1
 44
1.0
  0
POINT
  5
106
330
FD
100
AcDbEntity
  8
Defpoints
 62
     0
100
AcDbPoint
 10
28.575
 20
1.581662114051214
 30
0.0
  0
POINT
  5
107
330
FD
100
AcDbEntity
  8
Defpoints
 62
     0
100
AcDbPoint
 10
-28.57500000000001
 20
1.581662114051222
 30
0.0
  0
POINT
  5
108
330
FD
100
AcDbEntity
  8
Defpoints
 62
     0
100
AcDbPoint
 10
-28.57500000000001
 20
22.38125
 30
0.0
  0
ENDBLK
  5
FF
330
FD
100
AcDbEntity
  8
0
100
AcDbBlockEnd
  0
BLOCK
  5
111
330
110
100
AcDbEntity
  8
0
100
AcDbBlockBegin
  2
_D_3
 70
     0
 10
0.0
 20
0.0
 30
0.0
  3
_D_3
  1
_D_3
  0
LINE
  5
113
330
110
100
AcDbEntity
  8
치수문자_일반주서
 62
     0
370
    -2
100
AcDbLine
 10
-15.15018467149221
 20
2.381250000000005
 30
0.0
 11
-38.57500000000001
 21
2.381249999999916
 31
0.0
  0
LINE
  5
114
330
110
100
AcDbEntity
  8
치수문자_일반주서
 62
     0
370
    -2
100
AcDbLine
 10
-15.15018467149221
 20
-2.381250000000009
 30
0.0
 11
-38.575
 21
-2.381250000000097
 31
0.0
  0
LINE
  5
115
330
110
100
AcDbEntity
  8
치수문자_일반주서
 62
     0
370
    -2
100
AcDbLine
 10
-38.57500000000001
 20
2.381249999999916
 30
0.0
 11
-38.57500000000011
 21
36.98524999999992
 31
0.0
  0
LINE
  5
116
330
110
100
AcDbEntity
  8
치수문자_일반주서
 62
     0
370
    -2
100
AcDbLine
 10
-38.57500000000001
 20
2.381249999999916
 30
0.0
 11
-38.575
 21
-2.381250000000097
 31
0.0
  0
LINE
  5
117
330
110
100
AcDbEntity
  8
치수문자_일반주서
 62
     0
370
    -2
100
AcDbLine
 10
-38.57500000000002
 20
5.683249999999916
 30
0.0
 11
-38.57500000000002
 21
8.985249999999915
 31
0.0
  0
LINE
  5
118
330
110
100
AcDbEntity
  8
치수문자_일반주서
 62
     0
370
    -2
100
AcDbLine
 10
-38.57499999999999
 20
-5.683250000000097
 30
0.0
 11
-38.57499999999998
 21
-8.985250000000097
 31
0.0
  0
SOLID
  5
119
330
110
100
AcDbEntity
  8
치수문자_일반주서
 62
     0
100
AcDbTrace
 10
-39.12533333333335
 20
5.683249999999914
 30
0.0
 11
-38.02466666666668
 21
5.683249999999918
 31
0.0
 12
-38.57500000000001
 22
2.381249999999916
 32
0.0
 13
-38.57500000000001
 23
2.381249999999916
 33
0.0
  0
SOLID
  5
11A
330
110
100
AcDbEntity
  8
치수문자_일반주서
 62
     0
100
AcDbTrace
 10
-38.02466666666665
 20
-5.683250000000095
 30
0.0
 11
-39.12533333333332
 21
-5.683250000000099
 31
0.0
 12
-38.575
 22
-2.381250000000097
 32
0.0
 13
-38.575
 23
-2.381250000000097
 33
0.0
  0
MTEXT
  5
11B
330
110
100
AcDbEntity
  8
치수문자_일반주서
 62
     0
100
AcDbMText
 10
-42.95000000000007
 20
22.9852499999999
 30
0.0
 40
3.5
 41
0.0
 71
     2
 72
     1
  1
\A1;%%c4.76 [3/16]
  7
SLDTEXTSTYLE0
 11
-2.983906501879677E-15
 21
1.0
 31
0.0
 73
     1
 44
1.0
  0
POINT
  5
1AA
330
110
100
AcDbEntity
  8
Defpoints
 62
     0
100
AcDbPoint
 10
-15.08768467149221
 20
2.381250000000005
 30
0.0
  0
POINT
  5
1AB
330
110
100
AcDbEntity
  8
Defpoints
 62
     0
100
AcDbPoint
 10
-15.08768467149221
 20
-2.381250000000008
 30
0.0
  0
POINT
  5
1AC
330
110
100
AcDbEntity
  8
Defpoints
 62
     0
100
AcDbPoint
 10
-38.575
 20
-2.381250000000096
 30
0.0
  0
ENDBLK
  5
112
330
110
100
AcDbEntity
  8
0
100
AcDbBlockEnd
  0
BLOCK
  5
12B
330
12A
100
AcDbEntity
  8
0
100
AcDbBlockBegin
  2
SW_DOWELSYMBOL_0
 70
     0
 10
0.0
 20
0.0
 30
0.0
  3
SW_DOWELSYMBOL_0
  1
SW_DOWELSYMBOL_0
  0
CIRCLE
  5
12D
330
12A
100
AcDbEntity
  8
해칭선
 62
     0
100
AcDbCircle
 10
0.0
 20
0.0
 30
0.0
 40
3.000000000000001
  0
HATCH
  5
12E
330
12A
100
AcDbEntity
  8
0
  6
Continuous
 62
     0
370
     0
100
AcDbHatch
 10
0.0
 20
0.0
 30
0.0
210
0.0
220
0.0
230
1.0
  2
SOLID
 70
     1
 71
     0
 91
        1
 92
        0
 93
        3
 72
     2
 10
0.0
 20
0.0
 40
3.000000000000001
 50
0.0
 51
90.0
 73
     1
 72
     1
 10
0.0
 20
3.000000000000001
 11
0.0
 21
0.0
 72
     1
 10
0.0
 20
0.0
 11
3.000000000000001
 21
0.0
 97
        0
 75
     0
 76
     1
 98
        1
 10
0.0
 20
0.0
  0
HATCH
  5
12F
330
12A
100
AcDbEntity
  8
0
  6
Continuous
 62
     0
370
     0
100
AcDbHatch
 10
0.0
 20
0.0
 30
0.0
210
0.0
220
0.0
230
1.0
  2
SOLID
 70
     1
 71
     0
 91
        1
 92
        0
 93
        3
 72
     2
 10
0.0
 20
0.0
 40
3.000000000000001
 50
180.0
 51
270.0000000000007
 73
     1
 72
     1
 10
0.0
 20
-3.000000000000001
 11
0.0
 21
0.0
 72
     1
 10
0.0
 20
0.0
 11
-3.000000000000001
 21
0.0
 97
        0
 75
     0
 76
     1
 98
        1
 10
0.0
 20
0.0
  0
ENDBLK
  5
12C
330
12A
100
AcDbEntity
  8
0
100
AcDbBlockEnd
  0
BLOCK
  5
18C
330
18B
100
AcDbEntity
  8
0
100
AcDbBlockBegin
  2
*D7
 70
     1
 10
0.0
 20
0.0
 30
0.0
  3
*D7
  1
*D7
  0
LINE
  5
18E
330
18B
100
AcDbEntity
  8
치수문자_일반주서
 62
     0
370
    -2
100
AcDbLine
 10
0.0
 20
0.5121961990748796
 30
0.0
 11
0.0
 21
33.79272327212171
 31
0.0
  0
LINE
  5
18F
330
18B
100
AcDbEntity
  8
치수문자_일반주서
 62
     0
370
    -2
100
AcDbLine
 10
25.99995813577124
 20
8.175743682859753
 30
0.0
 11
25.99995813577124
 21
33.79272327212171
 31
0.0
  0
LINE
  5
190
330
18B
100
AcDbEntity
  8
치수문자_일반주서
 62
     0
370
    -2
100
AcDbLine
 10
3.302
 20
33.79272327212171
 30
0.0
 11
22.69795813577124
 21
33.79272327212171
 31
0.0
  0
SOLID
  5
191
330
18B
100
AcDbEntity
  8
치수문자_일반주서
 62
     0
100
AcDbTrace
 10
3.302
 20
34.34305660545504
 30
0.0
 11
3.302
 21
33.24238993878837
 31
0.0
 12
0.0
 22
33.79272327212171
 32
0.0
 13
0.0
 23
33.79272327212171
 33
0.0
  0
SOLID
  5
192
330
18B
100
AcDbEntity
  8
치수문자_일반주서
 62
     0
100
AcDbTrace
 10
22.69795813577124
 20
33.24238993878837
 30
0.0
 11
22.69795813577124
 21
34.34305660545504
 31
0.0
 12
25.99995813577124
 22
33.79272327212171
 32
0.0
 13
25.99995813577124
 23
33.79272327212171
 33
0.0
  0
MTEXT
  5
193
330
18B
100
AcDbEntity
  8
치수문자_일반주서
 62
     0
100
AcDbMText
 10
13.04655386270326
 20
38.16772327212171
 30
0.0
 40
3.5
 41
0.0
 71
     2
 72
     1
  1
\A1;26 [1.02]
  7
SLDTEXTSTYLE0
 73
     1
 44
1.0
  0
POINT
  5
194
330
18B
100
AcDbEntity
  8
Defpoints
 62
     0
100
AcDbPoint
 10
0.0
 20
0.4496961990748796
 30
0.0
  0
POINT
  5
195
330
18B
100
AcDbEntity
  8
Defpoints
 62
     0
100
AcDbPoint
 10
25.99995813577124
 20
8.113243682859753
 30
0.0
  0
POINT
  5
196
330
18B
100
AcDbEntity
  8
Defpoints
 62
     0
100
AcDbPoint
 10
25.99995813577124
 20
33.79272327212171
 30
0.0
  0
ENDBLK
  5
18D
330
18B
100
AcDbEntity
  8
0
100
AcDbBlockEnd
  0
BLOCK
  5
19B
330
19A
100
AcDbEntity
  8
0
100
AcDbBlockBegin
  2
*D8
 70
     1
 10
0.0
 20
0.0
 30
0.0
  3
*D8
  1
*D8
  0
LINE
  5
19D
330
19A
100
AcDbEntity
  8
치수문자_일반주서
 62
     0
370
    -2
100
AcDbLine
 10
69.91375284199265
 20
-25.11729623944688
 30
0.0
 11
69.91375284199265
 21
8.163230833599947
 31
0.0
  0
LINE
  5
19E
330
19A
100
AcDbEntity
  8
치수문자_일반주서
 62
     0
370
    -2
100
AcDbLine
 10
95.91371097776388
 20
-17.45374875566201
 30
0.0
 11
95.91371097776388
 21
8.163230833599947
 31
0.0
  0
LINE
  5
19F
330
19A
100
AcDbEntity
  8
치수문자_일반주서
 62
     0
370
    -2
100
AcDbLine
 10
73.21575284199264
 20
8.163230833599947
 30
0.0
 11
92.61171097776389
 21
8.163230833599947
 31
0.0
  0
SOLID
  5
1A0
330
19A
100
AcDbEntity
  8
치수문자_일반주서
 62
     0
100
AcDbTrace
 10
73.21575284199264
 20
8.71356416693328
 30
0.0
 11
73.21575284199264
 21
7.612897500266613
 31
0.0
 12
69.91375284199265
 22
8.163230833599947
 32
0.0
 13
69.91375284199265
 23
8.163230833599947
 33
0.0
  0
SOLID
  5
1A1
330
19A
100
AcDbEntity
  8
치수문자_일반주서
 62
     0
100
AcDbTrace
 10
92.61171097776389
 20
7.612897500266613
 30
0.0
 11
92.61171097776389
 21
8.71356416693328
 31
0.0
 12
95.91371097776388
 22
8.163230833599947
 32
0.0
 13
95.91371097776388
 23
8.163230833599947
 33
0.0
  0
MTEXT
  5
1A2
330
19A
100
AcDbEntity
  8
치수문자_일반주서
 62
     0
100
AcDbMText
 10
82.96030670469591
 20
12.53823083359995
 30
0.0
 40
3.5
 41
0.0
 71
     2
 72
     1
  1
\A1;26 [1.02]
  7
SLDTEXTSTYLE0
 73
     1
 44
1.0
  0
POINT
  5
1A3
330
19A
100
AcDbEntity
  8
Defpoints
 62
     0
100
AcDbPoint
 10
69.91375284199265
 20
-25.17979623944688
 30
0.0
  0
POINT
  5
1A4
330
19A
100
AcDbEntity
  8
Defpoints
 62
     0
100
AcDbPoint
 10
95.91371097776388
 20
-17.51624875566201
 30
0.0
  0
POINT
  5
1A5
330
19A
100
AcDbEntity
  8
Defpoints
 62
     0
100
AcDbPoint
 10
95.91371097776388
 20
8.163230833599947
 30
0.0
  0
ENDBLK
  5
19C
330
19A
100
AcDbEntity
  8
0
100
AcDbBlockEnd
  0
ENDSEC
  0
SECTION
  2
ENTITIES
  0
LINE
  5
96
330
1F
100
AcDbEntity
  8
0
  6
Continuous
 62
     1
370
    15
100
AcDbLine
 10
26.16067333577107
 20
-0.4034424259064572
 30
0.0
 11
26.29704051986216
 21
-0.4762423842367429
 31
0.0
1001
PE_URL
1000

  0
LINE
  5
97
330
1F
100
AcDbEntity
  8
0
  6
Continuous
 62
     1
370
    15
100
AcDbLine
 10
19.37256753277527
 20
0.4555993004358675
 30
0.0
 11
19.3384791629141
 21
0.4739403663071562
 31
0.0
1001
PE_URL
1000

  0
LINE
  5
98
330
1F
100
AcDbEntity
  8
0
  6
Continuous
 62
     1
370
    15
100
AcDbLine
 10
24.49250616455592
 20
-1.5875
 30
0.0
 11
25.45859994565419
 21
-1.5875
 31
0.0
1001
PE_URL
1000

  0
LINE
  5
99
330
1F
100
AcDbEntity
  8
0
  6
Continuous
 62
     1
370
    15
100
AcDbLine
 10
21.14152320507402
 20
1.5875
 30
0.0
 11
20.17257186394953
 21
1.5875
 31
0.0
1001
PE_URL
1000

  0
LINE
  5
9A
330
1F
100
AcDbEntity
  8
0
  6
Continuous
 62
     1
370
    15
100
AcDbLine
 10
25.45859994565419
 20
1.5875
 30
0.0
 11
24.49250616455594
 21
1.5875
 31
0.0
1001
PE_URL
1000

  0
LINE
  5
9B
330
1F
100
AcDbEntity
  8
0
  6
Continuous
 62
     1
370
    15
100
AcDbLine
 10
20.17257186394954
 20
-1.5875
 30
0.0
 11
21.141523205074
 21
-1.5875
 31
0.0
1001
PE_URL
1000

  0
LINE
  5
9C
330
1F
100
AcDbEntity
  8
외형선
  6
Continuous
370
    15
100
AcDbLine
 10
15.08768467149219
 20
-2.381250000000005
 30
0.0
 11
18.05
 21
-1.5875
 31
0.0
  0
LINE
  5
9D
330
1F
100
AcDbEntity
  8
외형선
  6
Continuous
370
    15
100
AcDbLine
 10
18.05
 20
1.5875
 30
0.0
 11
15.08768467149219
 21
2.381250000000006
 31
0.0
  0
LINE
  5
9E
330
1F
100
AcDbEntity
  8
외형선
  6
Continuous
370
    15
100
AcDbLine
 10
-15.08768467149219
 20
-2.381250000000003
 30
0.0
 11
15.0876846714922
 21
-2.381250000000003
 31
0.0
  0
LINE
  5
9F
330
1F
100
AcDbEntity
  8
외형선
  6
Continuous
370
    15
100
AcDbLine
 10
15.08768467149219
 20
2.381250000000003
 30
0.0
 11
-15.08768467149221
 21
2.381250000000003
 31
0.0
  0
LINE
  5
A2
330
1F
100
AcDbEntity
  8
외형선
  6
Continuous
370
    15
100
AcDbLine
 10
18.05
 20
-1.5875
 30
0.0
 11
18.5499278899681
 21
-1.5875
 31
0.0
  0
LINE
  5
A3
330
1F
100
AcDbEntity
  8
외형선
  6
Continuous
370
    15
100
AcDbLine
 10
18.5499278899681
 20
1.5875
 30
0.0
 11
18.05
 21
1.5875
 31
0.0
  0
LINE
  5
A4
330
1F
100
AcDbEntity
  8
0
  6
Continuous
 62
     1
370
    15
100
AcDbLine
 10
28.575
 20
-1.437769141943496
 30
0.0
 11
28.575
 21
0.136019141943516
 31
0.0
1001
PE_URL
1000

  0
SPLINE
  5
A5
330
1F
100
AcDbEntity
  8
0
  6
Continuous
 62
     1
370
    15
100
AcDbSpline
210
0.0
220
0.0
230
1.0
 70
     8
 71
     3
 72
    17
 73
    13
 74
     0
 42
0.000000001
 43
0.00000001
 40
0.0
 40
0.0
 40
0.0
 40
0.0
 40
0.0262207104203285
 40
0.1286742662552343
 40
0.2311274763644472
 40
0.3336040090177136
 40
0.4361273807010276
 40
0.5488915883109239
 40
0.6616605920851345
 40
0.7744347550574872
 40
0.8872144381440187
 40
1.0
 40
1.0
 40
1.0
 40
1.0
 10
21.14152320507402
 20
1.575928142657389
 30
0.0
 10
21.20648338122165
 20
1.579384912674232
 30
0.0
 10
21.52526585765395
 20
1.596348501318479
 30
0.0
 10
22.09782714499915
 20
1.505474715116089
 30
0.0
 10
22.85930583017024
 20
1.305391686606762
 30
0.0
 10
23.6209950201239
 20
0.9961364857898598
 30
0.0
 10
24.40827603948028
 20
0.6007389484722578
 30
0.0
 10
25.22127838905091
 20
0.1393816633798693
 30
0.0
 10
26.05962947796898
 20
-0.3496816672890622
 30
0.0
 10
26.89804340751539
 20
-0.8040159250510622
 30
0.0
 10
27.73650143816532
 20
-1.193707136211982
 30
0.0
 10
28.29549562314691
 20
-1.356413726525438
 30
0.0
 10
28.575
 20
-1.437769141943496
 30
0.0
1001
PE_URL
1000

  0
SPLINE
  5
A6
330
1F
100
AcDbEntity
  8
0
  6
Continuous
 62
     1
370
    15
100
AcDbSpline
210
0.0
220
0.0
230
1.0
 70
     8
 71
     3
 72
    15
 73
    11
 74
     0
 42
0.000000001
 43
0.00000001
 40
0.0
 40
0.0
 40
0.0
 40
0.0
 40
0.132921816273343
 40
0.2657452420644599
 40
0.3985002133754838
 40
0.531217109528041
 40
0.6639265574660308
 40
0.796659232660079
 40
0.9294456593444442
 40
1.0
 40
1.0
 40
1.0
 40
1.0
 10
28.575
 20
0.1360191419435158
 30
0.0
 10
28.32070214157329
 20
0.2811560468550368
 30
0.0
 10
27.81229465934997
 20
0.571322424426072
 30
0.0
 10
27.05006013517324
 20
0.9602751082304241
 30
0.0
 10
26.28828601788953
 20
1.276698436826867
 30
0.0
 10
25.52677548104963
 20
1.495078942433089
 30
0.0
 10
24.76531918668206
 20
1.600973406412665
 30
0.0
 10
24.00368928711289
 20
1.579035653182414
 30
0.0
 10
23.36092601251239
 20
1.476770610738737
 30
0.0
 10
22.97190863198379
 20
1.340515806397636
 30
0.0
 10
22.83692898601412
 20
1.293238676448738
 30
0.0
1001
PE_URL
1000

  0
SPLINE
  5
A7
330
1F
100
AcDbEntity
  8
0
  6
Continuous
 62
     1
370
    15
100
AcDbSpline
210
0.0
220
0.0
230
1.0
 70
     8
 71
     3
 72
    18
 73
    14
 74
     0
 42
0.000000001
 43
0.00000001
 40
0.0
 40
0.0
 40
0.0
 40
0.0
 40
0.0944494678371931
 40
0.1888338281115816
 40
0.2831744402010681
 40
0.3774929471355744
 40
0.4718111357958061
 40
0.5661507951362413
 40
0.6605335743795863
 40
0.764344043530668
 40
0.868158928019543
 40
0.9719785620543149
 40
1.0
 40
1.0
 40
1.0
 40
1.0
 10
19.04999999999984
 20
1.094105788497824
 30
0.0
 10
19.30423986183278
 20
0.9796897258938788
 30
0.0
 10
19.81254432842045
 20
0.7509364719718985
 30
0.0
 10
20.57465366040212
 20
0.3280157677548504
 30
0.0
 10
21.33634959011619
 20
-0.1138517480783062
 30
0.0
 10
22.09782948134569
 20
-0.548609250974076
 30
0.0
 10
22.85930520550544
 20
-0.941043483363667
 30
0.0
 10
23.62099518198222
 20
-1.261980155093226
 30
0.0
 10
24.40827601095712
 20
-1.493477484609479
 30
0.0
 10
25.22127831440797
 20
-1.607786692733267
 30
0.0
 10
26.05962980364784
 20
-1.568321866238134
 30
0.0
 10
26.69398848856139
 20
-1.45439870873649
 30
0.0
 10
27.04889226995978
 20
-1.321897098290991
 30
0.0
 10
27.12432334874088
 20
-1.293735269818053
 30
0.0
1001
PE_URL
1000

  0
SPLINE
  5
A8
330
1F
100
AcDbEntity
  8
외형선
  6
Continuous
370
    15
100
AcDbSpline
210
0.0
220
0.0
230
1.0
 70
    24
 71
     3
 72
    10
 73
     6
 74
     0
 42
0.000000001
 43
0.00000001
 40
0.0
 40
0.0
 40
0.0
 40
0.0
 40
0.2961545882785048
 40
0.595666061639435
 40
0.9999999999999999
 40
0.9999999999999999
 40
0.9999999999999999
 40
0.9999999999999999
 10
19.04999999999999
 20
1.456965539775551
 30
0.0
 10
19.05000000000001
 20
1.423792390048954
 30
0.0
 10
19.05000000000007
 20
1.357070075987641
 30
0.0
 10
19.04999999999997
 20
1.24731762293345
 30
0.0
 10
19.05
 20
1.174952032319159
 30
0.0
 10
19.05
 20
1.133380596649358
 30
0.0
  0
SPLINE
  5
A9
330
1F
100
AcDbEntity
  8
0
  6
Continuous
 62
     1
370
    15
100
AcDbSpline
210
0.0
220
0.0
230
1.0
 70
     8
 71
     3
 72
    38
 73
    34
 74
     0
 42
0.000000001
 43
0.00000001
 40
0.0
 40
0.0
 40
0.0
 40
0.0
 40
0.0625
 40
0.0625
 40
0.125
 40
0.125
 40
0.1875
 40
0.1875
 40
0.25
 40
0.25
 40
0.3125
 40
0.3125
 40
0.375
 40
0.375
 40
0.4375
 40
0.4375
 40
0.5
 40
0.5
 40
0.5625
 40
0.5625
 40
0.625
 40
0.625
 40
0.6875
 40
0.6875
 40
0.75
 40
0.75
 40
0.8125
 40
0.8125
 40
0.875
 40
0.875
 40
0.9375
 40
0.9375
 40
1.0
 40
1.0
 40
1.0
 40
1.0
 10
28.575
 20
-1.581662114051214
 30
0.0
 10
28.37900017442151
 20
-1.571885825946155
 30
0.0
 10
28.17794627196322
 20
-1.549625714700743
 30
0.0
 10
27.77966273521351
 20
-1.4813034631094
 30
0.0
 10
27.5844068355976
 20
-1.43555673228869
 30
0.0
 10
27.18550148072981
 20
-1.321759279663413
 30
0.0
 10
26.98651114337175
 20
-1.254041397753212
 30
0.0
 10
26.59267549020943
 20
-1.100732084486589
 30
0.0
 10
26.39137099838347
 20
-1.014255693092385
 30
0.0
 10
25.99397764047929
 20
-0.8275273811478416
 30
0.0
 10
25.79826993103537
 20
-0.727455424264153
 30
0.0
 10
25.39901252056264
 20
-0.5162043879195307
 30
0.0
 10
25.2016423065663
 20
-0.4061021765405783
 30
0.0
 10
24.80622906305051
 20
-0.1811920631448068
 30
0.0
 10
24.60481300927134
 20
-0.0657295135904626
 30
0.0
 10
24.20857618883159
 20
0.1631805240161917
 30
0.0
 10
24.01196587517363
 20
0.276968171215394
 30
0.0
 10
23.61262696644486
 20
0.4996075000479754
 30
0.0
 10
23.41642981071696
 20
0.607238285537361
 30
0.0
 10
23.01970090161927
 20
0.8121802654498071
 30
0.0
 10
22.81831257293415
 20
0.9095521589884825
 30
0.0
 10
22.4234960555812
 20
1.087387293242531
 30
0.0
 10
22.22553436942641
 20
1.168593293547355
 30
0.0
 10
21.82638470391112
 20
1.311897597391808
 30
0.0
 10
21.63091091115398
 20
1.373374512519782
 30
0.0
 10
21.23313120424621
 20
1.474720847488457
 30
0.0
 10
21.03190982316223
 20
1.514313195962859
 30
0.0
 10
20.63877420280096
 20
1.568853245616282
 30
0.0
 10
20.43901540310851
 20
1.584205591156742
 30
0.0
 10
20.04032529480883
 20
1.589838000496652
 30
0.0
 10
19.84512354501313
 20
1.580263389238581
 30
0.0
 10
19.44656026718217
 20
1.536524773390304
 30
0.0
 10
19.24638056842711
 20
1.502304538206296
 30
0.0
 10
19.04999999999981
 20
1.456965539775508
 30
0.0
1001
PE_URL
1000

  0
SPLINE
  5
AA
330
1F
100
AcDbEntity
  8
0
  6
Continuous
 62
     1
370
    15
100
AcDbSpline
210
0.0
220
0.0
230
1.0
 70
     8
 71
     3
 72
    12
 73
     8
 74
     0
 42
0.000000001
 43
0.00000001
 40
0.0
 40
0.0
 40
0.0
 40
0.0
 40
0.2013651795368978
 40
0.4025915504984424
 40
0.6037246508327516
 40
0.8048106232307877
 40
1.0
 40
1.0
 40
1.0
 40
1.0
 10
19.04999999999983
 20
-1.150255960026093
 30
0.0
 10
19.30423987297875
 20
-1.242760457520731
 30
0.0
 10
19.81254436185068
 20
-1.427705685688253
 30
0.0
 10
20.57465352681445
 20
-1.573210679362982
 30
0.0
 10
21.33635009077273
 20
-1.602881818004867
 30
0.0
 10
22.09038591564254
 20
-1.517079430405634
 30
0.0
 10
22.5905621779065
 20
-1.367108402477151
 30
0.0
 10
22.83692898601409
 20
-1.293238676448737
 30
0.0
1001
PE_URL
1000

  0
SPLINE
  5
AB
330
1F
100
AcDbEntity
  8
외형선
  6
Continuous
370
    15
100
AcDbSpline
210
0.0
220
0.0
230
1.0
 70
    24
 71
     3
 72
    22
 73
    18
 74
     0
 42
0.000000001
 43
0.00000001
 40
0.0
 40
0.0
 40
0.0
 40
0.0
 40
0.125
 40
0.125
 40
0.25
 40
0.25
 40
0.3749999999999999
 40
0.3749999999999999
 40
0.4999999999999999
 40
0.4999999999999999
 40
0.625
 40
0.625
 40
0.75
 40
0.75
 40
0.875
 40
0.875
 40
1.0
 40
1.0
 40
1.0
 40
1.0
 10
19.05
 20
0.6304027806938541
 30
0.0
 10
19.05
 20
0.6224680922494947
 30
0.0
 10
19.05000000000001
 20
0.606272425123194
 30
0.0
 10
19.05000000000001
 20
0.5662686605056063
 30
0.0
 10
19.05000000000001
 20
0.5384019800839138
 30
0.0
 10
19.05000000000001
 20
0.459175691509843
 30
0.0
 10
19.05000000000002
 20
0.4076665628788779
 30
0.0
 10
19.05
 20
0.2739924115739409
 30
0.0
 10
19.05000000000001
 20
0.1915375399082404
 30
0.0
 10
19.04999999999999
 20
-0.0038587011656152
 30
0.0
 10
19.05
 20
-0.1169692522628508
 30
0.0
 10
19.05000000000003
 20
-0.3578599807558746
 30
0.0
 10
19.05
 20
-0.4852235179734611
 30
0.0
 10
19.05000000000002
 20
-0.7253768599730065
 30
0.0
 10
19.05000000000001
 20
-0.8374715790845964
 30
0.0
 10
19.05000000000001
 20
-1.023456391786659
 30
0.0
 10
19.05
 20
-1.0972528748051
 30
0.0
 10
19.05
 20
-1.150255960026166
 30
0.0
  0
SPLINE
  5
AC
330
1F
100
AcDbEntity
  8
0
  6
Continuous
 62
     1
370
    15
100
AcDbSpline
210
0.0
220
0.0
230
1.0
 70
     8
 71
     3
 72
    14
 73
    10
 74
     0
 42
0.000000001
 43
0.00000001
 40
0.0
 40
0.0
 40
0.0
 40
0.0
 40
0.0898175587307701
 40
0.2298370769622388
 40
0.3838564698251622
 40
0.5378819616150041
 40
0.69191405065358
 40
0.845953232549394
 40
1.0
 40
1.0
 40
1.0
 40
1.0
 10
24.49250616455593
 20
-1.573516957457563
 30
0.0
 10
24.32960201921742
 20
-1.574181624450057
 30
0.0
 10
23.91274129489214
 20
-1.575882462469557
 30
0.0
 10
23.21649734116435
 20
-1.436466675963115
 30
0.0
 10
22.4035479609222
 20
-1.170000770584663
 30
0.0
 10
21.56523724355305
 20
-0.7813556145259949
 30
0.0
 10
20.72686479479766
 20
-0.3232753070910364
 30
0.0
 10
19.88845161364717
 20
0.1692079502308547
 30
0.0
 10
19.32948845872941
 20
0.4766686471528862
 30
0.0
 10
19.04999999999982
 20
0.6304027806939547
 30
0.0
1001
PE_URL
1000

  0
LINE
  5
AD
330
1F
100
AcDbEntity
  8
외형선
  6
Continuous
370
    15
100
AcDbLine
 10
19.04999999999999
 20
0.6304027806938596
 30
0.0
 11
19.05
 21
1.094105788497749
 31
0.0
  0
LINE
  5
AE
330
1F
100
AcDbEntity
  8
0
  6
Continuous
 62
     1
370
    15
100
AcDbLine
 10
28.575
 20
-1.581662114051214
 30
0.0
 11
28.575
 21
-1.437769141943496
 31
0.0
1001
PE_URL
1000

  0
SPLINE
  5
AF
330
1F
100
AcDbEntity
  8
0
  6
Continuous
 62
     1
370
    15
100
AcDbSpline
210
0.0
220
0.0
230
1.0
 70
     8
 71
     3
 72
    11
 73
     7
 74
     0
 42
0.000000001
 43
0.00000001
 40
0.0
 40
0.0
 40
0.0
 40
0.0
 40
0.1928603749860125
 40
0.4618934627180659
 40
0.7309397191877367
 40
0.9999999999999999
 40
0.9999999999999999
 40
0.9999999999999999
 40
0.9999999999999999
 10
25.45859994565419
 20
1.572572308999151
 30
0.0
 10
25.65893989506201
 20
1.571242658163909
 30
0.0
 10
26.13874666179387
 20
1.568058193607411
 30
0.0
 10
26.89804282791036
 20
1.39258543838129
 30
0.0
 10
27.73650158307835
 20
1.093966774370987
 30
0.0
 10
28.29549567145208
 20
0.8133480457896521
 30
0.0
 10
28.575
 20
0.6730350247015712
 30
0.0
1001
PE_URL
1000

  0
LINE
  5
B0
330
1F
100
AcDbEntity
  8
0
  6
Continuous
 62
     1
370
    15
100
AcDbLine
 10
28.575
 20
0.136019141943516
 30
0.0
 11
28.575
 21
0.6730350247015711
 31
0.0
1001
PE_URL
1000

  0
SPLINE
  5
B1
330
1F
100
AcDbEntity
  8
0
  6
Continuous
 62
     1
370
    15
100
AcDbSpline
210
0.0
220
0.0
230
1.0
 70
     8
 71
     3
 72
     9
 73
     5
 74
     0
 42
0.000000001
 43
0.00000001
 40
0.0
 40
0.0
 40
0.0
 40
0.0
 40
0.5258338593677975
 40
1.0
 40
1.0
 40
1.0
 40
1.0
 10
28.575
 20
1.581662114051214
 30
0.0
 10
28.32070070802401
 20
1.559060175042625
 30
0.0
 10
27.83708922609753
 20
1.516077132764285
 30
0.0
 10
27.35358478401952
 20
1.36525162075593
 30
0.0
 10
27.12432334874088
 20
1.293735269818053
 30
0.0
1001
PE_URL
1000

  0
SPLINE
  5
B2
330
1F
100
AcDbEntity
  8
0
  6
Continuous
 62
     1
370
    15
100
AcDbSpline
210
0.0
220
0.0
230
1.0
 70
     8
 71
     3
 72
     9
 73
     5
 74
     0
 42
0.000000001
 43
0.00000001
 40
0.0
 40
0.0
 40
0.0
 40
0.0
 40
0.2530889515000095
 40
0.9999999999999999
 40
0.9999999999999999
 40
0.9999999999999999
 40
0.9999999999999999
 10
20.17257186394954
 20
-1.571013193507391
 30
0.0
 10
20.0778691632231
 20
-1.575759679321334
 30
0.0
 10
19.70368174743451
 20
-1.594513899076136
 30
0.0
 10
19.3294888267383
 20
-1.515775854904548
 30
0.0
 10
19.04999999999982
 20
-1.456965539775508
 30
0.0
1001
PE_URL
1000

  0
LINE
  5
B3
330
1F
100
AcDbEntity
  8
0
  6
Continuous
 62
     1
370
    15
100
AcDbLine
 10
28.575
 20
0.6730350247015711
 30
0.0
 11
28.575
 21
1.581662114051214
 31
0.0
1001
PE_URL
1000

  0
LINE
  5
B4
330
1F
100
AcDbEntity
  8
외형선
  6
Continuous
370
    15
100
AcDbLine
 10
19.04999999999999
 20
-1.456965539775551
 30
0.0
 11
19.05
 21
-1.150255960026164
 31
0.0
  0
LINE
  5
B5
330
1F
100
AcDbEntity
  8
외형선
  6
Continuous
370
    15
100
AcDbLine
 10
18.05
 20
0.0
 30
0.0
 11
18.05
 21
1.5875
 31
0.0
  0
LINE
  5
B6
330
1F
100
AcDbEntity
  8
외형선
  6
Continuous
370
    15
100
AcDbLine
 10
18.05
 20
-1.5875
 30
0.0
 11
18.05
 21
0.0
 31
0.0
  0
LINE
  5
B7
330
1F
100
AcDbEntity
  8
외형선
  6
Continuous
370
    15
100
AcDbLine
 10
15.08768467149219
 20
0.0
 30
0.0
 11
15.08768467149219
 21
2.381250000000006
 31
0.0
  0
LINE
  5
B8
330
1F
100
AcDbEntity
  8
외형선
  6
Continuous
370
    15
100
AcDbLine
 10
15.08768467149219
 20
-2.381250000000007
 30
0.0
 11
15.08768467149219
 21
0.0
 31
0.0
  0
SPLINE
  5
BD
330
1F
100
AcDbEntity
  8
외형선
  6
Continuous
370
    15
100
AcDbSpline
210
0.0
220
0.0
230
1.0
 70
     8
 71
     3
 72
     8
 73
     4
 74
     0
 42
0.000000001
 43
0.00000001
 40
0.0
 40
0.0
 40
0.0
 40
0.0
 40
1.0
 40
1.0
 40
1.0
 40
1.0
 10
19.04999999999988
 20
1.456965539775523
 30
0.0
 10
18.88530550154456
 20
1.418942003807449
 30
0.0
 10
18.71724605590184
 20
1.372644413546173
 30
0.0
 10
18.5499278899681
 20
1.319088114403353
 30
0.0
  0
LINE
  5
BE
330
1F
100
AcDbEntity
  8
외형선
  6
Continuous
370
    15
100
AcDbLine
 10
18.5499278899681
 20
1.283914293416015
 30
0.0
 11
18.5499278899681
 21
1.5875
 31
0.0
  0
SPLINE
  5
BF
330
1F
100
AcDbEntity
  8
외형선
  6
Continuous
370
    15
100
AcDbSpline
210
0.0
220
0.0
230
1.0
 70
     8
 71
     3
 72
     8
 73
     4
 74
     0
 42
0.000000001
 43
0.00000001
 40
0.0
 40
0.0
 40
0.0
 40
0.0
 40
1.0
 40
1.0
 40
1.0
 40
1.0
 10
19.04999999999983
 20
1.094105788497824
 30
0.0
 10
18.88530550154452
 20
1.163484922296052
 30
0.0
 10
18.71724605590183
 20
1.227313543575688
 30
0.0
 10
18.54992788996812
 20
1.283924440877021
 30
0.0
  0
SPLINE
  5
C0
330
1F
100
AcDbEntity
  8
외형선
  6
Continuous
370
    15
100
AcDbSpline
210
0.0
220
0.0
230
1.0
 70
     8
 71
     3
 72
     8
 73
     4
 74
     0
 42
0.000000001
 43
0.00000001
 40
0.0
 40
0.0
 40
0.0
 40
0.0
 40
1.0
 40
1.0
 40
1.0
 40
1.0
 10
19.04999999999988
 20
0.6304027806939212
 30
0.0
 10
18.88530550154456
 20
0.7182814882480315
 30
0.0
 10
18.71724605590184
 20
0.8032863414608268
 30
0.0
 10
18.5499278899681
 20
0.883268247159272
 30
0.0
  0
LINE
  5
C1
330
1F
100
AcDbEntity
  8
외형선
  6
Continuous
370
    15
100
AcDbLine
 10
18.5499278899681
 20
-0.933659647388729
 30
0.0
 11
18.5499278899681
 21
0.8832797728038346
 31
0.0
  0
SPLINE
  5
C2
330
1F
100
AcDbEntity
  8
외형선
  6
Continuous
370
    15
100
AcDbSpline
210
0.0
220
0.0
230
1.0
 70
     8
 71
     3
 72
     8
 73
     4
 74
     0
 42
0.000000001
 43
0.00000001
 40
0.0
 40
0.0
 40
0.0
 40
0.0
 40
1.0
 40
1.0
 40
1.0
 40
1.0
 10
19.04999999999983
 20
-1.150255960026093
 30
0.0
 10
18.88530550154452
 20
-1.084263594389592
 30
0.0
 10
18.71724605590183
 20
-1.01149547610096
 30
0.0
 10
18.54992788996812
 20
-0.9336456930327598
 30
0.0
  0
SPLINE
  5
C3
330
1F
100
AcDbEntity
  8
외형선
  6
Continuous
370
    15
100
AcDbSpline
210
0.0
220
0.0
230
1.0
 70
     8
 71
     3
 72
     8
 73
     4
 74
     0
 42
0.000000001
 43
0.00000001
 40
0.0
 40
0.0
 40
0.0
 40
0.0
 40
1.0
 40
1.0
 40
1.0
 40
1.0
 10
19.04999999999988
 20
-1.456965539775523
 30
0.0
 10
18.88530550154456
 20
-1.418942003807449
 30
0.0
 10
18.71724605590184
 20
-1.372644413546173
 30
0.0
 10
18.5499278899681
 20
-1.319088114403353
 30
0.0
  0
LINE
  5
C4
330
1F
100
AcDbEntity
  8
외형선
  6
Continuous
370
    15
100
AcDbLine
 10
18.5499278899681
 20
-1.5875
 30
0.0
 11
18.5499278899681
 21
-1.319080396699009
 31
0.0
  0
SPLINE
  5
C5
330
1F
100
AcDbEntity
  8
외형선
  6
Continuous
370
    15
100
AcDbSpline
210
0.0
220
0.0
230
1.0
 70
    24
 71
     3
 72
    22
 73
    18
 74
     0
 42
0.000000001
 43
0.00000001
 40
0.0
 40
0.0
 40
0.0
 40
0.0
 40
0.125
 40
0.125
 40
0.25
 40
0.25
 40
0.375
 40
0.375
 40
0.5
 40
0.5
 40
0.625
 40
0.625
 40
0.75
 40
0.75
 40
0.875
 40
0.875
 40
1.0
 40
1.0
 40
1.0
 40
1.0
 10
19.05
 20
-1.150255960026165
 30
0.0
 10
19.04999999999999
 20
-1.097252874805079
 30
0.0
 10
19.05000000000001
 20
-1.023456391786602
 30
0.0
 10
19.05
 20
-0.8374715790844396
 30
0.0
 10
19.05
 20
-0.7253768599727881
 30
0.0
 10
19.05
 20
-0.4852235179731283
 30
0.0
 10
19.04999999999999
 20
-0.357859980755491
 30
0.0
 10
19.04999999999998
 20
-0.1169692522624051
 30
0.0
 10
19.05000000000001
 20
-0.0038587011651583
 30
0.0
 10
19.05
 20
0.1915375399086827
 30
0.0
 10
19.05000000000002
 20
0.2739924115743582
 30
0.0
 10
19.05000000000003
 20
0.4076665628792309
 30
0.0
 10
19.05
 20
0.4591756915101572
 30
0.0
 10
19.05
 20
0.5384019800841506
 30
0.0
 10
19.05000000000001
 20
0.5662686605058049
 30
0.0
 10
19.05000000000001
 20
0.6062724251233234
 30
0.0
 10
19.05000000000002
 20
0.6224680922496192
 30
0.0
 10
19.05000000000001
 20
0.6304027806939305
 30
0.0
  0
SPLINE
  5
C6
330
1F
100
AcDbEntity
  8
외형선
  6
Continuous
370
    15
100
AcDbSpline
210
0.0
220
0.0
230
1.0
 70
    24
 71
     3
 72
    10
 73
     6
 74
     0
 42
0.000000001
 43
0.00000001
 40
0.0
 40
0.0
 40
0.0
 40
0.0
 40
0.4537680218576049
 40
0.934776007977308
 40
1.0
 40
1.0
 40
1.0
 40
1.0
 10
19.04999999999998
 20
1.133380596649358
 30
0.0
 10
19.05
 20
1.180301957198009
 30
0.0
 10
19.05000000000003
 20
1.276961395478779
 30
0.0
 10
19.04999999999994
 20
1.388435332060203
 30
0.0
 10
19.05000000000003
 20
1.449655424347697
 30
0.0
 10
19.05000000000003
 20
1.456965539776251
 30
0.0
  0
LINE
  5
C7
330
1F
100
AcDbEntity
  8
중심선
 62
     1
100
AcDbLine
 10
-31.575
 20
-0.0000000000000039
 30
0.0
 11
31.575
 21
0.0000000000000039
 31
0.0
  0
LINE
  5
C8
330
1F
100
AcDbEntity
  8
참조1
100
AcDbLine
 10
-0.0000000000000018
 20
-0.0000000000000039
 30
0.0
 11
0.0000000000000053
 21
-40.00000000000001
 31
0.0
  0
LINE
  5
C9
330
1F
100
AcDbEntity
  8
참조1
100
AcDbLine
 10
0.0000000000000053
 20
-40.00000000000001
 30
0.0
 11
-18.33385681430867
 21
-40.0
 31
0.0
  0
CIRCLE
  5
CA
330
1F
100
AcDbEntity
  8
해칭선
100
AcDbCircle
 10
0.0
 20
0.0
 30
0.0
 40
3.000000000000001
  0
INSERT
  5
CB
330
1F
100
AcDbEntity
  8
0
  6
Continuous
 62
     7
100
AcDbBlockReference
 66
     1
  2
블럭10
 10
-13.9402729321252
 20
-52.04717430164393
 30
0.0
  0
ATTRIB
  5
CC
330
CB
100
AcDbEntity
  8
FORMAT
 62
     2
100
AcDbText
 10
-23.12156822086648
 20
-49.97180738881174
 30
0.0
 40
4.233333333333333
  1
E2004008 [ 4 FLUTE ]
 41
0.75
  7
SLDTEXTSTYLE0
 11
-23.12156822086648
 21
-52.08847405547841
 31
0.0
100
AcDbAttribute
  2
AUTOATTR0
 70
     0
 74
     1
  0
SEQEND
  5
CD
330
CB
100
AcDbEntity
  8
0
  6
Continuous
 62
     7
  0
HATCH
  5
CE
330
1F
100
AcDbEntity
  8
중심선
100
AcDbHatch
 10
0.0
 20
0.0
 30
0.0
210
0.0
220
0.0
230
1.0
  2
SOLID
 70
     1
 71
     0
 91
        1
 92
        0
 93
        4
 72
     1
 10
-8.22536362774435
 20
-35.8
 11
-11.67163887158163
 21
-35.8
 72
     1
 10
-11.67163887158163
 20
-35.8
 11
-13.79986873078565
 21
-38.3363255805726
 72
     1
 10
-13.79986873078565
 20
-38.3363255805726
 11
-10.35356040183522
 21
-38.33628615127011
 72
     1
 10
-10.35356040183522
 20
-38.33628615127011
 11
-8.22536362774435
 21
-35.8
 97
        0
 75
     0
 76
     1
 98
        1
 10
10.91911934298439
 20
-0.0010749287238931
  0
HATCH
  5
CF
330
1F
100
AcDbEntity
  8
중심선
100
AcDbHatch
 10
0.0
 20
0.0
 30
0.0
210
0.0
220
0.0
230
1.0
  2
SOLID
 70
     1
 71
     0
 91
        1
 92
        0
 93
        4
 72
     1
 10
-3.21259963670837
 20
-35.80000000000003
 11
-6.658874880545653
 21
-35.79999999999998
 72
     1
 10
-6.658874880545653
 20
-35.79999999999998
 11
-11.19001288890307
 21
-41.20000000000002
 72
     1
 10
-11.19001288890307
 20
-41.20000000000002
 11
-7.743737645065789
 21
-41.20000000000002
 72
     1
 10
-7.743737645065789
 20
-41.20000000000002
 11
-3.21259963670837
 21
-35.80000000000003
 97
        0
 75
     0
 76
     1
 98
        1
 10
10.91911934298439
 20
-0.0010749287238931
  0
HATCH
  5
D0
330
1F
100
AcDbEntity
  8
중심선
100
AcDbHatch
 10
0.0
 20
0.0
 30
0.0
210
0.0
220
0.0
230
1.0
  2
SOLID
 70
     1
 71
     0
 91
        1
 92
        0
 93
        4
 72
     1
 10
1.800164354327524
 20
-35.8
 11
-1.646110889509592
 21
-35.8
 72
     1
 10
-1.646110889509592
 20
-35.8
 11
-8.694547791398868
 21
-44.20000000000002
 72
     1
 10
-8.694547791398868
 20
-44.20000000000002
 11
-5.248272547561587
 21
-44.20000000000002
 72
     1
 10
-5.248272547561587
 20
-44.20000000000002
 11
1.800164354327524
 21
-35.8
 97
        0
 75
     0
 76
     1
 98
        1
 10
10.91911934298439
 20
-0.0010749287238931
  0
HATCH
  5
D1
330
1F
100
AcDbEntity
  8
중심선
100
AcDbHatch
 10
0.0
 20
0.0
 30
0.0
210
0.0
220
0.0
230
1.0
  2
SOLID
 70
     1
 71
     0
 91
        1
 92
        0
 93
        6
 72
     3
 10
6.600054785339696
 20
-40.00000000005127
 11
3.960054785062283
 21
1.540882976769353E-10
 40
0.3939339440162628
 50
17.09539180608436
 51
320.0019657685075
 73
     0
 72
     1
 10
8.283054441040292
 20
-38.58789400463827
 11
10.58835631474136
 21
-36.65356729459038
 72
     3
 10
6.600054785286849
 20
-40.00000000000015
 11
6.600054785286829
 21
-1.278976924368180E-13
 40
0.636358354079598
 50
39.99873849337385
 51
368.4976242363724
 73
     1
 72
     1
 10
13.02538727718746
 20
-39.03999999993002
 11
5.280122092122772
 21
-39.03999999993002
 72
     1
 10
5.280122092122772
 20
-39.03999999993002
 11
5.280097047676838
 21
-40.95999999992991
 72
     1
 10
5.280097047676838
 20
-40.95999999992991
 11
9.721476817148876
 21
-40.95999999992988
 97
        0
 75
     0
 76
     1
 98
        1
 10
10.91911934298439
 20
-0.0010749287238931
  0
DIMENSION
  5
D2
330
1F
100
AcDbEntity
  8
치수문자_일반주서
100
AcDbDimension
  2
_D
 10
65.88671367720069
 20
-1.581662114051074
 30
0.0
 11
65.88671367720059
 21
20.66025000000014
 31
0.0
 70
   160
  1
%%c<>
 71
     2
 42
3.163324228102427
 52
-270.0
  3
SLDDIMSTYLE0
100
AcDbAlignedDimension
 13
28.575
 23
1.581662114051214
 33
0.0
 14
28.575
 24
-1.581662114051214
 34
0.0
 50
90.0000000000002
100
AcDbRotatedDimension
1001
PE_URL
1000

1001
ACAD
1000
DSTYLE
1002
{
1070
   171
1070
     8
1070
   273
1070
     7
1002
}
  0
DIMENSION
  5
E7
330
1F
100
AcDbEntity
  8
치수문자_일반주서
100
AcDbDimension
  2
_D_1
 10
19.04999999999998
 20
12.38125
 30
0.0
 11
47.21024999999999
 21
12.38125
 31
0.0
 70
   160
  1
<>
 71
     2
 42
9.525000000000013
  3
SLDDIMSTYLE0
100
AcDbAlignedDimension
 13
28.575
 23
1.581662114051214
 33
0.0
 14
19.04999999999998
 24
1.456965539775551
 34
0.0
100
AcDbRotatedDimension
1001
PE_URL
1000

1001
ACAD
1000
DSTYLE
1002
{
1070
   171
1070
     8
1070
   273
1070
     7
1002
}
  0
DIMENSION
  5
FC
330
1F
100
AcDbEntity
  8
치수문자_일반주서
100
AcDbDimension
  2
_D_2
 10
-28.57500000000001
 20
22.38125
 30
0.0
 11
-1.458179486121107
 21
22.38125
 31
0.0
 70
   160
  1
<>
 71
     2
 42
57.15000000000001
  3
SLDDIMSTYLE0
100
AcDbAlignedDimension
 13
28.575
 23
1.581662114051214
 33
0.0
 14
-28.57500000000001
 24
1.581662114051222
 34
0.0
100
AcDbRotatedDimension
1001
PE_URL
1000

1001
ACAD
1000
DSTYLE
1002
{
1070
   171
1070
     8
1070
   273
1070
     7
1002
}
  0
DIMENSION
  5
10F
330
1F
100
AcDbEntity
  8
치수문자_일반주서
100
AcDbDimension
  2
_D_3
 10
-38.575
 20
-2.381250000000097
 30
0.0
 11
-38.57500000000007
 21
22.98524999999992
 31
0.0
 70
   160
  1
%%c<>
 71
     2
 42
4.762500000000014
 52
-270.0
  3
SLDDIMSTYLE0
100
AcDbAlignedDimension
 13
-15.08768467149221
 23
2.381250000000005
 33
0.0
 14
-15.08768467149221
 24
-2.381250000000008
 34
0.0
 50
90.0000000000002
100
AcDbRotatedDimension
1001
PE_URL
1000

1001
ACAD
1000
DSTYLE
1002
{
1070
   171
1070
     8
1070
   273
1070
     7
1002
}
  0
LINE
  5
123
330
1F
100
AcDbEntity
  8
참조1
100
AcDbLine
 10
79.6384838153456
 20
7.440000000000002
 30
0.0
 11
79.6384838153456
 21
-7.440000000000002
 31
0.0
  0
LINE
  5
124
330
1F
100
AcDbEntity
  8
참조1
100
AcDbLine
 10
92.3384838153456
 20
5.440000000000002
 30
0.0
 11
79.6384838153456
 21
5.440000000000002
 31
0.0
  0
SOLID
  5
125
330
1F
100
AcDbEntity
  8
참조1
100
AcDbTrace
 10
79.6384838153456
 20
5.440000000000002
 30
0.0
 11
85.98848381534559
 21
4.424000000000002
 31
0.0
 12
85.98848381534559
 22
6.456000000000002
 32
0.0
 13
85.98848381534559
 23
6.456000000000002
 33
0.0
  0
LINE
  5
126
330
1F
100
AcDbEntity
  8
참조1
100
AcDbLine
 10
92.3384838153456
 20
-5.440000000000002
 30
0.0
 11
79.6384838153456
 21
-5.440000000000002
 31
0.0
  0
SOLID
  5
127
330
1F
100
AcDbEntity
  8
참조1
100
AcDbTrace
 10
79.6384838153456
 20
-5.440000000000002
 30
0.0
 11
85.98848381534559
 21
-6.456000000000002
 31
0.0
 12
85.98848381534559
 22
-4.424000000000002
 32
0.0
 13
85.98848381534559
 23
-4.424000000000002
 33
0.0
  0
MTEXT
  5
128
330
1F
100
AcDbEntity
  8
참조1
100
AcDbMText
 10
89.02283394797159
 20
11.01029177718833
 30
0.0
 40
3.5
 41
0.0
 71
     1
 72
     1
  1
A
  7
SLDTEXTSTYLE0
 73
     1
 44
1.0
  0
MTEXT
  5
129
330
1F
100
AcDbEntity
  8
참조1
100
AcDbMText
 10
89.02283394797159
 20
0.1302917771883287
 30
0.0
 40
3.5
 41
0.0
 71
     1
 72
     1
  1
A
  7
SLDTEXTSTYLE0
 73
     1
 44
1.0
  0
INSERT
  5
130
330
1F
100
AcDbEntity
  8
해칭선
100
AcDbBlockReference
  2
SW_DOWELSYMBOL_0
 10
0.0
 20
0.0
 30
0.0
  0
LINE
  5
1D6
330
1F
100
AcDbEntity
  8
0
  6
Continuous
 62
     1
370
    15
100
AcDbLine
 10
-26.16067333577108
 20
0.4034424259064642
 30
0.0
 11
-26.29704051986217
 21
0.4762423842367503
 31
0.0
1001
PE_URL
1000

  0
LINE
  5
1D7
330
1F
100
AcDbEntity
  8
0
  6
Continuous
 62
     1
370
    15
100
AcDbLine
 10
-19.37256753277529
 20
-0.4555993004358673
 30
0.0
 11
-19.33847916291411
 21
-0.4739403663071557
 31
0.0
1001
PE_URL
1000

  0
LINE
  5
1D8
330
1F
100
AcDbEntity
  8
0
  6
Continuous
 62
     1
370
    15
100
AcDbLine
 10
-24.49250616455593
 20
1.587500000000006
 30
0.0
 11
-25.4585999456542
 21
1.587500000000006
 31
0.0
1001
PE_URL
1000

  0
LINE
  5
1D9
330
1F
100
AcDbEntity
  8
0
  6
Continuous
 62
     1
370
    15
100
AcDbLine
 10
-21.14152320507404
 20
-1.587499999999998
 30
0.0
 11
-20.17257186394955
 21
-1.587499999999998
 31
0.0
1001
PE_URL
1000

  0
LINE
  5
1DA
330
1F
100
AcDbEntity
  8
0
  6
Continuous
 62
     1
370
    15
100
AcDbLine
 10
-25.4585999456542
 20
-1.587499999999995
 30
0.0
 11
-24.49250616455596
 21
-1.587499999999995
 31
0.0
1001
PE_URL
1000

  0
LINE
  5
1DB
330
1F
100
AcDbEntity
  8
0
  6
Continuous
 62
     1
370
    15
100
AcDbLine
 10
-20.17257186394955
 20
1.587500000000002
 30
0.0
 11
-21.14152320507402
 21
1.587500000000002
 31
0.0
1001
PE_URL
1000

  0
LINE
  5
1DC
330
1F
100
AcDbEntity
  8
외형선
  6
Continuous
370
    15
100
AcDbLine
 10
-15.08768467149221
 20
2.381250000000004
 30
0.0
 11
-18.05000000000002
 21
1.587499999999999
 31
0.0
  0
LINE
  5
1DD
330
1F
100
AcDbEntity
  8
외형선
  6
Continuous
370
    15
100
AcDbLine
 10
-18.05000000000002
 20
-1.5875
 30
0.0
 11
-15.08768467149221
 21
-2.381250000000008
 31
0.0
  0
LINE
  5
1DE
330
1F
100
AcDbEntity
  8
외형선
  6
Continuous
370
    15
100
AcDbLine
 10
-18.05000000000002
 20
1.587499999999999
 30
0.0
 11
-18.54992788996811
 21
1.587500000000001
 31
0.0
  0
LINE
  5
1DF
330
1F
100
AcDbEntity
  8
외형선
  6
Continuous
370
    15
100
AcDbLine
 10
-18.54992788996812
 20
-1.5875
 30
0.0
 11
-18.05000000000002
 21
-1.5875
 31
0.0
  0
LINE
  5
1E0
330
1F
100
AcDbEntity
  8
0
  6
Continuous
 62
     1
370
    15
100
AcDbLine
 10
-28.57500000000001
 20
1.437769141943505
 30
0.0
 11
-28.57500000000001
 21
-0.1360191419435066
 31
0.0
1001
PE_URL
1000

  0
SPLINE
  5
1E1
330
1F
100
AcDbEntity
  8
0
  6
Continuous
 62
     1
370
    15
100
AcDbSpline
210
0.0
220
0.0
230
1.0
 70
     8
 71
     3
 72
    17
 73
    13
 74
     0
 42
0.000000001
 43
0.00000001
 40
0.0
 40
0.0
 40
0.0
 40
0.0
 40
0.0262207104203285
 40
0.1286742662552343
 40
0.2311274763644472
 40
0.3336040090177136
 40
0.4361273807010276
 40
0.5488915883109239
 40
0.6616605920851345
 40
0.7744347550574872
 40
0.8872144381440187
 40
1.0
 40
1.0
 40
1.0
 40
1.0
 10
-21.14152320507404
 20
-1.575928142657385
 30
0.0
 10
-21.20648338122167
 20
-1.579384912674229
 30
0.0
 10
-21.52526585765396
 20
-1.596348501318477
 30
0.0
 10
-22.09782714499917
 20
-1.505474715116087
 30
0.0
 10
-22.85930583017026
 20
-1.305391686606757
 30
0.0
 10
-23.62099502012391
 20
-0.996136485789856
 30
0.0
 10
-24.4082760394803
 20
-0.6007389484722532
 30
0.0
 10
-25.22127838905092
 20
-0.139381663379863
 30
0.0
 10
-26.059629477969
 20
0.3496816672890691
 30
0.0
 10
-26.8980434075154
 20
0.8040159250510686
 30
0.0
 10
-27.73650143816533
 20
1.193707136211989
 30
0.0
 10
-28.29549562314692
 20
1.356413726525446
 30
0.0
 10
-28.57500000000001
 20
1.437769141943505
 30
0.0
1001
PE_URL
1000

  0
SPLINE
  5
1E2
330
1F
100
AcDbEntity
  8
0
  6
Continuous
 62
     1
370
    15
100
AcDbSpline
210
0.0
220
0.0
230
1.0
 70
     8
 71
     3
 72
    15
 73
    11
 74
     0
 42
0.000000001
 43
0.00000001
 40
0.0
 40
0.0
 40
0.0
 40
0.0
 40
0.132921816273343
 40
0.2657452420644599
 40
0.3985002133754838
 40
0.531217109528041
 40
0.6639265574660308
 40
0.796659232660079
 40
0.9294456593444442
 40
1.0
 40
1.0
 40
1.0
 40
1.0
 10
-28.57500000000001
 20
-0.1360191419435066
 30
0.0
 10
-28.32070214157331
 20
-0.2811560468550291
 30
0.0
 10
-27.81229465934999
 20
-0.5713224244260642
 30
0.0
 10
-27.05006013517325
 20
-0.9602751082304175
 30
0.0
 10
-26.28828601788955
 20
-1.27669843682686
 30
0.0
 10
-25.52677548104965
 20
-1.495078942433084
 30
0.0
 10
-24.76531918668207
 20
-1.60097340641266
 30
0.0
 10
-24.00368928711291
 20
-1.579035653182409
 30
0.0
 10
-23.36092601251241
 20
-1.476770610738732
 30
0.0
 10
-22.97190863198381
 20
-1.340515806397633
 30
0.0
 10
-22.83692898601414
 20
-1.293238676448734
 30
0.0
1001
PE_URL
1000

  0
SPLINE
  5
1E3
330
1F
100
AcDbEntity
  8
0
  6
Continuous
 62
     1
370
    15
100
AcDbSpline
210
0.0
220
0.0
230
1.0
 70
     8
 71
     3
 72
    18
 73
    14
 74
     0
 42
0.000000001
 43
0.00000001
 40
0.0
 40
0.0
 40
0.0
 40
0.0
 40
0.0944494678371931
 40
0.1888338281115816
 40
0.2831744402010681
 40
0.3774929471355744
 40
0.4718111357958061
 40
0.5661507951362413
 40
0.6605335743795863
 40
0.764344043530668
 40
0.868158928019543
 40
0.9719785620543149
 40
1.0
 40
1.0
 40
1.0
 40
1.0
 10
-19.04999999999986
 20
-1.094105788497824
 30
0.0
 10
-19.3042398618328
 20
-0.9796897258938786
 30
0.0
 10
-19.81254432842046
 20
-0.7509364719718972
 30
0.0
 10
-20.57465366040213
 20
-0.3280157677548485
 30
0.0
 10
-21.3363495901162
 20
0.1138517480783093
 30
0.0
 10
-22.0978294813457
 20
0.5486092509740799
 30
0.0
 10
-22.85930520550546
 20
0.9410434833636716
 30
0.0
 10
-23.62099518198222
 20
1.26198015509323
 30
0.0
 10
-24.40827601095714
 20
1.493477484609484
 30
0.0
 10
-25.22127831440798
 20
1.607786692733273
 30
0.0
 10
-26.05962980364786
 20
1.56832186623814
 30
0.0
 10
-26.69398848856141
 20
1.454398708736497
 30
0.0
 10
-27.04889226995979
 20
1.321897098290999
 30
0.0
 10
-27.1243233487409
 20
1.293735269818061
 30
0.0
1001
PE_URL
1000

  0
SPLINE
  5
1E4
330
1F
100
AcDbEntity
  8
외형선
  6
Continuous
370
    15
100
AcDbSpline
210
0.0
220
0.0
230
1.0
 70
    24
 71
     3
 72
    10
 73
     6
 74
     0
 42
0.000000001
 43
0.00000001
 40
0.0
 40
0.0
 40
0.0
 40
0.0
 40
0.2961545882785048
 40
0.595666061639435
 40
0.9999999999999999
 40
0.9999999999999999
 40
0.9999999999999999
 40
0.9999999999999999
 10
-19.05
 20
-1.456965539775551
 30
0.0
 10
-19.05000000000003
 20
-1.423792390048954
 30
0.0
 10
-19.05000000000009
 20
-1.357070075987641
 30
0.0
 10
-19.04999999999998
 20
-1.247317622933449
 30
0.0
 10
-19.05000000000002
 20
-1.174952032319158
 30
0.0
 10
-19.05000000000002
 20
-1.133380596649358
 30
0.0
  0
SPLINE
  5
1E5
330
1F
100
AcDbEntity
  8
0
  6
Continuous
 62
     1
370
    15
100
AcDbSpline
210
0.0
220
0.0
230
1.0
 70
     8
 71
     3
 72
    38
 73
    34
 74
     0
 42
0.000000001
 43
0.00000001
 40
0.0
 40
0.0
 40
0.0
 40
0.0
 40
0.0625
 40
0.0625
 40
0.125
 40
0.125
 40
0.1875
 40
0.1875
 40
0.25
 40
0.25
 40
0.3125
 40
0.3125
 40
0.375
 40
0.375
 40
0.4375
 40
0.4375
 40
0.5
 40
0.5
 40
0.5625
 40
0.5625
 40
0.625
 40
0.625
 40
0.6875
 40
0.6875
 40
0.75
 40
0.75
 40
0.8125
 40
0.8125
 40
0.875
 40
0.875
 40
0.9375
 40
0.9375
 40
1.0
 40
1.0
 40
1.0
 40
1.0
 10
-28.57500000000001
 20
1.581662114051222
 30
0.0
 10
-28.37900017442153
 20
1.571885825946163
 30
0.0
 10
-28.17794627196324
 20
1.549625714700751
 30
0.0
 10
-27.77966273521353
 20
1.481303463109408
 30
0.0
 10
-27.58440683559761
 20
1.435556732288698
 30
0.0
 10
-27.18550148072983
 20
1.32175927966342
 30
0.0
 10
-26.98651114337176
 20
1.25404139775322
 30
0.0
 10
-26.59267549020944
 20
1.100732084486595
 30
0.0
 10
-26.39137099838349
 20
1.014255693092391
 30
0.0
 10
-25.9939776404793
 20
0.8275273811478476
 30
0.0
 10
-25.79826993103539
 20
0.7274554242641591
 30
0.0
 10
-25.39901252056266
 20
0.5162043879195368
 30
0.0
 10
-25.20164230656631
 20
0.4061021765405839
 30
0.0
 10
-24.80622906305052
 20
0.1811920631448116
 30
0.0
 10
-24.60481300927135
 20
0.0657295135904675
 30
0.0
 10
-24.2085761888316
 20
-0.1631805240161872
 30
0.0
 10
-24.01196587517364
 20
-0.2769681712153884
 30
0.0
 10
-23.61262696644488
 20
-0.4996075000479718
 30
0.0
 10
-23.41642981071697
 20
-0.6072382855373559
 30
0.0
 10
-23.01970090161929
 20
-0.8121802654498038
 30
0.0
 10
-22.81831257293416
 20
-0.9095521589884787
 30
0.0
 10
-22.42349605558121
 20
-1.087387293242527
 30
0.0
 10
-22.22553436942643
 20
-1.168593293547353
 30
0.0
 10
-21.82638470391113
 20
-1.311897597391805
 30
0.0
 10
-21.630910911154
 20
-1.373374512519779
 30
0.0
 10
-21.23313120424622
 20
-1.474720847488454
 30
0.0
 10
-21.03190982316224
 20
-1.514313195962856
 30
0.0
 10
-20.63877420280097
 20
-1.568853245616282
 30
0.0
 10
-20.43901540310852
 20
-1.58420559115674
 30
0.0
 10
-20.04032529480885
 20
-1.58983800049665
 30
0.0
 10
-19.84512354501314
 20
-1.580263389238579
 30
0.0
 10
-19.44656026718219
 20
-1.536524773390303
 30
0.0
 10
-19.24638056842712
 20
-1.502304538206296
 30
0.0
 10
-19.04999999999983
 20
-1.456965539775508
 30
0.0
1001
PE_URL
1000

  0
SPLINE
  5
1E6
330
1F
100
AcDbEntity
  8
0
  6
Continuous
 62
     1
370
    15
100
AcDbSpline
210
0.0
220
0.0
230
1.0
 70
     8
 71
     3
 72
    12
 73
     8
 74
     0
 42
0.000000001
 43
0.00000001
 40
0.0
 40
0.0
 40
0.0
 40
0.0
 40
0.2013651795368978
 40
0.4025915504984424
 40
0.6037246508327516
 40
0.8048106232307877
 40
1.0
 40
1.0
 40
1.0
 40
1.0
 10
-19.04999999999985
 20
1.150255960026094
 30
0.0
 10
-19.30423987297876
 20
1.242760457520731
 30
0.0
 10
-19.8125443618507
 20
1.427705685688254
 30
0.0
 10
-20.57465352681446
 20
1.573210679362983
 30
0.0
 10
-21.33635009077274
 20
1.602881818004869
 30
0.0
 10
-22.09038591564254
 20
1.517079430405637
 30
0.0
 10
-22.59056217790651
 20
1.367108402477154
 30
0.0
 10
-22.8369289860141
 20
1.293238676448741
 30
0.0
1001
PE_URL
1000

  0
SPLINE
  5
1E7
330
1F
100
AcDbEntity
  8
외형선
  6
Continuous
370
    15
100
AcDbSpline
210
0.0
220
0.0
230
1.0
 70
    24
 71
     3
 72
    22
 73
    18
 74
     0
 42
0.000000001
 43
0.00000001
 40
0.0
 40
0.0
 40
0.0
 40
0.0
 40
0.125
 40
0.125
 40
0.25
 40
0.25
 40
0.3749999999999999
 40
0.3749999999999999
 40
0.4999999999999999
 40
0.4999999999999999
 40
0.625
 40
0.625
 40
0.75
 40
0.75
 40
0.875
 40
0.875
 40
1.0
 40
1.0
 40
1.0
 40
1.0
 10
-19.05000000000001
 20
-0.6304027806938544
 30
0.0
 10
-19.05000000000001
 20
-0.6224680922494945
 30
0.0
 10
-19.05000000000003
 20
-0.6062724251231939
 30
0.0
 10
-19.05000000000003
 20
-0.5662686605056064
 30
0.0
 10
-19.05000000000003
 20
-0.5384019800839128
 30
0.0
 10
-19.05000000000003
 20
-0.459175691509843
 30
0.0
 10
-19.05000000000003
 20
-0.4076665628788764
 30
0.0
 10
-19.05000000000002
 20
-0.2739924115739407
 30
0.0
 10
-19.05000000000003
 20
-0.191537539908239
 30
0.0
 10
-19.05000000000001
 20
0.0038587011656157
 30
0.0
 10
-19.05000000000001
 20
0.1169692522628519
 30
0.0
 10
-19.05000000000004
 20
0.3578599807558745
 30
0.0
 10
-19.05000000000002
 20
0.4852235179734612
 30
0.0
 10
-19.05000000000003
 20
0.7253768599730075
 30
0.0
 10
-19.05000000000003
 20
0.8374715790845964
 30
0.0
 10
-19.05000000000003
 20
1.02345639178666
 30
0.0
 10
-19.05000000000002
 20
1.097252874805101
 30
0.0
 10
-19.05000000000002
 20
1.150255960026167
 30
0.0
  0
SPLINE
  5
1E8
330
1F
100
AcDbEntity
  8
0
  6
Continuous
 62
     1
370
    15
100
AcDbSpline
210
0.0
220
0.0
230
1.0
 70
     8
 71
     3
 72
    14
 73
    10
 74
     0
 42
0.000000001
 43
0.00000001
 40
0.0
 40
0.0
 40
0.0
 40
0.0
 40
0.0898175587307701
 40
0.2298370769622388
 40
0.3838564698251622
 40
0.5378819616150041
 40
0.69191405065358
 40
0.845953232549394
 40
1.0
 40
1.0
 40
1.0
 40
1.0
 10
-24.49250616455594
 20
1.573516957457567
 30
0.0
 10
-24.32960201921743
 20
1.574181624450061
 30
0.0
 10
-23.91274129489216
 20
1.575882462469562
 30
0.0
 10
-23.21649734116436
 20
1.43646667596312
 30
0.0
 10
-22.40354796092221
 20
1.170000770584666
 30
0.0
 10
-21.56523724355306
 20
0.7813556145259979
 30
0.0
 10
-20.72686479479768
 20
0.323275307091038
 30
0.0
 10
-19.88845161364718
 20
-0.1692079502308539
 30
0.0
 10
-19.32948845872943
 20
-0.4766686471528858
 30
0.0
 10
-19.04999999999983
 20
-0.6304027806939538
 30
0.0
1001
PE_URL
1000

  0
LINE
  5
1E9
330
1F
100
AcDbEntity
  8
외형선
  6
Continuous
370
    15
100
AcDbLine
 10
-19.05
 20
-0.6304027806938597
 30
0.0
 11
-19.05000000000002
 21
-1.094105788497748
 31
0.0
  0
LINE
  5
1EA
330
1F
100
AcDbEntity
  8
0
  6
Continuous
 62
     1
370
    15
100
AcDbLine
 10
-28.57500000000001
 20
1.581662114051222
 30
0.0
 11
-28.57500000000001
 21
1.437769141943505
 31
0.0
1001
PE_URL
1000

  0
SPLINE
  5
1EB
330
1F
100
AcDbEntity
  8
0
  6
Continuous
 62
     1
370
    15
100
AcDbSpline
210
0.0
220
0.0
230
1.0
 70
     8
 71
     3
 72
    11
 73
     7
 74
     0
 42
0.000000001
 43
0.00000001
 40
0.0
 40
0.0
 40
0.0
 40
0.0
 40
0.1928603749860125
 40
0.4618934627180659
 40
0.7309397191877367
 40
0.9999999999999999
 40
0.9999999999999999
 40
0.9999999999999999
 40
0.9999999999999999
 10
-25.4585999456542
 20
-1.572572308999145
 30
0.0
 10
-25.65893989506202
 20
-1.571242658163903
 30
0.0
 10
-26.13874666179389
 20
-1.568058193607404
 30
0.0
 10
-26.89804282791037
 20
-1.392585438381282
 30
0.0
 10
-27.73650158307836
 20
-1.09396677437098
 30
0.0
 10
-28.2954956714521
 20
-0.8133480457896434
 30
0.0
 10
-28.57500000000001
 20
-0.673035024701562
 30
0.0
1001
PE_URL
1000

  0
LINE
  5
1EC
330
1F
100
AcDbEntity
  8
0
  6
Continuous
 62
     1
370
    15
100
AcDbLine
 10
-28.57500000000001
 20
-0.1360191419435066
 30
0.0
 11
-28.57500000000001
 21
-0.673035024701562
 31
0.0
1001
PE_URL
1000

  0
SPLINE
  5
1ED
330
1F
100
AcDbEntity
  8
0
  6
Continuous
 62
     1
370
    15
100
AcDbSpline
210
0.0
220
0.0
230
1.0
 70
     8
 71
     3
 72
     9
 73
     5
 74
     0
 42
0.000000001
 43
0.00000001
 40
0.0
 40
0.0
 40
0.0
 40
0.0
 40
0.5258338593677975
 40
1.0
 40
1.0
 40
1.0
 40
1.0
 10
-28.57500000000001
 20
-1.581662114051205
 30
0.0
 10
-28.32070070802402
 20
-1.559060175042617
 30
0.0
 10
-27.83708922609755
 20
-1.516077132764277
 30
0.0
 10
-27.35358478401954
 20
-1.365251620755924
 30
0.0
 10
-27.12432334874089
 20
-1.293735269818047
 30
0.0
1001
PE_URL
1000

  0
SPLINE
  5
1EE
330
1F
100
AcDbEntity
  8
0
  6
Continuous
 62
     1
370
    15
100
AcDbSpline
210
0.0
220
0.0
230
1.0
 70
     8
 71
     3
 72
     9
 73
     5
 74
     0
 42
0.000000001
 43
0.00000001
 40
0.0
 40
0.0
 40
0.0
 40
0.0
 40
0.2530889515000095
 40
0.9999999999999999
 40
0.9999999999999999
 40
0.9999999999999999
 40
0.9999999999999999
 10
-20.17257186394955
 20
1.571013193507392
 30
0.0
 10
-20.07786916322311
 20
1.575759679321335
 30
0.0
 10
-19.70368174743452
 20
1.594513899076137
 30
0.0
 10
-19.32948882673831
 20
1.515775854904549
 30
0.0
 10
-19.04999999999983
 20
1.456965539775508
 30
0.0
1001
PE_URL
1000

  0
LINE
  5
1EF
330
1F
100
AcDbEntity
  8
0
  6
Continuous
 62
     1
370
    15
100
AcDbLine
 10
-28.57500000000001
 20
-0.673035024701562
 30
0.0
 11
-28.57500000000001
 21
-1.581662114051205
 31
0.0
1001
PE_URL
1000

  0
LINE
  5
1F0
330
1F
100
AcDbEntity
  8
외형선
  6
Continuous
370
    15
100
AcDbLine
 10
-19.05
 20
1.456965539775551
 30
0.0
 11
-19.05000000000002
 21
1.150255960026165
 31
0.0
  0
LINE
  5
1F1
330
1F
100
AcDbEntity
  8
외형선
  6
Continuous
370
    15
100
AcDbLine
 10
-18.05000000000002
 20
0.0000000000000003
 30
0.0
 11
-18.05000000000002
 21
-1.5875
 31
0.0
  0
LINE
  5
1F2
330
1F
100
AcDbEntity
  8
외형선
  6
Continuous
370
    15
100
AcDbLine
 10
-18.05000000000002
 20
1.587499999999999
 30
0.0
 11
-18.05000000000002
 21
0.0000000000000003
 31
0.0
  0
LINE
  5
1F3
330
1F
100
AcDbEntity
  8
외형선
  6
Continuous
370
    15
100
AcDbLine
 10
-15.08768467149221
 20
-0.0000000000000033
 30
0.0
 11
-15.08768467149221
 21
-2.381250000000008
 31
0.0
  0
LINE
  5
1F4
330
1F
100
AcDbEntity
  8
외형선
  6
Continuous
370
    15
100
AcDbLine
 10
-15.08768467149221
 20
2.381250000000005
 30
0.0
 11
-15.08768467149221
 21
-0.0000000000000033
 31
0.0
  0
SPLINE
  5
1F5
330
1F
100
AcDbEntity
  8
외형선
  6
Continuous
370
    15
100
AcDbSpline
210
0.0
220
0.0
230
1.0
 70
     8
 71
     3
 72
     8
 73
     4
 74
     0
 42
0.000000001
 43
0.00000001
 40
0.0
 40
0.0
 40
0.0
 40
0.0
 40
1.0
 40
1.0
 40
1.0
 40
1.0
 10
-19.0499999999999
 20
-1.456965539775522
 30
0.0
 10
-18.88530550154457
 20
-1.418942003807448
 30
0.0
 10
-18.71724605590186
 20
-1.372644413546172
 30
0.0
 10
-18.54992788996812
 20
-1.319088114403353
 30
0.0
  0
LINE
  5
1F6
330
1F
100
AcDbEntity
  8
외형선
  6
Continuous
370
    15
100
AcDbLine
 10
-18.54992788996811
 20
-1.283914293416016
 30
0.0
 11
-18.54992788996812
 21
-1.5875
 31
0.0
  0
SPLINE
  5
1F7
330
1F
100
AcDbEntity
  8
외형선
  6
Continuous
370
    15
100
AcDbSpline
210
0.0
220
0.0
230
1.0
 70
     8
 71
     3
 72
     8
 73
     4
 74
     0
 42
0.000000001
 43
0.00000001
 40
0.0
 40
0.0
 40
0.0
 40
0.0
 40
1.0
 40
1.0
 40
1.0
 40
1.0
 10
-19.04999999999985
 20
-1.094105788497824
 30
0.0
 10
-18.88530550154454
 20
-1.163484922296051
 30
0.0
 10
-18.71724605590185
 20
-1.227313543575688
 30
0.0
 10
-18.54992788996813
 20
-1.283924440877021
 30
0.0
  0
SPLINE
  5
1F8
330
1F
100
AcDbEntity
  8
외형선
  6
Continuous
370
    15
100
AcDbSpline
210
0.0
220
0.0
230
1.0
 70
     8
 71
     3
 72
     8
 73
     4
 74
     0
 42
0.000000001
 43
0.00000001
 40
0.0
 40
0.0
 40
0.0
 40
0.0
 40
1.0
 40
1.0
 40
1.0
 40
1.0
 10
-19.0499999999999
 20
-0.6304027806939201
 30
0.0
 10
-18.88530550154457
 20
-0.7182814882480313
 30
0.0
 10
-18.71724605590186
 20
-0.8032863414608273
 30
0.0
 10
-18.54992788996812
 20
-0.8832682471592717
 30
0.0
  0
LINE
  5
1F9
330
1F
100
AcDbEntity
  8
외형선
  6
Continuous
370
    15
100
AcDbLine
 10
-18.54992788996811
 20
0.93365964738873
 30
0.0
 11
-18.54992788996812
 21
-0.8832797728038349
 31
0.0
  0
SPLINE
  5
1FA
330
1F
100
AcDbEntity
  8
외형선
  6
Continuous
370
    15
100
AcDbSpline
210
0.0
220
0.0
230
1.0
 70
     8
 71
     3
 72
     8
 73
     4
 74
     0
 42
0.000000001
 43
0.00000001
 40
0.0
 40
0.0
 40
0.0
 40
0.0
 40
1.0
 40
1.0
 40
1.0
 40
1.0
 10
-19.04999999999985
 20
1.150255960026094
 30
0.0
 10
-18.88530550154454
 20
1.084263594389592
 30
0.0
 10
-18.71724605590185
 20
1.011495476100962
 30
0.0
 10
-18.54992788996813
 20
0.9336456930327606
 30
0.0
  0
SPLINE
  5
1FB
330
1F
100
AcDbEntity
  8
외형선
  6
Continuous
370
    15
100
AcDbSpline
210
0.0
220
0.0
230
1.0
 70
     8
 71
     3
 72
     8
 73
     4
 74
     0
 42
0.000000001
 43
0.00000001
 40
0.0
 40
0.0
 40
0.0
 40
0.0
 40
1.0
 40
1.0
 40
1.0
 40
1.0
 10
-19.04999999999989
 20
1.456965539775523
 30
0.0
 10
-18.88530550154457
 20
1.418942003807448
 30
0.0
 10
-18.71724605590185
 20
1.372644413546173
 30
0.0
 10
-18.54992788996812
 20
1.319088114403353
 30
0.0
  0
LINE
  5
1FC
330
1F
100
AcDbEntity
  8
외형선
  6
Continuous
370
    15
100
AcDbLine
 10
-18.54992788996811
 20
1.587500000000001
 30
0.0
 11
-18.54992788996812
 21
1.319080396699008
 31
0.0
  0
SPLINE
  5
1FD
330
1F
100
AcDbEntity
  8
외형선
  6
Continuous
370
    15
100
AcDbSpline
210
0.0
220
0.0
230
1.0
 70
    24
 71
     3
 72
    22
 73
    18
 74
     0
 42
0.000000001
 43
0.00000001
 40
0.0
 40
0.0
 40
0.0
 40
0.0
 40
0.125
 40
0.125
 40
0.25
 40
0.25
 40
0.375
 40
0.375
 40
0.5
 40
0.5
 40
0.625
 40
0.625
 40
0.75
 40
0.75
 40
0.875
 40
0.875
 40
1.0
 40
1.0
 40
1.0
 40
1.0
 10
-19.05000000000001
 20
1.150255960026165
 30
0.0
 10
-19.05
 20
1.097252874805079
 30
0.0
 10
-19.05000000000003
 20
1.023456391786603
 30
0.0
 10
-19.05000000000002
 20
0.83747157908444
 30
0.0
 10
-19.05000000000002
 20
0.725376859972789
 30
0.0
 10
-19.05000000000002
 20
0.4852235179731291
 30
0.0
 10
-19.05000000000001
 20
0.3578599807554908
 30
0.0
 10
-19.04999999999999
 20
0.116969252262406
 30
0.0
 10
-19.05000000000003
 20
0.0038587011651592
 30
0.0
 10
-19.05000000000002
 20
-0.1915375399086814
 30
0.0
 10
-19.05000000000003
 20
-0.2739924115743581
 30
0.0
 10
-19.05000000000004
 20
-0.4076665628792299
 30
0.0
 10
-19.05000000000001
 20
-0.4591756915101574
 30
0.0
 10
-19.05000000000001
 20
-0.5384019800841509
 30
0.0
 10
-19.05000000000003
 20
-0.5662686605058036
 30
0.0
 10
-19.05000000000003
 20
-0.6062724251233236
 30
0.0
 10
-19.05000000000003
 20
-0.6224680922496189
 30
0.0
 10
-19.05000000000003
 20
-0.6304027806939307
 30
0.0
  0
SPLINE
  5
1FE
330
1F
100
AcDbEntity
  8
외형선
  6
Continuous
370
    15
100
AcDbSpline
210
0.0
220
0.0
230
1.0
 70
    24
 71
     3
 72
    10
 73
     6
 74
     0
 42
0.000000001
 43
0.00000001
 40
0.0
 40
0.0
 40
0.0
 40
0.0
 40
0.4537680218576049
 40
0.934776007977308
 40
1.0
 40
1.0
 40
1.0
 40
1.0
 10
-19.05
 20
-1.133380596649358
 30
0.0
 10
-19.05000000000002
 20
-1.180301957198008
 30
0.0
 10
-19.05000000000005
 20
-1.276961395478778
 30
0.0
 10
-19.04999999999995
 20
-1.388435332060203
 30
0.0
 10
-19.05000000000004
 20
-1.449655424347696
 30
0.0
 10
-19.05000000000004
 20
-1.45696553977625
 30
0.0
  0
ENDSEC
  0
SECTION
  2
OBJECTS
  0
DICTIONARY
  5
C
330
0
100
AcDbDictionary
281
     1
  3
ACAD_GROUP
350
D
  3
ACAD_IMAGE_VARS
350
222
  3
ACAD_LAYOUT
350
1A
  3
ACAD_MLINESTYLE
350
17
  3
ACAD_PLOTSETTINGS
350
19
  3
ACAD_PLOTSTYLENAME
350
E
  3
ACAD_SCALELIST
350
47
  3
APPDATA
350
152
  3
DWGPROPS
350
223
  0
DICTIONARY
  5
187
330
2
100
AcDbDictionary
280
     1
281
     1
  3
ACAD_LAYERSTATES
360
188
  0
DICTIONARY
  5
D
102
{ACAD_REACTORS
330
C
102
}
330
C
100
AcDbDictionary
281
     1
  0
RASTERVARIABLES
  5
222
102
{ACAD_REACTORS
330
C
102
}
330
C
100
AcDbRasterVariables
 90
        0
 70
     1
 71
     1
 72
     1
  0
DICTIONARY
  5
1A
102
{ACAD_REACTORS
330
C
102
}
330
C
100
AcDbDictionary
281
     1
  3
Layout1
350
1E
  3
Layout2
350
26
  3
Model
350
22
  0
DICTIONARY
  5
17
102
{ACAD_REACTORS
330
C
102
}
330
C
100
AcDbDictionary
281
     1
  3
Standard
350
18
  0
DICTIONARY
  5
19
102
{ACAD_REACTORS
330
C
102
}
330
C
100
AcDbDictionary
281
     1
  0
ACDBDICTIONARYWDFLT
  5
E
102
{ACAD_REACTORS
330
C
102
}
330
C
100
AcDbDictionary
281
     1
  3
Normal
350
F
100
AcDbDictionaryWithDefault
340
F
  0
DICTIONARY
  5
47
102
{ACAD_REACTORS
330
C
102
}
330
C
100
AcDbDictionary
281
     1
  3
A0
350
48
  3
A1
350
49
  3
A2
350
4A
  3
A3
350
4B
  3
A4
350
4C
  3
A5
350
4D
  3
A6
350
4E
  3
A7
350
4F
  3
A8
350
50
  3
A9
350
51
  3
B0
350
52
  3
B1
350
53
  3
B2
350
54
  3
B3
350
55
  3
B4
350
56
  3
B5
350
57
  3
B6
350
58
  3
B7
350
59
  3
B8
350
5A
  3
B9
350
5B
  3
C0
350
5C
  3
C1
350
5D
  3
C2
350
5E
  3
C3
350
5F
  3
C4
350
60
  3
C5
350
61
  3
C6
350
62
  3
C7
350
63
  3
C8
350
64
  3
C9
350
65
  3
D0
350
66
  3
D1
350
67
  3
D2
350
68
  0
DICTIONARY
  5
152
102
{ACAD_REACTORS
330
C
102
}
330
C
100
AcDbDictionary
281
     1
  0
XRECORD
  5
223
102
{ACAD_REACTORS
330
C
102
}
330
C
100
AcDbXrecord
280
     1
  1
DWGPROPS COOKIE
  2

  3

  4

  6

  7

  8
12016016
  9

300
=
301
=
302
=
303
=
304
=
305
=
306
=
307
=
308
=
309
=
 40
0.0
 41
2458313.083105151
 42
2458318.282718229
  1

 90
        0
  0
DICTIONARY
  5
188
102
{ACAD_REACTORS
330
187
102
}
330
187
100
AcDbDictionary
281
     1
  0
LAYOUT
  5
1E
102
{ACAD_REACTORS
330
1A
102
}
330
1A
100
AcDbPlotSettings
  1

  2
none_device
  4

  6

 40
0.0
 41
0.0
 42
0.0
 43
0.0
 44
0.0
 45
0.0
 46
0.0
 47
0.0
 48
0.0
 49
0.0
140
0.0
141
0.0
142
1.0
143
1.0
 70
   688
 72
     1
 73
     0
 74
     5
  7

 75
    16
147
1.0
148
0.0
149
0.0
100
AcDbLayout
  1
Layout1
 70
     1
 71
     1
 10
0.0
 20
0.0
 11
420.0
 21
297.0
 12
0.0
 22
0.0
 32
0.0
 14
1.000000000000000E+20
 24
1.000000000000000E+20
 34
1.000000000000000E+20
 15
-1.000000000000000E+20
 25
-1.000000000000000E+20
 35
-1.000000000000000E+20
146
0.0
 13
0.0
 23
0.0
 33
0.0
 16
1.0
 26
0.0
 36
0.0
 17
0.0
 27
1.0
 37
0.0
 76
     0
330
1B
  0
LAYOUT
  5
26
102
{ACAD_REACTORS
330
1A
102
}
330
1A
100
AcDbPlotSettings
  1

  2
none_device
  4

  6

 40
0.0
 41
0.0
 42
0.0
 43
0.0
 44
0.0
 45
0.0
 46
0.0
 47
0.0
 48
0.0
 49
0.0
140
0.0
141
0.0
142
1.0
143
1.0
 70
   688
 72
     1
 73
     0
 74
     5
  7

 75
    16
147
1.0
148
0.0
149
0.0
100
AcDbLayout
  1
Layout2
 70
     1
 71
     2
 10
0.0
 20
0.0
 11
0.0
 21
0.0
 12
0.0
 22
0.0
 32
0.0
 14
0.0
 24
0.0
 34
0.0
 15
0.0
 25
0.0
 35
0.0
146
0.0
 13
0.0
 23
0.0
 33
0.0
 16
1.0
 26
0.0
 36
0.0
 17
0.0
 27
1.0
 37
0.0
 76
     0
330
23
  0
LAYOUT
  5
22
102
{ACAD_REACTORS
330
1A
102
}
330
1A
100
AcDbPlotSettings
  1

  2
none_device
  4
ANSI_A_(11.00_x_8.50_Inches)
  6

 40
6.35
 41
19.05
 42
6.35000508
 43
19.05000254
 44
279.4
 45
215.9
 46
116.0200047679344
 47
80.05803795861492
 48
0.0
 49
0.0
140
0.0
141
0.0
142
0.0752558462788414
143
1.0
 70
  1696
 72
     0
 73
     0
 74
     0
  7

 75
     0
147
0.0235690232323232
148
0.0
149
0.0
100
AcDbLayout
  1
Model
 70
     1
 71
     0
 10
0.0
 20
0.0
 11
420.0
 21
297.0
 12
0.0
 22
0.0
 32
0.0
 14
-42.9500000000001
 24
-49.97180738881175
 34
0.0
 15
92.3384838153456
 25
36.98524999999992
 35
0.0
146
0.0
 13
0.0
 23
0.0
 33
0.0
 16
1.0
 26
0.0
 36
0.0
 17
0.0
 27
1.0
 37
0.0
 76
     0
330
1F
331
29
  0
MLINESTYLE
  5
18
102
{ACAD_REACTORS
330
17
102
}
330
17
100
AcDbMlineStyle
  2
Standard
 70
     0
  3

 62
   256
 51
90.0
 52
90.0
 71
     2
 49
0.5
 62
   256
  6
BYLAYER
 49
-0.5
 62
   256
  6
BYLAYER
  0
ACDBPLACEHOLDER
  5
F
102
{ACAD_REACTORS
330
E
102
}
330
E
  0
SCALE
  5
48
102
{ACAD_REACTORS
330
47
102
}
330
47
100
AcDbScale
 70
     0
300
1:1
140
1.0
141
1.0
290
     1
  0
SCALE
  5
49
102
{ACAD_REACTORS
330
47
102
}
330
47
100
AcDbScale
 70
     0
300
1:2
140
1.0
141
2.0
290
     0
  0
SCALE
  5
4A
102
{ACAD_REACTORS
330
47
102
}
330
47
100
AcDbScale
 70
     0
300
1:4
140
1.0
141
4.0
290
     0
  0
SCALE
  5
4B
102
{ACAD_REACTORS
330
47
102
}
330
47
100
AcDbScale
 70
     0
300
1:5
140
1.0
141
5.0
290
     0
  0
SCALE
  5
4C
102
{ACAD_REACTORS
330
47
102
}
330
47
100
AcDbScale
 70
     0
300
1:8
140
1.0
141
8.0
290
     0
  0
SCALE
  5
4D
102
{ACAD_REACTORS
330
47
102
}
330
47
100
AcDbScale
 70
     0
300
1:10
140
1.0
141
10.0
290
     0
  0
SCALE
  5
4E
102
{ACAD_REACTORS
330
47
102
}
330
47
100
AcDbScale
 70
     0
300
1:16
140
1.0
141
16.0
290
     0
  0
SCALE
  5
4F
102
{ACAD_REACTORS
330
47
102
}
330
47
100
AcDbScale
 70
     0
300
1:20
140
1.0
141
20.0
290
     0
  0
SCALE
  5
50
102
{ACAD_REACTORS
330
47
102
}
330
47
100
AcDbScale
 70
     0
300
1:30
140
1.0
141
30.0
290
     0
  0
SCALE
  5
51
102
{ACAD_REACTORS
330
47
102
}
330
47
100
AcDbScale
 70
     0
300
1:40
140
1.0
141
40.0
290
     0
  0
SCALE
  5
52
102
{ACAD_REACTORS
330
47
102
}
330
47
100
AcDbScale
 70
     0
300
1:50
140
1.0
141
50.0
290
     0
  0
SCALE
  5
53
102
{ACAD_REACTORS
330
47
102
}
330
47
100
AcDbScale
 70
     0
300
1:100
140
1.0
141
100.0
290
     0
  0
SCALE
  5
54
102
{ACAD_REACTORS
330
47
102
}
330
47
100
AcDbScale
 70
     0
300
2:1
140
2.0
141
1.0
290
     0
  0
SCALE
  5
55
102
{ACAD_REACTORS
330
47
102
}
330
47
100
AcDbScale
 70
     0
300
4:1
140
4.0
141
1.0
290
     0
  0
SCALE
  5
56
102
{ACAD_REACTORS
330
47
102
}
330
47
100
AcDbScale
 70
     0
300
8:1
140
8.0
141
1.0
290
     0
  0
SCALE
  5
57
102
{ACAD_REACTORS
330
47
102
}
330
47
100
AcDbScale
 70
     0
300
10:1
140
10.0
141
1.0
290
     0
  0
SCALE
  5
58
102
{ACAD_REACTORS
330
47
102
}
330
47
100
AcDbScale
 70
     0
300
100:1
140
100.0
141
1.0
290
     0
  0
SCALE
  5
59
102
{ACAD_REACTORS
330
47
102
}
330
47
100
AcDbScale
 70
     0
300
1/128" = 1'-0"
140
0.0078125
141
12.0
290
     0
  0
SCALE
  5
5A
102
{ACAD_REACTORS
330
47
102
}
330
47
100
AcDbScale
 70
     0
300
1/64" = 1'-0"
140
0.015625
141
12.0
290
     0
  0
SCALE
  5
5B
102
{ACAD_REACTORS
330
47
102
}
330
47
100
AcDbScale
 70
     0
300
1/32" = 1'-0"
140
0.03125
141
12.0
290
     0
  0
SCALE
  5
5C
102
{ACAD_REACTORS
330
47
102
}
330
47
100
AcDbScale
 70
     0
300
1/16" = 1'-0"
140
0.0625
141
12.0
290
     0
  0
SCALE
  5
5D
102
{ACAD_REACTORS
330
47
102
}
330
47
100
AcDbScale
 70
     0
300
3/32" = 1'-0"
140
0.09375
141
12.0
290
     0
  0
SCALE
  5
5E
102
{ACAD_REACTORS
330
47
102
}
330
47
100
AcDbScale
 70
     0
300
1/8" = 1'-0"
140
0.125
141
12.0
290
     0
  0
SCALE
  5
5F
102
{ACAD_REACTORS
330
47
102
}
330
47
100
AcDbScale
 70
     0
300
3/16" = 1'-0"
140
0.1875
141
12.0
290
     0
  0
SCALE
  5
60
102
{ACAD_REACTORS
330
47
102
}
330
47
100
AcDbScale
 70
     0
300
1/4" = 1'-0"
140
0.25
141
12.0
290
     0
  0
SCALE
  5
61
102
{ACAD_REACTORS
330
47
102
}
330
47
100
AcDbScale
 70
     0
300
3/8" = 1'-0"
140
0.375
141
12.0
290
     0
  0
SCALE
  5
62
102
{ACAD_REACTORS
330
47
102
}
330
47
100
AcDbScale
 70
     0
300
1/2" = 1'-0"
140
0.5
141
12.0
290
     0
  0
SCALE
  5
63
102
{ACAD_REACTORS
330
47
102
}
330
47
100
AcDbScale
 70
     0
300
3/4" = 1'-0"
140
0.75
141
12.0
290
     0
  0
SCALE
  5
64
102
{ACAD_REACTORS
330
47
102
}
330
47
100
AcDbScale
 70
     0
300
1" = 1'-0"
140
1.0
141
12.0
290
     0
  0
SCALE
  5
65
102
{ACAD_REACTORS
330
47
102
}
330
47
100
AcDbScale
 70
     0
300
1-1/2" = 1'-0"
140
1.5
141
12.0
290
     0
  0
SCALE
  5
66
102
{ACAD_REACTORS
330
47
102
}
330
47
100
AcDbScale
 70
     0
300
3" = 1'-0"
140
3.0
141
12.0
290
     0
  0
SCALE
  5
67
102
{ACAD_REACTORS
330
47
102
}
330
47
100
AcDbScale
 70
     0
300
6" = 1'-0"
140
6.0
141
12.0
290
     0
  0
SCALE
  5
68
102
{ACAD_REACTORS
330
47
102
}
330
47
100
AcDbScale
 70
     0
300
1'-0" = 1'-0"
140
12.0
141
12.0
290
     0
  0
ENDSEC
  0
EOF
