  0
SECTION
  2
HEADER
  9
$ACADVER
  1
AC1015
  9
$ACADMAINTVER
 70
     6
  9
$DWGCODEPAGE
  3
ANSI_949
  9
$INSBASE
 10
0.0
 20
0.0
 30
0.0
  9
$EXTMIN
 10
-39.95000000000012
 20
-49.97180738881175
 30
0.0
  9
$EXTMAX
 10
92.3384838153456
 20
27.88124999999993
 30
0.0
  9
$LIMMIN
 10
0.0
 20
0.0
  9
$LIMMAX
 10
420.0
 20
297.0
  9
$ORTHOMODE
 70
     1
  9
$REGENMODE
 70
     1
  9
$FILLMODE
 70
     1
  9
$QTEXTMODE
 70
     0
  9
$MIRRTEXT
 70
     1
  9
$LTSCALE
 40
1.0
  9
$ATTMODE
 70
     1
  9
$TEXTSIZE
 40
3.5
  9
$TRACEWID
 40
1.0
  9
$TEXTSTYLE
  7
Standard
  9
$CLAYER
  8
0
  9
$CELTYPE
  6
ByLayer
  9
$CECOLOR
 62
   256
  9
$CELTSCALE
 40
1.0
  9
$DISPSILH
 70
     0
  9
$DIMSCALE
 40
1.0
  9
$DIMASZ
 40
3.302
  9
$DIMEXO
 40
1.0
  9
$DIMDLI
 40
3.75
  9
$DIMRND
 40
0.0
  9
$DIMDLE
 40
0.0
  9
$DIMEXE
 40
1.0
  9
$DIMTP
 40
0.0
  9
$DIMTM
 40
0.0
  9
$DIMTXT
 40
3.5
  9
$DIMCEN
 40
2.5
  9
$DIMTSZ
 40
0.0
  9
$DIMTOL
 70
     0
  9
$DIMLIM
 70
     0
  9
$DIMTIH
 70
     1
  9
$DIMTOH
 70
     1
  9
$DIMSE1
 70
     0
  9
$DIMSE2
 70
     0
  9
$DIMTAD
 70
     1
  9
$DIMZIN
 70
     0
  9
$DIMBLK
  1

  9
$DIMASO
 70
     1
  9
$DIMSHO
 70
     1
  9
$DIMPOST
  1

  9
$DIMAPOST
  1

  9
$DIMALT
 70
     0
  9
$DIMALTD
 70
     3
  9
$DIMALTF
 40
0.0393700787401575
  9
$DIMLFAC
 40
1.0
  9
$DIMTOFL
 70
     1
  9
$DIMTVP
 40
0.0
  9
$DIMTIX
 70
     0
  9
$DIMSOXD
 70
     0
  9
$DIMSAH
 70
     0
  9
$DIMBLK1
  1

  9
$DIMBLK2
  1

  9
$DIMSTYLE
  2
ISO-25
  9
$DIMCLRD
 70
     0
  9
$DIMCLRE
 70
     0
  9
$DIMCLRT
 70
     0
  9
$DIMTFAC
 40
1.0
  9
$DIMGAP
 40
1.524
  9
$DIMJUST
 70
     0
  9
$DIMSD1
 70
     0
  9
$DIMSD2
 70
     0
  9
$DIMTOLJ
 70
     0
  9
$DIMTZIN
 70
     0
  9
$DIMALTZ
 70
     0
  9
$DIMALTTZ
 70
     0
  9
$DIMUPT
 70
     0
  9
$DIMDEC
 70
     2
  9
$DIMTDEC
 70
     2
  9
$DIMALTU
 70
     2
  9
$DIMALTTD
 70
     3
  9
$DIMTXSTY
  7
Standard
  9
$DIMAUNIT
 70
     0
  9
$DIMADEC
 70
     2
  9
$DIMALTRND
 40
0.0
  9
$DIMAZIN
 70
     0
  9
$DIMDSEP
 70
    44
  9
$DIMATFIT
 70
     3
  9
$DIMFRAC
 70
     0
  9
$DIMLDRBLK
  1

  9
$DIMLUNIT
 70
     2
  9
$DIMLWD
 70
    -2
  9
$DIMLWE
 70
    -2
  9
$DIMTMOVE
 70
     0
  9
$LUNITS
 70
     2
  9
$LUPREC
 70
     2
  9
$SKETCHINC
 40
1.0
  9
$FILLETRAD
 40
10.0
  9
$AUNITS
 70
     0
  9
$AUPREC
 70
     2
  9
$MENU
  1
.
  9
$ELEVATION
 40
0.0
  9
$PELEVATION
 40
0.0
  9
$THICKNESS
 40
0.0
  9
$LIMCHECK
 70
     0
  9
$CHAMFERA
 40
0.0
  9
$CHAMFERB
 40
0.0
  9
$CHAMFERC
 40
0.0
  9
$CHAMFERD
 40
0.0
  9
$SKPOLY
 70
     0
  9
$TDCREATE
 40
2458313.457681389
  9
$TDUCREATE
 40
2458313.082681389
  9
$TDUPDATE
 40
2458318.657334039
  9
$TDUUPDATE
 40
2458318.282334039
  9
$TDINDWG
 40
0.0004585185
  9
$TDUSRTIMER
 40
2458318.282042338
  9
$USRTIMER
 70
     1
  9
$ANGBASE
 50
0.0
  9
$ANGDIR
 70
     0
  9
$PDMODE
 70
     0
  9
$PDSIZE
 40
-1.0
  9
$PLINEWID
 40
0.0
  9
$SPLFRAME
 70
     0
  9
$SPLINETYPE
 70
     6
  9
$SPLINESEGS
 70
     8
  9
$HANDSEED
  5
236
  9
$SURFTAB1
 70
     6
  9
$SURFTAB2
 70
     6
  9
$SURFTYPE
 70
     6
  9
$SURFU
 70
     6
  9
$SURFV
 70
     6
  9
$UCSBASE
  2

  9
$UCSNAME
  2

  9
$UCSORG
 10
0.0
 20
0.0
 30
0.0
  9
$UCSXDIR
 10
1.0
 20
0.0
 30
0.0
  9
$UCSYDIR
 10
0.0
 20
1.0
 30
0.0
  9
$UCSORTHOREF
  2

  9
$UCSORTHOVIEW
 70
     0
  9
$UCSORGTOP
 10
0.0
 20
0.0
 30
0.0
  9
$UCSORGBOTTOM
 10
0.0
 20
0.0
 30
0.0
  9
$UCSORGLEFT
 10
0.0
 20
0.0
 30
0.0
  9
$UCSORGRIGHT
 10
0.0
 20
0.0
 30
0.0
  9
$UCSORGFRONT
 10
0.0
 20
0.0
 30
0.0
  9
$UCSORGBACK
 10
0.0
 20
0.0
 30
0.0
  9
$PUCSBASE
  2

  9
$PUCSNAME
  2

  9
$PUCSORG
 10
0.0
 20
0.0
 30
0.0
  9
$PUCSXDIR
 10
1.0
 20
0.0
 30
0.0
  9
$PUCSYDIR
 10
0.0
 20
1.0
 30
0.0
  9
$PUCSORTHOREF
  2

  9
$PUCSORTHOVIEW
 70
     0
  9
$PUCSORGTOP
 10
0.0
 20
0.0
 30
0.0
  9
$PUCSORGBOTTOM
 10
0.0
 20
0.0
 30
0.0
  9
$PUCSORGLEFT
 10
0.0
 20
0.0
 30
0.0
  9
$PUCSORGRIGHT
 10
0.0
 20
0.0
 30
0.0
  9
$PUCSORGFRONT
 10
0.0
 20
0.0
 30
0.0
  9
$PUCSORGBACK
 10
0.0
 20
0.0
 30
0.0
  9
$USERI1
 70
     0
  9
$USERI2
 70
     0
  9
$USERI3
 70
     0
  9
$USERI4
 70
     0
  9
$USERI5
 70
     0
  9
$USERR1
 40
0.0
  9
$USERR2
 40
0.0
  9
$USERR3
 40
0.0
  9
$USERR4
 40
0.0
  9
$USERR5
 40
0.0
  9
$WORLDVIEW
 70
     1
  9
$SHADEDGE
 70
     3
  9
$SHADEDIF
 70
    70
  9
$TILEMODE
 70
     1
  9
$MAXACTVP
 70
    64
  9
$PINSBASE
 10
0.0
 20
0.0
 30
0.0
  9
$PLIMCHECK
 70
     0
  9
$PEXTMIN
 10
1.000000000000000E+20
 20
1.000000000000000E+20
 30
1.000000000000000E+20
  9
$PEXTMAX
 10
-1.000000000000000E+20
 20
-1.000000000000000E+20
 30
-1.000000000000000E+20
  9
$PLIMMIN
 10
0.0
 20
0.0
  9
$PLIMMAX
 10
0.0
 20
0.0
  9
$UNITMODE
 70
     0
  9
$VISRETAIN
 70
     1
  9
$PLINEGEN
 70
     0
  9
$PSLTSCALE
 70
     1
  9
$TREEDEPTH
 70
  3020
  9
$CMLSTYLE
  2
Standard
  9
$CMLJUST
 70
     0
  9
$CMLSCALE
 40
20.0
  9
$PROXYGRAPHICS
 70
     1
  9
$MEASUREMENT
 70
     1
  9
$CELWEIGHT
370
    -1
  9
$ENDCAPS
280
     0
  9
$JOINSTYLE
280
     0
  9
$LWDISPLAY
290
     1
  9
$INSUNITS
 70
     4
  9
$HYPERLINKBASE
  1

  9
$STYLESHEET
  1

  9
$XEDIT
290
     1
  9
$CEPSNTYPE
380
     0
  9
$PSTYLEMODE
290
     1
  9
$FINGERPRINTGUID
  2
{B25566E4-050E-4272-8939-BF7D72F2AD52}
  9
$VERSIONGUID
  2
{FAEB1C32-E019-11D5-929B-00C0DF256EC4}
  9
$EXTNAMES
290
     1
  9
$PSVPSCALE
 40
0.0
  9
$OLESTARTUP
290
     0
  0
ENDSEC
  0
SECTION
  2
CLASSES
  0
CLASS
  1
ACDBDICTIONARYWDFLT
  2
AcDbDictionaryWithDefault
  3
ObjectDBX Classes
 90
        0
280
     0
281
     0
  0
CLASS
  1
VISUALSTYLE
  2
AcDbVisualStyle
  3
ObjectDBX Classes
 90
     4095
280
     0
281
     0
  0
CLASS
  1
MATERIAL
  2
AcDbMaterial
  3
ObjectDBX Classes
 90
     1153
280
     0
281
     0
  0
CLASS
  1
SCALE
  2
AcDbScale
  3
ObjectDBX Classes
 90
     1153
280
     0
281
     0
  0
CLASS
  1
SUN
  2
AcDbSun
  3
SCENEOE
 90
     1153
280
     0
281
     0
  0
CLASS
  1
ACDBPLACEHOLDER
  2
AcDbPlaceHolder
  3
ObjectDBX Classes
 90
        0
280
     0
281
     0
  0
CLASS
  1
LAYOUT
  2
AcDbLayout
  3
ObjectDBX Classes
 90
        0
280
     0
281
     0
  0
CLASS
  1
TABLESTYLE
  2
AcDbTableStyle
  3
ObjectDBX Classes
 90
     4095
280
     0
281
     0
  0
CLASS
  1
MLEADERSTYLE
  2
AcDbMLeaderStyle
  3
ACDB_MLEADERSTYLE_CLASS
 90
     4095
280
     0
281
     0
  0
CLASS
  1
DICTIONARYVAR
  2
AcDbDictionaryVar
  3
ObjectDBX Classes
 90
        0
280
     0
281
     0
  0
CLASS
  1
RASTERVARIABLES
  2
AcDbRasterVariables
  3
ISM
 90
        0
280
     0
281
     0
  0
ENDSEC
  0
SECTION
  2
TABLES
  0
TABLE
  2
VPORT
  5
8
330
0
100
AcDbSymbolTable
 70
     1
  0
VPORT
  5
29
330
8
100
AcDbSymbolTableRecord
100
AcDbViewportTableRecord
  2
*Active
 70
     0
 10
0.0
 20
0.0
 11
1.0
 21
1.0
 12
26.19424190767274
 22
-11.04527869440591
 13
0.0
 23
0.0
 14
10.0
 24
10.0
 15
10.0
 25
10.0
 16
0.0
 26
0.0
 36
1.0
 17
0.0
 27
0.0
 37
0.0
 40
79.4101185365879
 41
1.782762691853601
 42
50.0
 43
0.0
 44
0.0
 50
0.0
 51
0.0
 71
    16
 72
  2000
 73
     1
 74
     3
 75
     0
 76
     0
 77
     0
 78
     0
281
     0
 65
     1
110
0.0
120
0.0
130
0.0
111
1.0
121
0.0
131
0.0
112
0.0
122
1.0
132
0.0
 79
     0
146
0.0
  0
ENDTAB
  0
TABLE
  2
LTYPE
  5
5
330
0
100
AcDbSymbolTable
 70
     6
  0
LTYPE
  5
14
330
5
100
AcDbSymbolTableRecord
100
AcDbLinetypeTableRecord
  2
ByBlock
 70
     0
  3

 72
    65
 73
     0
 40
0.0
  0
LTYPE
  5
15
330
5
100
AcDbSymbolTableRecord
100
AcDbLinetypeTableRecord
  2
ByLayer
 70
     0
  3

 72
    65
 73
     0
 40
0.0
  0
LTYPE
  5
16
330
5
100
AcDbSymbolTableRecord
100
AcDbLinetypeTableRecord
  2
Continuous
 70
     0
  3
Solid line
 72
    65
 73
     0
 40
0.0
  0
LTYPE
  5
6A
330
5
100
AcDbSymbolTableRecord
100
AcDbLinetypeTableRecord
  2
HIDDEN
 70
     0
  3
Hidden __ __ __ __ __ __ __ __ __ __ __ __ __ __
 72
    65
 73
     2
 40
1.905
 49
1.27
 74
     0
 49
-0.635
 74
     0
  0
LTYPE
  5
6B
330
5
100
AcDbSymbolTableRecord
100
AcDbLinetypeTableRecord
  2
PHANTOM
 70
     0
  3
Phantom ______  __  __  ______  __  __  ______
 72
    65
 73
     6
 40
12.7
 49
6.35
 74
     0
 49
-1.27
 74
     0
 49
1.27
 74
     0
 49
-1.27
 74
     0
 49
1.27
 74
     0
 49
-1.27
 74
     0
  0
LTYPE
  5
6C
330
5
100
AcDbSymbolTableRecord
100
AcDbLinetypeTableRecord
  2
CENTER
 70
     0
  3
Center ____ _ ____ _ ____ _ ____ _ ____ _ ____
 72
    65
 73
     4
 40
10.16
 49
6.35
 74
     0
 49
-1.27
 74
     0
 49
1.27
 74
     0
 49
-1.27
 74
     0
  0
LTYPE
  5
6D
330
5
100
AcDbSymbolTableRecord
100
AcDbLinetypeTableRecord
  2
CENTERX2
 70
     0
  3
Center (2x) ________  __  ________  __  _____
 72
    65
 73
     4
 40
20.32
 49
12.7
 74
     0
 49
-2.54
 74
     0
 49
2.54
 74
     0
 49
-2.54
 74
     0
  0
LTYPE
  5
6E
330
5
100
AcDbSymbolTableRecord
100
AcDbLinetypeTableRecord
  2
DOT2
 70
     0
  3
Dot (.5x) ........................................
 72
    65
 73
     2
 40
0.635
 49
0.0
 74
     0
 49
-0.635
 74
     0
  0
ENDTAB
  0
TABLE
  2
LAYER
  5
2
330
0
100
AcDbSymbolTable
 70
    18
  0
LAYER
  5
10
330
2
100
AcDbSymbolTableRecord
100
AcDbLayerTableRecord
  2
0
 70
     0
 62
     7
  6
Continuous
370
    -3
390
F
  0
LAYER
  5
6F
330
2
100
AcDbSymbolTableRecord
100
AcDbLayerTableRecord
  2
FORMAT
 70
     0
 62
     2
  6
Continuous
370
    -3
390
F
  0
LAYER
  5
70
330
2
100
AcDbSymbolTableRecord
100
AcDbLayerTableRecord
  2
외형선
 70
     0
 62
     4
  6
Continuous
370
    30
390
F
  0
LAYER
  5
71
330
2
100
AcDbSymbolTableRecord
100
AcDbLayerTableRecord
  2
숨은선
 70
     0
 62
     2
  6
HIDDEN
370
    15
390
F
  0
LAYER
  5
72
330
2
100
AcDbSymbolTableRecord
100
AcDbLayerTableRecord
  2
중심선
 70
     0
 62
     1
  6
CENTERX2
370
    -3
390
F
  0
LAYER
  5
73
330
2
100
AcDbSymbolTableRecord
100
AcDbLayerTableRecord
  2
파단선
 70
     0
 62
     4
  6
Continuous
370
    -3
390
F
  0
LAYER
  5
74
330
2
100
AcDbSymbolTableRecord
100
AcDbLayerTableRecord
  2
해칭선
 70
     0
 62
   100
  6
Continuous
370
    -3
390
F
  0
LAYER
  5
75
330
2
100
AcDbSymbolTableRecord
100
AcDbLayerTableRecord
  2
가는실선
 70
     0
 62
     4
  6
Continuous
370
    -3
390
F
  0
LAYER
  5
76
330
2
100
AcDbSymbolTableRecord
100
AcDbLayerTableRecord
  2
치수_보조선
 70
     0
 62
     4
  6
Continuous
370
    -3
390
F
  0
LAYER
  5
77
330
2
100
AcDbSymbolTableRecord
100
AcDbLayerTableRecord
  2
치수문자_일반주서
 70
     0
 62
     7
  6
Continuous
370
    15
390
F
  0
LAYER
  5
78
330
2
100
AcDbSymbolTableRecord
100
AcDbLayerTableRecord
  2
개별주서
 70
     0
 62
   100
  6
Continuous
370
    30
390
F
  0
LAYER
  5
79
330
2
100
AcDbSymbolTableRecord
100
AcDbLayerTableRecord
  2
중간선
 70
     0
 62
     2
  6
Continuous
370
    15
390
F
  0
LAYER
  5
7A
330
2
100
AcDbSymbolTableRecord
100
AcDbLayerTableRecord
  2
윤곽선
 70
     0
 62
     3
  6
Continuous
370
    40
390
F
  0
LAYER
  5
7B
330
2
100
AcDbSymbolTableRecord
100
AcDbLayerTableRecord
  2
중심마크
 70
     0
 62
   100
  6
Continuous
370
    30
390
F
  0
LAYER
  5
7C
330
2
100
AcDbSymbolTableRecord
100
AcDbLayerTableRecord
  2
가상선
 70
     0
 62
     4
  6
PHANTOM
370
    -3
390
F
  0
LAYER
  5
7D
330
2
100
AcDbSymbolTableRecord
100
AcDbLayerTableRecord
  2
특수지정선
 70
     0
 62
     5
  6
CENTERX2
370
    60
390
F
  0
LAYER
  5
7E
330
2
100
AcDbSymbolTableRecord
100
AcDbLayerTableRecord
  2
참조1
 70
     0
 62
    -4
  6
Continuous
370
    -3
390
F
  0
LAYER
  5
156
330
2
100
AcDbSymbolTableRecord
100
AcDbLayerTableRecord
  2
Defpoints
 70
     0
 62
     7
  6
Continuous
290
     0
370
    -3
390
F
  0
ENDTAB
  0
TABLE
  2
STYLE
  5
3
330
0
100
AcDbSymbolTable
 70
     2
  0
STYLE
  5
11
330
3
100
AcDbSymbolTableRecord
100
AcDbTextStyleTableRecord
  2
Standard
 70
     0
 40
0.0
 41
1.0
 50
0.0
 71
     0
 42
3.5
  3
txt
  4

  0
STYLE
  5
94
330
3
100
AcDbSymbolTableRecord
100
AcDbTextStyleTableRecord
  2
SLDTEXTSTYLE0
 70
     0
 40
0.0
 41
0.75
 50
0.0
 71
     0
 42
3.5
  3
TXT
  4

  0
ENDTAB
  0
TABLE
  2
VIEW
  5
6
330
0
100
AcDbSymbolTable
 70
     0
  0
ENDTAB
  0
TABLE
  2
UCS
  5
7
330
0
100
AcDbSymbolTable
 70
     0
  0
ENDTAB
  0
TABLE
  2
APPID
  5
9
330
0
100
AcDbSymbolTable
 70
     2
  0
APPID
  5
12
330
9
100
AcDbSymbolTableRecord
100
AcDbRegAppTableRecord
  2
ACAD
 70
     0
  0
APPID
  5
15D
330
9
100
AcDbSymbolTableRecord
100
AcDbRegAppTableRecord
  2
PE_URL
 70
     0
  0
ENDTAB
  0
TABLE
  2
DIMSTYLE
  5
A
330
0
100
AcDbSymbolTable
 70
     3
100
AcDbDimStyleTable
  0
DIMSTYLE
105
27
330
A
100
AcDbSymbolTableRecord
100
AcDbDimStyleTableRecord
  2
ISO-25
 70
     0
 41
2.5
 42
0.625
 43
3.75
 44
1.25
 73
     0
 74
     0
 77
     1
 78
     8
140
2.5
141
2.5
143
0.03937007874016
147
0.625
171
     3
172
     1
178
     0
271
     2
272
     2
274
     3
278
    44
283
     0
284
     8
340
11
  0
DIMSTYLE
105
D4
102
{ACAD_REACTORS
330
D3
330
E8
330
111
330
FD
102
}
330
A
100
AcDbSymbolTableRecord
100
AcDbDimStyleTableRecord
  2
SLDDIMSTYLE0
 70
     0
 41
3.302
 44
0.0
 45
0.000000001
 73
     0
 74
     0
 77
     1
 78
    12
 79
     3
140
3.5
143
0.0393700787401575
147
0.875
148
0.000000001
170
     1
172
     1
173
     1
178
     0
271
     2
272
     2
276
     2
284
    12
289
     0
340
94
  0
DIMSTYLE
105
FE
330
A
100
AcDbSymbolTableRecord
100
AcDbDimStyleTableRecord
  2
SLDDIMSTYLE1
 70
     0
 41
3.302
 44
0.0
 45
0.000000001
 73
     0
 74
     0
 77
     1
 78
    12
 79
     3
140
3.5
143
0.0393700787401575
147
0.875
148
0.000000001
170
     1
173
     1
178
     0
271
     2
272
     2
276
     2
284
    12
340
94
  0
ENDTAB
  0
TABLE
  2
BLOCK_RECORD
  5
1
330
0
100
AcDbSymbolTable
 70
     9
  0
BLOCK_RECORD
  5
1F
330
1
100
AcDbSymbolTableRecord
100
AcDbBlockTableRecord
  2
*Model_Space
340
22
  0
BLOCK_RECORD
  5
1B
330
1
100
AcDbSymbolTableRecord
100
AcDbBlockTableRecord
  2
*Paper_Space
340
1E
  0
BLOCK_RECORD
  5
23
330
1
100
AcDbSymbolTableRecord
100
AcDbBlockTableRecord
  2
*Paper_Space0
340
26
  0
BLOCK_RECORD
  5
7F
330
1
100
AcDbSymbolTableRecord
100
AcDbBlockTableRecord
  2
블럭10
340
0
102
{BLKREFS
331
CC
102
}
  0
BLOCK_RECORD
  5
D5
330
1
100
AcDbSymbolTableRecord
100
AcDbBlockTableRecord
  2
_D
340
0
  0
BLOCK_RECORD
  5
E9
330
1
100
AcDbSymbolTableRecord
100
AcDbBlockTableRecord
  2
_D_1
340
0
  0
BLOCK_RECORD
  5
FF
330
1
100
AcDbSymbolTableRecord
100
AcDbBlockTableRecord
  2
_D_2
340
0
  0
BLOCK_RECORD
  5
112
330
1
100
AcDbSymbolTableRecord
100
AcDbBlockTableRecord
  2
_D_3
340
0
  0
BLOCK_RECORD
  5
12C
330
1
100
AcDbSymbolTableRecord
100
AcDbBlockTableRecord
  2
SW_DOWELSYMBOL_0
340
0
102
{BLKREFS
331
132
102
}
  0
BLOCK_RECORD
  5
18F
330
1
100
AcDbSymbolTableRecord
100
AcDbBlockTableRecord
  2
*D7
340
0
  0
BLOCK_RECORD
  5
1A1
330
1
100
AcDbSymbolTableRecord
100
AcDbBlockTableRecord
  2
*D8
340
0
  0
ENDTAB
  0
ENDSEC
  0
SECTION
  2
BLOCKS
  0
BLOCK
  5
20
330
1F
100
AcDbEntity
  8
0
100
AcDbBlockBegin
  2
*Model_Space
 70
     0
 10
0.0
 20
0.0
 30
0.0
  3
*Model_Space
  1
*Model_Space
  0
ENDBLK
  5
21
330
1F
100
AcDbEntity
  8
0
100
AcDbBlockEnd
  0
BLOCK
  5
1C
330
1B
100
AcDbEntity
 67
     1
  8
0
100
AcDbBlockBegin
  2
*Paper_Space
 70
     0
 10
0.0
 20
0.0
 30
0.0
  3
*Paper_Space
  1
*Paper_Space
  0
ENDBLK
  5
1D
330
1B
100
AcDbEntity
 67
     1
  8
0
100
AcDbBlockEnd
  0
BLOCK
  5
24
330
23
100
AcDbEntity
  8
0
100
AcDbBlockBegin
  2
*Paper_Space0
 70
     0
 10
0.0
 20
0.0
 30
0.0
  3
*Paper_Space0
  1
*Paper_Space0
  0
ENDBLK
  5
25
330
23
100
AcDbEntity
  8
0
100
AcDbBlockEnd
  0
BLOCK
  5
80
330
7F
100
AcDbEntity
  8
0
100
AcDbBlockBegin
  2
블럭10
 70
     2
 10
0.0
 20
0.0
 30
0.0
  3
블럭10
  1
블럭10
  0
ELLIPSE
  5
82
330
7F
100
AcDbEntity
  8
중심선
100
AcDbEllipse
 10
20.54032771741204
 20
12.0471743016438
 30
0.0
 11
6.600054785286829
 21
-1.261213355974178E-13
 31
0.0
210
0.0
220
0.0
230
1.0
 40
0.636358354079598
 41
0.9219305317359503
 42
6.513795318482858
  0
ELLIPSE
  5
83
330
7F
100
AcDbEntity
  8
중심선
100
AcDbEllipse
 10
20.54032771746488
 20
12.04717430159265
 30
0.0
 11
3.960054785062283
 21
1.540847449632565E-10
 31
0.0
210
0.0
220
0.0
230
1.0
 40
0.3939339440162632
 41
1.131841032648279
 42
5.62031148352944
  0
LINE
  5
84
330
7F
100
AcDbEntity
  8
중심선
100
AcDbLine
 10
2.268634060543552
 20
16.24717430164393
 30
0.0
 11
5.714909304380834
 21
16.24717430164393
 31
0.0
  0
LINE
  5
85
330
7F
100
AcDbEntity
  8
중심선
100
AcDbLine
 10
5.245725140726316
 20
7.84717430164391
 30
0.0
 11
8.692000384563599
 21
7.84717430164391
 31
0.0
  0
LINE
  5
86
330
7F
100
AcDbEntity
  8
중심선
100
AcDbLine
 10
15.74043728645272
 20
16.24717430164393
 30
0.0
 11
8.692000384563599
 21
7.84717430164391
 31
0.0
  0
LINE
  5
87
330
7F
100
AcDbEntity
  8
중심선
100
AcDbLine
 10
0.1404042013395286
 20
13.71084872107135
 30
0.0
 11
3.58671253028996
 21
13.71088815037384
 31
0.0
  0
LINE
  5
88
330
7F
100
AcDbEntity
  8
중심선
100
AcDbLine
 10
2.750260043222114
 20
10.84717430164391
 30
0.0
 11
6.196535287059397
 21
10.84717430164391
 31
0.0
  0
LINE
  5
89
330
7F
100
AcDbEntity
  8
중심선
100
AcDbLine
 10
12.29416204261559
 20
16.24717430164393
 30
0.0
 11
5.245725140726316
 21
7.84717430164391
 31
0.0
  0
LINE
  5
8A
330
7F
100
AcDbEntity
  8
중심선
100
AcDbLine
 10
10.72767329541681
 20
16.24717430164393
 30
0.0
 11
6.196535287059397
 21
10.84717430164391
 31
0.0
  0
LINE
  5
8B
330
7F
100
AcDbEntity
  8
중심선
100
AcDbLine
 10
7.28139805157953
 20
16.24717430164393
 30
0.0
 11
2.750260043222114
 21
10.84717430164391
 31
0.0
  0
LINE
  5
8C
330
7F
100
AcDbEntity
  8
중심선
100
AcDbLine
 10
5.714909304380834
 20
16.24717430164393
 30
0.0
 11
3.58671253028996
 21
13.71088815037384
 31
0.0
  0
LINE
  5
8D
330
7F
100
AcDbEntity
  8
중심선
100
AcDbLine
 10
2.268634060543552
 20
16.24717430164393
 30
0.0
 11
0.1404042013395286
 21
13.71084872107135
 31
0.0
  0
LINE
  5
8E
330
7F
100
AcDbEntity
  8
중심선
100
AcDbLine
 10
7.28139805157953
 20
16.24717430164393
 30
0.0
 11
10.72767329541681
 21
16.24717430164393
 31
0.0
  0
LINE
  5
8F
330
7F
100
AcDbEntity
  8
중심선
100
AcDbLine
 10
12.29416204261559
 20
16.24717430164393
 30
0.0
 11
15.74043728645272
 21
16.24717430164393
 31
0.0
  0
LINE
  5
90
330
7F
100
AcDbEntity
  8
중심선
100
AcDbLine
 10
19.22036997980202
 20
11.08717430171403
 30
0.0
 11
23.66174974927406
 21
11.08717430171406
 31
0.0
  0
LINE
  5
91
330
7F
100
AcDbEntity
  8
중심선
100
AcDbLine
 10
19.22039502424796
 20
13.00717430171391
 30
0.0
 11
19.22036997980202
 21
11.08717430171403
 31
0.0
  0
LINE
  5
92
330
7F
100
AcDbEntity
  8
중심선
100
AcDbLine
 10
19.22039502424796
 20
13.00717430171391
 30
0.0
 11
26.96566020931264
 21
13.00717430171391
 31
0.0
  0
LINE
  5
93
330
7F
100
AcDbEntity
  8
중심선
100
AcDbLine
 10
22.22332737316547
 20
13.45928029700563
 30
0.0
 11
24.52862924686651
 21
15.39360700705356
 31
0.0
  0
ATTDEF
  5
95
330
7F
100
AcDbEntity
  8
FORMAT
 62
     2
100
AcDbText
 10
4.408487351596664
 20
2.075366912832191
 30
0.0
 40
4.233333333333333
  1
E1004006
 41
0.75
  7
SLDTEXTSTYLE0
 11
4.408487351596664
 21
-0.0412997538344756
 31
0.0
100
AcDbAttributeDefinition
  3

  2
AUTOATTR0
 70
     0
 74
     1
  0
ENDBLK
  5
81
330
7F
100
AcDbEntity
  8
0
100
AcDbBlockEnd
  0
BLOCK
  5
D6
330
D5
100
AcDbEntity
  8
0
100
AcDbBlockBegin
  2
_D
 70
     0
 10
0.0
 20
0.0
 30
0.0
  3
_D
  1
_D
  0
LINE
  5
D8
330
D5
100
AcDbEntity
  8
치수문자_일반주서
 62
     0
370
    -2
100
AcDbLine
 10
28.63750000000001
 20
1.186246585538411
 30
0.0
 11
57.2257650107828
 21
1.186246585538516
 31
0.0
  0
LINE
  5
D9
330
D5
100
AcDbEntity
  8
치수문자_일반주서
 62
     0
370
    -2
100
AcDbLine
 10
28.63750000000001
 20
-1.18624658553841
 30
0.0
 11
57.22576501078281
 21
-1.186246585538303
 31
0.0
  0
LINE
  5
DA
330
D5
100
AcDbEntity
  8
치수문자_일반주서
 62
     0
370
    -2
100
AcDbLine
 10
57.2257650107828
 20
1.186246585538516
 30
0.0
 11
57.22576501078272
 21
27.31562500000007
 31
0.0
  0
LINE
  5
DB
330
D5
100
AcDbEntity
  8
치수문자_일반주서
 62
     0
370
    -2
100
AcDbLine
 10
57.2257650107828
 20
1.186246585538516
 30
0.0
 11
57.22576501078281
 21
-1.186246585538303
 31
0.0
  0
LINE
  5
DC
330
D5
100
AcDbEntity
  8
치수문자_일반주서
 62
     0
370
    -2
100
AcDbLine
 10
57.22576501078279
 20
3.686246585538516
 30
0.0
 11
57.22576501078279
 21
6.186246585538516
 31
0.0
  0
LINE
  5
DD
330
D5
100
AcDbEntity
  8
치수문자_일반주서
 62
     0
370
    -2
100
AcDbLine
 10
57.22576501078282
 20
-3.686246585538303
 30
0.0
 11
57.22576501078282
 21
-6.186246585538303
 31
0.0
  0
SOLID
  5
DE
330
D5
100
AcDbEntity
  8
치수문자_일반주서
 62
     0
100
AcDbTrace
 10
56.80909834411613
 20
3.686246585538515
 30
0.0
 11
57.64243167744946
 21
3.686246585538517
 31
0.0
 12
57.2257650107828
 22
1.186246585538516
 32
0.0
 13
57.2257650107828
 23
1.186246585538516
 33
0.0
  0
SOLID
  5
DF
330
D5
100
AcDbEntity
  8
치수문자_일반주서
 62
     0
100
AcDbTrace
 10
57.64243167744948
 20
-3.686246585538302
 30
0.0
 11
56.80909834411615
 21
-3.686246585538304
 31
0.0
 12
57.22576501078281
 22
-1.186246585538303
 32
0.0
 13
57.22576501078281
 23
-1.186246585538303
 33
0.0
  0
MTEXT
  5
E0
330
D5
100
AcDbEntity
  8
치수문자_일반주서
 62
     0
100
AcDbMText
 10
53.85076501078275
 20
16.75312500000006
 30
0.0
 40
2.5
 41
0.0
 71
     2
 72
     1
  1
\A1;%%c2.37 [3/32]
  7
SLDTEXTSTYLE0
 11
-2.994920046229684E-15
 21
1.0
 31
0.0
 73
     1
 44
1.0
  0
POINT
  5
E1
330
D5
100
AcDbEntity
  8
Defpoints
 62
     0
100
AcDbPoint
 10
28.57500000000001
 20
1.18624658553841
 30
0.0
  0
POINT
  5
E2
330
D5
100
AcDbEntity
  8
Defpoints
 62
     0
100
AcDbPoint
 10
28.57500000000001
 20
-1.18624658553841
 30
0.0
  0
POINT
  5
E3
330
D5
100
AcDbEntity
  8
Defpoints
 62
     0
100
AcDbPoint
 10
57.22576501078281
 20
-1.186246585538303
 30
0.0
  0
ENDBLK
  5
D7
330
D5
100
AcDbEntity
  8
0
100
AcDbBlockEnd
  0
BLOCK
  5
EA
330
E9
100
AcDbEntity
  8
0
100
AcDbBlockBegin
  2
_D_1
 70
     0
 10
0.0
 20
0.0
 30
0.0
  3
_D_1
  1
_D_1
  0
LINE
  5
EC
330
E9
100
AcDbEntity
  8
치수문자_일반주서
 62
     0
370
    -2
100
AcDbLine
 10
28.57500000000001
 20
1.24874658553841
 30
0.0
 11
28.57500000000001
 21
10.38125
 31
0.0
  0
LINE
  5
ED
330
E9
100
AcDbEntity
  8
치수문자_일반주서
 62
     0
370
    -2
100
AcDbLine
 10
21.43125000000003
 20
1.155355010705971
 30
0.0
 11
21.43125000000003
 21
10.38125
 31
0.0
  0
LINE
  5
EE
330
E9
100
AcDbEntity
  8
치수문자_일반주서
 62
     0
370
    -2
100
AcDbLine
 10
28.57500000000001
 20
10.38125
 30
0.0
 11
52.20000000000001
 21
10.38125
 31
0.0
  0
LINE
  5
EF
330
E9
100
AcDbEntity
  8
치수문자_일반주서
 62
     0
370
    -2
100
AcDbLine
 10
28.57500000000001
 20
10.38125
 30
0.0
 11
21.43125000000003
 21
10.38125
 31
0.0
  0
LINE
  5
F0
330
E9
100
AcDbEntity
  8
치수문자_일반주서
 62
     0
370
    -2
100
AcDbLine
 10
31.07500000000001
 20
10.38125
 30
0.0
 11
33.57500000000001
 21
10.38125
 31
0.0
  0
LINE
  5
F1
330
E9
100
AcDbEntity
  8
치수문자_일반주서
 62
     0
370
    -2
100
AcDbLine
 10
18.93125000000003
 20
10.38125
 30
0.0
 11
16.43125000000003
 21
10.38125
 31
0.0
  0
SOLID
  5
F2
330
E9
100
AcDbEntity
  8
치수문자_일반주서
 62
     0
100
AcDbTrace
 10
31.07500000000001
 20
10.79791666666667
 30
0.0
 11
31.07500000000001
 21
9.964583333333339
 31
0.0
 12
28.57500000000001
 22
10.38125
 32
0.0
 13
28.57500000000001
 23
10.38125
 33
0.0
  0
SOLID
  5
F3
330
E9
100
AcDbEntity
  8
치수문자_일반주서
 62
     0
100
AcDbTrace
 10
18.93125000000003
 20
9.964583333333339
 30
0.0
 11
18.93125000000003
 21
10.79791666666667
 31
0.0
 12
21.43125000000003
 22
10.38125
 32
0.0
 13
21.43125000000003
 23
10.38125
 33
0.0
  0
MTEXT
  5
F4
330
E9
100
AcDbEntity
  8
치수문자_일반주서
 62
     0
100
AcDbMText
 10
42.88750000000001
 20
13.75625
 30
0.0
 40
2.5
 41
0.0
 71
     2
 72
     1
  1
\A1;7.14 [9/32]
  7
SLDTEXTSTYLE0
 73
     1
 44
1.0
  0
POINT
  5
F5
330
E9
100
AcDbEntity
  8
Defpoints
 62
     0
100
AcDbPoint
 10
28.57500000000001
 20
1.18624658553841
 30
0.0
  0
POINT
  5
F6
330
E9
100
AcDbEntity
  8
Defpoints
 62
     0
100
AcDbPoint
 10
21.43125000000003
 20
1.092855010705971
 30
0.0
  0
POINT
  5
F7
330
E9
100
AcDbEntity
  8
Defpoints
 62
     0
100
AcDbPoint
 10
21.43125000000003
 20
10.38125
 30
0.0
  0
ENDBLK
  5
EB
330
E9
100
AcDbEntity
  8
0
100
AcDbBlockEnd
  0
BLOCK
  5
100
330
FF
100
AcDbEntity
  8
0
100
AcDbBlockBegin
  2
_D_2
 70
     0
 10
0.0
 20
0.0
 30
0.0
  3
_D_2
  1
_D_2
  0
LINE
  5
102
330
FF
100
AcDbEntity
  8
치수문자_일반주서
 62
     0
370
    -2
100
AcDbLine
 10
28.57500000000001
 20
1.24874658553841
 30
0.0
 11
28.57500000000001
 21
18.38125
 31
0.0
  0
LINE
  5
103
330
FF
100
AcDbEntity
  8
치수문자_일반주서
 62
     0
370
    -2
100
AcDbLine
 10
-28.57500000000002
 20
1.248746585538429
 30
0.0
 11
-28.57500000000002
 21
18.38125
 31
0.0
  0
LINE
  5
104
330
FF
100
AcDbEntity
  8
치수문자_일반주서
 62
     0
370
    -2
100
AcDbLine
 10
26.07500000000001
 20
18.38125
 30
0.0
 11
-26.07500000000002
 21
18.38125
 31
0.0
  0
SOLID
  5
105
330
FF
100
AcDbEntity
  8
치수문자_일반주서
 62
     0
100
AcDbTrace
 10
26.07500000000001
 20
17.96458333333333
 30
0.0
 11
26.07500000000001
 21
18.79791666666667
 31
0.0
 12
28.57500000000001
 22
18.38125
 32
0.0
 13
28.57500000000001
 23
18.38125
 33
0.0
  0
SOLID
  5
106
330
FF
100
AcDbEntity
  8
치수문자_일반주서
 62
     0
100
AcDbTrace
 10
-26.07500000000002
 20
18.79791666666667
 30
0.0
 11
-26.07500000000002
 21
17.96458333333333
 31
0.0
 12
-28.57500000000002
 22
18.38125
 32
0.0
 13
-28.57500000000002
 23
18.38125
 33
0.0
  0
MTEXT
  5
107
330
FF
100
AcDbEntity
  8
치수문자_일반주서
 62
     0
100
AcDbMText
 10
-1.4581794861211
 20
21.75625
 30
0.0
 40
2.5
 41
0.0
 71
     2
 72
     1
  1
\A1;57.15 [2 1/4]
  7
SLDTEXTSTYLE0
 73
     1
 44
1.0
  0
POINT
  5
108
330
FF
100
AcDbEntity
  8
Defpoints
 62
     0
100
AcDbPoint
 10
28.57500000000001
 20
1.18624658553841
 30
0.0
  0
POINT
  5
109
330
FF
100
AcDbEntity
  8
Defpoints
 62
     0
100
AcDbPoint
 10
-28.57500000000002
 20
1.186246585538429
 30
0.0
  0
POINT
  5
10A
330
FF
100
AcDbEntity
  8
Defpoints
 62
     0
100
AcDbPoint
 10
-28.57500000000002
 20
18.38125
 30
0.0
  0
ENDBLK
  5
101
330
FF
100
AcDbEntity
  8
0
100
AcDbBlockEnd
  0
BLOCK
  5
113
330
112
100
AcDbEntity
  8
0
100
AcDbBlockBegin
  2
_D_3
 70
     0
 10
0.0
 20
0.0
 30
0.0
  3
_D_3
  1
_D_3
  0
LINE
  5
115
330
112
100
AcDbEntity
  8
치수문자_일반주서
 62
     0
370
    -2
100
AcDbLine
 10
-16.05027700723831
 20
2.381250000000003
 30
0.0
 11
-36.57500000000005
 21
2.381249999999925
 31
0.0
  0
LINE
  5
116
330
112
100
AcDbEntity
  8
치수문자_일반주서
 62
     0
370
    -2
100
AcDbLine
 10
-16.05027700723831
 20
-2.381250000000009
 30
0.0
 11
-36.57500000000004
 21
-2.381250000000087
 31
0.0
  0
LINE
  5
117
330
112
100
AcDbEntity
  8
치수문자_일반주서
 62
     0
370
    -2
100
AcDbLine
 10
-36.57500000000005
 20
2.381249999999925
 30
0.0
 11
-36.57500000000012
 21
27.88124999999993
 31
0.0
  0
LINE
  5
118
330
112
100
AcDbEntity
  8
치수문자_일반주서
 62
     0
370
    -2
100
AcDbLine
 10
-36.57500000000005
 20
2.381249999999925
 30
0.0
 11
-36.57500000000004
 21
-2.381250000000087
 31
0.0
  0
LINE
  5
119
330
112
100
AcDbEntity
  8
치수문자_일반주서
 62
     0
370
    -2
100
AcDbLine
 10
-36.57500000000006
 20
4.881249999999925
 30
0.0
 11
-36.57500000000007
 21
7.381249999999925
 31
0.0
  0
LINE
  5
11A
330
112
100
AcDbEntity
  8
치수문자_일반주서
 62
     0
370
    -2
100
AcDbLine
 10
-36.57500000000003
 20
-4.881250000000087
 30
0.0
 11
-36.57500000000002
 21
-7.381250000000087
 31
0.0
  0
SOLID
  5
11B
330
112
100
AcDbEntity
  8
치수문자_일반주서
 62
     0
100
AcDbTrace
 10
-36.99166666666672
 20
4.881249999999924
 30
0.0
 11
-36.1583333333334
 21
4.881249999999926
 31
0.0
 12
-36.57500000000005
 22
2.381249999999925
 32
0.0
 13
-36.57500000000005
 23
2.381249999999925
 33
0.0
  0
SOLID
  5
11C
330
112
100
AcDbEntity
  8
치수문자_일반주서
 62
     0
100
AcDbTrace
 10
-36.15833333333337
 20
-4.881250000000086
 30
0.0
 11
-36.9916666666667
 21
-4.881250000000088
 31
0.0
 12
-36.57500000000004
 22
-2.381250000000087
 32
0.0
 13
-36.57500000000004
 23
-2.381250000000087
 33
0.0
  0
MTEXT
  5
11D
330
112
100
AcDbEntity
  8
치수문자_일반주서
 62
     0
100
AcDbMText
 10
-39.9500000000001
 20
17.63124999999992
 30
0.0
 40
2.5
 41
0.0
 71
     2
 72
     1
  1
\A1;%%c4.76 [3/16]
  7
SLDTEXTSTYLE0
 11
-2.983906501879679E-15
 21
1.0
 31
0.0
 73
     1
 44
1.0
  0
POINT
  5
20E
330
112
100
AcDbEntity
  8
Defpoints
 62
     0
100
AcDbPoint
 10
-15.98777700723831
 20
2.381250000000003
 30
0.0
  0
POINT
  5
20F
330
112
100
AcDbEntity
  8
Defpoints
 62
     0
100
AcDbPoint
 10
-15.98777700723831
 20
-2.381250000000008
 30
0.0
  0
POINT
  5
210
330
112
100
AcDbEntity
  8
Defpoints
 62
     0
100
AcDbPoint
 10
-36.57500000000003
 20
-2.381250000000085
 30
0.0
  0
ENDBLK
  5
114
330
112
100
AcDbEntity
  8
0
100
AcDbBlockEnd
  0
BLOCK
  5
12D
330
12C
100
AcDbEntity
  8
0
100
AcDbBlockBegin
  2
SW_DOWELSYMBOL_0
 70
     0
 10
0.0
 20
0.0
 30
0.0
  3
SW_DOWELSYMBOL_0
  1
SW_DOWELSYMBOL_0
  0
CIRCLE
  5
12F
330
12C
100
AcDbEntity
  8
해칭선
 62
     0
100
AcDbCircle
 10
0.0
 20
0.0
 30
0.0
 40
3.000000000000001
  0
HATCH
  5
130
330
12C
100
AcDbEntity
  8
0
  6
Continuous
 62
     0
370
     0
100
AcDbHatch
 10
0.0
 20
0.0
 30
0.0
210
0.0
220
0.0
230
1.0
  2
SOLID
 70
     1
 71
     0
 91
        1
 92
        0
 93
        3
 72
     2
 10
0.0
 20
0.0
 40
3.000000000000001
 50
0.0
 51
90.0
 73
     1
 72
     1
 10
0.0
 20
3.000000000000001
 11
0.0
 21
0.0
 72
     1
 10
0.0
 20
0.0
 11
3.000000000000001
 21
0.0
 97
        0
 75
     0
 76
     1
 98
        1
 10
0.0
 20
0.0
  0
HATCH
  5
131
330
12C
100
AcDbEntity
  8
0
  6
Continuous
 62
     0
370
     0
100
AcDbHatch
 10
0.0
 20
0.0
 30
0.0
210
0.0
220
0.0
230
1.0
  2
SOLID
 70
     1
 71
     0
 91
        1
 92
        0
 93
        3
 72
     2
 10
0.0
 20
0.0
 40
3.000000000000001
 50
180.0
 51
270.0000000000007
 73
     1
 72
     1
 10
0.0
 20
-3.000000000000001
 11
0.0
 21
0.0
 72
     1
 10
0.0
 20
0.0
 11
-3.000000000000001
 21
0.0
 97
        0
 75
     0
 76
     1
 98
        1
 10
0.0
 20
0.0
  0
ENDBLK
  5
12E
330
12C
100
AcDbEntity
  8
0
100
AcDbBlockEnd
  0
BLOCK
  5
190
330
18F
100
AcDbEntity
  8
0
100
AcDbBlockBegin
  2
*D7
 70
     1
 10
0.0
 20
0.0
 30
0.0
  3
*D7
  1
*D7
  0
LINE
  5
192
330
18F
100
AcDbEntity
  8
치수문자_일반주서
 62
     0
370
    -2
100
AcDbLine
 10
9.762500000000015
 20
1.572215627997356
 30
0.0
 11
9.762500000000015
 21
11.10013457097175
 31
0.0
  0
LINE
  5
193
330
18F
100
AcDbEntity
  8
치수문자_일반주서
 62
     0
370
    -2
100
AcDbLine
 10
5.0
 20
1.510038174416205
 30
0.0
 11
5.0
 21
11.10013457097175
 31
0.0
  0
LINE
  5
194
330
18F
100
AcDbEntity
  8
치수문자_일반주서
 62
     0
370
    -2
100
AcDbLine
 10
9.762500000000015
 20
11.10013457097175
 30
0.0
 11
33.38750000000002
 21
11.10013457097175
 31
0.0
  0
LINE
  5
195
330
18F
100
AcDbEntity
  8
치수문자_일반주서
 62
     0
370
    -2
100
AcDbLine
 10
9.762500000000015
 20
11.10013457097175
 30
0.0
 11
5.0
 21
11.10013457097175
 31
0.0
  0
LINE
  5
196
330
18F
100
AcDbEntity
  8
치수문자_일반주서
 62
     0
370
    -2
100
AcDbLine
 10
12.26250000000002
 20
11.10013457097175
 30
0.0
 11
14.76250000000002
 21
11.10013457097175
 31
0.0
  0
LINE
  5
197
330
18F
100
AcDbEntity
  8
치수문자_일반주서
 62
     0
370
    -2
100
AcDbLine
 10
2.5
 20
11.10013457097175
 30
0.0
 11
0.0
 21
11.10013457097175
 31
0.0
  0
SOLID
  5
198
330
18F
100
AcDbEntity
  8
치수문자_일반주서
 62
     0
100
AcDbTrace
 10
12.26250000000002
 20
11.51680123763841
 30
0.0
 11
12.26250000000002
 21
10.68346790430508
 31
0.0
 12
9.762500000000015
 22
11.10013457097175
 32
0.0
 13
9.762500000000015
 23
11.10013457097175
 33
0.0
  0
SOLID
  5
199
330
18F
100
AcDbEntity
  8
치수문자_일반주서
 62
     0
100
AcDbTrace
 10
2.5
 20
10.68346790430508
 30
0.0
 11
2.5
 21
11.51680123763841
 31
0.0
 12
5.0
 22
11.10013457097175
 32
0.0
 13
5.0
 23
11.10013457097175
 33
0.0
  0
MTEXT
  5
19A
330
18F
100
AcDbEntity
  8
치수문자_일반주서
 62
     0
100
AcDbMText
 10
24.07500000000002
 20
14.47513457097175
 30
0.0
 40
2.5
 41
0.0
 71
     2
 72
     1
  1
\A1;4.76 [3/16]
  7
SLDTEXTSTYLE0
 73
     1
 44
1.0
  0
POINT
  5
19B
330
18F
100
AcDbEntity
  8
Defpoints
 62
     0
100
AcDbPoint
 10
9.762500000000015
 20
1.509715627997356
 30
0.0
  0
POINT
  5
19C
330
18F
100
AcDbEntity
  8
Defpoints
 62
     0
100
AcDbPoint
 10
5.0
 20
1.447538174416205
 30
0.0
  0
POINT
  5
19D
330
18F
100
AcDbEntity
  8
Defpoints
 62
     0
100
AcDbPoint
 10
5.0
 20
11.10013457097175
 30
0.0
  0
ENDBLK
  5
191
330
18F
100
AcDbEntity
  8
0
100
AcDbBlockEnd
  0
BLOCK
  5
1A2
330
1A1
100
AcDbEntity
  8
0
100
AcDbBlockBegin
  2
*D8
 70
     1
 10
0.0
 20
0.0
 30
0.0
  3
*D8
  1
*D8
  0
LINE
  5
1A4
330
1A1
100
AcDbEntity
  8
치수문자_일반주서
 62
     0
370
    -2
100
AcDbLine
 10
70.05954385261649
 20
-2.148936232205269
 30
0.0
 11
70.05954385261649
 21
7.378982710769121
 31
0.0
  0
LINE
  5
1A5
330
1A1
100
AcDbEntity
  8
치수문자_일반주서
 62
     0
370
    -2
100
AcDbLine
 10
65.29704385261647
 20
-2.21111368578642
 30
0.0
 11
65.29704385261647
 21
7.378982710769121
 31
0.0
  0
LINE
  5
1A6
330
1A1
100
AcDbEntity
  8
치수문자_일반주서
 62
     0
370
    -2
100
AcDbLine
 10
70.05954385261649
 20
7.378982710769121
 30
0.0
 11
93.68454385261649
 21
7.378982710769121
 31
0.0
  0
LINE
  5
1A7
330
1A1
100
AcDbEntity
  8
치수문자_일반주서
 62
     0
370
    -2
100
AcDbLine
 10
70.05954385261649
 20
7.378982710769121
 30
0.0
 11
65.29704385261647
 21
7.378982710769121
 31
0.0
  0
LINE
  5
1A8
330
1A1
100
AcDbEntity
  8
치수문자_일반주서
 62
     0
370
    -2
100
AcDbLine
 10
72.55954385261649
 20
7.378982710769121
 30
0.0
 11
75.05954385261649
 21
7.378982710769121
 31
0.0
  0
LINE
  5
1A9
330
1A1
100
AcDbEntity
  8
치수문자_일반주서
 62
     0
370
    -2
100
AcDbLine
 10
62.79704385261647
 20
7.378982710769121
 30
0.0
 11
60.29704385261647
 21
7.378982710769121
 31
0.0
  0
SOLID
  5
1AA
330
1A1
100
AcDbEntity
  8
치수문자_일반주서
 62
     0
100
AcDbTrace
 10
72.55954385261649
 20
7.795649377435788
 30
0.0
 11
72.55954385261649
 21
6.962316044102454
 31
0.0
 12
70.05954385261649
 22
7.378982710769121
 32
0.0
 13
70.05954385261649
 23
7.378982710769121
 33
0.0
  0
SOLID
  5
1AB
330
1A1
100
AcDbEntity
  8
치수문자_일반주서
 62
     0
100
AcDbTrace
 10
62.79704385261647
 20
6.962316044102454
 30
0.0
 11
62.79704385261647
 21
7.795649377435788
 31
0.0
 12
65.29704385261647
 22
7.378982710769121
 32
0.0
 13
65.29704385261647
 23
7.378982710769121
 33
0.0
  0
MTEXT
  5
1AC
330
1A1
100
AcDbEntity
  8
치수문자_일반주서
 62
     0
100
AcDbMText
 10
84.37204385261649
 20
10.75398271076912
 30
0.0
 40
2.5
 41
0.0
 71
     2
 72
     1
  1
\A1;4.76 [3/16]
  7
SLDTEXTSTYLE0
 73
     1
 44
1.0
  0
POINT
  5
1AD
330
1A1
100
AcDbEntity
  8
Defpoints
 62
     0
100
AcDbPoint
 10
70.05954385261649
 20
-2.211436232205269
 30
0.0
  0
POINT
  5
1AE
330
1A1
100
AcDbEntity
  8
Defpoints
 62
     0
100
AcDbPoint
 10
65.29704385261647
 20
-2.27361368578642
 30
0.0
  0
POINT
  5
1AF
330
1A1
100
AcDbEntity
  8
Defpoints
 62
     0
100
AcDbPoint
 10
65.29704385261647
 20
7.378982710769121
 30
0.0
  0
ENDBLK
  5
1A3
330
1A1
100
AcDbEntity
  8
0
100
AcDbBlockEnd
  0
ENDSEC
  0
SECTION
  2
ENTITIES
  0
LINE
  5
96
330
1F
100
AcDbEntity
  8
0
  6
Continuous
 62
     1
370
    25
100
AcDbLine
 10
28.15057938354114
 20
0.3423093362241963
 30
0.0
 11
28.12426856496558
 21
0.3565633326258265
 31
0.0
1001
PE_URL
1000

  0
LINE
  5
97
330
1F
100
AcDbEntity
  8
0
  6
Continuous
 62
     1
370
    25
100
AcDbLine
 10
26.76461991961639
 20
-0.3026414294838929
 30
0.0
 11
26.86755004453545
 21
-0.3573167363203322
 31
0.0
1001
PE_URL
1000

  0
LINE
  5
98
330
1F
100
AcDbEntity
  8
0
  6
Continuous
 62
     1
370
    25
100
AcDbLine
 10
25.51179722616803
 20
-1.190625
 30
0.0
 11
26.23800670090141
 21
-1.190625
 31
0.0
1001
PE_URL
1000

  0
LINE
  5
99
330
1F
100
AcDbEntity
  8
0
  6
Continuous
 62
     1
370
    25
100
AcDbLine
 10
22.99929832519141
 20
1.190625
 30
0.0
 11
22.27333097314902
 21
1.190625
 31
0.0
1001
PE_URL
1000

  0
LINE
  5
9A
330
1F
100
AcDbEntity
  8
0
  6
Continuous
 62
     1
370
    25
100
AcDbLine
 10
26.23800670090142
 20
1.190625
 30
0.0
 11
25.51179722616804
 21
1.190625
 31
0.0
1001
PE_URL
1000

  0
LINE
  5
9B
330
1F
100
AcDbEntity
  8
0
  6
Continuous
 62
     1
370
    25
100
AcDbLine
 10
22.27333097314902
 20
-1.190625
 30
0.0
 11
22.9992983251914
 21
-1.190625
 31
0.0
1001
PE_URL
1000

  0
LINE
  5
9C
330
1F
100
AcDbEntity
  8
외형선
  6
Continuous
370
    15
100
AcDbLine
 10
15.9877770072383
 20
-2.381250000000005
 30
0.0
 11
20.43125000000001
 21
-1.190624999999999
 31
0.0
  0
LINE
  5
9D
330
1F
100
AcDbEntity
  8
외형선
  6
Continuous
370
    15
100
AcDbLine
 10
20.43125000000001
 20
1.190624999999999
 30
0.0
 11
15.9877770072383
 21
2.381250000000006
 31
0.0
  0
LINE
  5
9E
330
1F
100
AcDbEntity
  8
외형선
  6
Continuous
370
    15
100
AcDbLine
 10
-15.98777700723829
 20
-2.381250000000003
 30
0.0
 11
15.9877770072383
 21
-2.381250000000003
 31
0.0
  0
LINE
  5
9F
330
1F
100
AcDbEntity
  8
외형선
  6
Continuous
370
    15
100
AcDbLine
 10
15.9877770072383
 20
2.381250000000003
 30
0.0
 11
-15.98777700723831
 21
2.381250000000003
 31
0.0
  0
LINE
  5
A2
330
1F
100
AcDbEntity
  8
외형선
  6
Continuous
370
    15
100
AcDbLine
 10
20.43125000000001
 20
-1.190625
 30
0.0
 11
20.931167646809
 21
-1.190625
 31
0.0
  0
LINE
  5
A3
330
1F
100
AcDbEntity
  8
외형선
  6
Continuous
370
    15
100
AcDbLine
 10
20.931167646809
 20
1.190625
 30
0.0
 11
20.43125000000001
 21
1.190625
 31
0.0
  0
SPLINE
  5
A4
330
1F
100
AcDbEntity
  8
0
  6
Continuous
 62
     1
370
    25
100
AcDbSpline
210
0.0
220
0.0
230
1.0
 70
     8
 71
     3
 72
    17
 73
    13
 74
     0
 42
0.000000001
 43
0.00000001
 40
0.0
 40
0.0
 40
0.0
 40
0.0
 40
0.109944022628153
 40
0.2198918079404862
 40
0.3297976138833655
 40
0.439668393280442
 40
0.5495112970342172
 40
0.6593335639761556
 40
0.7628379557583006
 40
0.8663402607228292
 40
0.9698776798068405
 40
1.0
 40
1.0
 40
1.0
 40
1.0
 10
21.43125000000319
 20
0.8203404690994616
 30
0.0
 10
21.65368638590955
 20
0.7189971409638278
 30
0.0
 10
22.09856677030413
 20
0.5163070163554158
 30
0.0
 10
22.76583164273302
 20
0.1360471167290955
 30
0.0
 10
23.43287389990114
 20
-0.2522534902317576
 30
0.0
 10
24.09967220925776
 20
-0.6159510773910916
 30
0.0
 10
24.76624878554218
 20
-0.9155005786547922
 30
0.0
 10
25.41998687932058
 20
-1.115871896319679
 30
0.0
 10
26.06065794863739
 20
-1.205789504591719
 30
0.0
 10
26.68867363604772
 20
-1.176360692331905
 30
0.0
 10
27.16828817030756
 20
-1.089562789118816
 30
0.0
 10
27.43864557682489
 20
-0.9884156204283969
 30
0.0
 10
27.49957486196151
 20
-0.9656205183400545
 30
0.0
1001
PE_URL
1000

  0
SPLINE
  5
A5
330
1F
100
AcDbEntity
  8
외형선
  6
Continuous
370
    15
100
AcDbSpline
210
0.0
220
0.0
230
1.0
 70
    24
 71
     3
 72
    10
 73
     6
 74
     0
 42
0.000000001
 43
0.00000001
 40
0.0
 40
0.0
 40
0.0
 40
0.0
 40
0.3081653438027238
 40
0.6198129771610357
 40
0.9999999999999999
 40
0.9999999999999999
 40
0.9999999999999999
 40
0.9999999999999999
 10
21.43125000000003
 20
1.092855010705971
 30
0.0
 10
21.43125000000001
 20
1.068015015669148
 30
0.0
 10
21.43125
 20
1.018054331945107
 30
0.0
 10
21.43125000000003
 20
0.939001807624018
 30
0.0
 10
21.43125000000001
 20
0.8877693055017567
 30
0.0
 10
21.43125000000001
 20
0.8596152772524127
 30
0.0
  0
SPLINE
  5
A6
330
1F
100
AcDbEntity
  8
0
  6
Continuous
 62
     1
370
    25
100
AcDbSpline
210
0.0
220
0.0
230
1.0
 70
     8
 71
     3
 72
    38
 73
    34
 74
     0
 42
0.000000001
 43
0.00000001
 40
0.0
 40
0.0
 40
0.0
 40
0.0
 40
0.0625
 40
0.0625
 40
0.125
 40
0.125
 40
0.1875
 40
0.1875
 40
0.25
 40
0.25
 40
0.3125
 40
0.3125
 40
0.375
 40
0.375
 40
0.4375
 40
0.4375
 40
0.5
 40
0.5
 40
0.5625
 40
0.5625
 40
0.625
 40
0.625
 40
0.6875
 40
0.6875
 40
0.75
 40
0.75
 40
0.8125
 40
0.8125
 40
0.875
 40
0.875
 40
0.9375
 40
0.9375
 40
1.0
 40
1.0
 40
1.0
 40
1.0
 10
28.57500000000001
 20
-1.18624658553841
 30
0.0
 10
28.42844642802721
 20
-1.178922330120523
 30
0.0
 10
28.277687771727
 20
-1.162248237348775
 30
0.0
 10
27.97817847105912
 20
-1.110970095065074
 30
0.0
 10
27.83218453767467
 20
-1.076686135497545
 30
0.0
 10
27.53412803350613
 20
-0.9914734017927357
 30
0.0
 10
27.38289529800072
 20
-0.9404821257570386
 30
0.0
 10
27.08654599686988
 20
-0.8253648773603103
 30
0.0
 10
26.93928149566378
 20
-0.7610545450789824
 30
0.0
 10
26.6393847779022
 20
-0.6207544711057519
 30
0.0
 10
26.49135609362933
 20
-0.5454789793245634
 30
0.0
 10
26.19580058394513
 20
-0.3877556424794599
 30
0.0
 10
26.04464388752307
 20
-0.3046294071119284
 30
0.0
 10
25.74608056730267
 20
-0.1355781825223898
 30
0.0
 10
25.60029041314097
 20
-0.0499985727298209
 30
0.0
 10
25.30107625667054
 20
0.1220634631039822
 30
0.0
 10
25.15013194507536
 20
0.2080532577093664
 30
0.0
 10
24.85602887527357
 20
0.374018600652149
 30
0.0
 10
24.70643485594455
 20
0.4552053463833734
 30
0.0
 10
24.40671169687754
 20
0.6092761821224432
 30
0.0
 10
24.26035873854942
 20
0.6815506992051147
 30
0.0
 10
23.96288902401963
 20
0.8151766111505725
 30
0.0
 10
23.81162222340805
 20
0.8764495834002068
 30
0.0
 10
23.51455757239225
 20
0.9836667094632102
 30
0.0
 10
23.36790314975771
 20
1.029823391728235
 30
0.0
 10
23.06808806903963
 20
1.105990388932987
 30
0.0
 10
22.91914178211876
 20
1.135565883275731
 30
0.0
 10
22.62445779677408
 20
1.176538915511298
 30
0.0
 10
22.47341904236131
 20
1.188118585519665
 30
0.0
 10
22.17442933656177
 20
1.192395846697107
 30
0.0
 10
22.02868753258197
 20
1.185257745575085
 30
0.0
 10
21.72984953889211
 20
1.1525343500075
 30
0.0
 10
21.57876127671256
 20
1.126852150324559
 30
0.0
 10
21.43125000000321
 20
1.092855010706708
 30
0.0
1001
PE_URL
1000

  0
SPLINE
  5
A7
330
1F
100
AcDbEntity
  8
0
  6
Continuous
 62
     1
370
    25
100
AcDbSpline
210
0.0
220
0.0
230
1.0
 70
     8
 71
     3
 72
    12
 73
     8
 74
     0
 42
0.000000001
 43
0.00000001
 40
0.0
 40
0.0
 40
0.0
 40
0.0
 40
0.2358980093895437
 40
0.4718040920666336
 40
0.7076201030012745
 40
0.9433609603056136
 40
1.0
 40
1.0
 40
1.0
 40
1.0
 10
21.43125000000321
 20
-0.8629191186795486
 30
0.0
 10
21.65368636792427
 20
-0.9424730533952587
 30
0.0
 10
22.09856671634762
 20
-1.101583645451563
 30
0.0
 10
22.76583185853338
 20
-1.204009605912897
 30
0.0
 10
23.43287309110472
 20
-1.18027035442811
 30
0.0
 10
23.93086980806938
 20
-1.091764368770106
 30
0.0
 10
24.20651494247931
 20
-0.9866658272067905
 30
0.0
 10
24.25991216940794
 20
-0.9663064231282924
 30
0.0
1001
PE_URL
1000

  0
SPLINE
  5
A8
330
1F
100
AcDbEntity
  8
외형선
  6
Continuous
370
    15
100
AcDbSpline
210
0.0
220
0.0
230
1.0
 70
    24
 71
     3
 72
    20
 73
    16
 74
     0
 42
0.000000001
 43
0.00000001
 40
0.0
 40
0.0
 40
0.0
 40
0.0
 40
0.125
 40
0.125
 40
0.2499999999999999
 40
0.2499999999999999
 40
0.4999999999999999
 40
0.4999999999999999
 40
0.6249999999999999
 40
0.6249999999999999
 40
0.7499999999999999
 40
0.7499999999999999
 40
0.875
 40
0.875
 40
1.0
 40
1.0
 40
1.0
 40
1.0
 10
21.43125000000001
 20
0.4724995409520034
 30
0.0
 10
21.43125000000001
 20
0.4665643608302923
 30
0.0
 10
21.43125
 20
0.4544316702357103
 30
0.0
 10
21.43125
 20
0.4244536666803221
 30
0.0
 10
21.43125000000003
 20
0.4035669282029298
 30
0.0
 10
21.43125000000003
 20
0.3144782963406807
 30
0.0
 10
21.43125
 20
0.2167627845579281
 30
0.0
 10
21.43125000000002
 20
-0.0030288840009411
 30
0.0
 10
21.43125000000001
 20
-0.0878549379768506
 30
0.0
 10
21.43125
 20
-0.2685187843354514
 30
0.0
 10
21.43125000000001
 20
-0.3640441985616593
 30
0.0
 10
21.43125000000001
 20
-0.5441750352144723
 30
0.0
 10
21.43125000000002
 20
-0.6282591021323956
 30
0.0
 10
21.43125000000002
 20
-0.7677802215262547
 30
0.0
 10
21.43125000000001
 20
-0.8231469315864425
 30
0.0
 10
21.43125000000002
 20
-0.8629191186782702
 30
0.0
  0
SPLINE
  5
A9
330
1F
100
AcDbEntity
  8
0
  6
Continuous
 62
     1
370
    25
100
AcDbSpline
210
0.0
220
0.0
230
1.0
 70
     8
 71
     3
 72
    14
 73
    10
 74
     0
 42
0.000000001
 43
0.00000001
 40
0.0
 40
0.0
 40
0.0
 40
0.0
 40
0.0663886551696009
 40
0.2296810135627334
 40
0.3835902217057685
 40
0.5375299540003851
 40
0.6915552969964125
 40
0.8457205442449854
 40
1.0
 40
1.0
 40
1.0
 40
1.0
 10
25.51179722616803
 20
-1.175654130776728
 30
0.0
 10
25.42149426095263
 20
-1.179338823180121
 30
0.0
 10
25.10907828377387
 20
-1.192086541652744
 30
0.0
 10
24.58728103006269
 20
-1.086095115087784
 30
0.0
 10
23.94662654111177
 20
-0.8780969623842326
 30
0.0
 10
23.31849206230404
 20
-0.5861943229649523
 30
0.0
 10
22.68995764230464
 20
-0.2428521941749943
 30
0.0
 10
22.06082973774037
 20
0.1265529247269115
 30
0.0
 10
21.64116170972041
 20
0.3571555402946591
 30
0.0
 10
21.43125000000321
 20
0.4724995409503007
 30
0.0
1001
PE_URL
1000

  0
LINE
  5
AA
330
1F
100
AcDbEntity
  8
0
  6
Continuous
 62
     1
370
    25
100
AcDbLine
 10
28.57500000000001
 20
-1.078326856457623
 30
0.0
 11
28.57500000000001
 21
0.102014356457637
 31
0.0
1001
PE_URL
1000

  0
SPLINE
  5
AB
330
1F
100
AcDbEntity
  8
0
  6
Continuous
 62
     1
370
    25
100
AcDbSpline
210
0.0
220
0.0
230
1.0
 70
     8
 71
     3
 72
    16
 73
    12
 74
     0
 42
0.000000001
 43
0.00000001
 40
0.0
 40
0.0
 40
0.0
 40
0.0
 40
0.077759654796338
 40
0.1973329600562574
 40
0.3168759280160858
 40
0.4363964367577773
 40
0.5490411481380447
 40
0.6616835884169215
 40
0.7743642436911856
 40
0.8871232451530597
 40
1.0
 40
1.0
 40
1.0
 40
1.0
 10
22.99929832519141
 20
1.176506308747105
 30
0.0
 10
23.14384686708809
 20
1.177008859475384
 30
0.0
 10
23.51067194776773
 20
1.178284197220255
 30
0.0
 10
24.09967075501667
 20
1.040214309597937
 30
0.0
 10
24.76624928410504
 20
0.7944488040801314
 30
0.0
 10
25.41998635886637
 20
0.4678472211180975
 30
0.0
 10
26.06065945736249
 20
0.1043194133688529
 30
0.0
 10
26.68866808045829
 20
-0.2624378784993635
 30
0.0
 10
27.31692237215725
 20
-0.6030620351554101
 30
0.0
 10
27.94569069353507
 20
-0.895330403663539
 30
0.0
 10
28.36515726164387
 20
-1.017306820095087
 30
0.0
 10
28.57500000000002
 20
-1.078326856457623
 30
0.0
1001
PE_URL
1000

  0
SPLINE
  5
AC
330
1F
100
AcDbEntity
  8
0
  6
Continuous
 62
     1
370
    25
100
AcDbSpline
210
0.0
220
0.0
230
1.0
 70
     8
 71
     3
 72
    14
 73
    10
 74
     0
 42
0.000000001
 43
0.00000001
 40
0.0
 40
0.0
 40
0.0
 40
0.0
 40
0.1546235933528448
 40
0.3091884423810156
 40
0.463704456442893
 40
0.6181816981809445
 40
0.7726303525619838
 40
0.9270606950985482
 40
1.0
 40
1.0
 40
1.0
 40
1.0
 10
28.57500000000001
 20
0.1020143564576369
 30
0.0
 10
28.35255388991619
 20
0.2288334625454633
 30
0.0
 10
27.90774618108496
 20
0.4824234938285283
 30
0.0
 10
27.2407129231128
 20
0.8101100058615514
 30
0.0
 10
26.57392957926885
 20
1.054194831485864
 30
0.0
 10
25.90734209254484
 20
1.190188166421811
 30
0.0
 10
25.2409239985113
 20
1.197880873579424
 30
0.0
 10
24.69172324046015
 20
1.117500761084098
 30
0.0
 10
24.36479082562495
 20
1.003028638132611
 30
0.0
 10
24.25991216940795
 20
0.9663064231282918
 30
0.0
1001
PE_URL
1000

  0
LINE
  5
AD
330
1F
100
AcDbEntity
  8
외형선
  6
Continuous
370
    15
100
AcDbLine
 10
21.43125000000003
 20
0.4724995409520018
 30
0.0
 11
21.43125000000001
 21
0.8203404691008037
 31
0.0
  0
LINE
  5
AE
330
1F
100
AcDbEntity
  8
0
  6
Continuous
 62
     1
370
    25
100
AcDbLine
 10
28.57500000000001
 20
-1.18624658553841
 30
0.0
 11
28.57500000000001
 21
-1.078326856457623
 31
0.0
1001
PE_URL
1000

  0
SPLINE
  5
AF
330
1F
100
AcDbEntity
  8
0
  6
Continuous
 62
     1
370
    25
100
AcDbSpline
210
0.0
220
0.0
230
1.0
 70
     8
 71
     3
 72
    11
 73
     7
 74
     0
 42
0.000000001
 43
0.00000001
 40
0.0
 40
0.0
 40
0.0
 40
0.0
 40
0.1928458936763408
 40
0.4616790052072859
 40
0.7306990347974186
 40
1.0
 40
1.0
 40
1.0
 40
1.0
 10
26.23800670090142
 20
1.179457547947523
 30
0.0
 10
26.38820381701548
 20
1.178443592490193
 30
0.0
 10
26.74778033602044
 20
1.176016151916061
 30
0.0
 10
27.31692325926454
 20
1.044406187361518
 30
0.0
 10
27.94569047142373
 20
0.8204139007597695
 30
0.0
 10
28.365157187581
 20
0.6100254113494603
 30
0.0
 10
28.57500000000002
 20
0.5047762685261789
 30
0.0
1001
PE_URL
1000

  0
LINE
  5
B0
330
1F
100
AcDbEntity
  8
0
  6
Continuous
 62
     1
370
    25
100
AcDbLine
 10
28.57500000000001
 20
0.1020143564576369
 30
0.0
 11
28.57500000000001
 21
0.5047762685261787
 31
0.0
1001
PE_URL
1000

  0
SPLINE
  5
B1
330
1F
100
AcDbEntity
  8
0
  6
Continuous
 62
     1
370
    25
100
AcDbSpline
210
0.0
220
0.0
230
1.0
 70
     8
 71
     3
 72
     9
 73
     5
 74
     0
 42
0.000000001
 43
0.00000001
 40
0.0
 40
0.0
 40
0.0
 40
0.0
 40
0.6205064303692545
 40
1.0
 40
1.0
 40
1.0
 40
1.0
 10
28.57500000000001
 20
1.18624658553841
 30
0.0
 10
28.35255232984991
 20
1.166659267120684
 30
0.0
 10
27.99405859108604
 20
1.13509260244314
 30
0.0
 10
27.63560550365563
 20
1.012241660739621
 30
0.0
 10
27.49957486196151
 20
0.9656205183400544
 30
0.0
1001
PE_URL
1000

  0
SPLINE
  5
B2
330
1F
100
AcDbEntity
  8
0
  6
Continuous
 62
     1
370
    25
100
AcDbSpline
210
0.0
220
0.0
230
1.0
 70
     8
 71
     3
 72
     9
 73
     5
 74
     0
 42
0.000000001
 43
0.00000001
 40
0.0
 40
0.0
 40
0.0
 40
0.0
 40
0.2522167549239608
 40
1.0
 40
1.0
 40
1.0
 40
1.0
 10
22.27333097314902
 20
-1.178281177395618
 30
0.0
 10
22.20254443898097
 20
-1.18183860861317
 30
0.0
 10
21.92188689825024
 20
-1.195943267197905
 30
0.0
 10
21.64116736416084
 20
-1.136960978186025
 30
0.0
 10
21.43125000000321
 20
-1.092855010706708
 30
0.0
1001
PE_URL
1000

  0
LINE
  5
B3
330
1F
100
AcDbEntity
  8
0
  6
Continuous
 62
     1
370
    25
100
AcDbLine
 10
28.57500000000001
 20
0.5047762685261787
 30
0.0
 11
28.57500000000001
 21
1.18624658553841
 31
0.0
1001
PE_URL
1000

  0
LINE
  5
B4
330
1F
100
AcDbEntity
  8
외형선
  6
Continuous
370
    15
100
AcDbLine
 10
21.43125000000003
 20
-1.092855010705971
 30
0.0
 11
21.43125000000001
 21
-0.8629191186782772
 31
0.0
  0
LINE
  5
B5
330
1F
100
AcDbEntity
  8
외형선
  6
Continuous
370
    15
100
AcDbLine
 10
20.43125000000001
 20
0.0
 30
0.0
 11
20.43125000000001
 21
1.190624999999999
 31
0.0
  0
LINE
  5
B6
330
1F
100
AcDbEntity
  8
외형선
  6
Continuous
370
    15
100
AcDbLine
 10
20.43125000000001
 20
-1.190624999999999
 30
0.0
 11
20.43125000000001
 21
0.0
 31
0.0
  0
LINE
  5
B7
330
1F
100
AcDbEntity
  8
외형선
  6
Continuous
370
    15
100
AcDbLine
 10
15.9877770072383
 20
0.0
 30
0.0
 11
15.9877770072383
 21
2.381250000000006
 31
0.0
  0
LINE
  5
B8
330
1F
100
AcDbEntity
  8
외형선
  6
Continuous
370
    15
100
AcDbLine
 10
15.9877770072383
 20
-2.381250000000007
 30
0.0
 11
15.9877770072383
 21
0.0
 31
0.0
  0
SPLINE
  5
BD
330
1F
100
AcDbEntity
  8
외형선
  6
Continuous
370
    15
100
AcDbSpline
210
0.0
220
0.0
230
1.0
 70
     8
 71
     3
 72
     9
 73
     5
 74
     0
 42
0.000000001
 43
0.00000001
 40
0.0
 40
0.0
 40
0.0
 40
0.0
 40
0.6706550364099421
 40
1.0
 40
1.0
 40
1.0
 40
1.0
 10
21.43125000000321
 20
1.092855010706704
 30
0.0
 10
21.33847013106061
 20
1.070044890450312
 30
0.0
 10
21.20012796719758
 20
1.036033186939524
 30
0.0
 10
21.06137389607155
 20
0.9898993143426498
 30
0.0
 10
21.01567594156857
 20
0.9747053557519639
 30
0.0
  0
LINE
  5
BE
330
1F
100
AcDbEntity
  8
외형선
  6
Continuous
370
    15
100
AcDbLine
 10
20.931167646809
 20
1.003558893908777
 30
0.0
 11
20.931167646809
 21
1.190625
 31
0.0
  0
SPLINE
  5
BF
330
1F
100
AcDbEntity
  8
외형선
  6
Continuous
370
    15
100
AcDbSpline
210
0.0
220
0.0
230
1.0
 70
     8
 71
     3
 72
     8
 73
     4
 74
     0
 42
0.000000001
 43
0.00000001
 40
0.0
 40
0.0
 40
0.0
 40
0.0
 40
1.0
 40
1.0
 40
1.0
 40
1.0
 10
21.43125000000321
 20
0.8203404690994411
 30
0.0
 10
21.26600027388032
 20
0.8898951889403821
 30
0.0
 10
21.09893937621646
 20
0.9516567297473895
 30
0.0
 10
20.93116764680903
 20
1.003558201486848
 30
0.0
  0
SPLINE
  5
C0
330
1F
100
AcDbEntity
  8
외형선
  6
Continuous
370
    15
100
AcDbSpline
210
0.0
220
0.0
230
1.0
 70
     8
 71
     3
 72
     8
 73
     4
 74
     0
 42
0.000000001
 43
0.00000001
 40
0.0
 40
0.0
 40
0.0
 40
0.0
 40
1.0
 40
1.0
 40
1.0
 40
1.0
 10
21.43125000000321
 20
0.4724995409503106
 30
0.0
 10
21.26600027388034
 20
0.5605880100211814
 30
0.0
 10
21.09893937621645
 20
0.6443622334801101
 30
0.0
 10
20.931167646809
 20
0.7211129478109992
 30
0.0
  0
LINE
  5
C1
330
1F
100
AcDbEntity
  8
외형선
  6
Continuous
370
    15
100
AcDbLine
 10
20.931167646809
 20
-0.6406695225165526
 30
0.0
 11
20.93116764680901
 21
0.7211078682674054
 31
0.0
  0
SPLINE
  5
C2
330
1F
100
AcDbEntity
  8
외형선
  6
Continuous
370
    15
100
AcDbSpline
210
0.0
220
0.0
230
1.0
 70
     8
 71
     3
 72
     8
 73
     4
 74
     0
 42
0.000000001
 43
0.00000001
 40
0.0
 40
0.0
 40
0.0
 40
0.0
 40
1.0
 40
1.0
 40
1.0
 40
1.0
 10
21.43125000000321
 20
-0.8629191186795577
 30
0.0
 10
21.26600027388032
 20
-0.7967964076777326
 30
0.0
 10
21.09893937621646
 20
-0.7219700253637229
 30
0.0
 10
20.93116764680903
 20
-0.6406706071402672
 30
0.0
  0
SPLINE
  5
C3
330
1F
100
AcDbEntity
  8
외형선
  6
Continuous
370
    15
100
AcDbSpline
210
0.0
220
0.0
230
1.0
 70
     8
 71
     3
 72
     8
 73
     4
 74
     0
 42
0.000000001
 43
0.00000001
 40
0.0
 40
0.0
 40
0.0
 40
0.0
 40
1.0
 40
1.0
 40
1.0
 40
1.0
 10
21.43125000000321
 20
-1.092855010706704
 30
0.0
 10
21.26600027388034
 20
-1.054769664717316
 30
0.0
 10
21.09893937621645
 20
-1.005827301708261
 30
0.0
 10
20.931167646809
 20
-0.9474091023018176
 30
0.0
  0
LINE
  5
C4
330
1F
100
AcDbEntity
  8
외형선
  6
Continuous
370
    15
100
AcDbLine
 10
20.931167646809
 20
-1.190625
 30
0.0
 11
20.93116764680901
 21
-0.9474129685347582
 31
0.0
  0
LINE
  5
C5
330
1F
100
AcDbEntity
  8
외형선
  6
Continuous
370
    15
100
AcDbLine
 10
20.93116764680903
 20
-1.003558201486848
 30
0.0
 11
21.01567594156857
 21
-0.9747053557519642
 31
0.0
  0
SPLINE
  5
C6
330
1F
100
AcDbEntity
  8
외형선
  6
Continuous
370
    15
100
AcDbSpline
210
0.0
220
0.0
230
1.0
 70
    24
 71
     3
 72
    20
 73
    16
 74
     0
 42
0.000000001
 43
0.00000001
 40
0.0
 40
0.0
 40
0.0
 40
0.0
 40
0.125
 40
0.125
 40
0.2499999999999999
 40
0.2499999999999999
 40
0.3749999999999999
 40
0.3749999999999999
 40
0.4999999999999999
 40
0.4999999999999999
 40
0.75
 40
0.75
 40
0.875
 40
0.875
 40
1.0
 40
1.0
 40
1.0
 40
1.0
 10
21.43125000000001
 20
-0.8629191186782684
 30
0.0
 10
21.43125000000001
 20
-0.8231469315864238
 30
0.0
 10
21.43125000000002
 20
-0.7677802215262046
 30
0.0
 10
21.43125000000003
 20
-0.6282591021322603
 30
0.0
 10
21.43125000000001
 20
-0.5441750352142843
 30
0.0
 10
21.43125000000003
 20
-0.3640441985613729
 30
0.0
 10
21.43125
 20
-0.2685187843351214
 30
0.0
 10
21.43125
 20
-0.0878549379764674
 30
0.0
 10
21.43125000000001
 20
-0.0030288840005482
 30
0.0
 10
21.43125
 20
0.2167627845583016
 30
0.0
 10
21.43125000000001
 20
0.314478296340984
 30
0.0
 10
21.43125000000001
 20
0.4035669282031331
 30
0.0
 10
21.43125
 20
0.4244536666804924
 30
0.0
 10
21.43125
 20
0.4544316702358213
 30
0.0
 10
21.43125000000002
 20
0.4665643608303995
 30
0.0
 10
21.43125000000001
 20
0.4724995409520688
 30
0.0
  0
SPLINE
  5
C7
330
1F
100
AcDbEntity
  8
외형선
  6
Continuous
370
    15
100
AcDbSpline
210
0.0
220
0.0
230
1.0
 70
    24
 71
     3
 72
    10
 73
     6
 74
     0
 42
0.000000001
 43
0.00000001
 40
0.0
 40
0.0
 40
0.0
 40
0.0
 40
0.4283679180678198
 40
0.9294772363139097
 40
1.0
 40
1.0
 40
1.0
 40
1.0
 10
21.43125
 20
0.8596152772524128
 30
0.0
 10
21.43125
 20
0.8915135736596425
 30
0.0
 10
21.43125000000001
 20
0.9607268343572367
 30
0.0
 10
21.4312499999999
 20
1.04104458261923
 30
0.0
 10
21.43125
 20
1.087165083111365
 30
0.0
 10
21.43125000000001
 20
1.092855010706571
 30
0.0
  0
LINE
  5
C8
330
1F
100
AcDbEntity
  8
중심선
 62
     1
100
AcDbLine
 10
-31.575
 20
-0.0000000000000039
 30
0.0
 11
31.575
 21
0.0000000000000039
 31
0.0
  0
LINE
  5
C9
330
1F
100
AcDbEntity
  8
참조1
100
AcDbLine
 10
-0.0000000000000018
 20
-0.0000000000000039
 30
0.0
 11
0.0000000000000053
 21
-40.00000000000001
 31
0.0
  0
LINE
  5
CA
330
1F
100
AcDbEntity
  8
참조1
100
AcDbLine
 10
0.0000000000000053
 20
-40.00000000000001
 30
0.0
 11
-18.33385681430867
 21
-40.0
 31
0.0
  0
CIRCLE
  5
CB
330
1F
100
AcDbEntity
  8
해칭선
100
AcDbCircle
 10
0.0
 20
0.0
 30
0.0
 40
3.000000000000001
  0
INSERT
  5
CC
330
1F
100
AcDbEntity
  8
0
  6
Continuous
 62
     7
100
AcDbBlockReference
 66
     1
  2
블럭10
 10
-13.9402729321252
 20
-52.04717430164393
 30
0.0
  0
ATTRIB
  5
CD
330
CC
100
AcDbEntity
  8
FORMAT
 62
     2
100
AcDbText
 10
-23.12156822086648
 20
-49.97180738881174
 30
0.0
 40
4.233333333333333
  1
E2004006 [ 4 FLUTE ]
 41
0.75
  7
SLDTEXTSTYLE0
 11
-23.12156822086648
 21
-52.08847405547841
 31
0.0
100
AcDbAttribute
  2
AUTOATTR0
 70
     0
 74
     1
  0
SEQEND
  5
CE
330
CC
100
AcDbEntity
  8
0
  6
Continuous
 62
     7
  0
HATCH
  5
CF
330
1F
100
AcDbEntity
  8
중심선
100
AcDbHatch
 10
0.0
 20
0.0
 30
0.0
210
0.0
220
0.0
230
1.0
  2
SOLID
 70
     1
 71
     0
 91
        1
 92
        0
 93
        4
 72
     1
 10
-8.22536362774435
 20
-35.8
 11
-11.67163887158163
 21
-35.8
 72
     1
 10
-11.67163887158163
 20
-35.8
 11
-13.79986873078565
 21
-38.3363255805726
 72
     1
 10
-13.79986873078565
 20
-38.3363255805726
 11
-10.35356040183522
 21
-38.33628615127011
 72
     1
 10
-10.35356040183522
 20
-38.33628615127011
 11
-8.22536362774435
 21
-35.8
 97
        0
 75
     0
 76
     1
 98
        1
 10
10.91911934298439
 20
-0.0010749287238931
  0
HATCH
  5
D0
330
1F
100
AcDbEntity
  8
중심선
100
AcDbHatch
 10
0.0
 20
0.0
 30
0.0
210
0.0
220
0.0
230
1.0
  2
SOLID
 70
     1
 71
     0
 91
        1
 92
        0
 93
        4
 72
     1
 10
-3.21259963670837
 20
-35.80000000000003
 11
-6.658874880545653
 21
-35.79999999999998
 72
     1
 10
-6.658874880545653
 20
-35.79999999999998
 11
-11.19001288890307
 21
-41.20000000000002
 72
     1
 10
-11.19001288890307
 20
-41.20000000000002
 11
-7.743737645065789
 21
-41.20000000000002
 72
     1
 10
-7.743737645065789
 20
-41.20000000000002
 11
-3.21259963670837
 21
-35.80000000000003
 97
        0
 75
     0
 76
     1
 98
        1
 10
10.91911934298439
 20
-0.0010749287238931
  0
HATCH
  5
D1
330
1F
100
AcDbEntity
  8
중심선
100
AcDbHatch
 10
0.0
 20
0.0
 30
0.0
210
0.0
220
0.0
230
1.0
  2
SOLID
 70
     1
 71
     0
 91
        1
 92
        0
 93
        4
 72
     1
 10
1.800164354327524
 20
-35.8
 11
-1.646110889509592
 21
-35.8
 72
     1
 10
-1.646110889509592
 20
-35.8
 11
-8.694547791398868
 21
-44.20000000000002
 72
     1
 10
-8.694547791398868
 20
-44.20000000000002
 11
-5.248272547561587
 21
-44.20000000000002
 72
     1
 10
-5.248272547561587
 20
-44.20000000000002
 11
1.800164354327524
 21
-35.8
 97
        0
 75
     0
 76
     1
 98
        1
 10
10.91911934298439
 20
-0.0010749287238931
  0
HATCH
  5
D2
330
1F
100
AcDbEntity
  8
중심선
100
AcDbHatch
 10
0.0
 20
0.0
 30
0.0
210
0.0
220
0.0
230
1.0
  2
SOLID
 70
     1
 71
     0
 91
        1
 92
        0
 93
        6
 72
     3
 10
6.600054785339696
 20
-40.00000000005127
 11
3.960054785062283
 21
1.540882976769353E-10
 40
0.3939339440162628
 50
17.09539180608436
 51
320.0019657685075
 73
     0
 72
     1
 10
8.283054441040292
 20
-38.58789400463827
 11
10.58835631474136
 21
-36.65356729459038
 72
     3
 10
6.600054785286849
 20
-40.00000000000015
 11
6.600054785286829
 21
-1.278976924368180E-13
 40
0.636358354079598
 50
39.99873849337385
 51
368.4976242363724
 73
     1
 72
     1
 10
13.02538727718746
 20
-39.03999999993002
 11
5.280122092122772
 21
-39.03999999993002
 72
     1
 10
5.280122092122772
 20
-39.03999999993002
 11
5.280097047676838
 21
-40.95999999992991
 72
     1
 10
5.280097047676838
 20
-40.95999999992991
 11
9.721476817148876
 21
-40.95999999992988
 97
        0
 75
     0
 76
     1
 98
        1
 10
10.91911934298439
 20
-0.0010749287238931
  0
DIMENSION
  5
D3
330
1F
100
AcDbEntity
  8
치수문자_일반주서
100
AcDbDimension
  2
_D
 10
57.22576501078281
 20
-1.186246585538303
 30
0.0
 11
57.22576501078275
 21
16.75312500000007
 31
0.0
 70
   160
  1
%%c<>
 71
     2
 42
2.372493171076821
 52
-270.0
  3
SLDDIMSTYLE0
100
AcDbAlignedDimension
 13
28.57500000000001
 23
1.18624658553841
 33
0.0
 14
28.57500000000001
 24
-1.18624658553841
 34
0.0
 50
90.0000000000002
100
AcDbRotatedDimension
1001
PE_URL
1000

1001
ACAD
1000
DSTYLE
1002
{
1070
   171
1070
     8
1070
   273
1070
     7
1070
    41
1040
2.5
1070
   140
1040
2.5
1002
}
  0
DIMENSION
  5
E8
330
1F
100
AcDbEntity
  8
치수문자_일반주서
100
AcDbDimension
  2
_D_1
 10
21.43125000000003
 20
10.38125
 30
0.0
 11
42.88750000000001
 21
10.38125
 31
0.0
 70
   160
  1
<>
 71
     2
 42
7.143749999999983
  3
SLDDIMSTYLE0
100
AcDbAlignedDimension
 13
28.57500000000001
 23
1.18624658553841
 33
0.0
 14
21.43125000000003
 24
1.092855010705971
 34
0.0
100
AcDbRotatedDimension
1001
PE_URL
1000

1001
ACAD
1000
DSTYLE
1002
{
1070
   171
1070
     8
1070
   273
1070
     7
1070
    41
1040
2.5
1070
   140
1040
2.5
1002
}
  0
DIMENSION
  5
FD
330
1F
100
AcDbEntity
  8
치수문자_일반주서
100
AcDbDimension
  2
_D_2
 10
-28.57500000000002
 20
18.38125
 30
0.0
 11
-1.4581794861211
 21
18.38125
 31
0.0
 70
   160
  1
<>
 71
     2
 42
57.15000000000003
  3
SLDDIMSTYLE0
100
AcDbAlignedDimension
 13
28.57500000000001
 23
1.18624658553841
 33
0.0
 14
-28.57500000000002
 24
1.186246585538429
 34
0.0
100
AcDbRotatedDimension
1001
PE_URL
1000

1001
ACAD
1000
DSTYLE
1002
{
1070
   171
1070
     8
1070
   273
1070
     7
1070
    41
1040
2.5
1070
   140
1040
2.5
1002
}
  0
DIMENSION
  5
111
330
1F
100
AcDbEntity
  8
치수문자_일반주서
100
AcDbDimension
  2
_D_3
 10
-36.57500000000004
 20
-2.381250000000087
 30
0.0
 11
-36.5750000000001
 21
17.63124999999993
 31
0.0
 70
   160
  1
%%c<>
 71
     2
 42
4.762500000000012
 52
-270.0
  3
SLDDIMSTYLE0
100
AcDbAlignedDimension
 13
-15.98777700723831
 23
2.381250000000003
 33
0.0
 14
-15.98777700723831
 24
-2.381250000000008
 34
0.0
 50
90.0000000000002
100
AcDbRotatedDimension
1001
PE_URL
1000

1001
ACAD
1000
DSTYLE
1002
{
1070
   171
1070
     8
1070
   273
1070
     7
1070
    41
1040
2.5
1070
   140
1040
2.5
1002
}
  0
LINE
  5
125
330
1F
100
AcDbEntity
  8
참조1
100
AcDbLine
 10
79.6384838153456
 20
7.440000000000002
 30
0.0
 11
79.6384838153456
 21
-7.440000000000002
 31
0.0
  0
LINE
  5
126
330
1F
100
AcDbEntity
  8
참조1
100
AcDbLine
 10
92.3384838153456
 20
5.440000000000002
 30
0.0
 11
79.6384838153456
 21
5.440000000000002
 31
0.0
  0
SOLID
  5
127
330
1F
100
AcDbEntity
  8
참조1
100
AcDbTrace
 10
79.6384838153456
 20
5.440000000000002
 30
0.0
 11
85.98848381534559
 21
4.424000000000002
 31
0.0
 12
85.98848381534559
 22
6.456000000000002
 32
0.0
 13
85.98848381534559
 23
6.456000000000002
 33
0.0
  0
LINE
  5
128
330
1F
100
AcDbEntity
  8
참조1
100
AcDbLine
 10
92.3384838153456
 20
-5.440000000000002
 30
0.0
 11
79.6384838153456
 21
-5.440000000000002
 31
0.0
  0
SOLID
  5
129
330
1F
100
AcDbEntity
  8
참조1
100
AcDbTrace
 10
79.6384838153456
 20
-5.440000000000002
 30
0.0
 11
85.98848381534559
 21
-6.456000000000002
 31
0.0
 12
85.98848381534559
 22
-4.424000000000002
 32
0.0
 13
85.98848381534559
 23
-4.424000000000002
 33
0.0
  0
MTEXT
  5
12A
330
1F
100
AcDbEntity
  8
참조1
100
AcDbMText
 10
89.02283394797159
 20
11.01029177718833
 30
0.0
 40
3.5
 41
0.0
 71
     1
 72
     1
  1
A
  7
SLDTEXTSTYLE0
 73
     1
 44
1.0
  0
MTEXT
  5
12B
330
1F
100
AcDbEntity
  8
참조1
100
AcDbMText
 10
89.02283394797159
 20
0.1302917771883287
 30
0.0
 40
3.5
 41
0.0
 71
     1
 72
     1
  1
A
  7
SLDTEXTSTYLE0
 73
     1
 44
1.0
  0
INSERT
  5
132
330
1F
100
AcDbEntity
  8
해칭선
100
AcDbBlockReference
  2
SW_DOWELSYMBOL_0
 10
0.0
 20
0.0
 30
0.0
  0
LINE
  5
1E1
330
1F
100
AcDbEntity
  8
0
  6
Continuous
 62
     1
370
    25
100
AcDbLine
 10
-28.15057938354116
 20
-0.3423093362241773
 30
0.0
 11
-28.12426856496559
 21
-0.3565633326258088
 31
0.0
1001
PE_URL
1000

  0
LINE
  5
1E2
330
1F
100
AcDbEntity
  8
0
  6
Continuous
 62
     1
370
    25
100
AcDbLine
 10
-26.76461991961641
 20
0.3026414294839095
 30
0.0
 11
-26.86755004453546
 21
0.357316736320348
 31
0.0
1001
PE_URL
1000

  0
LINE
  5
1E3
330
1F
100
AcDbEntity
  8
0
  6
Continuous
 62
     1
370
    25
100
AcDbLine
 10
-25.51179722616804
 20
1.190625000000013
 30
0.0
 11
-26.23800670090142
 21
1.190625000000015
 31
0.0
1001
PE_URL
1000

  0
LINE
  5
1E4
330
1F
100
AcDbEntity
  8
0
  6
Continuous
 62
     1
370
    25
100
AcDbLine
 10
-22.99929832519143
 20
-1.190624999999992
 30
0.0
 11
-22.27333097314904
 21
-1.190624999999992
 31
0.0
1001
PE_URL
1000

  0
LINE
  5
1E5
330
1F
100
AcDbEntity
  8
0
  6
Continuous
 62
     1
370
    25
100
AcDbLine
 10
-26.23800670090144
 20
-1.190624999999985
 30
0.0
 11
-25.51179722616806
 21
-1.190624999999986
 31
0.0
1001
PE_URL
1000

  0
LINE
  5
1E6
330
1F
100
AcDbEntity
  8
0
  6
Continuous
 62
     1
370
    25
100
AcDbLine
 10
-22.27333097314904
 20
1.190625000000008
 30
0.0
 11
-22.99929832519141
 21
1.19062500000001
 31
0.0
1001
PE_URL
1000

  0
LINE
  5
1E7
330
1F
100
AcDbEntity
  8
외형선
  6
Continuous
370
    15
100
AcDbLine
 10
-15.98777700723831
 20
2.381250000000004
 30
0.0
 11
-20.43125000000002
 21
1.190625000000004
 31
0.0
  0
LINE
  5
1E8
330
1F
100
AcDbEntity
  8
외형선
  6
Continuous
370
    15
100
AcDbLine
 10
-20.43125000000002
 20
-1.190624999999995
 30
0.0
 11
-15.98777700723831
 21
-2.381250000000008
 31
0.0
  0
LINE
  5
1E9
330
1F
100
AcDbEntity
  8
외형선
  6
Continuous
370
    15
100
AcDbLine
 10
-20.43125000000002
 20
1.190625000000004
 30
0.0
 11
-20.93116764680902
 21
1.190625000000006
 31
0.0
  0
LINE
  5
1EA
330
1F
100
AcDbEntity
  8
외형선
  6
Continuous
370
    15
100
AcDbLine
 10
-20.93116764680902
 20
-1.190624999999993
 30
0.0
 11
-20.43125000000002
 21
-1.190624999999995
 31
0.0
  0
SPLINE
  5
1EB
330
1F
100
AcDbEntity
  8
0
  6
Continuous
 62
     1
370
    25
100
AcDbSpline
210
0.0
220
0.0
230
1.0
 70
     8
 71
     3
 72
    17
 73
    13
 74
     0
 42
0.000000001
 43
0.00000001
 40
0.0
 40
0.0
 40
0.0
 40
0.0
 40
0.109944022628153
 40
0.2198918079404862
 40
0.3297976138833655
 40
0.439668393280442
 40
0.5495112970342172
 40
0.6593335639761556
 40
0.7628379557583006
 40
0.8663402607228292
 40
0.9698776798068405
 40
1.0
 40
1.0
 40
1.0
 40
1.0
 10
-21.4312500000032
 20
-0.820340469099454
 30
0.0
 10
-21.65368638590957
 20
-0.7189971409638216
 30
0.0
 10
-22.09856677030415
 20
-0.5163070163554087
 30
0.0
 10
-22.76583164273303
 20
-0.1360471167290862
 30
0.0
 10
-23.43287389990115
 20
0.252253490231768
 30
0.0
 10
-24.09967220925778
 20
0.6159510773911026
 30
0.0
 10
-24.76624878554219
 20
0.915500578654804
 30
0.0
 10
-25.41998687932059
 20
1.115871896319693
 30
0.0
 10
-26.06065794863741
 20
1.205789504591733
 30
0.0
 10
-26.68867363604774
 20
1.176360692331921
 30
0.0
 10
-27.16828817030758
 20
1.089562789118832
 30
0.0
 10
-27.43864557682491
 20
0.9884156204284145
 30
0.0
 10
-27.49957486196152
 20
0.965620518340071
 30
0.0
1001
PE_URL
1000

  0
SPLINE
  5
1EC
330
1F
100
AcDbEntity
  8
외형선
  6
Continuous
370
    15
100
AcDbSpline
210
0.0
220
0.0
230
1.0
 70
    24
 71
     3
 72
    10
 73
     6
 74
     0
 42
0.000000001
 43
0.00000001
 40
0.0
 40
0.0
 40
0.0
 40
0.0
 40
0.3081653438027238
 40
0.6198129771610357
 40
0.9999999999999999
 40
0.9999999999999999
 40
0.9999999999999999
 40
0.9999999999999999
 10
-21.43125000000005
 20
-1.092855010705964
 30
0.0
 10
-21.43125000000002
 20
-1.068015015669141
 30
0.0
 10
-21.43125000000002
 20
-1.0180543319451
 30
0.0
 10
-21.43125000000005
 20
-0.9390018076240112
 30
0.0
 10
-21.43125000000003
 20
-0.8877693055017504
 30
0.0
 10
-21.43125000000003
 20
-0.8596152772524055
 30
0.0
  0
SPLINE
  5
1ED
330
1F
100
AcDbEntity
  8
0
  6
Continuous
 62
     1
370
    25
100
AcDbSpline
210
0.0
220
0.0
230
1.0
 70
     8
 71
     3
 72
    38
 73
    34
 74
     0
 42
0.000000001
 43
0.00000001
 40
0.0
 40
0.0
 40
0.0
 40
0.0
 40
0.0625
 40
0.0625
 40
0.125
 40
0.125
 40
0.1875
 40
0.1875
 40
0.25
 40
0.25
 40
0.3125
 40
0.3125
 40
0.375
 40
0.375
 40
0.4375
 40
0.4375
 40
0.5
 40
0.5
 40
0.5625
 40
0.5625
 40
0.625
 40
0.625
 40
0.6875
 40
0.6875
 40
0.75
 40
0.75
 40
0.8125
 40
0.8125
 40
0.875
 40
0.875
 40
0.9375
 40
0.9375
 40
1.0
 40
1.0
 40
1.0
 40
1.0
 10
-28.57500000000002
 20
1.186246585538429
 30
0.0
 10
-28.42844642802723
 20
1.178922330120543
 30
0.0
 10
-28.27768777172702
 20
1.162248237348793
 30
0.0
 10
-27.97817847105914
 20
1.110970095065092
 30
0.0
 10
-27.83218453767468
 20
1.076686135497562
 30
0.0
 10
-27.53412803350614
 20
0.9914734017927531
 30
0.0
 10
-27.38289529800073
 20
0.9404821257570559
 30
0.0
 10
-27.08654599686989
 20
0.8253648773603273
 30
0.0
 10
-26.9392814956638
 20
0.7610545450789987
 30
0.0
 10
-26.63938477790222
 20
0.6207544711057678
 30
0.0
 10
-26.49135609362934
 20
0.5454789793245782
 30
0.0
 10
-26.19580058394514
 20
0.3877556424794746
 30
0.0
 10
-26.04464388752309
 20
0.3046294071119429
 30
0.0
 10
-25.74608056730268
 20
0.1355781825224034
 30
0.0
 10
-25.60029041314099
 20
0.049998572729834
 30
0.0
 10
-25.30107625667056
 20
-0.1220634631039681
 30
0.0
 10
-25.15013194507537
 20
-0.2080532577093537
 30
0.0
 10
-24.85602887527359
 20
-0.374018600652137
 30
0.0
 10
-24.70643485594456
 20
-0.4552053463833602
 30
0.0
 10
-24.40671169687756
 20
-0.609276182122432
 30
0.0
 10
-24.26035873854944
 20
-0.6815506992051039
 30
0.0
 10
-23.96288902401965
 20
-0.8151766111505621
 30
0.0
 10
-23.81162222340807
 20
-0.8764495834001964
 30
0.0
 10
-23.51455757239227
 20
-0.9836667094632003
 30
0.0
 10
-23.36790314975772
 20
-1.029823391728225
 30
0.0
 10
-23.06808806903964
 20
-1.105990388932978
 30
0.0
 10
-22.91914178211877
 20
-1.135565883275722
 30
0.0
 10
-22.6244577967741
 20
-1.176538915511289
 30
0.0
 10
-22.47341904236133
 20
-1.188118585519657
 30
0.0
 10
-22.17442933656178
 20
-1.192395846697099
 30
0.0
 10
-22.02868753258199
 20
-1.185257745575077
 30
0.0
 10
-21.72984953889213
 20
-1.152534350007492
 30
0.0
 10
-21.57876127671257
 20
-1.126852150324552
 30
0.0
 10
-21.43125000000322
 20
-1.092855010706701
 30
0.0
1001
PE_URL
1000

  0
SPLINE
  5
1EE
330
1F
100
AcDbEntity
  8
0
  6
Continuous
 62
     1
370
    25
100
AcDbSpline
210
0.0
220
0.0
230
1.0
 70
     8
 71
     3
 72
    12
 73
     8
 74
     0
 42
0.000000001
 43
0.00000001
 40
0.0
 40
0.0
 40
0.0
 40
0.0
 40
0.2358980093895437
 40
0.4718040920666336
 40
0.7076201030012745
 40
0.9433609603056136
 40
1.0
 40
1.0
 40
1.0
 40
1.0
 10
-21.43125000000322
 20
0.8629191186795551
 30
0.0
 10
-21.65368636792429
 20
0.942473053395265
 30
0.0
 10
-22.09856671634763
 20
1.101583645451571
 30
0.0
 10
-22.76583185853339
 20
1.204009605912907
 30
0.0
 10
-23.43287309110472
 20
1.180270354428119
 30
0.0
 10
-23.93086980806939
 20
1.091764368770116
 30
0.0
 10
-24.20651494247932
 20
0.9866658272068014
 30
0.0
 10
-24.25991216940795
 20
0.9663064231283036
 30
0.0
1001
PE_URL
1000

  0
SPLINE
  5
1EF
330
1F
100
AcDbEntity
  8
외형선
  6
Continuous
370
    15
100
AcDbSpline
210
0.0
220
0.0
230
1.0
 70
    24
 71
     3
 72
    20
 73
    16
 74
     0
 42
0.000000001
 43
0.00000001
 40
0.0
 40
0.0
 40
0.0
 40
0.0
 40
0.125
 40
0.125
 40
0.2499999999999999
 40
0.2499999999999999
 40
0.4999999999999999
 40
0.4999999999999999
 40
0.6249999999999999
 40
0.6249999999999999
 40
0.7499999999999999
 40
0.7499999999999999
 40
0.875
 40
0.875
 40
1.0
 40
1.0
 40
1.0
 40
1.0
 10
-21.43125000000003
 20
-0.4724995409519967
 30
0.0
 10
-21.43125000000003
 20
-0.4665643608302862
 30
0.0
 10
-21.43125000000002
 20
-0.4544316702357045
 30
0.0
 10
-21.43125000000002
 20
-0.4244536666803158
 30
0.0
 10
-21.43125000000005
 20
-0.4035669282029237
 30
0.0
 10
-21.43125000000004
 20
-0.3144782963406738
 30
0.0
 10
-21.43125000000002
 20
-0.2167627845579216
 30
0.0
 10
-21.43125000000003
 20
0.0030288840009478
 30
0.0
 10
-21.43125000000003
 20
0.0878549379768574
 30
0.0
 10
-21.43125000000002
 20
0.2685187843354576
 30
0.0
 10
-21.43125000000003
 20
0.3640441985616668
 30
0.0
 10
-21.43125000000003
 20
0.5441750352144796
 30
0.0
 10
-21.43125000000003
 20
0.6282591021324022
 30
0.0
 10
-21.43125000000003
 20
0.7677802215262608
 30
0.0
 10
-21.43125000000003
 20
0.8231469315864486
 30
0.0
 10
-21.43125000000003
 20
0.8629191186782761
 30
0.0
  0
SPLINE
  5
1F0
330
1F
100
AcDbEntity
  8
0
  6
Continuous
 62
     1
370
    25
100
AcDbSpline
210
0.0
220
0.0
230
1.0
 70
     8
 71
     3
 72
    14
 73
    10
 74
     0
 42
0.000000001
 43
0.00000001
 40
0.0
 40
0.0
 40
0.0
 40
0.0
 40
0.0663886551696009
 40
0.2296810135627334
 40
0.3835902217057685
 40
0.5375299540003851
 40
0.6915552969964125
 40
0.8457205442449854
 40
1.0
 40
1.0
 40
1.0
 40
1.0
 10
-25.51179722616804
 20
1.175654130776741
 30
0.0
 10
-25.42149426095264
 20
1.179338823180134
 30
0.0
 10
-25.10907828377388
 20
1.192086541652756
 30
0.0
 10
-24.58728103006271
 20
1.086095115087796
 30
0.0
 10
-23.94662654111178
 20
0.878096962384243
 30
0.0
 10
-23.31849206230406
 20
0.5861943229649624
 30
0.0
 10
-22.68995764230466
 20
0.2428521941750026
 30
0.0
 10
-22.06082973774038
 20
-0.126552924726903
 30
0.0
 10
-21.64116170972042
 20
-0.357155540294652
 30
0.0
 10
-21.43125000000322
 20
-0.4724995409502932
 30
0.0
1001
PE_URL
1000

  0
LINE
  5
1F1
330
1F
100
AcDbEntity
  8
0
  6
Continuous
 62
     1
370
    25
100
AcDbLine
 10
-28.57500000000002
 20
1.078326856457642
 30
0.0
 11
-28.57500000000002
 21
-0.1020143564576174
 31
0.0
1001
PE_URL
1000

  0
SPLINE
  5
1F2
330
1F
100
AcDbEntity
  8
0
  6
Continuous
 62
     1
370
    25
100
AcDbSpline
210
0.0
220
0.0
230
1.0
 70
     8
 71
     3
 72
    16
 73
    12
 74
     0
 42
0.000000001
 43
0.00000001
 40
0.0
 40
0.0
 40
0.0
 40
0.0
 40
0.077759654796338
 40
0.1973329600562574
 40
0.3168759280160858
 40
0.4363964367577773
 40
0.5490411481380447
 40
0.6616835884169215
 40
0.7743642436911856
 40
0.8871232451530597
 40
1.0
 40
1.0
 40
1.0
 40
1.0
 10
-22.99929832519143
 20
-1.176506308747095
 30
0.0
 10
-23.14384686708811
 20
-1.177008859475375
 30
0.0
 10
-23.51067194776774
 20
-1.178284197220245
 30
0.0
 10
-24.09967075501668
 20
-1.040214309597925
 30
0.0
 10
-24.76624928410506
 20
-0.7944488040801188
 30
0.0
 10
-25.41998635886639
 20
-0.4678472211180844
 30
0.0
 10
-26.0606594573625
 20
-0.1043194133688378
 30
0.0
 10
-26.6886680804583
 20
0.2624378784993787
 30
0.0
 10
-27.31692237215726
 20
0.6030620351554268
 30
0.0
 10
-27.94569069353508
 20
0.8953304036635574
 30
0.0
 10
-28.36515726164388
 20
1.017306820095106
 30
0.0
 10
-28.57500000000004
 20
1.078326856457642
 30
0.0
1001
PE_URL
1000

  0
SPLINE
  5
1F3
330
1F
100
AcDbEntity
  8
0
  6
Continuous
 62
     1
370
    25
100
AcDbSpline
210
0.0
220
0.0
230
1.0
 70
     8
 71
     3
 72
    14
 73
    10
 74
     0
 42
0.000000001
 43
0.00000001
 40
0.0
 40
0.0
 40
0.0
 40
0.0
 40
0.1546235933528448
 40
0.3091884423810156
 40
0.463704456442893
 40
0.6181816981809445
 40
0.7726303525619838
 40
0.9270606950985482
 40
1.0
 40
1.0
 40
1.0
 40
1.0
 10
-28.57500000000002
 20
-0.1020143564576174
 30
0.0
 10
-28.35255388991621
 20
-0.2288334625454451
 30
0.0
 10
-27.90774618108497
 20
-0.482423493828511
 30
0.0
 10
-27.24071292311282
 20
-0.8101100058615349
 30
0.0
 10
-26.57392957926886
 20
-1.05419483148585
 30
0.0
 10
-25.90734209254486
 20
-1.190188166421796
 30
0.0
 10
-25.24092399851131
 20
-1.197880873579411
 30
0.0
 10
-24.69172324046017
 20
-1.117500761084086
 30
0.0
 10
-24.36479082562497
 20
-1.003028638132599
 30
0.0
 10
-24.25991216940797
 20
-0.9663064231282801
 30
0.0
1001
PE_URL
1000

  0
LINE
  5
1F4
330
1F
100
AcDbEntity
  8
외형선
  6
Continuous
370
    15
100
AcDbLine
 10
-21.43125000000004
 20
-0.4724995409519949
 30
0.0
 11
-21.43125000000002
 21
-0.8203404691007969
 31
0.0
  0
LINE
  5
1F5
330
1F
100
AcDbEntity
  8
0
  6
Continuous
 62
     1
370
    25
100
AcDbLine
 10
-28.57500000000002
 20
1.186246585538429
 30
0.0
 11
-28.57500000000002
 21
1.078326856457642
 31
0.0
1001
PE_URL
1000

  0
SPLINE
  5
1F6
330
1F
100
AcDbEntity
  8
0
  6
Continuous
 62
     1
370
    25
100
AcDbSpline
210
0.0
220
0.0
230
1.0
 70
     8
 71
     3
 72
    11
 73
     7
 74
     0
 42
0.000000001
 43
0.00000001
 40
0.0
 40
0.0
 40
0.0
 40
0.0
 40
0.1928458936763408
 40
0.4616790052072859
 40
0.7306990347974186
 40
1.0
 40
1.0
 40
1.0
 40
1.0
 10
-26.23800670090144
 20
-1.179457547947509
 30
0.0
 10
-26.3882038170155
 20
-1.178443592490177
 30
0.0
 10
-26.74778033602045
 20
-1.176016151916046
 30
0.0
 10
-27.31692325926456
 20
-1.044406187361501
 30
0.0
 10
-27.94569047142375
 20
-0.8204139007597513
 30
0.0
 10
-28.36515718758102
 20
-0.6100254113494417
 30
0.0
 10
-28.57500000000004
 20
-0.504776268526159
 30
0.0
1001
PE_URL
1000

  0
LINE
  5
1F7
330
1F
100
AcDbEntity
  8
0
  6
Continuous
 62
     1
370
    25
100
AcDbLine
 10
-28.57500000000002
 20
-0.1020143564576174
 30
0.0
 11
-28.57500000000002
 21
-0.504776268526159
 31
0.0
1001
PE_URL
1000

  0
SPLINE
  5
1F8
330
1F
100
AcDbEntity
  8
0
  6
Continuous
 62
     1
370
    25
100
AcDbSpline
210
0.0
220
0.0
230
1.0
 70
     8
 71
     3
 72
     9
 73
     5
 74
     0
 42
0.000000001
 43
0.00000001
 40
0.0
 40
0.0
 40
0.0
 40
0.0
 40
0.6205064303692545
 40
1.0
 40
1.0
 40
1.0
 40
1.0
 10
-28.57500000000002
 20
-1.186246585538391
 30
0.0
 10
-28.35255232984992
 20
-1.166659267120666
 30
0.0
 10
-27.99405859108606
 20
-1.135092602443123
 30
0.0
 10
-27.63560550365565
 20
-1.012241660739605
 30
0.0
 10
-27.49957486196152
 20
-0.9656205183400368
 30
0.0
1001
PE_URL
1000

  0
SPLINE
  5
1F9
330
1F
100
AcDbEntity
  8
0
  6
Continuous
 62
     1
370
    25
100
AcDbSpline
210
0.0
220
0.0
230
1.0
 70
     8
 71
     3
 72
     9
 73
     5
 74
     0
 42
0.000000001
 43
0.00000001
 40
0.0
 40
0.0
 40
0.0
 40
0.0
 40
0.2522167549239608
 40
1.0
 40
1.0
 40
1.0
 40
1.0
 10
-22.27333097314904
 20
1.178281177395626
 30
0.0
 10
-22.20254443898098
 20
1.181838608613179
 30
0.0
 10
-21.92188689825026
 20
1.195943267197912
 30
0.0
 10
-21.64116736416085
 20
1.136960978186032
 30
0.0
 10
-21.43125000000322
 20
1.092855010706714
 30
0.0
1001
PE_URL
1000

  0
LINE
  5
1FA
330
1F
100
AcDbEntity
  8
0
  6
Continuous
 62
     1
370
    25
100
AcDbLine
 10
-28.57500000000002
 20
-0.504776268526159
 30
0.0
 11
-28.57500000000002
 21
-1.186246585538391
 31
0.0
1001
PE_URL
1000

  0
LINE
  5
1FB
330
1F
100
AcDbEntity
  8
외형선
  6
Continuous
370
    15
100
AcDbLine
 10
-21.43125000000004
 20
1.092855010705977
 30
0.0
 11
-21.43125000000003
 21
0.8629191186782832
 31
0.0
  0
LINE
  5
1FC
330
1F
100
AcDbEntity
  8
외형선
  6
Continuous
370
    15
100
AcDbLine
 10
-20.43125000000002
 20
0.0000000000000056
 30
0.0
 11
-20.43125000000002
 21
-1.190624999999995
 31
0.0
  0
LINE
  5
1FD
330
1F
100
AcDbEntity
  8
외형선
  6
Continuous
370
    15
100
AcDbLine
 10
-20.43125000000002
 20
1.190625000000004
 30
0.0
 11
-20.43125000000002
 21
0.0000000000000056
 31
0.0
  0
LINE
  5
1FE
330
1F
100
AcDbEntity
  8
외형선
  6
Continuous
370
    15
100
AcDbLine
 10
-15.98777700723831
 20
-0.0000000000000033
 30
0.0
 11
-15.98777700723831
 21
-2.381250000000008
 31
0.0
  0
LINE
  5
1FF
330
1F
100
AcDbEntity
  8
외형선
  6
Continuous
370
    15
100
AcDbLine
 10
-15.98777700723831
 20
2.381250000000005
 30
0.0
 11
-15.98777700723831
 21
-0.0000000000000033
 31
0.0
  0
SPLINE
  5
200
330
1F
100
AcDbEntity
  8
외형선
  6
Continuous
370
    15
100
AcDbSpline
210
0.0
220
0.0
230
1.0
 70
     8
 71
     3
 72
     9
 73
     5
 74
     0
 42
0.000000001
 43
0.00000001
 40
0.0
 40
0.0
 40
0.0
 40
0.0
 40
0.6706550364099421
 40
1.0
 40
1.0
 40
1.0
 40
1.0
 10
-21.43125000000322
 20
-1.092855010706698
 30
0.0
 10
-21.33847013106062
 20
-1.070044890450306
 30
0.0
 10
-21.2001279671976
 20
-1.036033186939518
 30
0.0
 10
-21.06137389607157
 20
-0.9898993143426436
 30
0.0
 10
-21.01567594156858
 20
-0.9747053557519576
 30
0.0
  0
LINE
  5
201
330
1F
100
AcDbEntity
  8
외형선
  6
Continuous
370
    15
100
AcDbLine
 10
-20.93116764680902
 20
-1.003558893908771
 30
0.0
 11
-20.93116764680902
 21
-1.190624999999993
 31
0.0
  0
SPLINE
  5
202
330
1F
100
AcDbEntity
  8
외형선
  6
Continuous
370
    15
100
AcDbSpline
210
0.0
220
0.0
230
1.0
 70
     8
 71
     3
 72
     8
 73
     4
 74
     0
 42
0.000000001
 43
0.00000001
 40
0.0
 40
0.0
 40
0.0
 40
0.0
 40
1.0
 40
1.0
 40
1.0
 40
1.0
 10
-21.43125000000323
 20
-0.8203404690994345
 30
0.0
 10
-21.26600027388034
 20
-0.8898951889403752
 30
0.0
 10
-21.09893937621648
 20
-0.9516567297473839
 30
0.0
 10
-20.93116764680905
 20
-1.003558201486843
 30
0.0
  0
SPLINE
  5
203
330
1F
100
AcDbEntity
  8
외형선
  6
Continuous
370
    15
100
AcDbSpline
210
0.0
220
0.0
230
1.0
 70
     8
 71
     3
 72
     8
 73
     4
 74
     0
 42
0.000000001
 43
0.00000001
 40
0.0
 40
0.0
 40
0.0
 40
0.0
 40
1.0
 40
1.0
 40
1.0
 40
1.0
 10
-21.43125000000322
 20
-0.4724995409503038
 30
0.0
 10
-21.26600027388035
 20
-0.5605880100211758
 30
0.0
 10
-21.09893937621646
 20
-0.6443622334801036
 30
0.0
 10
-20.93116764680902
 20
-0.7211129478109937
 30
0.0
  0
LINE
  5
204
330
1F
100
AcDbEntity
  8
외형선
  6
Continuous
370
    15
100
AcDbLine
 10
-20.93116764680902
 20
0.6406695225165591
 30
0.0
 11
-20.93116764680903
 21
-0.721107868267399
 31
0.0
  0
SPLINE
  5
205
330
1F
100
AcDbEntity
  8
외형선
  6
Continuous
370
    15
100
AcDbSpline
210
0.0
220
0.0
230
1.0
 70
     8
 71
     3
 72
     8
 73
     4
 74
     0
 42
0.000000001
 43
0.00000001
 40
0.0
 40
0.0
 40
0.0
 40
0.0
 40
1.0
 40
1.0
 40
1.0
 40
1.0
 10
-21.43125000000322
 20
0.862919118679564
 30
0.0
 10
-21.26600027388033
 20
0.7967964076777394
 30
0.0
 10
-21.09893937621647
 20
0.7219700253637298
 30
0.0
 10
-20.93116764680905
 20
0.6406706071402726
 30
0.0
  0
SPLINE
  5
206
330
1F
100
AcDbEntity
  8
외형선
  6
Continuous
370
    15
100
AcDbSpline
210
0.0
220
0.0
230
1.0
 70
     8
 71
     3
 72
     8
 73
     4
 74
     0
 42
0.000000001
 43
0.00000001
 40
0.0
 40
0.0
 40
0.0
 40
0.0
 40
1.0
 40
1.0
 40
1.0
 40
1.0
 10
-21.43125000000322
 20
1.092855010706711
 30
0.0
 10
-21.26600027388035
 20
1.054769664717322
 30
0.0
 10
-21.09893937621646
 20
1.005827301708268
 30
0.0
 10
-20.93116764680902
 20
0.9474091023018227
 30
0.0
  0
LINE
  5
207
330
1F
100
AcDbEntity
  8
외형선
  6
Continuous
370
    15
100
AcDbLine
 10
-20.93116764680902
 20
1.190625000000006
 30
0.0
 11
-20.93116764680902
 21
0.9474129685347636
 31
0.0
  0
LINE
  5
208
330
1F
100
AcDbEntity
  8
외형선
  6
Continuous
370
    15
100
AcDbLine
 10
-20.93116764680904
 20
1.003558201486854
 30
0.0
 11
-21.01567594156858
 21
0.9747053557519705
 31
0.0
  0
SPLINE
  5
209
330
1F
100
AcDbEntity
  8
외형선
  6
Continuous
370
    15
100
AcDbSpline
210
0.0
220
0.0
230
1.0
 70
    24
 71
     3
 72
    20
 73
    16
 74
     0
 42
0.000000001
 43
0.00000001
 40
0.0
 40
0.0
 40
0.0
 40
0.0
 40
0.125
 40
0.125
 40
0.2499999999999999
 40
0.2499999999999999
 40
0.3749999999999999
 40
0.3749999999999999
 40
0.4999999999999999
 40
0.4999999999999999
 40
0.75
 40
0.75
 40
0.875
 40
0.875
 40
1.0
 40
1.0
 40
1.0
 40
1.0
 10
-21.43125000000002
 20
0.8629191186782743
 30
0.0
 10
-21.43125000000003
 20
0.8231469315864308
 30
0.0
 10
-21.43125000000003
 20
0.7677802215262111
 30
0.0
 10
-21.43125000000004
 20
0.6282591021322672
 30
0.0
 10
-21.43125000000002
 20
0.5441750352142913
 30
0.0
 10
-21.43125000000004
 20
0.364044198561379
 30
0.0
 10
-21.43125000000002
 20
0.2685187843351289
 30
0.0
 10
-21.43125000000002
 20
0.0878549379764737
 30
0.0
 10
-21.43125000000003
 20
0.0030288840005553
 30
0.0
 10
-21.43125000000001
 20
-0.2167627845582946
 30
0.0
 10
-21.43125000000003
 20
-0.3144782963409775
 30
0.0
 10
-21.43125000000003
 20
-0.4035669282031262
 30
0.0
 10
-21.43125000000002
 20
-0.4244536666804863
 30
0.0
 10
-21.43125000000002
 20
-0.4544316702358146
 30
0.0
 10
-21.43125000000003
 20
-0.4665643608303928
 30
0.0
 10
-21.43125000000002
 20
-0.4724995409520624
 30
0.0
  0
SPLINE
  5
20A
330
1F
100
AcDbEntity
  8
외형선
  6
Continuous
370
    15
100
AcDbSpline
210
0.0
220
0.0
230
1.0
 70
    24
 71
     3
 72
    10
 73
     6
 74
     0
 42
0.000000001
 43
0.00000001
 40
0.0
 40
0.0
 40
0.0
 40
0.0
 40
0.4283679180678198
 40
0.9294772363139097
 40
1.0
 40
1.0
 40
1.0
 40
1.0
 10
-21.43125000000001
 20
-0.8596152772524055
 30
0.0
 10
-21.43125000000002
 20
-0.8915135736596349
 30
0.0
 10
-21.43125000000003
 20
-0.9607268343572295
 30
0.0
 10
-21.43124999999991
 20
-1.041044582619223
 30
0.0
 10
-21.43125000000002
 20
-1.087165083111358
 30
0.0
 10
-21.43125000000002
 20
-1.092855010706564
 30
0.0
  0
ENDSEC
  0
SECTION
  2
OBJECTS
  0
DICTIONARY
  5
C
330
0
100
AcDbDictionary
281
     1
  3
ACAD_DETAILVIEWSTYLE
350
1B5
  3
ACAD_GROUP
350
D
  3
ACAD_IMAGE_VARS
350
234
  3
ACAD_LAYOUT
350
1A
  3
ACAD_MLINESTYLE
350
17
  3
ACAD_PLOTSETTINGS
350
19
  3
ACAD_PLOTSTYLENAME
350
E
  3
ACAD_SCALELIST
350
47
  3
ACAD_SECTIONVIEWSTYLE
350
1B6
  3
AcDbVariableDictionary
350
1B0
  3
APPDATA
350
154
  3
DWGPROPS
350
235
  0
DICTIONARY
  5
1B5
102
{ACAD_REACTORS
330
C
102
}
330
C
100
AcDbDictionary
281
     1
  0
DICTIONARY
  5
D
102
{ACAD_REACTORS
330
C
102
}
330
C
100
AcDbDictionary
281
     1
  0
RASTERVARIABLES
  5
234
102
{ACAD_REACTORS
330
C
102
}
330
C
100
AcDbRasterVariables
 90
        0
 70
     1
 71
     1
 72
     1
  0
DICTIONARY
  5
1A
102
{ACAD_REACTORS
330
C
102
}
330
C
100
AcDbDictionary
281
     1
  3
Layout1
350
1E
  3
Layout2
350
26
  3
Model
350
22
  0
DICTIONARY
  5
17
102
{ACAD_REACTORS
330
C
102
}
330
C
100
AcDbDictionary
281
     1
  3
Standard
350
18
  0
DICTIONARY
  5
19
102
{ACAD_REACTORS
330
C
102
}
330
C
100
AcDbDictionary
281
     1
  0
ACDBDICTIONARYWDFLT
  5
E
102
{ACAD_REACTORS
330
C
102
}
330
C
100
AcDbDictionary
281
     1
  3
Normal
350
F
100
AcDbDictionaryWithDefault
340
F
  0
DICTIONARY
  5
47
102
{ACAD_REACTORS
330
C
102
}
330
C
100
AcDbDictionary
281
     1
  3
A0
350
48
  3
A1
350
49
  3
A2
350
4A
  3
A3
350
4B
  3
A4
350
4C
  3
A5
350
4D
  3
A6
350
4E
  3
A7
350
4F
  3
A8
350
50
  3
A9
350
51
  3
B0
350
52
  3
B1
350
53
  3
B2
350
54
  3
B3
350
55
  3
B4
350
56
  3
B5
350
57
  3
B6
350
58
  3
B7
350
59
  3
B8
350
5A
  3
B9
350
5B
  3
C0
350
5C
  3
C1
350
5D
  3
C2
350
5E
  3
C3
350
5F
  3
C4
350
60
  3
C5
350
61
  3
C6
350
62
  3
C7
350
63
  3
C8
350
64
  3
C9
350
65
  3
D0
350
66
  3
D1
350
67
  3
D2
350
68
  0
DICTIONARY
  5
1B6
102
{ACAD_REACTORS
330
C
102
}
330
C
100
AcDbDictionary
281
     1
  0
DICTIONARY
  5
1B0
102
{ACAD_REACTORS
330
C
102
}
330
C
100
AcDbDictionary
281
     1
  0
DICTIONARY
  5
154
102
{ACAD_REACTORS
330
C
102
}
330
C
100
AcDbDictionary
281
     1
  0
XRECORD
  5
235
102
{ACAD_REACTORS
330
C
102
}
330
C
100
AcDbXrecord
280
     1
  1
DWGPROPS COOKIE
  2

  3

  4

  6

  7

  8
12016016
  9

300
=
301
=
302
=
303
=
304
=
305
=
306
=
307
=
308
=
309
=
 40
0.0
 41
2458313.082681389
 42
2458318.282334039
  1

 90
        0
  0
LAYOUT
  5
1E
102
{ACAD_REACTORS
330
1A
102
}
330
1A
100
AcDbPlotSettings
  1

  2
none_device
  4

  6

 40
0.0
 41
0.0
 42
0.0
 43
0.0
 44
0.0
 45
0.0
 46
0.0
 47
0.0
 48
0.0
 49
0.0
140
0.0
141
0.0
142
1.0
143
1.0
 70
   688
 72
     1
 73
     0
 74
     5
  7

 75
    16
147
1.0
148
0.0
149
0.0
100
AcDbLayout
  1
Layout1
 70
     1
 71
     1
 10
0.0
 20
0.0
 11
420.0
 21
297.0
 12
0.0
 22
0.0
 32
0.0
 14
1.000000000000000E+20
 24
1.000000000000000E+20
 34
1.000000000000000E+20
 15
-1.000000000000000E+20
 25
-1.000000000000000E+20
 35
-1.000000000000000E+20
146
0.0
 13
0.0
 23
0.0
 33
0.0
 16
1.0
 26
0.0
 36
0.0
 17
0.0
 27
1.0
 37
0.0
 76
     0
330
1B
  0
LAYOUT
  5
26
102
{ACAD_REACTORS
330
1A
102
}
330
1A
100
AcDbPlotSettings
  1

  2
none_device
  4

  6

 40
0.0
 41
0.0
 42
0.0
 43
0.0
 44
0.0
 45
0.0
 46
0.0
 47
0.0
 48
0.0
 49
0.0
140
0.0
141
0.0
142
1.0
143
1.0
 70
   688
 72
     1
 73
     0
 74
     5
  7

 75
    16
147
1.0
148
0.0
149
0.0
100
AcDbLayout
  1
Layout2
 70
     1
 71
     2
 10
0.0
 20
0.0
 11
0.0
 21
0.0
 12
0.0
 22
0.0
 32
0.0
 14
0.0
 24
0.0
 34
0.0
 15
0.0
 25
0.0
 35
0.0
146
0.0
 13
0.0
 23
0.0
 33
0.0
 16
1.0
 26
0.0
 36
0.0
 17
0.0
 27
1.0
 37
0.0
 76
     0
330
23
  0
LAYOUT
  5
22
102
{ACAD_REACTORS
330
1A
102
}
330
1A
100
AcDbPlotSettings
  1

  2
none_device
  4
ANSI_A_(11.00_x_8.50_Inches)
  6

 40
6.35
 41
19.05
 42
6.35000508
 43
19.05000254
 44
279.4
 45
215.9
 46
116.0200047679344
 47
80.43595605253626
 48
0.0
 49
0.0
140
0.0
141
0.0
142
0.0752558462788414
143
1.0
 70
  1696
 72
     0
 73
     0
 74
     0
  7

 75
     0
147
0.0235690232323232
148
0.0
149
0.0
100
AcDbLayout
  1
Model
 70
     1
 71
     0
 10
0.0
 20
0.0
 11
420.0
 21
297.0
 12
0.0
 22
0.0
 32
0.0
 14
-39.95000000000012
 24
-49.97180738881175
 34
0.0
 15
92.3384838153456
 25
27.88124999999993
 35
0.0
146
0.0
 13
0.0
 23
0.0
 33
0.0
 16
1.0
 26
0.0
 36
0.0
 17
0.0
 27
1.0
 37
0.0
 76
     0
330
1F
331
29
  0
MLINESTYLE
  5
18
102
{ACAD_REACTORS
330
17
102
}
330
17
100
AcDbMlineStyle
  2
Standard
 70
     0
  3

 62
   256
 51
90.0
 52
90.0
 71
     2
 49
0.5
 62
   256
  6
BYLAYER
 49
-0.5
 62
   256
  6
BYLAYER
  0
ACDBPLACEHOLDER
  5
F
102
{ACAD_REACTORS
330
E
102
}
330
E
  0
SCALE
  5
48
102
{ACAD_REACTORS
330
47
102
}
330
47
100
AcDbScale
 70
     0
300
1:1
140
1.0
141
1.0
290
     1
  0
SCALE
  5
49
102
{ACAD_REACTORS
330
47
102
}
330
47
100
AcDbScale
 70
     0
300
1:2
140
1.0
141
2.0
290
     0
  0
SCALE
  5
4A
102
{ACAD_REACTORS
330
47
102
}
330
47
100
AcDbScale
 70
     0
300
1:4
140
1.0
141
4.0
290
     0
  0
SCALE
  5
4B
102
{ACAD_REACTORS
330
47
102
}
330
47
100
AcDbScale
 70
     0
300
1:5
140
1.0
141
5.0
290
     0
  0
SCALE
  5
4C
102
{ACAD_REACTORS
330
47
102
}
330
47
100
AcDbScale
 70
     0
300
1:8
140
1.0
141
8.0
290
     0
  0
SCALE
  5
4D
102
{ACAD_REACTORS
330
47
102
}
330
47
100
AcDbScale
 70
     0
300
1:10
140
1.0
141
10.0
290
     0
  0
SCALE
  5
4E
102
{ACAD_REACTORS
330
47
102
}
330
47
100
AcDbScale
 70
     0
300
1:16
140
1.0
141
16.0
290
     0
  0
SCALE
  5
4F
102
{ACAD_REACTORS
330
47
102
}
330
47
100
AcDbScale
 70
     0
300
1:20
140
1.0
141
20.0
290
     0
  0
SCALE
  5
50
102
{ACAD_REACTORS
330
47
102
}
330
47
100
AcDbScale
 70
     0
300
1:30
140
1.0
141
30.0
290
     0
  0
SCALE
  5
51
102
{ACAD_REACTORS
330
47
102
}
330
47
100
AcDbScale
 70
     0
300
1:40
140
1.0
141
40.0
290
     0
  0
SCALE
  5
52
102
{ACAD_REACTORS
330
47
102
}
330
47
100
AcDbScale
 70
     0
300
1:50
140
1.0
141
50.0
290
     0
  0
SCALE
  5
53
102
{ACAD_REACTORS
330
47
102
}
330
47
100
AcDbScale
 70
     0
300
1:100
140
1.0
141
100.0
290
     0
  0
SCALE
  5
54
102
{ACAD_REACTORS
330
47
102
}
330
47
100
AcDbScale
 70
     0
300
2:1
140
2.0
141
1.0
290
     0
  0
SCALE
  5
55
102
{ACAD_REACTORS
330
47
102
}
330
47
100
AcDbScale
 70
     0
300
4:1
140
4.0
141
1.0
290
     0
  0
SCALE
  5
56
102
{ACAD_REACTORS
330
47
102
}
330
47
100
AcDbScale
 70
     0
300
8:1
140
8.0
141
1.0
290
     0
  0
SCALE
  5
57
102
{ACAD_REACTORS
330
47
102
}
330
47
100
AcDbScale
 70
     0
300
10:1
140
10.0
141
1.0
290
     0
  0
SCALE
  5
58
102
{ACAD_REACTORS
330
47
102
}
330
47
100
AcDbScale
 70
     0
300
100:1
140
100.0
141
1.0
290
     0
  0
SCALE
  5
59
102
{ACAD_REACTORS
330
47
102
}
330
47
100
AcDbScale
 70
     0
300
1/128" = 1'-0"
140
0.0078125
141
12.0
290
     0
  0
SCALE
  5
5A
102
{ACAD_REACTORS
330
47
102
}
330
47
100
AcDbScale
 70
     0
300
1/64" = 1'-0"
140
0.015625
141
12.0
290
     0
  0
SCALE
  5
5B
102
{ACAD_REACTORS
330
47
102
}
330
47
100
AcDbScale
 70
     0
300
1/32" = 1'-0"
140
0.03125
141
12.0
290
     0
  0
SCALE
  5
5C
102
{ACAD_REACTORS
330
47
102
}
330
47
100
AcDbScale
 70
     0
300
1/16" = 1'-0"
140
0.0625
141
12.0
290
     0
  0
SCALE
  5
5D
102
{ACAD_REACTORS
330
47
102
}
330
47
100
AcDbScale
 70
     0
300
3/32" = 1'-0"
140
0.09375
141
12.0
290
     0
  0
SCALE
  5
5E
102
{ACAD_REACTORS
330
47
102
}
330
47
100
AcDbScale
 70
     0
300
1/8" = 1'-0"
140
0.125
141
12.0
290
     0
  0
SCALE
  5
5F
102
{ACAD_REACTORS
330
47
102
}
330
47
100
AcDbScale
 70
     0
300
3/16" = 1'-0"
140
0.1875
141
12.0
290
     0
  0
SCALE
  5
60
102
{ACAD_REACTORS
330
47
102
}
330
47
100
AcDbScale
 70
     0
300
1/4" = 1'-0"
140
0.25
141
12.0
290
     0
  0
SCALE
  5
61
102
{ACAD_REACTORS
330
47
102
}
330
47
100
AcDbScale
 70
     0
300
3/8" = 1'-0"
140
0.375
141
12.0
290
     0
  0
SCALE
  5
62
102
{ACAD_REACTORS
330
47
102
}
330
47
100
AcDbScale
 70
     0
300
1/2" = 1'-0"
140
0.5
141
12.0
290
     0
  0
SCALE
  5
63
102
{ACAD_REACTORS
330
47
102
}
330
47
100
AcDbScale
 70
     0
300
3/4" = 1'-0"
140
0.75
141
12.0
290
     0
  0
SCALE
  5
64
102
{ACAD_REACTORS
330
47
102
}
330
47
100
AcDbScale
 70
     0
300
1" = 1'-0"
140
1.0
141
12.0
290
     0
  0
SCALE
  5
65
102
{ACAD_REACTORS
330
47
102
}
330
47
100
AcDbScale
 70
     0
300
1-1/2" = 1'-0"
140
1.5
141
12.0
290
     0
  0
SCALE
  5
66
102
{ACAD_REACTORS
330
47
102
}
330
47
100
AcDbScale
 70
     0
300
3" = 1'-0"
140
3.0
141
12.0
290
     0
  0
SCALE
  5
67
102
{ACAD_REACTORS
330
47
102
}
330
47
100
AcDbScale
 70
     0
300
6" = 1'-0"
140
6.0
141
12.0
290
     0
  0
SCALE
  5
68
102
{ACAD_REACTORS
330
47
102
}
330
47
100
AcDbScale
 70
     0
300
1'-0" = 1'-0"
140
12.0
141
12.0
290
     0
  0
ENDSEC
  0
EOF
