  0
SECTION
  2
HEADER
  9
$ACADVER
  1
AC1015
  9
$ACADMAINTVER
 70
     6
  9
$DWGCODEPAGE
  3
ANSI_949
  9
$INSBASE
 10
0.0
 20
0.0
 30
0.0
  9
$EXTMIN
 10
-39.77500000000011
 20
-49.97180738881174
 30
0.0
  9
$EXTMAX
 10
95.51348381534562
 20
37.25836987830776
 30
0.0
  9
$LIMMIN
 10
0.0
 20
0.0
  9
$LIMMAX
 10
420.0
 20
297.0
  9
$ORTHOMODE
 70
     1
  9
$REGENMODE
 70
     1
  9
$FILLMODE
 70
     1
  9
$QTEXTMODE
 70
     0
  9
$MIRRTEXT
 70
     1
  9
$LTSCALE
 40
1.0
  9
$ATTMODE
 70
     1
  9
$TEXTSIZE
 40
3.5
  9
$TRACEWID
 40
1.0
  9
$TEXTSTYLE
  7
Standard
  9
$CLAYER
  8
0
  9
$CELTYPE
  6
ByLayer
  9
$CECOLOR
 62
   256
  9
$CELTSCALE
 40
1.0
  9
$DISPSILH
 70
     0
  9
$DIMSCALE
 40
1.0
  9
$DIMASZ
 40
3.302
  9
$DIMEXO
 40
1.0
  9
$DIMDLI
 40
3.75
  9
$DIMRND
 40
0.0
  9
$DIMDLE
 40
0.0
  9
$DIMEXE
 40
1.0
  9
$DIMTP
 40
0.0
  9
$DIMTM
 40
0.0
  9
$DIMTXT
 40
3.5
  9
$DIMCEN
 40
2.5
  9
$DIMTSZ
 40
0.0
  9
$DIMTOL
 70
     0
  9
$DIMLIM
 70
     0
  9
$DIMTIH
 70
     1
  9
$DIMTOH
 70
     1
  9
$DIMSE1
 70
     0
  9
$DIMSE2
 70
     0
  9
$DIMTAD
 70
     1
  9
$DIMZIN
 70
     0
  9
$DIMBLK
  1

  9
$DIMASO
 70
     1
  9
$DIMSHO
 70
     1
  9
$DIMPOST
  1

  9
$DIMAPOST
  1

  9
$DIMALT
 70
     0
  9
$DIMALTD
 70
     3
  9
$DIMALTF
 40
0.0393700787401575
  9
$DIMLFAC
 40
1.0
  9
$DIMTOFL
 70
     1
  9
$DIMTVP
 40
0.0
  9
$DIMTIX
 70
     0
  9
$DIMSOXD
 70
     0
  9
$DIMSAH
 70
     0
  9
$DIMBLK1
  1

  9
$DIMBLK2
  1

  9
$DIMSTYLE
  2
ISO-25
  9
$DIMCLRD
 70
     0
  9
$DIMCLRE
 70
     0
  9
$DIMCLRT
 70
     0
  9
$DIMTFAC
 40
1.0
  9
$DIMGAP
 40
1.524
  9
$DIMJUST
 70
     0
  9
$DIMSD1
 70
     0
  9
$DIMSD2
 70
     0
  9
$DIMTOLJ
 70
     0
  9
$DIMTZIN
 70
     0
  9
$DIMALTZ
 70
     0
  9
$DIMALTTZ
 70
     0
  9
$DIMUPT
 70
     0
  9
$DIMDEC
 70
     2
  9
$DIMTDEC
 70
     2
  9
$DIMALTU
 70
     2
  9
$DIMALTTD
 70
     3
  9
$DIMTXSTY
  7
Standard
  9
$DIMAUNIT
 70
     0
  9
$DIMADEC
 70
     2
  9
$DIMALTRND
 40
0.0
  9
$DIMAZIN
 70
     0
  9
$DIMDSEP
 70
    44
  9
$DIMATFIT
 70
     3
  9
$DIMFRAC
 70
     0
  9
$DIMLDRBLK
  1

  9
$DIMLUNIT
 70
     2
  9
$DIMLWD
 70
    -2
  9
$DIMLWE
 70
    -2
  9
$DIMTMOVE
 70
     0
  9
$LUNITS
 70
     2
  9
$LUPREC
 70
     2
  9
$SKETCHINC
 40
1.0
  9
$FILLETRAD
 40
10.0
  9
$AUNITS
 70
     0
  9
$AUPREC
 70
     2
  9
$MENU
  1
.
  9
$ELEVATION
 40
0.0
  9
$PELEVATION
 40
0.0
  9
$THICKNESS
 40
0.0
  9
$LIMCHECK
 70
     0
  9
$CHAMFERA
 40
0.0
  9
$CHAMFERB
 40
0.0
  9
$CHAMFERC
 40
0.0
  9
$CHAMFERD
 40
0.0
  9
$SKPOLY
 70
     0
  9
$TDCREATE
 40
2458313.456410637
  9
$TDUCREATE
 40
2458313.081410637
  9
$TDUPDATE
 40
2458318.64822478
  9
$TDUUPDATE
 40
2458318.27322478
  9
$TDINDWG
 40
0.0024431134
  9
$TDUSRTIMER
 40
2458318.27318787
  9
$USRTIMER
 70
     1
  9
$ANGBASE
 50
0.0
  9
$ANGDIR
 70
     0
  9
$PDMODE
 70
     0
  9
$PDSIZE
 40
-1.0
  9
$PLINEWID
 40
0.0
  9
$SPLFRAME
 70
     0
  9
$SPLINETYPE
 70
     6
  9
$SPLINESEGS
 70
     8
  9
$HANDSEED
  5
23E
  9
$SURFTAB1
 70
     6
  9
$SURFTAB2
 70
     6
  9
$SURFTYPE
 70
     6
  9
$SURFU
 70
     6
  9
$SURFV
 70
     6
  9
$UCSBASE
  2

  9
$UCSNAME
  2

  9
$UCSORG
 10
0.0
 20
0.0
 30
0.0
  9
$UCSXDIR
 10
1.0
 20
0.0
 30
0.0
  9
$UCSYDIR
 10
0.0
 20
1.0
 30
0.0
  9
$UCSORTHOREF
  2

  9
$UCSORTHOVIEW
 70
     0
  9
$UCSORGTOP
 10
0.0
 20
0.0
 30
0.0
  9
$UCSORGBOTTOM
 10
0.0
 20
0.0
 30
0.0
  9
$UCSORGLEFT
 10
0.0
 20
0.0
 30
0.0
  9
$UCSORGRIGHT
 10
0.0
 20
0.0
 30
0.0
  9
$UCSORGFRONT
 10
0.0
 20
0.0
 30
0.0
  9
$UCSORGBACK
 10
0.0
 20
0.0
 30
0.0
  9
$PUCSBASE
  2

  9
$PUCSNAME
  2

  9
$PUCSORG
 10
0.0
 20
0.0
 30
0.0
  9
$PUCSXDIR
 10
1.0
 20
0.0
 30
0.0
  9
$PUCSYDIR
 10
0.0
 20
1.0
 30
0.0
  9
$PUCSORTHOREF
  2

  9
$PUCSORTHOVIEW
 70
     0
  9
$PUCSORGTOP
 10
0.0
 20
0.0
 30
0.0
  9
$PUCSORGBOTTOM
 10
0.0
 20
0.0
 30
0.0
  9
$PUCSORGLEFT
 10
0.0
 20
0.0
 30
0.0
  9
$PUCSORGRIGHT
 10
0.0
 20
0.0
 30
0.0
  9
$PUCSORGFRONT
 10
0.0
 20
0.0
 30
0.0
  9
$PUCSORGBACK
 10
0.0
 20
0.0
 30
0.0
  9
$USERI1
 70
     0
  9
$USERI2
 70
     0
  9
$USERI3
 70
     0
  9
$USERI4
 70
     0
  9
$USERI5
 70
     0
  9
$USERR1
 40
0.0
  9
$USERR2
 40
0.0
  9
$USERR3
 40
0.0
  9
$USERR4
 40
0.0
  9
$USERR5
 40
0.0
  9
$WORLDVIEW
 70
     1
  9
$SHADEDGE
 70
     3
  9
$SHADEDIF
 70
    70
  9
$TILEMODE
 70
     1
  9
$MAXACTVP
 70
    64
  9
$PINSBASE
 10
0.0
 20
0.0
 30
0.0
  9
$PLIMCHECK
 70
     0
  9
$PEXTMIN
 10
1.000000000000000E+20
 20
1.000000000000000E+20
 30
1.000000000000000E+20
  9
$PEXTMAX
 10
-1.000000000000000E+20
 20
-1.000000000000000E+20
 30
-1.000000000000000E+20
  9
$PLIMMIN
 10
0.0
 20
0.0
  9
$PLIMMAX
 10
0.0
 20
0.0
  9
$UNITMODE
 70
     0
  9
$VISRETAIN
 70
     1
  9
$PLINEGEN
 70
     0
  9
$PSLTSCALE
 70
     1
  9
$TREEDEPTH
 70
  3020
  9
$CMLSTYLE
  2
Standard
  9
$CMLJUST
 70
     0
  9
$CMLSCALE
 40
20.0
  9
$PROXYGRAPHICS
 70
     1
  9
$MEASUREMENT
 70
     1
  9
$CELWEIGHT
370
    -1
  9
$ENDCAPS
280
     0
  9
$JOINSTYLE
280
     0
  9
$LWDISPLAY
290
     1
  9
$INSUNITS
 70
     4
  9
$HYPERLINKBASE
  1

  9
$STYLESHEET
  1

  9
$XEDIT
290
     1
  9
$CEPSNTYPE
380
     0
  9
$PSTYLEMODE
290
     1
  9
$FINGERPRINTGUID
  2
{32C8640E-3B48-4AA2-8B47-F4D5D6554681}
  9
$VERSIONGUID
  2
{FAEB1C32-E019-11D5-929B-00C0DF256EC4}
  9
$EXTNAMES
290
     1
  9
$PSVPSCALE
 40
0.0
  9
$OLESTARTUP
290
     0
  0
ENDSEC
  0
SECTION
  2
CLASSES
  0
CLASS
  1
ACDBDICTIONARYWDFLT
  2
AcDbDictionaryWithDefault
  3
ObjectDBX Classes
 90
        0
280
     0
281
     0
  0
CLASS
  1
VISUALSTYLE
  2
AcDbVisualStyle
  3
ObjectDBX Classes
 90
     4095
280
     0
281
     0
  0
CLASS
  1
MATERIAL
  2
AcDbMaterial
  3
ObjectDBX Classes
 90
     1153
280
     0
281
     0
  0
CLASS
  1
SCALE
  2
AcDbScale
  3
ObjectDBX Classes
 90
     1153
280
     0
281
     0
  0
CLASS
  1
SUN
  2
AcDbSun
  3
SCENEOE
 90
     1153
280
     0
281
     0
  0
CLASS
  1
ACDBPLACEHOLDER
  2
AcDbPlaceHolder
  3
ObjectDBX Classes
 90
        0
280
     0
281
     0
  0
CLASS
  1
LAYOUT
  2
AcDbLayout
  3
ObjectDBX Classes
 90
        0
280
     0
281
     0
  0
CLASS
  1
TABLESTYLE
  2
AcDbTableStyle
  3
ObjectDBX Classes
 90
     4095
280
     0
281
     0
  0
CLASS
  1
MLEADERSTYLE
  2
AcDbMLeaderStyle
  3
ACDB_MLEADERSTYLE_CLASS
 90
     4095
280
     0
281
     0
  0
CLASS
  1
DICTIONARYVAR
  2
AcDbDictionaryVar
  3
ObjectDBX Classes
 90
        0
280
     0
281
     0
  0
CLASS
  1
RASTERVARIABLES
  2
AcDbRasterVariables
  3
ISM
 90
        0
280
     0
281
     0
  0
ENDSEC
  0
SECTION
  2
TABLES
  0
TABLE
  2
VPORT
  5
8
330
0
100
AcDbSymbolTable
 70
     1
  0
VPORT
  5
29
330
8
100
AcDbSymbolTableRecord
100
AcDbViewportTableRecord
  2
*Active
 70
     0
 10
0.0
 20
0.0
 11
1.0
 21
1.0
 12
27.86924190767275
 22
-6.35671875525199
 13
0.0
 23
0.0
 14
10.0
 24
10.0
 15
10.0
 25
10.0
 16
0.0
 26
0.0
 36
1.0
 17
0.0
 27
0.0
 37
0.0
 40
88.97478081246189
 41
1.782762691853601
 42
50.0
 43
0.0
 44
0.0
 50
0.0
 51
0.0
 71
    16
 72
  2000
 73
     1
 74
     3
 75
     0
 76
     0
 77
     0
 78
     0
281
     0
 65
     1
110
0.0
120
0.0
130
0.0
111
1.0
121
0.0
131
0.0
112
0.0
122
1.0
132
0.0
 79
     0
146
0.0
  0
ENDTAB
  0
TABLE
  2
LTYPE
  5
5
330
0
100
AcDbSymbolTable
 70
     6
  0
LTYPE
  5
14
330
5
100
AcDbSymbolTableRecord
100
AcDbLinetypeTableRecord
  2
ByBlock
 70
     0
  3

 72
    65
 73
     0
 40
0.0
  0
LTYPE
  5
15
330
5
100
AcDbSymbolTableRecord
100
AcDbLinetypeTableRecord
  2
ByLayer
 70
     0
  3

 72
    65
 73
     0
 40
0.0
  0
LTYPE
  5
16
330
5
100
AcDbSymbolTableRecord
100
AcDbLinetypeTableRecord
  2
Continuous
 70
     0
  3
Solid line
 72
    65
 73
     0
 40
0.0
  0
LTYPE
  5
6A
330
5
100
AcDbSymbolTableRecord
100
AcDbLinetypeTableRecord
  2
HIDDEN
 70
     0
  3
Hidden __ __ __ __ __ __ __ __ __ __ __ __ __ __
 72
    65
 73
     2
 40
1.905
 49
1.27
 74
     0
 49
-0.635
 74
     0
  0
LTYPE
  5
6B
330
5
100
AcDbSymbolTableRecord
100
AcDbLinetypeTableRecord
  2
PHANTOM
 70
     0
  3
Phantom ______  __  __  ______  __  __  ______
 72
    65
 73
     6
 40
12.7
 49
6.35
 74
     0
 49
-1.27
 74
     0
 49
1.27
 74
     0
 49
-1.27
 74
     0
 49
1.27
 74
     0
 49
-1.27
 74
     0
  0
LTYPE
  5
6C
330
5
100
AcDbSymbolTableRecord
100
AcDbLinetypeTableRecord
  2
CENTER
 70
     0
  3
Center ____ _ ____ _ ____ _ ____ _ ____ _ ____
 72
    65
 73
     4
 40
10.16
 49
6.35
 74
     0
 49
-1.27
 74
     0
 49
1.27
 74
     0
 49
-1.27
 74
     0
  0
LTYPE
  5
6D
330
5
100
AcDbSymbolTableRecord
100
AcDbLinetypeTableRecord
  2
CENTERX2
 70
     0
  3
Center (2x) ________  __  ________  __  _____
 72
    65
 73
     4
 40
20.32
 49
12.7
 74
     0
 49
-2.54
 74
     0
 49
2.54
 74
     0
 49
-2.54
 74
     0
  0
LTYPE
  5
6E
330
5
100
AcDbSymbolTableRecord
100
AcDbLinetypeTableRecord
  2
DOT2
 70
     0
  3
Dot (.5x) ........................................
 72
    65
 73
     2
 40
0.635
 49
0.0
 74
     0
 49
-0.635
 74
     0
  0
ENDTAB
  0
TABLE
  2
LAYER
  5
2
102
{ACAD_XDICTIONARY
360
18B
102
}
330
0
100
AcDbSymbolTable
 70
    18
  0
LAYER
  5
10
330
2
100
AcDbSymbolTableRecord
100
AcDbLayerTableRecord
  2
0
 70
     0
 62
     7
  6
Continuous
370
    -3
390
F
  0
LAYER
  5
6F
330
2
100
AcDbSymbolTableRecord
100
AcDbLayerTableRecord
  2
FORMAT
 70
     0
 62
     2
  6
Continuous
370
    -3
390
F
  0
LAYER
  5
70
330
2
100
AcDbSymbolTableRecord
100
AcDbLayerTableRecord
  2
외형선
 70
     0
 62
     4
  6
Continuous
370
    30
390
F
  0
LAYER
  5
71
330
2
100
AcDbSymbolTableRecord
100
AcDbLayerTableRecord
  2
숨은선
 70
     0
 62
     2
  6
HIDDEN
370
    15
390
F
  0
LAYER
  5
72
330
2
100
AcDbSymbolTableRecord
100
AcDbLayerTableRecord
  2
중심선
 70
     0
 62
     1
  6
CENTERX2
370
    -3
390
F
  0
LAYER
  5
73
330
2
100
AcDbSymbolTableRecord
100
AcDbLayerTableRecord
  2
파단선
 70
     0
 62
     4
  6
Continuous
370
    -3
390
F
  0
LAYER
  5
74
330
2
100
AcDbSymbolTableRecord
100
AcDbLayerTableRecord
  2
해칭선
 70
     0
 62
   100
  6
Continuous
370
    -3
390
F
  0
LAYER
  5
75
330
2
100
AcDbSymbolTableRecord
100
AcDbLayerTableRecord
  2
가는실선
 70
     0
 62
     4
  6
Continuous
370
    -3
390
F
  0
LAYER
  5
76
330
2
100
AcDbSymbolTableRecord
100
AcDbLayerTableRecord
  2
치수_보조선
 70
     0
 62
     4
  6
Continuous
370
    -3
390
F
  0
LAYER
  5
77
330
2
100
AcDbSymbolTableRecord
100
AcDbLayerTableRecord
  2
치수문자_일반주서
 70
     0
 62
     7
  6
Continuous
370
    15
390
F
  0
LAYER
  5
78
330
2
100
AcDbSymbolTableRecord
100
AcDbLayerTableRecord
  2
개별주서
 70
     0
 62
   100
  6
Continuous
370
    30
390
F
  0
LAYER
  5
79
330
2
100
AcDbSymbolTableRecord
100
AcDbLayerTableRecord
  2
중간선
 70
     0
 62
     2
  6
Continuous
370
    15
390
F
  0
LAYER
  5
7A
330
2
100
AcDbSymbolTableRecord
100
AcDbLayerTableRecord
  2
윤곽선
 70
     0
 62
     3
  6
Continuous
370
    40
390
F
  0
LAYER
  5
7B
330
2
100
AcDbSymbolTableRecord
100
AcDbLayerTableRecord
  2
중심마크
 70
     0
 62
   100
  6
Continuous
370
    30
390
F
  0
LAYER
  5
7C
330
2
100
AcDbSymbolTableRecord
100
AcDbLayerTableRecord
  2
가상선
 70
     0
 62
     4
  6
PHANTOM
370
    -3
390
F
  0
LAYER
  5
7D
330
2
100
AcDbSymbolTableRecord
100
AcDbLayerTableRecord
  2
특수지정선
 70
     0
 62
     5
  6
CENTERX2
370
    60
390
F
  0
LAYER
  5
7E
330
2
100
AcDbSymbolTableRecord
100
AcDbLayerTableRecord
  2
참조1
 70
     0
 62
    -4
  6
Continuous
370
    -3
390
F
  0
LAYER
  5
14F
330
2
100
AcDbSymbolTableRecord
100
AcDbLayerTableRecord
  2
Defpoints
 70
     0
 62
     7
  6
Continuous
290
     0
370
    -3
390
F
  0
ENDTAB
  0
TABLE
  2
STYLE
  5
3
330
0
100
AcDbSymbolTable
 70
     2
  0
STYLE
  5
11
330
3
100
AcDbSymbolTableRecord
100
AcDbTextStyleTableRecord
  2
Standard
 70
     0
 40
0.0
 41
1.0
 50
0.0
 71
     0
 42
3.5
  3
txt
  4

  0
STYLE
  5
94
330
3
100
AcDbSymbolTableRecord
100
AcDbTextStyleTableRecord
  2
SLDTEXTSTYLE0
 70
     0
 40
0.0
 41
0.75
 50
0.0
 71
     0
 42
3.5
  3
TXT
  4

  0
ENDTAB
  0
TABLE
  2
VIEW
  5
6
330
0
100
AcDbSymbolTable
 70
     0
  0
ENDTAB
  0
TABLE
  2
UCS
  5
7
330
0
100
AcDbSymbolTable
 70
     0
  0
ENDTAB
  0
TABLE
  2
APPID
  5
9
330
0
100
AcDbSymbolTable
 70
     2
  0
APPID
  5
12
330
9
100
AcDbSymbolTableRecord
100
AcDbRegAppTableRecord
  2
ACAD
 70
     0
  0
APPID
  5
150
330
9
100
AcDbSymbolTableRecord
100
AcDbRegAppTableRecord
  2
PE_URL
 70
     0
  0
ENDTAB
  0
TABLE
  2
DIMSTYLE
  5
A
330
0
100
AcDbSymbolTable
 70
     3
100
AcDbDimStyleTable
  0
DIMSTYLE
105
27
330
A
100
AcDbSymbolTableRecord
100
AcDbDimStyleTableRecord
  2
ISO-25
 70
     0
 41
2.5
 42
0.625
 43
3.75
 44
1.25
 73
     0
 74
     0
 77
     1
 78
     8
140
2.5
141
2.5
143
0.03937007874016
147
0.625
171
     3
172
     1
178
     0
271
     2
272
     2
274
     3
278
    44
283
     0
284
     8
340
11
  0
DIMSTYLE
105
CD
102
{ACAD_REACTORS
330
CC
330
E1
330
10A
330
F6
102
}
330
A
100
AcDbSymbolTableRecord
100
AcDbDimStyleTableRecord
  2
SLDDIMSTYLE0
 70
     0
 41
3.302
 44
0.0
 45
0.000000001
 73
     0
 74
     0
 77
     1
 78
    12
 79
     3
140
3.5
143
0.0393700787401575
147
0.875
148
0.000000001
170
     1
172
     1
173
     1
178
     0
271
     2
272
     2
276
     2
284
    12
289
     0
340
94
  0
DIMSTYLE
105
F7
330
A
100
AcDbSymbolTableRecord
100
AcDbDimStyleTableRecord
  2
SLDDIMSTYLE1
 70
     0
 41
3.302
 44
0.0
 45
0.000000001
 73
     0
 74
     0
 77
     1
 78
     4
 79
     1
140
3.5
143
0.0393700787401575
147
0.875
148
0.000000001
170
     1
173
     1
178
     0
271
     2
272
     2
276
     2
284
    12
340
94
  0
ENDTAB
  0
TABLE
  2
BLOCK_RECORD
  5
1
330
0
100
AcDbSymbolTable
 70
     9
  0
BLOCK_RECORD
  5
1F
330
1
100
AcDbSymbolTableRecord
100
AcDbBlockTableRecord
  2
*Model_Space
340
22
  0
BLOCK_RECORD
  5
1B
330
1
100
AcDbSymbolTableRecord
100
AcDbBlockTableRecord
  2
*Paper_Space
340
1E
  0
BLOCK_RECORD
  5
23
330
1
100
AcDbSymbolTableRecord
100
AcDbBlockTableRecord
  2
*Paper_Space0
340
26
  0
BLOCK_RECORD
  5
7F
330
1
100
AcDbSymbolTableRecord
100
AcDbBlockTableRecord
  2
블럭10
340
0
102
{BLKREFS
331
C5
102
}
  0
BLOCK_RECORD
  5
CE
330
1
100
AcDbSymbolTableRecord
100
AcDbBlockTableRecord
  2
_D
340
0
  0
BLOCK_RECORD
  5
E2
330
1
100
AcDbSymbolTableRecord
100
AcDbBlockTableRecord
  2
_D_1
340
0
  0
BLOCK_RECORD
  5
F8
330
1
100
AcDbSymbolTableRecord
100
AcDbBlockTableRecord
  2
_D_2
340
0
  0
BLOCK_RECORD
  5
10B
330
1
100
AcDbSymbolTableRecord
100
AcDbBlockTableRecord
  2
_D_3
340
0
  0
BLOCK_RECORD
  5
125
330
1
100
AcDbSymbolTableRecord
100
AcDbBlockTableRecord
  2
SW_DOWELSYMBOL_0
340
0
102
{BLKREFS
331
12B
102
}
  0
BLOCK_RECORD
  5
18F
330
1
100
AcDbSymbolTableRecord
100
AcDbBlockTableRecord
  2
*D7
340
0
  0
BLOCK_RECORD
  5
19E
330
1
100
AcDbSymbolTableRecord
100
AcDbBlockTableRecord
  2
*D8
340
0
  0
ENDTAB
  0
ENDSEC
  0
SECTION
  2
BLOCKS
  0
BLOCK
  5
20
330
1F
100
AcDbEntity
  8
0
100
AcDbBlockBegin
  2
*Model_Space
 70
     0
 10
0.0
 20
0.0
 30
0.0
  3
*Model_Space
  1
*Model_Space
  0
ENDBLK
  5
21
330
1F
100
AcDbEntity
  8
0
100
AcDbBlockEnd
  0
BLOCK
  5
1C
330
1B
100
AcDbEntity
 67
     1
  8
0
100
AcDbBlockBegin
  2
*Paper_Space
 70
     0
 10
0.0
 20
0.0
 30
0.0
  3
*Paper_Space
  1
*Paper_Space
  0
ENDBLK
  5
1D
330
1B
100
AcDbEntity
 67
     1
  8
0
100
AcDbBlockEnd
  0
BLOCK
  5
24
330
23
100
AcDbEntity
  8
0
100
AcDbBlockBegin
  2
*Paper_Space0
 70
     0
 10
0.0
 20
0.0
 30
0.0
  3
*Paper_Space0
  1
*Paper_Space0
  0
ENDBLK
  5
25
330
23
100
AcDbEntity
  8
0
100
AcDbBlockEnd
  0
BLOCK
  5
80
330
7F
100
AcDbEntity
  8
0
100
AcDbBlockBegin
  2
블럭10
 70
     2
 10
0.0
 20
0.0
 30
0.0
  3
블럭10
  1
블럭10
  0
ELLIPSE
  5
82
330
7F
100
AcDbEntity
  8
중심선
100
AcDbEllipse
 10
20.54032771741204
 20
12.0471743016438
 30
0.0
 11
6.600054785286829
 21
-1.261213355974178E-13
 31
0.0
210
0.0
220
0.0
230
1.0
 40
0.636358354079598
 41
0.9219305317359503
 42
6.513795318482858
  0
ELLIPSE
  5
83
330
7F
100
AcDbEntity
  8
중심선
100
AcDbEllipse
 10
20.54032771746488
 20
12.04717430159265
 30
0.0
 11
3.960054785062283
 21
1.540847449632565E-10
 31
0.0
210
0.0
220
0.0
230
1.0
 40
0.3939339440162632
 41
1.131841032648279
 42
5.62031148352944
  0
LINE
  5
84
330
7F
100
AcDbEntity
  8
중심선
100
AcDbLine
 10
2.268634060543552
 20
16.24717430164393
 30
0.0
 11
5.714909304380834
 21
16.24717430164393
 31
0.0
  0
LINE
  5
85
330
7F
100
AcDbEntity
  8
중심선
100
AcDbLine
 10
5.245725140726316
 20
7.84717430164391
 30
0.0
 11
8.692000384563599
 21
7.84717430164391
 31
0.0
  0
LINE
  5
86
330
7F
100
AcDbEntity
  8
중심선
100
AcDbLine
 10
15.74043728645272
 20
16.24717430164393
 30
0.0
 11
8.692000384563599
 21
7.84717430164391
 31
0.0
  0
LINE
  5
87
330
7F
100
AcDbEntity
  8
중심선
100
AcDbLine
 10
0.1404042013395286
 20
13.71084872107135
 30
0.0
 11
3.58671253028996
 21
13.71088815037384
 31
0.0
  0
LINE
  5
88
330
7F
100
AcDbEntity
  8
중심선
100
AcDbLine
 10
2.750260043222114
 20
10.84717430164391
 30
0.0
 11
6.196535287059397
 21
10.84717430164391
 31
0.0
  0
LINE
  5
89
330
7F
100
AcDbEntity
  8
중심선
100
AcDbLine
 10
12.29416204261559
 20
16.24717430164393
 30
0.0
 11
5.245725140726316
 21
7.84717430164391
 31
0.0
  0
LINE
  5
8A
330
7F
100
AcDbEntity
  8
중심선
100
AcDbLine
 10
10.72767329541681
 20
16.24717430164393
 30
0.0
 11
6.196535287059397
 21
10.84717430164391
 31
0.0
  0
LINE
  5
8B
330
7F
100
AcDbEntity
  8
중심선
100
AcDbLine
 10
7.28139805157953
 20
16.24717430164393
 30
0.0
 11
2.750260043222114
 21
10.84717430164391
 31
0.0
  0
LINE
  5
8C
330
7F
100
AcDbEntity
  8
중심선
100
AcDbLine
 10
5.714909304380834
 20
16.24717430164393
 30
0.0
 11
3.58671253028996
 21
13.71088815037384
 31
0.0
  0
LINE
  5
8D
330
7F
100
AcDbEntity
  8
중심선
100
AcDbLine
 10
2.268634060543552
 20
16.24717430164393
 30
0.0
 11
0.1404042013395286
 21
13.71084872107135
 31
0.0
  0
LINE
  5
8E
330
7F
100
AcDbEntity
  8
중심선
100
AcDbLine
 10
7.28139805157953
 20
16.24717430164393
 30
0.0
 11
10.72767329541681
 21
16.24717430164393
 31
0.0
  0
LINE
  5
8F
330
7F
100
AcDbEntity
  8
중심선
100
AcDbLine
 10
12.29416204261559
 20
16.24717430164393
 30
0.0
 11
15.74043728645272
 21
16.24717430164393
 31
0.0
  0
LINE
  5
90
330
7F
100
AcDbEntity
  8
중심선
100
AcDbLine
 10
19.22036997980202
 20
11.08717430171403
 30
0.0
 11
23.66174974927406
 21
11.08717430171406
 31
0.0
  0
LINE
  5
91
330
7F
100
AcDbEntity
  8
중심선
100
AcDbLine
 10
19.22039502424796
 20
13.00717430171391
 30
0.0
 11
19.22036997980202
 21
11.08717430171403
 31
0.0
  0
LINE
  5
92
330
7F
100
AcDbEntity
  8
중심선
100
AcDbLine
 10
19.22039502424796
 20
13.00717430171391
 30
0.0
 11
26.96566020931264
 21
13.00717430171391
 31
0.0
  0
LINE
  5
93
330
7F
100
AcDbEntity
  8
중심선
100
AcDbLine
 10
22.22332737316547
 20
13.45928029700563
 30
0.0
 11
24.52862924686651
 21
15.39360700705356
 31
0.0
  0
ATTDEF
  5
95
330
7F
100
AcDbEntity
  8
FORMAT
 62
     2
100
AcDbText
 10
4.408487351596664
 20
2.075366912832191
 30
0.0
 40
4.233333333333333
  1
E1002009
 41
0.75
  7
SLDTEXTSTYLE0
 11
4.408487351596664
 21
-0.0412997538344756
 31
0.0
100
AcDbAttributeDefinition
  3

  2
AUTOATTR0
 70
     0
 74
     1
  0
ENDBLK
  5
81
330
7F
100
AcDbEntity
  8
0
100
AcDbBlockEnd
  0
BLOCK
  5
CF
330
CE
100
AcDbEntity
  8
0
100
AcDbBlockBegin
  2
_D
 70
     0
 10
0.0
 20
0.0
 30
0.0
  3
_D
  1
_D
  0
LINE
  5
D1
330
CE
100
AcDbEntity
  8
치수문자_일반주서
 62
     0
370
    -2
100
AcDbLine
 10
25.46250000000001
 20
1.779369878307619
 30
0.0
 11
63.65700243995492
 21
1.779369878307762
 31
0.0
  0
LINE
  5
D2
330
CE
100
AcDbEntity
  8
치수문자_일반주서
 62
     0
370
    -2
100
AcDbLine
 10
25.46250000000001
 20
-1.779369878307618
 30
0.0
 11
63.65700243995494
 21
-1.779369878307477
 31
0.0
  0
LINE
  5
D3
330
CE
100
AcDbEntity
  8
치수문자_일반주서
 62
     0
370
    -2
100
AcDbLine
 10
63.65700243995492
 20
1.779369878307762
 30
0.0
 11
63.65700243995478
 21
37.25836987830776
 31
0.0
  0
LINE
  5
D4
330
CE
100
AcDbEntity
  8
치수문자_일반주서
 62
     0
370
    -2
100
AcDbLine
 10
63.65700243995492
 20
1.779369878307762
 30
0.0
 11
63.65700243995494
 21
-1.779369878307477
 31
0.0
  0
LINE
  5
D5
330
CE
100
AcDbEntity
  8
치수문자_일반주서
 62
     0
370
    -2
100
AcDbLine
 10
63.65700243995491
 20
5.081369878307761
 30
0.0
 11
63.65700243995489
 21
8.38336987830776
 31
0.0
  0
LINE
  5
D6
330
CE
100
AcDbEntity
  8
치수문자_일반주서
 62
     0
370
    -2
100
AcDbLine
 10
63.65700243995495
 20
-5.081369878307477
 30
0.0
 11
63.65700243995497
 21
-8.383369878307477
 31
0.0
  0
SOLID
  5
D7
330
CE
100
AcDbEntity
  8
치수문자_일반주서
 62
     0
100
AcDbTrace
 10
63.10666910662157
 20
5.081369878307759
 30
0.0
 11
64.20733577328824
 21
5.081369878307763
 31
0.0
 12
63.65700243995492
 22
1.779369878307762
 32
0.0
 13
63.65700243995492
 23
1.779369878307762
 33
0.0
  0
SOLID
  5
D8
330
CE
100
AcDbEntity
  8
치수문자_일반주서
 62
     0
100
AcDbTrace
 10
64.20733577328828
 20
-5.081369878307475
 30
0.0
 11
63.10666910662162
 21
-5.081369878307479
 31
0.0
 12
63.65700243995494
 22
-1.779369878307477
 32
0.0
 13
63.65700243995494
 23
-1.779369878307477
 33
0.0
  0
MTEXT
  5
D9
330
CE
100
AcDbEntity
  8
치수문자_일반주서
 62
     0
100
AcDbMText
 10
59.28200243995484
 20
22.82086987830774
 30
0.0
 40
3.5
 41
0.0
 71
     2
 72
     1
  1
\A1;%%c3.56 [9/64]
  7
SLDTEXTSTYLE0
 11
-3.993226728306239E-15
 21
1.0
 31
0.0
 73
     1
 44
1.0
  0
POINT
  5
DA
330
CE
100
AcDbEntity
  8
Defpoints
 62
     0
100
AcDbPoint
 10
25.40000000000001
 20
1.779369878307619
 30
0.0
  0
POINT
  5
DB
330
CE
100
AcDbEntity
  8
Defpoints
 62
     0
100
AcDbPoint
 10
25.40000000000001
 20
-1.779369878307618
 30
0.0
  0
POINT
  5
DC
330
CE
100
AcDbEntity
  8
Defpoints
 62
     0
100
AcDbPoint
 10
63.65700243995494
 20
-1.779369878307475
 30
0.0
  0
ENDBLK
  5
D0
330
CE
100
AcDbEntity
  8
0
100
AcDbBlockEnd
  0
BLOCK
  5
E3
330
E2
100
AcDbEntity
  8
0
100
AcDbBlockBegin
  2
_D_1
 70
     0
 10
0.0
 20
0.0
 30
0.0
  3
_D_1
  1
_D_1
  0
LINE
  5
E5
330
E2
100
AcDbEntity
  8
치수문자_일반주서
 62
     0
370
    -2
100
AcDbLine
 10
25.4
 20
1.841869878307619
 30
0.0
 11
25.4
 21
12.38125
 31
0.0
  0
LINE
  5
E6
330
E2
100
AcDbEntity
  8
치수문자_일반주서
 62
     0
370
    -2
100
AcDbLine
 10
19.84375000000002
 20
1.762782771356947
 30
0.0
 11
19.84375000000002
 21
12.38125
 31
0.0
  0
LINE
  5
E7
330
E2
100
AcDbEntity
  8
치수문자_일반주서
 62
     0
370
    -2
100
AcDbLine
 10
25.4
 20
12.38125
 30
0.0
 11
58.254
 21
12.38125
 31
0.0
  0
LINE
  5
E8
330
E2
100
AcDbEntity
  8
치수문자_일반주서
 62
     0
370
    -2
100
AcDbLine
 10
25.4
 20
12.38125
 30
0.0
 11
19.84375000000002
 21
12.38125
 31
0.0
  0
LINE
  5
E9
330
E2
100
AcDbEntity
  8
치수문자_일반주서
 62
     0
370
    -2
100
AcDbLine
 10
28.702
 20
12.38125
 30
0.0
 11
32.004
 21
12.38125
 31
0.0
  0
LINE
  5
EA
330
E2
100
AcDbEntity
  8
치수문자_일반주서
 62
     0
370
    -2
100
AcDbLine
 10
16.54175000000002
 20
12.38125
 30
0.0
 11
13.23975000000002
 21
12.38125
 31
0.0
  0
SOLID
  5
EB
330
E2
100
AcDbEntity
  8
치수문자_일반주서
 62
     0
100
AcDbTrace
 10
28.702
 20
12.93158333333333
 30
0.0
 11
28.702
 21
11.83091666666667
 31
0.0
 12
25.4
 22
12.38125
 32
0.0
 13
25.4
 23
12.38125
 33
0.0
  0
SOLID
  5
EC
330
E2
100
AcDbEntity
  8
치수문자_일반주서
 62
     0
100
AcDbTrace
 10
16.54175000000002
 20
11.83091666666667
 30
0.0
 11
16.54175000000002
 21
12.93158333333333
 31
0.0
 12
19.84375000000002
 22
12.38125
 32
0.0
 13
19.84375000000002
 23
12.38125
 33
0.0
  0
MTEXT
  5
ED
330
E2
100
AcDbEntity
  8
치수문자_일반주서
 62
     0
100
AcDbMText
 10
45.129
 20
16.75625
 30
0.0
 40
3.5
 41
0.0
 71
     2
 72
     1
  1
\A1;5.56 [7/32]
  7
SLDTEXTSTYLE0
 73
     1
 44
1.0
  0
POINT
  5
EE
330
E2
100
AcDbEntity
  8
Defpoints
 62
     0
100
AcDbPoint
 10
25.4
 20
1.779369878307619
 30
0.0
  0
POINT
  5
EF
330
E2
100
AcDbEntity
  8
Defpoints
 62
     0
100
AcDbPoint
 10
19.84375000000002
 20
1.700282771356947
 30
0.0
  0
POINT
  5
F0
330
E2
100
AcDbEntity
  8
Defpoints
 62
     0
100
AcDbPoint
 10
19.84375000000002
 20
12.38125
 30
0.0
  0
ENDBLK
  5
E4
330
E2
100
AcDbEntity
  8
0
100
AcDbBlockEnd
  0
BLOCK
  5
F9
330
F8
100
AcDbEntity
  8
0
100
AcDbBlockBegin
  2
_D_2
 70
     0
 10
0.0
 20
0.0
 30
0.0
  3
_D_2
  1
_D_2
  0
LINE
  5
FB
330
F8
100
AcDbEntity
  8
치수문자_일반주서
 62
     0
370
    -2
100
AcDbLine
 10
25.4
 20
1.841869878307619
 30
0.0
 11
25.4
 21
22.38125
 31
0.0
  0
LINE
  5
FC
330
F8
100
AcDbEntity
  8
치수문자_일반주서
 62
     0
370
    -2
100
AcDbLine
 10
-25.40000000000001
 20
1.841869878307576
 30
0.0
 11
-25.40000000000001
 21
22.38125
 31
0.0
  0
LINE
  5
FD
330
F8
100
AcDbEntity
  8
치수문자_일반주서
 62
     0
370
    -2
100
AcDbLine
 10
22.098
 20
22.38125
 30
0.0
 11
-22.09800000000001
 21
22.38125
 31
0.0
  0
SOLID
  5
FE
330
F8
100
AcDbEntity
  8
치수문자_일반주서
 62
     0
100
AcDbTrace
 10
22.098
 20
21.83091666666667
 30
0.0
 11
22.098
 21
22.93158333333334
 31
0.0
 12
25.4
 22
22.38125
 32
0.0
 13
25.4
 23
22.38125
 33
0.0
  0
SOLID
  5
FF
330
F8
100
AcDbEntity
  8
치수문자_일반주서
 62
     0
100
AcDbTrace
 10
-22.09800000000001
 20
22.93158333333334
 30
0.0
 11
-22.09800000000001
 21
21.83091666666667
 31
0.0
 12
-25.40000000000001
 22
22.38125
 32
0.0
 13
-25.40000000000001
 23
22.38125
 33
0.0
  0
MTEXT
  5
100
330
F8
100
AcDbEntity
  8
치수문자_일반주서
 62
     0
100
AcDbMText
 10
-1.29615954321876
 20
26.75625
 30
0.0
 40
3.5
 41
0.0
 71
     2
 72
     1
  1
\A1;50.8 [2]
  7
SLDTEXTSTYLE0
 73
     1
 44
1.0
  0
POINT
  5
101
330
F8
100
AcDbEntity
  8
Defpoints
 62
     0
100
AcDbPoint
 10
25.4
 20
1.779369878307619
 30
0.0
  0
POINT
  5
102
330
F8
100
AcDbEntity
  8
Defpoints
 62
     0
100
AcDbPoint
 10
-25.40000000000001
 20
1.779369878307576
 30
0.0
  0
POINT
  5
103
330
F8
100
AcDbEntity
  8
Defpoints
 62
     0
100
AcDbPoint
 10
-25.40000000000001
 20
22.38125
 30
0.0
  0
ENDBLK
  5
FA
330
F8
100
AcDbEntity
  8
0
100
AcDbBlockEnd
  0
BLOCK
  5
10C
330
10B
100
AcDbEntity
  8
0
100
AcDbBlockBegin
  2
_D_3
 70
     0
 10
0.0
 20
0.0
 30
0.0
  3
_D_3
  1
_D_3
  0
LINE
  5
10E
330
10B
100
AcDbEntity
  8
치수문자_일반주서
 62
     0
370
    -2
100
AcDbLine
 10
-16.68451350361915
 20
2.381250000000006
 30
0.0
 11
-35.40000000000001
 21
2.381249999999937
 31
0.0
  0
LINE
  5
10F
330
10B
100
AcDbEntity
  8
치수문자_일반주서
 62
     0
370
    -2
100
AcDbLine
 10
-16.68451350361914
 20
-2.38125000000003
 30
0.0
 11
-35.4
 21
-2.381250000000101
 31
0.0
  0
LINE
  5
110
330
10B
100
AcDbEntity
  8
치수문자_일반주서
 62
     0
370
    -2
100
AcDbLine
 10
-35.40000000000001
 20
2.381249999999937
 30
0.0
 11
-35.40000000000012
 21
36.98524999999997
 31
0.0
  0
LINE
  5
111
330
10B
100
AcDbEntity
  8
치수문자_일반주서
 62
     0
370
    -2
100
AcDbLine
 10
-35.40000000000001
 20
2.381249999999937
 30
0.0
 11
-35.4
 21
-2.381250000000101
 31
0.0
  0
LINE
  5
112
330
10B
100
AcDbEntity
  8
치수문자_일반주서
 62
     0
370
    -2
100
AcDbLine
 10
-35.40000000000002
 20
5.683249999999937
 30
0.0
 11
-35.40000000000003
 21
8.985249999999937
 31
0.0
  0
LINE
  5
113
330
10B
100
AcDbEntity
  8
치수문자_일반주서
 62
     0
370
    -2
100
AcDbLine
 10
-35.39999999999999
 20
-5.6832500000001
 30
0.0
 11
-35.39999999999998
 21
-8.9852500000001
 31
0.0
  0
SOLID
  5
114
330
10B
100
AcDbEntity
  8
치수문자_일반주서
 62
     0
100
AcDbTrace
 10
-35.95033333333335
 20
5.683249999999935
 30
0.0
 11
-34.84966666666669
 21
5.683249999999939
 31
0.0
 12
-35.40000000000001
 22
2.381249999999937
 32
0.0
 13
-35.40000000000001
 23
2.381249999999937
 33
0.0
  0
SOLID
  5
115
330
10B
100
AcDbEntity
  8
치수문자_일반주서
 62
     0
100
AcDbTrace
 10
-34.84966666666666
 20
-5.683250000000099
 30
0.0
 11
-35.95033333333333
 21
-5.683250000000102
 31
0.0
 12
-35.4
 22
-2.381250000000101
 32
0.0
 13
-35.4
 23
-2.381250000000101
 33
0.0
  0
MTEXT
  5
116
330
10B
100
AcDbEntity
  8
치수문자_일반주서
 62
     0
100
AcDbMText
 10
-39.77500000000008
 20
22.98524999999996
 30
0.0
 40
3.5
 41
0.0
 71
     2
 72
     1
  1
\A1;%%c4.76 [3/16]
  7
SLDTEXTSTYLE0
 11
-2.983906501879663E-15
 21
1.0
 31
0.0
 73
     1
 44
1.0
  0
POINT
  5
151
330
10B
100
AcDbEntity
  8
Defpoints
 62
     0
100
AcDbPoint
 10
-16.62201350361915
 20
2.381250000000007
 30
0.0
  0
POINT
  5
152
330
10B
100
AcDbEntity
  8
Defpoints
 62
     0
100
AcDbPoint
 10
-16.62201350361914
 20
-2.381250000000029
 30
0.0
  0
POINT
  5
153
330
10B
100
AcDbEntity
  8
Defpoints
 62
     0
100
AcDbPoint
 10
-35.39999999999999
 20
-2.3812500000001
 30
0.0
  0
ENDBLK
  5
10D
330
10B
100
AcDbEntity
  8
0
100
AcDbBlockEnd
  0
BLOCK
  5
126
330
125
100
AcDbEntity
  8
0
100
AcDbBlockBegin
  2
SW_DOWELSYMBOL_0
 70
     0
 10
0.0
 20
0.0
 30
0.0
  3
SW_DOWELSYMBOL_0
  1
SW_DOWELSYMBOL_0
  0
CIRCLE
  5
128
330
125
100
AcDbEntity
  8
해칭선
 62
     0
100
AcDbCircle
 10
0.0
 20
0.0
 30
0.0
 40
3.0
  0
HATCH
  5
129
330
125
100
AcDbEntity
  8
0
  6
Continuous
 62
     0
370
     0
100
AcDbHatch
 10
0.0
 20
0.0
 30
0.0
210
0.0
220
0.0
230
1.0
  2
SOLID
 70
     1
 71
     0
 91
        1
 92
        0
 93
        3
 72
     2
 10
0.0
 20
0.0
 40
3.0
 50
0.0
 51
90.0
 73
     1
 72
     1
 10
0.0
 20
3.0
 11
0.0
 21
0.0
 72
     1
 10
0.0
 20
0.0
 11
3.0
 21
0.0
 97
        0
 75
     0
 76
     1
 98
        1
 10
0.0
 20
0.0
  0
HATCH
  5
12A
330
125
100
AcDbEntity
  8
0
  6
Continuous
 62
     0
370
     0
100
AcDbHatch
 10
0.0
 20
0.0
 30
0.0
210
0.0
220
0.0
230
1.0
  2
SOLID
 70
     1
 71
     0
 91
        1
 92
        0
 93
        3
 72
     2
 10
0.0
 20
0.0
 40
3.0
 50
180.0
 51
270.0000000000007
 73
     1
 72
     1
 10
0.0
 20
-3.0
 11
0.0
 21
0.0
 72
     1
 10
0.0
 20
0.0
 11
-3.0
 21
0.0
 97
        0
 75
     0
 76
     1
 98
        1
 10
0.0
 20
0.0
  0
ENDBLK
  5
127
330
125
100
AcDbEntity
  8
0
100
AcDbBlockEnd
  0
BLOCK
  5
190
330
18F
100
AcDbEntity
  8
0
100
AcDbBlockBegin
  2
*D7
 70
     1
 10
0.0
 20
0.0
 30
0.0
  3
*D7
  1
*D7
  0
LINE
  5
192
330
18F
100
AcDbEntity
  8
치수문자_일반주서
 62
     0
370
    -2
100
AcDbLine
 10
0.0
 20
0.5121961990748796
 30
0.0
 11
0.0
 21
33.79272327212171
 31
0.0
  0
LINE
  5
193
330
18F
100
AcDbEntity
  8
치수문자_일반주서
 62
     0
370
    -2
100
AcDbLine
 10
25.99995813577124
 20
8.175743682859753
 30
0.0
 11
25.99995813577124
 21
33.79272327212171
 31
0.0
  0
LINE
  5
194
330
18F
100
AcDbEntity
  8
치수문자_일반주서
 62
     0
370
    -2
100
AcDbLine
 10
3.302
 20
33.79272327212171
 30
0.0
 11
22.69795813577124
 21
33.79272327212171
 31
0.0
  0
SOLID
  5
195
330
18F
100
AcDbEntity
  8
치수문자_일반주서
 62
     0
100
AcDbTrace
 10
3.302
 20
34.34305660545504
 30
0.0
 11
3.302
 21
33.24238993878837
 31
0.0
 12
0.0
 22
33.79272327212171
 32
0.0
 13
0.0
 23
33.79272327212171
 33
0.0
  0
SOLID
  5
196
330
18F
100
AcDbEntity
  8
치수문자_일반주서
 62
     0
100
AcDbTrace
 10
22.69795813577124
 20
33.24238993878837
 30
0.0
 11
22.69795813577124
 21
34.34305660545504
 31
0.0
 12
25.99995813577124
 22
33.79272327212171
 32
0.0
 13
25.99995813577124
 23
33.79272327212171
 33
0.0
  0
MTEXT
  5
197
330
18F
100
AcDbEntity
  8
치수문자_일반주서
 62
     0
100
AcDbMText
 10
13.04655386270326
 20
38.16772327212171
 30
0.0
 40
3.5
 41
0.0
 71
     2
 72
     1
  1
\A1;26 [1.02]
  7
SLDTEXTSTYLE0
 73
     1
 44
1.0
  0
POINT
  5
198
330
18F
100
AcDbEntity
  8
Defpoints
 62
     0
100
AcDbPoint
 10
0.0
 20
0.4496961990748796
 30
0.0
  0
POINT
  5
199
330
18F
100
AcDbEntity
  8
Defpoints
 62
     0
100
AcDbPoint
 10
25.99995813577124
 20
8.113243682859753
 30
0.0
  0
POINT
  5
19A
330
18F
100
AcDbEntity
  8
Defpoints
 62
     0
100
AcDbPoint
 10
25.99995813577124
 20
33.79272327212171
 30
0.0
  0
ENDBLK
  5
191
330
18F
100
AcDbEntity
  8
0
100
AcDbBlockEnd
  0
BLOCK
  5
19F
330
19E
100
AcDbEntity
  8
0
100
AcDbBlockBegin
  2
*D8
 70
     1
 10
0.0
 20
0.0
 30
0.0
  3
*D8
  1
*D8
  0
LINE
  5
1A1
330
19E
100
AcDbEntity
  8
치수문자_일반주서
 62
     0
370
    -2
100
AcDbLine
 10
62.46416324230662
 20
-4.904907009135751
 30
0.0
 11
62.46416324230662
 21
28.37562006391108
 31
0.0
  0
LINE
  5
1A2
330
19E
100
AcDbEntity
  8
치수문자_일반주서
 62
     0
370
    -2
100
AcDbLine
 10
88.46412137807786
 20
2.758640474649123
 30
0.0
 11
88.46412137807786
 21
28.37562006391108
 31
0.0
  0
LINE
  5
1A3
330
19E
100
AcDbEntity
  8
치수문자_일반주서
 62
     0
370
    -2
100
AcDbLine
 10
65.76616324230662
 20
28.37562006391108
 30
0.0
 11
85.16212137807787
 21
28.37562006391108
 31
0.0
  0
SOLID
  5
1A4
330
19E
100
AcDbEntity
  8
치수문자_일반주서
 62
     0
100
AcDbTrace
 10
65.76616324230662
 20
28.92595339724441
 30
0.0
 11
65.76616324230662
 21
27.82528673057774
 31
0.0
 12
62.46416324230662
 22
28.37562006391108
 32
0.0
 13
62.46416324230662
 23
28.37562006391108
 33
0.0
  0
SOLID
  5
1A5
330
19E
100
AcDbEntity
  8
치수문자_일반주서
 62
     0
100
AcDbTrace
 10
85.16212137807787
 20
27.82528673057774
 30
0.0
 11
85.16212137807787
 21
28.92595339724441
 31
0.0
 12
88.46412137807786
 22
28.37562006391108
 32
0.0
 13
88.46412137807786
 23
28.37562006391108
 33
0.0
  0
MTEXT
  5
1A6
330
19E
100
AcDbEntity
  8
치수문자_일반주서
 62
     0
100
AcDbMText
 10
75.51071710500987
 20
32.75062006391107
 30
0.0
 40
3.5
 41
0.0
 71
     2
 72
     1
  1
\A1;26 [1.02]
  7
SLDTEXTSTYLE0
 73
     1
 44
1.0
  0
POINT
  5
1A7
330
19E
100
AcDbEntity
  8
Defpoints
 62
     0
100
AcDbPoint
 10
62.46416324230662
 20
-4.967407009135751
 30
0.0
  0
POINT
  5
1A8
330
19E
100
AcDbEntity
  8
Defpoints
 62
     0
100
AcDbPoint
 10
88.46412137807786
 20
2.696140474649123
 30
0.0
  0
POINT
  5
1A9
330
19E
100
AcDbEntity
  8
Defpoints
 62
     0
100
AcDbPoint
 10
88.46412137807786
 20
28.37562006391108
 30
0.0
  0
ENDBLK
  5
1A0
330
19E
100
AcDbEntity
  8
0
100
AcDbBlockEnd
  0
ENDSEC
  0
SECTION
  2
ENTITIES
  0
LINE
  5
96
330
1F
100
AcDbEntity
  8
0
  6
Continuous
 62
     1
370
    15
100
AcDbLine
 10
21.89619558587034
 20
1.785937500000004
 30
0.0
 11
20.80544035857589
 21
1.785937500000004
 31
0.0
1001
PE_URL
1000

  0
LINE
  5
97
330
1F
100
AcDbEntity
  8
0
  6
Continuous
 62
     1
370
    15
100
AcDbLine
 10
20.80544035857586
 20
-1.785937499999996
 30
0.0
 11
21.89619558587034
 21
-1.785937499999996
 31
0.0
1001
PE_URL
1000

  0
LINE
  5
98
330
1F
100
AcDbEntity
  8
외형선
  6
Continuous
370
    15
100
AcDbLine
 10
16.62201350361914
 20
-2.381250000000001
 30
0.0
 11
18.84375000000001
 21
-1.785937499999996
 31
0.0
  0
LINE
  5
99
330
1F
100
AcDbEntity
  8
외형선
  6
Continuous
370
    15
100
AcDbLine
 10
18.84375000000001
 20
1.785937500000004
 30
0.0
 11
16.62201350361914
 21
2.381250000000009
 31
0.0
  0
LINE
  5
9A
330
1F
100
AcDbEntity
  8
외형선
  6
Continuous
370
    15
100
AcDbLine
 10
-16.62201350361914
 20
-2.381249999999998
 30
0.0
 11
16.62201350361915
 21
-2.381249999999998
 31
0.0
  0
LINE
  5
9B
330
1F
100
AcDbEntity
  8
외형선
  6
Continuous
370
    15
100
AcDbLine
 10
16.62201350361914
 20
2.381250000000007
 30
0.0
 11
-16.62201350361915
 21
2.381250000000007
 31
0.0
  0
LINE
  5
9E
330
1F
100
AcDbEntity
  8
외형선
  6
Continuous
370
    15
100
AcDbLine
 10
18.84375000000001
 20
-1.785937499999996
 30
0.0
 11
19.34390453600326
 21
-1.785937499999996
 31
0.0
  0
LINE
  5
9F
330
1F
100
AcDbEntity
  8
외형선
  6
Continuous
370
    15
100
AcDbLine
 10
19.34390453600326
 20
1.785937500000004
 30
0.0
 11
18.84375000000001
 21
1.785937500000004
 31
0.0
  0
LINE
  5
A0
330
1F
100
AcDbEntity
  8
0
  6
Continuous
 62
     1
370
    15
100
AcDbLine
 10
25.40000000000001
 20
-1.617490284686428
 30
0.0
 11
25.40000000000001
 21
0.1530215346864599
 31
0.0
1001
PE_URL
1000

  0
SPLINE
  5
A1
330
1F
100
AcDbEntity
  8
0
  6
Continuous
 62
     1
370
    15
100
AcDbSpline
210
0.0
220
0.0
230
1.0
 70
     8
 71
     3
 72
    26
 73
    22
 74
     0
 42
0.000000001
 43
0.00000001
 40
0.0
 40
0.0
 40
0.0
 40
0.0
 40
0.1250000000000004
 40
0.1250000000000004
 40
0.2500000000000007
 40
0.2500000000000007
 40
0.3125000000000009
 40
0.3125000000000009
 40
0.3750000000000011
 40
0.3750000000000011
 40
0.4999999999999986
 40
0.4999999999999986
 40
0.5624999999999988
 40
0.5624999999999988
 40
0.6249999999999989
 40
0.6249999999999989
 40
0.7499999999999992
 40
0.7499999999999992
 40
0.8749999999999997
 40
0.8749999999999997
 40
1.0
 40
1.0
 40
1.0
 40
1.0
 10
25.4
 20
-1.617490284686428
 30
0.0
 10
25.17138337440813
 20
-1.561066300173452
 30
0.0
 10
24.93665318948654
 20
-1.490500804824706
 30
0.0
 10
24.47244375034735
 20
-1.325971284868955
 30
0.0
 10
24.24443302650341
 20
-1.232390640690584
 30
0.0
 10
23.89521344961856
 20
-1.076734452157914
 30
0.0
 10
23.77858893270952
 20
-1.022430809590361
 30
0.0
 10
23.54710375152406
 20
-0.9100376622692489
 30
0.0
 10
23.43321153710676
 20
-0.8521224359066291
 30
0.0
 10
23.08714160583308
 20
-0.6726667480949708
 30
0.0
 10
22.85204814007044
 20
-0.5455631408414102
 30
0.0
 10
22.50601212344654
 20
-0.3508315297232403
 30
0.0
 10
22.39211152643442
 20
-0.285324572953202
 30
0.0
 10
22.16060821196906
 20
-0.1526886646178053
 30
0.0
 10
22.04398025588647
 20
-0.0857424107107673
 30
0.0
 10
21.69476756622088
 20
0.1150890668237744
 30
0.0
 10
21.46677128452851
 20
0.2482094488349245
 30
0.0
 10
21.00253462378422
 20
0.5096438756080426
 30
0.0
 10
20.76787630247304
 20
0.6375906857093502
 30
0.0
 10
20.31058051200874
 20
0.8786075177529292
 30
0.0
 10
20.07584099197367
 20
0.9937784645372207
 30
0.0
 10
19.84375000000063
 20
1.099200228872948
 30
0.0
1001
PE_URL
1000

  0
SPLINE
  5
A2
330
1F
100
AcDbEntity
  8
외형선
  6
Continuous
370
    15
100
AcDbSpline
210
0.0
220
0.0
230
1.0
 70
    24
 71
     3
 72
    11
 73
     7
 74
     0
 42
0.000000001
 43
0.00000001
 40
0.0
 40
0.0
 40
0.0
 40
0.0
 40
0.2385364662396038
 40
0.4814509392510863
 40
0.7785658245328392
 40
1.0
 40
1.0
 40
1.0
 40
1.0
 10
19.84375000000002
 20
1.700282771356947
 30
0.0
 10
19.84375000000001
 20
1.652613963057386
 30
0.0
 10
19.84374999999997
 20
1.556401451441861
 30
0.0
 10
19.84375000000006
 20
1.404186719086169
 30
0.0
 10
19.84374999999998
 20
1.259729546067905
 30
0.0
 10
19.84374999999999
 20
1.171745951059778
 30
0.0
 10
19.84375
 20
1.134174626974987
 30
0.0
  0
SPLINE
  5
A3
330
1F
100
AcDbEntity
  8
0
  6
Continuous
 62
     1
370
    15
100
AcDbSpline
210
0.0
220
0.0
230
1.0
 70
     8
 71
     3
 72
    26
 73
    22
 74
     0
 42
0.000000001
 43
0.00000001
 40
0.0
 40
0.0
 40
0.0
 40
0.0
 40
0.1250000000000031
 40
0.1250000000000031
 40
0.2500000000000063
 40
0.2500000000000063
 40
0.3125000000000064
 40
0.3125000000000064
 40
0.3750000000000065
 40
0.3750000000000065
 40
0.5000000000000069
 40
0.5000000000000069
 40
0.562500000000007
 40
0.562500000000007
 40
0.6250000000000072
 40
0.6250000000000072
 40
0.7500000000000048
 40
0.7500000000000048
 40
0.8750000000000024
 40
0.8750000000000024
 40
1.0
 40
1.0
 40
1.0
 40
1.0
 10
25.4
 20
0.1530215346864596
 30
0.0
 10
25.17138337440813
 20
0.2856203970823007
 30
0.0
 10
24.93665318948655
 20
0.4180970363937547
 30
0.0
 10
24.47244375034733
 20
0.672834249985077
 30
0.0
 10
24.24443302650343
 20
0.7948864293806633
 30
0.0
 10
23.89521344961856
 20
0.9676962235011876
 30
0.0
 10
23.77858893270951
 20
1.023410480759191
 30
0.0
 10
23.54710375152406
 20
1.13003271628632
 30
0.0
 10
23.43321153710679
 20
1.180810864072144
 30
0.0
 10
23.08714160583307
 20
1.326072557980152
 30
0.0
 10
22.85204814007043
 20
1.413083397819448
 30
0.0
 10
22.50601212344658
 20
1.523979864587012
 30
0.0
 10
22.39211152643442
 20
1.557692774916108
 30
0.0
 10
22.16060821196904
 20
1.618809240204652
 30
0.0
 10
22.04398025588647
 20
1.64609865658148
 30
0.0
 10
21.69476756622091
 20
1.717329756069585
 30
0.0
 10
21.46677128452853
 20
1.750471689352614
 30
0.0
 10
21.00253462378423
 20
1.787333608304303
 30
0.0
 10
20.76787630247306
 20
1.790761480799234
 30
0.0
 10
20.31058051200878
 20
1.767800804460742
 30
0.0
 10
20.07584099197368
 20
1.741209287757058
 30
0.0
 10
19.84375000000065
 20
1.700282771357058
 30
0.0
1001
PE_URL
1000

  0
SPLINE
  5
A4
330
1F
100
AcDbEntity
  8
0
  6
Continuous
 62
     1
370
    15
100
AcDbSpline
210
0.0
220
0.0
230
1.0
 70
     8
 71
     3
 72
    13
 73
     9
 74
     0
 42
0.000000001
 43
0.00000001
 40
0.0
 40
0.0
 40
0.0
 40
0.0
 40
0.1974742396086151
 40
0.3952489591464922
 40
0.592664838022836
 40
0.7898554977377608
 40
0.9964781724540108
 40
1.0
 40
1.0
 40
1.0
 40
1.0
 10
19.84375000000063
 20
-1.407597815695923
 30
0.0
 10
20.10306263359075
 20
-1.491167514748436
 30
0.0
 10
20.62208247497949
 20
-1.658434073830555
 30
0.0
 10
21.40081697699078
 20
-1.780198219617517
 30
0.0
 10
22.17867937522478
 20
-1.799400982609583
 30
0.0
 10
22.9679875216034
 20
-1.691418372145329
 30
0.0
 10
23.50282639009092
 20
-1.571374487336559
 30
0.0
 10
23.7787963465069
 20
-1.464242308721418
 30
0.0
 10
23.78342134779845
 20
-1.462446872468521
 30
0.0
1001
PE_URL
1000

  0
SPLINE
  5
A5
330
1F
100
AcDbEntity
  8
외형선
  6
Continuous
370
    15
100
AcDbSpline
210
0.0
220
0.0
230
1.0
 70
    24
 71
     3
 72
    22
 73
    18
 74
     0
 42
0.000000001
 43
0.00000001
 40
0.0
 40
0.0
 40
0.0
 40
0.0
 40
0.125
 40
0.125
 40
0.25
 40
0.25
 40
0.375
 40
0.375
 40
0.5
 40
0.5
 40
0.625
 40
0.625
 40
0.75
 40
0.75
 40
0.875
 40
0.875
 40
1.0
 40
1.0
 40
1.0
 40
1.0
 10
19.84375000000001
 20
0.5464533386603021
 30
0.0
 10
19.84375000000001
 20
0.5459124446075662
 30
0.0
 10
19.84375
 20
0.53518592524598
 30
0.0
 10
19.84374999999999
 20
0.5034709552283564
 30
0.0
 10
19.84375
 20
0.4792614774146328
 30
0.0
 10
19.84375000000001
 20
0.4049338193816244
 30
0.0
 10
19.84375000000001
 20
0.3546580772730815
 30
0.0
 10
19.84375000000001
 20
0.2189517759636867
 30
0.0
 10
19.84375000000001
 20
0.1331882536282739
 30
0.0
 10
19.84375000000001
 20
-0.0753716972825828
 30
0.0
 10
19.84375000000001
 20
-0.1984058042528566
 30
0.0
 10
19.84375000000001
 20
-0.4659143567543434
 30
0.0
 10
19.84375000000001
 20
-0.6099760247237197
 30
0.0
 10
19.84375000000001
 20
-0.8872120035144827
 30
0.0
 10
19.84375000000001
 20
-1.019586302374465
 30
0.0
 10
19.84375000000001
 20
-1.244958526790603
 30
0.0
 10
19.84375000000001
 20
-1.337780782639929
 30
0.0
 10
19.84375000000001
 20
-1.407597815695703
 30
0.0
  0
SPLINE
  5
A6
330
1F
100
AcDbEntity
  8
0
  6
Continuous
 62
     1
370
    15
100
AcDbSpline
210
0.0
220
0.0
230
1.0
 70
     8
 71
     3
 72
    26
 73
    22
 74
     0
 42
0.000000001
 43
0.00000001
 40
0.0
 40
0.0
 40
0.0
 40
0.0
 40
0.1250000000000032
 40
0.1250000000000032
 40
0.2500000000000064
 40
0.2500000000000064
 40
0.3125000000000066
 40
0.3125000000000066
 40
0.3750000000000068
 40
0.3750000000000068
 40
0.5000000000000071
 40
0.5000000000000071
 40
0.5625000000000072
 40
0.5625000000000072
 40
0.6250000000000074
 40
0.6250000000000074
 40
0.7500000000000049
 40
0.7500000000000049
 40
0.8750000000000024
 40
0.8750000000000024
 40
1.0
 40
1.0
 40
1.0
 40
1.0
 10
25.4
 20
-1.77936987830761
 30
0.0
 10
25.17138337440811
 20
-1.767966694703769
 30
0.0
 10
24.93665318948655
 20
-1.741453237988499
 30
0.0
 10
24.47244375034734
 20
-1.659746542092768
 30
0.0
 10
24.24443302650342
 20
-1.604885180807046
 30
0.0
 10
23.89521344961854
 20
-1.502537455189769
 30
0.0
 10
23.77858893270951
 20
-1.465151434717783
 30
0.0
 10
23.54710375152406
 20
-1.384580730367826
 30
0.0
 10
23.43321153710678
 20
-1.34153402041937
 30
0.0
 10
23.08714160583308
 20
-1.203712842777121
 30
0.0
 10
22.85204814007042
 20
-1.1002668703039
 30
0.0
 10
22.50601212344659
 20
-0.9335485560662546
 30
0.0
 10
22.39211152643442
 20
-0.8761456446364245
 30
0.0
 10
22.16060821196905
 20
-0.757294272703322
 30
0.0
 10
22.04398025588647
 20
-0.6959985194690457
 30
0.0
 10
21.69476756622089
 20
-0.5082117200625866
 30
0.0
 10
21.46677128452851
 20
-0.3785684556859052
 30
0.0
 10
21.00253462378424
 20
-0.1135948215867221
 30
0.0
 10
20.76787630247305
 20
0.0214516227036811
 30
0.0
 10
20.31058051200876
 20
0.2866481623503451
 30
0.0
 10
20.07584099197368
 20
0.4191109915581395
 30
0.0
 10
19.84375000000065
 20
0.5464533386599493
 30
0.0
1001
PE_URL
1000

  0
LINE
  5
A7
330
1F
100
AcDbEntity
  8
0
  6
Continuous
 62
     1
370
    15
100
AcDbLine
 10
25.40000000000001
 20
-1.77936987830761
 30
0.0
 11
25.40000000000001
 21
-1.617490284686428
 31
0.0
1001
PE_URL
1000

  0
LINE
  5
A8
330
1F
100
AcDbEntity
  8
외형선
  6
Continuous
370
    15
100
AcDbLine
 10
19.84375000000001
 20
0.5464533386603001
 30
0.0
 11
19.84375
 21
1.099200228873232
 31
0.0
  0
SPLINE
  5
A9
330
1F
100
AcDbEntity
  8
0
  6
Continuous
 62
     1
370
    15
100
AcDbSpline
210
0.0
220
0.0
230
1.0
 70
     8
 71
     3
 72
    12
 73
     8
 74
     0
 42
0.000000001
 43
0.00000001
 40
0.0
 40
0.0
 40
0.0
 40
0.0
 40
0.0806980125512394
 40
0.3024145500223611
 40
0.5347362232057563
 40
0.7672169153997871
 40
1.0
 40
1.0
 40
1.0
 40
1.0
 10
21.89619558587035
 20
1.772897616022897
 30
0.0
 10
21.99044951381331
 20
1.776345897480844
 30
0.0
 10
22.34366464644884
 20
1.789268278745104
 30
0.0
 10
22.96796413964283
 20
1.693565915844377
 30
0.0
 10
23.76972840788618
 20
1.485509128560203
 30
0.0
 10
24.58443895703369
 20
1.167546307155433
 30
0.0
 10
25.12802855257854
 20
0.8940176297655072
 30
0.0
 10
25.4
 20
0.7571644027892709
 30
0.0
1001
PE_URL
1000

  0
LINE
  5
AA
330
1F
100
AcDbEntity
  8
0
  6
Continuous
 62
     1
370
    15
100
AcDbLine
 10
25.40000000000001
 20
0.1530215346864598
 30
0.0
 11
25.40000000000001
 21
0.7571644027892707
 31
0.0
1001
PE_URL
1000

  0
SPLINE
  5
AB
330
1F
100
AcDbEntity
  8
0
  6
Continuous
 62
     1
370
    15
100
AcDbSpline
210
0.0
220
0.0
230
1.0
 70
     8
 71
     3
 72
    10
 73
     6
 74
     0
 42
0.000000001
 43
0.00000001
 40
0.0
 40
0.0
 40
0.0
 40
0.0
 40
0.481713268877742
 40
0.9625369762944959
 40
1.0
 40
1.0
 40
1.0
 40
1.0
 10
25.40000000000001
 20
1.779369878307619
 30
0.0
 10
25.14035050028473
 20
1.753935733750695
 30
0.0
 10
24.6215309856499
 20
1.703114412898369
 30
0.0
 10
24.08280275519452
 20
1.576551439565827
 30
0.0
 10
23.80360261223418
 20
1.470138647525448
 30
0.0
 10
23.78342134779846
 20
1.46244687246853
 30
0.0
1001
PE_URL
1000

  0
LINE
  5
AC
330
1F
100
AcDbEntity
  8
0
  6
Continuous
 62
     1
370
    15
100
AcDbLine
 10
25.40000000000001
 20
0.7533388891799729
 30
0.0
 11
25.40000000000001
 21
1.779369878307619
 31
0.0
1001
PE_URL
1000

  0
SPLINE
  5
AD
330
1F
100
AcDbEntity
  8
0
  6
Continuous
 62
     1
370
    15
100
AcDbSpline
210
0.0
220
0.0
230
1.0
 70
     8
 71
     3
 72
     9
 73
     5
 74
     0
 42
0.000000001
 43
0.00000001
 40
0.0
 40
0.0
 40
0.0
 40
0.0
 40
0.1526580989880617
 40
1.0
 40
1.0
 40
1.0
 40
1.0
 10
20.80544035857586
 20
-1.77681574486109
 30
0.0
 10
20.75649173231355
 20
-1.779747208543349
 30
0.0
 10
20.43584954832993
 20
-1.798950013384307
 30
0.0
 10
20.11533522014579
 20
-1.745539628455992
 30
0.0
 10
19.84375000000065
 20
-1.700282771357055
 30
0.0
1001
PE_URL
1000

  0
LINE
  5
AE
330
1F
100
AcDbEntity
  8
외형선
  6
Continuous
370
    15
100
AcDbLine
 10
19.84375000000001
 20
-1.700282771356941
 30
0.0
 11
19.84375
 21
-1.407597815695699
 31
0.0
  0
LINE
  5
AF
330
1F
100
AcDbEntity
  8
외형선
  6
Continuous
370
    15
100
AcDbLine
 10
18.84375000000001
 20
0.0000000000000039
 30
0.0
 11
18.84375000000001
 21
1.785937500000004
 31
0.0
  0
LINE
  5
B0
330
1F
100
AcDbEntity
  8
외형선
  6
Continuous
370
    15
100
AcDbLine
 10
18.84375000000001
 20
-1.785937499999996
 30
0.0
 11
18.84375000000001
 21
0.0000000000000039
 31
0.0
  0
LINE
  5
B1
330
1F
100
AcDbEntity
  8
외형선
  6
Continuous
370
    15
100
AcDbLine
 10
16.62201350361914
 20
0.0000000000000039
 30
0.0
 11
16.62201350361914
 21
2.381250000000009
 31
0.0
  0
LINE
  5
B2
330
1F
100
AcDbEntity
  8
외형선
  6
Continuous
370
    15
100
AcDbLine
 10
16.62201350361914
 20
-2.381250000000001
 30
0.0
 11
16.62201350361914
 21
0.0000000000000039
 31
0.0
  0
LINE
  5
B7
330
1F
100
AcDbEntity
  8
외형선
  6
Continuous
370
    15
100
AcDbLine
 10
19.34390453600325
 20
1.311921846041084
 30
0.0
 11
19.34390453600326
 21
1.785937500000004
 31
0.0
  0
SPLINE
  5
B8
330
1F
100
AcDbEntity
  8
외형선
  6
Continuous
370
    15
100
AcDbSpline
210
0.0
220
0.0
230
1.0
 70
     8
 71
     3
 72
     8
 73
     4
 74
     0
 42
0.000000001
 43
0.00000001
 40
0.0
 40
0.0
 40
0.0
 40
0.0
 40
1.0
 40
1.0
 40
1.0
 40
1.0
 10
19.84375000000063
 20
1.099200228872949
 30
0.0
 10
19.67594851479117
 20
1.175420027317313
 30
0.0
 10
19.51140145823672
 20
1.246341910353781
 30
0.0
 10
19.34390453600325
 20
1.311919375742023
 30
0.0
  0
SPLINE
  5
B9
330
1F
100
AcDbEntity
  8
외형선
  6
Continuous
370
    15
100
AcDbSpline
210
0.0
220
0.0
230
1.0
 70
     8
 71
     3
 72
     8
 73
     4
 74
     0
 42
0.000000001
 43
0.00000001
 40
0.0
 40
0.0
 40
0.0
 40
0.0
 40
1.0
 40
1.0
 40
1.0
 40
1.0
 10
19.84375000000064
 20
0.5464533386599589
 30
0.0
 10
19.67594851479117
 20
0.6385216899220614
 30
0.0
 10
19.51140145823674
 20
0.7276061035521407
 30
0.0
 10
19.34390453600324
 20
0.8136415142551576
 30
0.0
  0
LINE
  5
BA
330
1F
100
AcDbEntity
  8
외형선
  6
Continuous
370
    15
100
AcDbLine
 10
19.34390453600325
 20
-1.211789512987481
 30
0.0
 11
19.34390453600326
 21
0.8136354038839718
 31
0.0
  0
SPLINE
  5
BB
330
1F
100
AcDbEntity
  8
외형선
  6
Continuous
370
    15
100
AcDbSpline
210
0.0
220
0.0
230
1.0
 70
     8
 71
     3
 72
     8
 73
     4
 74
     0
 42
0.000000001
 43
0.00000001
 40
0.0
 40
0.0
 40
0.0
 40
0.0
 40
1.0
 40
1.0
 40
1.0
 40
1.0
 10
19.84375000000063
 20
-1.407597815695923
 30
0.0
 10
19.67594851479117
 20
-1.348077390926529
 30
0.0
 10
19.51140145823672
 20
-1.282788145582122
 30
0.0
 10
19.34390453600325
 20
-1.211792187406299
 30
0.0
  0
SPLINE
  5
BC
330
1F
100
AcDbEntity
  8
외형선
  6
Continuous
370
    15
100
AcDbSpline
210
0.0
220
0.0
230
1.0
 70
     8
 71
     3
 72
     8
 73
     4
 74
     0
 42
0.000000001
 43
0.00000001
 40
0.0
 40
0.0
 40
0.0
 40
0.0
 40
1.0
 40
1.0
 40
1.0
 40
1.0
 10
19.84375000000064
 20
-1.700282771357052
 30
0.0
 10
19.67594851479117
 20
-1.670692953251715
 30
0.0
 10
19.51140145823674
 20
-1.63386135948677
 30
0.0
 10
19.34390453600324
 20
-1.589830255148897
 30
0.0
  0
LINE
  5
BD
330
1F
100
AcDbEntity
  8
외형선
  6
Continuous
370
    15
100
AcDbLine
 10
19.34390453600326
 20
-1.785937499999996
 30
0.0
 11
19.34390453600326
 21
-1.589833382292874
 31
0.0
  0
SPLINE
  5
BE
330
1F
100
AcDbEntity
  8
외형선
  6
Continuous
370
    15
100
AcDbSpline
210
0.0
220
0.0
230
1.0
 70
     8
 71
     3
 72
     8
 73
     4
 74
     0
 42
0.000000001
 43
0.00000001
 40
0.0
 40
0.0
 40
0.0
 40
0.0
 40
1.0
 40
1.0
 40
1.0
 40
1.0
 10
19.84375000000064
 20
1.700282771357056
 30
0.0
 10
19.67594851479117
 20
1.670692953251718
 30
0.0
 10
19.51140145823674
 20
1.633861359486773
 30
0.0
 10
19.34390453600324
 20
1.5898302551489
 30
0.0
  0
SPLINE
  5
BF
330
1F
100
AcDbEntity
  8
외형선
  6
Continuous
370
    15
100
AcDbSpline
210
0.0
220
0.0
230
1.0
 70
    24
 71
     3
 72
    22
 73
    18
 74
     0
 42
0.000000001
 43
0.00000001
 40
0.0
 40
0.0
 40
0.0
 40
0.0
 40
0.125
 40
0.125
 40
0.25
 40
0.25
 40
0.375
 40
0.375
 40
0.5
 40
0.5
 40
0.625
 40
0.625
 40
0.75
 40
0.75
 40
0.875
 40
0.875
 40
1.0
 40
1.0
 40
1.0
 40
1.0
 10
19.84375000000001
 20
-1.407597815695707
 30
0.0
 10
19.84375000000001
 20
-1.337780782639932
 30
0.0
 10
19.84375000000001
 20
-1.244958526790605
 30
0.0
 10
19.84375000000001
 20
-1.019586302374464
 30
0.0
 10
19.84375
 20
-0.8872120035144803
 30
0.0
 10
19.84375
 20
-0.6099760247237143
 30
0.0
 10
19.84375000000001
 20
-0.465914356754336
 30
0.0
 10
19.84375000000001
 20
-0.1984058042528475
 30
0.0
 10
19.84375000000001
 20
-0.0753716972825747
 30
0.0
 10
19.84375000000001
 20
0.1331882536282818
 30
0.0
 10
19.84375000000001
 20
0.2189517759636938
 30
0.0
 10
19.84375000000001
 20
0.354658077273087
 30
0.0
 10
19.84375000000001
 20
0.404933819381629
 30
0.0
 10
19.84375000000001
 20
0.4792614774146353
 30
0.0
 10
19.84375000000001
 20
0.5034709552283578
 30
0.0
 10
19.84375000000001
 20
0.53518592524598
 30
0.0
 10
19.84375000000001
 20
0.5459124446075654
 30
0.0
 10
19.84375000000001
 20
0.5464533386602997
 30
0.0
  0
SPLINE
  5
C0
330
1F
100
AcDbEntity
  8
외형선
  6
Continuous
370
    15
100
AcDbSpline
210
0.0
220
0.0
230
1.0
 70
    24
 71
     3
 72
    12
 73
     8
 74
     0
 42
0.000000001
 43
0.00000001
 40
0.0
 40
0.0
 40
0.0
 40
0.0
 40
0.110277990303398
 40
0.4071623369821415
 40
0.7126563498269466
 40
0.8558634196127776
 40
1.0
 40
1.0
 40
1.0
 40
1.0
 10
19.84375000000002
 20
1.134184626974987
 30
0.0
 10
19.84375000000002
 20
1.152267200582893
 30
0.0
 10
19.84375000000004
 20
1.219030685377917
 30
0.0
 10
19.84374999999999
 20
1.352151662487584
 30
0.0
 10
19.84375000000003
 20
1.496373510322036
 30
0.0
 10
19.84374999999996
 20
1.614070412124835
 30
0.0
 10
19.84374999999999
 20
1.671483410999949
 30
0.0
 10
19.84374999999999
 20
1.700282771356966
 30
0.0
  0
LINE
  5
C1
330
1F
100
AcDbEntity
  8
중심선
 62
     1
100
AcDbLine
 10
-28.4
 20
0.0
 30
0.0
 11
28.4
 21
0.0
 31
0.0
  0
LINE
  5
C2
330
1F
100
AcDbEntity
  8
참조1
100
AcDbLine
 10
0.0
 20
0.0
 30
0.0
 11
0.0000000000000107
 21
-40.0
 31
0.0
  0
LINE
  5
C3
330
1F
100
AcDbEntity
  8
참조1
100
AcDbLine
 10
0.0000000000000107
 20
-40.0
 30
0.0
 11
-15.15885681430867
 21
-39.99999999999999
 31
0.0
  0
CIRCLE
  5
C4
330
1F
100
AcDbEntity
  8
해칭선
100
AcDbCircle
 10
0.0
 20
0.0
 30
0.0
 40
3.0
  0
INSERT
  5
C5
330
1F
100
AcDbEntity
  8
0
  6
Continuous
 62
     7
100
AcDbBlockReference
 66
     1
  2
블럭10
 10
-13.9402729321252
 20
-52.04717430164393
 30
0.0
  0
ATTRIB
  5
C6
330
C5
100
AcDbEntity
  8
FORMAT
 62
     2
100
AcDbText
 10
-23.12156822086648
 20
-49.97180738881174
 30
0.0
 40
4.233333333333333
  1
E2002009 [ 4 FLUTE ]
 41
0.75
  7
SLDTEXTSTYLE0
 11
-23.12156822086648
 21
-52.08847405547841
 31
0.0
100
AcDbAttribute
  2
AUTOATTR0
 70
     0
 74
     1
  0
SEQEND
  5
C7
330
C5
100
AcDbEntity
  8
0
  6
Continuous
 62
     7
  0
HATCH
  5
C8
330
1F
100
AcDbEntity
  8
중심선
100
AcDbHatch
 10
0.0
 20
0.0
 30
0.0
210
0.0
220
0.0
230
1.0
  2
SOLID
 70
     1
 71
     0
 91
        1
 92
        0
 93
        4
 72
     1
 10
-8.225363627744361
 20
-35.79999999999999
 11
-11.67163887158164
 21
-35.79999999999999
 72
     1
 10
-11.67163887158164
 20
-35.79999999999999
 11
-13.79986873078566
 21
-38.33632558057259
 72
     1
 10
-13.79986873078566
 20
-38.33632558057259
 11
-10.35356040183524
 21
-38.33628615127009
 72
     1
 10
-10.35356040183524
 20
-38.33628615127009
 11
-8.225363627744361
 21
-35.79999999999999
 97
        0
 75
     0
 76
     1
 98
        1
 10
14.09411934298439
 20
-0.0010749287238892
  0
HATCH
  5
C9
330
1F
100
AcDbEntity
  8
중심선
100
AcDbHatch
 10
0.0
 20
0.0
 30
0.0
210
0.0
220
0.0
230
1.0
  2
SOLID
 70
     1
 71
     0
 91
        1
 92
        0
 93
        4
 72
     1
 10
-3.212599636708379
 20
-35.79999999999999
 11
-6.65887488054566
 21
-35.79999999999999
 72
     1
 10
-6.65887488054566
 20
-35.79999999999999
 11
-11.19001288890308
 21
-41.20000000000001
 72
     1
 10
-11.19001288890308
 20
-41.20000000000001
 11
-7.743737645065799
 21
-41.20000000000001
 72
     1
 10
-7.743737645065799
 20
-41.20000000000001
 11
-3.212599636708379
 21
-35.79999999999999
 97
        0
 75
     0
 76
     1
 98
        1
 10
14.09411934298439
 20
-0.0010749287238892
  0
HATCH
  5
CA
330
1F
100
AcDbEntity
  8
중심선
100
AcDbHatch
 10
0.0
 20
0.0
 30
0.0
210
0.0
220
0.0
230
1.0
  2
SOLID
 70
     1
 71
     0
 91
        1
 92
        0
 93
        4
 72
     1
 10
1.800164354327491
 20
-35.79999999999999
 11
-1.646110889509629
 21
-35.79999999999999
 72
     1
 10
-1.646110889509629
 20
-35.79999999999999
 11
-8.694547791398879
 21
-44.20000000000001
 72
     1
 10
-8.694547791398879
 20
-44.20000000000001
 11
-5.248272547561591
 21
-44.20000000000001
 72
     1
 10
-5.248272547561591
 20
-44.20000000000001
 11
1.800164354327491
 21
-35.79999999999999
 97
        0
 75
     0
 76
     1
 98
        1
 10
14.09411934298439
 20
-0.0010749287238892
  0
HATCH
  5
CB
330
1F
100
AcDbEntity
  8
중심선
100
AcDbHatch
 10
0.0
 20
0.0
 30
0.0
210
0.0
220
0.0
230
1.0
  2
SOLID
 70
     1
 71
     0
 91
        1
 92
        0
 93
        6
 72
     3
 10
6.600054785339687
 20
-40.00000000005127
 11
3.960054785062283
 21
1.540882976769353E-10
 40
0.3939339440162628
 50
17.09539180608439
 51
320.0019657685075
 73
     0
 72
     1
 10
8.283054441040282
 20
-38.58789400463827
 11
10.58835631474132
 21
-36.65356729459038
 72
     3
 10
6.60005478528684
 20
-40.00000000000014
 11
6.600054785286829
 21
-1.278976924368180E-13
 40
0.636358354079598
 50
39.99873849337413
 51
368.4976242363724
 73
     1
 72
     1
 10
13.02538727718745
 20
-39.03999999993002
 11
5.280122092122761
 21
-39.03999999992999
 72
     1
 10
5.280122092122761
 20
-39.03999999992999
 11
5.280097047676827
 21
-40.95999999992991
 72
     1
 10
5.280097047676827
 20
-40.95999999992991
 11
9.721476817148865
 21
-40.95999999992988
 97
        0
 75
     0
 76
     1
 98
        1
 10
14.09411934298439
 20
-0.0010749287238892
  0
DIMENSION
  5
CC
330
1F
100
AcDbEntity
  8
치수문자_일반주서
100
AcDbDimension
  2
_D
 10
63.65700243995494
 20
-1.779369878307477
 30
0.0
 11
63.65700243995484
 21
22.82086987830776
 31
0.0
 70
   160
  1
%%c<>
 71
     2
 42
3.558739756615237
 52
-270.0
  3
SLDDIMSTYLE0
100
AcDbAlignedDimension
 13
25.40000000000001
 23
1.779369878307619
 33
0.0
 14
25.40000000000001
 24
-1.779369878307618
 34
0.0
 50
90.0000000000002
100
AcDbRotatedDimension
1001
PE_URL
1000

1001
ACAD
1000
DSTYLE
1002
{
1070
   171
1070
     8
1070
   273
1070
     7
1002
}
  0
DIMENSION
  5
E1
330
1F
100
AcDbEntity
  8
치수문자_일반주서
100
AcDbDimension
  2
_D_1
 10
19.84375000000002
 20
12.38125
 30
0.0
 11
45.129
 21
12.38125
 31
0.0
 70
   160
  1
<>
 71
     2
 42
5.556249999999981
  3
SLDDIMSTYLE0
100
AcDbAlignedDimension
 13
25.4
 23
1.779369878307619
 33
0.0
 14
19.84375000000002
 24
1.700282771356947
 34
0.0
 50
0.0000000000000733
100
AcDbRotatedDimension
1001
PE_URL
1000

1001
ACAD
1000
DSTYLE
1002
{
1070
   171
1070
     8
1070
   273
1070
     7
1002
}
  0
DIMENSION
  5
F6
330
1F
100
AcDbEntity
  8
치수문자_일반주서
100
AcDbDimension
  2
_D_2
 10
-25.40000000000001
 20
22.38125
 30
0.0
 11
-1.29615954321876
 21
22.38125
 31
0.0
 70
   160
  1
<>
 71
     2
 42
50.80000000000001
  3
SLDDIMSTYLE0
100
AcDbAlignedDimension
 13
25.4
 23
1.779369878307619
 33
0.0
 14
-25.40000000000001
 24
1.779369878307576
 34
0.0
100
AcDbRotatedDimension
1001
PE_URL
1000

1001
ACAD
1000
DSTYLE
1002
{
1070
   171
1070
     8
1070
   273
1070
     7
1002
}
  0
DIMENSION
  5
10A
330
1F
100
AcDbEntity
  8
치수문자_일반주서
100
AcDbDimension
  2
_D_3
 10
-35.4
 20
-2.381250000000101
 30
0.0
 11
-35.40000000000008
 21
22.98524999999997
 31
0.0
 70
   160
  1
%%c<>
 71
     2
 42
4.762500000000037
 52
-270.0
  3
SLDDIMSTYLE0
100
AcDbAlignedDimension
 13
-16.62201350361915
 23
2.381250000000007
 33
0.0
 14
-16.62201350361914
 24
-2.381250000000029
 34
0.0
 50
90.0000000000002
100
AcDbRotatedDimension
1001
PE_URL
1000

1001
ACAD
1000
DSTYLE
1002
{
1070
   171
1070
     8
1070
   273
1070
     7
1002
}
  0
LINE
  5
11E
330
1F
100
AcDbEntity
  8
참조1
100
AcDbLine
 10
82.8134838153456
 20
7.440000000000007
 30
0.0
 11
82.8134838153456
 21
-7.439999999999998
 31
0.0
  0
LINE
  5
11F
330
1F
100
AcDbEntity
  8
참조1
100
AcDbLine
 10
95.51348381534561
 20
5.440000000000007
 30
0.0
 11
82.8134838153456
 21
5.440000000000007
 31
0.0
  0
SOLID
  5
120
330
1F
100
AcDbEntity
  8
참조1
100
AcDbTrace
 10
82.8134838153456
 20
5.440000000000007
 30
0.0
 11
89.1634838153456
 21
4.424000000000007
 31
0.0
 12
89.1634838153456
 22
6.456000000000008
 32
0.0
 13
89.1634838153456
 23
6.456000000000008
 33
0.0
  0
LINE
  5
121
330
1F
100
AcDbEntity
  8
참조1
100
AcDbLine
 10
95.51348381534561
 20
-5.439999999999998
 30
0.0
 11
82.8134838153456
 21
-5.439999999999998
 31
0.0
  0
SOLID
  5
122
330
1F
100
AcDbEntity
  8
참조1
100
AcDbTrace
 10
82.8134838153456
 20
-5.439999999999998
 30
0.0
 11
89.1634838153456
 21
-6.455999999999998
 31
0.0
 12
89.1634838153456
 22
-4.423999999999998
 32
0.0
 13
89.1634838153456
 23
-4.423999999999998
 33
0.0
  0
MTEXT
  5
123
330
1F
100
AcDbEntity
  8
참조1
100
AcDbMText
 10
92.1978339479716
 20
11.01029177718834
 30
0.0
 40
3.5
 41
0.0
 71
     1
 72
     1
  1
A
  7
SLDTEXTSTYLE0
 73
     1
 44
1.0
  0
MTEXT
  5
124
330
1F
100
AcDbEntity
  8
참조1
100
AcDbMText
 10
92.1978339479716
 20
0.1302917771883327
 30
0.0
 40
3.5
 41
0.0
 71
     1
 72
     1
  1
A
  7
SLDTEXTSTYLE0
 73
     1
 44
1.0
  0
INSERT
  5
12B
330
1F
100
AcDbEntity
  8
해칭선
100
AcDbBlockReference
  2
SW_DOWELSYMBOL_0
 10
0.0
 20
0.0
 30
0.0
  0
LINE
  5
1F6
330
1F
100
AcDbEntity
  8
0
  6
Continuous
 62
     1
370
    15
100
AcDbLine
 10
-21.89619558587035
 20
-1.785937499999988
 30
0.0
 11
-20.8054403585759
 21
-1.785937499999992
 31
0.0
1001
PE_URL
1000

  0
LINE
  5
1F7
330
1F
100
AcDbEntity
  8
0
  6
Continuous
 62
     1
370
    15
100
AcDbLine
 10
-20.80544035857587
 20
1.785937500000009
 30
0.0
 11
-21.89619558587035
 21
1.785937500000011
 31
0.0
1001
PE_URL
1000

  0
LINE
  5
1F8
330
1F
100
AcDbEntity
  8
외형선
  6
Continuous
370
    15
100
AcDbLine
 10
-16.62201350361915
 20
2.381250000000007
 30
0.0
 11
-18.84375000000002
 21
1.785937500000007
 31
0.0
  0
LINE
  5
1F9
330
1F
100
AcDbEntity
  8
외형선
  6
Continuous
370
    15
100
AcDbLine
 10
-18.84375000000002
 20
-1.785937499999993
 30
0.0
 11
-16.62201350361916
 21
-2.381250000000003
 31
0.0
  0
LINE
  5
1FA
330
1F
100
AcDbEntity
  8
외형선
  6
Continuous
370
    15
100
AcDbLine
 10
-18.84375000000002
 20
1.785937500000007
 30
0.0
 11
-19.34390453600327
 21
1.785937500000007
 31
0.0
  0
LINE
  5
1FB
330
1F
100
AcDbEntity
  8
외형선
  6
Continuous
370
    15
100
AcDbLine
 10
-19.34390453600327
 20
-1.785937499999993
 30
0.0
 11
-18.84375000000002
 21
-1.785937499999993
 31
0.0
  0
LINE
  5
1FC
330
1F
100
AcDbEntity
  8
0
  6
Continuous
 62
     1
370
    15
100
AcDbLine
 10
-25.40000000000002
 20
1.617490284686449
 30
0.0
 11
-25.40000000000002
 21
-0.1530215346864393
 31
0.0
1001
PE_URL
1000

  0
SPLINE
  5
1FD
330
1F
100
AcDbEntity
  8
0
  6
Continuous
 62
     1
370
    15
100
AcDbSpline
210
0.0
220
0.0
230
1.0
 70
     8
 71
     3
 72
    26
 73
    22
 74
     0
 42
0.000000001
 43
0.00000001
 40
0.0
 40
0.0
 40
0.0
 40
0.0
 40
0.1250000000000004
 40
0.1250000000000004
 40
0.2500000000000007
 40
0.2500000000000007
 40
0.3125000000000009
 40
0.3125000000000009
 40
0.3750000000000011
 40
0.3750000000000011
 40
0.4999999999999986
 40
0.4999999999999986
 40
0.5624999999999988
 40
0.5624999999999988
 40
0.6249999999999989
 40
0.6249999999999989
 40
0.7499999999999992
 40
0.7499999999999992
 40
0.8749999999999997
 40
0.8749999999999997
 40
1.0
 40
1.0
 40
1.0
 40
1.0
 10
-25.40000000000001
 20
1.617490284686449
 30
0.0
 10
-25.17138337440814
 20
1.561066300173473
 30
0.0
 10
-24.93665318948655
 20
1.490500804824726
 30
0.0
 10
-24.47244375034736
 20
1.325971284868974
 30
0.0
 10
-24.24443302650342
 20
1.232390640690604
 30
0.0
 10
-23.89521344961857
 20
1.076734452157933
 30
0.0
 10
-23.77858893270953
 20
1.022430809590379
 30
0.0
 10
-23.54710375152408
 20
0.9100376622692667
 30
0.0
 10
-23.43321153710678
 20
0.8521224359066462
 30
0.0
 10
-23.08714160583309
 20
0.672666748094987
 30
0.0
 10
-22.85204814007045
 20
0.5455631408414277
 30
0.0
 10
-22.50601212344656
 20
0.3508315297232555
 30
0.0
 10
-22.39211152643442
 20
0.2853245729532172
 30
0.0
 10
-22.16060821196907
 20
0.1526886646178204
 30
0.0
 10
-22.04398025588648
 20
0.0857424107107831
 30
0.0
 10
-21.69476756622089
 20
-0.1150890668237595
 30
0.0
 10
-21.46677128452852
 20
-0.248209448834911
 30
0.0
 10
-21.00253462378423
 20
-0.5096438756080286
 30
0.0
 10
-20.76787630247306
 20
-0.637590685709337
 30
0.0
 10
-20.31058051200876
 20
-0.8786075177529178
 30
0.0
 10
-20.07584099197368
 20
-0.9937784645372087
 30
0.0
 10
-19.84375000000064
 20
-1.099200228872936
 30
0.0
1001
PE_URL
1000

  0
SPLINE
  5
1FE
330
1F
100
AcDbEntity
  8
외형선
  6
Continuous
370
    15
100
AcDbSpline
210
0.0
220
0.0
230
1.0
 70
    24
 71
     3
 72
    11
 73
     7
 74
     0
 42
0.000000001
 43
0.00000001
 40
0.0
 40
0.0
 40
0.0
 40
0.0
 40
0.2385364662396038
 40
0.4814509392510863
 40
0.7785658245328392
 40
1.0
 40
1.0
 40
1.0
 40
1.0
 10
-19.84375000000003
 20
-1.700282771356935
 30
0.0
 10
-19.84375000000003
 20
-1.652613963057374
 30
0.0
 10
-19.84374999999999
 20
-1.55640145144185
 30
0.0
 10
-19.84375000000007
 20
-1.404186719086158
 30
0.0
 10
-19.84374999999999
 20
-1.259729546067893
 30
0.0
 10
-19.84375
 20
-1.171745951059767
 30
0.0
 10
-19.84375000000002
 20
-1.134174626974976
 30
0.0
  0
SPLINE
  5
1FF
330
1F
100
AcDbEntity
  8
0
  6
Continuous
 62
     1
370
    15
100
AcDbSpline
210
0.0
220
0.0
230
1.0
 70
     8
 71
     3
 72
    26
 73
    22
 74
     0
 42
0.000000001
 43
0.00000001
 40
0.0
 40
0.0
 40
0.0
 40
0.0
 40
0.1250000000000031
 40
0.1250000000000031
 40
0.2500000000000063
 40
0.2500000000000063
 40
0.3125000000000064
 40
0.3125000000000064
 40
0.3750000000000065
 40
0.3750000000000065
 40
0.5000000000000069
 40
0.5000000000000069
 40
0.562500000000007
 40
0.562500000000007
 40
0.6250000000000072
 40
0.6250000000000072
 40
0.7500000000000048
 40
0.7500000000000048
 40
0.8750000000000024
 40
0.8750000000000024
 40
1.0
 40
1.0
 40
1.0
 40
1.0
 10
-25.40000000000001
 20
-0.1530215346864393
 30
0.0
 10
-25.17138337440814
 20
-0.2856203970822809
 30
0.0
 10
-24.93665318948657
 20
-0.4180970363937349
 30
0.0
 10
-24.47244375034734
 20
-0.6728342499850577
 30
0.0
 10
-24.24443302650343
 20
-0.7948864293806441
 30
0.0
 10
-23.89521344961857
 20
-0.967696223501169
 30
0.0
 10
-23.77858893270953
 20
-1.023410480759172
 30
0.0
 10
-23.54710375152408
 20
-1.130032716286302
 30
0.0
 10
-23.4332115371068
 20
-1.180810864072126
 30
0.0
 10
-23.08714160583309
 20
-1.326072557980134
 30
0.0
 10
-22.85204814007044
 20
-1.41308339781943
 30
0.0
 10
-22.5060121234466
 20
-1.523979864586996
 30
0.0
 10
-22.39211152643442
 20
-1.557692774916091
 30
0.0
 10
-22.16060821196905
 20
-1.618809240204637
 30
0.0
 10
-22.04398025588648
 20
-1.646098656581464
 30
0.0
 10
-21.69476756622092
 20
-1.71732975606957
 30
0.0
 10
-21.46677128452854
 20
-1.7504716893526
 30
0.0
 10
-21.00253462378425
 20
-1.78733360830429
 30
0.0
 10
-20.76787630247307
 20
-1.79076148079922
 30
0.0
 10
-20.31058051200879
 20
-1.76780080446073
 30
0.0
 10
-20.0758409919737
 20
-1.741209287757046
 30
0.0
 10
-19.84375000000067
 20
-1.700282771357047
 30
0.0
1001
PE_URL
1000

  0
SPLINE
  5
200
330
1F
100
AcDbEntity
  8
0
  6
Continuous
 62
     1
370
    15
100
AcDbSpline
210
0.0
220
0.0
230
1.0
 70
     8
 71
     3
 72
    13
 73
     9
 74
     0
 42
0.000000001
 43
0.00000001
 40
0.0
 40
0.0
 40
0.0
 40
0.0
 40
0.1974742396086151
 40
0.3952489591464922
 40
0.592664838022836
 40
0.7898554977377608
 40
0.9964781724540108
 40
1.0
 40
1.0
 40
1.0
 40
1.0
 10
-19.84375000000064
 20
1.407597815695935
 30
0.0
 10
-20.10306263359076
 20
1.491167514748448
 30
0.0
 10
-20.6220824749795
 20
1.658434073830569
 30
0.0
 10
-21.40081697699079
 20
1.780198219617532
 30
0.0
 10
-22.17867937522479
 20
1.799400982609598
 30
0.0
 10
-22.96798752160341
 20
1.691418372145347
 30
0.0
 10
-23.50282639009092
 20
1.571374487336578
 30
0.0
 10
-23.77879634650691
 20
1.464242308721437
 30
0.0
 10
-23.78342134779846
 20
1.462446872468539
 30
0.0
1001
PE_URL
1000

  0
SPLINE
  5
201
330
1F
100
AcDbEntity
  8
외형선
  6
Continuous
370
    15
100
AcDbSpline
210
0.0
220
0.0
230
1.0
 70
    24
 71
     3
 72
    22
 73
    18
 74
     0
 42
0.000000001
 43
0.00000001
 40
0.0
 40
0.0
 40
0.0
 40
0.0
 40
0.125
 40
0.125
 40
0.25
 40
0.25
 40
0.375
 40
0.375
 40
0.5
 40
0.5
 40
0.625
 40
0.625
 40
0.75
 40
0.75
 40
0.875
 40
0.875
 40
1.0
 40
1.0
 40
1.0
 40
1.0
 10
-19.84375000000002
 20
-0.5464533386602899
 30
0.0
 10
-19.84375000000002
 20
-0.545912444607555
 30
0.0
 10
-19.84375000000002
 20
-0.5351859252459683
 30
0.0
 10
-19.84375
 20
-0.5034709552283456
 30
0.0
 10
-19.84375000000002
 20
-0.4792614774146221
 30
0.0
 10
-19.84375000000002
 20
-0.4049338193816124
 30
0.0
 10
-19.84375000000003
 20
-0.3546580772730697
 30
0.0
 10
-19.84375000000002
 20
-0.2189517759636755
 30
0.0
 10
-19.84375000000002
 20
-0.1331882536282632
 30
0.0
 10
-19.84375000000002
 20
0.0753716972825937
 30
0.0
 10
-19.84375000000002
 20
0.1984058042528686
 30
0.0
 10
-19.84375000000002
 20
0.4659143567543544
 30
0.0
 10
-19.84375000000002
 20
0.6099760247237309
 30
0.0
 10
-19.84375000000002
 20
0.8872120035144941
 30
0.0
 10
-19.84375000000002
 20
1.019586302374477
 30
0.0
 10
-19.84375000000002
 20
1.244958526790614
 30
0.0
 10
-19.84375000000002
 20
1.33778078263994
 30
0.0
 10
-19.84375000000002
 20
1.407597815695715
 30
0.0
  0
SPLINE
  5
202
330
1F
100
AcDbEntity
  8
0
  6
Continuous
 62
     1
370
    15
100
AcDbSpline
210
0.0
220
0.0
230
1.0
 70
     8
 71
     3
 72
    26
 73
    22
 74
     0
 42
0.000000001
 43
0.00000001
 40
0.0
 40
0.0
 40
0.0
 40
0.0
 40
0.1250000000000032
 40
0.1250000000000032
 40
0.2500000000000064
 40
0.2500000000000064
 40
0.3125000000000066
 40
0.3125000000000066
 40
0.3750000000000068
 40
0.3750000000000068
 40
0.5000000000000071
 40
0.5000000000000071
 40
0.5625000000000072
 40
0.5625000000000072
 40
0.6250000000000074
 40
0.6250000000000074
 40
0.7500000000000049
 40
0.7500000000000049
 40
0.8750000000000024
 40
0.8750000000000024
 40
1.0
 40
1.0
 40
1.0
 40
1.0
 10
-25.40000000000001
 20
1.779369878307631
 30
0.0
 10
-25.17138337440811
 20
1.76796669470379
 30
0.0
 10
-24.93665318948655
 20
1.74145323798852
 30
0.0
 10
-24.47244375034736
 20
1.659746542092787
 30
0.0
 10
-24.24443302650343
 20
1.604885180807065
 30
0.0
 10
-23.89521344961856
 20
1.502537455189787
 30
0.0
 10
-23.77858893270951
 20
1.465151434717801
 30
0.0
 10
-23.54710375152408
 20
1.384580730367845
 30
0.0
 10
-23.43321153710679
 20
1.341534020419389
 30
0.0
 10
-23.08714160583309
 20
1.203712842777139
 30
0.0
 10
-22.85204814007043
 20
1.100266870303916
 30
0.0
 10
-22.5060121234466
 20
0.9335485560662711
 30
0.0
 10
-22.39211152643442
 20
0.8761456446364402
 30
0.0
 10
-22.16060821196907
 20
0.7572942727033378
 30
0.0
 10
-22.04398025588648
 20
0.6959985194690617
 30
0.0
 10
-21.69476756622089
 20
0.5082117200626015
 30
0.0
 10
-21.46677128452852
 20
0.3785684556859194
 30
0.0
 10
-21.00253462378425
 20
0.1135948215867361
 30
0.0
 10
-20.76787630247306
 20
-0.0214516227036683
 30
0.0
 10
-20.31058051200877
 20
-0.286648162350333
 30
0.0
 10
-20.0758409919737
 20
-0.4191109915581273
 30
0.0
 10
-19.84375000000066
 20
-0.5464533386599382
 30
0.0
1001
PE_URL
1000

  0
LINE
  5
203
330
1F
100
AcDbEntity
  8
0
  6
Continuous
 62
     1
370
    15
100
AcDbLine
 10
-25.40000000000002
 20
1.779369878307631
 30
0.0
 11
-25.40000000000002
 21
1.617490284686449
 31
0.0
1001
PE_URL
1000

  0
LINE
  5
204
330
1F
100
AcDbEntity
  8
외형선
  6
Continuous
370
    15
100
AcDbLine
 10
-19.84375000000002
 20
-0.5464533386602881
 30
0.0
 11
-19.84375000000002
 21
-1.09920022887322
 31
0.0
  0
SPLINE
  5
205
330
1F
100
AcDbEntity
  8
0
  6
Continuous
 62
     1
370
    15
100
AcDbSpline
210
0.0
220
0.0
230
1.0
 70
     8
 71
     3
 72
    12
 73
     8
 74
     0
 42
0.000000001
 43
0.00000001
 40
0.0
 40
0.0
 40
0.0
 40
0.0
 40
0.0806980125512394
 40
0.3024145500223611
 40
0.5347362232057563
 40
0.7672169153997871
 40
1.0
 40
1.0
 40
1.0
 40
1.0
 10
-21.89619558587036
 20
-1.772897616022882
 30
0.0
 10
-21.99044951381332
 20
-1.776345897480829
 30
0.0
 10
-22.34366464644885
 20
-1.789268278745088
 30
0.0
 10
-22.96796413964285
 20
-1.693565915844359
 30
0.0
 10
-23.76972840788619
 20
-1.485509128560184
 30
0.0
 10
-24.5844389570337
 20
-1.167546307155413
 30
0.0
 10
-25.12802855257856
 20
-0.8940176297654869
 30
0.0
 10
-25.40000000000001
 20
-0.7571644027892497
 30
0.0
1001
PE_URL
1000

  0
LINE
  5
206
330
1F
100
AcDbEntity
  8
0
  6
Continuous
 62
     1
370
    15
100
AcDbLine
 10
-25.40000000000002
 20
-0.1530215346864393
 30
0.0
 11
-25.40000000000002
 21
-0.7571644027892497
 31
0.0
1001
PE_URL
1000

  0
SPLINE
  5
207
330
1F
100
AcDbEntity
  8
0
  6
Continuous
 62
     1
370
    15
100
AcDbSpline
210
0.0
220
0.0
230
1.0
 70
     8
 71
     3
 72
    10
 73
     6
 74
     0
 42
0.000000001
 43
0.00000001
 40
0.0
 40
0.0
 40
0.0
 40
0.0
 40
0.481713268877742
 40
0.9625369762944959
 40
1.0
 40
1.0
 40
1.0
 40
1.0
 10
-25.40000000000002
 20
-1.779369878307598
 30
0.0
 10
-25.14035050028474
 20
-1.753935733750674
 30
0.0
 10
-24.62153098564992
 20
-1.703114412898349
 30
0.0
 10
-24.08280275519452
 20
-1.576551439565807
 30
0.0
 10
-23.80360261223419
 20
-1.47013864752543
 30
0.0
 10
-23.78342134779847
 20
-1.462446872468511
 30
0.0
1001
PE_URL
1000

  0
LINE
  5
208
330
1F
100
AcDbEntity
  8
0
  6
Continuous
 62
     1
370
    15
100
AcDbLine
 10
-25.40000000000002
 20
-0.7533388891799515
 30
0.0
 11
-25.40000000000002
 21
-1.779369878307598
 31
0.0
1001
PE_URL
1000

  0
SPLINE
  5
209
330
1F
100
AcDbEntity
  8
0
  6
Continuous
 62
     1
370
    15
100
AcDbSpline
210
0.0
220
0.0
230
1.0
 70
     8
 71
     3
 72
     9
 73
     5
 74
     0
 42
0.000000001
 43
0.00000001
 40
0.0
 40
0.0
 40
0.0
 40
0.0
 40
0.1526580989880617
 40
1.0
 40
1.0
 40
1.0
 40
1.0
 10
-20.80544035857587
 20
1.776815744861104
 30
0.0
 10
-20.75649173231355
 20
1.779747208543363
 30
0.0
 10
-20.43584954832994
 20
1.79895001338432
 30
0.0
 10
-20.1153352201458
 20
1.745539628456005
 30
0.0
 10
-19.84375000000066
 20
1.700282771357067
 30
0.0
1001
PE_URL
1000

  0
LINE
  5
20A
330
1F
100
AcDbEntity
  8
외형선
  6
Continuous
370
    15
100
AcDbLine
 10
-19.84375000000002
 20
1.700282771356952
 30
0.0
 11
-19.84375
 21
1.40759781569571
 31
0.0
  0
LINE
  5
20B
330
1F
100
AcDbEntity
  8
외형선
  6
Continuous
370
    15
100
AcDbLine
 10
-18.84375000000002
 20
0.0000000000000059
 30
0.0
 11
-18.84375000000002
 21
-1.785937499999993
 31
0.0
  0
LINE
  5
20C
330
1F
100
AcDbEntity
  8
외형선
  6
Continuous
370
    15
100
AcDbLine
 10
-18.84375000000002
 20
1.785937500000007
 30
0.0
 11
-18.84375000000002
 21
0.0000000000000059
 31
0.0
  0
LINE
  5
20D
330
1F
100
AcDbEntity
  8
외형선
  6
Continuous
370
    15
100
AcDbLine
 10
-16.62201350361915
 20
0.0000000000000024
 30
0.0
 11
-16.62201350361916
 21
-2.381250000000003
 31
0.0
  0
LINE
  5
20E
330
1F
100
AcDbEntity
  8
외형선
  6
Continuous
370
    15
100
AcDbLine
 10
-16.62201350361915
 20
2.381250000000007
 30
0.0
 11
-16.62201350361915
 21
0.0000000000000024
 31
0.0
  0
LINE
  5
20F
330
1F
100
AcDbEntity
  8
외형선
  6
Continuous
370
    15
100
AcDbLine
 10
-19.34390453600327
 20
-1.311921846041073
 30
0.0
 11
-19.34390453600327
 21
-1.785937499999993
 31
0.0
  0
SPLINE
  5
210
330
1F
100
AcDbEntity
  8
외형선
  6
Continuous
370
    15
100
AcDbSpline
210
0.0
220
0.0
230
1.0
 70
     8
 71
     3
 72
     8
 73
     4
 74
     0
 42
0.000000001
 43
0.00000001
 40
0.0
 40
0.0
 40
0.0
 40
0.0
 40
1.0
 40
1.0
 40
1.0
 40
1.0
 10
-19.84375000000064
 20
-1.099200228872937
 30
0.0
 10
-19.67594851479118
 20
-1.175420027317301
 30
0.0
 10
-19.51140145823674
 20
-1.24634191035377
 30
0.0
 10
-19.34390453600327
 20
-1.311919375742012
 30
0.0
  0
SPLINE
  5
211
330
1F
100
AcDbEntity
  8
외형선
  6
Continuous
370
    15
100
AcDbSpline
210
0.0
220
0.0
230
1.0
 70
     8
 71
     3
 72
     8
 73
     4
 74
     0
 42
0.000000001
 43
0.00000001
 40
0.0
 40
0.0
 40
0.0
 40
0.0
 40
1.0
 40
1.0
 40
1.0
 40
1.0
 10
-19.84375000000064
 20
-0.546453338659947
 30
0.0
 10
-19.67594851479119
 20
-0.6385216899220503
 30
0.0
 10
-19.51140145823675
 20
-0.7276061035521295
 30
0.0
 10
-19.34390453600325
 20
-0.8136415142551467
 30
0.0
  0
LINE
  5
212
330
1F
100
AcDbEntity
  8
외형선
  6
Continuous
370
    15
100
AcDbLine
 10
-19.34390453600325
 20
1.211789512987493
 30
0.0
 11
-19.34390453600327
 21
-0.8136354038839617
 31
0.0
  0
SPLINE
  5
213
330
1F
100
AcDbEntity
  8
외형선
  6
Continuous
370
    15
100
AcDbSpline
210
0.0
220
0.0
230
1.0
 70
     8
 71
     3
 72
     8
 73
     4
 74
     0
 42
0.000000001
 43
0.00000001
 40
0.0
 40
0.0
 40
0.0
 40
0.0
 40
1.0
 40
1.0
 40
1.0
 40
1.0
 10
-19.84375000000064
 20
1.407597815695935
 30
0.0
 10
-19.67594851479118
 20
1.34807739092654
 30
0.0
 10
-19.51140145823674
 20
1.282788145582134
 30
0.0
 10
-19.34390453600325
 20
1.211792187406311
 30
0.0
  0
SPLINE
  5
214
330
1F
100
AcDbEntity
  8
외형선
  6
Continuous
370
    15
100
AcDbSpline
210
0.0
220
0.0
230
1.0
 70
     8
 71
     3
 72
     8
 73
     4
 74
     0
 42
0.000000001
 43
0.00000001
 40
0.0
 40
0.0
 40
0.0
 40
0.0
 40
1.0
 40
1.0
 40
1.0
 40
1.0
 10
-19.84375000000064
 20
1.700282771357064
 30
0.0
 10
-19.67594851479118
 20
1.670692953251726
 30
0.0
 10
-19.51140145823675
 20
1.633861359486782
 30
0.0
 10
-19.34390453600325
 20
1.589830255148908
 30
0.0
  0
LINE
  5
215
330
1F
100
AcDbEntity
  8
외형선
  6
Continuous
370
    15
100
AcDbLine
 10
-19.34390453600327
 20
1.785937500000007
 30
0.0
 11
-19.34390453600327
 21
1.589833382292885
 31
0.0
  0
SPLINE
  5
216
330
1F
100
AcDbEntity
  8
외형선
  6
Continuous
370
    15
100
AcDbSpline
210
0.0
220
0.0
230
1.0
 70
     8
 71
     3
 72
     8
 73
     4
 74
     0
 42
0.000000001
 43
0.00000001
 40
0.0
 40
0.0
 40
0.0
 40
0.0
 40
1.0
 40
1.0
 40
1.0
 40
1.0
 10
-19.84375000000066
 20
-1.700282771357045
 30
0.0
 10
-19.67594851479119
 20
-1.670692953251707
 30
0.0
 10
-19.51140145823675
 20
-1.633861359486761
 30
0.0
 10
-19.34390453600325
 20
-1.589830255148889
 30
0.0
  0
SPLINE
  5
217
330
1F
100
AcDbEntity
  8
외형선
  6
Continuous
370
    15
100
AcDbSpline
210
0.0
220
0.0
230
1.0
 70
    24
 71
     3
 72
    22
 73
    18
 74
     0
 42
0.000000001
 43
0.00000001
 40
0.0
 40
0.0
 40
0.0
 40
0.0
 40
0.125
 40
0.125
 40
0.25
 40
0.25
 40
0.375
 40
0.375
 40
0.5
 40
0.5
 40
0.625
 40
0.625
 40
0.75
 40
0.75
 40
0.875
 40
0.875
 40
1.0
 40
1.0
 40
1.0
 40
1.0
 10
-19.84375000000002
 20
1.407597815695719
 30
0.0
 10
-19.84375000000002
 20
1.337780782639943
 30
0.0
 10
-19.84375000000002
 20
1.244958526790616
 30
0.0
 10
-19.84375000000002
 20
1.019586302374475
 30
0.0
 10
-19.84375
 20
0.8872120035144924
 30
0.0
 10
-19.84375
 20
0.6099760247237256
 30
0.0
 10
-19.84375000000002
 20
0.4659143567543473
 30
0.0
 10
-19.84375000000002
 20
0.1984058042528598
 30
0.0
 10
-19.84375000000002
 20
0.0753716972825866
 30
0.0
 10
-19.84375000000002
 20
-0.1331882536282703
 30
0.0
 10
-19.84375000000002
 20
-0.2189517759636826
 30
0.0
 10
-19.84375000000002
 20
-0.354658077273075
 30
0.0
 10
-19.84375000000003
 20
-0.4049338193816177
 30
0.0
 10
-19.84375000000003
 20
-0.4792614774146238
 30
0.0
 10
-19.84375000000002
 20
-0.5034709552283456
 30
0.0
 10
-19.84375000000002
 20
-0.5351859252459683
 30
0.0
 10
-19.84375000000002
 20
-0.5459124446075532
 30
0.0
 10
-19.84375000000002
 20
-0.5464533386602881
 30
0.0
  0
SPLINE
  5
218
330
1F
100
AcDbEntity
  8
외형선
  6
Continuous
370
    15
100
AcDbSpline
210
0.0
220
0.0
230
1.0
 70
    24
 71
     3
 72
    12
 73
     8
 74
     0
 42
0.000000001
 43
0.00000001
 40
0.0
 40
0.0
 40
0.0
 40
0.0
 40
0.110277990303398
 40
0.4071623369821415
 40
0.7126563498269466
 40
0.8558634196127776
 40
1.0
 40
1.0
 40
1.0
 40
1.0
 10
-19.84375000000003
 20
-1.134184626974976
 30
0.0
 10
-19.84375000000003
 20
-1.152267200582881
 30
0.0
 10
-19.84375000000005
 20
-1.219030685377905
 30
0.0
 10
-19.84375
 20
-1.352151662487573
 30
0.0
 10
-19.84375000000005
 20
-1.496373510322024
 30
0.0
 10
-19.84374999999998
 20
-1.614070412124824
 30
0.0
 10
-19.84375
 20
-1.671483410999938
 30
0.0
 10
-19.84375
 20
-1.700282771356954
 30
0.0
  0
ENDSEC
  0
SECTION
  2
OBJECTS
  0
DICTIONARY
  5
C
330
0
100
AcDbDictionary
281
     1
  3
ACAD_DETAILVIEWSTYLE
350
1AF
  3
ACAD_GROUP
350
D
  3
ACAD_IMAGE_VARS
350
23C
  3
ACAD_LAYOUT
350
1A
  3
ACAD_MLINESTYLE
350
17
  3
ACAD_PLOTSETTINGS
350
19
  3
ACAD_PLOTSTYLENAME
350
E
  3
ACAD_SCALELIST
350
47
  3
ACAD_SECTIONVIEWSTYLE
350
1B0
  3
AcDbVariableDictionary
350
1AA
  3
APPDATA
350
14D
  3
DWGPROPS
350
23D
  0
DICTIONARY
  5
18B
330
2
100
AcDbDictionary
280
     1
281
     1
  3
ACAD_LAYERSTATES
360
18C
  0
DICTIONARY
  5
1AF
102
{ACAD_REACTORS
330
C
102
}
330
C
100
AcDbDictionary
281
     1
  0
DICTIONARY
  5
D
102
{ACAD_REACTORS
330
C
102
}
330
C
100
AcDbDictionary
281
     1
  0
RASTERVARIABLES
  5
23C
102
{ACAD_REACTORS
330
C
102
}
330
C
100
AcDbRasterVariables
 90
        0
 70
     1
 71
     1
 72
     1
  0
DICTIONARY
  5
1A
102
{ACAD_REACTORS
330
C
102
}
330
C
100
AcDbDictionary
281
     1
  3
Layout1
350
1E
  3
Layout2
350
26
  3
Model
350
22
  0
DICTIONARY
  5
17
102
{ACAD_REACTORS
330
C
102
}
330
C
100
AcDbDictionary
281
     1
  3
Standard
350
18
  0
DICTIONARY
  5
19
102
{ACAD_REACTORS
330
C
102
}
330
C
100
AcDbDictionary
281
     1
  0
ACDBDICTIONARYWDFLT
  5
E
102
{ACAD_REACTORS
330
C
102
}
330
C
100
AcDbDictionary
281
     1
  3
Normal
350
F
100
AcDbDictionaryWithDefault
340
F
  0
DICTIONARY
  5
47
102
{ACAD_REACTORS
330
C
102
}
330
C
100
AcDbDictionary
281
     1
  3
A0
350
48
  3
A1
350
49
  3
A2
350
4A
  3
A3
350
4B
  3
A4
350
4C
  3
A5
350
4D
  3
A6
350
4E
  3
A7
350
4F
  3
A8
350
50
  3
A9
350
51
  3
B0
350
52
  3
B1
350
53
  3
B2
350
54
  3
B3
350
55
  3
B4
350
56
  3
B5
350
57
  3
B6
350
58
  3
B7
350
59
  3
B8
350
5A
  3
B9
350
5B
  3
C0
350
5C
  3
C1
350
5D
  3
C2
350
5E
  3
C3
350
5F
  3
C4
350
60
  3
C5
350
61
  3
C6
350
62
  3
C7
350
63
  3
C8
350
64
  3
C9
350
65
  3
D0
350
66
  3
D1
350
67
  3
D2
350
68
  0
DICTIONARY
  5
1B0
102
{ACAD_REACTORS
330
C
102
}
330
C
100
AcDbDictionary
281
     1
  0
DICTIONARY
  5
1AA
102
{ACAD_REACTORS
330
C
102
}
330
C
100
AcDbDictionary
281
     1
  0
DICTIONARY
  5
14D
102
{ACAD_REACTORS
330
C
102
}
330
C
100
AcDbDictionary
281
     1
  0
XRECORD
  5
23D
102
{ACAD_REACTORS
330
C
102
}
330
C
100
AcDbXrecord
280
     1
  1
DWGPROPS COOKIE
  2

  3

  4

  6

  7

  8
12016016
  9

300
=
301
=
302
=
303
=
304
=
305
=
306
=
307
=
308
=
309
=
 40
0.0
 41
2458313.081410637
 42
2458318.27322478
  1

 90
        0
  0
DICTIONARY
  5
18C
102
{ACAD_REACTORS
330
18B
102
}
330
18B
100
AcDbDictionary
281
     1
  0
LAYOUT
  5
1E
102
{ACAD_REACTORS
330
1A
102
}
330
1A
100
AcDbPlotSettings
  1

  2
none_device
  4

  6

 40
0.0
 41
0.0
 42
0.0
 43
0.0
 44
0.0
 45
0.0
 46
0.0
 47
0.0
 48
0.0
 49
0.0
140
0.0
141
0.0
142
1.0
143
1.0
 70
   688
 72
     1
 73
     0
 74
     5
  7

 75
    16
147
1.0
148
0.0
149
0.0
100
AcDbLayout
  1
Layout1
 70
     1
 71
     1
 10
0.0
 20
0.0
 11
420.0
 21
297.0
 12
0.0
 22
0.0
 32
0.0
 14
1.000000000000000E+20
 24
1.000000000000000E+20
 34
1.000000000000000E+20
 15
-1.000000000000000E+20
 25
-1.000000000000000E+20
 35
-1.000000000000000E+20
146
0.0
 13
0.0
 23
0.0
 33
0.0
 16
1.0
 26
0.0
 36
0.0
 17
0.0
 27
1.0
 37
0.0
 76
     0
330
1B
  0
LAYOUT
  5
26
102
{ACAD_REACTORS
330
1A
102
}
330
1A
100
AcDbPlotSettings
  1

  2
none_device
  4

  6

 40
0.0
 41
0.0
 42
0.0
 43
0.0
 44
0.0
 45
0.0
 46
0.0
 47
0.0
 48
0.0
 49
0.0
140
0.0
141
0.0
142
1.0
143
1.0
 70
   688
 72
     1
 73
     0
 74
     5
  7

 75
    16
147
1.0
148
0.0
149
0.0
100
AcDbLayout
  1
Layout2
 70
     1
 71
     2
 10
0.0
 20
0.0
 11
0.0
 21
0.0
 12
0.0
 22
0.0
 32
0.0
 14
0.0
 24
0.0
 34
0.0
 15
0.0
 25
0.0
 35
0.0
146
0.0
 13
0.0
 23
0.0
 33
0.0
 16
1.0
 26
0.0
 36
0.0
 17
0.0
 27
1.0
 37
0.0
 76
     0
330
23
  0
LAYOUT
  5
22
102
{ACAD_REACTORS
330
1A
102
}
330
1A
100
AcDbPlotSettings
  1

  2
none_device
  4
ANSI_A_(11.00_x_8.50_Inches)
  6

 40
6.35
 41
19.05
 42
6.35000508
 43
19.05000254
 44
279.4
 45
215.9
 46
116.0200047679344
 47
79.86907891165426
 48
0.0
 49
0.0
140
0.0
141
0.0
142
0.0752558462788414
143
1.0
 70
  1696
 72
     0
 73
     0
 74
     0
  7

 75
     0
147
0.0235690232323232
148
0.0
149
0.0
100
AcDbLayout
  1
Model
 70
     1
 71
     0
 10
0.0
 20
0.0
 11
420.0
 21
297.0
 12
0.0
 22
0.0
 32
0.0
 14
-39.77500000000011
 24
-49.97180738881174
 34
0.0
 15
95.51348381534562
 25
37.25836987830776
 35
0.0
146
0.0
 13
0.0
 23
0.0
 33
0.0
 16
1.0
 26
0.0
 36
0.0
 17
0.0
 27
1.0
 37
0.0
 76
     0
330
1F
331
29
  0
MLINESTYLE
  5
18
102
{ACAD_REACTORS
330
17
102
}
330
17
100
AcDbMlineStyle
  2
Standard
 70
     0
  3

 62
   256
 51
90.0
 52
90.0
 71
     2
 49
0.5
 62
   256
  6
BYLAYER
 49
-0.5
 62
   256
  6
BYLAYER
  0
ACDBPLACEHOLDER
  5
F
102
{ACAD_REACTORS
330
E
102
}
330
E
  0
SCALE
  5
48
102
{ACAD_REACTORS
330
47
102
}
330
47
100
AcDbScale
 70
     0
300
1:1
140
1.0
141
1.0
290
     1
  0
SCALE
  5
49
102
{ACAD_REACTORS
330
47
102
}
330
47
100
AcDbScale
 70
     0
300
1:2
140
1.0
141
2.0
290
     0
  0
SCALE
  5
4A
102
{ACAD_REACTORS
330
47
102
}
330
47
100
AcDbScale
 70
     0
300
1:4
140
1.0
141
4.0
290
     0
  0
SCALE
  5
4B
102
{ACAD_REACTORS
330
47
102
}
330
47
100
AcDbScale
 70
     0
300
1:5
140
1.0
141
5.0
290
     0
  0
SCALE
  5
4C
102
{ACAD_REACTORS
330
47
102
}
330
47
100
AcDbScale
 70
     0
300
1:8
140
1.0
141
8.0
290
     0
  0
SCALE
  5
4D
102
{ACAD_REACTORS
330
47
102
}
330
47
100
AcDbScale
 70
     0
300
1:10
140
1.0
141
10.0
290
     0
  0
SCALE
  5
4E
102
{ACAD_REACTORS
330
47
102
}
330
47
100
AcDbScale
 70
     0
300
1:16
140
1.0
141
16.0
290
     0
  0
SCALE
  5
4F
102
{ACAD_REACTORS
330
47
102
}
330
47
100
AcDbScale
 70
     0
300
1:20
140
1.0
141
20.0
290
     0
  0
SCALE
  5
50
102
{ACAD_REACTORS
330
47
102
}
330
47
100
AcDbScale
 70
     0
300
1:30
140
1.0
141
30.0
290
     0
  0
SCALE
  5
51
102
{ACAD_REACTORS
330
47
102
}
330
47
100
AcDbScale
 70
     0
300
1:40
140
1.0
141
40.0
290
     0
  0
SCALE
  5
52
102
{ACAD_REACTORS
330
47
102
}
330
47
100
AcDbScale
 70
     0
300
1:50
140
1.0
141
50.0
290
     0
  0
SCALE
  5
53
102
{ACAD_REACTORS
330
47
102
}
330
47
100
AcDbScale
 70
     0
300
1:100
140
1.0
141
100.0
290
     0
  0
SCALE
  5
54
102
{ACAD_REACTORS
330
47
102
}
330
47
100
AcDbScale
 70
     0
300
2:1
140
2.0
141
1.0
290
     0
  0
SCALE
  5
55
102
{ACAD_REACTORS
330
47
102
}
330
47
100
AcDbScale
 70
     0
300
4:1
140
4.0
141
1.0
290
     0
  0
SCALE
  5
56
102
{ACAD_REACTORS
330
47
102
}
330
47
100
AcDbScale
 70
     0
300
8:1
140
8.0
141
1.0
290
     0
  0
SCALE
  5
57
102
{ACAD_REACTORS
330
47
102
}
330
47
100
AcDbScale
 70
     0
300
10:1
140
10.0
141
1.0
290
     0
  0
SCALE
  5
58
102
{ACAD_REACTORS
330
47
102
}
330
47
100
AcDbScale
 70
     0
300
100:1
140
100.0
141
1.0
290
     0
  0
SCALE
  5
59
102
{ACAD_REACTORS
330
47
102
}
330
47
100
AcDbScale
 70
     0
300
1/128" = 1'-0"
140
0.0078125
141
12.0
290
     0
  0
SCALE
  5
5A
102
{ACAD_REACTORS
330
47
102
}
330
47
100
AcDbScale
 70
     0
300
1/64" = 1'-0"
140
0.015625
141
12.0
290
     0
  0
SCALE
  5
5B
102
{ACAD_REACTORS
330
47
102
}
330
47
100
AcDbScale
 70
     0
300
1/32" = 1'-0"
140
0.03125
141
12.0
290
     0
  0
SCALE
  5
5C
102
{ACAD_REACTORS
330
47
102
}
330
47
100
AcDbScale
 70
     0
300
1/16" = 1'-0"
140
0.0625
141
12.0
290
     0
  0
SCALE
  5
5D
102
{ACAD_REACTORS
330
47
102
}
330
47
100
AcDbScale
 70
     0
300
3/32" = 1'-0"
140
0.09375
141
12.0
290
     0
  0
SCALE
  5
5E
102
{ACAD_REACTORS
330
47
102
}
330
47
100
AcDbScale
 70
     0
300
1/8" = 1'-0"
140
0.125
141
12.0
290
     0
  0
SCALE
  5
5F
102
{ACAD_REACTORS
330
47
102
}
330
47
100
AcDbScale
 70
     0
300
3/16" = 1'-0"
140
0.1875
141
12.0
290
     0
  0
SCALE
  5
60
102
{ACAD_REACTORS
330
47
102
}
330
47
100
AcDbScale
 70
     0
300
1/4" = 1'-0"
140
0.25
141
12.0
290
     0
  0
SCALE
  5
61
102
{ACAD_REACTORS
330
47
102
}
330
47
100
AcDbScale
 70
     0
300
3/8" = 1'-0"
140
0.375
141
12.0
290
     0
  0
SCALE
  5
62
102
{ACAD_REACTORS
330
47
102
}
330
47
100
AcDbScale
 70
     0
300
1/2" = 1'-0"
140
0.5
141
12.0
290
     0
  0
SCALE
  5
63
102
{ACAD_REACTORS
330
47
102
}
330
47
100
AcDbScale
 70
     0
300
3/4" = 1'-0"
140
0.75
141
12.0
290
     0
  0
SCALE
  5
64
102
{ACAD_REACTORS
330
47
102
}
330
47
100
AcDbScale
 70
     0
300
1" = 1'-0"
140
1.0
141
12.0
290
     0
  0
SCALE
  5
65
102
{ACAD_REACTORS
330
47
102
}
330
47
100
AcDbScale
 70
     0
300
1-1/2" = 1'-0"
140
1.5
141
12.0
290
     0
  0
SCALE
  5
66
102
{ACAD_REACTORS
330
47
102
}
330
47
100
AcDbScale
 70
     0
300
3" = 1'-0"
140
3.0
141
12.0
290
     0
  0
SCALE
  5
67
102
{ACAD_REACTORS
330
47
102
}
330
47
100
AcDbScale
 70
     0
300
6" = 1'-0"
140
6.0
141
12.0
290
     0
  0
SCALE
  5
68
102
{ACAD_REACTORS
330
47
102
}
330
47
100
AcDbScale
 70
     0
300
1'-0" = 1'-0"
140
12.0
141
12.0
290
     0
  0
ENDSEC
  0
EOF
