  0
SECTION
  2
HEADER
  9
$ACADVER
  1
AC1015
  9
$ACADMAINTVER
 70
     6
  9
$DWGCODEPAGE
  3
ANSI_949
  9
$INSBASE
 10
0.0
 20
0.0
 30
0.0
  9
$EXTMIN
 10
-36.77500000000008
 20
-49.97180738881174
 30
0.0
  9
$EXTMAX
 10
95.51348381534558
 20
27.88124999999999
 30
0.0
  9
$LIMMIN
 10
0.0
 20
0.0
  9
$LIMMAX
 10
420.0
 20
297.0
  9
$ORTHOMODE
 70
     1
  9
$REGENMODE
 70
     1
  9
$FILLMODE
 70
     1
  9
$QTEXTMODE
 70
     0
  9
$MIRRTEXT
 70
     1
  9
$LTSCALE
 40
1.0
  9
$ATTMODE
 70
     1
  9
$TEXTSIZE
 40
3.5
  9
$TRACEWID
 40
1.0
  9
$TEXTSTYLE
  7
Standard
  9
$CLAYER
  8
0
  9
$CELTYPE
  6
ByLayer
  9
$CECOLOR
 62
   256
  9
$CELTSCALE
 40
1.0
  9
$DISPSILH
 70
     0
  9
$DIMSCALE
 40
1.0
  9
$DIMASZ
 40
3.302
  9
$DIMEXO
 40
1.0
  9
$DIMDLI
 40
3.75
  9
$DIMRND
 40
0.0
  9
$DIMDLE
 40
0.0
  9
$DIMEXE
 40
1.0
  9
$DIMTP
 40
0.0
  9
$DIMTM
 40
0.0
  9
$DIMTXT
 40
3.5
  9
$DIMCEN
 40
2.5
  9
$DIMTSZ
 40
0.0
  9
$DIMTOL
 70
     0
  9
$DIMLIM
 70
     0
  9
$DIMTIH
 70
     1
  9
$DIMTOH
 70
     1
  9
$DIMSE1
 70
     0
  9
$DIMSE2
 70
     0
  9
$DIMTAD
 70
     1
  9
$DIMZIN
 70
     0
  9
$DIMBLK
  1

  9
$DIMASO
 70
     1
  9
$DIMSHO
 70
     1
  9
$DIMPOST
  1

  9
$DIMAPOST
  1

  9
$DIMALT
 70
     0
  9
$DIMALTD
 70
     3
  9
$DIMALTF
 40
0.0393700787401575
  9
$DIMLFAC
 40
1.0
  9
$DIMTOFL
 70
     1
  9
$DIMTVP
 40
0.0
  9
$DIMTIX
 70
     0
  9
$DIMSOXD
 70
     0
  9
$DIMSAH
 70
     0
  9
$DIMBLK1
  1

  9
$DIMBLK2
  1

  9
$DIMSTYLE
  2
ISO-25
  9
$DIMCLRD
 70
     0
  9
$DIMCLRE
 70
     0
  9
$DIMCLRT
 70
     0
  9
$DIMTFAC
 40
1.0
  9
$DIMGAP
 40
1.524
  9
$DIMJUST
 70
     0
  9
$DIMSD1
 70
     0
  9
$DIMSD2
 70
     0
  9
$DIMTOLJ
 70
     0
  9
$DIMTZIN
 70
     0
  9
$DIMALTZ
 70
     0
  9
$DIMALTTZ
 70
     0
  9
$DIMUPT
 70
     0
  9
$DIMDEC
 70
     2
  9
$DIMTDEC
 70
     2
  9
$DIMALTU
 70
     2
  9
$DIMALTTD
 70
     3
  9
$DIMTXSTY
  7
Standard
  9
$DIMAUNIT
 70
     0
  9
$DIMADEC
 70
     2
  9
$DIMALTRND
 40
0.0
  9
$DIMAZIN
 70
     0
  9
$DIMDSEP
 70
    44
  9
$DIMATFIT
 70
     3
  9
$DIMFRAC
 70
     0
  9
$DIMLDRBLK
  1

  9
$DIMLUNIT
 70
     2
  9
$DIMLWD
 70
    -2
  9
$DIMLWE
 70
    -2
  9
$DIMTMOVE
 70
     0
  9
$LUNITS
 70
     2
  9
$LUPREC
 70
     2
  9
$SKETCHINC
 40
1.0
  9
$FILLETRAD
 40
10.0
  9
$AUNITS
 70
     0
  9
$AUPREC
 70
     2
  9
$MENU
  1
.
  9
$ELEVATION
 40
0.0
  9
$PELEVATION
 40
0.0
  9
$THICKNESS
 40
0.0
  9
$LIMCHECK
 70
     0
  9
$CHAMFERA
 40
0.0
  9
$CHAMFERB
 40
0.0
  9
$CHAMFERC
 40
0.0
  9
$CHAMFERD
 40
0.0
  9
$SKPOLY
 70
     0
  9
$TDCREATE
 40
2458313.455987049
  9
$TDUCREATE
 40
2458313.080987049
  9
$TDUPDATE
 40
2458318.648319699
  9
$TDUUPDATE
 40
2458318.273319699
  9
$TDINDWG
 40
0.0041429745
  9
$TDUSRTIMER
 40
2458318.273281528
  9
$USRTIMER
 70
     1
  9
$ANGBASE
 50
0.0
  9
$ANGDIR
 70
     0
  9
$PDMODE
 70
     0
  9
$PDSIZE
 40
-1.0
  9
$PLINEWID
 40
0.0
  9
$SPLFRAME
 70
     0
  9
$SPLINETYPE
 70
     6
  9
$SPLINESEGS
 70
     8
  9
$HANDSEED
  5
249
  9
$SURFTAB1
 70
     6
  9
$SURFTAB2
 70
     6
  9
$SURFTYPE
 70
     6
  9
$SURFU
 70
     6
  9
$SURFV
 70
     6
  9
$UCSBASE
  2

  9
$UCSNAME
  2

  9
$UCSORG
 10
0.0
 20
0.0
 30
0.0
  9
$UCSXDIR
 10
1.0
 20
0.0
 30
0.0
  9
$UCSYDIR
 10
0.0
 20
1.0
 30
0.0
  9
$UCSORTHOREF
  2

  9
$UCSORTHOVIEW
 70
     0
  9
$UCSORGTOP
 10
0.0
 20
0.0
 30
0.0
  9
$UCSORGBOTTOM
 10
0.0
 20
0.0
 30
0.0
  9
$UCSORGLEFT
 10
0.0
 20
0.0
 30
0.0
  9
$UCSORGRIGHT
 10
0.0
 20
0.0
 30
0.0
  9
$UCSORGFRONT
 10
0.0
 20
0.0
 30
0.0
  9
$UCSORGBACK
 10
0.0
 20
0.0
 30
0.0
  9
$PUCSBASE
  2

  9
$PUCSNAME
  2

  9
$PUCSORG
 10
0.0
 20
0.0
 30
0.0
  9
$PUCSXDIR
 10
1.0
 20
0.0
 30
0.0
  9
$PUCSYDIR
 10
0.0
 20
1.0
 30
0.0
  9
$PUCSORTHOREF
  2

  9
$PUCSORTHOVIEW
 70
     0
  9
$PUCSORGTOP
 10
0.0
 20
0.0
 30
0.0
  9
$PUCSORGBOTTOM
 10
0.0
 20
0.0
 30
0.0
  9
$PUCSORGLEFT
 10
0.0
 20
0.0
 30
0.0
  9
$PUCSORGRIGHT
 10
0.0
 20
0.0
 30
0.0
  9
$PUCSORGFRONT
 10
0.0
 20
0.0
 30
0.0
  9
$PUCSORGBACK
 10
0.0
 20
0.0
 30
0.0
  9
$USERI1
 70
     0
  9
$USERI2
 70
     0
  9
$USERI3
 70
     0
  9
$USERI4
 70
     0
  9
$USERI5
 70
     0
  9
$USERR1
 40
0.0
  9
$USERR2
 40
0.0
  9
$USERR3
 40
0.0
  9
$USERR4
 40
0.0
  9
$USERR5
 40
0.0
  9
$WORLDVIEW
 70
     1
  9
$SHADEDGE
 70
     3
  9
$SHADEDIF
 70
    70
  9
$TILEMODE
 70
     1
  9
$MAXACTVP
 70
    64
  9
$PINSBASE
 10
0.0
 20
0.0
 30
0.0
  9
$PLIMCHECK
 70
     0
  9
$PEXTMIN
 10
1.000000000000000E+20
 20
1.000000000000000E+20
 30
1.000000000000000E+20
  9
$PEXTMAX
 10
-1.000000000000000E+20
 20
-1.000000000000000E+20
 30
-1.000000000000000E+20
  9
$PLIMMIN
 10
0.0
 20
0.0
  9
$PLIMMAX
 10
0.0
 20
0.0
  9
$UNITMODE
 70
     0
  9
$VISRETAIN
 70
     1
  9
$PLINEGEN
 70
     0
  9
$PSLTSCALE
 70
     1
  9
$TREEDEPTH
 70
  3020
  9
$CMLSTYLE
  2
Standard
  9
$CMLJUST
 70
     0
  9
$CMLSCALE
 40
20.0
  9
$PROXYGRAPHICS
 70
     1
  9
$MEASUREMENT
 70
     1
  9
$CELWEIGHT
370
    -1
  9
$ENDCAPS
280
     0
  9
$JOINSTYLE
280
     0
  9
$LWDISPLAY
290
     1
  9
$INSUNITS
 70
     4
  9
$HYPERLINKBASE
  1

  9
$STYLESHEET
  1

  9
$XEDIT
290
     1
  9
$CEPSNTYPE
380
     0
  9
$PSTYLEMODE
290
     1
  9
$FINGERPRINTGUID
  2
{C2C6A6D2-77B6-4912-8ACC-3083B59C4E29}
  9
$VERSIONGUID
  2
{FAEB1C32-E019-11D5-929B-00C0DF256EC4}
  9
$EXTNAMES
290
     1
  9
$PSVPSCALE
 40
0.0
  9
$OLESTARTUP
290
     0
  0
ENDSEC
  0
SECTION
  2
CLASSES
  0
CLASS
  1
ACDBDICTIONARYWDFLT
  2
AcDbDictionaryWithDefault
  3
ObjectDBX Classes
 90
        0
280
     0
281
     0
  0
CLASS
  1
VISUALSTYLE
  2
AcDbVisualStyle
  3
ObjectDBX Classes
 90
     4095
280
     0
281
     0
  0
CLASS
  1
MATERIAL
  2
AcDbMaterial
  3
ObjectDBX Classes
 90
     1153
280
     0
281
     0
  0
CLASS
  1
SCALE
  2
AcDbScale
  3
ObjectDBX Classes
 90
     1153
280
     0
281
     0
  0
CLASS
  1
SUN
  2
AcDbSun
  3
SCENEOE
 90
     1153
280
     0
281
     0
  0
CLASS
  1
ACDBPLACEHOLDER
  2
AcDbPlaceHolder
  3
ObjectDBX Classes
 90
        0
280
     0
281
     0
  0
CLASS
  1
LAYOUT
  2
AcDbLayout
  3
ObjectDBX Classes
 90
        0
280
     0
281
     0
  0
CLASS
  1
TABLESTYLE
  2
AcDbTableStyle
  3
ObjectDBX Classes
 90
     4095
280
     0
281
     0
  0
CLASS
  1
MLEADERSTYLE
  2
AcDbMLeaderStyle
  3
ACDB_MLEADERSTYLE_CLASS
 90
     4095
280
     0
281
     0
  0
CLASS
  1
DICTIONARYVAR
  2
AcDbDictionaryVar
  3
ObjectDBX Classes
 90
        0
280
     0
281
     0
  0
CLASS
  1
RASTERVARIABLES
  2
AcDbRasterVariables
  3
ISM
 90
        0
280
     0
281
     0
  0
ENDSEC
  0
SECTION
  2
TABLES
  0
TABLE
  2
VPORT
  5
8
330
0
100
AcDbSymbolTable
 70
     1
  0
VPORT
  5
29
330
8
100
AcDbSymbolTableRecord
100
AcDbViewportTableRecord
  2
*Active
 70
     0
 10
0.0
 20
0.0
 11
1.0
 21
1.0
 12
29.36924190767275
 22
-11.04527869440588
 13
0.0
 23
0.0
 14
10.0
 24
10.0
 15
10.0
 25
10.0
 16
0.0
 26
0.0
 36
1.0
 17
0.0
 27
0.0
 37
0.0
 40
79.41011853658797
 41
1.782762691853601
 42
50.0
 43
0.0
 44
0.0
 50
0.0
 51
0.0
 71
    16
 72
  2000
 73
     1
 74
     3
 75
     0
 76
     0
 77
     0
 78
     0
281
     0
 65
     1
110
0.0
120
0.0
130
0.0
111
1.0
121
0.0
131
0.0
112
0.0
122
1.0
132
0.0
 79
     0
146
0.0
  0
ENDTAB
  0
TABLE
  2
LTYPE
  5
5
330
0
100
AcDbSymbolTable
 70
     6
  0
LTYPE
  5
14
330
5
100
AcDbSymbolTableRecord
100
AcDbLinetypeTableRecord
  2
ByBlock
 70
     0
  3

 72
    65
 73
     0
 40
0.0
  0
LTYPE
  5
15
330
5
100
AcDbSymbolTableRecord
100
AcDbLinetypeTableRecord
  2
ByLayer
 70
     0
  3

 72
    65
 73
     0
 40
0.0
  0
LTYPE
  5
16
330
5
100
AcDbSymbolTableRecord
100
AcDbLinetypeTableRecord
  2
Continuous
 70
     0
  3
Solid line
 72
    65
 73
     0
 40
0.0
  0
LTYPE
  5
6A
330
5
100
AcDbSymbolTableRecord
100
AcDbLinetypeTableRecord
  2
HIDDEN
 70
     0
  3
Hidden __ __ __ __ __ __ __ __ __ __ __ __ __ __
 72
    65
 73
     2
 40
1.905
 49
1.27
 74
     0
 49
-0.635
 74
     0
  0
LTYPE
  5
6B
330
5
100
AcDbSymbolTableRecord
100
AcDbLinetypeTableRecord
  2
PHANTOM
 70
     0
  3
Phantom ______  __  __  ______  __  __  ______
 72
    65
 73
     6
 40
12.7
 49
6.35
 74
     0
 49
-1.27
 74
     0
 49
1.27
 74
     0
 49
-1.27
 74
     0
 49
1.27
 74
     0
 49
-1.27
 74
     0
  0
LTYPE
  5
6C
330
5
100
AcDbSymbolTableRecord
100
AcDbLinetypeTableRecord
  2
CENTER
 70
     0
  3
Center ____ _ ____ _ ____ _ ____ _ ____ _ ____
 72
    65
 73
     4
 40
10.16
 49
6.35
 74
     0
 49
-1.27
 74
     0
 49
1.27
 74
     0
 49
-1.27
 74
     0
  0
LTYPE
  5
6D
330
5
100
AcDbSymbolTableRecord
100
AcDbLinetypeTableRecord
  2
CENTERX2
 70
     0
  3
Center (2x) ________  __  ________  __  _____
 72
    65
 73
     4
 40
20.32
 49
12.7
 74
     0
 49
-2.54
 74
     0
 49
2.54
 74
     0
 49
-2.54
 74
     0
  0
LTYPE
  5
6E
330
5
100
AcDbSymbolTableRecord
100
AcDbLinetypeTableRecord
  2
DOT2
 70
     0
  3
Dot (.5x) ........................................
 72
    65
 73
     2
 40
0.635
 49
0.0
 74
     0
 49
-0.635
 74
     0
  0
ENDTAB
  0
TABLE
  2
LAYER
  5
2
330
0
100
AcDbSymbolTable
 70
    18
  0
LAYER
  5
10
330
2
100
AcDbSymbolTableRecord
100
AcDbLayerTableRecord
  2
0
 70
     0
 62
     7
  6
Continuous
370
    -3
390
F
  0
LAYER
  5
6F
330
2
100
AcDbSymbolTableRecord
100
AcDbLayerTableRecord
  2
FORMAT
 70
     0
 62
     2
  6
Continuous
370
    -3
390
F
  0
LAYER
  5
70
330
2
100
AcDbSymbolTableRecord
100
AcDbLayerTableRecord
  2
외형선
 70
     0
 62
     4
  6
Continuous
370
    30
390
F
  0
LAYER
  5
71
330
2
100
AcDbSymbolTableRecord
100
AcDbLayerTableRecord
  2
숨은선
 70
     0
 62
     2
  6
HIDDEN
370
    15
390
F
  0
LAYER
  5
72
330
2
100
AcDbSymbolTableRecord
100
AcDbLayerTableRecord
  2
중심선
 70
     0
 62
     1
  6
CENTERX2
370
    -3
390
F
  0
LAYER
  5
73
330
2
100
AcDbSymbolTableRecord
100
AcDbLayerTableRecord
  2
파단선
 70
     0
 62
     4
  6
Continuous
370
    -3
390
F
  0
LAYER
  5
74
330
2
100
AcDbSymbolTableRecord
100
AcDbLayerTableRecord
  2
해칭선
 70
     0
 62
   100
  6
Continuous
370
    -3
390
F
  0
LAYER
  5
75
330
2
100
AcDbSymbolTableRecord
100
AcDbLayerTableRecord
  2
가는실선
 70
     0
 62
     4
  6
Continuous
370
    -3
390
F
  0
LAYER
  5
76
330
2
100
AcDbSymbolTableRecord
100
AcDbLayerTableRecord
  2
치수_보조선
 70
     0
 62
     4
  6
Continuous
370
    -3
390
F
  0
LAYER
  5
77
330
2
100
AcDbSymbolTableRecord
100
AcDbLayerTableRecord
  2
치수문자_일반주서
 70
     0
 62
     7
  6
Continuous
370
    15
390
F
  0
LAYER
  5
78
330
2
100
AcDbSymbolTableRecord
100
AcDbLayerTableRecord
  2
개별주서
 70
     0
 62
   100
  6
Continuous
370
    30
390
F
  0
LAYER
  5
79
330
2
100
AcDbSymbolTableRecord
100
AcDbLayerTableRecord
  2
중간선
 70
     0
 62
     2
  6
Continuous
370
    15
390
F
  0
LAYER
  5
7A
330
2
100
AcDbSymbolTableRecord
100
AcDbLayerTableRecord
  2
윤곽선
 70
     0
 62
     3
  6
Continuous
370
    40
390
F
  0
LAYER
  5
7B
330
2
100
AcDbSymbolTableRecord
100
AcDbLayerTableRecord
  2
중심마크
 70
     0
 62
   100
  6
Continuous
370
    30
390
F
  0
LAYER
  5
7C
330
2
100
AcDbSymbolTableRecord
100
AcDbLayerTableRecord
  2
가상선
 70
     0
 62
     4
  6
PHANTOM
370
    -3
390
F
  0
LAYER
  5
7D
330
2
100
AcDbSymbolTableRecord
100
AcDbLayerTableRecord
  2
특수지정선
 70
     0
 62
     5
  6
CENTERX2
370
    60
390
F
  0
LAYER
  5
7E
330
2
100
AcDbSymbolTableRecord
100
AcDbLayerTableRecord
  2
참조1
 70
     0
 62
    -4
  6
Continuous
370
    -3
390
F
  0
LAYER
  5
150
330
2
100
AcDbSymbolTableRecord
100
AcDbLayerTableRecord
  2
Defpoints
 70
     0
 62
     7
  6
Continuous
290
     0
370
    -3
390
F
  0
ENDTAB
  0
TABLE
  2
STYLE
  5
3
330
0
100
AcDbSymbolTable
 70
     2
  0
STYLE
  5
11
330
3
100
AcDbSymbolTableRecord
100
AcDbTextStyleTableRecord
  2
Standard
 70
     0
 40
0.0
 41
1.0
 50
0.0
 71
     0
 42
3.5
  3
txt
  4

  0
STYLE
  5
94
330
3
100
AcDbSymbolTableRecord
100
AcDbTextStyleTableRecord
  2
SLDTEXTSTYLE0
 70
     0
 40
0.0
 41
0.75
 50
0.0
 71
     0
 42
3.5
  3
TXT
  4

  0
ENDTAB
  0
TABLE
  2
VIEW
  5
6
330
0
100
AcDbSymbolTable
 70
     0
  0
ENDTAB
  0
TABLE
  2
UCS
  5
7
330
0
100
AcDbSymbolTable
 70
     0
  0
ENDTAB
  0
TABLE
  2
APPID
  5
9
330
0
100
AcDbSymbolTable
 70
     2
  0
APPID
  5
12
330
9
100
AcDbSymbolTableRecord
100
AcDbRegAppTableRecord
  2
ACAD
 70
     0
  0
APPID
  5
157
330
9
100
AcDbSymbolTableRecord
100
AcDbRegAppTableRecord
  2
PE_URL
 70
     0
  0
ENDTAB
  0
TABLE
  2
DIMSTYLE
  5
A
330
0
100
AcDbSymbolTable
 70
     3
100
AcDbDimStyleTable
  0
DIMSTYLE
105
27
330
A
100
AcDbSymbolTableRecord
100
AcDbDimStyleTableRecord
  2
ISO-25
 70
     0
 41
2.5
 42
0.625
 43
3.75
 44
1.25
 73
     0
 74
     0
 77
     1
 78
     8
140
2.5
141
2.5
143
0.03937007874016
147
0.625
171
     3
172
     1
178
     0
271
     2
272
     2
274
     3
278
    44
283
     0
284
     8
340
11
  0
DIMSTYLE
105
CE
102
{ACAD_REACTORS
330
CD
330
E2
330
10B
330
F7
102
}
330
A
100
AcDbSymbolTableRecord
100
AcDbDimStyleTableRecord
  2
SLDDIMSTYLE0
 70
     0
 41
3.302
 44
0.0
 45
0.000000001
 73
     0
 74
     0
 77
     1
 78
    12
 79
     3
140
3.5
143
0.0393700787401575
147
0.875
148
0.000000001
170
     1
172
     1
173
     1
178
     0
271
     2
272
     2
276
     2
284
    12
289
     0
340
94
  0
DIMSTYLE
105
F8
330
A
100
AcDbSymbolTableRecord
100
AcDbDimStyleTableRecord
  2
SLDDIMSTYLE1
 70
     0
 41
3.302
 44
0.0
 45
0.000000001
 73
     0
 74
     0
 77
     1
 78
     4
 79
     1
140
3.5
143
0.0393700787401575
147
0.875
148
0.000000001
170
     1
173
     1
178
     0
271
     2
272
     2
276
     2
284
    12
340
94
  0
ENDTAB
  0
TABLE
  2
BLOCK_RECORD
  5
1
330
0
100
AcDbSymbolTable
 70
     9
  0
BLOCK_RECORD
  5
1F
330
1
100
AcDbSymbolTableRecord
100
AcDbBlockTableRecord
  2
*Model_Space
340
22
  0
BLOCK_RECORD
  5
1B
330
1
100
AcDbSymbolTableRecord
100
AcDbBlockTableRecord
  2
*Paper_Space
340
1E
  0
BLOCK_RECORD
  5
23
330
1
100
AcDbSymbolTableRecord
100
AcDbBlockTableRecord
  2
*Paper_Space0
340
26
  0
BLOCK_RECORD
  5
7F
330
1
100
AcDbSymbolTableRecord
100
AcDbBlockTableRecord
  2
블럭10
340
0
102
{BLKREFS
331
C6
102
}
  0
BLOCK_RECORD
  5
CF
330
1
100
AcDbSymbolTableRecord
100
AcDbBlockTableRecord
  2
_D
340
0
  0
BLOCK_RECORD
  5
E3
330
1
100
AcDbSymbolTableRecord
100
AcDbBlockTableRecord
  2
_D_1
340
0
  0
BLOCK_RECORD
  5
F9
330
1
100
AcDbSymbolTableRecord
100
AcDbBlockTableRecord
  2
_D_2
340
0
  0
BLOCK_RECORD
  5
10C
330
1
100
AcDbSymbolTableRecord
100
AcDbBlockTableRecord
  2
_D_3
340
0
  0
BLOCK_RECORD
  5
126
330
1
100
AcDbSymbolTableRecord
100
AcDbBlockTableRecord
  2
SW_DOWELSYMBOL_0
340
0
102
{BLKREFS
331
12C
102
}
  0
BLOCK_RECORD
  5
189
330
1
100
AcDbSymbolTableRecord
100
AcDbBlockTableRecord
  2
*D7
340
0
  0
BLOCK_RECORD
  5
19B
330
1
100
AcDbSymbolTableRecord
100
AcDbBlockTableRecord
  2
*D8
340
0
  0
ENDTAB
  0
ENDSEC
  0
SECTION
  2
BLOCKS
  0
BLOCK
  5
20
330
1F
100
AcDbEntity
  8
0
100
AcDbBlockBegin
  2
*Model_Space
 70
     0
 10
0.0
 20
0.0
 30
0.0
  3
*Model_Space
  1
*Model_Space
  0
ENDBLK
  5
21
330
1F
100
AcDbEntity
  8
0
100
AcDbBlockEnd
  0
BLOCK
  5
1C
330
1B
100
AcDbEntity
 67
     1
  8
0
100
AcDbBlockBegin
  2
*Paper_Space
 70
     0
 10
0.0
 20
0.0
 30
0.0
  3
*Paper_Space
  1
*Paper_Space
  0
ENDBLK
  5
1D
330
1B
100
AcDbEntity
 67
     1
  8
0
100
AcDbBlockEnd
  0
BLOCK
  5
24
330
23
100
AcDbEntity
  8
0
100
AcDbBlockBegin
  2
*Paper_Space0
 70
     0
 10
0.0
 20
0.0
 30
0.0
  3
*Paper_Space0
  1
*Paper_Space0
  0
ENDBLK
  5
25
330
23
100
AcDbEntity
  8
0
100
AcDbBlockEnd
  0
BLOCK
  5
80
330
7F
100
AcDbEntity
  8
0
100
AcDbBlockBegin
  2
블럭10
 70
     2
 10
0.0
 20
0.0
 30
0.0
  3
블럭10
  1
블럭10
  0
ELLIPSE
  5
82
330
7F
100
AcDbEntity
  8
중심선
100
AcDbEllipse
 10
20.54032771741204
 20
12.0471743016438
 30
0.0
 11
6.600054785286829
 21
-1.261213355974178E-13
 31
0.0
210
0.0
220
0.0
230
1.0
 40
0.636358354079598
 41
0.9219305317359503
 42
6.513795318482858
  0
ELLIPSE
  5
83
330
7F
100
AcDbEntity
  8
중심선
100
AcDbEllipse
 10
20.54032771746488
 20
12.04717430159265
 30
0.0
 11
3.960054785062283
 21
1.540847449632565E-10
 31
0.0
210
0.0
220
0.0
230
1.0
 40
0.3939339440162632
 41
1.131841032648279
 42
5.62031148352944
  0
LINE
  5
84
330
7F
100
AcDbEntity
  8
중심선
100
AcDbLine
 10
2.268634060543552
 20
16.24717430164393
 30
0.0
 11
5.714909304380834
 21
16.24717430164393
 31
0.0
  0
LINE
  5
85
330
7F
100
AcDbEntity
  8
중심선
100
AcDbLine
 10
5.245725140726316
 20
7.84717430164391
 30
0.0
 11
8.692000384563599
 21
7.84717430164391
 31
0.0
  0
LINE
  5
86
330
7F
100
AcDbEntity
  8
중심선
100
AcDbLine
 10
15.74043728645272
 20
16.24717430164393
 30
0.0
 11
8.692000384563599
 21
7.84717430164391
 31
0.0
  0
LINE
  5
87
330
7F
100
AcDbEntity
  8
중심선
100
AcDbLine
 10
0.1404042013395286
 20
13.71084872107135
 30
0.0
 11
3.58671253028996
 21
13.71088815037384
 31
0.0
  0
LINE
  5
88
330
7F
100
AcDbEntity
  8
중심선
100
AcDbLine
 10
2.750260043222114
 20
10.84717430164391
 30
0.0
 11
6.196535287059397
 21
10.84717430164391
 31
0.0
  0
LINE
  5
89
330
7F
100
AcDbEntity
  8
중심선
100
AcDbLine
 10
12.29416204261559
 20
16.24717430164393
 30
0.0
 11
5.245725140726316
 21
7.84717430164391
 31
0.0
  0
LINE
  5
8A
330
7F
100
AcDbEntity
  8
중심선
100
AcDbLine
 10
10.72767329541681
 20
16.24717430164393
 30
0.0
 11
6.196535287059397
 21
10.84717430164391
 31
0.0
  0
LINE
  5
8B
330
7F
100
AcDbEntity
  8
중심선
100
AcDbLine
 10
7.28139805157953
 20
16.24717430164393
 30
0.0
 11
2.750260043222114
 21
10.84717430164391
 31
0.0
  0
LINE
  5
8C
330
7F
100
AcDbEntity
  8
중심선
100
AcDbLine
 10
5.714909304380834
 20
16.24717430164393
 30
0.0
 11
3.58671253028996
 21
13.71088815037384
 31
0.0
  0
LINE
  5
8D
330
7F
100
AcDbEntity
  8
중심선
100
AcDbLine
 10
2.268634060543552
 20
16.24717430164393
 30
0.0
 11
0.1404042013395286
 21
13.71084872107135
 31
0.0
  0
LINE
  5
8E
330
7F
100
AcDbEntity
  8
중심선
100
AcDbLine
 10
7.28139805157953
 20
16.24717430164393
 30
0.0
 11
10.72767329541681
 21
16.24717430164393
 31
0.0
  0
LINE
  5
8F
330
7F
100
AcDbEntity
  8
중심선
100
AcDbLine
 10
12.29416204261559
 20
16.24717430164393
 30
0.0
 11
15.74043728645272
 21
16.24717430164393
 31
0.0
  0
LINE
  5
90
330
7F
100
AcDbEntity
  8
중심선
100
AcDbLine
 10
19.22036997980202
 20
11.08717430171403
 30
0.0
 11
23.66174974927406
 21
11.08717430171406
 31
0.0
  0
LINE
  5
91
330
7F
100
AcDbEntity
  8
중심선
100
AcDbLine
 10
19.22039502424796
 20
13.00717430171391
 30
0.0
 11
19.22036997980202
 21
11.08717430171403
 31
0.0
  0
LINE
  5
92
330
7F
100
AcDbEntity
  8
중심선
100
AcDbLine
 10
19.22039502424796
 20
13.00717430171391
 30
0.0
 11
26.96566020931264
 21
13.00717430171391
 31
0.0
  0
LINE
  5
93
330
7F
100
AcDbEntity
  8
중심선
100
AcDbLine
 10
22.22332737316547
 20
13.45928029700563
 30
0.0
 11
24.52862924686651
 21
15.39360700705356
 31
0.0
  0
ATTDEF
  5
95
330
7F
100
AcDbEntity
  8
FORMAT
 62
     2
100
AcDbText
 10
4.408487351596664
 20
2.075366912832191
 30
0.0
 40
4.233333333333333
  1
E1002007
 41
0.75
  7
SLDTEXTSTYLE0
 11
4.408487351596664
 21
-0.0412997538344756
 31
0.0
100
AcDbAttributeDefinition
  3

  2
AUTOATTR0
 70
     0
 74
     1
  0
ENDBLK
  5
81
330
7F
100
AcDbEntity
  8
0
100
AcDbBlockEnd
  0
BLOCK
  5
D0
330
CF
100
AcDbEntity
  8
0
100
AcDbBlockBegin
  2
_D
 70
     0
 10
0.0
 20
0.0
 30
0.0
  3
_D
  1
_D
  0
LINE
  5
D2
330
CF
100
AcDbEntity
  8
치수문자_일반주서
 62
     0
370
    -2
100
AcDbLine
 10
25.4625
 20
1.383954349794817
 30
0.0
 11
54.584576723187
 21
1.383954349794925
 31
0.0
  0
LINE
  5
D3
330
CF
100
AcDbEntity
  8
치수문자_일반주서
 62
     0
370
    -2
100
AcDbLine
 10
25.4625
 20
-1.383954349794816
 30
0.0
 11
54.58457672318701
 21
-1.383954349794706
 31
0.0
  0
LINE
  5
D4
330
CF
100
AcDbEntity
  8
치수문자_일반주서
 62
     0
370
    -2
100
AcDbLine
 10
54.584576723187
 20
1.383954349794925
 30
0.0
 11
54.58457672318693
 21
27.51406250000011
 31
0.0
  0
LINE
  5
D5
330
CF
100
AcDbEntity
  8
치수문자_일반주서
 62
     0
370
    -2
100
AcDbLine
 10
54.584576723187
 20
1.383954349794925
 30
0.0
 11
54.58457672318701
 21
-1.383954349794706
 31
0.0
  0
LINE
  5
D6
330
CF
100
AcDbEntity
  8
치수문자_일반주서
 62
     0
370
    -2
100
AcDbLine
 10
54.58457672318699
 20
3.883954349794925
 30
0.0
 11
54.58457672318698
 21
6.383954349794925
 31
0.0
  0
LINE
  5
D7
330
CF
100
AcDbEntity
  8
치수문자_일반주서
 62
     0
370
    -2
100
AcDbLine
 10
54.58457672318701
 20
-3.883954349794706
 30
0.0
 11
54.58457672318702
 21
-6.383954349794706
 31
0.0
  0
SOLID
  5
D8
330
CF
100
AcDbEntity
  8
치수문자_일반주서
 62
     0
100
AcDbTrace
 10
54.16791005652033
 20
3.883954349794924
 30
0.0
 11
55.00124338985366
 21
3.883954349794926
 31
0.0
 12
54.584576723187
 22
1.383954349794925
 32
0.0
 13
54.584576723187
 23
1.383954349794925
 33
0.0
  0
SOLID
  5
D9
330
CF
100
AcDbEntity
  8
치수문자_일반주서
 62
     0
100
AcDbTrace
 10
55.00124338985368
 20
-3.883954349794705
 30
0.0
 11
54.16791005652035
 21
-3.883954349794707
 31
0.0
 12
54.58457672318701
 22
-1.383954349794706
 32
0.0
 13
54.58457672318701
 23
-1.383954349794706
 33
0.0
  0
MTEXT
  5
DA
330
CF
100
AcDbEntity
  8
치수문자_일반주서
 62
     0
100
AcDbMText
 10
51.20957672318696
 20
16.9515625000001
 30
0.0
 40
2.5
 41
0.0
 71
     2
 72
     1
  1
\A1;%%c2.77 [7/64]
  7
SLDTEXTSTYLE0
 11
-2.567074325339721E-15
 21
1.0
 31
0.0
 73
     1
 44
1.0
  0
POINT
  5
DB
330
CF
100
AcDbEntity
  8
Defpoints
 62
     0
100
AcDbPoint
 10
25.4
 20
1.383954349794817
 30
0.0
  0
POINT
  5
DC
330
CF
100
AcDbEntity
  8
Defpoints
 62
     0
100
AcDbPoint
 10
25.4
 20
-1.383954349794816
 30
0.0
  0
POINT
  5
DD
330
CF
100
AcDbEntity
  8
Defpoints
 62
     0
100
AcDbPoint
 10
54.58457672318701
 20
-1.383954349794707
 30
0.0
  0
ENDBLK
  5
D1
330
CF
100
AcDbEntity
  8
0
100
AcDbBlockEnd
  0
BLOCK
  5
E4
330
E3
100
AcDbEntity
  8
0
100
AcDbBlockBegin
  2
_D_1
 70
     0
 10
0.0
 20
0.0
 30
0.0
  3
_D_1
  1
_D_1
  0
LINE
  5
E6
330
E3
100
AcDbEntity
  8
치수문자_일반주서
 62
     0
370
    -2
100
AcDbLine
 10
25.4
 20
1.446454349794817
 30
0.0
 11
25.4
 21
10.38125
 31
0.0
  0
LINE
  5
E7
330
E3
100
AcDbEntity
  8
치수문자_일반주서
 62
     0
370
    -2
100
AcDbLine
 10
21.43125
 20
1.432868947058947
 30
0.0
 11
21.43125
 21
10.38125
 31
0.0
  0
LINE
  5
E8
330
E3
100
AcDbEntity
  8
치수문자_일반주서
 62
     0
370
    -2
100
AcDbLine
 10
25.4
 20
10.38125
 30
0.0
 11
49.65000000000001
 21
10.38125
 31
0.0
  0
LINE
  5
E9
330
E3
100
AcDbEntity
  8
치수문자_일반주서
 62
     0
370
    -2
100
AcDbLine
 10
25.4
 20
10.38125
 30
0.0
 11
21.43125
 21
10.38125
 31
0.0
  0
LINE
  5
EA
330
E3
100
AcDbEntity
  8
치수문자_일반주서
 62
     0
370
    -2
100
AcDbLine
 10
27.9
 20
10.38125
 30
0.0
 11
30.4
 21
10.38125
 31
0.0
  0
LINE
  5
EB
330
E3
100
AcDbEntity
  8
치수문자_일반주서
 62
     0
370
    -2
100
AcDbLine
 10
18.93125
 20
10.38125
 30
0.0
 11
16.43125
 21
10.38125
 31
0.0
  0
SOLID
  5
EC
330
E3
100
AcDbEntity
  8
치수문자_일반주서
 62
     0
100
AcDbTrace
 10
27.9
 20
10.79791666666667
 30
0.0
 11
27.9
 21
9.964583333333334
 31
0.0
 12
25.4
 22
10.38125
 32
0.0
 13
25.4
 23
10.38125
 33
0.0
  0
SOLID
  5
ED
330
E3
100
AcDbEntity
  8
치수문자_일반주서
 62
     0
100
AcDbTrace
 10
18.93125
 20
9.964583333333334
 30
0.0
 11
18.93125
 21
10.79791666666667
 31
0.0
 12
21.43125
 22
10.38125
 32
0.0
 13
21.43125
 23
10.38125
 33
0.0
  0
MTEXT
  5
EE
330
E3
100
AcDbEntity
  8
치수문자_일반주서
 62
     0
100
AcDbMText
 10
40.02500000000001
 20
13.75625
 30
0.0
 40
2.5
 41
0.0
 71
     2
 72
     1
  1
\A1;3.97 [5/32]
  7
SLDTEXTSTYLE0
 73
     1
 44
1.0
  0
POINT
  5
EF
330
E3
100
AcDbEntity
  8
Defpoints
 62
     0
100
AcDbPoint
 10
25.4
 20
1.383954349794817
 30
0.0
  0
POINT
  5
F0
330
E3
100
AcDbEntity
  8
Defpoints
 62
     0
100
AcDbPoint
 10
21.43125
 20
1.370368947058947
 30
0.0
  0
POINT
  5
F1
330
E3
100
AcDbEntity
  8
Defpoints
 62
     0
100
AcDbPoint
 10
21.43125
 20
10.38125
 30
0.0
  0
ENDBLK
  5
E5
330
E3
100
AcDbEntity
  8
0
100
AcDbBlockEnd
  0
BLOCK
  5
FA
330
F9
100
AcDbEntity
  8
0
100
AcDbBlockBegin
  2
_D_2
 70
     0
 10
0.0
 20
0.0
 30
0.0
  3
_D_2
  1
_D_2
  0
LINE
  5
FC
330
F9
100
AcDbEntity
  8
치수문자_일반주서
 62
     0
370
    -2
100
AcDbLine
 10
25.4
 20
1.446454349794817
 30
0.0
 11
25.4
 21
18.38125
 31
0.0
  0
LINE
  5
FD
330
F9
100
AcDbEntity
  8
치수문자_일반주서
 62
     0
370
    -2
100
AcDbLine
 10
-25.40000000000001
 20
1.446454349794815
 30
0.0
 11
-25.40000000000002
 21
18.38125
 31
0.0
  0
LINE
  5
FE
330
F9
100
AcDbEntity
  8
치수문자_일반주서
 62
     0
370
    -2
100
AcDbLine
 10
22.9
 20
18.38125
 30
0.0
 11
-22.90000000000002
 21
18.38125
 31
0.0
  0
SOLID
  5
FF
330
F9
100
AcDbEntity
  8
치수문자_일반주서
 62
     0
100
AcDbTrace
 10
22.9
 20
17.96458333333333
 30
0.0
 11
22.9
 21
18.79791666666667
 31
0.0
 12
25.4
 22
18.38125
 32
0.0
 13
25.4
 23
18.38125
 33
0.0
  0
SOLID
  5
100
330
F9
100
AcDbEntity
  8
치수문자_일반주서
 62
     0
100
AcDbTrace
 10
-22.90000000000002
 20
18.79791666666667
 30
0.0
 11
-22.90000000000002
 21
17.96458333333333
 31
0.0
 12
-25.40000000000002
 22
18.38125
 32
0.0
 13
-25.40000000000002
 23
18.38125
 33
0.0
  0
MTEXT
  5
101
330
F9
100
AcDbEntity
  8
치수문자_일반주서
 62
     0
100
AcDbMText
 10
-1.296159543218767
 20
21.75625
 30
0.0
 40
2.5
 41
0.0
 71
     2
 72
     1
  1
\A1;50.8 [2]
  7
SLDTEXTSTYLE0
 73
     1
 44
1.0
  0
POINT
  5
102
330
F9
100
AcDbEntity
  8
Defpoints
 62
     0
100
AcDbPoint
 10
25.4
 20
1.383954349794817
 30
0.0
  0
POINT
  5
103
330
F9
100
AcDbEntity
  8
Defpoints
 62
     0
100
AcDbPoint
 10
-25.40000000000001
 20
1.383954349794815
 30
0.0
  0
POINT
  5
104
330
F9
100
AcDbEntity
  8
Defpoints
 62
     0
100
AcDbPoint
 10
-25.40000000000001
 20
18.38125
 30
0.0
  0
ENDBLK
  5
FB
330
F9
100
AcDbEntity
  8
0
100
AcDbBlockEnd
  0
BLOCK
  5
10D
330
10C
100
AcDbEntity
  8
0
100
AcDbBlockBegin
  2
_D_3
 70
     0
 10
0.0
 20
0.0
 30
0.0
  3
_D_3
  1
_D_3
  0
LINE
  5
10F
330
10C
100
AcDbEntity
  8
치수문자_일반주서
 62
     0
370
    -2
100
AcDbLine
 10
-16.79085583936526
 20
2.381250000000006
 30
0.0
 11
-33.40000000000001
 21
2.381249999999945
 31
0.0
  0
LINE
  5
110
330
10C
100
AcDbEntity
  8
치수문자_일반주서
 62
     0
370
    -2
100
AcDbLine
 10
-16.79085583936526
 20
-2.381250000000003
 30
0.0
 11
-33.4
 21
-2.381250000000062
 31
0.0
  0
LINE
  5
111
330
10C
100
AcDbEntity
  8
치수문자_일반주서
 62
     0
370
    -2
100
AcDbLine
 10
-33.40000000000001
 20
2.381249999999945
 30
0.0
 11
-33.40000000000008
 21
27.88124999999998
 31
0.0
  0
LINE
  5
112
330
10C
100
AcDbEntity
  8
치수문자_일반주서
 62
     0
370
    -2
100
AcDbLine
 10
-33.40000000000001
 20
2.381249999999945
 30
0.0
 11
-33.4
 21
-2.381250000000062
 31
0.0
  0
LINE
  5
113
330
10C
100
AcDbEntity
  8
치수문자_일반주서
 62
     0
370
    -2
100
AcDbLine
 10
-33.40000000000002
 20
4.881249999999945
 30
0.0
 11
-33.40000000000003
 21
7.381249999999945
 31
0.0
  0
LINE
  5
114
330
10C
100
AcDbEntity
  8
치수문자_일반주서
 62
     0
370
    -2
100
AcDbLine
 10
-33.39999999999999
 20
-4.881250000000062
 30
0.0
 11
-33.39999999999998
 21
-7.381250000000062
 31
0.0
  0
SOLID
  5
115
330
10C
100
AcDbEntity
  8
치수문자_일반주서
 62
     0
100
AcDbTrace
 10
-33.81666666666668
 20
4.881249999999944
 30
0.0
 11
-32.98333333333336
 21
4.881249999999945
 31
0.0
 12
-33.40000000000001
 22
2.381249999999945
 32
0.0
 13
-33.40000000000001
 23
2.381249999999945
 33
0.0
  0
SOLID
  5
116
330
10C
100
AcDbEntity
  8
치수문자_일반주서
 62
     0
100
AcDbTrace
 10
-32.98333333333333
 20
-4.881250000000061
 30
0.0
 11
-33.81666666666666
 21
-4.881250000000063
 31
0.0
 12
-33.4
 22
-2.381250000000062
 32
0.0
 13
-33.4
 23
-2.381250000000062
 33
0.0
  0
MTEXT
  5
117
330
10C
100
AcDbEntity
  8
치수문자_일반주서
 62
     0
100
AcDbMText
 10
-36.77500000000006
 20
17.63124999999997
 30
0.0
 40
2.5
 41
0.0
 71
     2
 72
     1
  1
\A1;%%c4.76 [3/16]
  7
SLDTEXTSTYLE0
 11
-2.983906501879679E-15
 21
1.0
 31
0.0
 73
     1
 44
1.0
  0
POINT
  5
1B7
330
10C
100
AcDbEntity
  8
Defpoints
 62
     0
100
AcDbPoint
 10
-16.72835583936526
 20
2.381250000000007
 30
0.0
  0
POINT
  5
1B8
330
10C
100
AcDbEntity
  8
Defpoints
 62
     0
100
AcDbPoint
 10
-16.72835583936526
 20
-2.381250000000003
 30
0.0
  0
POINT
  5
1B9
330
10C
100
AcDbEntity
  8
Defpoints
 62
     0
100
AcDbPoint
 10
-33.4
 20
-2.381250000000065
 30
0.0
  0
ENDBLK
  5
10E
330
10C
100
AcDbEntity
  8
0
100
AcDbBlockEnd
  0
BLOCK
  5
127
330
126
100
AcDbEntity
  8
0
100
AcDbBlockBegin
  2
SW_DOWELSYMBOL_0
 70
     0
 10
0.0
 20
0.0
 30
0.0
  3
SW_DOWELSYMBOL_0
  1
SW_DOWELSYMBOL_0
  0
CIRCLE
  5
129
330
126
100
AcDbEntity
  8
해칭선
 62
     0
100
AcDbCircle
 10
0.0
 20
0.0
 30
0.0
 40
3.0
  0
HATCH
  5
12A
330
126
100
AcDbEntity
  8
0
  6
Continuous
 62
     0
370
     0
100
AcDbHatch
 10
0.0
 20
0.0
 30
0.0
210
0.0
220
0.0
230
1.0
  2
SOLID
 70
     1
 71
     0
 91
        1
 92
        0
 93
        3
 72
     2
 10
0.0
 20
0.0
 40
3.0
 50
0.0
 51
90.0
 73
     1
 72
     1
 10
0.0
 20
3.0
 11
0.0
 21
0.0
 72
     1
 10
0.0
 20
0.0
 11
3.0
 21
0.0
 97
        0
 75
     0
 76
     1
 98
        1
 10
0.0
 20
0.0
  0
HATCH
  5
12B
330
126
100
AcDbEntity
  8
0
  6
Continuous
 62
     0
370
     0
100
AcDbHatch
 10
0.0
 20
0.0
 30
0.0
210
0.0
220
0.0
230
1.0
  2
SOLID
 70
     1
 71
     0
 91
        1
 92
        0
 93
        3
 72
     2
 10
0.0
 20
0.0
 40
3.0
 50
180.0
 51
270.0000000000007
 73
     1
 72
     1
 10
0.0
 20
-3.0
 11
0.0
 21
0.0
 72
     1
 10
0.0
 20
0.0
 11
-3.0
 21
0.0
 97
        0
 75
     0
 76
     1
 98
        1
 10
0.0
 20
0.0
  0
ENDBLK
  5
128
330
126
100
AcDbEntity
  8
0
100
AcDbBlockEnd
  0
BLOCK
  5
18A
330
189
100
AcDbEntity
  8
0
100
AcDbBlockBegin
  2
*D7
 70
     1
 10
0.0
 20
0.0
 30
0.0
  3
*D7
  1
*D7
  0
LINE
  5
18C
330
189
100
AcDbEntity
  8
치수문자_일반주서
 62
     0
370
    -2
100
AcDbLine
 10
6.190624999999997
 20
0.3484871582727809
 30
0.0
 11
6.190624999999997
 21
10.27069759097852
 31
0.0
  0
LINE
  5
18D
330
189
100
AcDbEntity
  8
치수문자_일반주서
 62
     0
370
    -2
100
AcDbLine
 10
5.0
 20
0.2657482930384945
 30
0.0
 11
5.0
 21
10.27069759097852
 31
0.0
  0
LINE
  5
18E
330
189
100
AcDbEntity
  8
치수문자_일반주서
 62
     0
370
    -2
100
AcDbLine
 10
6.190624999999997
 20
10.27069759097852
 30
0.0
 11
29.190625
 21
10.27069759097852
 31
0.0
  0
LINE
  5
18F
330
189
100
AcDbEntity
  8
치수문자_일반주서
 62
     0
370
    -2
100
AcDbLine
 10
6.190624999999997
 20
10.27069759097852
 30
0.0
 11
5.0
 21
10.27069759097852
 31
0.0
  0
LINE
  5
190
330
189
100
AcDbEntity
  8
치수문자_일반주서
 62
     0
370
    -2
100
AcDbLine
 10
8.690624999999997
 20
10.27069759097852
 30
0.0
 11
11.190625
 21
10.27069759097852
 31
0.0
  0
LINE
  5
191
330
189
100
AcDbEntity
  8
치수문자_일반주서
 62
     0
370
    -2
100
AcDbLine
 10
2.5
 20
10.27069759097852
 30
0.0
 11
0.0
 21
10.27069759097852
 31
0.0
  0
SOLID
  5
192
330
189
100
AcDbEntity
  8
치수문자_일반주서
 62
     0
100
AcDbTrace
 10
8.690624999999997
 20
10.68736425764518
 30
0.0
 11
8.690624999999997
 21
9.85403092431185
 31
0.0
 12
6.190624999999997
 22
10.27069759097852
 32
0.0
 13
6.190624999999997
 23
10.27069759097852
 33
0.0
  0
SOLID
  5
193
330
189
100
AcDbEntity
  8
치수문자_일반주서
 62
     0
100
AcDbTrace
 10
2.5
 20
9.85403092431185
 30
0.0
 11
2.5
 21
10.68736425764518
 31
0.0
 12
5.0
 22
10.27069759097852
 32
0.0
 13
5.0
 23
10.27069759097852
 33
0.0
  0
MTEXT
  5
194
330
189
100
AcDbEntity
  8
치수문자_일반주서
 62
     0
100
AcDbMText
 10
20.190625
 20
13.64569759097852
 30
0.0
 40
2.5
 41
0.0
 71
     2
 72
     1
  1
\A1;1.19 [3/64]
  7
SLDTEXTSTYLE0
 73
     1
 44
1.0
  0
POINT
  5
195
330
189
100
AcDbEntity
  8
Defpoints
 62
     0
100
AcDbPoint
 10
6.190624999999997
 20
0.2859871582727809
 30
0.0
  0
POINT
  5
196
330
189
100
AcDbEntity
  8
Defpoints
 62
     0
100
AcDbPoint
 10
5.0
 20
0.2032482930384945
 30
0.0
  0
POINT
  5
197
330
189
100
AcDbEntity
  8
Defpoints
 62
     0
100
AcDbPoint
 10
5.0
 20
10.27069759097852
 30
0.0
  0
ENDBLK
  5
18B
330
189
100
AcDbEntity
  8
0
100
AcDbBlockEnd
  0
BLOCK
  5
19C
330
19B
100
AcDbEntity
  8
0
100
AcDbBlockBegin
  2
*D8
 70
     1
 10
0.0
 20
0.0
 30
0.0
  3
*D8
  1
*D8
  0
LINE
  5
19E
330
19B
100
AcDbEntity
  8
치수문자_일반주서
 62
     0
370
    -2
100
AcDbLine
 10
50.68351022353421
 20
-7.328093636686924
 30
0.0
 11
50.68351022353421
 21
2.594116796018811
 31
0.0
  0
LINE
  5
19F
330
19B
100
AcDbEntity
  8
치수문자_일반주서
 62
     0
370
    -2
100
AcDbLine
 10
49.49288522353422
 20
-7.41083250192121
 30
0.0
 11
49.49288522353422
 21
2.594116796018811
 31
0.0
  0
LINE
  5
1A0
330
19B
100
AcDbEntity
  8
치수문자_일반주서
 62
     0
370
    -2
100
AcDbLine
 10
50.68351022353421
 20
2.594116796018811
 30
0.0
 11
73.68351022353421
 21
2.594116796018811
 31
0.0
  0
LINE
  5
1A1
330
19B
100
AcDbEntity
  8
치수문자_일반주서
 62
     0
370
    -2
100
AcDbLine
 10
50.68351022353421
 20
2.594116796018811
 30
0.0
 11
49.49288522353422
 21
2.594116796018811
 31
0.0
  0
LINE
  5
1A2
330
19B
100
AcDbEntity
  8
치수문자_일반주서
 62
     0
370
    -2
100
AcDbLine
 10
53.18351022353421
 20
2.594116796018811
 30
0.0
 11
55.68351022353421
 21
2.594116796018811
 31
0.0
  0
LINE
  5
1A3
330
19B
100
AcDbEntity
  8
치수문자_일반주서
 62
     0
370
    -2
100
AcDbLine
 10
46.99288522353422
 20
2.594116796018811
 30
0.0
 11
44.49288522353422
 21
2.594116796018811
 31
0.0
  0
SOLID
  5
1A4
330
19B
100
AcDbEntity
  8
치수문자_일반주서
 62
     0
100
AcDbTrace
 10
53.18351022353421
 20
3.010783462685478
 30
0.0
 11
53.18351022353421
 21
2.177450129352145
 31
0.0
 12
50.68351022353421
 22
2.594116796018811
 32
0.0
 13
50.68351022353421
 23
2.594116796018811
 33
0.0
  0
SOLID
  5
1A5
330
19B
100
AcDbEntity
  8
치수문자_일반주서
 62
     0
100
AcDbTrace
 10
46.99288522353422
 20
2.177450129352145
 30
0.0
 11
46.99288522353422
 21
3.010783462685478
 31
0.0
 12
49.49288522353422
 22
2.594116796018811
 32
0.0
 13
49.49288522353422
 23
2.594116796018811
 33
0.0
  0
MTEXT
  5
1A6
330
19B
100
AcDbEntity
  8
치수문자_일반주서
 62
     0
100
AcDbMText
 10
64.68351022353421
 20
5.969116796018811
 30
0.0
 40
2.5
 41
0.0
 71
     2
 72
     1
  1
\A1;1.19 [3/64]
  7
SLDTEXTSTYLE0
 73
     1
 44
1.0
  0
POINT
  5
1A7
330
19B
100
AcDbEntity
  8
Defpoints
 62
     0
100
AcDbPoint
 10
50.68351022353421
 20
-7.390593636686924
 30
0.0
  0
POINT
  5
1A8
330
19B
100
AcDbEntity
  8
Defpoints
 62
     0
100
AcDbPoint
 10
49.49288522353422
 20
-7.47333250192121
 30
0.0
  0
POINT
  5
1A9
330
19B
100
AcDbEntity
  8
Defpoints
 62
     0
100
AcDbPoint
 10
49.49288522353422
 20
2.594116796018811
 30
0.0
  0
ENDBLK
  5
19D
330
19B
100
AcDbEntity
  8
0
100
AcDbBlockEnd
  0
ENDSEC
  0
SECTION
  2
ENTITIES
  0
LINE
  5
96
330
1F
100
AcDbEntity
  8
0
  6
Continuous
 62
     1
370
    25
100
AcDbLine
 10
24.90555296996044
 20
0.3989530080582779
 30
0.0
 11
24.87910801846235
 21
0.4132680656144757
 31
0.0
1001
PE_URL
1000

  0
LINE
  5
97
330
1F
100
AcDbEntity
  8
0
  6
Continuous
 62
     1
370
    25
100
AcDbLine
 10
22.67412568447721
 20
1.389062500000004
 30
0.0
 11
21.82731529126787
 21
1.389062500000004
 31
0.0
1001
PE_URL
1000

  0
LINE
  5
98
330
1F
100
AcDbEntity
  8
0
  6
Continuous
 62
     1
370
    25
100
AcDbLine
 10
21.82731529126784
 20
-1.389062499999996
 30
0.0
 11
22.67412568447721
 21
-1.389062499999996
 31
0.0
1001
PE_URL
1000

  0
LINE
  5
99
330
1F
100
AcDbEntity
  8
외형선
  6
Continuous
370
    15
100
AcDbLine
 10
16.72835583936525
 20
-2.381250000000001
 30
0.0
 11
20.43125
 21
-1.389062499999996
 31
0.0
  0
LINE
  5
9A
330
1F
100
AcDbEntity
  8
외형선
  6
Continuous
370
    15
100
AcDbLine
 10
20.43125
 20
1.389062500000004
 30
0.0
 11
16.72835583936525
 21
2.381250000000009
 31
0.0
  0
LINE
  5
9B
330
1F
100
AcDbEntity
  8
외형선
  6
Continuous
370
    15
100
AcDbLine
 10
-16.72835583936525
 20
-2.381249999999998
 30
0.0
 11
16.72835583936525
 21
-2.381249999999998
 31
0.0
  0
LINE
  5
9C
330
1F
100
AcDbEntity
  8
외형선
  6
Continuous
370
    15
100
AcDbLine
 10
16.72835583936525
 20
2.381250000000007
 30
0.0
 11
-16.72835583936526
 21
2.381250000000007
 31
0.0
  0
LINE
  5
9F
330
1F
100
AcDbEntity
  8
외형선
  6
Continuous
370
    15
100
AcDbLine
 10
20.43125
 20
-1.389062499999996
 30
0.0
 11
20.931384254341
 21
-1.389062499999996
 31
0.0
  0
LINE
  5
A0
330
1F
100
AcDbEntity
  8
외형선
  6
Continuous
370
    15
100
AcDbLine
 10
20.931384254341
 20
1.389062500000004
 30
0.0
 11
20.43125
 21
1.389062500000004
 31
0.0
  0
LINE
  5
A1
330
1F
100
AcDbEntity
  8
0
  6
Continuous
 62
     1
370
    25
100
AcDbLine
 10
25.4
 20
-1.258047999200556
 30
0.0
 11
25.4
 21
0.1190167492005804
 31
0.0
1001
PE_URL
1000

  0
SPLINE
  5
A2
330
1F
100
AcDbEntity
  8
0
  6
Continuous
 62
     1
370
    25
100
AcDbSpline
210
0.0
220
0.0
230
1.0
 70
     8
 71
     3
 72
    22
 73
    18
 74
     0
 42
0.000000001
 43
0.00000001
 40
0.0
 40
0.0
 40
0.0
 40
0.0
 40
0.125
 40
0.125
 40
0.25
 40
0.25
 40
0.375
 40
0.375
 40
0.5
 40
0.5
 40
0.625
 40
0.625
 40
0.75
 40
0.75
 40
0.875
 40
0.875
 40
1.0
 40
1.0
 40
1.0
 40
1.0
 10
25.40000000000002
 20
-1.258047999200556
 30
0.0
 10
25.2371948625994
 20
-1.217788087990323
 30
0.0
 10
25.06994388913547
 20
-1.168250691733148
 30
0.0
 10
24.73703053719864
 20
-1.053372667657545
 30
0.0
 10
24.57434606121145
 20
-0.9885040970489981
 30
0.0
 10
24.24427842597419
 20
-0.8451827614872762
 30
0.0
 10
24.07637945941963
 20
-0.7665583075840836
 30
0.0
 10
23.74546451362293
 20
-0.6003233536805737
 30
0.0
 10
23.5833098463663
 20
-0.5129438406948977
 30
0.0
 10
23.25072666893983
 20
-0.3307103780052147
 30
0.0
 10
23.08320758287832
 20
-0.2363493305619388
 30
0.0
 10
22.75624964862583
 20
-0.0471582099019685
 30
0.0
 10
22.5905776094907
 20
0.0488617201631686
 30
0.0
 10
22.25747070006075
 20
0.2391965816036766
 30
0.0
 10
22.09398045988589
 20
0.3327512145781579
 30
0.0
 10
21.76489287716257
 20
0.5142711642349357
 30
0.0
 10
21.59706418243179
 20
0.6026062639836285
 30
0.0
 10
21.4312500000025
 20
0.685695518067708
 30
0.0
1001
PE_URL
1000

  0
SPLINE
  5
A3
330
1F
100
AcDbEntity
  8
외형선
  6
Continuous
370
    15
100
AcDbSpline
210
0.0
220
0.0
230
1.0
 70
    24
 71
     3
 72
    13
 73
     9
 74
     0
 42
0.000000001
 43
0.00000001
 40
0.0
 40
0.0
 40
0.0
 40
0.0
 40
0.1799337286941015
 40
0.3647301627419678
 40
0.5508084113513187
 40
0.7422829417761785
 40
0.9283611903855242
 40
1.0
 40
1.0
 40
1.0
 40
1.0
 10
21.43125
 20
1.370368947058947
 30
0.0
 10
21.43125
 20
1.325851879262443
 30
0.0
 10
21.43125000000002
 20
1.235614670818787
 30
0.0
 10
21.43125
 20
1.099023202398344
 30
0.0
 10
21.43125000000001
 20
0.9637933621359647
 30
0.0
 10
21.43125
 20
0.8374083579287042
 30
0.0
 10
21.43125
 20
0.742946481788853
 30
0.0
 10
21.43125
 20
0.6981482820566938
 30
0.0
 10
21.43125
 20
0.6856955180689245
 30
0.0
  0
SPLINE
  5
A4
330
1F
100
AcDbEntity
  8
0
  6
Continuous
 62
     1
370
    25
100
AcDbSpline
210
0.0
220
0.0
230
1.0
 70
     8
 71
     3
 72
    22
 73
    18
 74
     0
 42
0.000000001
 43
0.00000001
 40
0.0
 40
0.0
 40
0.0
 40
0.0
 40
0.125
 40
0.125
 40
0.25
 40
0.25
 40
0.375
 40
0.375
 40
0.5
 40
0.5
 40
0.625
 40
0.625
 40
0.75
 40
0.75
 40
0.875
 40
0.875
 40
1.0
 40
1.0
 40
1.0
 40
1.0
 10
25.4
 20
0.1190167492005804
 30
0.0
 10
25.23719486259937
 20
0.2136293234934587
 30
0.0
 10
25.0699438891355
 20
0.3082532133685504
 30
0.0
 10
24.73703053719867
 20
0.4914834750646179
 30
0.0
 10
24.57434606121146
 20
0.5795709982190956
 30
0.0
 10
24.24427842597422
 20
0.7471914028742701
 30
0.0
 10
24.07637945941969
 20
0.8267369458675207
 30
0.0
 10
23.74546451362301
 20
0.9722419450067903
 30
0.0
 10
23.58330984636636
 20
1.038180273621341
 30
0.0
 10
23.25072666893993
 20
1.155535687699415
 30
0.0
 10
23.08320758287841
 20
1.206470384921566
 30
0.0
 10
22.75624964862594
 20
1.289921565106069
 30
0.0
 10
22.59057760949081
 20
1.323012105751082
 30
0.0
 10
22.2574707000609
 20
1.370013978334729
 30
0.0
 10
22.09398045988603
 20
1.383805044671218
 30
0.0
 10
21.76489287716275
 20
1.391846291437375
 30
0.0
 10
21.59706418243194
 20
1.385990560122597
 30
0.0
 10
21.43125000000268
 20
1.370368947057791
 30
0.0
1001
PE_URL
1000

  0
SPLINE
  5
A5
330
1F
100
AcDbEntity
  8
0
  6
Continuous
 62
     1
370
    25
100
AcDbSpline
210
0.0
220
0.0
230
1.0
 70
     8
 71
     3
 72
    11
 73
     7
 74
     0
 42
0.000000001
 43
0.00000001
 40
0.0
 40
0.0
 40
0.0
 40
0.0
 40
0.2722453036614892
 40
0.5447154097156992
 40
0.8173412457371599
 40
1.0
 40
1.0
 40
1.0
 40
1.0
 10
21.4312500000025
 20
-1.208021641117461
 30
0.0
 10
21.67811277044455
 20
-1.267410357144446
 30
0.0
 10
22.17204215448309
 20
-1.386236828521718
 30
0.0
 10
22.91327383325816
 20
-1.401195935744826
 30
0.0
 10
23.57357639191092
 20
-1.312992591821437
 30
0.0
 10
23.9861951017999
 20
-1.183167079418821
 30
0.0
 10
24.15173643823474
 20
-1.131081489717248
 30
0.0
1001
PE_URL
1000

  0
SPLINE
  5
A6
330
1F
100
AcDbEntity
  8
외형선
  6
Continuous
370
    15
100
AcDbSpline
210
0.0
220
0.0
230
1.0
 70
    24
 71
     3
 72
    15
 73
    11
 74
     0
 42
0.000000001
 43
0.00000001
 40
0.0
 40
0.0
 40
0.0
 40
0.0
 40
0.0230355833927391
 40
0.172381811009856
 40
0.3217280386269681
 40
0.4710742662440833
 40
0.6204204938610094
 40
0.7697667214783108
 40
0.9191129490954296
 40
1.0
 40
1.0
 40
1.0
 40
1.0
 10
21.43125000000002
 20
0.2220091742736005
 30
0.0
 10
21.43125000000002
 20
0.221968148315073
 30
0.0
 10
21.43125000000002
 20
0.2216611394189315
 30
0.0
 10
21.43125
 20
0.132484895129936
 30
0.0
 10
21.43125000000001
 20
-0.0426240593420141
 30
0.0
 10
21.43125
 20
-0.2887176630724039
 30
0.0
 10
21.43124999999996
 20
-0.5677090246160317
 30
0.0
 10
21.43125000000003
 20
-0.849706003238475
 30
0.0
 10
21.43125000000004
 20
-1.067693929163777
 30
0.0
 10
21.43125000000001
 20
-1.171538346048909
 30
0.0
 10
21.43125
 20
-1.20802164111675
 30
0.0
  0
SPLINE
  5
A7
330
1F
100
AcDbEntity
  8
0
  6
Continuous
 62
     1
370
    25
100
AcDbSpline
210
0.0
220
0.0
230
1.0
 70
     8
 71
     3
 72
    22
 73
    18
 74
     0
 42
0.000000001
 43
0.00000001
 40
0.0
 40
0.0
 40
0.0
 40
0.0
 40
0.125
 40
0.125
 40
0.25
 40
0.25
 40
0.375
 40
0.375
 40
0.5
 40
0.5
 40
0.625
 40
0.625
 40
0.75
 40
0.75
 40
0.875
 40
0.875
 40
1.0
 40
1.0
 40
1.0
 40
1.0
 10
25.4
 20
-1.383954349794808
 30
0.0
 10
25.23719486259937
 20
-1.375817895707646
 30
0.0
 10
25.0699438891355
 20
-1.357802013880503
 30
0.0
 10
24.73703053719867
 20
-1.302724201889409
 30
0.0
 10
24.57434606121146
 20
-1.26597458197444
 30
0.0
 10
24.24427842597422
 20
-1.174861349969783
 30
0.0
 10
24.07637945941969
 20
-1.120319483363806
 30
0.0
 10
23.74546451362301
 20
-0.9966721240389529
 30
0.0
 10
23.58330984636636
 20
-0.9278049480558608
 30
0.0
 10
23.25072666893993
 20
-0.7767738259148947
 30
0.0
 10
23.08320758287841
 20
-0.6949577897222287
 30
0.0
 10
22.75624964862594
 20
-0.5240605643078945
 30
0.0
 10
22.59057760949081
 20
-0.4339226509605613
 30
0.0
 10
22.2574707000609
 20
-0.2484181920633025
 30
0.0
 10
22.09398045988603
 20
-0.1538174386374695
 30
0.0
 10
21.76489287716275
 20
0.0366074732606424
 30
0.0
 10
21.59706418243194
 20
0.132864476889805
 30
0.0
 10
21.43125000000268
 20
0.2271201837045316
 30
0.0
1001
PE_URL
1000

  0
LINE
  5
A8
330
1F
100
AcDbEntity
  8
0
  6
Continuous
 62
     1
370
    25
100
AcDbLine
 10
25.4
 20
-1.383954349794808
 30
0.0
 11
25.4
 21
-1.258047999200556
 31
0.0
1001
PE_URL
1000

  0
LINE
  5
A9
330
1F
100
AcDbEntity
  8
외형선
  6
Continuous
370
    15
100
AcDbLine
 10
21.43125
 20
0.2271201837060576
 30
0.0
 11
21.43125
 21
0.6856955180689552
 31
0.0
  0
SPLINE
  5
AA
330
1F
100
AcDbEntity
  8
0
  6
Continuous
 62
     1
370
    25
100
AcDbSpline
210
0.0
220
0.0
230
1.0
 70
     8
 71
     3
 72
    12
 73
     8
 74
     0
 42
0.000000001
 43
0.00000001
 40
0.0
 40
0.0
 40
0.0
 40
0.0
 40
0.0876708015864771
 40
0.3596911947411338
 40
0.5731808368034613
 40
0.7861617206818416
 40
1.0
 40
1.0
 40
1.0
 40
1.0
 10
22.67412568447721
 20
1.374712808382112
 30
0.0
 10
22.75381147157395
 20
1.378727361190599
 30
0.0
 10
23.08074216510072
 20
1.395198059187032
 30
0.0
 10
23.60194756489696
 20
1.299051875296545
 30
0.0
 10
24.23648748047981
 20
1.118133637460932
 30
0.0
 10
24.81767217668962
 20
0.8825331908582695
 30
0.0
 10
25.20563094803521
 20
0.686912482490443
 30
0.0
 10
25.40000000000002
 20
0.5889056466138793
 30
0.0
1001
PE_URL
1000

  0
LINE
  5
AB
330
1F
100
AcDbEntity
  8
0
  6
Continuous
 62
     1
370
    25
100
AcDbLine
 10
25.4
 20
0.1190167492005804
 30
0.0
 11
25.4
 21
0.5889056466138793
 31
0.0
1001
PE_URL
1000

  0
SPLINE
  5
AC
330
1F
100
AcDbEntity
  8
0
  6
Continuous
 62
     1
370
    25
100
AcDbSpline
210
0.0
220
0.0
230
1.0
 70
     8
 71
     3
 72
     9
 73
     5
 74
     0
 42
0.000000001
 43
0.00000001
 40
0.0
 40
0.0
 40
0.0
 40
0.0
 40
0.5940909025065552
 40
1.0
 40
1.0
 40
1.0
 40
1.0
 10
25.4
 20
1.383954349794817
 30
0.0
 10
25.15277423999976
 20
1.362185707686454
 30
0.0
 10
24.7366329408195
 20
1.325543769530999
 30
0.0
 10
24.32060568583725
 20
1.187225950718642
 30
0.0
 10
24.15173643823474
 20
1.131081489717256
 30
0.0
1001
PE_URL
1000

  0
LINE
  5
AD
330
1F
100
AcDbEntity
  8
0
  6
Continuous
 62
     1
370
    25
100
AcDbLine
 10
25.4
 20
0.5889056466138793
 30
0.0
 11
25.4
 21
1.383954349794817
 31
0.0
1001
PE_URL
1000

  0
LINE
  5
AE
330
1F
100
AcDbEntity
  8
0
  6
Continuous
 62
     1
370
    25
100
AcDbLine
 10
21.82731529126785
 20
-1.380204379962568
 30
0.0
 11
21.43125000000268
 21
-1.370368947057784
 31
0.0
1001
PE_URL
1000

  0
LINE
  5
AF
330
1F
100
AcDbEntity
  8
외형선
  6
Continuous
370
    15
100
AcDbLine
 10
21.43125
 20
-1.37036894705753
 30
0.0
 11
21.43125
 21
-1.20802164111675
 31
0.0
  0
LINE
  5
B0
330
1F
100
AcDbEntity
  8
외형선
  6
Continuous
370
    15
100
AcDbLine
 10
20.43125
 20
0.0000000000000039
 30
0.0
 11
20.43125
 21
1.389062500000004
 31
0.0
  0
LINE
  5
B1
330
1F
100
AcDbEntity
  8
외형선
  6
Continuous
370
    15
100
AcDbLine
 10
20.43125
 20
-1.389062499999996
 30
0.0
 11
20.43125
 21
0.0000000000000039
 31
0.0
  0
LINE
  5
B2
330
1F
100
AcDbEntity
  8
외형선
  6
Continuous
370
    15
100
AcDbLine
 10
16.72835583936525
 20
0.0000000000000039
 30
0.0
 11
16.72835583936525
 21
2.381250000000009
 31
0.0
  0
LINE
  5
B3
330
1F
100
AcDbEntity
  8
외형선
  6
Continuous
370
    15
100
AcDbLine
 10
16.72835583936525
 20
-2.381250000000001
 30
0.0
 11
16.72835583936525
 21
0.0000000000000039
 31
0.0
  0
LINE
  5
B8
330
1F
100
AcDbEntity
  8
외형선
  6
Continuous
370
    15
100
AcDbLine
 10
20.93138425434101
 20
0.9206522036785842
 30
0.0
 11
20.931384254341
 21
1.389062500000004
 31
0.0
  0
SPLINE
  5
B9
330
1F
100
AcDbEntity
  8
외형선
  6
Continuous
370
    15
100
AcDbSpline
210
0.0
220
0.0
230
1.0
 70
     8
 71
     3
 72
     8
 73
     4
 74
     0
 42
0.000000001
 43
0.00000001
 40
0.0
 40
0.0
 40
0.0
 40
0.0
 40
1.0
 40
1.0
 40
1.0
 40
1.0
 10
21.43125000000249
 20
0.6856955180677078
 30
0.0
 10
21.26340851236032
 20
0.7698006519485091
 30
0.0
 10
21.09951343033097
 20
0.8482988146368133
 30
0.0
 10
20.931384254341
 20
0.9207509819716143
 30
0.0
  0
SPLINE
  5
BA
330
1F
100
AcDbEntity
  8
외형선
  6
Continuous
370
    15
100
AcDbSpline
210
0.0
220
0.0
230
1.0
 70
     8
 71
     3
 72
     8
 73
     4
 74
     0
 42
0.000000001
 43
0.00000001
 40
0.0
 40
0.0
 40
0.0
 40
0.0
 40
1.0
 40
1.0
 40
1.0
 40
1.0
 10
21.43125000000251
 20
0.227120183704629
 30
0.0
 10
21.26340851236036
 20
0.3225282954763505
 30
0.0
 10
21.09951343033096
 20
0.4155513603203361
 30
0.0
 10
20.931384254341
 20
0.505676400685907
 30
0.0
  0
LINE
  5
BB
330
1F
100
AcDbEntity
  8
외형선
  6
Continuous
370
    15
100
AcDbLine
 10
20.93138425434101
 20
-1.040141408063363
 30
0.0
 11
20.931384254341
 21
0.505746102606359
 31
0.0
  0
SPLINE
  5
BC
330
1F
100
AcDbEntity
  8
외형선
  6
Continuous
370
    15
100
AcDbSpline
210
0.0
220
0.0
230
1.0
 70
     8
 71
     3
 72
     8
 73
     4
 74
     0
 42
0.000000001
 43
0.00000001
 40
0.0
 40
0.0
 40
0.0
 40
0.0
 40
1.0
 40
1.0
 40
1.0
 40
1.0
 10
21.43125000000249
 20
-1.20802164111746
 30
0.0
 10
21.26340851236032
 20
-1.16028200518246
 30
0.0
 10
21.09951343033097
 20
-1.104195259792543
 30
0.0
 10
20.931384254341
 20
-1.040053968842279
 30
0.0
  0
SPLINE
  5
BD
330
1F
100
AcDbEntity
  8
외형선
  6
Continuous
370
    15
100
AcDbSpline
210
0.0
220
0.0
230
1.0
 70
     8
 71
     3
 72
     8
 73
     4
 74
     0
 42
0.000000001
 43
0.00000001
 40
0.0
 40
0.0
 40
0.0
 40
0.0
 40
1.0
 40
1.0
 40
1.0
 40
1.0
 10
21.43125000000251
 20
-1.370368947057767
 30
0.0
 10
21.26340851236036
 20
-1.354556338402974
 30
0.0
 10
21.09951343033096
 20
-1.328975213312286
 30
0.0
 10
20.931384254341
 20
-1.293748819012248
 30
0.0
  0
LINE
  5
BE
330
1F
100
AcDbEntity
  8
외형선
  6
Continuous
370
    15
100
AcDbLine
 10
20.931384254341
 20
-1.389062499999996
 30
0.0
 11
20.931384254341
 21
-1.293721573061498
 31
0.0
  0
SPLINE
  5
BF
330
1F
100
AcDbEntity
  8
외형선
  6
Continuous
370
    15
100
AcDbSpline
210
0.0
220
0.0
230
1.0
 70
     8
 71
     3
 72
     8
 73
     4
 74
     0
 42
0.000000001
 43
0.00000001
 40
0.0
 40
0.0
 40
0.0
 40
0.0
 40
1.0
 40
1.0
 40
1.0
 40
1.0
 10
21.43125000000251
 20
1.370368947057774
 30
0.0
 10
21.26340851236036
 20
1.354556338402981
 30
0.0
 10
21.09951343033096
 20
1.328975213312291
 30
0.0
 10
20.931384254341
 20
1.293748819012253
 30
0.0
  0
SPLINE
  5
C0
330
1F
100
AcDbEntity
  8
외형선
  6
Continuous
370
    15
100
AcDbSpline
210
0.0
220
0.0
230
1.0
 70
    24
 71
     3
 72
    15
 73
    11
 74
     0
 42
0.000000001
 43
0.00000001
 40
0.0
 40
0.0
 40
0.0
 40
0.0
 40
0.0912089223833562
 40
0.2401637663299973
 40
0.3891186102757027
 40
0.538073454223282
 40
0.6870282981699212
 40
0.8359831421165598
 40
0.984937986063104
 40
0.9999999999999999
 40
0.9999999999999999
 40
0.9999999999999999
 40
0.9999999999999999
 10
21.43125
 20
-1.20802164111675
 30
0.0
 10
21.43125000000001
 20
-1.166474628694101
 30
0.0
 10
21.43125000000004
 20
-1.057076482959585
 30
0.0
 10
21.43125
 20
-0.8302484568759351
 30
0.0
 10
21.43125
 20
-0.547476793302461
 30
0.0
 10
21.43125000000005
 20
-0.26994065929433
 30
0.0
 10
21.43125
 20
-0.0274055755444518
 30
0.0
 10
21.43125000000003
 20
0.1423232830538018
 30
0.0
 10
21.43124999999997
 20
0.2250423057151688
 30
0.0
 10
21.43125
 20
0.2247928206635573
 30
0.0
 10
21.43125
 20
0.2247699099251556
 30
0.0
  0
SPLINE
  5
C1
330
1F
100
AcDbEntity
  8
외형선
  6
Continuous
370
    15
100
AcDbSpline
210
0.0
220
0.0
230
1.0
 70
    24
 71
     3
 72
    13
 73
     9
 74
     0
 42
0.000000001
 43
0.00000001
 40
0.0
 40
0.0
 40
0.0
 40
0.0
 40
0.0303993415615876
 40
0.2350647468060006
 40
0.4339621149012617
 40
0.638627520145541
 40
0.8172458155790002
 40
1.0
 40
1.0
 40
1.0
 40
1.0
 10
21.43125000000002
 20
0.720679916170713
 30
0.0
 10
21.43125000000002
 20
0.7257798040916542
 30
0.0
 10
21.43125000000001
 20
0.765214995819287
 30
0.0
 10
21.43125000000002
 20
0.8527372561688946
 30
0.0
 10
21.43125000000003
 20
0.9812422378421317
 30
0.0
 10
21.43124999999999
 20
1.113109053452506
 30
0.0
 10
21.43125000000003
 20
1.244471250269059
 30
0.0
 10
21.43125000000001
 20
1.328084066691412
 30
0.0
 10
21.43125
 20
1.37036894704136
 30
0.0
  0
LINE
  5
C2
330
1F
100
AcDbEntity
  8
중심선
 62
     1
100
AcDbLine
 10
-26.9
 20
0.0
 30
0.0
 11
26.9
 21
0.0
 31
0.0
  0
LINE
  5
C3
330
1F
100
AcDbEntity
  8
참조1
100
AcDbLine
 10
0.0000000000000036
 20
0.0
 30
0.0
 11
0.0000000000000036
 21
-40.0
 31
0.0
  0
LINE
  5
C4
330
1F
100
AcDbEntity
  8
참조1
100
AcDbLine
 10
0.0000000000000036
 20
-40.0
 30
0.0
 11
-15.15885681430867
 21
-39.99999999999999
 31
0.0
  0
CIRCLE
  5
C5
330
1F
100
AcDbEntity
  8
해칭선
100
AcDbCircle
 10
0.0
 20
0.0
 30
0.0
 40
3.0
  0
INSERT
  5
C6
330
1F
100
AcDbEntity
  8
0
  6
Continuous
 62
     7
100
AcDbBlockReference
 66
     1
  2
블럭10
 10
-13.94027293212521
 20
-52.04717430164393
 30
0.0
  0
ATTRIB
  5
C7
330
C6
100
AcDbEntity
  8
FORMAT
 62
     2
100
AcDbText
 10
-23.12156822086649
 20
-49.97180738881174
 30
0.0
 40
4.233333333333333
  1
E2002007 [ 4 FLUTE ]
 41
0.75
  7
SLDTEXTSTYLE0
 11
-23.12156822086649
 21
-52.08847405547841
 31
0.0
100
AcDbAttribute
  2
AUTOATTR0
 70
     0
 74
     1
  0
SEQEND
  5
C8
330
C6
100
AcDbEntity
  8
0
  6
Continuous
 62
     7
  0
HATCH
  5
C9
330
1F
100
AcDbEntity
  8
중심선
100
AcDbHatch
 10
0.0
 20
0.0
 30
0.0
210
0.0
220
0.0
230
1.0
  2
SOLID
 70
     1
 71
     0
 91
        1
 92
        0
 93
        4
 72
     1
 10
-8.225363627744368
 20
-35.79999999999999
 11
-11.67163887158165
 21
-35.79999999999999
 72
     1
 10
-11.67163887158165
 20
-35.79999999999999
 11
-13.79986873078567
 21
-38.33632558057259
 72
     1
 10
-13.79986873078567
 20
-38.33632558057259
 11
-10.35356040183524
 21
-38.33628615127009
 72
     1
 10
-10.35356040183524
 20
-38.33628615127009
 11
-8.225363627744368
 21
-35.79999999999999
 97
        0
 75
     0
 76
     1
 98
        1
 10
14.09411934298438
 20
-0.0010749287238892
  0
HATCH
  5
CA
330
1F
100
AcDbEntity
  8
중심선
100
AcDbHatch
 10
0.0
 20
0.0
 30
0.0
210
0.0
220
0.0
230
1.0
  2
SOLID
 70
     1
 71
     0
 91
        1
 92
        0
 93
        4
 72
     1
 10
-3.212599636708386
 20
-35.79999999999999
 11
-6.658874880545667
 21
-35.79999999999999
 72
     1
 10
-6.658874880545667
 20
-35.79999999999999
 11
-11.19001288890309
 21
-41.20000000000001
 72
     1
 10
-11.19001288890309
 20
-41.20000000000001
 11
-7.743737645065796
 21
-41.20000000000001
 72
     1
 10
-7.743737645065796
 20
-41.20000000000001
 11
-3.212599636708386
 21
-35.79999999999999
 97
        0
 75
     0
 76
     1
 98
        1
 10
14.09411934298438
 20
-0.0010749287238892
  0
HATCH
  5
CB
330
1F
100
AcDbEntity
  8
중심선
100
AcDbHatch
 10
0.0
 20
0.0
 30
0.0
210
0.0
220
0.0
230
1.0
  2
SOLID
 70
     1
 71
     0
 91
        1
 92
        0
 93
        4
 72
     1
 10
1.800164354327483
 20
-35.79999999999999
 11
-1.646110889509636
 21
-35.79999999999999
 72
     1
 10
-1.646110889509636
 20
-35.79999999999999
 11
-8.694547791398886
 21
-44.20000000000001
 72
     1
 10
-8.694547791398886
 20
-44.20000000000001
 11
-5.248272547561598
 21
-44.20000000000001
 72
     1
 10
-5.248272547561598
 20
-44.20000000000001
 11
1.800164354327483
 21
-35.79999999999999
 97
        0
 75
     0
 76
     1
 98
        1
 10
14.09411934298438
 20
-0.0010749287238892
  0
HATCH
  5
CC
330
1F
100
AcDbEntity
  8
중심선
100
AcDbHatch
 10
0.0
 20
0.0
 30
0.0
210
0.0
220
0.0
230
1.0
  2
SOLID
 70
     1
 71
     0
 91
        1
 92
        0
 93
        6
 72
     3
 10
6.600054785339681
 20
-40.00000000005127
 11
3.960054785062285
 21
1.540882976769353E-10
 40
0.3939339440162626
 50
17.09539180608438
 51
320.0019657685075
 73
     0
 72
     1
 10
8.283054441040278
 20
-38.58789400463827
 11
10.58835631474131
 21
-36.65356729459038
 72
     3
 10
6.600054785286835
 20
-40.00000000000014
 11
6.600054785286829
 21
-1.278976924368180E-13
 40
0.636358354079598
 50
39.99873849337411
 51
368.4976242363724
 73
     1
 72
     1
 10
13.02538727718744
 20
-39.03999999993002
 11
5.280122092122758
 21
-39.03999999992999
 72
     1
 10
5.280122092122758
 20
-39.03999999992999
 11
5.280097047676824
 21
-40.95999999992991
 72
     1
 10
5.280097047676824
 20
-40.95999999992991
 11
9.721476817148861
 21
-40.95999999992988
 97
        0
 75
     0
 76
     1
 98
        1
 10
14.09411934298438
 20
-0.0010749287238892
  0
DIMENSION
  5
CD
330
1F
100
AcDbEntity
  8
치수문자_일반주서
100
AcDbDimension
  2
_D
 10
54.58457672318701
 20
-1.383954349794706
 30
0.0
 11
54.58457672318696
 21
16.95156250000011
 31
0.0
 70
   160
  1
%%c<>
 71
     2
 42
2.767908699589633
 52
-270.0
  3
SLDDIMSTYLE0
100
AcDbAlignedDimension
 13
25.4
 23
1.383954349794817
 33
0.0
 14
25.4
 24
-1.383954349794816
 34
0.0
 50
90.0000000000002
100
AcDbRotatedDimension
1001
PE_URL
1000

1001
ACAD
1000
DSTYLE
1002
{
1070
   171
1070
     8
1070
   273
1070
     7
1070
    41
1040
2.5
1070
   140
1040
2.5
1002
}
  0
DIMENSION
  5
E2
330
1F
100
AcDbEntity
  8
치수문자_일반주서
100
AcDbDimension
  2
_D_1
 10
21.43125
 20
10.38125
 30
0.0
 11
40.02500000000001
 21
10.38125
 31
0.0
 70
   160
  1
<>
 71
     2
 42
3.968750000000004
  3
SLDDIMSTYLE0
100
AcDbAlignedDimension
 13
25.4
 23
1.383954349794817
 33
0.0
 14
21.43125
 24
1.370368947058947
 34
0.0
100
AcDbRotatedDimension
1001
PE_URL
1000

1001
ACAD
1000
DSTYLE
1002
{
1070
   171
1070
     8
1070
   273
1070
     7
1070
    41
1040
2.5
1070
   140
1040
2.5
1002
}
  0
DIMENSION
  5
F7
330
1F
100
AcDbEntity
  8
치수문자_일반주서
100
AcDbDimension
  2
_D_2
 10
-25.40000000000002
 20
18.38125
 30
0.0
 11
-1.296159543218767
 21
18.38125
 31
0.0
 70
   160
  1
<>
 71
     2
 42
50.80000000000001
  3
SLDDIMSTYLE0
100
AcDbAlignedDimension
 13
25.4
 23
1.383954349794817
 33
0.0
 14
-25.40000000000001
 24
1.383954349794815
 34
0.0
100
AcDbRotatedDimension
1001
PE_URL
1000

1001
ACAD
1000
DSTYLE
1002
{
1070
   171
1070
     8
1070
   273
1070
     7
1070
    41
1040
2.5
1070
   140
1040
2.5
1002
}
  0
DIMENSION
  5
10B
330
1F
100
AcDbEntity
  8
치수문자_일반주서
100
AcDbDimension
  2
_D_3
 10
-33.4
 20
-2.381250000000062
 30
0.0
 11
-33.40000000000006
 21
17.63124999999998
 31
0.0
 70
   160
  1
%%c<>
 71
     2
 42
4.76250000000001
 52
-270.0
  3
SLDDIMSTYLE0
100
AcDbAlignedDimension
 13
-16.72835583936526
 23
2.381250000000007
 33
0.0
 14
-16.72835583936526
 24
-2.381250000000003
 34
0.0
 50
90.0000000000002
100
AcDbRotatedDimension
1001
PE_URL
1000

1001
ACAD
1000
DSTYLE
1002
{
1070
   171
1070
     8
1070
   273
1070
     7
1070
    41
1040
2.5
1070
   140
1040
2.5
1002
}
  0
LINE
  5
11F
330
1F
100
AcDbEntity
  8
참조1
100
AcDbLine
 10
82.81348381534559
 20
7.440000000000007
 30
0.0
 11
82.81348381534559
 21
-7.439999999999998
 31
0.0
  0
LINE
  5
120
330
1F
100
AcDbEntity
  8
참조1
100
AcDbLine
 10
95.51348381534558
 20
5.440000000000007
 30
0.0
 11
82.81348381534559
 21
5.440000000000007
 31
0.0
  0
SOLID
  5
121
330
1F
100
AcDbEntity
  8
참조1
100
AcDbTrace
 10
82.81348381534559
 20
5.440000000000007
 30
0.0
 11
89.16348381534559
 21
4.424000000000007
 31
0.0
 12
89.16348381534559
 22
6.456000000000008
 32
0.0
 13
89.16348381534559
 23
6.456000000000008
 33
0.0
  0
LINE
  5
122
330
1F
100
AcDbEntity
  8
참조1
100
AcDbLine
 10
95.51348381534558
 20
-5.439999999999998
 30
0.0
 11
82.81348381534559
 21
-5.439999999999998
 31
0.0
  0
SOLID
  5
123
330
1F
100
AcDbEntity
  8
참조1
100
AcDbTrace
 10
82.81348381534559
 20
-5.439999999999998
 30
0.0
 11
89.16348381534559
 21
-6.455999999999998
 31
0.0
 12
89.16348381534559
 22
-4.423999999999998
 32
0.0
 13
89.16348381534559
 23
-4.423999999999998
 33
0.0
  0
MTEXT
  5
124
330
1F
100
AcDbEntity
  8
참조1
100
AcDbMText
 10
92.19783394797159
 20
11.01029177718834
 30
0.0
 40
3.5
 41
0.0
 71
     1
 72
     1
  1
A
  7
SLDTEXTSTYLE0
 73
     1
 44
1.0
  0
MTEXT
  5
125
330
1F
100
AcDbEntity
  8
참조1
100
AcDbMText
 10
92.19783394797159
 20
0.1302917771883327
 30
0.0
 40
3.5
 41
0.0
 71
     1
 72
     1
  1
A
  7
SLDTEXTSTYLE0
 73
     1
 44
1.0
  0
INSERT
  5
12C
330
1F
100
AcDbEntity
  8
해칭선
100
AcDbBlockReference
  2
SW_DOWELSYMBOL_0
 10
0.0
 20
0.0
 30
0.0
  0
LINE
  5
200
330
1F
100
AcDbEntity
  8
0
  6
Continuous
 62
     1
370
    25
100
AcDbLine
 10
-24.90555296996046
 20
-0.3989530080582704
 30
0.0
 11
-24.87910801846237
 21
-0.4132680656144683
 31
0.0
1001
PE_URL
1000

  0
LINE
  5
201
330
1F
100
AcDbEntity
  8
0
  6
Continuous
 62
     1
370
    25
100
AcDbLine
 10
-22.67412568447723
 20
-1.389062499999997
 30
0.0
 11
-21.82731529126788
 21
-1.389062499999997
 31
0.0
1001
PE_URL
1000

  0
LINE
  5
202
330
1F
100
AcDbEntity
  8
0
  6
Continuous
 62
     1
370
    25
100
AcDbLine
 10
-21.82731529126786
 20
1.389062500000002
 30
0.0
 11
-22.67412568447723
 21
1.389062500000002
 31
0.0
1001
PE_URL
1000

  0
LINE
  5
203
330
1F
100
AcDbEntity
  8
외형선
  6
Continuous
370
    15
100
AcDbLine
 10
-16.72835583936526
 20
2.381250000000007
 30
0.0
 11
-20.43125000000001
 21
1.389062500000002
 31
0.0
  0
LINE
  5
204
330
1F
100
AcDbEntity
  8
외형선
  6
Continuous
370
    15
100
AcDbLine
 10
-20.43125000000001
 20
-1.389062499999997
 30
0.0
 11
-16.72835583936526
 21
-2.381250000000003
 31
0.0
  0
LINE
  5
205
330
1F
100
AcDbEntity
  8
외형선
  6
Continuous
370
    15
100
AcDbLine
 10
-20.43125000000001
 20
1.389062500000002
 30
0.0
 11
-20.93138425434102
 21
1.389062500000002
 31
0.0
  0
LINE
  5
206
330
1F
100
AcDbEntity
  8
외형선
  6
Continuous
370
    15
100
AcDbLine
 10
-20.93138425434102
 20
-1.389062499999997
 30
0.0
 11
-20.43125000000001
 21
-1.389062499999997
 31
0.0
  0
LINE
  5
207
330
1F
100
AcDbEntity
  8
0
  6
Continuous
 62
     1
370
    25
100
AcDbLine
 10
-25.40000000000001
 20
1.258047999200562
 30
0.0
 11
-25.40000000000001
 21
-0.1190167492005732
 31
0.0
1001
PE_URL
1000

  0
SPLINE
  5
208
330
1F
100
AcDbEntity
  8
0
  6
Continuous
 62
     1
370
    25
100
AcDbSpline
210
0.0
220
0.0
230
1.0
 70
     8
 71
     3
 72
    22
 73
    18
 74
     0
 42
0.000000001
 43
0.00000001
 40
0.0
 40
0.0
 40
0.0
 40
0.0
 40
0.125
 40
0.125
 40
0.25
 40
0.25
 40
0.375
 40
0.375
 40
0.5
 40
0.5
 40
0.625
 40
0.625
 40
0.75
 40
0.75
 40
0.875
 40
0.875
 40
1.0
 40
1.0
 40
1.0
 40
1.0
 10
-25.40000000000004
 20
1.258047999200562
 30
0.0
 10
-25.23719486259941
 20
1.217788087990329
 30
0.0
 10
-25.06994388913549
 20
1.168250691733155
 30
0.0
 10
-24.73703053719866
 20
1.053372667657553
 30
0.0
 10
-24.57434606121146
 20
0.9885040970490049
 30
0.0
 10
-24.24427842597421
 20
0.8451827614872822
 30
0.0
 10
-24.07637945941965
 20
0.7665583075840903
 30
0.0
 10
-23.74546451362295
 20
0.6003233536805801
 30
0.0
 10
-23.58330984636631
 20
0.5129438406949045
 30
0.0
 10
-23.25072666893984
 20
0.3307103780052205
 30
0.0
 10
-23.08320758287834
 20
0.2363493305619452
 30
0.0
 10
-22.75624964862585
 20
0.0471582099019751
 30
0.0
 10
-22.59057760949072
 20
-0.0488617201631628
 30
0.0
 10
-22.25747070006076
 20
-0.2391965816036692
 30
0.0
 10
-22.09398045988591
 20
-0.332751214578152
 30
0.0
 10
-21.76489287716259
 20
-0.5142711642349298
 30
0.0
 10
-21.5970641824318
 20
-0.6026062639836216
 30
0.0
 10
-21.43125000000251
 20
-0.6856955180677009
 30
0.0
1001
PE_URL
1000

  0
SPLINE
  5
209
330
1F
100
AcDbEntity
  8
외형선
  6
Continuous
370
    15
100
AcDbSpline
210
0.0
220
0.0
230
1.0
 70
    24
 71
     3
 72
    13
 73
     9
 74
     0
 42
0.000000001
 43
0.00000001
 40
0.0
 40
0.0
 40
0.0
 40
0.0
 40
0.1799337286941015
 40
0.3647301627419678
 40
0.5508084113513187
 40
0.7422829417761785
 40
0.9283611903855242
 40
1.0
 40
1.0
 40
1.0
 40
1.0
 10
-21.43125000000001
 20
-1.37036894705894
 30
0.0
 10
-21.43125000000001
 20
-1.325851879262437
 30
0.0
 10
-21.43125000000003
 20
-1.235614670818779
 30
0.0
 10
-21.43125000000001
 20
-1.099023202398338
 30
0.0
 10
-21.43125000000002
 20
-0.9637933621359587
 30
0.0
 10
-21.43125000000001
 20
-0.8374083579286975
 30
0.0
 10
-21.43125000000001
 20
-0.7429464817888463
 30
0.0
 10
-21.43125000000001
 20
-0.6981482820566864
 30
0.0
 10
-21.43125000000001
 20
-0.6856955180689177
 30
0.0
  0
SPLINE
  5
20A
330
1F
100
AcDbEntity
  8
0
  6
Continuous
 62
     1
370
    25
100
AcDbSpline
210
0.0
220
0.0
230
1.0
 70
     8
 71
     3
 72
    22
 73
    18
 74
     0
 42
0.000000001
 43
0.00000001
 40
0.0
 40
0.0
 40
0.0
 40
0.0
 40
0.125
 40
0.125
 40
0.25
 40
0.25
 40
0.375
 40
0.375
 40
0.5
 40
0.5
 40
0.625
 40
0.625
 40
0.75
 40
0.75
 40
0.875
 40
0.875
 40
1.0
 40
1.0
 40
1.0
 40
1.0
 10
-25.40000000000001
 20
-0.1190167492005732
 30
0.0
 10
-25.23719486259939
 20
-0.2136293234934528
 30
0.0
 10
-25.06994388913552
 20
-0.3082532133685441
 30
0.0
 10
-24.73703053719868
 20
-0.4914834750646116
 30
0.0
 10
-24.57434606121148
 20
-0.5795709982190893
 30
0.0
 10
-24.24427842597424
 20
-0.7471914028742639
 30
0.0
 10
-24.07637945941971
 20
-0.8267369458675138
 30
0.0
 10
-23.74546451362303
 20
-0.9722419450067836
 30
0.0
 10
-23.58330984636637
 20
-1.038180273621333
 30
0.0
 10
-23.25072666893995
 20
-1.155535687699408
 30
0.0
 10
-23.08320758287842
 20
-1.206470384921558
 30
0.0
 10
-22.75624964862595
 20
-1.289921565106062
 30
0.0
 10
-22.59057760949082
 20
-1.323012105751075
 30
0.0
 10
-22.25747070006091
 20
-1.370013978334723
 30
0.0
 10
-22.09398045988604
 20
-1.383805044671211
 30
0.0
 10
-21.76489287716277
 20
-1.391846291437369
 30
0.0
 10
-21.59706418243196
 20
-1.385990560122591
 30
0.0
 10
-21.43125000000269
 20
-1.370368947057784
 30
0.0
1001
PE_URL
1000

  0
SPLINE
  5
20B
330
1F
100
AcDbEntity
  8
0
  6
Continuous
 62
     1
370
    25
100
AcDbSpline
210
0.0
220
0.0
230
1.0
 70
     8
 71
     3
 72
    11
 73
     7
 74
     0
 42
0.000000001
 43
0.00000001
 40
0.0
 40
0.0
 40
0.0
 40
0.0
 40
0.2722453036614892
 40
0.5447154097156992
 40
0.8173412457371599
 40
1.0
 40
1.0
 40
1.0
 40
1.0
 10
-21.43125000000251
 20
1.208021641117468
 30
0.0
 10
-21.67811277044456
 20
1.267410357144453
 30
0.0
 10
-22.1720421544831
 20
1.386236828521725
 30
0.0
 10
-22.91327383325817
 20
1.401195935744833
 30
0.0
 10
-23.57357639191093
 20
1.312992591821444
 30
0.0
 10
-23.98619510179991
 20
1.183167079418827
 30
0.0
 10
-24.15173643823476
 20
1.131081489717254
 30
0.0
1001
PE_URL
1000

  0
SPLINE
  5
20C
330
1F
100
AcDbEntity
  8
외형선
  6
Continuous
370
    15
100
AcDbSpline
210
0.0
220
0.0
230
1.0
 70
    24
 71
     3
 72
    15
 73
    11
 74
     0
 42
0.000000001
 43
0.00000001
 40
0.0
 40
0.0
 40
0.0
 40
0.0
 40
0.0230355833927391
 40
0.172381811009856
 40
0.3217280386269681
 40
0.4710742662440833
 40
0.6204204938610094
 40
0.7697667214783108
 40
0.9191129490954296
 40
1.0
 40
1.0
 40
1.0
 40
1.0
 10
-21.43125000000003
 20
-0.222009174273594
 30
0.0
 10
-21.43125000000003
 20
-0.2219681483150667
 30
0.0
 10
-21.43125000000003
 20
-0.2216611394189248
 30
0.0
 10
-21.43125000000001
 20
-0.1324848951299303
 30
0.0
 10
-21.43125000000002
 20
0.0426240593420199
 30
0.0
 10
-21.43125000000001
 20
0.2887176630724101
 30
0.0
 10
-21.43124999999997
 20
0.5677090246160386
 30
0.0
 10
-21.43125000000005
 20
0.8497060032384816
 30
0.0
 10
-21.43125000000006
 20
1.067693929163783
 30
0.0
 10
-21.43125000000002
 20
1.171538346048916
 30
0.0
 10
-21.43125000000001
 20
1.208021641116757
 30
0.0
  0
SPLINE
  5
20D
330
1F
100
AcDbEntity
  8
0
  6
Continuous
 62
     1
370
    25
100
AcDbSpline
210
0.0
220
0.0
230
1.0
 70
     8
 71
     3
 72
    22
 73
    18
 74
     0
 42
0.000000001
 43
0.00000001
 40
0.0
 40
0.0
 40
0.0
 40
0.0
 40
0.125
 40
0.125
 40
0.25
 40
0.25
 40
0.375
 40
0.375
 40
0.5
 40
0.5
 40
0.625
 40
0.625
 40
0.75
 40
0.75
 40
0.875
 40
0.875
 40
1.0
 40
1.0
 40
1.0
 40
1.0
 10
-25.40000000000001
 20
1.383954349794815
 30
0.0
 10
-25.23719486259939
 20
1.375817895707652
 30
0.0
 10
-25.06994388913552
 20
1.357802013880509
 30
0.0
 10
-24.73703053719868
 20
1.302724201889416
 30
0.0
 10
-24.57434606121148
 20
1.265974581974446
 30
0.0
 10
-24.24427842597424
 20
1.174861349969789
 30
0.0
 10
-24.07637945941971
 20
1.120319483363812
 30
0.0
 10
-23.74546451362303
 20
0.9966721240389596
 30
0.0
 10
-23.58330984636637
 20
0.9278049480558674
 30
0.0
 10
-23.25072666893995
 20
0.776773825914902
 30
0.0
 10
-23.08320758287842
 20
0.6949577897222354
 30
0.0
 10
-22.75624964862595
 20
0.524060564307901
 30
0.0
 10
-22.59057760949082
 20
0.4339226509605686
 30
0.0
 10
-22.25747070006091
 20
0.248418192063309
 30
0.0
 10
-22.09398045988604
 20
0.1538174386374755
 30
0.0
 10
-21.76489287716277
 20
-0.0366074732606355
 30
0.0
 10
-21.59706418243196
 20
-0.1328644768897978
 30
0.0
 10
-21.43125000000269
 20
-0.2271201837045259
 30
0.0
1001
PE_URL
1000

  0
LINE
  5
20E
330
1F
100
AcDbEntity
  8
0
  6
Continuous
 62
     1
370
    25
100
AcDbLine
 10
-25.40000000000001
 20
1.383954349794815
 30
0.0
 11
-25.40000000000001
 21
1.258047999200562
 31
0.0
1001
PE_URL
1000

  0
LINE
  5
20F
330
1F
100
AcDbEntity
  8
외형선
  6
Continuous
370
    15
100
AcDbLine
 10
-21.43125000000001
 20
-0.2271201837060517
 30
0.0
 11
-21.43125000000001
 21
-0.6856955180689479
 31
0.0
  0
SPLINE
  5
210
330
1F
100
AcDbEntity
  8
0
  6
Continuous
 62
     1
370
    25
100
AcDbSpline
210
0.0
220
0.0
230
1.0
 70
     8
 71
     3
 72
    12
 73
     8
 74
     0
 42
0.000000001
 43
0.00000001
 40
0.0
 40
0.0
 40
0.0
 40
0.0
 40
0.0876708015864771
 40
0.3596911947411338
 40
0.5731808368034613
 40
0.7861617206818416
 40
1.0
 40
1.0
 40
1.0
 40
1.0
 10
-22.67412568447723
 20
-1.374712808382106
 30
0.0
 10
-22.75381147157396
 20
-1.378727361190593
 30
0.0
 10
-23.08074216510074
 20
-1.395198059187025
 30
0.0
 10
-23.60194756489697
 20
-1.299051875296537
 30
0.0
 10
-24.23648748047983
 20
-1.118133637460925
 30
0.0
 10
-24.81767217668963
 20
-0.8825331908582623
 30
0.0
 10
-25.20563094803523
 20
-0.6869124824904358
 30
0.0
 10
-25.40000000000004
 20
-0.5889056466138733
 30
0.0
1001
PE_URL
1000

  0
LINE
  5
211
330
1F
100
AcDbEntity
  8
0
  6
Continuous
 62
     1
370
    25
100
AcDbLine
 10
-25.40000000000001
 20
-0.1190167492005732
 30
0.0
 11
-25.40000000000001
 21
-0.5889056466138733
 31
0.0
1001
PE_URL
1000

  0
SPLINE
  5
212
330
1F
100
AcDbEntity
  8
0
  6
Continuous
 62
     1
370
    25
100
AcDbSpline
210
0.0
220
0.0
230
1.0
 70
     8
 71
     3
 72
     9
 73
     5
 74
     0
 42
0.000000001
 43
0.00000001
 40
0.0
 40
0.0
 40
0.0
 40
0.0
 40
0.5940909025065552
 40
1.0
 40
1.0
 40
1.0
 40
1.0
 10
-25.40000000000001
 20
-1.38395434979481
 30
0.0
 10
-25.15277423999978
 20
-1.362185707686448
 30
0.0
 10
-24.73663294081952
 20
-1.325543769530993
 30
0.0
 10
-24.32060568583726
 20
-1.187225950718635
 30
0.0
 10
-24.15173643823475
 20
-1.131081489717249
 30
0.0
1001
PE_URL
1000

  0
LINE
  5
213
330
1F
100
AcDbEntity
  8
0
  6
Continuous
 62
     1
370
    25
100
AcDbLine
 10
-25.40000000000001
 20
-0.5889056466138733
 30
0.0
 11
-25.40000000000001
 21
-1.38395434979481
 31
0.0
1001
PE_URL
1000

  0
LINE
  5
214
330
1F
100
AcDbEntity
  8
0
  6
Continuous
 62
     1
370
    25
100
AcDbLine
 10
-21.82731529126787
 20
1.380204379962575
 30
0.0
 11
-21.43125000000269
 21
1.37036894705779
 31
0.0
1001
PE_URL
1000

  0
LINE
  5
215
330
1F
100
AcDbEntity
  8
외형선
  6
Continuous
370
    15
100
AcDbLine
 10
-21.43125000000001
 20
1.370368947057536
 30
0.0
 11
-21.43125000000001
 21
1.208021641116757
 31
0.0
  0
LINE
  5
216
330
1F
100
AcDbEntity
  8
외형선
  6
Continuous
370
    15
100
AcDbLine
 10
-20.43125000000001
 20
0.0000000000000024
 30
0.0
 11
-20.43125000000001
 21
-1.389062499999997
 31
0.0
  0
LINE
  5
217
330
1F
100
AcDbEntity
  8
외형선
  6
Continuous
370
    15
100
AcDbLine
 10
-20.43125000000001
 20
1.389062500000002
 30
0.0
 11
-20.43125000000001
 21
0.0000000000000024
 31
0.0
  0
LINE
  5
218
330
1F
100
AcDbEntity
  8
외형선
  6
Continuous
370
    15
100
AcDbLine
 10
-16.72835583936526
 20
0.0000000000000024
 30
0.0
 11
-16.72835583936526
 21
-2.381250000000003
 31
0.0
  0
LINE
  5
219
330
1F
100
AcDbEntity
  8
외형선
  6
Continuous
370
    15
100
AcDbLine
 10
-16.72835583936526
 20
2.381250000000007
 30
0.0
 11
-16.72835583936526
 21
0.0000000000000024
 31
0.0
  0
LINE
  5
21A
330
1F
100
AcDbEntity
  8
외형선
  6
Continuous
370
    15
100
AcDbLine
 10
-20.93138425434103
 20
-0.9206522036785778
 30
0.0
 11
-20.93138425434102
 21
-1.389062499999997
 31
0.0
  0
SPLINE
  5
21B
330
1F
100
AcDbEntity
  8
외형선
  6
Continuous
370
    15
100
AcDbSpline
210
0.0
220
0.0
230
1.0
 70
     8
 71
     3
 72
     8
 73
     4
 74
     0
 42
0.000000001
 43
0.00000001
 40
0.0
 40
0.0
 40
0.0
 40
0.0
 40
1.0
 40
1.0
 40
1.0
 40
1.0
 10
-21.4312500000025
 20
-0.6856955180677009
 30
0.0
 10
-21.26340851236034
 20
-0.7698006519485017
 30
0.0
 10
-21.09951343033098
 20
-0.8482988146368069
 30
0.0
 10
-20.93138425434101
 20
-0.9207509819716073
 30
0.0
  0
SPLINE
  5
21C
330
1F
100
AcDbEntity
  8
외형선
  6
Continuous
370
    15
100
AcDbSpline
210
0.0
220
0.0
230
1.0
 70
     8
 71
     3
 72
     8
 73
     4
 74
     0
 42
0.000000001
 43
0.00000001
 40
0.0
 40
0.0
 40
0.0
 40
0.0
 40
1.0
 40
1.0
 40
1.0
 40
1.0
 10
-21.43125000000253
 20
-0.2271201837046218
 30
0.0
 10
-21.26340851236037
 20
-0.3225282954763434
 30
0.0
 10
-21.09951343033097
 20
-0.4155513603203301
 30
0.0
 10
-20.93138425434101
 20
-0.5056764006859009
 30
0.0
  0
LINE
  5
21D
330
1F
100
AcDbEntity
  8
외형선
  6
Continuous
370
    15
100
AcDbLine
 10
-20.93138425434103
 20
1.040141408063371
 30
0.0
 11
-20.93138425434102
 21
-0.5057461026063514
 31
0.0
  0
SPLINE
  5
21E
330
1F
100
AcDbEntity
  8
외형선
  6
Continuous
370
    15
100
AcDbSpline
210
0.0
220
0.0
230
1.0
 70
     8
 71
     3
 72
     8
 73
     4
 74
     0
 42
0.000000001
 43
0.00000001
 40
0.0
 40
0.0
 40
0.0
 40
0.0
 40
1.0
 40
1.0
 40
1.0
 40
1.0
 10
-21.4312500000025
 20
1.208021641117466
 30
0.0
 10
-21.26340851236034
 20
1.160282005182467
 30
0.0
 10
-21.09951343033098
 20
1.10419525979255
 30
0.0
 10
-20.93138425434101
 20
1.040053968842286
 30
0.0
  0
SPLINE
  5
21F
330
1F
100
AcDbEntity
  8
외형선
  6
Continuous
370
    15
100
AcDbSpline
210
0.0
220
0.0
230
1.0
 70
     8
 71
     3
 72
     8
 73
     4
 74
     0
 42
0.000000001
 43
0.00000001
 40
0.0
 40
0.0
 40
0.0
 40
0.0
 40
1.0
 40
1.0
 40
1.0
 40
1.0
 10
-21.43125000000253
 20
1.370368947057774
 30
0.0
 10
-21.26340851236037
 20
1.354556338402982
 30
0.0
 10
-21.09951343033097
 20
1.328975213312293
 30
0.0
 10
-20.93138425434101
 20
1.293748819012255
 30
0.0
  0
LINE
  5
220
330
1F
100
AcDbEntity
  8
외형선
  6
Continuous
370
    15
100
AcDbLine
 10
-20.93138425434102
 20
1.389062500000002
 30
0.0
 11
-20.93138425434102
 21
1.293721573061504
 31
0.0
  0
SPLINE
  5
221
330
1F
100
AcDbEntity
  8
외형선
  6
Continuous
370
    15
100
AcDbSpline
210
0.0
220
0.0
230
1.0
 70
     8
 71
     3
 72
     8
 73
     4
 74
     0
 42
0.000000001
 43
0.00000001
 40
0.0
 40
0.0
 40
0.0
 40
0.0
 40
1.0
 40
1.0
 40
1.0
 40
1.0
 10
-21.43125000000253
 20
-1.370368947057768
 30
0.0
 10
-21.26340851236037
 20
-1.354556338402975
 30
0.0
 10
-21.09951343033097
 20
-1.328975213312284
 30
0.0
 10
-20.93138425434101
 20
-1.293748819012247
 30
0.0
  0
SPLINE
  5
222
330
1F
100
AcDbEntity
  8
외형선
  6
Continuous
370
    15
100
AcDbSpline
210
0.0
220
0.0
230
1.0
 70
    24
 71
     3
 72
    15
 73
    11
 74
     0
 42
0.000000001
 43
0.00000001
 40
0.0
 40
0.0
 40
0.0
 40
0.0
 40
0.0912089223833562
 40
0.2401637663299973
 40
0.3891186102757027
 40
0.538073454223282
 40
0.6870282981699212
 40
0.8359831421165598
 40
0.984937986063104
 40
0.9999999999999999
 40
0.9999999999999999
 40
0.9999999999999999
 40
0.9999999999999999
 10
-21.43125000000001
 20
1.208021641116757
 30
0.0
 10
-21.43125000000002
 20
1.166474628694108
 30
0.0
 10
-21.43125000000006
 20
1.057076482959592
 30
0.0
 10
-21.43125000000001
 20
0.8302484568759414
 30
0.0
 10
-21.43125000000001
 20
0.5474767933024676
 30
0.0
 10
-21.43125000000006
 20
0.2699406592943371
 30
0.0
 10
-21.43125000000001
 20
0.0274055755444588
 30
0.0
 10
-21.43125000000004
 20
-0.142323283053796
 30
0.0
 10
-21.43124999999998
 20
-0.225042305715163
 30
0.0
 10
-21.43125000000001
 20
-0.2247928206635515
 30
0.0
 10
-21.43125000000001
 20
-0.2247699099251499
 30
0.0
  0
SPLINE
  5
223
330
1F
100
AcDbEntity
  8
외형선
  6
Continuous
370
    15
100
AcDbSpline
210
0.0
220
0.0
230
1.0
 70
    24
 71
     3
 72
    13
 73
     9
 74
     0
 42
0.000000001
 43
0.00000001
 40
0.0
 40
0.0
 40
0.0
 40
0.0
 40
0.0303993415615876
 40
0.2350647468060006
 40
0.4339621149012617
 40
0.638627520145541
 40
0.8172458155790002
 40
1.0
 40
1.0
 40
1.0
 40
1.0
 10
-21.43125000000003
 20
-0.7206799161707071
 30
0.0
 10
-21.43125000000003
 20
-0.725779804091647
 30
0.0
 10
-21.43125000000002
 20
-0.7652149958192809
 30
0.0
 10
-21.43125000000003
 20
-0.8527372561688875
 30
0.0
 10
-21.43125000000004
 20
-0.9812422378421257
 30
0.0
 10
-21.43125
 20
-1.1131090534525
 30
0.0
 10
-21.43125000000004
 20
-1.244471250269052
 30
0.0
 10
-21.43125000000002
 20
-1.328084066691406
 30
0.0
 10
-21.43125000000001
 20
-1.370368947041352
 30
0.0
  0
ENDSEC
  0
SECTION
  2
OBJECTS
  0
DICTIONARY
  5
C
330
0
100
AcDbDictionary
281
     1
  3
ACAD_DETAILVIEWSTYLE
350
1AF
  3
ACAD_GROUP
350
D
  3
ACAD_IMAGE_VARS
350
247
  3
ACAD_LAYOUT
350
1A
  3
ACAD_MLINESTYLE
350
17
  3
ACAD_PLOTSETTINGS
350
19
  3
ACAD_PLOTSTYLENAME
350
E
  3
ACAD_SCALELIST
350
47
  3
ACAD_SECTIONVIEWSTYLE
350
1B0
  3
AcDbVariableDictionary
350
1AA
  3
APPDATA
350
14E
  3
DWGPROPS
350
248
  0
DICTIONARY
  5
1AF
102
{ACAD_REACTORS
330
C
102
}
330
C
100
AcDbDictionary
281
     1
  0
DICTIONARY
  5
D
102
{ACAD_REACTORS
330
C
102
}
330
C
100
AcDbDictionary
281
     1
  0
RASTERVARIABLES
  5
247
102
{ACAD_REACTORS
330
C
102
}
330
C
100
AcDbRasterVariables
 90
        0
 70
     1
 71
     1
 72
     1
  0
DICTIONARY
  5
1A
102
{ACAD_REACTORS
330
C
102
}
330
C
100
AcDbDictionary
281
     1
  3
Layout1
350
1E
  3
Layout2
350
26
  3
Model
350
22
  0
DICTIONARY
  5
17
102
{ACAD_REACTORS
330
C
102
}
330
C
100
AcDbDictionary
281
     1
  3
Standard
350
18
  0
DICTIONARY
  5
19
102
{ACAD_REACTORS
330
C
102
}
330
C
100
AcDbDictionary
281
     1
  0
ACDBDICTIONARYWDFLT
  5
E
102
{ACAD_REACTORS
330
C
102
}
330
C
100
AcDbDictionary
281
     1
  3
Normal
350
F
100
AcDbDictionaryWithDefault
340
F
  0
DICTIONARY
  5
47
102
{ACAD_REACTORS
330
C
102
}
330
C
100
AcDbDictionary
281
     1
  3
A0
350
48
  3
A1
350
49
  3
A2
350
4A
  3
A3
350
4B
  3
A4
350
4C
  3
A5
350
4D
  3
A6
350
4E
  3
A7
350
4F
  3
A8
350
50
  3
A9
350
51
  3
B0
350
52
  3
B1
350
53
  3
B2
350
54
  3
B3
350
55
  3
B4
350
56
  3
B5
350
57
  3
B6
350
58
  3
B7
350
59
  3
B8
350
5A
  3
B9
350
5B
  3
C0
350
5C
  3
C1
350
5D
  3
C2
350
5E
  3
C3
350
5F
  3
C4
350
60
  3
C5
350
61
  3
C6
350
62
  3
C7
350
63
  3
C8
350
64
  3
C9
350
65
  3
D0
350
66
  3
D1
350
67
  3
D2
350
68
  0
DICTIONARY
  5
1B0
102
{ACAD_REACTORS
330
C
102
}
330
C
100
AcDbDictionary
281
     1
  0
DICTIONARY
  5
1AA
102
{ACAD_REACTORS
330
C
102
}
330
C
100
AcDbDictionary
281
     1
  0
DICTIONARY
  5
14E
102
{ACAD_REACTORS
330
C
102
}
330
C
100
AcDbDictionary
281
     1
  0
XRECORD
  5
248
102
{ACAD_REACTORS
330
C
102
}
330
C
100
AcDbXrecord
280
     1
  1
DWGPROPS COOKIE
  2

  3

  4

  6

  7

  8
12016016
  9

300
=
301
=
302
=
303
=
304
=
305
=
306
=
307
=
308
=
309
=
 40
0.0
 41
2458313.080987049
 42
2458318.273319699
  1

 90
        0
  0
LAYOUT
  5
1E
102
{ACAD_REACTORS
330
1A
102
}
330
1A
100
AcDbPlotSettings
  1

  2
none_device
  4

  6

 40
0.0
 41
0.0
 42
0.0
 43
0.0
 44
0.0
 45
0.0
 46
0.0
 47
0.0
 48
0.0
 49
0.0
140
0.0
141
0.0
142
1.0
143
1.0
 70
   688
 72
     1
 73
     0
 74
     5
  7

 75
    16
147
1.0
148
0.0
149
0.0
100
AcDbLayout
  1
Layout1
 70
     1
 71
     1
 10
0.0
 20
0.0
 11
420.0
 21
297.0
 12
0.0
 22
0.0
 32
0.0
 14
1.000000000000000E+20
 24
1.000000000000000E+20
 34
1.000000000000000E+20
 15
-1.000000000000000E+20
 25
-1.000000000000000E+20
 35
-1.000000000000000E+20
146
0.0
 13
0.0
 23
0.0
 33
0.0
 16
1.0
 26
0.0
 36
0.0
 17
0.0
 27
1.0
 37
0.0
 76
     0
330
1B
  0
LAYOUT
  5
26
102
{ACAD_REACTORS
330
1A
102
}
330
1A
100
AcDbPlotSettings
  1

  2
none_device
  4

  6

 40
0.0
 41
0.0
 42
0.0
 43
0.0
 44
0.0
 45
0.0
 46
0.0
 47
0.0
 48
0.0
 49
0.0
140
0.0
141
0.0
142
1.0
143
1.0
 70
   688
 72
     1
 73
     0
 74
     5
  7

 75
    16
147
1.0
148
0.0
149
0.0
100
AcDbLayout
  1
Layout2
 70
     1
 71
     2
 10
0.0
 20
0.0
 11
0.0
 21
0.0
 12
0.0
 22
0.0
 32
0.0
 14
0.0
 24
0.0
 34
0.0
 15
0.0
 25
0.0
 35
0.0
146
0.0
 13
0.0
 23
0.0
 33
0.0
 16
1.0
 26
0.0
 36
0.0
 17
0.0
 27
1.0
 37
0.0
 76
     0
330
23
  0
LAYOUT
  5
22
102
{ACAD_REACTORS
330
1A
102
}
330
1A
100
AcDbPlotSettings
  1

  2
none_device
  4
ANSI_A_(11.00_x_8.50_Inches)
  6

 40
6.35
 41
19.05
 42
6.35000508
 43
19.05000254
 44
279.4
 45
215.9
 46
116.0200047679344
 47
80.24699700557558
 48
0.0
 49
0.0
140
0.0
141
0.0
142
0.0752558462788414
143
1.0
 70
  1696
 72
     0
 73
     0
 74
     0
  7

 75
     0
147
0.0235690232323232
148
0.0
149
0.0
100
AcDbLayout
  1
Model
 70
     1
 71
     0
 10
0.0
 20
0.0
 11
420.0
 21
297.0
 12
0.0
 22
0.0
 32
0.0
 14
-36.77500000000008
 24
-49.97180738881174
 34
0.0
 15
95.51348381534558
 25
27.88124999999999
 35
0.0
146
0.0
 13
0.0
 23
0.0
 33
0.0
 16
1.0
 26
0.0
 36
0.0
 17
0.0
 27
1.0
 37
0.0
 76
     0
330
1F
331
29
  0
MLINESTYLE
  5
18
102
{ACAD_REACTORS
330
17
102
}
330
17
100
AcDbMlineStyle
  2
Standard
 70
     0
  3

 62
   256
 51
90.0
 52
90.0
 71
     2
 49
0.5
 62
   256
  6
BYLAYER
 49
-0.5
 62
   256
  6
BYLAYER
  0
ACDBPLACEHOLDER
  5
F
102
{ACAD_REACTORS
330
E
102
}
330
E
  0
SCALE
  5
48
102
{ACAD_REACTORS
330
47
102
}
330
47
100
AcDbScale
 70
     0
300
1:1
140
1.0
141
1.0
290
     1
  0
SCALE
  5
49
102
{ACAD_REACTORS
330
47
102
}
330
47
100
AcDbScale
 70
     0
300
1:2
140
1.0
141
2.0
290
     0
  0
SCALE
  5
4A
102
{ACAD_REACTORS
330
47
102
}
330
47
100
AcDbScale
 70
     0
300
1:4
140
1.0
141
4.0
290
     0
  0
SCALE
  5
4B
102
{ACAD_REACTORS
330
47
102
}
330
47
100
AcDbScale
 70
     0
300
1:5
140
1.0
141
5.0
290
     0
  0
SCALE
  5
4C
102
{ACAD_REACTORS
330
47
102
}
330
47
100
AcDbScale
 70
     0
300
1:8
140
1.0
141
8.0
290
     0
  0
SCALE
  5
4D
102
{ACAD_REACTORS
330
47
102
}
330
47
100
AcDbScale
 70
     0
300
1:10
140
1.0
141
10.0
290
     0
  0
SCALE
  5
4E
102
{ACAD_REACTORS
330
47
102
}
330
47
100
AcDbScale
 70
     0
300
1:16
140
1.0
141
16.0
290
     0
  0
SCALE
  5
4F
102
{ACAD_REACTORS
330
47
102
}
330
47
100
AcDbScale
 70
     0
300
1:20
140
1.0
141
20.0
290
     0
  0
SCALE
  5
50
102
{ACAD_REACTORS
330
47
102
}
330
47
100
AcDbScale
 70
     0
300
1:30
140
1.0
141
30.0
290
     0
  0
SCALE
  5
51
102
{ACAD_REACTORS
330
47
102
}
330
47
100
AcDbScale
 70
     0
300
1:40
140
1.0
141
40.0
290
     0
  0
SCALE
  5
52
102
{ACAD_REACTORS
330
47
102
}
330
47
100
AcDbScale
 70
     0
300
1:50
140
1.0
141
50.0
290
     0
  0
SCALE
  5
53
102
{ACAD_REACTORS
330
47
102
}
330
47
100
AcDbScale
 70
     0
300
1:100
140
1.0
141
100.0
290
     0
  0
SCALE
  5
54
102
{ACAD_REACTORS
330
47
102
}
330
47
100
AcDbScale
 70
     0
300
2:1
140
2.0
141
1.0
290
     0
  0
SCALE
  5
55
102
{ACAD_REACTORS
330
47
102
}
330
47
100
AcDbScale
 70
     0
300
4:1
140
4.0
141
1.0
290
     0
  0
SCALE
  5
56
102
{ACAD_REACTORS
330
47
102
}
330
47
100
AcDbScale
 70
     0
300
8:1
140
8.0
141
1.0
290
     0
  0
SCALE
  5
57
102
{ACAD_REACTORS
330
47
102
}
330
47
100
AcDbScale
 70
     0
300
10:1
140
10.0
141
1.0
290
     0
  0
SCALE
  5
58
102
{ACAD_REACTORS
330
47
102
}
330
47
100
AcDbScale
 70
     0
300
100:1
140
100.0
141
1.0
290
     0
  0
SCALE
  5
59
102
{ACAD_REACTORS
330
47
102
}
330
47
100
AcDbScale
 70
     0
300
1/128" = 1'-0"
140
0.0078125
141
12.0
290
     0
  0
SCALE
  5
5A
102
{ACAD_REACTORS
330
47
102
}
330
47
100
AcDbScale
 70
     0
300
1/64" = 1'-0"
140
0.015625
141
12.0
290
     0
  0
SCALE
  5
5B
102
{ACAD_REACTORS
330
47
102
}
330
47
100
AcDbScale
 70
     0
300
1/32" = 1'-0"
140
0.03125
141
12.0
290
     0
  0
SCALE
  5
5C
102
{ACAD_REACTORS
330
47
102
}
330
47
100
AcDbScale
 70
     0
300
1/16" = 1'-0"
140
0.0625
141
12.0
290
     0
  0
SCALE
  5
5D
102
{ACAD_REACTORS
330
47
102
}
330
47
100
AcDbScale
 70
     0
300
3/32" = 1'-0"
140
0.09375
141
12.0
290
     0
  0
SCALE
  5
5E
102
{ACAD_REACTORS
330
47
102
}
330
47
100
AcDbScale
 70
     0
300
1/8" = 1'-0"
140
0.125
141
12.0
290
     0
  0
SCALE
  5
5F
102
{ACAD_REACTORS
330
47
102
}
330
47
100
AcDbScale
 70
     0
300
3/16" = 1'-0"
140
0.1875
141
12.0
290
     0
  0
SCALE
  5
60
102
{ACAD_REACTORS
330
47
102
}
330
47
100
AcDbScale
 70
     0
300
1/4" = 1'-0"
140
0.25
141
12.0
290
     0
  0
SCALE
  5
61
102
{ACAD_REACTORS
330
47
102
}
330
47
100
AcDbScale
 70
     0
300
3/8" = 1'-0"
140
0.375
141
12.0
290
     0
  0
SCALE
  5
62
102
{ACAD_REACTORS
330
47
102
}
330
47
100
AcDbScale
 70
     0
300
1/2" = 1'-0"
140
0.5
141
12.0
290
     0
  0
SCALE
  5
63
102
{ACAD_REACTORS
330
47
102
}
330
47
100
AcDbScale
 70
     0
300
3/4" = 1'-0"
140
0.75
141
12.0
290
     0
  0
SCALE
  5
64
102
{ACAD_REACTORS
330
47
102
}
330
47
100
AcDbScale
 70
     0
300
1" = 1'-0"
140
1.0
141
12.0
290
     0
  0
SCALE
  5
65
102
{ACAD_REACTORS
330
47
102
}
330
47
100
AcDbScale
 70
     0
300
1-1/2" = 1'-0"
140
1.5
141
12.0
290
     0
  0
SCALE
  5
66
102
{ACAD_REACTORS
330
47
102
}
330
47
100
AcDbScale
 70
     0
300
3" = 1'-0"
140
3.0
141
12.0
290
     0
  0
SCALE
  5
67
102
{ACAD_REACTORS
330
47
102
}
330
47
100
AcDbScale
 70
     0
300
6" = 1'-0"
140
6.0
141
12.0
290
     0
  0
SCALE
  5
68
102
{ACAD_REACTORS
330
47
102
}
330
47
100
AcDbScale
 70
     0
300
1'-0" = 1'-0"
140
12.0
141
12.0
290
     0
  0
ENDSEC
  0
EOF
