  0
SECTION
  2
HEADER
  9
$ACADVER
  1
AC1015
  9
$ACADMAINTVER
 70
     6
  9
$DWGCODEPAGE
  3
ANSI_949
  9
$INSBASE
 10
0.0
 20
0.0
 30
0.0
  9
$EXTMIN
 10
-36.77500000000009
 20
-49.97180738881174
 30
0.0
  9
$EXTMAX
 10
95.51348381534558
 20
27.88124999999998
 30
0.0
  9
$LIMMIN
 10
0.0
 20
0.0
  9
$LIMMAX
 10
420.0
 20
297.0
  9
$ORTHOMODE
 70
     1
  9
$REGENMODE
 70
     1
  9
$FILLMODE
 70
     1
  9
$QTEXTMODE
 70
     0
  9
$MIRRTEXT
 70
     1
  9
$LTSCALE
 40
1.0
  9
$ATTMODE
 70
     1
  9
$TEXTSIZE
 40
3.5
  9
$TRACEWID
 40
1.0
  9
$TEXTSTYLE
  7
Standard
  9
$CLAYER
  8
0
  9
$CELTYPE
  6
ByLayer
  9
$CECOLOR
 62
   256
  9
$CELTSCALE
 40
1.0
  9
$DISPSILH
 70
     0
  9
$DIMSCALE
 40
1.0
  9
$DIMASZ
 40
3.302
  9
$DIMEXO
 40
1.0
  9
$DIMDLI
 40
3.75
  9
$DIMRND
 40
0.0
  9
$DIMDLE
 40
0.0
  9
$DIMEXE
 40
1.0
  9
$DIMTP
 40
0.0
  9
$DIMTM
 40
0.0
  9
$DIMTXT
 40
3.5
  9
$DIMCEN
 40
2.5
  9
$DIMTSZ
 40
0.0
  9
$DIMTOL
 70
     0
  9
$DIMLIM
 70
     0
  9
$DIMTIH
 70
     1
  9
$DIMTOH
 70
     1
  9
$DIMSE1
 70
     0
  9
$DIMSE2
 70
     0
  9
$DIMTAD
 70
     1
  9
$DIMZIN
 70
     0
  9
$DIMBLK
  1

  9
$DIMASO
 70
     1
  9
$DIMSHO
 70
     1
  9
$DIMPOST
  1

  9
$DIMAPOST
  1

  9
$DIMALT
 70
     0
  9
$DIMALTD
 70
     3
  9
$DIMALTF
 40
0.0393700787401575
  9
$DIMLFAC
 40
1.0
  9
$DIMTOFL
 70
     1
  9
$DIMTVP
 40
0.0
  9
$DIMTIX
 70
     0
  9
$DIMSOXD
 70
     0
  9
$DIMSAH
 70
     0
  9
$DIMBLK1
  1

  9
$DIMBLK2
  1

  9
$DIMSTYLE
  2
ISO-25
  9
$DIMCLRD
 70
     0
  9
$DIMCLRE
 70
     0
  9
$DIMCLRT
 70
     0
  9
$DIMTFAC
 40
1.0
  9
$DIMGAP
 40
1.524
  9
$DIMJUST
 70
     0
  9
$DIMSD1
 70
     0
  9
$DIMSD2
 70
     0
  9
$DIMTOLJ
 70
     0
  9
$DIMTZIN
 70
     0
  9
$DIMALTZ
 70
     0
  9
$DIMALTTZ
 70
     0
  9
$DIMUPT
 70
     0
  9
$DIMDEC
 70
     2
  9
$DIMTDEC
 70
     2
  9
$DIMALTU
 70
     2
  9
$DIMALTTD
 70
     3
  9
$DIMTXSTY
  7
Standard
  9
$DIMAUNIT
 70
     0
  9
$DIMADEC
 70
     2
  9
$DIMALTRND
 40
0.0
  9
$DIMAZIN
 70
     0
  9
$DIMDSEP
 70
    44
  9
$DIMATFIT
 70
     3
  9
$DIMFRAC
 70
     0
  9
$DIMLDRBLK
  1

  9
$DIMLUNIT
 70
     2
  9
$DIMLWD
 70
    -2
  9
$DIMLWE
 70
    -2
  9
$DIMTMOVE
 70
     0
  9
$LUNITS
 70
     2
  9
$LUPREC
 70
     2
  9
$SKETCHINC
 40
1.0
  9
$FILLETRAD
 40
10.0
  9
$AUNITS
 70
     0
  9
$AUPREC
 70
     2
  9
$MENU
  1
.
  9
$ELEVATION
 40
0.0
  9
$PELEVATION
 40
0.0
  9
$THICKNESS
 40
0.0
  9
$LIMCHECK
 70
     0
  9
$CHAMFERA
 40
0.0
  9
$CHAMFERB
 40
0.0
  9
$CHAMFERC
 40
0.0
  9
$CHAMFERD
 40
0.0
  9
$SKPOLY
 70
     0
  9
$TDCREATE
 40
2458313.455352234
  9
$TDUCREATE
 40
2458313.080352234
  9
$TDUPDATE
 40
2458318.648032269
  9
$TDUUPDATE
 40
2458318.273032269
  9
$TDINDWG
 40
0.0065096065
  9
$TDUSRTIMER
 40
2458318.272996076
  9
$USRTIMER
 70
     1
  9
$ANGBASE
 50
0.0
  9
$ANGDIR
 70
     0
  9
$PDMODE
 70
     0
  9
$PDSIZE
 40
-1.0
  9
$PLINEWID
 40
0.0
  9
$SPLFRAME
 70
     0
  9
$SPLINETYPE
 70
     6
  9
$SPLINESEGS
 70
     8
  9
$HANDSEED
  5
286
  9
$SURFTAB1
 70
     6
  9
$SURFTAB2
 70
     6
  9
$SURFTYPE
 70
     6
  9
$SURFU
 70
     6
  9
$SURFV
 70
     6
  9
$UCSBASE
  2

  9
$UCSNAME
  2

  9
$UCSORG
 10
0.0
 20
0.0
 30
0.0
  9
$UCSXDIR
 10
1.0
 20
0.0
 30
0.0
  9
$UCSYDIR
 10
0.0
 20
1.0
 30
0.0
  9
$UCSORTHOREF
  2

  9
$UCSORTHOVIEW
 70
     0
  9
$UCSORGTOP
 10
0.0
 20
0.0
 30
0.0
  9
$UCSORGBOTTOM
 10
0.0
 20
0.0
 30
0.0
  9
$UCSORGLEFT
 10
0.0
 20
0.0
 30
0.0
  9
$UCSORGRIGHT
 10
0.0
 20
0.0
 30
0.0
  9
$UCSORGFRONT
 10
0.0
 20
0.0
 30
0.0
  9
$UCSORGBACK
 10
0.0
 20
0.0
 30
0.0
  9
$PUCSBASE
  2

  9
$PUCSNAME
  2

  9
$PUCSORG
 10
0.0
 20
0.0
 30
0.0
  9
$PUCSXDIR
 10
1.0
 20
0.0
 30
0.0
  9
$PUCSYDIR
 10
0.0
 20
1.0
 30
0.0
  9
$PUCSORTHOREF
  2

  9
$PUCSORTHOVIEW
 70
     0
  9
$PUCSORGTOP
 10
0.0
 20
0.0
 30
0.0
  9
$PUCSORGBOTTOM
 10
0.0
 20
0.0
 30
0.0
  9
$PUCSORGLEFT
 10
0.0
 20
0.0
 30
0.0
  9
$PUCSORGRIGHT
 10
0.0
 20
0.0
 30
0.0
  9
$PUCSORGFRONT
 10
0.0
 20
0.0
 30
0.0
  9
$PUCSORGBACK
 10
0.0
 20
0.0
 30
0.0
  9
$USERI1
 70
     0
  9
$USERI2
 70
     0
  9
$USERI3
 70
     0
  9
$USERI4
 70
     0
  9
$USERI5
 70
     0
  9
$USERR1
 40
0.0
  9
$USERR2
 40
0.0
  9
$USERR3
 40
0.0
  9
$USERR4
 40
0.0
  9
$USERR5
 40
0.0
  9
$WORLDVIEW
 70
     1
  9
$SHADEDGE
 70
     3
  9
$SHADEDIF
 70
    70
  9
$TILEMODE
 70
     1
  9
$MAXACTVP
 70
    64
  9
$PINSBASE
 10
0.0
 20
0.0
 30
0.0
  9
$PLIMCHECK
 70
     0
  9
$PEXTMIN
 10
1.000000000000000E+20
 20
1.000000000000000E+20
 30
1.000000000000000E+20
  9
$PEXTMAX
 10
-1.000000000000000E+20
 20
-1.000000000000000E+20
 30
-1.000000000000000E+20
  9
$PLIMMIN
 10
0.0
 20
0.0
  9
$PLIMMAX
 10
0.0
 20
0.0
  9
$UNITMODE
 70
     0
  9
$VISRETAIN
 70
     1
  9
$PLINEGEN
 70
     0
  9
$PSLTSCALE
 70
     1
  9
$TREEDEPTH
 70
  3020
  9
$CMLSTYLE
  2
Standard
  9
$CMLJUST
 70
     0
  9
$CMLSCALE
 40
20.0
  9
$PROXYGRAPHICS
 70
     1
  9
$MEASUREMENT
 70
     1
  9
$CELWEIGHT
370
    -1
  9
$ENDCAPS
280
     0
  9
$JOINSTYLE
280
     0
  9
$LWDISPLAY
290
     1
  9
$INSUNITS
 70
     4
  9
$HYPERLINKBASE
  1

  9
$STYLESHEET
  1

  9
$XEDIT
290
     1
  9
$CEPSNTYPE
380
     0
  9
$PSTYLEMODE
290
     1
  9
$FINGERPRINTGUID
  2
{B96D7B5A-5DAD-4324-ABB0-66E3096F70CE}
  9
$VERSIONGUID
  2
{FAEB1C32-E019-11D5-929B-00C0DF256EC4}
  9
$EXTNAMES
290
     1
  9
$PSVPSCALE
 40
0.0
  9
$OLESTARTUP
290
     0
  0
ENDSEC
  0
SECTION
  2
CLASSES
  0
CLASS
  1
ACDBDICTIONARYWDFLT
  2
AcDbDictionaryWithDefault
  3
ObjectDBX Classes
 90
        0
280
     0
281
     0
  0
CLASS
  1
VISUALSTYLE
  2
AcDbVisualStyle
  3
ObjectDBX Classes
 90
     4095
280
     0
281
     0
  0
CLASS
  1
MATERIAL
  2
AcDbMaterial
  3
ObjectDBX Classes
 90
     1153
280
     0
281
     0
  0
CLASS
  1
SCALE
  2
AcDbScale
  3
ObjectDBX Classes
 90
     1153
280
     0
281
     0
  0
CLASS
  1
SUN
  2
AcDbSun
  3
SCENEOE
 90
     1153
280
     0
281
     0
  0
CLASS
  1
ACDBPLACEHOLDER
  2
AcDbPlaceHolder
  3
ObjectDBX Classes
 90
        0
280
     0
281
     0
  0
CLASS
  1
LAYOUT
  2
AcDbLayout
  3
ObjectDBX Classes
 90
        0
280
     0
281
     0
  0
CLASS
  1
TABLESTYLE
  2
AcDbTableStyle
  3
ObjectDBX Classes
 90
     4095
280
     0
281
     0
  0
CLASS
  1
MLEADERSTYLE
  2
AcDbMLeaderStyle
  3
ACDB_MLEADERSTYLE_CLASS
 90
     4095
280
     0
281
     0
  0
CLASS
  1
RASTERVARIABLES
  2
AcDbRasterVariables
  3
ISM
 90
        0
280
     0
281
     0
  0
ENDSEC
  0
SECTION
  2
TABLES
  0
TABLE
  2
VPORT
  5
8
330
0
100
AcDbSymbolTable
 70
     1
  0
VPORT
  5
29
330
8
100
AcDbSymbolTableRecord
100
AcDbViewportTableRecord
  2
*Active
 70
     0
 10
0.0
 20
0.0
 11
1.0
 21
1.0
 12
29.36924190767274
 22
-11.04527869440588
 13
0.0
 23
0.0
 14
10.0
 24
10.0
 15
10.0
 25
10.0
 16
0.0
 26
0.0
 36
1.0
 17
0.0
 27
0.0
 37
0.0
 40
79.41011853658796
 41
1.782762691853601
 42
50.0
 43
0.0
 44
0.0
 50
0.0
 51
0.0
 71
    16
 72
  2000
 73
     1
 74
     3
 75
     0
 76
     0
 77
     0
 78
     0
281
     0
 65
     1
110
0.0
120
0.0
130
0.0
111
1.0
121
0.0
131
0.0
112
0.0
122
1.0
132
0.0
 79
     0
146
0.0
  0
ENDTAB
  0
TABLE
  2
LTYPE
  5
5
330
0
100
AcDbSymbolTable
 70
     6
  0
LTYPE
  5
14
330
5
100
AcDbSymbolTableRecord
100
AcDbLinetypeTableRecord
  2
ByBlock
 70
     0
  3

 72
    65
 73
     0
 40
0.0
  0
LTYPE
  5
15
330
5
100
AcDbSymbolTableRecord
100
AcDbLinetypeTableRecord
  2
ByLayer
 70
     0
  3

 72
    65
 73
     0
 40
0.0
  0
LTYPE
  5
16
330
5
100
AcDbSymbolTableRecord
100
AcDbLinetypeTableRecord
  2
Continuous
 70
     0
  3
Solid line
 72
    65
 73
     0
 40
0.0
  0
LTYPE
  5
6A
330
5
100
AcDbSymbolTableRecord
100
AcDbLinetypeTableRecord
  2
HIDDEN
 70
     0
  3
Hidden __ __ __ __ __ __ __ __ __ __ __ __ __ __
 72
    65
 73
     2
 40
1.905
 49
1.27
 74
     0
 49
-0.635
 74
     0
  0
LTYPE
  5
6B
330
5
100
AcDbSymbolTableRecord
100
AcDbLinetypeTableRecord
  2
PHANTOM
 70
     0
  3
Phantom ______  __  __  ______  __  __  ______
 72
    65
 73
     6
 40
12.7
 49
6.35
 74
     0
 49
-1.27
 74
     0
 49
1.27
 74
     0
 49
-1.27
 74
     0
 49
1.27
 74
     0
 49
-1.27
 74
     0
  0
LTYPE
  5
6C
330
5
100
AcDbSymbolTableRecord
100
AcDbLinetypeTableRecord
  2
CENTER
 70
     0
  3
Center ____ _ ____ _ ____ _ ____ _ ____ _ ____
 72
    65
 73
     4
 40
10.16
 49
6.35
 74
     0
 49
-1.27
 74
     0
 49
1.27
 74
     0
 49
-1.27
 74
     0
  0
LTYPE
  5
6D
330
5
100
AcDbSymbolTableRecord
100
AcDbLinetypeTableRecord
  2
CENTERX2
 70
     0
  3
Center (2x) ________  __  ________  __  _____
 72
    65
 73
     4
 40
20.32
 49
12.7
 74
     0
 49
-2.54
 74
     0
 49
2.54
 74
     0
 49
-2.54
 74
     0
  0
LTYPE
  5
6E
330
5
100
AcDbSymbolTableRecord
100
AcDbLinetypeTableRecord
  2
DOT2
 70
     0
  3
Dot (.5x) ........................................
 72
    65
 73
     2
 40
0.635
 49
0.0
 74
     0
 49
-0.635
 74
     0
  0
ENDTAB
  0
TABLE
  2
LAYER
  5
2
330
0
100
AcDbSymbolTable
 70
    18
  0
LAYER
  5
10
330
2
100
AcDbSymbolTableRecord
100
AcDbLayerTableRecord
  2
0
 70
     0
 62
     7
  6
Continuous
370
    -3
390
F
  0
LAYER
  5
6F
330
2
100
AcDbSymbolTableRecord
100
AcDbLayerTableRecord
  2
FORMAT
 70
     0
 62
     2
  6
Continuous
370
    -3
390
F
  0
LAYER
  5
70
330
2
100
AcDbSymbolTableRecord
100
AcDbLayerTableRecord
  2
외형선
 70
     0
 62
     4
  6
Continuous
370
    30
390
F
  0
LAYER
  5
71
330
2
100
AcDbSymbolTableRecord
100
AcDbLayerTableRecord
  2
숨은선
 70
     0
 62
     2
  6
HIDDEN
370
    15
390
F
  0
LAYER
  5
72
330
2
100
AcDbSymbolTableRecord
100
AcDbLayerTableRecord
  2
중심선
 70
     0
 62
     1
  6
CENTERX2
370
    -3
390
F
  0
LAYER
  5
73
330
2
100
AcDbSymbolTableRecord
100
AcDbLayerTableRecord
  2
파단선
 70
     0
 62
     4
  6
Continuous
370
    -3
390
F
  0
LAYER
  5
74
330
2
100
AcDbSymbolTableRecord
100
AcDbLayerTableRecord
  2
해칭선
 70
     0
 62
   100
  6
Continuous
370
    -3
390
F
  0
LAYER
  5
75
330
2
100
AcDbSymbolTableRecord
100
AcDbLayerTableRecord
  2
가는실선
 70
     0
 62
     4
  6
Continuous
370
    -3
390
F
  0
LAYER
  5
76
330
2
100
AcDbSymbolTableRecord
100
AcDbLayerTableRecord
  2
치수_보조선
 70
     0
 62
     4
  6
Continuous
370
    -3
390
F
  0
LAYER
  5
77
330
2
100
AcDbSymbolTableRecord
100
AcDbLayerTableRecord
  2
치수문자_일반주서
 70
     0
 62
     7
  6
Continuous
370
    15
390
F
  0
LAYER
  5
78
330
2
100
AcDbSymbolTableRecord
100
AcDbLayerTableRecord
  2
개별주서
 70
     0
 62
   100
  6
Continuous
370
    30
390
F
  0
LAYER
  5
79
330
2
100
AcDbSymbolTableRecord
100
AcDbLayerTableRecord
  2
중간선
 70
     0
 62
     2
  6
Continuous
370
    15
390
F
  0
LAYER
  5
7A
330
2
100
AcDbSymbolTableRecord
100
AcDbLayerTableRecord
  2
윤곽선
 70
     0
 62
     3
  6
Continuous
370
    40
390
F
  0
LAYER
  5
7B
330
2
100
AcDbSymbolTableRecord
100
AcDbLayerTableRecord
  2
중심마크
 70
     0
 62
   100
  6
Continuous
370
    30
390
F
  0
LAYER
  5
7C
330
2
100
AcDbSymbolTableRecord
100
AcDbLayerTableRecord
  2
가상선
 70
     0
 62
     4
  6
PHANTOM
370
    -3
390
F
  0
LAYER
  5
7D
330
2
100
AcDbSymbolTableRecord
100
AcDbLayerTableRecord
  2
특수지정선
 70
     0
 62
     5
  6
CENTERX2
370
    60
390
F
  0
LAYER
  5
7E
330
2
100
AcDbSymbolTableRecord
100
AcDbLayerTableRecord
  2
참조1
 70
     0
 62
    -4
  6
Continuous
370
    -3
390
F
  0
LAYER
  5
14F
330
2
100
AcDbSymbolTableRecord
100
AcDbLayerTableRecord
  2
Defpoints
 70
     0
 62
     7
  6
Continuous
290
     0
370
    -3
390
F
  0
ENDTAB
  0
TABLE
  2
STYLE
  5
3
330
0
100
AcDbSymbolTable
 70
     2
  0
STYLE
  5
11
330
3
100
AcDbSymbolTableRecord
100
AcDbTextStyleTableRecord
  2
Standard
 70
     0
 40
0.0
 41
1.0
 50
0.0
 71
     0
 42
3.5
  3
txt
  4

  0
STYLE
  5
94
330
3
100
AcDbSymbolTableRecord
100
AcDbTextStyleTableRecord
  2
SLDTEXTSTYLE0
 70
     0
 40
0.0
 41
0.75
 50
0.0
 71
     0
 42
3.5
  3
TXT
  4

  0
ENDTAB
  0
TABLE
  2
VIEW
  5
6
330
0
100
AcDbSymbolTable
 70
     0
  0
ENDTAB
  0
TABLE
  2
UCS
  5
7
330
0
100
AcDbSymbolTable
 70
     0
  0
ENDTAB
  0
TABLE
  2
APPID
  5
9
330
0
100
AcDbSymbolTable
 70
     2
  0
APPID
  5
12
330
9
100
AcDbSymbolTableRecord
100
AcDbRegAppTableRecord
  2
ACAD
 70
     0
  0
APPID
  5
156
330
9
100
AcDbSymbolTableRecord
100
AcDbRegAppTableRecord
  2
PE_URL
 70
     0
  0
ENDTAB
  0
TABLE
  2
DIMSTYLE
  5
A
330
0
100
AcDbSymbolTable
 70
     3
100
AcDbDimStyleTable
  0
DIMSTYLE
105
27
330
A
100
AcDbSymbolTableRecord
100
AcDbDimStyleTableRecord
  2
ISO-25
 70
     0
 41
2.5
 42
0.625
 43
3.75
 44
1.25
 73
     0
 74
     0
 77
     1
 78
     8
140
2.5
141
2.5
143
0.03937007874016
147
0.625
171
     3
172
     1
178
     0
271
     2
272
     2
274
     3
278
    44
283
     0
284
     8
340
11
  0
DIMSTYLE
105
CD
102
{ACAD_REACTORS
330
CC
330
E1
330
10A
330
F6
102
}
330
A
100
AcDbSymbolTableRecord
100
AcDbDimStyleTableRecord
  2
SLDDIMSTYLE0
 70
     0
 41
3.302
 44
0.0
 45
0.000000001
 73
     0
 74
     0
 77
     1
 78
    12
 79
     3
140
3.5
143
0.0393700787401575
147
0.875
148
0.000000001
170
     1
172
     1
173
     1
178
     0
271
     2
272
     2
276
     2
284
    12
289
     0
340
94
  0
DIMSTYLE
105
F7
330
A
100
AcDbSymbolTableRecord
100
AcDbDimStyleTableRecord
  2
SLDDIMSTYLE1
 70
     0
 41
3.302
 44
0.0
 45
0.000000001
 73
     0
 74
     0
 77
     1
 78
     4
 79
     1
140
3.5
143
0.0393700787401575
147
0.875
148
0.000000001
170
     1
173
     1
178
     0
271
     2
272
     2
276
     2
284
    12
340
94
  0
ENDTAB
  0
TABLE
  2
BLOCK_RECORD
  5
1
330
0
100
AcDbSymbolTable
 70
     9
  0
BLOCK_RECORD
  5
1F
330
1
100
AcDbSymbolTableRecord
100
AcDbBlockTableRecord
  2
*Model_Space
340
22
  0
BLOCK_RECORD
  5
1B
330
1
100
AcDbSymbolTableRecord
100
AcDbBlockTableRecord
  2
*Paper_Space
340
1E
  0
BLOCK_RECORD
  5
23
330
1
100
AcDbSymbolTableRecord
100
AcDbBlockTableRecord
  2
*Paper_Space0
340
26
  0
BLOCK_RECORD
  5
7F
330
1
100
AcDbSymbolTableRecord
100
AcDbBlockTableRecord
  2
블럭10
340
0
102
{BLKREFS
331
C5
102
}
  0
BLOCK_RECORD
  5
CE
330
1
100
AcDbSymbolTableRecord
100
AcDbBlockTableRecord
  2
_D
340
0
  0
BLOCK_RECORD
  5
E2
330
1
100
AcDbSymbolTableRecord
100
AcDbBlockTableRecord
  2
_D_1
340
0
  0
BLOCK_RECORD
  5
F8
330
1
100
AcDbSymbolTableRecord
100
AcDbBlockTableRecord
  2
_D_2
340
0
  0
BLOCK_RECORD
  5
10B
330
1
100
AcDbSymbolTableRecord
100
AcDbBlockTableRecord
  2
_D_3
340
0
  0
BLOCK_RECORD
  5
125
330
1
100
AcDbSymbolTableRecord
100
AcDbBlockTableRecord
  2
SW_DOWELSYMBOL_0
340
0
102
{BLKREFS
331
12B
102
}
  0
BLOCK_RECORD
  5
188
330
1
100
AcDbSymbolTableRecord
100
AcDbBlockTableRecord
  2
*D7
340
0
  0
BLOCK_RECORD
  5
19A
330
1
100
AcDbSymbolTableRecord
100
AcDbBlockTableRecord
  2
*D8
340
0
  0
ENDTAB
  0
ENDSEC
  0
SECTION
  2
BLOCKS
  0
BLOCK
  5
20
330
1F
100
AcDbEntity
  8
0
100
AcDbBlockBegin
  2
*Model_Space
 70
     0
 10
0.0
 20
0.0
 30
0.0
  3
*Model_Space
  1
*Model_Space
  0
ENDBLK
  5
21
330
1F
100
AcDbEntity
  8
0
100
AcDbBlockEnd
  0
BLOCK
  5
1C
330
1B
100
AcDbEntity
 67
     1
  8
0
100
AcDbBlockBegin
  2
*Paper_Space
 70
     0
 10
0.0
 20
0.0
 30
0.0
  3
*Paper_Space
  1
*Paper_Space
  0
ENDBLK
  5
1D
330
1B
100
AcDbEntity
 67
     1
  8
0
100
AcDbBlockEnd
  0
BLOCK
  5
24
330
23
100
AcDbEntity
  8
0
100
AcDbBlockBegin
  2
*Paper_Space0
 70
     0
 10
0.0
 20
0.0
 30
0.0
  3
*Paper_Space0
  1
*Paper_Space0
  0
ENDBLK
  5
25
330
23
100
AcDbEntity
  8
0
100
AcDbBlockEnd
  0
BLOCK
  5
80
330
7F
100
AcDbEntity
  8
0
100
AcDbBlockBegin
  2
블럭10
 70
     2
 10
0.0
 20
0.0
 30
0.0
  3
블럭10
  1
블럭10
  0
ELLIPSE
  5
82
330
7F
100
AcDbEntity
  8
중심선
100
AcDbEllipse
 10
20.54032771741204
 20
12.0471743016438
 30
0.0
 11
6.600054785286829
 21
-1.261213355974178E-13
 31
0.0
210
0.0
220
0.0
230
1.0
 40
0.636358354079598
 41
0.9219305317359503
 42
6.513795318482858
  0
ELLIPSE
  5
83
330
7F
100
AcDbEntity
  8
중심선
100
AcDbEllipse
 10
20.54032771746488
 20
12.04717430159265
 30
0.0
 11
3.960054785062283
 21
1.540847449632565E-10
 31
0.0
210
0.0
220
0.0
230
1.0
 40
0.3939339440162632
 41
1.131841032648279
 42
5.62031148352944
  0
LINE
  5
84
330
7F
100
AcDbEntity
  8
중심선
100
AcDbLine
 10
2.268634060543552
 20
16.24717430164393
 30
0.0
 11
5.714909304380834
 21
16.24717430164393
 31
0.0
  0
LINE
  5
85
330
7F
100
AcDbEntity
  8
중심선
100
AcDbLine
 10
5.245725140726316
 20
7.84717430164391
 30
0.0
 11
8.692000384563599
 21
7.84717430164391
 31
0.0
  0
LINE
  5
86
330
7F
100
AcDbEntity
  8
중심선
100
AcDbLine
 10
15.74043728645272
 20
16.24717430164393
 30
0.0
 11
8.692000384563599
 21
7.84717430164391
 31
0.0
  0
LINE
  5
87
330
7F
100
AcDbEntity
  8
중심선
100
AcDbLine
 10
0.1404042013395286
 20
13.71084872107135
 30
0.0
 11
3.58671253028996
 21
13.71088815037384
 31
0.0
  0
LINE
  5
88
330
7F
100
AcDbEntity
  8
중심선
100
AcDbLine
 10
2.750260043222114
 20
10.84717430164391
 30
0.0
 11
6.196535287059397
 21
10.84717430164391
 31
0.0
  0
LINE
  5
89
330
7F
100
AcDbEntity
  8
중심선
100
AcDbLine
 10
12.29416204261559
 20
16.24717430164393
 30
0.0
 11
5.245725140726316
 21
7.84717430164391
 31
0.0
  0
LINE
  5
8A
330
7F
100
AcDbEntity
  8
중심선
100
AcDbLine
 10
10.72767329541681
 20
16.24717430164393
 30
0.0
 11
6.196535287059397
 21
10.84717430164391
 31
0.0
  0
LINE
  5
8B
330
7F
100
AcDbEntity
  8
중심선
100
AcDbLine
 10
7.28139805157953
 20
16.24717430164393
 30
0.0
 11
2.750260043222114
 21
10.84717430164391
 31
0.0
  0
LINE
  5
8C
330
7F
100
AcDbEntity
  8
중심선
100
AcDbLine
 10
5.714909304380834
 20
16.24717430164393
 30
0.0
 11
3.58671253028996
 21
13.71088815037384
 31
0.0
  0
LINE
  5
8D
330
7F
100
AcDbEntity
  8
중심선
100
AcDbLine
 10
2.268634060543552
 20
16.24717430164393
 30
0.0
 11
0.1404042013395286
 21
13.71084872107135
 31
0.0
  0
LINE
  5
8E
330
7F
100
AcDbEntity
  8
중심선
100
AcDbLine
 10
7.28139805157953
 20
16.24717430164393
 30
0.0
 11
10.72767329541681
 21
16.24717430164393
 31
0.0
  0
LINE
  5
8F
330
7F
100
AcDbEntity
  8
중심선
100
AcDbLine
 10
12.29416204261559
 20
16.24717430164393
 30
0.0
 11
15.74043728645272
 21
16.24717430164393
 31
0.0
  0
LINE
  5
90
330
7F
100
AcDbEntity
  8
중심선
100
AcDbLine
 10
19.22036997980202
 20
11.08717430171403
 30
0.0
 11
23.66174974927406
 21
11.08717430171406
 31
0.0
  0
LINE
  5
91
330
7F
100
AcDbEntity
  8
중심선
100
AcDbLine
 10
19.22039502424796
 20
13.00717430171391
 30
0.0
 11
19.22036997980202
 21
11.08717430171403
 31
0.0
  0
LINE
  5
92
330
7F
100
AcDbEntity
  8
중심선
100
AcDbLine
 10
19.22039502424796
 20
13.00717430171391
 30
0.0
 11
26.96566020931264
 21
13.00717430171391
 31
0.0
  0
LINE
  5
93
330
7F
100
AcDbEntity
  8
중심선
100
AcDbLine
 10
22.22332737316547
 20
13.45928029700563
 30
0.0
 11
24.52862924686651
 21
15.39360700705356
 31
0.0
  0
ATTDEF
  5
95
330
7F
100
AcDbEntity
  8
FORMAT
 62
     2
100
AcDbText
 10
4.408487351596664
 20
2.075366912832191
 30
0.0
 40
4.233333333333333
  1
E1002004
 41
0.75
  7
SLDTEXTSTYLE0
 11
4.408487351596664
 21
-0.0412997538344756
 31
0.0
100
AcDbAttributeDefinition
  3

  2
AUTOATTR0
 70
     0
 74
     1
  0
ENDBLK
  5
81
330
7F
100
AcDbEntity
  8
0
100
AcDbBlockEnd
  0
BLOCK
  5
CF
330
CE
100
AcDbEntity
  8
0
100
AcDbBlockBegin
  2
_D
 70
     0
 10
0.0
 20
0.0
 30
0.0
  3
_D
  1
_D
  0
LINE
  5
D1
330
CE
100
AcDbEntity
  8
치수문자_일반주서
 62
     0
370
    -2
100
AcDbLine
 10
25.46249999999999
 20
0.7908310570256109
 30
0.0
 11
54.47883535775004
 21
0.7908310570257182
 31
0.0
  0
LINE
  5
D2
330
CE
100
AcDbEntity
  8
치수문자_일반주서
 62
     0
370
    -2
100
AcDbLine
 10
25.4625
 20
-0.7908310570256024
 30
0.0
 11
54.47883535775005
 21
-0.7908310570254926
 31
0.0
  0
LINE
  5
D3
330
CE
100
AcDbEntity
  8
치수문자_일반주서
 62
     0
370
    -2
100
AcDbLine
 10
54.47883535775004
 20
0.7908310570257182
 30
0.0
 11
54.47883535774994
 21
25.04375000000012
 31
0.0
  0
LINE
  5
D4
330
CE
100
AcDbEntity
  8
치수문자_일반주서
 62
     0
370
    -2
100
AcDbLine
 10
54.47883535775004
 20
0.7908310570257182
 30
0.0
 11
54.47883535775005
 21
-0.7908310570254926
 31
0.0
  0
LINE
  5
D5
330
CE
100
AcDbEntity
  8
치수문자_일반주서
 62
     0
370
    -2
100
AcDbLine
 10
54.47883535775003
 20
3.290831057025718
 30
0.0
 11
54.47883535775001
 21
5.790831057025718
 31
0.0
  0
LINE
  5
D6
330
CE
100
AcDbEntity
  8
치수문자_일반주서
 62
     0
370
    -2
100
AcDbLine
 10
54.47883535775006
 20
-3.290831057025493
 30
0.0
 11
54.47883535775008
 21
-5.790831057025493
 31
0.0
  0
SOLID
  5
D7
330
CE
100
AcDbEntity
  8
치수문자_일반주서
 62
     0
100
AcDbTrace
 10
54.06216869108336
 20
3.290831057025716
 30
0.0
 11
54.89550202441669
 21
3.29083105702572
 31
0.0
 12
54.47883535775004
 22
0.7908310570257182
 32
0.0
 13
54.47883535775004
 23
0.7908310570257182
 33
0.0
  0
SOLID
  5
D8
330
CE
100
AcDbEntity
  8
치수문자_일반주서
 62
     0
100
AcDbTrace
 10
54.89550202441673
 20
-3.290831057025491
 30
0.0
 11
54.0621686910834
 21
-3.290831057025494
 31
0.0
 12
54.47883535775005
 22
-0.7908310570254926
 32
0.0
 13
54.47883535775005
 23
-0.7908310570254926
 33
0.0
  0
MTEXT
  5
D9
330
CE
100
AcDbEntity
  8
치수문자_일반주서
 62
     0
100
AcDbMText
 10
51.10383535774998
 20
15.41875000000011
 30
0.0
 40
2.5
 41
0.0
 71
     2
 72
     1
  1
\A1;%%c1.58 [1/16]
  7
SLDTEXTSTYLE0
 11
-4.492380069344527E-15
 21
1.0
 31
0.0
 73
     1
 44
1.0
  0
POINT
  5
DA
330
CE
100
AcDbEntity
  8
Defpoints
 62
     0
100
AcDbPoint
 10
25.39999999999999
 20
0.7908310570256106
 30
0.0
  0
POINT
  5
DB
330
CE
100
AcDbEntity
  8
Defpoints
 62
     0
100
AcDbPoint
 10
25.4
 20
-0.7908310570256026
 30
0.0
  0
POINT
  5
DC
330
CE
100
AcDbEntity
  8
Defpoints
 62
     0
100
AcDbPoint
 10
54.47883535775005
 20
-0.7908310570254939
 30
0.0
  0
ENDBLK
  5
D0
330
CE
100
AcDbEntity
  8
0
100
AcDbBlockEnd
  0
BLOCK
  5
E3
330
E2
100
AcDbEntity
  8
0
100
AcDbBlockBegin
  2
_D_1
 70
     0
 10
0.0
 20
0.0
 30
0.0
  3
_D_1
  1
_D_1
  0
LINE
  5
E5
330
E2
100
AcDbEntity
  8
치수문자_일반주서
 62
     0
370
    -2
100
AcDbLine
 10
25.39999999999999
 20
0.8533310570256106
 30
0.0
 11
25.39999999999999
 21
10.38125000000001
 31
0.0
  0
LINE
  5
E6
330
E2
100
AcDbEntity
  8
치수문자_일반주서
 62
     0
370
    -2
100
AcDbLine
 10
23.01875
 20
0.832109611590383
 30
0.0
 11
23.01875
 21
10.38125000000001
 31
0.0
  0
LINE
  5
E7
330
E2
100
AcDbEntity
  8
치수문자_일반주서
 62
     0
370
    -2
100
AcDbLine
 10
25.39999999999999
 20
10.38125000000001
 30
0.0
 11
49.64999999999999
 21
10.38125000000001
 31
0.0
  0
LINE
  5
E8
330
E2
100
AcDbEntity
  8
치수문자_일반주서
 62
     0
370
    -2
100
AcDbLine
 10
25.39999999999999
 20
10.38125000000001
 30
0.0
 11
23.01875
 21
10.38125000000001
 31
0.0
  0
LINE
  5
E9
330
E2
100
AcDbEntity
  8
치수문자_일반주서
 62
     0
370
    -2
100
AcDbLine
 10
27.89999999999999
 20
10.38125000000001
 30
0.0
 11
30.39999999999999
 21
10.38125000000001
 31
0.0
  0
LINE
  5
EA
330
E2
100
AcDbEntity
  8
치수문자_일반주서
 62
     0
370
    -2
100
AcDbLine
 10
20.51875
 20
10.38125000000001
 30
0.0
 11
18.01875
 21
10.38125000000001
 31
0.0
  0
SOLID
  5
EB
330
E2
100
AcDbEntity
  8
치수문자_일반주서
 62
     0
100
AcDbTrace
 10
27.89999999999999
 20
10.79791666666668
 30
0.0
 11
27.89999999999999
 21
9.964583333333344
 31
0.0
 12
25.39999999999999
 22
10.38125000000001
 32
0.0
 13
25.39999999999999
 23
10.38125000000001
 33
0.0
  0
SOLID
  5
EC
330
E2
100
AcDbEntity
  8
치수문자_일반주서
 62
     0
100
AcDbTrace
 10
20.51875
 20
9.964583333333344
 30
0.0
 11
20.51875
 21
10.79791666666668
 31
0.0
 12
23.01875
 22
10.38125000000001
 32
0.0
 13
23.01875
 23
10.38125000000001
 33
0.0
  0
MTEXT
  5
ED
330
E2
100
AcDbEntity
  8
치수문자_일반주서
 62
     0
100
AcDbMText
 10
40.02499999999999
 20
13.75625000000001
 30
0.0
 40
2.5
 41
0.0
 71
     2
 72
     1
  1
\A1;2.38 [3/32]
  7
SLDTEXTSTYLE0
 73
     1
 44
1.0
  0
POINT
  5
EE
330
E2
100
AcDbEntity
  8
Defpoints
 62
     0
100
AcDbPoint
 10
25.39999999999999
 20
0.7908310570256106
 30
0.0
  0
POINT
  5
EF
330
E2
100
AcDbEntity
  8
Defpoints
 62
     0
100
AcDbPoint
 10
23.01875
 20
0.769609611590383
 30
0.0
  0
POINT
  5
F0
330
E2
100
AcDbEntity
  8
Defpoints
 62
     0
100
AcDbPoint
 10
23.01875
 20
10.38125000000001
 30
0.0
  0
ENDBLK
  5
E4
330
E2
100
AcDbEntity
  8
0
100
AcDbBlockEnd
  0
BLOCK
  5
F9
330
F8
100
AcDbEntity
  8
0
100
AcDbBlockBegin
  2
_D_2
 70
     0
 10
0.0
 20
0.0
 30
0.0
  3
_D_2
  1
_D_2
  0
LINE
  5
FB
330
F8
100
AcDbEntity
  8
치수문자_일반주서
 62
     0
370
    -2
100
AcDbLine
 10
25.39999999999999
 20
0.8533310570256106
 30
0.0
 11
25.39999999999998
 21
18.38125000000001
 31
0.0
  0
LINE
  5
FC
330
F8
100
AcDbEntity
  8
치수문자_일반주서
 62
     0
370
    -2
100
AcDbLine
 10
-25.4
 20
0.8533310570256052
 30
0.0
 11
-25.40000000000001
 21
18.38125000000001
 31
0.0
  0
LINE
  5
FD
330
F8
100
AcDbEntity
  8
치수문자_일반주서
 62
     0
370
    -2
100
AcDbLine
 10
22.89999999999998
 20
18.38125000000001
 30
0.0
 11
-22.90000000000001
 21
18.38125000000001
 31
0.0
  0
SOLID
  5
FE
330
F8
100
AcDbEntity
  8
치수문자_일반주서
 62
     0
100
AcDbTrace
 10
22.89999999999998
 20
17.96458333333334
 30
0.0
 11
22.89999999999998
 21
18.79791666666668
 31
0.0
 12
25.39999999999998
 22
18.38125000000001
 32
0.0
 13
25.39999999999998
 23
18.38125000000001
 33
0.0
  0
SOLID
  5
FF
330
F8
100
AcDbEntity
  8
치수문자_일반주서
 62
     0
100
AcDbTrace
 10
-22.90000000000001
 20
18.79791666666668
 30
0.0
 11
-22.90000000000001
 21
17.96458333333334
 31
0.0
 12
-25.40000000000001
 22
18.38125000000001
 32
0.0
 13
-25.40000000000001
 23
18.38125000000001
 33
0.0
  0
MTEXT
  5
100
330
F8
100
AcDbEntity
  8
치수문자_일반주서
 62
     0
100
AcDbMText
 10
-1.296159543218772
 20
21.75625000000001
 30
0.0
 40
2.5
 41
0.0
 71
     2
 72
     1
  1
\A1;50.8 [2]
  7
SLDTEXTSTYLE0
 73
     1
 44
1.0
  0
POINT
  5
101
330
F8
100
AcDbEntity
  8
Defpoints
 62
     0
100
AcDbPoint
 10
25.39999999999999
 20
0.7908310570256106
 30
0.0
  0
POINT
  5
102
330
F8
100
AcDbEntity
  8
Defpoints
 62
     0
100
AcDbPoint
 10
-25.4
 20
0.7908310570256052
 30
0.0
  0
POINT
  5
103
330
F8
100
AcDbEntity
  8
Defpoints
 62
     0
100
AcDbPoint
 10
-25.4
 20
18.38125000000001
 30
0.0
  0
ENDBLK
  5
FA
330
F8
100
AcDbEntity
  8
0
100
AcDbBlockEnd
  0
BLOCK
  5
10C
330
10B
100
AcDbEntity
  8
0
100
AcDbBlockBegin
  2
_D_3
 70
     0
 10
0.0
 20
0.0
 30
0.0
  3
_D_3
  1
_D_3
  0
LINE
  5
10E
330
10B
100
AcDbEntity
  8
치수문자_일반주서
 62
     0
370
    -2
100
AcDbLine
 10
-16.1566193429844
 20
2.381250000000007
 30
0.0
 11
-33.40000000000002
 21
2.381249999999941
 31
0.0
  0
LINE
  5
10F
330
10B
100
AcDbEntity
  8
치수문자_일반주서
 62
     0
370
    -2
100
AcDbLine
 10
-16.1566193429844
 20
-2.381250000000003
 30
0.0
 11
-33.40000000000001
 21
-2.381250000000065
 31
0.0
  0
LINE
  5
110
330
10B
100
AcDbEntity
  8
치수문자_일반주서
 62
     0
370
    -2
100
AcDbLine
 10
-33.40000000000002
 20
2.381249999999941
 30
0.0
 11
-33.40000000000009
 21
27.88124999999998
 31
0.0
  0
LINE
  5
111
330
10B
100
AcDbEntity
  8
치수문자_일반주서
 62
     0
370
    -2
100
AcDbLine
 10
-33.40000000000002
 20
2.381249999999941
 30
0.0
 11
-33.40000000000001
 21
-2.381250000000065
 31
0.0
  0
LINE
  5
112
330
10B
100
AcDbEntity
  8
치수문자_일반주서
 62
     0
370
    -2
100
AcDbLine
 10
-33.40000000000003
 20
4.881249999999941
 30
0.0
 11
-33.40000000000003
 21
7.381249999999941
 31
0.0
  0
LINE
  5
113
330
10B
100
AcDbEntity
  8
치수문자_일반주서
 62
     0
370
    -2
100
AcDbLine
 10
-33.4
 20
-4.881250000000065
 30
0.0
 11
-33.39999999999999
 21
-7.381250000000065
 31
0.0
  0
SOLID
  5
114
330
10B
100
AcDbEntity
  8
치수문자_일반주서
 62
     0
100
AcDbTrace
 10
-33.81666666666669
 20
4.88124999999994
 30
0.0
 11
-32.98333333333336
 21
4.881249999999942
 31
0.0
 12
-33.40000000000002
 22
2.381249999999941
 32
0.0
 13
-33.40000000000002
 23
2.381249999999941
 33
0.0
  0
SOLID
  5
115
330
10B
100
AcDbEntity
  8
치수문자_일반주서
 62
     0
100
AcDbTrace
 10
-32.98333333333333
 20
-4.881250000000064
 30
0.0
 11
-33.81666666666666
 21
-4.881250000000066
 31
0.0
 12
-33.40000000000001
 22
-2.381250000000065
 32
0.0
 13
-33.40000000000001
 23
-2.381250000000065
 33
0.0
  0
MTEXT
  5
116
330
10B
100
AcDbEntity
  8
치수문자_일반주서
 62
     0
100
AcDbMText
 10
-36.77500000000006
 20
17.63124999999997
 30
0.0
 40
2.5
 41
0.0
 71
     2
 72
     1
  1
\A1;%%c4.76 [3/16]
  7
SLDTEXTSTYLE0
 11
-2.983906501879679E-15
 21
1.0
 31
0.0
 73
     1
 44
1.0
  0
POINT
  5
1AE
330
10B
100
AcDbEntity
  8
Defpoints
 62
     0
100
AcDbPoint
 10
-16.0941193429844
 20
2.381250000000007
 30
0.0
  0
POINT
  5
1AF
330
10B
100
AcDbEntity
  8
Defpoints
 62
     0
100
AcDbPoint
 10
-16.0941193429844
 20
-2.381250000000003
 30
0.0
  0
POINT
  5
1B0
330
10B
100
AcDbEntity
  8
Defpoints
 62
     0
100
AcDbPoint
 10
-33.40000000000001
 20
-2.381250000000068
 30
0.0
  0
ENDBLK
  5
10D
330
10B
100
AcDbEntity
  8
0
100
AcDbBlockEnd
  0
BLOCK
  5
126
330
125
100
AcDbEntity
  8
0
100
AcDbBlockBegin
  2
SW_DOWELSYMBOL_0
 70
     0
 10
0.0
 20
0.0
 30
0.0
  3
SW_DOWELSYMBOL_0
  1
SW_DOWELSYMBOL_0
  0
CIRCLE
  5
128
330
125
100
AcDbEntity
  8
해칭선
 62
     0
100
AcDbCircle
 10
0.0
 20
0.0
 30
0.0
 40
3.000000000000001
  0
HATCH
  5
129
330
125
100
AcDbEntity
  8
0
  6
Continuous
 62
     0
370
     0
100
AcDbHatch
 10
0.0
 20
0.0
 30
0.0
210
0.0
220
0.0
230
1.0
  2
SOLID
 70
     1
 71
     0
 91
        1
 92
        0
 93
        3
 72
     2
 10
0.0000000000000139
 20
0.0
 40
3.000000000000001
 50
0.0
 51
90.0
 73
     1
 72
     1
 10
0.0000000000000139
 20
3.000000000000001
 11
0.0000000000000139
 21
0.0
 72
     1
 10
0.0000000000000139
 20
0.0
 11
3.000000000000015
 21
0.0
 97
        0
 75
     0
 76
     1
 98
        1
 10
0.0
 20
0.0
  0
HATCH
  5
12A
330
125
100
AcDbEntity
  8
0
  6
Continuous
 62
     0
370
     0
100
AcDbHatch
 10
0.0
 20
0.0
 30
0.0
210
0.0
220
0.0
230
1.0
  2
SOLID
 70
     1
 71
     0
 91
        1
 92
        0
 93
        3
 72
     2
 10
0.0000000000000139
 20
0.0
 40
3.000000000000001
 50
180.0
 51
270.0000000000007
 73
     1
 72
     1
 10
0.0000000000000139
 20
-3.000000000000001
 11
0.0000000000000139
 21
0.0
 72
     1
 10
0.0000000000000139
 20
0.0
 11
-2.999999999999988
 21
0.0
 97
        0
 75
     0
 76
     1
 98
        1
 10
0.0
 20
0.0
  0
ENDBLK
  5
127
330
125
100
AcDbEntity
  8
0
100
AcDbBlockEnd
  0
BLOCK
  5
189
330
188
100
AcDbEntity
  8
0
100
AcDbBlockBegin
  2
*D7
 70
     1
 10
0.0
 20
0.0
 30
0.0
  3
*D7
  1
*D7
  0
LINE
  5
18B
330
188
100
AcDbEntity
  8
치수문자_일반주서
 62
     0
370
    -2
100
AcDbLine
 10
6.190624999999997
 20
0.3484871582727809
 30
0.0
 11
6.190624999999997
 21
10.27069759097852
 31
0.0
  0
LINE
  5
18C
330
188
100
AcDbEntity
  8
치수문자_일반주서
 62
     0
370
    -2
100
AcDbLine
 10
5.0
 20
0.2657482930384945
 30
0.0
 11
5.0
 21
10.27069759097852
 31
0.0
  0
LINE
  5
18D
330
188
100
AcDbEntity
  8
치수문자_일반주서
 62
     0
370
    -2
100
AcDbLine
 10
6.190624999999997
 20
10.27069759097852
 30
0.0
 11
29.190625
 21
10.27069759097852
 31
0.0
  0
LINE
  5
18E
330
188
100
AcDbEntity
  8
치수문자_일반주서
 62
     0
370
    -2
100
AcDbLine
 10
6.190624999999997
 20
10.27069759097852
 30
0.0
 11
5.0
 21
10.27069759097852
 31
0.0
  0
LINE
  5
18F
330
188
100
AcDbEntity
  8
치수문자_일반주서
 62
     0
370
    -2
100
AcDbLine
 10
8.690624999999997
 20
10.27069759097852
 30
0.0
 11
11.190625
 21
10.27069759097852
 31
0.0
  0
LINE
  5
190
330
188
100
AcDbEntity
  8
치수문자_일반주서
 62
     0
370
    -2
100
AcDbLine
 10
2.5
 20
10.27069759097852
 30
0.0
 11
0.0
 21
10.27069759097852
 31
0.0
  0
SOLID
  5
191
330
188
100
AcDbEntity
  8
치수문자_일반주서
 62
     0
100
AcDbTrace
 10
8.690624999999997
 20
10.68736425764518
 30
0.0
 11
8.690624999999997
 21
9.85403092431185
 31
0.0
 12
6.190624999999997
 22
10.27069759097852
 32
0.0
 13
6.190624999999997
 23
10.27069759097852
 33
0.0
  0
SOLID
  5
192
330
188
100
AcDbEntity
  8
치수문자_일반주서
 62
     0
100
AcDbTrace
 10
2.5
 20
9.85403092431185
 30
0.0
 11
2.5
 21
10.68736425764518
 31
0.0
 12
5.0
 22
10.27069759097852
 32
0.0
 13
5.0
 23
10.27069759097852
 33
0.0
  0
MTEXT
  5
193
330
188
100
AcDbEntity
  8
치수문자_일반주서
 62
     0
100
AcDbMText
 10
20.190625
 20
13.64569759097852
 30
0.0
 40
2.5
 41
0.0
 71
     2
 72
     1
  1
\A1;1.19 [3/64]
  7
SLDTEXTSTYLE0
 73
     1
 44
1.0
  0
POINT
  5
194
330
188
100
AcDbEntity
  8
Defpoints
 62
     0
100
AcDbPoint
 10
6.190624999999997
 20
0.2859871582727809
 30
0.0
  0
POINT
  5
195
330
188
100
AcDbEntity
  8
Defpoints
 62
     0
100
AcDbPoint
 10
5.0
 20
0.2032482930384945
 30
0.0
  0
POINT
  5
196
330
188
100
AcDbEntity
  8
Defpoints
 62
     0
100
AcDbPoint
 10
5.0
 20
10.27069759097852
 30
0.0
  0
ENDBLK
  5
18A
330
188
100
AcDbEntity
  8
0
100
AcDbBlockEnd
  0
BLOCK
  5
19B
330
19A
100
AcDbEntity
  8
0
100
AcDbBlockBegin
  2
*D8
 70
     1
 10
0.0
 20
0.0
 30
0.0
  3
*D8
  1
*D8
  0
LINE
  5
19D
330
19A
100
AcDbEntity
  8
치수문자_일반주서
 62
     0
370
    -2
100
AcDbLine
 10
51.83553776113902
 20
-8.76947752465376
 30
0.0
 11
51.83553776113902
 21
1.152732908051975
 31
0.0
  0
LINE
  5
19E
330
19A
100
AcDbEntity
  8
치수문자_일반주서
 62
     0
370
    -2
100
AcDbLine
 10
50.64491276113903
 20
-8.852216389888046
 30
0.0
 11
50.64491276113903
 21
1.152732908051975
 31
0.0
  0
LINE
  5
19F
330
19A
100
AcDbEntity
  8
치수문자_일반주서
 62
     0
370
    -2
100
AcDbLine
 10
51.83553776113902
 20
1.152732908051975
 30
0.0
 11
74.83553776113902
 21
1.152732908051975
 31
0.0
  0
LINE
  5
1A0
330
19A
100
AcDbEntity
  8
치수문자_일반주서
 62
     0
370
    -2
100
AcDbLine
 10
51.83553776113902
 20
1.152732908051975
 30
0.0
 11
50.64491276113903
 21
1.152732908051975
 31
0.0
  0
LINE
  5
1A1
330
19A
100
AcDbEntity
  8
치수문자_일반주서
 62
     0
370
    -2
100
AcDbLine
 10
54.33553776113902
 20
1.152732908051975
 30
0.0
 11
56.83553776113902
 21
1.152732908051975
 31
0.0
  0
LINE
  5
1A2
330
19A
100
AcDbEntity
  8
치수문자_일반주서
 62
     0
370
    -2
100
AcDbLine
 10
48.14491276113903
 20
1.152732908051975
 30
0.0
 11
45.64491276113903
 21
1.152732908051975
 31
0.0
  0
SOLID
  5
1A3
330
19A
100
AcDbEntity
  8
치수문자_일반주서
 62
     0
100
AcDbTrace
 10
54.33553776113902
 20
1.569399574718642
 30
0.0
 11
54.33553776113902
 21
0.7360662413853085
 31
0.0
 12
51.83553776113902
 22
1.152732908051975
 32
0.0
 13
51.83553776113902
 23
1.152732908051975
 33
0.0
  0
SOLID
  5
1A4
330
19A
100
AcDbEntity
  8
치수문자_일반주서
 62
     0
100
AcDbTrace
 10
48.14491276113903
 20
0.7360662413853085
 30
0.0
 11
48.14491276113903
 21
1.569399574718642
 31
0.0
 12
50.64491276113903
 22
1.152732908051975
 32
0.0
 13
50.64491276113903
 23
1.152732908051975
 33
0.0
  0
MTEXT
  5
1A5
330
19A
100
AcDbEntity
  8
치수문자_일반주서
 62
     0
100
AcDbMText
 10
65.83553776113902
 20
4.527732908051975
 30
0.0
 40
2.5
 41
0.0
 71
     2
 72
     1
  1
\A1;1.19 [3/64]
  7
SLDTEXTSTYLE0
 73
     1
 44
1.0
  0
POINT
  5
1A6
330
19A
100
AcDbEntity
  8
Defpoints
 62
     0
100
AcDbPoint
 10
51.83553776113902
 20
-8.83197752465376
 30
0.0
  0
POINT
  5
1A7
330
19A
100
AcDbEntity
  8
Defpoints
 62
     0
100
AcDbPoint
 10
50.64491276113903
 20
-8.914716389888046
 30
0.0
  0
POINT
  5
1A8
330
19A
100
AcDbEntity
  8
Defpoints
 62
     0
100
AcDbPoint
 10
50.64491276113903
 20
1.152732908051975
 30
0.0
  0
ENDBLK
  5
19C
330
19A
100
AcDbEntity
  8
0
100
AcDbBlockEnd
  0
ENDSEC
  0
SECTION
  2
ENTITIES
  0
LINE
  5
96
330
1F
100
AcDbEntity
  8
0
  6
Continuous
 62
     1
370
    25
100
AcDbLine
 10
23.84208756997077
 20
0.793750000000004
 30
0.0
 11
23.35905479815716
 21
0.793750000000004
 31
0.0
1001
PE_URL
1000

  0
LINE
  5
97
330
1F
100
AcDbEntity
  8
0
  6
Continuous
 62
     1
370
    25
100
AcDbLine
 10
23.35905479815715
 20
-0.793749999999996
 30
0.0
 11
23.84208756997077
 21
-0.793749999999996
 31
0.0
1001
PE_URL
1000

  0
LINE
  5
98
330
1F
100
AcDbEntity
  8
외형선
  6
Continuous
370
    15
100
AcDbLine
 10
16.0941193429844
 20
-2.381250000000001
 30
0.0
 11
22.01874999999999
 21
-0.7937499999999957
 31
0.0
  0
LINE
  5
99
330
1F
100
AcDbEntity
  8
외형선
  6
Continuous
370
    15
100
AcDbLine
 10
22.01874999999999
 20
0.7937500000000037
 30
0.0
 11
16.0941193429844
 21
2.381250000000009
 31
0.0
  0
LINE
  5
9A
330
1F
100
AcDbEntity
  8
외형선
  6
Continuous
370
    15
100
AcDbLine
 10
-16.09411934298439
 20
-2.381249999999998
 30
0.0
 11
16.0941193429844
 21
-2.381249999999998
 31
0.0
  0
LINE
  5
9B
330
1F
100
AcDbEntity
  8
외형선
  6
Continuous
370
    15
100
AcDbLine
 10
16.0941193429844
 20
2.381250000000007
 30
0.0
 11
-16.0941193429844
 21
2.381250000000007
 31
0.0
  0
LINE
  5
9E
330
1F
100
AcDbEntity
  8
외형선
  6
Continuous
370
    15
100
AcDbLine
 10
22.01874999999999
 20
-0.7937499999999958
 30
0.0
 11
22.51885199107794
 21
-0.7937499999999958
 31
0.0
  0
LINE
  5
9F
330
1F
100
AcDbEntity
  8
외형선
  6
Continuous
370
    15
100
AcDbLine
 10
22.51885199107794
 20
0.7937500000000038
 30
0.0
 11
22.01874999999999
 21
0.7937500000000038
 31
0.0
  0
SPLINE
  5
A0
330
1F
100
AcDbEntity
  8
0
  6
Continuous
 62
     1
370
    25
100
AcDbSpline
210
0.0
220
0.0
230
1.0
 70
     8
 71
     3
 72
    11
 73
     7
 74
     0
 42
0.000000001
 43
0.00000001
 40
0.0
 40
0.0
 40
0.0
 40
0.0
 40
0.2680284203886134
 40
0.5362313918849215
 40
0.8049551557578262
 40
1.0
 40
1.0
 40
1.0
 40
1.0
 10
23.01874999999869
 20
-0.6554305529319306
 30
0.0
 10
23.16664412327908
 20
-0.6971813575951845
 30
0.0
 10
23.46252868456279
 20
-0.7807101567592127
 30
0.0
 10
23.90672719756867
 20
-0.8039499422306309
 30
0.0
 10
24.31083639313688
 20
-0.7646223975866587
 30
0.0
 10
24.56696573765387
 20
-0.6777368013009066
 30
0.0
 10
24.67468477519332
 20
-0.6411957605795006
 30
0.0
1001
PE_URL
1000

  0
SPLINE
  5
A1
330
1F
100
AcDbEntity
  8
외형선
  6
Continuous
370
    15
100
AcDbSpline
210
0.0
220
0.0
230
1.0
 70
    24
 71
     3
 72
    15
 73
    11
 74
     0
 42
0.000000001
 43
0.00000001
 40
0.0
 40
0.0
 40
0.0
 40
0.0
 40
0.0245785476833791
 40
0.1717733166637272
 40
0.3189680856440744
 40
0.4661628546244231
 40
0.6133576236043704
 40
0.7605523925808786
 40
0.9077471615654589
 40
1.0
 40
1.0
 40
1.0
 40
1.0
 10
23.01874999999998
 20
0.183864337232454
 30
0.0
 10
23.01874999999997
 20
0.1832293426278982
 30
0.0
 10
23.01874999999998
 20
0.1787915243038365
 30
0.0
 10
23.01874999999995
 20
0.1228943395274607
 30
0.0
 10
23.01875000000005
 20
0.0156919095381733
 30
0.0
 10
23.01874999999997
 20
-0.1291557683888258
 30
0.0
 10
23.01874999999995
 20
-0.2901922893371437
 30
0.0
 10
23.01874999999998
 20
-0.4498517210706338
 30
0.0
 10
23.01874999999997
 20
-0.5751025828636255
 30
0.0
 10
23.01874999999998
 20
-0.6330896627190351
 30
0.0
 10
23.01874999999999
 20
-0.655430552932352
 30
0.0
  0
SPLINE
  5
A2
330
1F
100
AcDbEntity
  8
0
  6
Continuous
 62
     1
370
    25
100
AcDbSpline
210
0.0
220
0.0
230
1.0
 70
     8
 71
     3
 72
    22
 73
    18
 74
     0
 42
0.000000001
 43
0.00000001
 40
0.0
 40
0.0
 40
0.0
 40
0.0
 40
0.125
 40
0.125
 40
0.25
 40
0.25
 40
0.375
 40
0.375
 40
0.5
 40
0.5
 40
0.625
 40
0.625
 40
0.75
 40
0.75
 40
0.875
 40
0.875
 40
1.0
 40
1.0
 40
1.0
 40
1.0
 10
25.4
 20
-0.7908310570256026
 30
0.0
 10
25.30266936107083
 20
-0.785953446266075
 30
0.0
 10
25.20219040335016
 20
-0.7748498787745551
 30
0.0
 10
25.00185186814599
 20
-0.7406173706562402
 30
0.0
 10
24.90371746989668
 20
-0.7176672796663981
 30
0.0
 10
24.70695920691756
 20
-0.6610231729406045
 30
0.0
 10
24.60605525425115
 20
-0.6270413804666329
 30
0.0
 10
24.40620955767759
 20
-0.5499709073354293
 30
0.0
 10
24.30935017056529
 20
-0.5072477633272547
 30
0.0
 10
24.11095873450967
 20
-0.4139360767929445
 30
0.0
 10
24.00988213366006
 20
-0.3633488836481539
 30
0.0
 10
23.81101808074242
 20
-0.2578266133688564
 30
0.0
 10
23.71435386809545
 20
-0.2031444493069713
 30
0.0
 10
23.51480623236314
 20
-0.0903271226494026
 30
0.0
 10
23.41381078719086
 20
-0.0325308378074771
 30
0.0
 10
23.216409184882
 20
0.0817978810526342
 30
0.0
 10
23.11885873197716
 20
0.1385536516414311
 30
0.0
 10
23.01874999999736
 20
0.1942681348862331
 30
0.0
1001
PE_URL
1000

  0
LINE
  5
A3
330
1F
100
AcDbEntity
  8
0
  6
Continuous
 62
     1
370
    25
100
AcDbLine
 10
25.4
 20
-0.7188845709717442
 30
0.0
 11
25.4
 21
0.068009570971762
 31
0.0
1001
PE_URL
1000

  0
SPLINE
  5
A4
330
1F
100
AcDbEntity
  8
0
  6
Continuous
 62
     1
370
    25
100
AcDbSpline
210
0.0
220
0.0
230
1.0
 70
     8
 71
     3
 72
    22
 73
    18
 74
     0
 42
0.000000001
 43
0.00000001
 40
0.0
 40
0.0
 40
0.0
 40
0.0
 40
0.125
 40
0.125
 40
0.25
 40
0.25
 40
0.375
 40
0.375
 40
0.5
 40
0.5
 40
0.625
 40
0.625
 40
0.75
 40
0.75
 40
0.875
 40
0.875
 40
1.0
 40
1.0
 40
1.0
 40
1.0
 10
25.4
 20
-0.7188845709717442
 30
0.0
 10
25.30266936107089
 20
-0.6947497114871489
 30
0.0
 10
25.20219040335028
 20
-0.6647446066649152
 30
0.0
 10
25.00185186814622
 20
-0.5947759139996122
 30
0.0
 10
24.90371746989694
 20
-0.5550857912681574
 30
0.0
 10
24.70695920691795
 20
-0.4677005131802827
 30
0.0
 10
24.60605525425158
 20
-0.4196171116267022
 30
0.0
 10
24.40620955767817
 20
-0.3179114828291252
 30
0.0
 10
24.30935017056589
 20
-0.2647082479660946
 30
0.0
 10
24.11095873451039
 20
-0.1541949985944756
 30
0.0
 10
24.00988213366084
 20
-0.0969388829360827
 30
0.0
 10
23.81101808074329
 20
0.0175826406186174
 30
0.0
 10
23.71435386809641
 20
0.0746223329655766
 30
0.0
 10
23.51480623236421
 20
0.187838488903581
 30
0.0
 10
23.41381078719198
 20
0.2436292389623072
 30
0.0
 10
23.21640918488318
 20
0.3497229025941307
 30
0.0
 10
23.11885873197843
 20
0.4002675650254901
 30
0.0
 10
23.01874999999869
 20
0.4477162637020776
 30
0.0
1001
PE_URL
1000

  0
SPLINE
  5
A5
330
1F
100
AcDbEntity
  8
외형선
  6
Continuous
370
    15
100
AcDbSpline
210
0.0
220
0.0
230
1.0
 70
    24
 71
     3
 72
    10
 73
     6
 74
     0
 42
0.000000001
 43
0.00000001
 40
0.0
 40
0.0
 40
0.0
 40
0.0
 40
0.4657281300271855
 40
0.9939090054924422
 40
1.0
 40
1.0
 40
1.0
 40
1.0
 10
23.01875
 20
0.769609611590383
 30
0.0
 10
23.01874999999999
 20
0.7229616138919596
 30
0.0
 10
23.01874999999997
 20
0.6234102619091034
 30
0.0
 10
23.01875000000001
 20
0.5210780534421859
 30
0.0
 10
23.01875
 20
0.4815293399373032
 30
0.0
 10
23.01875
 20
0.4810784627523383
 30
0.0
  0
SPLINE
  5
A6
330
1F
100
AcDbEntity
  8
0
  6
Continuous
 62
     1
370
    25
100
AcDbSpline
210
0.0
220
0.0
230
1.0
 70
     8
 71
     3
 72
    22
 73
    18
 74
     0
 42
0.000000001
 43
0.00000001
 40
0.0
 40
0.0
 40
0.0
 40
0.0
 40
0.125
 40
0.125
 40
0.25
 40
0.25
 40
0.375
 40
0.375
 40
0.5
 40
0.5
 40
0.625
 40
0.625
 40
0.75
 40
0.75
 40
0.875
 40
0.875
 40
1.0
 40
1.0
 40
1.0
 40
1.0
 10
25.4
 20
0.0680095709717619
 30
0.0
 10
25.30266936107083
 20
0.1247275595960253
 30
0.0
 10
25.20219040335016
 20
0.1815212097393133
 30
0.0
 10
25.00185186814599
 20
0.2912528017108265
 30
0.0
 10
24.90371746989668
 20
0.3438845277077152
 30
0.0
 10
24.70695920691756
 20
0.4431153997956561
 30
0.0
 10
24.60605525425115
 20
0.4900571126781571
 30
0.0
 10
24.40620955767759
 20
0.5752120196836981
 30
0.0
 10
24.30935017056529
 20
0.6132051678737314
 30
0.0
 10
24.11095873450967
 20
0.6796894847184414
 30
0.0
 10
24.00988213366006
 20
0.7080280077290318
 30
0.0
 10
23.81101808074242
 20
0.7528954166521719
 30
0.0
 10
23.71435386809545
 20
0.7694582002621385
 30
0.0
 10
23.51480623236314
 20
0.790679834160933
 30
0.0
 10
23.41381078719086
 20
0.7951425792905256
 30
0.0
 10
23.216409184882
 20
0.7915927510181886
 30
0.0
 10
23.11885873197716
 20
0.783673298673727
 30
0.0
 10
23.01874999999736
 20
0.7696096116004718
 30
0.0
1001
PE_URL
1000

  0
LINE
  5
A7
330
1F
100
AcDbEntity
  8
0
  6
Continuous
 62
     1
370
    25
100
AcDbLine
 10
25.4
 20
-0.7908310570256026
 30
0.0
 11
25.4
 21
-0.7188845709717442
 31
0.0
1001
PE_URL
1000

  0
LINE
  5
A8
330
1F
100
AcDbEntity
  8
외형선
  6
Continuous
370
    15
100
AcDbLine
 10
23.01875
 20
0.1942681348847566
 30
0.0
 11
23.01874999999999
 21
0.4477162637014605
 31
0.0
  0
SPLINE
  5
A9
330
1F
100
AcDbEntity
  8
0
  6
Continuous
 62
     1
370
    25
100
AcDbSpline
210
0.0
220
0.0
230
1.0
 70
     8
 71
     3
 72
    11
 73
     7
 74
     0
 42
0.000000001
 43
0.00000001
 40
0.0
 40
0.0
 40
0.0
 40
0.0
 40
0.0413527301197406
 40
0.3270932379591444
 40
0.6635331169385161
 40
1.0
 40
1.0
 40
1.0
 40
1.0
 10
23.84208756997077
 20
0.7886368334943318
 30
0.0
 10
23.86354914257014
 20
0.7902736973976339
 30
0.0
 10
24.03330662298058
 20
0.8032210194409216
 30
0.0
 10
24.37785275840641
 20
0.7433784628525772
 30
0.0
 10
24.8757644710888
 20
0.5978018833428178
 30
0.0
 10
25.22525014868508
 20
0.4236146327550524
 30
0.0
 10
25.4
 20
0.3365175123507895
 30
0.0
1001
PE_URL
1000

  0
LINE
  5
AA
330
1F
100
AcDbEntity
  8
0
  6
Continuous
 62
     1
370
    25
100
AcDbLine
 10
25.4
 20
0.068009570971762
 30
0.0
 11
25.4
 21
0.3365175123507895
 31
0.0
1001
PE_URL
1000

  0
SPLINE
  5
AB
330
1F
100
AcDbEntity
  8
0
  6
Continuous
 62
     1
370
    25
100
AcDbSpline
210
0.0
220
0.0
230
1.0
 70
     8
 71
     3
 72
     9
 73
     5
 74
     0
 42
0.000000001
 43
0.00000001
 40
0.0
 40
0.0
 40
0.0
 40
0.0
 40
0.6141937095470483
 40
1.0
 40
1.0
 40
1.0
 40
1.0
 10
25.4
 20
0.7908310570256106
 30
0.0
 10
25.25145692333846
 20
0.7776937141844025
 30
0.0
 10
25.00960638929262
 20
0.7563041384902834
 30
0.0
 10
24.76792642550068
 20
0.6732417518466554
 30
0.0
 10
24.67468477519331
 20
0.6411957605795086
 30
0.0
1001
PE_URL
1000

  0
LINE
  5
AC
330
1F
100
AcDbEntity
  8
0
  6
Continuous
 62
     1
370
    25
100
AcDbLine
 10
25.4
 20
0.3365175123507895
 30
0.0
 11
25.4
 21
0.7908310570256106
 31
0.0
1001
PE_URL
1000

  0
LINE
  5
AD
330
1F
100
AcDbEntity
  8
0
  6
Continuous
 62
     1
370
    25
100
AcDbLine
 10
23.35905479815715
 20
-0.780681468656474
 30
0.0
 11
23.01874999999736
 21
-0.769609611600465
 31
0.0
1001
PE_URL
1000

  0
LINE
  5
AE
330
1F
100
AcDbEntity
  8
외형선
  6
Continuous
370
    15
100
AcDbLine
 10
23.01874999999999
 20
-0.7696096116008375
 30
0.0
 11
23.01874999999999
 21
-0.655430552932352
 31
0.0
  0
LINE
  5
AF
330
1F
100
AcDbEntity
  8
외형선
  6
Continuous
370
    15
100
AcDbLine
 10
22.01874999999999
 20
0.0000000000000039
 30
0.0
 11
22.01874999999999
 21
0.7937500000000037
 31
0.0
  0
LINE
  5
B0
330
1F
100
AcDbEntity
  8
외형선
  6
Continuous
370
    15
100
AcDbLine
 10
22.01874999999999
 20
-0.7937499999999957
 30
0.0
 11
22.01874999999999
 21
0.0000000000000039
 31
0.0
  0
LINE
  5
B1
330
1F
100
AcDbEntity
  8
외형선
  6
Continuous
370
    15
100
AcDbLine
 10
16.0941193429844
 20
0.0000000000000039
 30
0.0
 11
16.0941193429844
 21
2.381250000000009
 31
0.0
  0
LINE
  5
B2
330
1F
100
AcDbEntity
  8
외형선
  6
Continuous
370
    15
100
AcDbLine
 10
16.0941193429844
 20
-2.381250000000001
 30
0.0
 11
16.0941193429844
 21
0.0000000000000039
 31
0.0
  0
LINE
  5
B7
330
1F
100
AcDbEntity
  8
외형선
  6
Continuous
370
    15
100
AcDbLine
 10
22.51885199107794
 20
0.6515779279844911
 30
0.0
 11
22.51885199107794
 21
0.7937500000000038
 31
0.0
  0
SPLINE
  5
B8
330
1F
100
AcDbEntity
  8
외형선
  6
Continuous
370
    15
100
AcDbSpline
210
0.0
220
0.0
230
1.0
 70
     8
 71
     3
 72
    10
 73
     6
 74
     0
 42
0.000000001
 43
0.00000001
 40
0.0
 40
0.0
 40
0.0
 40
0.0
 40
0.5
 40
0.5
 40
1.0
 40
1.0
 40
1.0
 40
1.0
 10
23.0187499999987
 20
0.4477162637020657
 30
0.0
 10
22.93465010343185
 20
0.487577228595125
 30
0.0
 10
22.85015475452544
 20
0.5249933953499824
 30
0.0
 10
22.6845283049174
 20
0.5931755114924347
 30
0.0
 10
22.602771824531
 20
0.6240716465864797
 30
0.0
 10
22.51885199107795
 20
0.6516169509504196
 30
0.0
  0
SPLINE
  5
B9
330
1F
100
AcDbEntity
  8
외형선
  6
Continuous
370
    15
100
AcDbSpline
210
0.0
220
0.0
230
1.0
 70
     8
 71
     3
 72
    10
 73
     6
 74
     0
 42
0.000000001
 43
0.00000001
 40
0.0
 40
0.0
 40
0.0
 40
0.0
 40
0.5
 40
0.5
 40
1.0
 40
1.0
 40
1.0
 40
1.0
 10
23.0187499999987
 20
0.1942681348854854
 30
0.0
 10
22.93465010343185
 20
0.2410730657391724
 30
0.0
 10
22.85015475452542
 20
0.286861236066463
 30
0.0
 10
22.68452830491738
 20
0.3741896617273697
 30
0.0
 10
22.60277182453098
 20
0.4158666865949059
 30
0.0
 10
22.51885199107795
 20
0.4553771442688542
 30
0.0
  0
LINE
  5
BA
330
1F
100
AcDbEntity
  8
외형선
  6
Continuous
370
    15
100
AcDbLine
 10
22.51885199107794
 20
-0.4533048270903862
 30
0.0
 11
22.51885199107794
 21
0.4553946276922997
 31
0.0
  0
SPLINE
  5
BB
330
1F
100
AcDbEntity
  8
외형선
  6
Continuous
370
    15
100
AcDbSpline
210
0.0
220
0.0
230
1.0
 70
     8
 71
     3
 72
    10
 73
     6
 74
     0
 42
0.000000001
 43
0.00000001
 40
0.0
 40
0.0
 40
0.0
 40
0.0
 40
0.5
 40
0.5
 40
1.0
 40
1.0
 40
1.0
 40
1.0
 10
23.0187499999987
 20
-0.6554305529319382
 30
0.0
 10
22.93465010343185
 20
-0.6282020354488167
 30
0.0
 10
22.85015475452544
 20
-0.5972666930334197
 30
0.0
 10
22.6845283049174
 20
-0.529611537198605
 30
0.0
 10
22.602771824531
 20
-0.4928494751914383
 30
0.0
 10
22.51885199107795
 20
-0.4532487305377551
 30
0.0
  0
SPLINE
  5
BC
330
1F
100
AcDbEntity
  8
외형선
  6
Continuous
370
    15
100
AcDbSpline
210
0.0
220
0.0
230
1.0
 70
     8
 71
     3
 72
    10
 73
     6
 74
     0
 42
0.000000001
 43
0.00000001
 40
0.0
 40
0.0
 40
0.0
 40
0.0
 40
0.5
 40
0.5
 40
1.0
 40
1.0
 40
1.0
 40
1.0
 10
23.0187499999987
 20
-0.7696096116006536
 30
0.0
 10
22.93465010343185
 20
-0.7577949116757415
 30
0.0
 10
22.85015475452542
 20
-0.7416577371069416
 30
0.0
 10
22.68452830491738
 20
-0.7016606479093191
 30
0.0
 10
22.60277182453098
 20
-0.6778059635693668
 30
0.0
 10
22.51885199107795
 20
-0.6501313090272912
 30
0.0
  0
LINE
  5
BD
330
1F
100
AcDbEntity
  8
외형선
  6
Continuous
370
    15
100
AcDbLine
 10
22.51885199107794
 20
-0.7937499999999958
 30
0.0
 11
22.51885199107794
 21
-0.6501190626100637
 31
0.0
  0
SPLINE
  5
BE
330
1F
100
AcDbEntity
  8
외형선
  6
Continuous
370
    15
100
AcDbSpline
210
0.0
220
0.0
230
1.0
 70
     8
 71
     3
 72
    10
 73
     6
 74
     0
 42
0.000000001
 43
0.00000001
 40
0.0
 40
0.0
 40
0.0
 40
0.0
 40
0.5
 40
0.5
 40
1.0
 40
1.0
 40
1.0
 40
1.0
 10
23.0187499999987
 20
0.7696096116006601
 30
0.0
 10
22.93465010343185
 20
0.7577949116757476
 30
0.0
 10
22.85015475452542
 20
0.7416577371069477
 30
0.0
 10
22.68452830491738
 20
0.7016606479093245
 30
0.0
 10
22.60277182453098
 20
0.6778059635693718
 30
0.0
 10
22.51885199107795
 20
0.650131309027296
 30
0.0
  0
SPLINE
  5
BF
330
1F
100
AcDbEntity
  8
외형선
  6
Continuous
370
    15
100
AcDbSpline
210
0.0
220
0.0
230
1.0
 70
    24
 71
     3
 72
    15
 73
    11
 74
     0
 42
0.000000001
 43
0.00000001
 40
0.0
 40
0.0
 40
0.0
 40
0.0
 40
0.1079535753486819
 40
0.2546967668311287
 40
0.4014399583116908
 40
0.5481831497976701
 40
0.6949263412806667
 40
0.8416695327636472
 40
0.9884127242464874
 40
1.0
 40
1.0
 40
1.0
 40
1.0
 10
23.01874999999999
 20
-0.6554305529323571
 30
0.0
 10
23.01875000000002
 20
-0.6288662006339769
 30
0.0
 10
23.01875000000005
 20
-0.5661924575781558
 30
0.0
 10
23.01875
 20
-0.4329595142006005
 30
0.0
 10
23.01875000000001
 20
-0.2723313962012634
 30
0.0
 10
23.01874999999998
 20
-0.1122974106312923
 30
0.0
 10
23.01875000000003
 20
0.0296618020569753
 30
0.0
 10
23.01875000000002
 20
0.1322994204530068
 30
0.0
 10
23.01874999999994
 20
0.1822987718902827
 30
0.0
 10
23.01875000000003
 20
0.1859341866062359
 30
0.0
 10
23.01875000000003
 20
0.1862002412293757
 30
0.0
  0
SPLINE
  5
C0
330
1F
100
AcDbEntity
  8
외형선
  6
Continuous
370
    15
100
AcDbSpline
210
0.0
220
0.0
230
1.0
 70
    24
 71
     3
 72
    10
 73
     6
 74
     0
 42
0.000000001
 43
0.00000001
 40
0.0
 40
0.0
 40
0.0
 40
0.0
 40
0.0700458706604071
 40
0.5945016643698573
 40
1.0
 40
1.0
 40
1.0
 40
1.0
 10
23.01875000000001
 20
0.4810884627523382
 30
0.0
 10
23.01875
 20
0.4864183216662866
 30
0.0
 10
23.01874999999995
 20
0.531654535668975
 30
0.0
 10
23.01875000000004
 20
0.6345955675722728
 30
0.0
 10
23.01875000000003
 20
0.7286137906515661
 30
0.0
 10
23.01875000000001
 20
0.7696096116009615
 30
0.0
  0
LINE
  5
C1
330
1F
100
AcDbEntity
  8
중심선
 62
     1
100
AcDbLine
 10
-26.90000000000001
 20
0.0
 30
0.0
 11
26.90000000000001
 21
0.0
 31
0.0
  0
LINE
  5
C2
330
1F
100
AcDbEntity
  8
참조1
100
AcDbLine
 10
-0.0000000000000124
 20
0.0
 30
0.0
 11
-0.0000000000000018
 21
-40.0
 31
0.0
  0
LINE
  5
C3
330
1F
100
AcDbEntity
  8
참조1
100
AcDbLine
 10
-0.0000000000000018
 20
-40.0
 30
0.0
 11
-15.15885681430868
 21
-39.99999999999999
 31
0.0
  0
CIRCLE
  5
C4
330
1F
100
AcDbEntity
  8
해칭선
100
AcDbCircle
 10
0.0
 20
0.0
 30
0.0
 40
3.000000000000001
  0
INSERT
  5
C5
330
1F
100
AcDbEntity
  8
0
  6
Continuous
 62
     7
100
AcDbBlockReference
 66
     1
  2
블럭10
 10
-13.94027293212521
 20
-52.04717430164393
 30
0.0
  0
ATTRIB
  5
C6
330
C5
100
AcDbEntity
  8
FORMAT
 62
     2
100
AcDbText
 10
-23.12156822086649
 20
-49.97180738881174
 30
0.0
 40
4.233333333333333
  1
E2002004 [ 4 FLUTE ]
 41
0.75
  7
SLDTEXTSTYLE0
 11
-23.12156822086649
 21
-52.08847405547841
 31
0.0
100
AcDbAttribute
  2
AUTOATTR0
 70
     0
 74
     1
  0
SEQEND
  5
C7
330
C5
100
AcDbEntity
  8
0
  6
Continuous
 62
     7
  0
HATCH
  5
C8
330
1F
100
AcDbEntity
  8
중심선
100
AcDbHatch
 10
0.0
 20
0.0
 30
0.0
210
0.0
220
0.0
230
1.0
  2
SOLID
 70
     1
 71
     0
 91
        1
 92
        0
 93
        4
 72
     1
 10
-8.225363627744372
 20
-35.79999999999999
 11
-11.67163887158165
 21
-35.79999999999999
 72
     1
 10
-11.67163887158165
 20
-35.79999999999999
 11
-13.79986873078567
 21
-38.33632558057259
 72
     1
 10
-13.79986873078567
 20
-38.33632558057259
 11
-10.35356040183524
 21
-38.33628615127009
 72
     1
 10
-10.35356040183524
 20
-38.33628615127009
 11
-8.225363627744372
 21
-35.79999999999999
 97
        0
 75
     0
 76
     1
 98
        1
 10
14.09411934298438
 20
-0.0010749287238892
  0
HATCH
  5
C9
330
1F
100
AcDbEntity
  8
중심선
100
AcDbHatch
 10
0.0
 20
0.0
 30
0.0
210
0.0
220
0.0
230
1.0
  2
SOLID
 70
     1
 71
     0
 91
        1
 92
        0
 93
        4
 72
     1
 10
-3.212599636708394
 20
-35.79999999999999
 11
-6.658874880545671
 21
-35.79999999999999
 72
     1
 10
-6.658874880545671
 20
-35.79999999999999
 11
-11.19001288890309
 21
-41.20000000000001
 72
     1
 10
-11.19001288890309
 20
-41.20000000000001
 11
-7.743737645065803
 21
-41.20000000000001
 72
     1
 10
-7.743737645065803
 20
-41.20000000000001
 11
-3.212599636708394
 21
-35.79999999999999
 97
        0
 75
     0
 76
     1
 98
        1
 10
14.09411934298438
 20
-0.0010749287238892
  0
HATCH
  5
CA
330
1F
100
AcDbEntity
  8
중심선
100
AcDbHatch
 10
0.0
 20
0.0
 30
0.0
210
0.0
220
0.0
230
1.0
  2
SOLID
 70
     1
 71
     0
 91
        1
 92
        0
 93
        4
 72
     1
 10
1.800164354327478
 20
-35.79999999999999
 11
-1.646110889509643
 21
-35.79999999999999
 72
     1
 10
-1.646110889509643
 20
-35.79999999999999
 11
-8.694547791398893
 21
-44.20000000000001
 72
     1
 10
-8.694547791398893
 20
-44.20000000000001
 11
-5.248272547561601
 21
-44.20000000000001
 72
     1
 10
-5.248272547561601
 20
-44.20000000000001
 11
1.800164354327478
 21
-35.79999999999999
 97
        0
 75
     0
 76
     1
 98
        1
 10
14.09411934298438
 20
-0.0010749287238892
  0
HATCH
  5
CB
330
1F
100
AcDbEntity
  8
중심선
100
AcDbHatch
 10
0.0
 20
0.0
 30
0.0
210
0.0
220
0.0
230
1.0
  2
SOLID
 70
     1
 71
     0
 91
        1
 92
        0
 93
        6
 72
     3
 10
6.600054785339675
 20
-40.00000000005127
 11
3.960054785062284
 21
1.540882976769353E-10
 40
0.3939339440162627
 50
17.09539180608439
 51
320.0019657685075
 73
     0
 72
     1
 10
8.28305444104027
 20
-38.58789400463827
 11
10.58835631474131
 21
-36.65356729459038
 72
     3
 10
6.600054785286829
 20
-40.00000000000014
 11
6.60005478528683
 21
-1.278976924368180E-13
 40
0.636358354079598
 50
39.99873849337413
 51
368.4976242363724
 73
     1
 72
     1
 10
13.02538727718744
 20
-39.03999999993002
 11
5.280122092122751
 21
-39.03999999992999
 72
     1
 10
5.280122092122751
 20
-39.03999999992999
 11
5.280097047676817
 21
-40.95999999992991
 72
     1
 10
5.280097047676817
 20
-40.95999999992991
 11
9.721476817148854
 21
-40.95999999992988
 97
        0
 75
     0
 76
     1
 98
        1
 10
14.09411934298438
 20
-0.0010749287238892
  0
DIMENSION
  5
CC
330
1F
100
AcDbEntity
  8
치수문자_일반주서
100
AcDbDimension
  2
_D
 10
54.47883535775005
 20
-0.7908310570254926
 30
0.0
 11
54.47883535774998
 21
15.41875000000012
 31
0.0
 70
   160
  1
%%c<>
 71
     2
 42
1.581662114051213
 52
-270.0
  3
SLDDIMSTYLE0
100
AcDbAlignedDimension
 13
25.39999999999999
 23
0.7908310570256106
 33
0.0
 14
25.4
 24
-0.7908310570256026
 34
0.0
 50
90.0000000000002
100
AcDbRotatedDimension
1001
PE_URL
1000

1001
ACAD
1000
DSTYLE
1002
{
1070
   171
1070
     8
1070
   273
1070
     7
1070
    41
1040
2.5
1070
   140
1040
2.5
1002
}
  0
DIMENSION
  5
E1
330
1F
100
AcDbEntity
  8
치수문자_일반주서
100
AcDbDimension
  2
_D_1
 10
23.01875
 20
10.38125000000001
 30
0.0
 11
40.02499999999999
 21
10.38125000000001
 31
0.0
 70
   160
  1
<>
 71
     2
 42
2.381249999999984
  3
SLDDIMSTYLE0
100
AcDbAlignedDimension
 13
25.39999999999999
 23
0.7908310570256106
 33
0.0
 14
23.01875
 24
0.769609611590383
 34
0.0
100
AcDbRotatedDimension
1001
PE_URL
1000

1001
ACAD
1000
DSTYLE
1002
{
1070
   171
1070
     8
1070
   273
1070
     7
1070
    41
1040
2.5
1070
   140
1040
2.5
1002
}
  0
DIMENSION
  5
F6
330
1F
100
AcDbEntity
  8
치수문자_일반주서
100
AcDbDimension
  2
_D_2
 10
-25.40000000000001
 20
18.38125000000001
 30
0.0
 11
-1.296159543218772
 21
18.38125000000001
 31
0.0
 70
   160
  1
<>
 71
     2
 42
50.79999999999998
  3
SLDDIMSTYLE0
100
AcDbAlignedDimension
 13
25.39999999999999
 23
0.7908310570256106
 33
0.0
 14
-25.4
 24
0.7908310570256052
 34
0.0
100
AcDbRotatedDimension
1001
PE_URL
1000

1001
ACAD
1000
DSTYLE
1002
{
1070
   171
1070
     8
1070
   273
1070
     7
1070
    41
1040
2.5
1070
   140
1040
2.5
1002
}
  0
DIMENSION
  5
10A
330
1F
100
AcDbEntity
  8
치수문자_일반주서
100
AcDbDimension
  2
_D_3
 10
-33.40000000000001
 20
-2.381250000000065
 30
0.0
 11
-33.40000000000006
 21
17.63124999999998
 31
0.0
 70
   160
  1
%%c<>
 71
     2
 42
4.76250000000001
 52
-270.0
  3
SLDDIMSTYLE0
100
AcDbAlignedDimension
 13
-16.0941193429844
 23
2.381250000000007
 33
0.0
 14
-16.0941193429844
 24
-2.381250000000003
 34
0.0
 50
90.0000000000002
100
AcDbRotatedDimension
1001
PE_URL
1000

1001
ACAD
1000
DSTYLE
1002
{
1070
   171
1070
     8
1070
   273
1070
     7
1070
    41
1040
2.5
1070
   140
1040
2.5
1002
}
  0
LINE
  5
11E
330
1F
100
AcDbEntity
  8
참조1
100
AcDbLine
 10
82.81348381534559
 20
7.440000000000007
 30
0.0
 11
82.81348381534559
 21
-7.439999999999998
 31
0.0
  0
LINE
  5
11F
330
1F
100
AcDbEntity
  8
참조1
100
AcDbLine
 10
95.51348381534558
 20
5.440000000000007
 30
0.0
 11
82.81348381534559
 21
5.440000000000007
 31
0.0
  0
SOLID
  5
120
330
1F
100
AcDbEntity
  8
참조1
100
AcDbTrace
 10
82.81348381534559
 20
5.440000000000007
 30
0.0
 11
89.16348381534559
 21
4.424000000000007
 31
0.0
 12
89.16348381534559
 22
6.456000000000008
 32
0.0
 13
89.16348381534559
 23
6.456000000000008
 33
0.0
  0
LINE
  5
121
330
1F
100
AcDbEntity
  8
참조1
100
AcDbLine
 10
95.51348381534558
 20
-5.439999999999998
 30
0.0
 11
82.81348381534559
 21
-5.439999999999998
 31
0.0
  0
SOLID
  5
122
330
1F
100
AcDbEntity
  8
참조1
100
AcDbTrace
 10
82.81348381534559
 20
-5.439999999999998
 30
0.0
 11
89.16348381534559
 21
-6.455999999999998
 31
0.0
 12
89.16348381534559
 22
-4.423999999999998
 32
0.0
 13
89.16348381534559
 23
-4.423999999999998
 33
0.0
  0
MTEXT
  5
123
330
1F
100
AcDbEntity
  8
참조1
100
AcDbMText
 10
92.19783394797159
 20
11.01029177718834
 30
0.0
 40
3.5
 41
0.0
 71
     1
 72
     1
  1
A
  7
SLDTEXTSTYLE0
 73
     1
 44
1.0
  0
MTEXT
  5
124
330
1F
100
AcDbEntity
  8
참조1
100
AcDbMText
 10
92.19783394797159
 20
0.1302917771883327
 30
0.0
 40
3.5
 41
0.0
 71
     1
 72
     1
  1
A
  7
SLDTEXTSTYLE0
 73
     1
 44
1.0
  0
INSERT
  5
12B
330
1F
100
AcDbEntity
  8
해칭선
100
AcDbBlockReference
  2
SW_DOWELSYMBOL_0
 10
0.0
 20
0.0
 30
0.0
  0
LINE
  5
23E
330
1F
100
AcDbEntity
  8
0
  6
Continuous
 62
     1
370
    25
100
AcDbLine
 10
-23.84208756997077
 20
-0.7937500000000004
 30
0.0
 11
-23.35905479815717
 21
-0.7937500000000004
 31
0.0
1001
PE_URL
1000

  0
LINE
  5
23F
330
1F
100
AcDbEntity
  8
0
  6
Continuous
 62
     1
370
    25
100
AcDbLine
 10
-23.35905479815715
 20
0.7937499999999982
 30
0.0
 11
-23.84208756997077
 21
0.7937499999999982
 31
0.0
1001
PE_URL
1000

  0
LINE
  5
240
330
1F
100
AcDbEntity
  8
외형선
  6
Continuous
370
    15
100
AcDbLine
 10
-16.0941193429844
 20
2.381250000000007
 30
0.0
 11
-22.01874999999999
 21
0.7937499999999982
 31
0.0
  0
LINE
  5
241
330
1F
100
AcDbEntity
  8
외형선
  6
Continuous
370
    15
100
AcDbLine
 10
-22.01874999999999
 20
-0.7937500000000004
 30
0.0
 11
-16.0941193429844
 21
-2.381250000000003
 31
0.0
  0
LINE
  5
242
330
1F
100
AcDbEntity
  8
외형선
  6
Continuous
370
    15
100
AcDbLine
 10
-22.01874999999999
 20
0.79375
 30
0.0
 11
-22.51885199107794
 21
0.7937499999999982
 31
0.0
  0
LINE
  5
243
330
1F
100
AcDbEntity
  8
외형선
  6
Continuous
370
    15
100
AcDbLine
 10
-22.51885199107794
 20
-0.7937500000000004
 30
0.0
 11
-22.01874999999999
 21
-0.7937500000000004
 31
0.0
  0
SPLINE
  5
244
330
1F
100
AcDbEntity
  8
0
  6
Continuous
 62
     1
370
    25
100
AcDbSpline
210
0.0
220
0.0
230
1.0
 70
     8
 71
     3
 72
    11
 73
     7
 74
     0
 42
0.000000001
 43
0.00000001
 40
0.0
 40
0.0
 40
0.0
 40
0.0
 40
0.2680284203886134
 40
0.5362313918849215
 40
0.8049551557578262
 40
1.0
 40
1.0
 40
1.0
 40
1.0
 10
-23.01874999999869
 20
0.6554305529319329
 30
0.0
 10
-23.16664412327908
 20
0.6971813575951866
 30
0.0
 10
-23.46252868456279
 20
0.7807101567592152
 30
0.0
 10
-23.90672719756866
 20
0.8039499422306331
 30
0.0
 10
-24.31083639313687
 20
0.7646223975866604
 30
0.0
 10
-24.56696573765387
 20
0.6777368013009084
 30
0.0
 10
-24.67468477519332
 20
0.641195760579502
 30
0.0
1001
PE_URL
1000

  0
SPLINE
  5
245
330
1F
100
AcDbEntity
  8
외형선
  6
Continuous
370
    15
100
AcDbSpline
210
0.0
220
0.0
230
1.0
 70
    24
 71
     3
 72
    15
 73
    11
 74
     0
 42
0.000000001
 43
0.00000001
 40
0.0
 40
0.0
 40
0.0
 40
0.0
 40
0.0245785476833791
 40
0.1717733166637272
 40
0.3189680856440744
 40
0.4661628546244231
 40
0.6133576236043704
 40
0.7605523925808786
 40
0.9077471615654589
 40
1.0
 40
1.0
 40
1.0
 40
1.0
 10
-23.01874999999998
 20
-0.1838643372324509
 30
0.0
 10
-23.01874999999998
 20
-0.183229342627896
 30
0.0
 10
-23.01874999999998
 20
-0.1787915243038339
 30
0.0
 10
-23.01874999999995
 20
-0.1228943395274585
 30
0.0
 10
-23.01875000000005
 20
-0.0156919095381707
 30
0.0
 10
-23.01874999999998
 20
0.1291557683888295
 30
0.0
 10
-23.01874999999995
 20
0.2901922893371462
 30
0.0
 10
-23.01874999999998
 20
0.4498517210706374
 30
0.0
 10
-23.01874999999998
 20
0.5751025828636276
 30
0.0
 10
-23.01874999999998
 20
0.6330896627190377
 30
0.0
 10
-23.01874999999999
 20
0.6554305529323556
 30
0.0
  0
SPLINE
  5
246
330
1F
100
AcDbEntity
  8
0
  6
Continuous
 62
     1
370
    25
100
AcDbSpline
210
0.0
220
0.0
230
1.0
 70
     8
 71
     3
 72
    22
 73
    18
 74
     0
 42
0.000000001
 43
0.00000001
 40
0.0
 40
0.0
 40
0.0
 40
0.0
 40
0.125
 40
0.125
 40
0.25
 40
0.25
 40
0.375
 40
0.375
 40
0.5
 40
0.5
 40
0.625
 40
0.625
 40
0.75
 40
0.75
 40
0.875
 40
0.875
 40
1.0
 40
1.0
 40
1.0
 40
1.0
 10
-25.4
 20
0.7908310570256052
 30
0.0
 10
-25.30266936107083
 20
0.7859534462660764
 30
0.0
 10
-25.20219040335016
 20
0.7748498787745575
 30
0.0
 10
-25.00185186814598
 20
0.7406173706562427
 30
0.0
 10
-24.90371746989668
 20
0.7176672796663996
 30
0.0
 10
-24.70695920691756
 20
0.6610231729406066
 30
0.0
 10
-24.60605525425115
 20
0.627041380466635
 30
0.0
 10
-24.40620955767759
 20
0.5499709073354324
 30
0.0
 10
-24.30935017056529
 20
0.5072477633272576
 30
0.0
 10
-24.11095873450967
 20
0.4139360767929474
 30
0.0
 10
-24.00988213366006
 20
0.3633488836481564
 30
0.0
 10
-23.81101808074242
 20
0.2578266133688582
 30
0.0
 10
-23.71435386809545
 20
0.2031444493069745
 30
0.0
 10
-23.51480623236314
 20
0.0903271226494044
 30
0.0
 10
-23.41381078719086
 20
0.0325308378074804
 30
0.0
 10
-23.216409184882
 20
-0.081797881052631
 30
0.0
 10
-23.11885873197716
 20
-0.1385536516414281
 30
0.0
 10
-23.01874999999736
 20
-0.1942681348862306
 30
0.0
1001
PE_URL
1000

  0
LINE
  5
247
330
1F
100
AcDbEntity
  8
0
  6
Continuous
 62
     1
370
    25
100
AcDbLine
 10
-25.4
 20
0.7188845709717462
 30
0.0
 11
-25.4
 21
-0.0680095709717599
 31
0.0
1001
PE_URL
1000

  0
SPLINE
  5
248
330
1F
100
AcDbEntity
  8
0
  6
Continuous
 62
     1
370
    25
100
AcDbSpline
210
0.0
220
0.0
230
1.0
 70
     8
 71
     3
 72
    22
 73
    18
 74
     0
 42
0.000000001
 43
0.00000001
 40
0.0
 40
0.0
 40
0.0
 40
0.0
 40
0.125
 40
0.125
 40
0.25
 40
0.25
 40
0.375
 40
0.375
 40
0.5
 40
0.5
 40
0.625
 40
0.625
 40
0.75
 40
0.75
 40
0.875
 40
0.875
 40
1.0
 40
1.0
 40
1.0
 40
1.0
 10
-25.4
 20
0.7188845709717462
 30
0.0
 10
-25.30266936107089
 20
0.6947497114871506
 30
0.0
 10
-25.20219040335028
 20
0.664744606664917
 30
0.0
 10
-25.00185186814622
 20
0.5947759139996147
 30
0.0
 10
-24.90371746989694
 20
0.5550857912681593
 30
0.0
 10
-24.70695920691795
 20
0.4677005131802853
 30
0.0
 10
-24.60605525425158
 20
0.4196171116267037
 30
0.0
 10
-24.40620955767817
 20
0.3179114828291271
 30
0.0
 10
-24.30935017056589
 20
0.2647082479660969
 30
0.0
 10
-24.11095873451039
 20
0.1541949985944774
 30
0.0
 10
-24.00988213366084
 20
0.0969388829360855
 30
0.0
 10
-23.81101808074329
 20
-0.0175826406186144
 30
0.0
 10
-23.71435386809641
 20
-0.0746223329655742
 30
0.0
 10
-23.51480623236421
 20
-0.1878384889035776
 30
0.0
 10
-23.41381078719198
 20
-0.2436292389623039
 30
0.0
 10
-23.21640918488318
 20
-0.3497229025941285
 30
0.0
 10
-23.11885873197843
 20
-0.4002675650254866
 30
0.0
 10
-23.01874999999869
 20
-0.4477162637020745
 30
0.0
1001
PE_URL
1000

  0
SPLINE
  5
249
330
1F
100
AcDbEntity
  8
외형선
  6
Continuous
370
    15
100
AcDbSpline
210
0.0
220
0.0
230
1.0
 70
    24
 71
     3
 72
    10
 73
     6
 74
     0
 42
0.000000001
 43
0.00000001
 40
0.0
 40
0.0
 40
0.0
 40
0.0
 40
0.4657281300271855
 40
0.9939090054924422
 40
1.0
 40
1.0
 40
1.0
 40
1.0
 10
-23.01875
 20
-0.7696096115903803
 30
0.0
 10
-23.01874999999999
 20
-0.7229616138919568
 30
0.0
 10
-23.01874999999998
 20
-0.6234102619090998
 30
0.0
 10
-23.01875000000001
 20
-0.5210780534421826
 30
0.0
 10
-23.01875
 20
-0.4815293399373009
 30
0.0
 10
-23.01875
 20
-0.4810784627523355
 30
0.0
  0
SPLINE
  5
24A
330
1F
100
AcDbEntity
  8
0
  6
Continuous
 62
     1
370
    25
100
AcDbSpline
210
0.0
220
0.0
230
1.0
 70
     8
 71
     3
 72
    22
 73
    18
 74
     0
 42
0.000000001
 43
0.00000001
 40
0.0
 40
0.0
 40
0.0
 40
0.0
 40
0.125
 40
0.125
 40
0.25
 40
0.25
 40
0.375
 40
0.375
 40
0.5
 40
0.5
 40
0.625
 40
0.625
 40
0.75
 40
0.75
 40
0.875
 40
0.875
 40
1.0
 40
1.0
 40
1.0
 40
1.0
 10
-25.4
 20
-0.0680095709717599
 30
0.0
 10
-25.30266936107083
 20
-0.1247275595960241
 30
0.0
 10
-25.20219040335016
 20
-0.1815212097393116
 30
0.0
 10
-25.00185186814598
 20
-0.2912528017108252
 30
0.0
 10
-24.90371746989668
 20
-0.3438845277077126
 30
0.0
 10
-24.70695920691756
 20
-0.4431153997956543
 30
0.0
 10
-24.60605525425115
 20
-0.4900571126781544
 30
0.0
 10
-24.40620955767759
 20
-0.5752120196836963
 30
0.0
 10
-24.30935017056529
 20
-0.6132051678737291
 30
0.0
 10
-24.11095873450967
 20
-0.6796894847184387
 30
0.0
 10
-24.00988213366006
 20
-0.7080280077290297
 30
0.0
 10
-23.81101808074242
 20
-0.7528954166521686
 30
0.0
 10
-23.71435386809545
 20
-0.7694582002621353
 30
0.0
 10
-23.51480623236314
 20
-0.7906798341609307
 30
0.0
 10
-23.41381078719086
 20
-0.7951425792905227
 30
0.0
 10
-23.216409184882
 20
-0.7915927510181853
 30
0.0
 10
-23.11885873197716
 20
-0.7836732986737236
 30
0.0
 10
-23.01874999999736
 20
-0.7696096116004683
 30
0.0
1001
PE_URL
1000

  0
LINE
  5
24B
330
1F
100
AcDbEntity
  8
0
  6
Continuous
 62
     1
370
    25
100
AcDbLine
 10
-25.4
 20
0.7908310570256052
 30
0.0
 11
-25.4
 21
0.7188845709717462
 31
0.0
1001
PE_URL
1000

  0
LINE
  5
24C
330
1F
100
AcDbEntity
  8
외형선
  6
Continuous
370
    15
100
AcDbLine
 10
-23.01875
 20
-0.1942681348847544
 30
0.0
 11
-23.01874999999999
 21
-0.4477162637014581
 31
0.0
  0
SPLINE
  5
24D
330
1F
100
AcDbEntity
  8
0
  6
Continuous
 62
     1
370
    25
100
AcDbSpline
210
0.0
220
0.0
230
1.0
 70
     8
 71
     3
 72
    11
 73
     7
 74
     0
 42
0.000000001
 43
0.00000001
 40
0.0
 40
0.0
 40
0.0
 40
0.0
 40
0.0413527301197406
 40
0.3270932379591444
 40
0.6635331169385161
 40
1.0
 40
1.0
 40
1.0
 40
1.0
 10
-23.84208756997077
 20
-0.7886368334943292
 30
0.0
 10
-23.86354914257014
 20
-0.7902736973976314
 30
0.0
 10
-24.03330662298058
 20
-0.80322101944092
 30
0.0
 10
-24.37785275840641
 20
-0.743378462852575
 30
0.0
 10
-24.8757644710888
 20
-0.5978018833428156
 30
0.0
 10
-25.22525014868508
 20
-0.4236146327550501
 30
0.0
 10
-25.4
 20
-0.3365175123507876
 30
0.0
1001
PE_URL
1000

  0
LINE
  5
24E
330
1F
100
AcDbEntity
  8
0
  6
Continuous
 62
     1
370
    25
100
AcDbLine
 10
-25.4
 20
-0.0680095709717599
 30
0.0
 11
-25.4
 21
-0.3365175123507876
 31
0.0
1001
PE_URL
1000

  0
SPLINE
  5
24F
330
1F
100
AcDbEntity
  8
0
  6
Continuous
 62
     1
370
    25
100
AcDbSpline
210
0.0
220
0.0
230
1.0
 70
     8
 71
     3
 72
     9
 73
     5
 74
     0
 42
0.000000001
 43
0.00000001
 40
0.0
 40
0.0
 40
0.0
 40
0.0
 40
0.6141937095470483
 40
1.0
 40
1.0
 40
1.0
 40
1.0
 10
-25.4
 20
-0.7908310570256092
 30
0.0
 10
-25.25145692333846
 20
-0.7776937141844009
 30
0.0
 10
-25.00960638929262
 20
-0.7563041384902818
 30
0.0
 10
-24.76792642550068
 20
-0.6732417518466527
 30
0.0
 10
-24.67468477519331
 20
-0.641195760579506
 30
0.0
1001
PE_URL
1000

  0
LINE
  5
250
330
1F
100
AcDbEntity
  8
0
  6
Continuous
 62
     1
370
    25
100
AcDbLine
 10
-25.4
 20
-0.3365175123507876
 30
0.0
 11
-25.4
 21
-0.7908310570256092
 31
0.0
1001
PE_URL
1000

  0
LINE
  5
251
330
1F
100
AcDbEntity
  8
0
  6
Continuous
 62
     1
370
    25
100
AcDbLine
 10
-23.35905479815715
 20
0.7806814686564774
 30
0.0
 11
-23.01874999999736
 21
0.7696096116004678
 31
0.0
1001
PE_URL
1000

  0
LINE
  5
252
330
1F
100
AcDbEntity
  8
외형선
  6
Continuous
370
    15
100
AcDbLine
 10
-23.01874999999999
 20
0.7696096116008408
 30
0.0
 11
-23.01874999999999
 21
0.6554305529323556
 31
0.0
  0
LINE
  5
253
330
1F
100
AcDbEntity
  8
외형선
  6
Continuous
370
    15
100
AcDbLine
 10
-22.01874999999999
 20
-0.0000000000000012
 30
0.0
 11
-22.01874999999999
 21
-0.7937500000000004
 31
0.0
  0
LINE
  5
254
330
1F
100
AcDbEntity
  8
외형선
  6
Continuous
370
    15
100
AcDbLine
 10
-22.01874999999999
 20
0.7937499999999982
 30
0.0
 11
-22.01874999999999
 21
-0.0000000000000012
 31
0.0
  0
LINE
  5
255
330
1F
100
AcDbEntity
  8
외형선
  6
Continuous
370
    15
100
AcDbLine
 10
-16.0941193429844
 20
0.0000000000000024
 30
0.0
 11
-16.0941193429844
 21
-2.381250000000003
 31
0.0
  0
LINE
  5
256
330
1F
100
AcDbEntity
  8
외형선
  6
Continuous
370
    15
100
AcDbLine
 10
-16.0941193429844
 20
2.381250000000007
 30
0.0
 11
-16.0941193429844
 21
0.0000000000000024
 31
0.0
  0
LINE
  5
257
330
1F
100
AcDbEntity
  8
외형선
  6
Continuous
370
    15
100
AcDbLine
 10
-22.51885199107794
 20
-0.6515779279844882
 30
0.0
 11
-22.51885199107794
 21
-0.7937500000000004
 31
0.0
  0
SPLINE
  5
258
330
1F
100
AcDbEntity
  8
외형선
  6
Continuous
370
    15
100
AcDbSpline
210
0.0
220
0.0
230
1.0
 70
     8
 71
     3
 72
    10
 73
     6
 74
     0
 42
0.000000001
 43
0.00000001
 40
0.0
 40
0.0
 40
0.0
 40
0.0
 40
0.5
 40
0.5
 40
1.0
 40
1.0
 40
1.0
 40
1.0
 10
-23.0187499999987
 20
-0.447716263702062
 30
0.0
 10
-22.93465010343185
 20
-0.4875772285951226
 30
0.0
 10
-22.85015475452544
 20
-0.5249933953499799
 30
0.0
 10
-22.6845283049174
 20
-0.5931755114924322
 30
0.0
 10
-22.602771824531
 20
-0.6240716465864768
 30
0.0
 10
-22.51885199107795
 20
-0.651616950950417
 30
0.0
  0
SPLINE
  5
259
330
1F
100
AcDbEntity
  8
외형선
  6
Continuous
370
    15
100
AcDbSpline
210
0.0
220
0.0
230
1.0
 70
     8
 71
     3
 72
    10
 73
     6
 74
     0
 42
0.000000001
 43
0.00000001
 40
0.0
 40
0.0
 40
0.0
 40
0.0
 40
0.5
 40
0.5
 40
1.0
 40
1.0
 40
1.0
 40
1.0
 10
-23.0187499999987
 20
-0.1942681348854827
 30
0.0
 10
-22.93465010343185
 20
-0.24107306573917
 30
0.0
 10
-22.85015475452542
 20
-0.28686123606646
 30
0.0
 10
-22.68452830491738
 20
-0.3741896617273668
 30
0.0
 10
-22.60277182453098
 20
-0.4158666865949024
 30
0.0
 10
-22.51885199107795
 20
-0.4553771442688508
 30
0.0
  0
LINE
  5
25A
330
1F
100
AcDbEntity
  8
외형선
  6
Continuous
370
    15
100
AcDbLine
 10
-22.51885199107794
 20
0.4533048270903889
 30
0.0
 11
-22.51885199107794
 21
-0.4553946276922958
 31
0.0
  0
SPLINE
  5
25B
330
1F
100
AcDbEntity
  8
외형선
  6
Continuous
370
    15
100
AcDbSpline
210
0.0
220
0.0
230
1.0
 70
     8
 71
     3
 72
    10
 73
     6
 74
     0
 42
0.000000001
 43
0.00000001
 40
0.0
 40
0.0
 40
0.0
 40
0.0
 40
0.5
 40
0.5
 40
1.0
 40
1.0
 40
1.0
 40
1.0
 10
-23.0187499999987
 20
0.6554305529319417
 30
0.0
 10
-22.93465010343185
 20
0.6282020354488196
 30
0.0
 10
-22.85015475452544
 20
0.5972666930334227
 30
0.0
 10
-22.6845283049174
 20
0.5296115371986072
 30
0.0
 10
-22.602771824531
 20
0.492849475191442
 30
0.0
 10
-22.51885199107795
 20
0.4532487305377574
 30
0.0
  0
SPLINE
  5
25C
330
1F
100
AcDbEntity
  8
외형선
  6
Continuous
370
    15
100
AcDbSpline
210
0.0
220
0.0
230
1.0
 70
     8
 71
     3
 72
    10
 73
     6
 74
     0
 42
0.000000001
 43
0.00000001
 40
0.0
 40
0.0
 40
0.0
 40
0.0
 40
0.5
 40
0.5
 40
1.0
 40
1.0
 40
1.0
 40
1.0
 10
-23.0187499999987
 20
0.7696096116006561
 30
0.0
 10
-22.93465010343185
 20
0.7577949116757441
 30
0.0
 10
-22.85015475452542
 20
0.741657737106945
 30
0.0
 10
-22.68452830491738
 20
0.7016606479093219
 30
0.0
 10
-22.60277182453098
 20
0.6778059635693701
 30
0.0
 10
-22.51885199107795
 20
0.6501313090272951
 30
0.0
  0
LINE
  5
25D
330
1F
100
AcDbEntity
  8
외형선
  6
Continuous
370
    15
100
AcDbLine
 10
-22.51885199107794
 20
0.7937499999999982
 30
0.0
 11
-22.51885199107794
 21
0.6501190626100672
 31
0.0
  0
SPLINE
  5
25E
330
1F
100
AcDbEntity
  8
외형선
  6
Continuous
370
    15
100
AcDbSpline
210
0.0
220
0.0
230
1.0
 70
     8
 71
     3
 72
    10
 73
     6
 74
     0
 42
0.000000001
 43
0.00000001
 40
0.0
 40
0.0
 40
0.0
 40
0.0
 40
0.5
 40
0.5
 40
1.0
 40
1.0
 40
1.0
 40
1.0
 10
-23.0187499999987
 20
-0.7696096116006566
 30
0.0
 10
-22.93465010343185
 20
-0.7577949116757445
 30
0.0
 10
-22.85015475452542
 20
-0.7416577371069455
 30
0.0
 10
-22.68452830491738
 20
-0.7016606479093206
 30
0.0
 10
-22.60277182453098
 20
-0.6778059635693687
 30
0.0
 10
-22.51885199107795
 20
-0.650131309027292
 30
0.0
  0
SPLINE
  5
25F
330
1F
100
AcDbEntity
  8
외형선
  6
Continuous
370
    15
100
AcDbSpline
210
0.0
220
0.0
230
1.0
 70
    24
 71
     3
 72
    15
 73
    11
 74
     0
 42
0.000000001
 43
0.00000001
 40
0.0
 40
0.0
 40
0.0
 40
0.0
 40
0.1079535753486819
 40
0.2546967668311287
 40
0.4014399583116908
 40
0.5481831497976701
 40
0.6949263412806667
 40
0.8416695327636472
 40
0.9884127242464874
 40
1.0
 40
1.0
 40
1.0
 40
1.0
 10
-23.01874999999999
 20
0.655430552932361
 30
0.0
 10
-23.01875000000002
 20
0.6288662006339798
 30
0.0
 10
-23.01875000000005
 20
0.5661924575781583
 30
0.0
 10
-23.01875
 20
0.432959514200603
 30
0.0
 10
-23.01875000000001
 20
0.2723313962012656
 30
0.0
 10
-23.01874999999998
 20
0.1122974106312948
 30
0.0
 10
-23.01875000000003
 20
-0.0296618020569722
 30
0.0
 10
-23.01875000000002
 20
-0.1322994204530031
 30
0.0
 10
-23.01874999999993
 20
-0.1822987718902803
 30
0.0
 10
-23.01875000000003
 20
-0.1859341866062335
 30
0.0
 10
-23.01875000000003
 20
-0.1862002412293731
 30
0.0
  0
SPLINE
  5
260
330
1F
100
AcDbEntity
  8
외형선
  6
Continuous
370
    15
100
AcDbSpline
210
0.0
220
0.0
230
1.0
 70
    24
 71
     3
 72
    10
 73
     6
 74
     0
 42
0.000000001
 43
0.00000001
 40
0.0
 40
0.0
 40
0.0
 40
0.0
 40
0.0700458706604071
 40
0.5945016643698573
 40
1.0
 40
1.0
 40
1.0
 40
1.0
 10
-23.01875000000001
 20
-0.4810884627523351
 30
0.0
 10
-23.01875
 20
-0.4864183216662846
 30
0.0
 10
-23.01874999999995
 20
-0.5316545356689713
 30
0.0
 10
-23.01875000000004
 20
-0.6345955675722703
 30
0.0
 10
-23.01875000000003
 20
-0.7286137906515624
 30
0.0
 10
-23.01875000000001
 20
-0.7696096116009585
 30
0.0
  0
ENDSEC
  0
SECTION
  2
OBJECTS
  0
DICTIONARY
  5
C
330
0
100
AcDbDictionary
281
     1
  3
ACAD_GROUP
350
D
  3
ACAD_IMAGE_VARS
350
284
  3
ACAD_LAYOUT
350
1A
  3
ACAD_MLINESTYLE
350
17
  3
ACAD_PLOTSETTINGS
350
19
  3
ACAD_PLOTSTYLENAME
350
E
  3
ACAD_SCALELIST
350
47
  3
APPDATA
350
14D
  3
DWGPROPS
350
285
  0
DICTIONARY
  5
D
102
{ACAD_REACTORS
330
C
102
}
330
C
100
AcDbDictionary
281
     1
  0
RASTERVARIABLES
  5
284
102
{ACAD_REACTORS
330
C
102
}
330
C
100
AcDbRasterVariables
 90
        0
 70
     1
 71
     1
 72
     1
  0
DICTIONARY
  5
1A
102
{ACAD_REACTORS
330
C
102
}
330
C
100
AcDbDictionary
281
     1
  3
Layout1
350
1E
  3
Layout2
350
26
  3
Model
350
22
  0
DICTIONARY
  5
17
102
{ACAD_REACTORS
330
C
102
}
330
C
100
AcDbDictionary
281
     1
  3
Standard
350
18
  0
DICTIONARY
  5
19
102
{ACAD_REACTORS
330
C
102
}
330
C
100
AcDbDictionary
281
     1
  0
ACDBDICTIONARYWDFLT
  5
E
102
{ACAD_REACTORS
330
C
102
}
330
C
100
AcDbDictionary
281
     1
  3
Normal
350
F
100
AcDbDictionaryWithDefault
340
F
  0
DICTIONARY
  5
47
102
{ACAD_REACTORS
330
C
102
}
330
C
100
AcDbDictionary
281
     1
  3
A0
350
48
  3
A1
350
49
  3
A2
350
4A
  3
A3
350
4B
  3
A4
350
4C
  3
A5
350
4D
  3
A6
350
4E
  3
A7
350
4F
  3
A8
350
50
  3
A9
350
51
  3
B0
350
52
  3
B1
350
53
  3
B2
350
54
  3
B3
350
55
  3
B4
350
56
  3
B5
350
57
  3
B6
350
58
  3
B7
350
59
  3
B8
350
5A
  3
B9
350
5B
  3
C0
350
5C
  3
C1
350
5D
  3
C2
350
5E
  3
C3
350
5F
  3
C4
350
60
  3
C5
350
61
  3
C6
350
62
  3
C7
350
63
  3
C8
350
64
  3
C9
350
65
  3
D0
350
66
  3
D1
350
67
  3
D2
350
68
  0
DICTIONARY
  5
14D
102
{ACAD_REACTORS
330
C
102
}
330
C
100
AcDbDictionary
281
     1
  0
XRECORD
  5
285
102
{ACAD_REACTORS
330
C
102
}
330
C
100
AcDbXrecord
280
     1
  1
DWGPROPS COOKIE
  2

  3

  4

  6

  7

  8
12016016
  9

300
=
301
=
302
=
303
=
304
=
305
=
306
=
307
=
308
=
309
=
 40
0.0
 41
2458313.080352234
 42
2458318.273032269
  1

 90
        0
  0
LAYOUT
  5
1E
102
{ACAD_REACTORS
330
1A
102
}
330
1A
100
AcDbPlotSettings
  1

  2
none_device
  4

  6

 40
0.0
 41
0.0
 42
0.0
 43
0.0
 44
0.0
 45
0.0
 46
0.0
 47
0.0
 48
0.0
 49
0.0
140
0.0
141
0.0
142
1.0
143
1.0
 70
   688
 72
     1
 73
     0
 74
     5
  7

 75
    16
147
1.0
148
0.0
149
0.0
100
AcDbLayout
  1
Layout1
 70
     1
 71
     1
 10
0.0
 20
0.0
 11
420.0
 21
297.0
 12
0.0
 22
0.0
 32
0.0
 14
1.000000000000000E+20
 24
1.000000000000000E+20
 34
1.000000000000000E+20
 15
-1.000000000000000E+20
 25
-1.000000000000000E+20
 35
-1.000000000000000E+20
146
0.0
 13
0.0
 23
0.0
 33
0.0
 16
1.0
 26
0.0
 36
0.0
 17
0.0
 27
1.0
 37
0.0
 76
     0
330
1B
  0
LAYOUT
  5
26
102
{ACAD_REACTORS
330
1A
102
}
330
1A
100
AcDbPlotSettings
  1

  2
none_device
  4

  6

 40
0.0
 41
0.0
 42
0.0
 43
0.0
 44
0.0
 45
0.0
 46
0.0
 47
0.0
 48
0.0
 49
0.0
140
0.0
141
0.0
142
1.0
143
1.0
 70
   688
 72
     1
 73
     0
 74
     5
  7

 75
    16
147
1.0
148
0.0
149
0.0
100
AcDbLayout
  1
Layout2
 70
     1
 71
     2
 10
0.0
 20
0.0
 11
0.0
 21
0.0
 12
0.0
 22
0.0
 32
0.0
 14
0.0
 24
0.0
 34
0.0
 15
0.0
 25
0.0
 35
0.0
146
0.0
 13
0.0
 23
0.0
 33
0.0
 16
1.0
 26
0.0
 36
0.0
 17
0.0
 27
1.0
 37
0.0
 76
     0
330
23
  0
LAYOUT
  5
22
102
{ACAD_REACTORS
330
1A
102
}
330
1A
100
AcDbPlotSettings
  1

  2
none_device
  4
ANSI_A_(11.00_x_8.50_Inches)
  6

 40
6.35
 41
19.05
 42
6.35000508
 43
19.05000254
 44
279.4
 45
215.9
 46
116.0200047679344
 47
80.81387414645758
 48
0.0
 49
0.0
140
0.0
141
0.0
142
0.0752558462788414
143
1.0
 70
  1696
 72
     0
 73
     0
 74
     0
  7

 75
     0
147
0.0235690232323232
148
0.0
149
0.0
100
AcDbLayout
  1
Model
 70
     1
 71
     0
 10
0.0
 20
0.0
 11
420.0
 21
297.0
 12
0.0
 22
0.0
 32
0.0
 14
-36.77500000000009
 24
-49.97180738881174
 34
0.0
 15
95.51348381534558
 25
27.88124999999998
 35
0.0
146
0.0
 13
0.0
 23
0.0
 33
0.0
 16
1.0
 26
0.0
 36
0.0
 17
0.0
 27
1.0
 37
0.0
 76
     0
330
1F
331
29
  0
MLINESTYLE
  5
18
102
{ACAD_REACTORS
330
17
102
}
330
17
100
AcDbMlineStyle
  2
Standard
 70
     0
  3

 62
   256
 51
90.0
 52
90.0
 71
     2
 49
0.5
 62
   256
  6
BYLAYER
 49
-0.5
 62
   256
  6
BYLAYER
  0
ACDBPLACEHOLDER
  5
F
102
{ACAD_REACTORS
330
E
102
}
330
E
  0
SCALE
  5
48
102
{ACAD_REACTORS
330
47
102
}
330
47
100
AcDbScale
 70
     0
300
1:1
140
1.0
141
1.0
290
     1
  0
SCALE
  5
49
102
{ACAD_REACTORS
330
47
102
}
330
47
100
AcDbScale
 70
     0
300
1:2
140
1.0
141
2.0
290
     0
  0
SCALE
  5
4A
102
{ACAD_REACTORS
330
47
102
}
330
47
100
AcDbScale
 70
     0
300
1:4
140
1.0
141
4.0
290
     0
  0
SCALE
  5
4B
102
{ACAD_REACTORS
330
47
102
}
330
47
100
AcDbScale
 70
     0
300
1:5
140
1.0
141
5.0
290
     0
  0
SCALE
  5
4C
102
{ACAD_REACTORS
330
47
102
}
330
47
100
AcDbScale
 70
     0
300
1:8
140
1.0
141
8.0
290
     0
  0
SCALE
  5
4D
102
{ACAD_REACTORS
330
47
102
}
330
47
100
AcDbScale
 70
     0
300
1:10
140
1.0
141
10.0
290
     0
  0
SCALE
  5
4E
102
{ACAD_REACTORS
330
47
102
}
330
47
100
AcDbScale
 70
     0
300
1:16
140
1.0
141
16.0
290
     0
  0
SCALE
  5
4F
102
{ACAD_REACTORS
330
47
102
}
330
47
100
AcDbScale
 70
     0
300
1:20
140
1.0
141
20.0
290
     0
  0
SCALE
  5
50
102
{ACAD_REACTORS
330
47
102
}
330
47
100
AcDbScale
 70
     0
300
1:30
140
1.0
141
30.0
290
     0
  0
SCALE
  5
51
102
{ACAD_REACTORS
330
47
102
}
330
47
100
AcDbScale
 70
     0
300
1:40
140
1.0
141
40.0
290
     0
  0
SCALE
  5
52
102
{ACAD_REACTORS
330
47
102
}
330
47
100
AcDbScale
 70
     0
300
1:50
140
1.0
141
50.0
290
     0
  0
SCALE
  5
53
102
{ACAD_REACTORS
330
47
102
}
330
47
100
AcDbScale
 70
     0
300
1:100
140
1.0
141
100.0
290
     0
  0
SCALE
  5
54
102
{ACAD_REACTORS
330
47
102
}
330
47
100
AcDbScale
 70
     0
300
2:1
140
2.0
141
1.0
290
     0
  0
SCALE
  5
55
102
{ACAD_REACTORS
330
47
102
}
330
47
100
AcDbScale
 70
     0
300
4:1
140
4.0
141
1.0
290
     0
  0
SCALE
  5
56
102
{ACAD_REACTORS
330
47
102
}
330
47
100
AcDbScale
 70
     0
300
8:1
140
8.0
141
1.0
290
     0
  0
SCALE
  5
57
102
{ACAD_REACTORS
330
47
102
}
330
47
100
AcDbScale
 70
     0
300
10:1
140
10.0
141
1.0
290
     0
  0
SCALE
  5
58
102
{ACAD_REACTORS
330
47
102
}
330
47
100
AcDbScale
 70
     0
300
100:1
140
100.0
141
1.0
290
     0
  0
SCALE
  5
59
102
{ACAD_REACTORS
330
47
102
}
330
47
100
AcDbScale
 70
     0
300
1/128" = 1'-0"
140
0.0078125
141
12.0
290
     0
  0
SCALE
  5
5A
102
{ACAD_REACTORS
330
47
102
}
330
47
100
AcDbScale
 70
     0
300
1/64" = 1'-0"
140
0.015625
141
12.0
290
     0
  0
SCALE
  5
5B
102
{ACAD_REACTORS
330
47
102
}
330
47
100
AcDbScale
 70
     0
300
1/32" = 1'-0"
140
0.03125
141
12.0
290
     0
  0
SCALE
  5
5C
102
{ACAD_REACTORS
330
47
102
}
330
47
100
AcDbScale
 70
     0
300
1/16" = 1'-0"
140
0.0625
141
12.0
290
     0
  0
SCALE
  5
5D
102
{ACAD_REACTORS
330
47
102
}
330
47
100
AcDbScale
 70
     0
300
3/32" = 1'-0"
140
0.09375
141
12.0
290
     0
  0
SCALE
  5
5E
102
{ACAD_REACTORS
330
47
102
}
330
47
100
AcDbScale
 70
     0
300
1/8" = 1'-0"
140
0.125
141
12.0
290
     0
  0
SCALE
  5
5F
102
{ACAD_REACTORS
330
47
102
}
330
47
100
AcDbScale
 70
     0
300
3/16" = 1'-0"
140
0.1875
141
12.0
290
     0
  0
SCALE
  5
60
102
{ACAD_REACTORS
330
47
102
}
330
47
100
AcDbScale
 70
     0
300
1/4" = 1'-0"
140
0.25
141
12.0
290
     0
  0
SCALE
  5
61
102
{ACAD_REACTORS
330
47
102
}
330
47
100
AcDbScale
 70
     0
300
3/8" = 1'-0"
140
0.375
141
12.0
290
     0
  0
SCALE
  5
62
102
{ACAD_REACTORS
330
47
102
}
330
47
100
AcDbScale
 70
     0
300
1/2" = 1'-0"
140
0.5
141
12.0
290
     0
  0
SCALE
  5
63
102
{ACAD_REACTORS
330
47
102
}
330
47
100
AcDbScale
 70
     0
300
3/4" = 1'-0"
140
0.75
141
12.0
290
     0
  0
SCALE
  5
64
102
{ACAD_REACTORS
330
47
102
}
330
47
100
AcDbScale
 70
     0
300
1" = 1'-0"
140
1.0
141
12.0
290
     0
  0
SCALE
  5
65
102
{ACAD_REACTORS
330
47
102
}
330
47
100
AcDbScale
 70
     0
300
1-1/2" = 1'-0"
140
1.5
141
12.0
290
     0
  0
SCALE
  5
66
102
{ACAD_REACTORS
330
47
102
}
330
47
100
AcDbScale
 70
     0
300
3" = 1'-0"
140
3.0
141
12.0
290
     0
  0
SCALE
  5
67
102
{ACAD_REACTORS
330
47
102
}
330
47
100
AcDbScale
 70
     0
300
6" = 1'-0"
140
6.0
141
12.0
290
     0
  0
SCALE
  5
68
102
{ACAD_REACTORS
330
47
102
}
330
47
100
AcDbScale
 70
     0
300
1'-0" = 1'-0"
140
12.0
141
12.0
290
     0
  0
ENDSEC
  0
EOF
