  0
SECTION
  2
HEADER
  9
$ACADVER
  1
AC1015
  9
$ACADMAINTVER
 70
     6
  9
$DWGCODEPAGE
  3
ANSI_949
  9
$INSBASE
 10
0.0
 20
0.0
 30
0.0
  9
$EXTMIN
 10
-67.92250000000007
 20
-49.97073246008785
 30
0.0
  9
$EXTMAX
 10
183.5075997364777
 20
51.52338386579976
 30
0.0
  9
$LIMMIN
 10
0.0
 20
0.0
  9
$LIMMAX
 10
420.0
 20
297.0
  9
$ORTHOMODE
 70
     0
  9
$REGENMODE
 70
     1
  9
$FILLMODE
 70
     1
  9
$QTEXTMODE
 70
     0
  9
$MIRRTEXT
 70
     1
  9
$LTSCALE
 40
1.0
  9
$ATTMODE
 70
     1
  9
$TEXTSIZE
 40
3.5
  9
$TRACEWID
 40
1.0
  9
$TEXTSTYLE
  7
Standard
  9
$CLAYER
  8
0
  9
$CELTYPE
  6
ByLayer
  9
$CECOLOR
 62
   256
  9
$CELTSCALE
 40
1.0
  9
$DISPSILH
 70
     0
  9
$DIMSCALE
 40
1.0
  9
$DIMASZ
 40
3.302
  9
$DIMEXO
 40
1.0
  9
$DIMDLI
 40
3.75
  9
$DIMRND
 40
0.0
  9
$DIMDLE
 40
0.0
  9
$DIMEXE
 40
1.0
  9
$DIMTP
 40
0.0
  9
$DIMTM
 40
0.0
  9
$DIMTXT
 40
3.5
  9
$DIMCEN
 40
2.5
  9
$DIMTSZ
 40
0.0
  9
$DIMTOL
 70
     0
  9
$DIMLIM
 70
     0
  9
$DIMTIH
 70
     1
  9
$DIMTOH
 70
     1
  9
$DIMSE1
 70
     0
  9
$DIMSE2
 70
     0
  9
$DIMTAD
 70
     1
  9
$DIMZIN
 70
     0
  9
$DIMBLK
  1

  9
$DIMASO
 70
     1
  9
$DIMSHO
 70
     1
  9
$DIMPOST
  1

  9
$DIMAPOST
  1

  9
$DIMALT
 70
     0
  9
$DIMALTD
 70
     3
  9
$DIMALTF
 40
0.0393700787401575
  9
$DIMLFAC
 40
1.0
  9
$DIMTOFL
 70
     1
  9
$DIMTVP
 40
0.0
  9
$DIMTIX
 70
     0
  9
$DIMSOXD
 70
     0
  9
$DIMSAH
 70
     0
  9
$DIMBLK1
  1

  9
$DIMBLK2
  1

  9
$DIMSTYLE
  2
ISO-25
  9
$DIMCLRD
 70
     0
  9
$DIMCLRE
 70
     0
  9
$DIMCLRT
 70
     0
  9
$DIMTFAC
 40
1.0
  9
$DIMGAP
 40
1.524
  9
$DIMJUST
 70
     0
  9
$DIMSD1
 70
     0
  9
$DIMSD2
 70
     0
  9
$DIMTOLJ
 70
     0
  9
$DIMTZIN
 70
     0
  9
$DIMALTZ
 70
     0
  9
$DIMALTTZ
 70
     0
  9
$DIMUPT
 70
     0
  9
$DIMDEC
 70
     2
  9
$DIMTDEC
 70
     2
  9
$DIMALTU
 70
     2
  9
$DIMALTTD
 70
     3
  9
$DIMTXSTY
  7
Standard
  9
$DIMAUNIT
 70
     0
  9
$DIMADEC
 70
     2
  9
$DIMALTRND
 40
0.0
  9
$DIMAZIN
 70
     0
  9
$DIMDSEP
 70
    44
  9
$DIMATFIT
 70
     3
  9
$DIMFRAC
 70
     0
  9
$DIMLDRBLK
  1

  9
$DIMLUNIT
 70
     2
  9
$DIMLWD
 70
    -2
  9
$DIMLWE
 70
    -2
  9
$DIMTMOVE
 70
     0
  9
$LUNITS
 70
     2
  9
$LUPREC
 70
     2
  9
$SKETCHINC
 40
1.0
  9
$FILLETRAD
 40
10.0
  9
$AUNITS
 70
     0
  9
$AUPREC
 70
     2
  9
$MENU
  1
.
  9
$ELEVATION
 40
0.0
  9
$PELEVATION
 40
0.0
  9
$THICKNESS
 40
0.0
  9
$LIMCHECK
 70
     0
  9
$CHAMFERA
 40
0.0
  9
$CHAMFERB
 40
0.0
  9
$CHAMFERC
 40
0.0
  9
$CHAMFERD
 40
0.0
  9
$SKPOLY
 70
     0
  9
$TDCREATE
 40
2458323.442380231
  9
$TDUCREATE
 40
2458323.067380231
  9
$TDUPDATE
 40
2458323.70945103
  9
$TDUUPDATE
 40
2458323.33445103
  9
$TDINDWG
 40
0.0008803588
  9
$TDUSRTIMER
 40
2458323.334159757
  9
$USRTIMER
 70
     1
  9
$ANGBASE
 50
0.0
  9
$ANGDIR
 70
     0
  9
$PDMODE
 70
     0
  9
$PDSIZE
 40
-1.0
  9
$PLINEWID
 40
0.0
  9
$SPLFRAME
 70
     0
  9
$SPLINETYPE
 70
     6
  9
$SPLINESEGS
 70
     8
  9
$HANDSEED
  5
32E
  9
$SURFTAB1
 70
     6
  9
$SURFTAB2
 70
     6
  9
$SURFTYPE
 70
     6
  9
$SURFU
 70
     6
  9
$SURFV
 70
     6
  9
$UCSBASE
  2

  9
$UCSNAME
  2

  9
$UCSORG
 10
0.0
 20
0.0
 30
0.0
  9
$UCSXDIR
 10
1.0
 20
0.0
 30
0.0
  9
$UCSYDIR
 10
0.0
 20
1.0
 30
0.0
  9
$UCSORTHOREF
  2

  9
$UCSORTHOVIEW
 70
     0
  9
$UCSORGTOP
 10
0.0
 20
0.0
 30
0.0
  9
$UCSORGBOTTOM
 10
0.0
 20
0.0
 30
0.0
  9
$UCSORGLEFT
 10
0.0
 20
0.0
 30
0.0
  9
$UCSORGRIGHT
 10
0.0
 20
0.0
 30
0.0
  9
$UCSORGFRONT
 10
0.0
 20
0.0
 30
0.0
  9
$UCSORGBACK
 10
0.0
 20
0.0
 30
0.0
  9
$PUCSBASE
  2

  9
$PUCSNAME
  2

  9
$PUCSORG
 10
0.0
 20
0.0
 30
0.0
  9
$PUCSXDIR
 10
1.0
 20
0.0
 30
0.0
  9
$PUCSYDIR
 10
0.0
 20
1.0
 30
0.0
  9
$PUCSORTHOREF
  2

  9
$PUCSORTHOVIEW
 70
     0
  9
$PUCSORGTOP
 10
0.0
 20
0.0
 30
0.0
  9
$PUCSORGBOTTOM
 10
0.0
 20
0.0
 30
0.0
  9
$PUCSORGLEFT
 10
0.0
 20
0.0
 30
0.0
  9
$PUCSORGRIGHT
 10
0.0
 20
0.0
 30
0.0
  9
$PUCSORGFRONT
 10
0.0
 20
0.0
 30
0.0
  9
$PUCSORGBACK
 10
0.0
 20
0.0
 30
0.0
  9
$USERI1
 70
     0
  9
$USERI2
 70
     0
  9
$USERI3
 70
     0
  9
$USERI4
 70
     0
  9
$USERI5
 70
     0
  9
$USERR1
 40
0.0
  9
$USERR2
 40
0.0
  9
$USERR3
 40
0.0
  9
$USERR4
 40
0.0
  9
$USERR5
 40
0.0
  9
$WORLDVIEW
 70
     1
  9
$SHADEDGE
 70
     3
  9
$SHADEDIF
 70
    70
  9
$TILEMODE
 70
     1
  9
$MAXACTVP
 70
    64
  9
$PINSBASE
 10
0.0
 20
0.0
 30
0.0
  9
$PLIMCHECK
 70
     0
  9
$PEXTMIN
 10
1.000000000000000E+20
 20
1.000000000000000E+20
 30
1.000000000000000E+20
  9
$PEXTMAX
 10
-1.000000000000000E+20
 20
-1.000000000000000E+20
 30
-1.000000000000000E+20
  9
$PLIMMIN
 10
0.0
 20
0.0
  9
$PLIMMAX
 10
0.0
 20
0.0
  9
$UNITMODE
 70
     0
  9
$VISRETAIN
 70
     1
  9
$PLINEGEN
 70
     0
  9
$PSLTSCALE
 70
     1
  9
$TREEDEPTH
 70
  3020
  9
$CMLSTYLE
  2
Standard
  9
$CMLJUST
 70
     0
  9
$CMLSCALE
 40
20.0
  9
$PROXYGRAPHICS
 70
     1
  9
$MEASUREMENT
 70
     1
  9
$CELWEIGHT
370
    -1
  9
$ENDCAPS
280
     0
  9
$JOINSTYLE
280
     0
  9
$LWDISPLAY
290
     1
  9
$INSUNITS
 70
     4
  9
$HYPERLINKBASE
  1

  9
$STYLESHEET
  1

  9
$XEDIT
290
     1
  9
$CEPSNTYPE
380
     0
  9
$PSTYLEMODE
290
     1
  9
$FINGERPRINTGUID
  2
{04AAA293-3CAF-4E4F-B586-43ECB314ABA4}
  9
$VERSIONGUID
  2
{FAEB1C32-E019-11D5-929B-00C0DF256EC4}
  9
$EXTNAMES
290
     1
  9
$PSVPSCALE
 40
0.0
  9
$OLESTARTUP
290
     0
  0
ENDSEC
  0
SECTION
  2
CLASSES
  0
CLASS
  1
ACDBDICTIONARYWDFLT
  2
AcDbDictionaryWithDefault
  3
ObjectDBX Classes
 90
        0
280
     0
281
     0
  0
CLASS
  1
VISUALSTYLE
  2
AcDbVisualStyle
  3
ObjectDBX Classes
 90
     4095
280
     0
281
     0
  0
CLASS
  1
MATERIAL
  2
AcDbMaterial
  3
ObjectDBX Classes
 90
     1153
280
     0
281
     0
  0
CLASS
  1
SCALE
  2
AcDbScale
  3
ObjectDBX Classes
 90
     1153
280
     0
281
     0
  0
CLASS
  1
SUN
  2
AcDbSun
  3
SCENEOE
 90
     1153
280
     0
281
     0
  0
CLASS
  1
ACDBPLACEHOLDER
  2
AcDbPlaceHolder
  3
ObjectDBX Classes
 90
        0
280
     0
281
     0
  0
CLASS
  1
LAYOUT
  2
AcDbLayout
  3
ObjectDBX Classes
 90
        0
280
     0
281
     0
  0
CLASS
  1
TABLESTYLE
  2
AcDbTableStyle
  3
ObjectDBX Classes
 90
     4095
280
     0
281
     0
  0
CLASS
  1
MLEADERSTYLE
  2
AcDbMLeaderStyle
  3
ACDB_MLEADERSTYLE_CLASS
 90
     4095
280
     0
281
     0
  0
CLASS
  1
RASTERVARIABLES
  2
AcDbRasterVariables
  3
ISM
 90
        0
280
     0
281
     0
  0
ENDSEC
  0
SECTION
  2
TABLES
  0
TABLE
  2
VPORT
  5
8
330
0
100
AcDbSymbolTable
 70
     1
  0
VPORT
  5
29
330
8
100
AcDbSymbolTableRecord
100
AcDbViewportTableRecord
  2
*Active
 70
     0
 10
0.0
 20
0.0
 11
1.0
 21
1.0
 12
63.2936918526608
 22
15.43237652553779
 13
0.0
 23
0.0
 14
10.0
 24
10.0
 15
10.0
 25
10.0
 16
0.0
 26
0.0
 36
1.0
 17
0.0
 27
0.0
 37
0.0
 40
236.9421675999084
 41
1.33252427184466
 42
50.0
 43
0.0
 44
0.0
 50
0.0
 51
0.0
 71
    16
 72
  2000
 73
     1
 74
     3
 75
     0
 76
     0
 77
     0
 78
     0
281
     0
 65
     1
110
0.0
120
0.0
130
0.0
111
1.0
121
0.0
131
0.0
112
0.0
122
1.0
132
0.0
 79
     0
146
0.0
  0
ENDTAB
  0
TABLE
  2
LTYPE
  5
5
330
0
100
AcDbSymbolTable
 70
     6
  0
LTYPE
  5
14
330
5
100
AcDbSymbolTableRecord
100
AcDbLinetypeTableRecord
  2
ByBlock
 70
     0
  3

 72
    65
 73
     0
 40
0.0
  0
LTYPE
  5
15
330
5
100
AcDbSymbolTableRecord
100
AcDbLinetypeTableRecord
  2
ByLayer
 70
     0
  3

 72
    65
 73
     0
 40
0.0
  0
LTYPE
  5
16
330
5
100
AcDbSymbolTableRecord
100
AcDbLinetypeTableRecord
  2
Continuous
 70
     0
  3
Solid line
 72
    65
 73
     0
 40
0.0
  0
LTYPE
  5
6A
330
5
100
AcDbSymbolTableRecord
100
AcDbLinetypeTableRecord
  2
HIDDEN
 70
     0
  3
Hidden __ __ __ __ __ __ __ __ __ __ __ __ __ __
 72
    65
 73
     2
 40
1.905
 49
1.27
 74
     0
 49
-0.635
 74
     0
  0
LTYPE
  5
6B
330
5
100
AcDbSymbolTableRecord
100
AcDbLinetypeTableRecord
  2
PHANTOM
 70
     0
  3
Phantom ______  __  __  ______  __  __  ______
 72
    65
 73
     6
 40
12.7
 49
6.35
 74
     0
 49
-1.27
 74
     0
 49
1.27
 74
     0
 49
-1.27
 74
     0
 49
1.27
 74
     0
 49
-1.27
 74
     0
  0
LTYPE
  5
6C
330
5
100
AcDbSymbolTableRecord
100
AcDbLinetypeTableRecord
  2
CENTER
 70
     0
  3
Center ____ _ ____ _ ____ _ ____ _ ____ _ ____
 72
    65
 73
     4
 40
10.16
 49
6.35
 74
     0
 49
-1.27
 74
     0
 49
1.27
 74
     0
 49
-1.27
 74
     0
  0
LTYPE
  5
6D
330
5
100
AcDbSymbolTableRecord
100
AcDbLinetypeTableRecord
  2
CENTERX2
 70
     0
  3
Center (2x) ________  __  ________  __  _____
 72
    65
 73
     4
 40
20.32
 49
12.7
 74
     0
 49
-2.54
 74
     0
 49
2.54
 74
     0
 49
-2.54
 74
     0
  0
LTYPE
  5
6E
330
5
100
AcDbSymbolTableRecord
100
AcDbLinetypeTableRecord
  2
DOT2
 70
     0
  3
Dot (.5x) ........................................
 72
    65
 73
     2
 40
0.635
 49
0.0
 74
     0
 49
-0.635
 74
     0
  0
ENDTAB
  0
TABLE
  2
LAYER
  5
2
102
{ACAD_XDICTIONARY
360
23B
102
}
330
0
100
AcDbSymbolTable
 70
    18
  0
LAYER
  5
10
330
2
100
AcDbSymbolTableRecord
100
AcDbLayerTableRecord
  2
0
 70
     0
 62
     7
  6
Continuous
370
    -3
390
F
  0
LAYER
  5
6F
330
2
100
AcDbSymbolTableRecord
100
AcDbLayerTableRecord
  2
FORMAT
 70
     0
 62
     2
  6
Continuous
370
    -3
390
F
  0
LAYER
  5
70
330
2
100
AcDbSymbolTableRecord
100
AcDbLayerTableRecord
  2
외형선
 70
     0
 62
     4
  6
Continuous
370
    30
390
F
  0
LAYER
  5
71
330
2
100
AcDbSymbolTableRecord
100
AcDbLayerTableRecord
  2
숨은선
 70
     0
 62
     2
  6
HIDDEN
370
    15
390
F
  0
LAYER
  5
72
330
2
100
AcDbSymbolTableRecord
100
AcDbLayerTableRecord
  2
중심선
 70
     0
 62
     1
  6
CENTERX2
370
    -3
390
F
  0
LAYER
  5
73
330
2
100
AcDbSymbolTableRecord
100
AcDbLayerTableRecord
  2
파단선
 70
     0
 62
     4
  6
Continuous
370
    -3
390
F
  0
LAYER
  5
74
330
2
100
AcDbSymbolTableRecord
100
AcDbLayerTableRecord
  2
해칭선
 70
     0
 62
   100
  6
Continuous
370
    -3
390
F
  0
LAYER
  5
75
330
2
100
AcDbSymbolTableRecord
100
AcDbLayerTableRecord
  2
가는실선
 70
     0
 62
     4
  6
Continuous
370
    -3
390
F
  0
LAYER
  5
76
330
2
100
AcDbSymbolTableRecord
100
AcDbLayerTableRecord
  2
치수_보조선
 70
     0
 62
     4
  6
Continuous
370
    -3
390
F
  0
LAYER
  5
77
330
2
100
AcDbSymbolTableRecord
100
AcDbLayerTableRecord
  2
치수문자_일반주서
 70
     0
 62
     7
  6
Continuous
370
    15
390
F
  0
LAYER
  5
78
330
2
100
AcDbSymbolTableRecord
100
AcDbLayerTableRecord
  2
개별주서
 70
     0
 62
   100
  6
Continuous
370
    30
390
F
  0
LAYER
  5
79
330
2
100
AcDbSymbolTableRecord
100
AcDbLayerTableRecord
  2
중간선
 70
     0
 62
     2
  6
Continuous
370
    15
390
F
  0
LAYER
  5
7A
330
2
100
AcDbSymbolTableRecord
100
AcDbLayerTableRecord
  2
윤곽선
 70
     0
 62
     3
  6
Continuous
370
    40
390
F
  0
LAYER
  5
7B
330
2
100
AcDbSymbolTableRecord
100
AcDbLayerTableRecord
  2
중심마크
 70
     0
 62
   100
  6
Continuous
370
    30
390
F
  0
LAYER
  5
7C
330
2
100
AcDbSymbolTableRecord
100
AcDbLayerTableRecord
  2
가상선
 70
     0
 62
     4
  6
PHANTOM
370
    -3
390
F
  0
LAYER
  5
7D
330
2
100
AcDbSymbolTableRecord
100
AcDbLayerTableRecord
  2
특수지정선
 70
     0
 62
     5
  6
CENTERX2
370
    60
390
F
  0
LAYER
  5
7E
330
2
100
AcDbSymbolTableRecord
100
AcDbLayerTableRecord
  2
참조1
 70
     0
 62
    -4
  6
Continuous
370
    -3
390
F
  0
LAYER
  5
181
330
2
100
AcDbSymbolTableRecord
100
AcDbLayerTableRecord
  2
Defpoints
 70
     0
 62
     7
  6
Continuous
290
     0
370
    -3
390
F
  0
ENDTAB
  0
TABLE
  2
STYLE
  5
3
330
0
100
AcDbSymbolTable
 70
     2
  0
STYLE
  5
11
330
3
100
AcDbSymbolTableRecord
100
AcDbTextStyleTableRecord
  2
Standard
 70
     0
 40
0.0
 41
1.0
 50
0.0
 71
     0
 42
3.5
  3
txt
  4

  0
STYLE
  5
94
330
3
100
AcDbSymbolTableRecord
100
AcDbTextStyleTableRecord
  2
SLDTEXTSTYLE0
 70
     0
 40
0.0
 41
0.75
 50
0.0
 71
     0
 42
3.5
  3
TXT
  4

  0
ENDTAB
  0
TABLE
  2
VIEW
  5
6
330
0
100
AcDbSymbolTable
 70
     0
  0
ENDTAB
  0
TABLE
  2
UCS
  5
7
330
0
100
AcDbSymbolTable
 70
     0
  0
ENDTAB
  0
TABLE
  2
APPID
  5
9
330
0
100
AcDbSymbolTable
 70
     1
  0
APPID
  5
12
330
9
100
AcDbSymbolTableRecord
100
AcDbRegAppTableRecord
  2
ACAD
 70
     0
  0
ENDTAB
  0
TABLE
  2
DIMSTYLE
  5
A
330
0
100
AcDbSymbolTable
 70
     3
100
AcDbDimStyleTable
  0
DIMSTYLE
105
27
330
A
100
AcDbSymbolTableRecord
100
AcDbDimStyleTableRecord
  2
ISO-25
 70
     0
 41
2.5
 42
0.625
 43
3.75
 44
1.25
 73
     0
 74
     0
 77
     1
 78
     8
140
2.5
141
2.5
143
0.03937007874016
147
0.625
171
     3
172
     1
178
     0
271
     2
272
     2
274
     3
278
    44
283
     0
284
     8
340
11
  0
DIMSTYLE
105
100
330
A
100
AcDbSymbolTableRecord
100
AcDbDimStyleTableRecord
  2
SLDDIMSTYLE0
 70
     0
 41
3.302
 44
0.0
 45
0.000000001
 73
     0
 74
     0
 77
     1
 78
     4
 79
     1
140
3.5
143
0.0393700787401575
147
0.875
148
0.000000001
170
     1
172
     1
173
     1
178
     0
271
     2
272
     2
276
     2
284
    12
289
     0
340
94
  0
DIMSTYLE
105
115
102
{ACAD_REACTORS
330
114
330
128
330
13B
330
FF
102
}
330
A
100
AcDbSymbolTableRecord
100
AcDbDimStyleTableRecord
  2
SLDDIMSTYLE1
 70
     0
 41
3.302
 44
0.0
 45
0.000000001
 73
     0
 74
     0
 77
     1
 78
     4
 79
     1
140
3.5
143
0.0393700787401575
147
0.875
148
0.000000001
170
     1
173
     1
178
     0
271
     2
272
     2
276
     2
284
    12
340
94
  0
ENDTAB
  0
TABLE
  2
BLOCK_RECORD
  5
1
330
0
100
AcDbSymbolTable
 70
    15
  0
BLOCK_RECORD
  5
1F
330
1
100
AcDbSymbolTableRecord
100
AcDbBlockTableRecord
  2
*Model_Space
340
22
  0
BLOCK_RECORD
  5
1B
330
1
100
AcDbSymbolTableRecord
100
AcDbBlockTableRecord
  2
*Paper_Space
340
1E
  0
BLOCK_RECORD
  5
23
330
1
100
AcDbSymbolTableRecord
100
AcDbBlockTableRecord
  2
*Paper_Space0
340
26
  0
BLOCK_RECORD
  5
7F
330
1
100
AcDbSymbolTableRecord
100
AcDbBlockTableRecord
  2
블럭10
340
0
102
{BLKREFS
331
F8
102
}
  0
BLOCK_RECORD
  5
101
330
1
100
AcDbSymbolTableRecord
100
AcDbBlockTableRecord
  2
_D
340
0
  0
BLOCK_RECORD
  5
116
330
1
100
AcDbSymbolTableRecord
100
AcDbBlockTableRecord
  2
_D_1
340
0
  0
BLOCK_RECORD
  5
129
330
1
100
AcDbSymbolTableRecord
100
AcDbBlockTableRecord
  2
_D_2
340
0
  0
BLOCK_RECORD
  5
13C
330
1
100
AcDbSymbolTableRecord
100
AcDbBlockTableRecord
  2
_D_3
340
0
  0
BLOCK_RECORD
  5
155
330
1
100
AcDbSymbolTableRecord
100
AcDbBlockTableRecord
  2
SW_DOWELSYMBOL_0
340
0
102
{BLKREFS
331
15B
102
}
  0
BLOCK_RECORD
  5
1F0
330
1
100
AcDbSymbolTableRecord
100
AcDbBlockTableRecord
  2
*D7
340
0
  0
BLOCK_RECORD
  5
1FD
330
1
100
AcDbSymbolTableRecord
100
AcDbBlockTableRecord
  2
*D8
340
0
  0
BLOCK_RECORD
  5
20A
330
1
100
AcDbSymbolTableRecord
100
AcDbBlockTableRecord
  2
*D9
340
0
  0
BLOCK_RECORD
  5
217
330
1
100
AcDbSymbolTableRecord
100
AcDbBlockTableRecord
  2
*D10
340
0
  0
BLOCK_RECORD
  5
29A
330
1
100
AcDbSymbolTableRecord
100
AcDbBlockTableRecord
  2
*D11
340
0
  0
BLOCK_RECORD
  5
2A6
330
1
100
AcDbSymbolTableRecord
100
AcDbBlockTableRecord
  2
*D12
340
0
  0
BLOCK_RECORD
  5
2B2
330
1
100
AcDbSymbolTableRecord
100
AcDbBlockTableRecord
  2
*D13
340
0
  0
BLOCK_RECORD
  5
2BE
330
1
100
AcDbSymbolTableRecord
100
AcDbBlockTableRecord
  2
*D14
340
0
  0
ENDTAB
  0
ENDSEC
  0
SECTION
  2
BLOCKS
  0
BLOCK
  5
20
330
1F
100
AcDbEntity
  8
0
100
AcDbBlockBegin
  2
*Model_Space
 70
     0
 10
0.0
 20
0.0
 30
0.0
  3
*Model_Space
  1
*Model_Space
  0
ENDBLK
  5
21
330
1F
100
AcDbEntity
  8
0
100
AcDbBlockEnd
  0
BLOCK
  5
1C
330
1B
100
AcDbEntity
 67
     1
  8
0
100
AcDbBlockBegin
  2
*Paper_Space
 70
     0
 10
0.0
 20
0.0
 30
0.0
  3
*Paper_Space
  1
*Paper_Space
  0
ENDBLK
  5
1D
330
1B
100
AcDbEntity
 67
     1
  8
0
100
AcDbBlockEnd
  0
BLOCK
  5
24
330
23
100
AcDbEntity
  8
0
100
AcDbBlockBegin
  2
*Paper_Space0
 70
     0
 10
0.0
 20
0.0
 30
0.0
  3
*Paper_Space0
  1
*Paper_Space0
  0
ENDBLK
  5
25
330
23
100
AcDbEntity
  8
0
100
AcDbBlockEnd
  0
BLOCK
  5
80
330
7F
100
AcDbEntity
  8
0
100
AcDbBlockBegin
  2
블럭10
 70
     2
 10
0.0
 20
0.0
 30
0.0
  3
블럭10
  1
블럭10
  0
ELLIPSE
  5
82
330
7F
100
AcDbEntity
  8
중심선
100
AcDbEllipse
 10
20.54032771741204
 20
12.0471743016438
 30
0.0
 11
6.600054785286829
 21
-1.261213355974178E-13
 31
0.0
210
0.0
220
0.0
230
1.0
 40
0.636358354079598
 41
0.9219305317359503
 42
6.513795318482858
  0
ELLIPSE
  5
83
330
7F
100
AcDbEntity
  8
중심선
100
AcDbEllipse
 10
20.54032771746488
 20
12.04717430159265
 30
0.0
 11
3.960054785062283
 21
1.540847449632565E-10
 31
0.0
210
0.0
220
0.0
230
1.0
 40
0.3939339440162632
 41
1.131841032648279
 42
5.62031148352944
  0
LINE
  5
84
330
7F
100
AcDbEntity
  8
중심선
100
AcDbLine
 10
2.268634060543552
 20
16.24717430164393
 30
0.0
 11
5.714909304380834
 21
16.24717430164393
 31
0.0
  0
LINE
  5
85
330
7F
100
AcDbEntity
  8
중심선
100
AcDbLine
 10
5.245725140726316
 20
7.84717430164391
 30
0.0
 11
8.692000384563599
 21
7.84717430164391
 31
0.0
  0
LINE
  5
86
330
7F
100
AcDbEntity
  8
중심선
100
AcDbLine
 10
15.74043728645272
 20
16.24717430164393
 30
0.0
 11
8.692000384563599
 21
7.84717430164391
 31
0.0
  0
LINE
  5
87
330
7F
100
AcDbEntity
  8
중심선
100
AcDbLine
 10
0.1404042013395286
 20
13.71084872107135
 30
0.0
 11
3.58671253028996
 21
13.71088815037384
 31
0.0
  0
LINE
  5
88
330
7F
100
AcDbEntity
  8
중심선
100
AcDbLine
 10
2.750260043222114
 20
10.84717430164391
 30
0.0
 11
6.196535287059397
 21
10.84717430164391
 31
0.0
  0
LINE
  5
89
330
7F
100
AcDbEntity
  8
중심선
100
AcDbLine
 10
12.29416204261559
 20
16.24717430164393
 30
0.0
 11
5.245725140726316
 21
7.84717430164391
 31
0.0
  0
LINE
  5
8A
330
7F
100
AcDbEntity
  8
중심선
100
AcDbLine
 10
10.72767329541681
 20
16.24717430164393
 30
0.0
 11
6.196535287059397
 21
10.84717430164391
 31
0.0
  0
LINE
  5
8B
330
7F
100
AcDbEntity
  8
중심선
100
AcDbLine
 10
7.28139805157953
 20
16.24717430164393
 30
0.0
 11
2.750260043222114
 21
10.84717430164391
 31
0.0
  0
LINE
  5
8C
330
7F
100
AcDbEntity
  8
중심선
100
AcDbLine
 10
5.714909304380834
 20
16.24717430164393
 30
0.0
 11
3.58671253028996
 21
13.71088815037384
 31
0.0
  0
LINE
  5
8D
330
7F
100
AcDbEntity
  8
중심선
100
AcDbLine
 10
2.268634060543552
 20
16.24717430164393
 30
0.0
 11
0.1404042013395286
 21
13.71084872107135
 31
0.0
  0
LINE
  5
8E
330
7F
100
AcDbEntity
  8
중심선
100
AcDbLine
 10
7.28139805157953
 20
16.24717430164393
 30
0.0
 11
10.72767329541681
 21
16.24717430164393
 31
0.0
  0
LINE
  5
8F
330
7F
100
AcDbEntity
  8
중심선
100
AcDbLine
 10
12.29416204261559
 20
16.24717430164393
 30
0.0
 11
15.74043728645272
 21
16.24717430164393
 31
0.0
  0
LINE
  5
90
330
7F
100
AcDbEntity
  8
중심선
100
AcDbLine
 10
19.22036997980202
 20
11.08717430171403
 30
0.0
 11
23.66174974927406
 21
11.08717430171406
 31
0.0
  0
LINE
  5
91
330
7F
100
AcDbEntity
  8
중심선
100
AcDbLine
 10
19.22039502424796
 20
13.00717430171391
 30
0.0
 11
19.22036997980202
 21
11.08717430171403
 31
0.0
  0
LINE
  5
92
330
7F
100
AcDbEntity
  8
중심선
100
AcDbLine
 10
19.22039502424796
 20
13.00717430171391
 30
0.0
 11
26.96566020931264
 21
13.00717430171391
 31
0.0
  0
LINE
  5
93
330
7F
100
AcDbEntity
  8
중심선
100
AcDbLine
 10
22.22332737316547
 20
13.45928029700563
 30
0.0
 11
24.52862924686651
 21
15.39360700705356
 31
0.0
  0
ATTDEF
  5
95
330
7F
100
AcDbEntity
  8
FORMAT
 62
     2
100
AcDbText
 10
4.408487351596664
 20
2.075366912832191
 30
0.0
 40
4.233333333333333
  1
E1175064
 41
0.75
  7
SLDTEXTSTYLE0
 11
4.408487351596664
 21
-0.0412997538344756
 31
0.0
100
AcDbAttributeDefinition
  3

  2
AUTOATTR0
 70
     0
 74
     1
  0
ENDBLK
  5
81
330
7F
100
AcDbEntity
  8
0
100
AcDbBlockEnd
  0
BLOCK
  5
102
330
101
100
AcDbEntity
  8
0
100
AcDbBlockBegin
  2
_D
 70
     0
 10
0.0
 20
0.0
 30
0.0
  3
_D
  1
_D
  0
LINE
  5
104
330
101
100
AcDbEntity
  8
치수문자_일반주서
 62
     0
370
    -2
100
AcDbLine
 10
-51.56250000000005
 20
12.70107492872387
 30
0.0
 11
-63.54750000000008
 21
12.70107492872383
 31
0.0
  0
LINE
  5
105
330
101
100
AcDbEntity
  8
치수문자_일반주서
 62
     0
370
    -2
100
AcDbLine
 10
-49.02250000000004
 20
-12.69892507127609
 30
0.0
 11
-63.5475
 21
-12.69892507127615
 31
0.0
  0
LINE
  5
106
330
101
100
AcDbEntity
  8
치수문자_일반주서
 62
     0
370
    -2
100
AcDbLine
 10
-63.54750000000007
 20
9.399074928723829
 30
0.0
 11
-63.54750000000001
 21
-9.396925071276149
 31
0.0
  0
SOLID
  5
107
330
101
100
AcDbEntity
  8
치수문자_일반주서
 62
     0
100
AcDbTrace
 10
-62.99716666666674
 20
9.39907492872383
 30
0.0
 11
-64.0978333333334
 21
9.399074928723827
 31
0.0
 12
-63.54750000000008
 22
12.70107492872383
 32
0.0
 13
-63.54750000000008
 23
12.70107492872383
 33
0.0
  0
SOLID
  5
108
330
101
100
AcDbEntity
  8
치수문자_일반주서
 62
     0
100
AcDbTrace
 10
-64.09783333333334
 20
-9.39692507127615
 30
0.0
 11
-62.99716666666668
 21
-9.396925071276147
 31
0.0
 12
-63.5475
 22
-12.69892507127615
 32
0.0
 13
-63.5475
 23
-12.69892507127615
 33
0.0
  0
MTEXT
  5
109
330
101
100
AcDbEntity
  8
치수문자_일반주서
 62
     0
100
AcDbMText
 10
-67.92250000000004
 20
0.0010749287238656
 30
0.0
 40
3.5
 41
0.0
 71
     2
 72
     1
  1
\A1;%%c25.40 [1]
  7
SLDTEXTSTYLE0
 11
-3.356894814614650E-15
 21
1.0
 31
0.0
 73
     1
 44
1.0
  0
POINT
  5
10A
330
101
100
AcDbEntity
  8
Defpoints
 62
     0
100
AcDbPoint
 10
-51.50000000000005
 20
12.70107492872387
 30
0.0
  0
POINT
  5
10B
330
101
100
AcDbEntity
  8
Defpoints
 62
     0
100
AcDbPoint
 10
-48.96000000000004
 20
-12.69892507127609
 30
0.0
  0
POINT
  5
10C
330
101
100
AcDbEntity
  8
Defpoints
 62
     0
100
AcDbPoint
 10
-63.5475
 20
-12.69892507127615
 30
0.0
  0
ENDBLK
  5
103
330
101
100
AcDbEntity
  8
0
100
AcDbBlockEnd
  0
BLOCK
  5
117
330
116
100
AcDbEntity
  8
0
100
AcDbBlockBegin
  2
_D_1
 70
     0
 10
0.0
 20
0.0
 30
0.0
  3
_D_1
  1
_D_1
  0
LINE
  5
119
330
116
100
AcDbEntity
  8
치수문자_일반주서
 62
     0
370
    -2
100
AcDbLine
 10
164.3999999999999
 20
12.76357492872391
 30
0.0
 11
164.3999999999999
 21
35.14838386579975
 31
0.0
  0
LINE
  5
11A
330
116
100
AcDbEntity
  8
치수문자_일반주서
 62
     0
370
    -2
100
AcDbLine
 10
11.99999999999999
 20
11.94949293646411
 30
0.0
 11
11.99999999999999
 21
35.14838386579975
 31
0.0
  0
LINE
  5
11B
330
116
100
AcDbEntity
  8
치수문자_일반주서
 62
     0
370
    -2
100
AcDbLine
 10
161.0979999999999
 20
35.14838386579975
 30
0.0
 11
15.30199999999999
 21
35.14838386579975
 31
0.0
  0
SOLID
  5
11C
330
116
100
AcDbEntity
  8
치수문자_일반주서
 62
     0
100
AcDbTrace
 10
161.0979999999999
 20
34.59805053246642
 30
0.0
 11
161.0979999999999
 21
35.69871719913309
 31
0.0
 12
164.3999999999999
 22
35.14838386579975
 32
0.0
 13
164.3999999999999
 23
35.14838386579975
 33
0.0
  0
SOLID
  5
11D
330
116
100
AcDbEntity
  8
치수문자_일반주서
 62
     0
100
AcDbTrace
 10
15.30199999999999
 20
35.69871719913309
 30
0.0
 11
15.30199999999999
 21
34.59805053246642
 31
0.0
 12
11.99999999999999
 22
35.14838386579975
 32
0.0
 13
11.99999999999999
 23
35.14838386579975
 33
0.0
  0
MTEXT
  5
11E
330
116
100
AcDbEntity
  8
치수문자_일반주서
 62
     0
100
AcDbMText
 10
88.19999999999997
 20
39.52338386579975
 30
0.0
 40
3.5
 41
0.0
 71
     2
 72
     1
  1
\A1;152.40 [6]
  7
SLDTEXTSTYLE0
 73
     1
 44
1.0
  0
POINT
  5
11F
330
116
100
AcDbEntity
  8
Defpoints
 62
     0
100
AcDbPoint
 10
164.3999999999999
 20
12.70107492872391
 30
0.0
  0
POINT
  5
120
330
116
100
AcDbEntity
  8
Defpoints
 62
     0
100
AcDbPoint
 10
11.99999999999999
 20
11.88699293646411
 30
0.0
  0
POINT
  5
121
330
116
100
AcDbEntity
  8
Defpoints
 62
     0
100
AcDbPoint
 10
11.99999999999999
 20
35.14838386579975
 30
0.0
  0
ENDBLK
  5
118
330
116
100
AcDbEntity
  8
0
100
AcDbBlockEnd
  0
BLOCK
  5
12A
330
129
100
AcDbEntity
  8
0
100
AcDbBlockBegin
  2
_D_2
 70
     0
 10
0.0
 20
0.0
 30
0.0
  3
_D_2
  1
_D_2
  0
LINE
  5
12C
330
129
100
AcDbEntity
  8
치수문자_일반주서
 62
     0
370
    -2
100
AcDbLine
 10
164.3999999999999
 20
12.76357492872391
 30
0.0
 11
164.3999999999999
 21
47.14838386579976
 31
0.0
  0
LINE
  5
12D
330
129
100
AcDbEntity
  8
치수문자_일반주서
 62
     0
370
    -2
100
AcDbLine
 10
-51.50000000000005
 20
10.2235749287239
 30
0.0
 11
-51.50000000000005
 21
47.14838386579976
 31
0.0
  0
LINE
  5
12E
330
129
100
AcDbEntity
  8
치수문자_일반주서
 62
     0
370
    -2
100
AcDbLine
 10
161.0979999999999
 20
47.14838386579976
 30
0.0
 11
-48.19800000000005
 21
47.14838386579976
 31
0.0
  0
SOLID
  5
12F
330
129
100
AcDbEntity
  8
치수문자_일반주서
 62
     0
100
AcDbTrace
 10
161.0979999999999
 20
46.59805053246642
 30
0.0
 11
161.0979999999999
 21
47.69871719913309
 31
0.0
 12
164.3999999999999
 22
47.14838386579976
 32
0.0
 13
164.3999999999999
 23
47.14838386579976
 33
0.0
  0
SOLID
  5
130
330
129
100
AcDbEntity
  8
치수문자_일반주서
 62
     0
100
AcDbTrace
 10
-48.19800000000005
 20
47.69871719913309
 30
0.0
 11
-48.19800000000005
 21
46.59805053246642
 31
0.0
 12
-51.50000000000005
 22
47.14838386579976
 32
0.0
 13
-51.50000000000005
 23
47.14838386579976
 33
0.0
  0
MTEXT
  5
131
330
129
100
AcDbEntity
  8
치수문자_일반주서
 62
     0
100
AcDbMText
 10
56.44999999999995
 20
51.52338386579976
 30
0.0
 40
3.5
 41
0.0
 71
     2
 72
     1
  1
\A1;215.90 [8 1/2]
  7
SLDTEXTSTYLE0
 73
     1
 44
1.0
  0
POINT
  5
132
330
129
100
AcDbEntity
  8
Defpoints
 62
     0
100
AcDbPoint
 10
164.3999999999999
 20
12.70107492872391
 30
0.0
  0
POINT
  5
133
330
129
100
AcDbEntity
  8
Defpoints
 62
     0
100
AcDbPoint
 10
-51.50000000000005
 20
10.1610749287239
 30
0.0
  0
POINT
  5
134
330
129
100
AcDbEntity
  8
Defpoints
 62
     0
100
AcDbPoint
 10
-51.50000000000005
 20
47.14838386579976
 30
0.0
  0
ENDBLK
  5
12B
330
129
100
AcDbEntity
  8
0
100
AcDbBlockEnd
  0
BLOCK
  5
13D
330
13C
100
AcDbEntity
  8
0
100
AcDbBlockBegin
  2
_D_3
 70
     0
 10
0.0
 20
0.0
 30
0.0
  3
_D_3
  1
_D_3
  0
LINE
  5
13F
330
13C
100
AcDbEntity
  8
치수문자_일반주서
 62
     0
370
    -2
100
AcDbLine
 10
164.4624999999999
 20
12.70107492872391
 30
0.0
 11
182.9572664031443
 21
12.70107492872397
 31
0.0
  0
LINE
  5
140
330
13C
100
AcDbEntity
  8
치수문자_일반주서
 62
     0
370
    -2
100
AcDbLine
 10
164.4624999999999
 20
-12.69892507127611
 30
0.0
 11
182.9572664031444
 21
-12.69892507127604
 31
0.0
  0
LINE
  5
141
330
13C
100
AcDbEntity
  8
치수문자_일반주서
 62
     0
370
    -2
100
AcDbLine
 10
182.9572664031443
 20
12.70107492872397
 30
0.0
 11
182.9572664031442
 21
46.94715114934637
 31
0.0
  0
LINE
  5
142
330
13C
100
AcDbEntity
  8
치수문자_일반주서
 62
     0
370
    -2
100
AcDbLine
 10
182.9572664031443
 20
9.399074928723973
 30
0.0
 11
182.9572664031444
 21
-9.396925071276044
 31
0.0
  0
SOLID
  5
143
330
13C
100
AcDbEntity
  8
치수문자_일반주서
 62
     0
100
AcDbTrace
 10
183.5075997364776
 20
9.399074928723975
 30
0.0
 11
182.4069330698109
 21
9.399074928723971
 31
0.0
 12
182.9572664031443
 22
12.70107492872397
 32
0.0
 13
182.9572664031443
 23
12.70107492872397
 33
0.0
  0
SOLID
  5
144
330
13C
100
AcDbEntity
  8
치수문자_일반주서
 62
     0
100
AcDbTrace
 10
182.406933069811
 20
-9.396925071276046
 30
0.0
 11
183.5075997364777
 21
-9.396925071276042
 31
0.0
 12
182.9572664031444
 22
-12.69892507127604
 32
0.0
 13
182.9572664031444
 23
-12.69892507127604
 33
0.0
  0
MTEXT
  5
145
330
13C
100
AcDbEntity
  8
치수문자_일반주서
 62
     0
100
AcDbMText
 10
178.5822664031442
 20
35.79090114934635
 30
0.0
 40
3.5
 41
0.0
 71
     2
 72
     1
  1
\A1;%%c25.40 [1]
  7
SLDTEXTSTYLE0
 11
-3.356894814614644E-15
 21
1.0
 31
0.0
 73
     1
 44
1.0
  0
POINT
  5
146
330
13C
100
AcDbEntity
  8
Defpoints
 62
     0
100
AcDbPoint
 10
164.3999999999999
 20
12.70107492872391
 30
0.0
  0
POINT
  5
147
330
13C
100
AcDbEntity
  8
Defpoints
 62
     0
100
AcDbPoint
 10
164.3999999999999
 20
-12.69892507127611
 30
0.0
  0
POINT
  5
148
330
13C
100
AcDbEntity
  8
Defpoints
 62
     0
100
AcDbPoint
 10
182.9572664031444
 20
-12.69892507127605
 30
0.0
  0
ENDBLK
  5
13E
330
13C
100
AcDbEntity
  8
0
100
AcDbBlockEnd
  0
BLOCK
  5
156
330
155
100
AcDbEntity
  8
0
100
AcDbBlockBegin
  2
SW_DOWELSYMBOL_0
 70
     0
 10
0.0
 20
0.0
 30
0.0
  3
SW_DOWELSYMBOL_0
  1
SW_DOWELSYMBOL_0
  0
CIRCLE
  5
158
330
155
100
AcDbEntity
  8
해칭선
 62
     0
100
AcDbCircle
 10
0.0
 20
0.0
 30
0.0
 40
3.000000000000001
  0
HATCH
  5
159
330
155
100
AcDbEntity
  8
0
  6
Continuous
 62
     0
370
     0
100
AcDbHatch
 10
0.0
 20
0.0
 30
0.0
210
0.0
220
0.0
230
1.0
  2
SOLID
 70
     1
 71
     0
 91
        1
 92
        0
 93
        3
 72
     2
 10
0.0
 20
0.0
 40
3.000000000000001
 50
0.0
 51
90.0
 73
     1
 72
     1
 10
0.0
 20
3.000000000000001
 11
0.0
 21
0.0
 72
     1
 10
0.0
 20
0.0
 11
3.000000000000001
 21
0.0
 97
        0
 75
     0
 76
     1
 98
        1
 10
0.0
 20
0.0
  0
HATCH
  5
15A
330
155
100
AcDbEntity
  8
0
  6
Continuous
 62
     0
370
     0
100
AcDbHatch
 10
0.0
 20
0.0
 30
0.0
210
0.0
220
0.0
230
1.0
  2
SOLID
 70
     1
 71
     0
 91
        1
 92
        0
 93
        3
 72
     2
 10
0.0
 20
0.0
 40
3.000000000000001
 50
180.0
 51
270.0000000000007
 73
     1
 72
     1
 10
0.0
 20
-3.000000000000001
 11
0.0
 21
0.0
 72
     1
 10
0.0
 20
0.0
 11
-3.000000000000001
 21
0.0
 97
        0
 75
     0
 76
     1
 98
        1
 10
0.0
 20
0.0
  0
ENDBLK
  5
157
330
155
100
AcDbEntity
  8
0
100
AcDbBlockEnd
  0
BLOCK
  5
1F1
330
1F0
100
AcDbEntity
  8
0
100
AcDbBlockBegin
  2
*D7
 70
     1
 10
0.0
 20
0.0
 30
0.0
  3
*D7
  1
*D8
  0
LINE
  5
1F2
330
1F0
100
AcDbEntity
  8
치수문자_일반주서
 62
     0
370
    -2
100
AcDbLine
 10
15.72500000000004
 20
35.01799632601149
 30
0.0
 11
4.374999999999988
 21
35.01799632601145
 31
0.0
  0
LINE
  5
1F3
330
1F0
100
AcDbEntity
  8
치수문자_일반주서
 62
     0
370
    -2
100
AcDbLine
 10
18.90000000000005
 20
3.267996326011498
 30
0.0
 11
4.375000000000099
 21
3.267996326011444
 31
0.0
  0
LINE
  5
1F4
330
1F0
100
AcDbEntity
  8
치수문자_일반주서
 62
     0
370
    -2
100
AcDbLine
 10
4.374999999999999
 20
31.71599632601145
 30
0.0
 11
4.375000000000087
 21
6.569996326011443
 31
0.0
  0
SOLID
  5
1F5
330
1F0
100
AcDbEntity
  8
치수문자_일반주서
 62
     0
100
AcDbTrace
 10
4.925333333333333
 20
31.71599632601145
 30
0.0
 11
3.824666666666666
 21
31.71599632601145
 31
0.0
 12
4.374999999999988
 22
35.01799632601145
 32
0.0
 13
4.374999999999988
 23
35.01799632601145
 33
0.0
  0
SOLID
  5
1F6
330
1F0
100
AcDbEntity
  8
치수문자_일반주서
 62
     0
100
AcDbTrace
 10
3.824666666666754
 20
6.569996326011442
 30
0.0
 11
4.925333333333421
 21
6.569996326011445
 31
0.0
 12
4.375000000000099
 22
3.267996326011444
 32
0.0
 13
4.375000000000099
 23
3.267996326011444
 33
0.0
  0
MTEXT
  5
1F7
330
1F0
100
AcDbEntity
  8
치수문자_일반주서
 62
     0
100
AcDbMText
 10
0.0000000000000426
 20
19.14299632601148
 30
0.0
 40
3.5
 41
0.0
 71
     2
 72
     1
  1
\A1;%%c31.75 [1 1/4]
  7
SLDTEXTSTYLE0
 11
-3.496765431890257E-15
 21
1.0
 31
0.0
 73
     1
 44
1.0
  0
POINT
  5
1F8
330
1F0
100
AcDbEntity
  8
Defpoints
 62
     0
100
AcDbPoint
 10
15.78750000000004
 20
35.01799632601149
 30
0.0
  0
POINT
  5
1F9
330
1F0
100
AcDbEntity
  8
Defpoints
 62
     0
100
AcDbPoint
 10
18.96250000000005
 20
3.267996326011499
 30
0.0
  0
POINT
  5
1FA
330
1F0
100
AcDbEntity
  8
Defpoints
 62
     0
100
AcDbPoint
 10
4.375000000000099
 20
3.267996326011444
 30
0.0
  0
ENDBLK
  5
1FB
330
1F0
100
AcDbEntity
  8
0
100
AcDbBlockEnd
  0
BLOCK
  5
1FE
330
1FD
100
AcDbEntity
  8
0
100
AcDbBlockBegin
  2
*D8
 70
     1
 10
0.0
 20
0.0
 30
0.0
  3
*D8
  1
*D9
  0
LINE
  5
1FF
330
1FD
100
AcDbEntity
  8
치수문자_일반주서
 62
     0
370
    -2
100
AcDbLine
 10
282.4875000000001
 20
38.25549632601152
 30
0.0
 11
282.4875000000001
 21
65.10196376944813
 31
0.0
  0
LINE
  5
200
330
1FD
100
AcDbEntity
  8
치수문자_일반주서
 62
     0
370
    -2
100
AcDbLine
 10
79.28750000000004
 20
38.22740243970581
 30
0.0
 11
79.28750000000004
 21
65.10196376944813
 31
0.0
  0
LINE
  5
201
330
1FD
100
AcDbEntity
  8
치수문자_일반주서
 62
     0
370
    -2
100
AcDbLine
 10
279.1855
 20
65.10196376944813
 30
0.0
 11
82.58950000000004
 21
65.10196376944813
 31
0.0
  0
SOLID
  5
202
330
1FD
100
AcDbEntity
  8
치수문자_일반주서
 62
     0
100
AcDbTrace
 10
279.1855
 20
64.5516304361148
 30
0.0
 11
279.1855
 21
65.65229710278146
 31
0.0
 12
282.4875000000001
 22
65.10196376944813
 32
0.0
 13
282.4875000000001
 23
65.10196376944813
 33
0.0
  0
SOLID
  5
203
330
1FD
100
AcDbEntity
  8
치수문자_일반주서
 62
     0
100
AcDbTrace
 10
82.58950000000004
 20
65.65229710278146
 30
0.0
 11
82.58950000000004
 21
64.5516304361148
 31
0.0
 12
79.28750000000004
 22
65.10196376944813
 32
0.0
 13
79.28750000000004
 23
65.10196376944813
 33
0.0
  0
MTEXT
  5
204
330
1FD
100
AcDbEntity
  8
치수문자_일반주서
 62
     0
100
AcDbMText
 10
170.7275
 20
69.47696376944813
 30
0.0
 40
3.5
 41
0.0
 71
     2
 72
     1
  1
\A1;203.20 [8]
  7
SLDTEXTSTYLE0
 73
     1
 44
1.0
  0
POINT
  5
205
330
1FD
100
AcDbEntity
  8
Defpoints
 62
     0
100
AcDbPoint
 10
282.4875000000001
 20
38.19299632601152
 30
0.0
  0
POINT
  5
206
330
1FD
100
AcDbEntity
  8
Defpoints
 62
     0
100
AcDbPoint
 10
79.28750000000004
 20
38.16490243970581
 30
0.0
  0
POINT
  5
207
330
1FD
100
AcDbEntity
  8
Defpoints
 62
     0
100
AcDbPoint
 10
79.28750000000004
 20
65.10196376944813
 30
0.0
  0
ENDBLK
  5
208
330
1FD
100
AcDbEntity
  8
0
100
AcDbBlockEnd
  0
BLOCK
  5
20B
330
20A
100
AcDbEntity
  8
0
100
AcDbBlockBegin
  2
*D9
 70
     1
 10
0.0
 20
0.0
 30
0.0
  3
*D9
  1
*D10
  0
LINE
  5
20C
330
20A
100
AcDbEntity
  8
치수문자_일반주서
 62
     0
370
    -2
100
AcDbLine
 10
282.4875000000001
 20
38.25549632601152
 30
0.0
 11
282.4875000000001
 21
79.50196376944807
 31
0.0
  0
LINE
  5
20D
330
20A
100
AcDbEntity
  8
치수문자_일반주서
 62
     0
370
    -2
100
AcDbLine
 10
15.78750000000004
 20
31.90549632601152
 30
0.0
 11
15.78750000000002
 21
79.50196376944807
 31
0.0
  0
LINE
  5
20E
330
20A
100
AcDbEntity
  8
치수문자_일반주서
 62
     0
370
    -2
100
AcDbLine
 10
279.1855
 20
79.50196376944807
 30
0.0
 11
19.08950000000002
 21
79.50196376944807
 31
0.0
  0
SOLID
  5
20F
330
20A
100
AcDbEntity
  8
치수문자_일반주서
 62
     0
100
AcDbTrace
 10
279.1855
 20
78.95163043611474
 30
0.0
 11
279.1855
 21
80.0522971027814
 31
0.0
 12
282.4875000000001
 22
79.50196376944807
 32
0.0
 13
282.4875000000001
 23
79.50196376944807
 33
0.0
  0
SOLID
  5
210
330
20A
100
AcDbEntity
  8
치수문자_일반주서
 62
     0
100
AcDbTrace
 10
19.08950000000002
 20
80.0522971027814
 30
0.0
 11
19.08950000000002
 21
78.95163043611474
 31
0.0
 12
15.78750000000002
 22
79.50196376944807
 32
0.0
 13
15.78750000000002
 23
79.50196376944807
 33
0.0
  0
MTEXT
  5
211
330
20A
100
AcDbEntity
  8
치수문자_일반주서
 62
     0
100
AcDbMText
 10
152.9475000000002
 20
83.87696376944807
 30
0.0
 40
3.5
 41
0.0
 71
     2
 72
     1
  1
\A1;266.70 [10 1/2]
  7
SLDTEXTSTYLE0
 73
     1
 44
1.0
  0
POINT
  5
212
330
20A
100
AcDbEntity
  8
Defpoints
 62
     0
100
AcDbPoint
 10
282.4875000000001
 20
38.19299632601152
 30
0.0
  0
POINT
  5
213
330
20A
100
AcDbEntity
  8
Defpoints
 62
     0
100
AcDbPoint
 10
15.78750000000004
 20
31.84299632601152
 30
0.0
  0
POINT
  5
214
330
20A
100
AcDbEntity
  8
Defpoints
 62
     0
100
AcDbPoint
 10
15.78750000000004
 20
79.50196376944807
 30
0.0
  0
ENDBLK
  5
215
330
20A
100
AcDbEntity
  8
0
100
AcDbBlockEnd
  0
BLOCK
  5
218
330
217
100
AcDbEntity
  8
0
100
AcDbBlockBegin
  2
*D10
 70
     1
 10
0.0
 20
0.0
 30
0.0
  3
*D10
  1
*D11
  0
LINE
  5
219
330
217
100
AcDbEntity
  8
치수문자_일반주서
 62
     0
370
    -2
100
AcDbLine
 10
282.5500000000001
 20
38.19299632601152
 30
0.0
 11
305.3690688917767
 21
38.1929963260116
 31
0.0
  0
LINE
  5
21A
330
217
100
AcDbEntity
  8
치수문자_일반주서
 62
     0
370
    -2
100
AcDbLine
 10
282.5500000000001
 20
0.0929963260114877
 30
0.0
 11
305.3690688917768
 21
0.0929963260115727
 31
0.0
  0
LINE
  5
21B
330
217
100
AcDbEntity
  8
치수문자_일반주서
 62
     0
370
    -2
100
AcDbLine
 10
305.3690688917767
 20
38.1929963260116
 30
0.0
 11
305.3690688917765
 21
92.10785947468216
 31
0.0
  0
LINE
  5
21C
330
217
100
AcDbEntity
  8
치수문자_일반주서
 62
     0
370
    -2
100
AcDbLine
 10
305.3690688917767
 20
34.8909963260116
 30
0.0
 11
305.3690688917768
 21
3.394996326011572
 31
0.0
  0
SOLID
  5
21D
330
217
100
AcDbEntity
  8
치수문자_일반주서
 62
     0
100
AcDbTrace
 10
305.91940222511
 20
34.8909963260116
 30
0.0
 11
304.8187355584433
 21
34.8909963260116
 31
0.0
 12
305.3690688917767
 22
38.1929963260116
 32
0.0
 13
305.3690688917767
 23
38.1929963260116
 33
0.0
  0
SOLID
  5
21E
330
217
100
AcDbEntity
  8
치수문자_일반주서
 62
     0
100
AcDbTrace
 10
304.8187355584434
 20
3.394996326011571
 30
0.0
 11
305.9194022251102
 21
3.394996326011574
 31
0.0
 12
305.3690688917768
 22
0.0929963260115727
 32
0.0
 13
305.3690688917768
 23
0.0929963260115727
 33
0.0
  0
MTEXT
  5
21F
330
217
100
AcDbEntity
  8
치수문자_일반주서
 62
     0
100
AcDbMText
 10
300.9940688917766
 20
76.57660947468214
 30
0.0
 40
3.5
 41
0.0
 71
     2
 72
     1
  1
\A1;%%c38.10 [1 1/2]
  7
SLDTEXTSTYLE0
 11
-2.983906501879683E-15
 21
1.0
 31
0.0
 73
     1
 44
1.0
  0
POINT
  5
220
330
217
100
AcDbEntity
  8
Defpoints
 62
     0
100
AcDbPoint
 10
282.4875000000001
 20
38.19299632601152
 30
0.0
  0
POINT
  5
221
330
217
100
AcDbEntity
  8
Defpoints
 62
     0
100
AcDbPoint
 10
282.4875000000001
 20
0.0929963260114874
 30
0.0
  0
POINT
  5
222
330
217
100
AcDbEntity
  8
Defpoints
 62
     0
100
AcDbPoint
 10
305.3690688917769
 20
0.0929963260115729
 30
0.0
  0
ENDBLK
  5
223
330
217
100
AcDbEntity
  8
0
100
AcDbBlockEnd
  0
BLOCK
  5
29B
330
29A
100
AcDbEntity
  8
0
100
AcDbBlockBegin
  2
*D11
 70
     1
 10
0.0
 20
0.0
 30
0.0
  3
*D11
  1
*D12
  0
LINE
  5
29D
330
29A
100
AcDbEntity
  8
치수문자_일반주서
 62
     0
370
    -2
100
AcDbLine
 10
155.725
 20
-74.98200367398849
 30
0.0
 11
144.3749999999999
 21
-74.98200367398853
 31
0.0
  0
LINE
  5
29E
330
29A
100
AcDbEntity
  8
치수문자_일반주서
 62
     0
370
    -2
100
AcDbLine
 10
158.9
 20
-106.7320036739885
 30
0.0
 11
144.3750000000001
 21
-106.7320036739885
 31
0.0
  0
LINE
  5
29F
330
29A
100
AcDbEntity
  8
치수문자_일반주서
 62
     0
370
    -2
100
AcDbLine
 10
144.3749999999999
 20
-78.28400367398854
 30
0.0
 11
144.3750000000001
 21
-103.4300036739886
 31
0.0
  0
SOLID
  5
2A0
330
29A
100
AcDbEntity
  8
치수문자_일반주서
 62
     0
100
AcDbTrace
 10
144.9253333333333
 20
-78.28400367398854
 30
0.0
 11
143.8246666666666
 21
-78.28400367398854
 31
0.0
 12
144.3749999999999
 22
-74.98200367398853
 32
0.0
 13
144.3749999999999
 23
-74.98200367398853
 33
0.0
  0
SOLID
  5
2A1
330
29A
100
AcDbEntity
  8
치수문자_일반주서
 62
     0
100
AcDbTrace
 10
143.8246666666667
 20
-103.4300036739886
 30
0.0
 11
144.9253333333334
 21
-103.4300036739886
 31
0.0
 12
144.3750000000001
 22
-106.7320036739885
 32
0.0
 13
144.3750000000001
 23
-106.7320036739885
 33
0.0
  0
MTEXT
  5
2A2
330
29A
100
AcDbEntity
  8
치수문자_일반주서
 62
     0
100
AcDbMText
 10
140.0
 20
-90.8570036739885
 30
0.0
 40
3.5
 41
0.0
 71
     2
 72
     1
  1
\A1;%%c31.75 [1 1/4]
  7
SLDTEXTSTYLE0
 11
-3.580687802255621E-15
 21
1.0
 31
0.0
 73
     1
 44
1.0
  0
POINT
  5
2A3
330
29A
100
AcDbEntity
  8
Defpoints
 62
     0
100
AcDbPoint
 10
155.7875
 20
-74.98200367398849
 30
0.0
  0
POINT
  5
2A4
330
29A
100
AcDbEntity
  8
Defpoints
 62
     0
100
AcDbPoint
 10
158.9625
 20
-106.7320036739885
 30
0.0
  0
POINT
  5
2A5
330
29A
100
AcDbEntity
  8
Defpoints
 62
     0
100
AcDbPoint
 10
144.3750000000001
 20
-106.7320036739885
 30
0.0
  0
ENDBLK
  5
29C
330
29A
100
AcDbEntity
  8
0
100
AcDbBlockEnd
  0
BLOCK
  5
2A7
330
2A6
100
AcDbEntity
  8
0
100
AcDbBlockBegin
  2
*D12
 70
     1
 10
0.0
 20
0.0
 30
0.0
  3
*D12
  1
*D13
  0
LINE
  5
2A9
330
2A6
100
AcDbEntity
  8
치수문자_일반주서
 62
     0
370
    -2
100
AcDbLine
 10
422.4875000000001
 20
-71.74450367398848
 30
0.0
 11
422.4875000000001
 21
-44.89803623055185
 31
0.0
  0
LINE
  5
2AA
330
2A6
100
AcDbEntity
  8
치수문자_일반주서
 62
     0
370
    -2
100
AcDbLine
 10
219.2875
 20
-71.77259756029417
 30
0.0
 11
219.2875
 21
-44.89803623055185
 31
0.0
  0
LINE
  5
2AB
330
2A6
100
AcDbEntity
  8
치수문자_일반주서
 62
     0
370
    -2
100
AcDbLine
 10
419.1855
 20
-44.89803623055185
 30
0.0
 11
222.5895
 21
-44.89803623055185
 31
0.0
  0
SOLID
  5
2AC
330
2A6
100
AcDbEntity
  8
치수문자_일반주서
 62
     0
100
AcDbTrace
 10
419.1855
 20
-45.44836956388519
 30
0.0
 11
419.1855
 21
-44.34770289721852
 31
0.0
 12
422.4875000000001
 22
-44.89803623055185
 32
0.0
 13
422.4875000000001
 23
-44.89803623055185
 33
0.0
  0
SOLID
  5
2AD
330
2A6
100
AcDbEntity
  8
치수문자_일반주서
 62
     0
100
AcDbTrace
 10
222.5895
 20
-44.34770289721852
 30
0.0
 11
222.5895
 21
-45.44836956388519
 31
0.0
 12
219.2875
 22
-44.89803623055185
 32
0.0
 13
219.2875
 23
-44.89803623055185
 33
0.0
  0
MTEXT
  5
2AE
330
2A6
100
AcDbEntity
  8
치수문자_일반주서
 62
     0
100
AcDbMText
 10
310.7275
 20
-40.52303623055185
 30
0.0
 40
3.5
 41
0.0
 71
     2
 72
     1
  1
\A1;203.20 [8]
  7
SLDTEXTSTYLE0
 73
     1
 44
1.0
  0
POINT
  5
2AF
330
2A6
100
AcDbEntity
  8
Defpoints
 62
     0
100
AcDbPoint
 10
422.4875000000001
 20
-71.80700367398848
 30
0.0
  0
POINT
  5
2B0
330
2A6
100
AcDbEntity
  8
Defpoints
 62
     0
100
AcDbPoint
 10
219.2875
 20
-71.83509756029417
 30
0.0
  0
POINT
  5
2B1
330
2A6
100
AcDbEntity
  8
Defpoints
 62
     0
100
AcDbPoint
 10
219.2875
 20
-44.89803623055185
 30
0.0
  0
ENDBLK
  5
2A8
330
2A6
100
AcDbEntity
  8
0
100
AcDbBlockEnd
  0
BLOCK
  5
2B3
330
2B2
100
AcDbEntity
  8
0
100
AcDbBlockBegin
  2
*D13
 70
     1
 10
0.0
 20
0.0
 30
0.0
  3
*D13
  1
*D14
  0
LINE
  5
2B5
330
2B2
100
AcDbEntity
  8
치수문자_일반주서
 62
     0
370
    -2
100
AcDbLine
 10
422.4875000000001
 20
-71.74450367398848
 30
0.0
 11
422.4875000000001
 21
-30.49803623055192
 31
0.0
  0
LINE
  5
2B6
330
2B2
100
AcDbEntity
  8
치수문자_일반주서
 62
     0
370
    -2
100
AcDbLine
 10
155.7875
 20
-78.09450367398847
 30
0.0
 11
155.7875
 21
-30.49803623055192
 31
0.0
  0
LINE
  5
2B7
330
2B2
100
AcDbEntity
  8
치수문자_일반주서
 62
     0
370
    -2
100
AcDbLine
 10
419.1855
 20
-30.49803623055192
 30
0.0
 11
159.0895
 21
-30.49803623055192
 31
0.0
  0
SOLID
  5
2B8
330
2B2
100
AcDbEntity
  8
치수문자_일반주서
 62
     0
100
AcDbTrace
 10
419.1855
 20
-31.04836956388525
 30
0.0
 11
419.1855
 21
-29.94770289721858
 31
0.0
 12
422.4875000000001
 22
-30.49803623055192
 32
0.0
 13
422.4875000000001
 23
-30.49803623055192
 33
0.0
  0
SOLID
  5
2B9
330
2B2
100
AcDbEntity
  8
치수문자_일반주서
 62
     0
100
AcDbTrace
 10
159.0895
 20
-29.94770289721858
 30
0.0
 11
159.0895
 21
-31.04836956388525
 31
0.0
 12
155.7875
 22
-30.49803623055192
 32
0.0
 13
155.7875
 23
-30.49803623055192
 33
0.0
  0
MTEXT
  5
2BA
330
2B2
100
AcDbEntity
  8
치수문자_일반주서
 62
     0
100
AcDbMText
 10
292.9475000000001
 20
-26.12303623055192
 30
0.0
 40
3.5
 41
0.0
 71
     2
 72
     1
  1
\A1;266.70 [10 1/2]
  7
SLDTEXTSTYLE0
 73
     1
 44
1.0
  0
POINT
  5
2BB
330
2B2
100
AcDbEntity
  8
Defpoints
 62
     0
100
AcDbPoint
 10
422.4875000000001
 20
-71.80700367398848
 30
0.0
  0
POINT
  5
2BC
330
2B2
100
AcDbEntity
  8
Defpoints
 62
     0
100
AcDbPoint
 10
155.7875
 20
-78.15700367398847
 30
0.0
  0
POINT
  5
2BD
330
2B2
100
AcDbEntity
  8
Defpoints
 62
     0
100
AcDbPoint
 10
155.7875
 20
-30.49803623055192
 30
0.0
  0
ENDBLK
  5
2B4
330
2B2
100
AcDbEntity
  8
0
100
AcDbBlockEnd
  0
BLOCK
  5
2BF
330
2BE
100
AcDbEntity
  8
0
100
AcDbBlockBegin
  2
*D14
 70
     1
 10
0.0
 20
0.0
 30
0.0
  3
*D14
  1
*D15
  0
LINE
  5
2C1
330
2BE
100
AcDbEntity
  8
치수문자_일반주서
 62
     0
370
    -2
100
AcDbLine
 10
422.5500000000001
 20
-71.80700367398848
 30
0.0
 11
445.3690688917767
 21
-71.80700367398839
 31
0.0
  0
LINE
  5
2C2
330
2BE
100
AcDbEntity
  8
치수문자_일반주서
 62
     0
370
    -2
100
AcDbLine
 10
422.5500000000001
 20
-109.9070036739885
 30
0.0
 11
445.3690688917768
 21
-109.9070036739884
 31
0.0
  0
LINE
  5
2C3
330
2BE
100
AcDbEntity
  8
치수문자_일반주서
 62
     0
370
    -2
100
AcDbLine
 10
445.3690688917767
 20
-71.80700367398839
 30
0.0
 11
445.3690688917765
 21
-17.89214052531783
 31
0.0
  0
LINE
  5
2C4
330
2BE
100
AcDbEntity
  8
치수문자_일반주서
 62
     0
370
    -2
100
AcDbLine
 10
445.3690688917767
 20
-75.10900367398838
 30
0.0
 11
445.3690688917768
 21
-106.6050036739884
 31
0.0
  0
SOLID
  5
2C5
330
2BE
100
AcDbEntity
  8
치수문자_일반주서
 62
     0
100
AcDbTrace
 10
445.91940222511
 20
-75.10900367398838
 30
0.0
 11
444.8187355584433
 21
-75.10900367398838
 31
0.0
 12
445.3690688917767
 22
-71.80700367398839
 32
0.0
 13
445.3690688917767
 23
-71.80700367398839
 33
0.0
  0
SOLID
  5
2C6
330
2BE
100
AcDbEntity
  8
치수문자_일반주서
 62
     0
100
AcDbTrace
 10
444.8187355584434
 20
-106.6050036739884
 30
0.0
 11
445.9194022251102
 21
-106.6050036739884
 31
0.0
 12
445.3690688917768
 22
-109.9070036739884
 32
0.0
 13
445.3690688917768
 23
-109.9070036739884
 33
0.0
  0
MTEXT
  5
2C7
330
2BE
100
AcDbEntity
  8
치수문자_일반주서
 62
     0
100
AcDbMText
 10
440.9940688917766
 20
-33.42339052531784
 30
0.0
 40
3.5
 41
0.0
 71
     2
 72
     1
  1
\A1;%%c38.10 [1 1/2]
  7
SLDTEXTSTYLE0
 11
-2.983906501879684E-15
 21
1.0
 31
0.0
 73
     1
 44
1.0
  0
POINT
  5
2C8
330
2BE
100
AcDbEntity
  8
Defpoints
 62
     0
100
AcDbPoint
 10
422.4875000000001
 20
-71.80700367398848
 30
0.0
  0
POINT
  5
2C9
330
2BE
100
AcDbEntity
  8
Defpoints
 62
     0
100
AcDbPoint
 10
422.4875000000001
 20
-109.9070036739885
 30
0.0
  0
POINT
  5
2CA
330
2BE
100
AcDbEntity
  8
Defpoints
 62
     0
100
AcDbPoint
 10
445.3690688917768
 20
-109.9070036739884
 30
0.0
  0
ENDBLK
  5
2C0
330
2BE
100
AcDbEntity
  8
0
100
AcDbBlockEnd
  0
ENDSEC
  0
SECTION
  2
ENTITIES
  0
LINE
  5
96
330
1F
100
AcDbEntity
  8
외형선
  6
Continuous
 62
     1
370
    15
100
AcDbLine
 10
60.99356619599256
 20
2.124587846647476
 30
0.0
 11
60.56060857054685
 21
2.541901720377162
 31
0.0
  0
LINE
  5
97
330
1F
100
AcDbEntity
  8
외형선
  6
Continuous
 62
     1
370
    15
100
AcDbLine
 10
55.31703478212052
 20
-2.413434850638223
 30
0.0
 11
55.44608806411802
 21
-2.538202263913136
 31
0.0
  0
LINE
  5
98
330
1F
100
AcDbEntity
  8
외형선
  6
Continuous
 62
     1
370
    15
100
AcDbLine
 10
95.0799196557443
 20
-2.283627301587157
 30
0.0
 11
95.34505881108757
 21
-2.538930630530569
 31
0.0
  0
LINE
  5
99
330
1F
100
AcDbEntity
  8
외형선
  6
Continuous
 62
     1
370
    15
100
AcDbLine
 10
87.46340491627794
 20
2.249175860681563
 30
0.0
 11
87.16022632661002
 21
2.541445083688126
 31
0.0
  0
LINE
  5
9A
330
1F
100
AcDbEntity
  8
외형선
  6
Continuous
 62
     1
370
    15
100
AcDbLine
 10
81.93109895629577
 20
-2.427783037196148
 30
0.0
 11
82.04692988555001
 21
-2.53935713675419
 31
0.0
  0
LINE
  5
9B
330
1F
100
AcDbEntity
  8
외형선
  6
Continuous
 62
     1
370
    15
100
AcDbLine
 10
162.8641494556504
 20
-12.69892507127611
 30
0.0
 11
164.3999999999999
 21
-12.69892507127611
 31
0.0
  0
LINE
  5
9C
330
1F
100
AcDbEntity
  8
외형선
  6
Continuous
 62
     1
370
    15
100
AcDbLine
 10
83.0673091018973
 20
-12.69892507127611
 30
0.0
 11
86.13754298402148
 21
-12.69892507127611
 31
0.0
  0
LINE
  5
9D
330
1F
100
AcDbEntity
  8
외형선
  6
Continuous
 62
     1
370
    15
100
AcDbLine
 10
46.24165555205936
 20
12.70107492872391
 30
0.0
 11
43.1700923449631
 21
12.70107492872391
 31
0.0
  0
LINE
  5
9E
330
1F
100
AcDbEntity
  8
외형선
  6
Continuous
 62
     1
370
    15
100
AcDbLine
 10
126.0374826497386
 20
12.70107492872391
 30
0.0
 11
122.9677841446276
 21
12.70107492872391
 31
0.0
  0
LINE
  5
9F
330
1F
100
AcDbEntity
  8
외형선
  6
Continuous
 62
     1
370
    15
100
AcDbLine
 10
109.6671147505908
 20
-12.69892507127611
 30
0.0
 11
112.7381187942937
 21
-12.69892507127611
 31
0.0
  0
LINE
  5
A0
330
1F
100
AcDbEntity
  8
외형선
  6
Continuous
 62
     1
370
    15
100
AcDbLine
 10
29.87053330652559
 20
-12.69892507127611
 30
0.0
 11
32.93981929671297
 21
-12.69892507127611
 31
0.0
  0
LINE
  5
A1
330
1F
100
AcDbEntity
  8
외형선
  6
Continuous
 62
     1
370
    15
100
AcDbLine
 10
72.83996379777321
 20
12.70107492872391
 30
0.0
 11
69.76911928500773
 21
12.70107492872391
 31
0.0
  0
LINE
  5
A2
330
1F
100
AcDbEntity
  8
외형선
  6
Continuous
 62
     1
370
    15
100
AcDbLine
 10
152.6345555481871
 20
12.70107492872391
 30
0.0
 11
149.5652988724093
 21
12.70107492872391
 31
0.0
  0
LINE
  5
A3
330
1F
100
AcDbEntity
  8
외형선
  6
Continuous
 62
     1
370
    15
100
AcDbLine
 10
96.367558922695
 20
-12.69892507127611
 30
0.0
 11
99.43834089695177
 21
-12.69892507127611
 31
0.0
  0
LINE
  5
A4
330
1F
100
AcDbEntity
  8
외형선
  6
Continuous
 62
     1
370
    15
100
AcDbLine
 10
16.57119918747487
 20
-12.69892507127611
 30
0.0
 11
19.64146789831405
 21
-12.69892507127611
 31
0.0
  0
LINE
  5
A5
330
1F
100
AcDbEntity
  8
외형선
  6
Continuous
 62
     1
370
    15
100
AcDbLine
 10
59.53994200844316
 20
12.70107492872391
 30
0.0
 11
56.47045808697937
 21
12.70107492872391
 31
0.0
  0
LINE
  5
A6
330
1F
100
AcDbEntity
  8
외형선
  6
Continuous
 62
     1
370
    15
100
AcDbLine
 10
139.3361853905293
 20
12.70107492872391
 30
0.0
 11
136.2651373516567
 21
12.70107492872391
 31
0.0
  0
LINE
  5
A7
330
1F
100
AcDbEntity
  8
외형선
  6
Continuous
 62
     1
370
    15
100
AcDbLine
 10
122.9677841446276
 20
-12.69892507127611
 30
0.0
 11
126.0374826497386
 21
-12.69892507127611
 31
0.0
  0
LINE
  5
A8
330
1F
100
AcDbEntity
  8
외형선
  6
Continuous
 62
     1
370
    15
100
AcDbLine
 10
43.17009234496307
 20
-12.69892507127611
 30
0.0
 11
46.24165555205928
 21
-12.69892507127611
 31
0.0
  0
LINE
  5
A9
330
1F
100
AcDbEntity
  8
외형선
  6
Continuous
 62
     1
370
    15
100
AcDbLine
 10
86.13754298402142
 20
12.70107492872391
 30
0.0
 11
83.06730910189725
 21
12.70107492872391
 31
0.0
  0
LINE
  5
AA
330
1F
100
AcDbEntity
  8
외형선
  6
Continuous
 62
     1
370
    15
100
AcDbLine
 10
164.3999999999999
 20
12.70107492872391
 30
0.0
 11
162.8641494556504
 21
12.70107492872391
 31
0.0
  0
LINE
  5
AB
330
1F
100
AcDbEntity
  8
외형선
  6
Continuous
 62
     1
370
    15
100
AcDbLine
 10
149.5652988724092
 20
-12.69892507127611
 30
0.0
 11
152.634555548187
 21
-12.69892507127611
 31
0.0
  0
LINE
  5
AC
330
1F
100
AcDbEntity
  8
외형선
  6
Continuous
 62
     1
370
    15
100
AcDbLine
 10
69.76911928500768
 20
-12.69892507127611
 30
0.0
 11
72.83996379777318
 21
-12.69892507127611
 31
0.0
  0
LINE
  5
AD
330
1F
100
AcDbEntity
  8
외형선
  6
Continuous
 62
     1
370
    15
100
AcDbLine
 10
32.93981929671294
 20
12.70107492872391
 30
0.0
 11
29.8705333065255
 21
12.70107492872391
 31
0.0
  0
LINE
  5
AE
330
1F
100
AcDbEntity
  8
외형선
  6
Continuous
 62
     1
370
    15
100
AcDbLine
 10
112.7381187942937
 20
12.70107492872391
 30
0.0
 11
109.6671147505907
 21
12.70107492872391
 31
0.0
  0
LINE
  5
AF
330
1F
100
AcDbEntity
  8
외형선
  6
Continuous
 62
     1
370
    15
100
AcDbLine
 10
136.2651373516566
 20
-12.69892507127611
 30
0.0
 11
139.3361853905292
 21
-12.69892507127611
 31
0.0
  0
LINE
  5
B0
330
1F
100
AcDbEntity
  8
외형선
  6
Continuous
 62
     1
370
    15
100
AcDbLine
 10
56.47045808697924
 20
-12.69892507127611
 30
0.0
 11
59.53994200844307
 21
-12.69892507127611
 31
0.0
  0
LINE
  5
B1
330
1F
100
AcDbEntity
  8
외형선
  6
Continuous
 62
     1
370
    15
100
AcDbLine
 10
19.641467898314
 20
12.70107492872391
 30
0.0
 11
16.57119918747473
 21
12.70107492872391
 31
0.0
  0
LINE
  5
B2
330
1F
100
AcDbEntity
  8
외형선
  6
Continuous
 62
     1
370
    15
100
AcDbLine
 10
99.43834089695163
 20
12.70107492872391
 30
0.0
 11
96.36755892269488
 21
12.70107492872391
 31
0.0
  0
LINE
  5
B3
330
1F
100
AcDbEntity
  8
외형선
  6
Continuous
370
    15
100
AcDbLine
 10
-48.96000000000004
 20
-12.69892507127611
 30
0.0
 11
10.9999714782376
 21
-12.69892507127611
 31
0.0
  0
LINE
  5
B4
330
1F
100
AcDbEntity
  8
외형선
  6
Continuous
370
    15
100
AcDbLine
 10
10.9999714782376
 20
12.7010749287239
 30
0.0
 11
-14.06992500000003
 21
12.7010749287239
 31
0.0
  0
LINE
  5
B5
330
1F
100
AcDbEntity
  8
외형선
  6
Continuous
370
    15
100
AcDbLine
 10
-50.86500000000006
 20
10.79607492872389
 30
0.0
 11
-51.50000000000005
 21
10.1610749287239
 31
0.0
  0
LINE
  5
B6
330
1F
100
AcDbEntity
  8
외형선
  6
Continuous
370
    15
100
AcDbLine
 10
-51.50000000000005
 20
-10.15892507127611
 30
0.0
 11
-48.96000000000004
 21
-12.69892507127611
 31
0.0
  0
SPLINE
  5
B7
330
1F
100
AcDbEntity
  8
외형선
  6
Continuous
 62
     1
370
    15
100
AcDbSpline
210
0.0
220
0.0
230
1.0
 70
     8
 71
     3
 72
    26
 73
    22
 74
     0
 42
0.000000001
 43
0.00000001
 40
0.0
 40
0.0
 40
0.0
 40
0.0
 40
0.0450561222128953
 40
0.098308921326068
 40
0.1515631433267653
 40
0.2048184440028107
 40
0.2580725477584132
 40
0.3113252384688645
 40
0.3645766394762064
 40
0.4178268744559856
 40
0.4710760673855827
 40
0.5243243425123693
 40
0.5775718243217104
 40
0.6308186375048328
 40
0.6840649069265742
 40
0.7373107575930316
 40
0.7905563146191327
 40
0.8438017031961411
 40
0.8970470485591193
 40
0.9502924759543683
 40
1.0
 40
1.0
 40
1.0
 40
1.0
 10
32.93981929671295
 20
12.67167452077139
 30
0.0
 10
33.61586794364139
 20
12.65233192631251
 30
0.0
 10
35.09095301486533
 20
12.61012790378446
 30
0.0
 10
37.36513082678105
 20
12.0015259387306
 30
0.0
 10
39.76236382249515
 20
10.97979675275948
 30
0.0
 10
42.15965652668249
 20
9.55582079921373
 30
0.0
 10
44.55688323625503
 20
7.795781868780109
 30
0.0
 10
46.95402192760614
 20
5.758038635173112
 30
0.0
 10
49.3510729449564
 20
3.516095966520553
 30
0.0
 10
51.74804540201544
 20
1.149279651234073
 30
0.0
 10
54.14494745566449
 20
-1.25827330407925
 30
0.0
 10
56.5417875456151
 20
-3.62108708793625
 30
0.0
 10
58.93857405931121
 20
-5.855245233077625
 30
0.0
 10
61.33531541822243
 20
-7.881430853357077
 30
0.0
 10
63.73202005321708
 20
-9.627634243276294
 30
0.0
 10
66.12869640217697
 20
-11.03208002235586
 30
0.0
 10
68.52535292951636
 20
-12.0440438877789
 30
0.0
 10
70.92199803580404
 20
-12.63078607607219
 30
0.0
 10
73.31864038503866
 20
-12.75955752285442
 30
0.0
 10
75.66220269624802
 20
-12.4766610232598
 30
0.0
 10
77.20688875053139
 20
-11.93268838578965
 30
0.0
 10
77.95269077088757
 20
-11.67004867921708
 30
0.0
  0
SPLINE
  5
B8
330
1F
100
AcDbEntity
  8
외형선
  6
Continuous
 62
     1
370
    15
100
AcDbSpline
210
0.0
220
0.0
230
1.0
 70
     8
 71
     3
 72
    27
 73
    23
 74
     0
 42
0.000000001
 43
0.00000001
 40
0.0
 40
0.0
 40
0.0
 40
0.0
 40
0.0295167816398657
 40
0.0827647155963923
 40
0.1360117603815804
 40
0.1892580405285736
 40
0.2425036807689632
 40
0.2957488060005147
 40
0.3489935412547988
 40
0.4022380116647447
 40
0.4554823424321353
 40
0.5087266587950628
 40
0.5619710859953677
 40
0.6152157492460684
 40
0.6684607736988102
 40
0.7217062844113543
 40
0.774952406315115
 40
0.8281992641827661
 40
0.8814469825959538
 40
0.9346956859130927
 40
0.9879454982373228
 40
1.0
 40
1.0
 40
1.0
 40
1.0
 10
112.7381187942937
 20
12.64523858251219
 30
0.0
 10
113.1810100344104
 20
12.65354879034677
 30
0.0
 10
114.4228719682631
 20
12.67685051735643
 30
0.0
 10
116.4636654559027
 20
12.21756260161376
 30
0.0
 10
118.8604933915224
 20
11.32439837065422
 30
0.0
 10
121.2572685279064
 20
10.00765524842532
 30
0.0
 10
123.6540007581714
 20
8.341315009752167
 30
0.0
 10
126.050698121421
 20
6.377264301570419
 30
0.0
 10
128.4473691669933
 20
4.187205011338114
 30
0.0
 10
130.8440223178785
 20
1.848385273993925
 30
0.0
 10
133.2406660381451
 20
-0.5560023493694193
 30
0.0
 10
135.6373087850857
 20
-2.940614161187696
 30
0.0
 10
138.0339590184687
 20
-5.220766471693237
 30
0.0
 10
140.4306251966314
 20
-7.315476646232058
 30
0.0
 10
142.8273157681042
 20
-9.150417943860704
 30
0.0
 10
145.2240391942736
 20
-10.66020434384613
 30
0.0
 10
147.6208038523777
 20
-11.79204833805688
 30
0.0
 10
150.0176183861637
 20
-12.50264448432609
 30
0.0
 10
152.4144903855686
 20
-12.77833538654647
 30
0.0
 10
154.8114313028315
 20
-12.56607499385774
 30
0.0
 10
156.5902930808858
 20
-12.17179247720538
 30
0.0
 10
157.5701852329675
 20
-11.72838159949576
 30
0.0
 10
157.7510632015927
 20
-11.64653253206926
 30
0.0
  0
SPLINE
  5
B9
330
1F
100
AcDbEntity
  8
외형선
  6
Continuous
 62
     1
370
    15
100
AcDbSpline
210
0.0
220
0.0
230
1.0
 70
     8
 71
     3
 72
    27
 73
    23
 74
     0
 42
0.000000001
 43
0.00000001
 40
0.0
 40
0.0
 40
0.0
 40
0.0
 40
0.0191366858694468
 40
0.0723905830400502
 40
0.125643123852549
 40
0.1788944318073978
 40
0.2321446307240095
 40
0.2853938447090045
 40
0.3386421981242944
 40
0.3918898155550216
 40
0.4451368217773661
 40
0.4983833417262509
 40
0.5516295004629482
 40
0.6048754231426208
 40
0.6581212349818037
 40
0.7113670612258535
 40
0.7646130271163806
 40
0.8178592578586847
 40
0.8711058785892092
 40
0.9243530143430376
 40
0.977600790021442
 40
1.0
 40
1.0
 40
1.0
 40
1.0
 10
162.8641494556504
 20
-12.64689669791131
 30
0.0
 10
162.5770034495634
 20
-12.6607607086068
 30
0.0
 10
161.4907826201015
 20
-12.71320572569945
 30
0.0
 10
159.6055422508029
 20
-12.33749510991316
 30
0.0
 10
157.2084433108436
 20
-11.53354870417861
 30
0.0
 10
154.8114299048398
 20
-10.28994917159323
 30
0.0
 10
152.4144907601486
 20
-8.688924222295555
 30
0.0
 10
150.0176182857979
 20
-6.777145937310245
 30
0.0
 10
147.6208038792704
 20
-4.625244926840606
 30
0.0
 10
145.2240391870667
 20
-2.308911751966977
 30
0.0
 10
142.8273157700396
 20
0.089399330187286
 30
0.0
 10
140.430625196097
 20
2.484573231098158
 30
0.0
 10
138.0339590186711
 20
4.791545521728395
 30
0.0
 10
135.6373087848109
 20
6.928388061487974
 30
0.0
 10
133.2406660390417
 20
8.819264608322596
 30
0.0
 10
130.844022314567
 20
10.3968685470386
 30
0.0
 10
128.4473691793428
 20
11.60578289412598
 30
0.0
 10
126.0506980753345
 20
12.40081974105331
 30
0.0
 10
123.6540009301701
 20
12.76216602606103
 30
0.0
 10
121.2572678859887
 20
12.64554914171563
 30
0.0
 10
119.3233555379905
 20
12.26379209425473
 30
0.0
 10
118.1883459788234
 20
11.77819163630816
 30
0.0
 10
117.852267584917
 20
11.63440445789296
 30
0.0
  0
SPLINE
  5
BA
330
1F
100
AcDbEntity
  8
외형선
  6
Continuous
 62
     1
370
    15
100
AcDbSpline
210
0.0
220
0.0
230
1.0
 70
     8
 71
     3
 72
    27
 73
    23
 74
     0
 42
0.000000001
 43
0.00000001
 40
0.0
 40
0.0
 40
0.0
 40
0.0
 40
0.0035984426641101
 40
0.0568470042767073
 40
0.1100951083579523
 40
0.1633428799975338
 40
0.2165904443715576
 40
0.2698379267100181
 40
0.3230854522642426
 40
0.3763331462743205
 40
0.42958113393654
 40
0.4828295403708501
 40
0.5360784905883652
 40
0.5893281094589342
 40
0.642578521678787
 40
0.6958298517382868
 40
0.7490822238897902
 40
0.8023357621156547
 40
0.8555905900963906
 40
0.9088468311789886
 40
0.9621042692300673
 40
1.0
 40
1.0
 40
1.0
 40
1.0
 10
83.06730910189727
 20
-12.6847079354367
 30
0.0
 10
83.01332025394787
 20
-12.68939178171686
 30
0.0
 10
82.16042233205411
 20
-12.76338563249436
 30
0.0
 10
80.50863498864457
 20
-12.48511494729917
 30
0.0
 10
78.11194954920703
 20
-11.82234783365731
 30
0.0
 10
75.71528811619527
 20
-10.69030525975273
 30
0.0
 10
73.31864026579898
 20
-9.191838857323264
 30
0.0
 10
70.92199806775429
 20
-7.363374120040264
 30
0.0
 10
68.52535292095496
 20
-5.274338137475435
 30
0.0
 10
66.12869640447228
 20
-2.99770699221925
 30
0.0
 10
63.7320200525973
 20
-0.6146462584759262
 30
0.0
 10
61.33531541840637
 20
1.79030720549555
 30
0.0
 10
58.9385740591954
 20
4.131730183354049
 30
0.0
 10
56.54178754589463
 20
6.326473633131027
 30
0.0
 10
54.14494745466192
 20
8.296619503832702
 30
0.0
 10
51.7480454057463
 20
9.972100541186238
 30
0.0
 10
49.35107293103523
 20
11.29377078791449
 30
0.0
 10
46.95402197956158
 20
12.21332333422664
 30
0.0
 10
44.55688304234771
 20
12.70315575059106
 30
0.0
 10
42.15965725038177
 20
12.72693562788805
 30
0.0
 10
39.99284222893314
 20
12.39023341868234
 30
0.0
 10
38.62514684579356
 20
11.86201289288869
 30
0.0
 10
38.05654548299822
 20
11.64241215830605
 30
0.0
  0
LINE
  5
BB
330
1F
100
AcDbEntity
  8
외형선
  6
Continuous
 62
     1
370
    15
100
AcDbLine
 10
164.3999999999999
 20
7.610036585045756
 30
0.0
 11
164.3999999999999
 21
12.60839732520899
 31
0.0
  0
SPLINE
  5
BC
330
1F
100
AcDbEntity
  8
외형선
  6
Continuous
 62
     1
370
    15
100
AcDbSpline
210
0.0
220
0.0
230
1.0
 70
     8
 71
     3
 72
    19
 73
    15
 74
     0
 42
0.000000001
 43
0.00000001
 40
0.0
 40
0.0
 40
0.0
 40
0.0
 40
0.0824136939965592
 40
0.1648098925715107
 40
0.2471985016081648
 40
0.3295894517491359
 40
0.4215674112358722
 40
0.5135465429252369
 40
0.6055270621809121
 40
0.6975091840065327
 40
0.7894931229902004
 40
0.8814790932492303
 40
0.9734673083751723
 40
1.0
 40
1.0
 40
1.0
 40
1.0
 10
11.99999999999995
 20
0.9927061502568377
 30
0.0
 10
12.71578601327666
 20
0.2764494633231866
 30
0.0
 10
14.14720608719365
 20
-1.155911857989381
 30
0.0
 10
16.29385890529833
 20
-3.279214123335559
 30
0.0
 10
18.44028755996432
 20
-5.306858231770961
 30
0.0
 10
20.6697644992712
 20
-7.256376776193949
 30
0.0
 10
22.98345080399
 20
-9.045148705216947
 30
0.0
 10
25.38018426880583
 20
-10.57686170392447
 30
0.0
 10
27.77704424496578
 20
-11.73353323639463
 30
0.0
 10
30.17394766935085
 20
-12.47126088010966
 30
0.0
 10
32.57092664687419
 20
-12.77430443788029
 30
0.0
 10
34.96798611703548
 20
-12.5928213800064
 30
0.0
 10
36.79653085928781
 20
-12.20090790462728
 30
0.0
 10
37.82606806066563
 20
-11.74281361349169
 30
0.0
 10
38.05654548299825
 20
-11.64026230085826
 30
0.0
  0
SPLINE
  5
BD
330
1F
100
AcDbEntity
  8
외형선
  6
Continuous
 62
     1
370
    15
100
AcDbSpline
210
0.0
220
0.0
230
1.0
 70
     8
 71
     3
 72
    27
 73
    23
 74
     0
 42
0.000000001
 43
0.00000001
 40
0.0
 40
0.0
 40
0.0
 40
0.0
 40
0.0106347690562195
 40
0.0638811905221051
 40
0.1171278192491002
 40
0.1703747804106238
 40
0.2236221990936786
 40
0.2768702002663785
 40
0.3301189087455373
 40
0.3833684491643466
 40
0.4366189459401605
 40
0.4898705232424025
 40
0.5431233049606129
 40
0.5963774146726566
 40
0.6496329756131098
 40
0.7028891606829706
 40
0.7561439227328665
 40
0.8093973000516603
 40
0.8626494160632052
 40
0.9159003945175989
 40
0.9691503594594656
 40
1.0
 40
1.0
 40
1.0
 40
1.0
 10
72.83996379777321
 20
12.66498094848045
 30
0.0
 10
72.99952231292833
 20
12.67622216983434
 30
0.0
 10
73.95796229899332
 20
12.74374621283073
 30
0.0
 10
75.71528808840752
 20
12.42585886581764
 30
0.0
 10
78.11194979698854
 20
11.69782594870242
 30
0.0
 10
80.50863402529609
 20
10.51510487943685
 30
0.0
 10
82.90534913612684
 20
8.969540097958706
 30
0.0
 10
85.30210359031001
 20
7.102653457351357
 30
0.0
 10
87.69890581028075
 20
4.984314300757829
 30
0.0
 10
90.09576420548574
 20
2.688784748326415
 30
0.0
 10
92.49268719255585
 20
0.2978375750646384
 30
0.0
 10
94.8896830746222
 20
-2.103687633823962
 30
0.0
 10
97.28676048936799
 20
-4.430486732036864
 30
0.0
 10
99.68392672299383
 20
-6.599917729436406
 30
0.0
 10
102.081179738218
 20
-8.534941745701424
 30
0.0
 10
104.4784664158988
 20
-10.16668648790306
 30
0.0
 10
106.8756732941973
 20
-11.43767785518461
 30
0.0
 10
109.2727914378442
 20
-12.30102923555104
 30
0.0
 10
111.6698237157153
 20
-12.73253536236018
 30
0.0
 10
114.0667785990378
 20
-12.69286030041801
 30
0.0
 10
116.1275869775777
 20
-12.33194736114359
 30
0.0
 10
117.3894043768101
 20
-11.82003547681606
 30
0.0
 10
117.8522675849171
 20
-11.63225460044517
 30
0.0
  0
SPLINE
  5
BE
330
1F
100
AcDbEntity
  8
외형선
  6
Continuous
 62
     1
370
    15
100
AcDbSpline
210
0.0
220
0.0
230
1.0
 70
     8
 71
     3
 72
    12
 73
     8
 74
     0
 42
0.000000001
 43
0.00000001
 40
0.0
 40
0.0
 40
0.0
 40
0.0
 40
0.1850259969467853
 40
0.3887619502941297
 40
0.5925026204726318
 40
0.7962484799867908
 40
0.9999999999999999
 40
0.9999999999999999
 40
0.9999999999999999
 40
0.9999999999999999
 10
152.6345555481871
 20
12.68225628159879
 30
0.0
 10
153.3601746584161
 20
12.65386353490014
 30
0.0
 10
154.8847879836691
 20
12.59420694737775
 30
0.0
 10
157.2084439161694
 20
11.95141665058257
 30
0.0
 10
159.6055411589987
 20
10.89890186919347
 30
0.0
 10
162.0027279137258
 20
9.468051787838748
 30
0.0
 10
163.6009019045584
 20
8.243379045124513
 30
0.0
 10
164.3999999999999
 20
7.63103416787356
 30
0.0
  0
SPLINE
  5
BF
330
1F
100
AcDbEntity
  8
외형선
  6
Continuous
 62
     1
370
    15
100
AcDbSpline
210
0.0
220
0.0
230
1.0
 70
     8
 71
     3
 72
    10
 73
     6
 74
     0
 42
0.000000001
 43
0.00000001
 40
0.0
 40
0.0
 40
0.0
 40
0.0
 40
0.3605474753140102
 40
0.7210849341204677
 40
1.0
 40
1.0
 40
1.0
 40
1.0
 10
164.3999999999999
 20
12.60839732520899
 30
0.0
 10
163.6009020701038
 20
12.6588666609681
 30
0.0
 10
162.0027284103571
 20
12.75980393037834
 30
0.0
 10
159.7864192757503
 20
12.41187019231966
 30
0.0
 10
158.3692159754318
 20
11.88046819999634
 30
0.0
 10
157.7510632015927
 20
11.64868238951705
 30
0.0
  0
SPLINE
  5
C0
330
1F
100
AcDbEntity
  8
외형선
  6
Continuous
 62
     1
370
    15
100
AcDbSpline
210
0.0
220
0.0
230
1.0
 70
     8
 71
     3
 72
    27
 73
    23
 74
     0
 42
0.000000001
 43
0.00000001
 40
0.0
 40
0.0
 40
0.0
 40
0.0
 40
0.0379997259712579
 40
0.0912448362658898
 40
0.1444907111819183
 40
0.1977374752497481
 40
0.2509852527691822
 40
0.30423416777739
 40
0.3574843440170286
 40
0.4107359049045319
 40
0.4639888887264613
 40
0.5172412484565014
 40
0.5704921570453648
 40
0.6237417377202219
 40
0.676990114051508
 40
0.7302374099213171
 40
0.7834837494916084
 40
0.8367292571722565
 40
0.8899740575889633
 40
0.9432182755510383
 40
0.9964620360190832
 40
1.0
 40
1.0
 40
1.0
 40
1.0
 10
122.9677841446276
 20
-12.65276219805225
 30
0.0
 10
122.3976152749792
 20
-12.64892064925427
 30
0.0
 10
121.0285273717054
 20
-12.63969633296986
 30
0.0
 10
118.8604929181273
 20
-12.10233413622076
 30
0.0
 10
116.4636662502667
 20
-11.13834428601665
 30
0.0
 10
114.0667791050487
 20
-9.762695807847212
 30
0.0
 10
111.6698235801259
 20
-8.044582709968768
 30
0.0
 10
109.2727914741765
 20
-6.03955754774573
 30
0.0
 10
106.8756732844615
 20
-3.820280611230429
 30
0.0
 10
104.4784664185084
 20
-1.46516786496366
 30
0.0
 10
102.0811797375159
 20
0.9419857407941162
 30
0.0
 10
99.6839267231929
 20
3.315739623404846
 30
0.0
 10
97.28676048927387
 20
5.57175504376871
 30
0.0
 10
94.88968307479983
 20
7.629878169803866
 30
0.0
 10
92.49268719193917
 20
9.417102887818116
 30
0.0
 10
90.09576420777448
 20
10.86967707174169
 30
0.0
 10
87.69890580174238
 20
11.93711192507621
 30
0.0
 10
85.30210362217377
 20
12.57745813682505
 30
0.0
 10
82.905349017212
 20
12.78310927018396
 30
0.0
 10
80.5086344690855
 20
12.49032847728139
 30
0.0
 10
78.85775266855285
 20
12.09758667283992
 30
0.0
 10
78.00577586595003
 20
11.69714906182294
 30
0.0
 10
77.95269077088757
 20
11.67219853666487
 30
0.0
  0
SPLINE
  5
C1
330
1F
100
AcDbEntity
  8
외형선
  6
Continuous
 62
     1
370
    15
100
AcDbSpline
210
0.0
220
0.0
230
1.0
 70
     8
 71
     3
 72
    21
 73
    17
 74
     0
 42
0.000000001
 43
0.00000001
 40
0.0
 40
0.0
 40
0.0
 40
0.0
 40
0.0324133744763685
 40
0.1093157961411557
 40
0.1862166601629411
 40
0.2631154694879153
 40
0.3400124021856252
 40
0.4169076368108526
 40
0.4938013523579028
 40
0.5706937282146405
 40
0.6475849441163011
 40
0.724475180099107
 40
0.793351024209352
 40
0.862224911241353
 40
0.9311051428519246
 40
1.0
 40
1.0
 40
1.0
 40
1.0
 10
43.17009234496308
 20
-12.64381209577823
 30
0.0
 10
42.8332847281789
 20
-12.65698608734923
 30
0.0
 10
41.69738347229431
 20
-12.70141606109326
 30
0.0
 10
39.76236257011217
 20
-12.300528573804
 30
0.0
 10
37.36513074832538
 20
-11.4677421819867
 30
0.0
 10
34.96798441243818
 20
-10.20062624944817
 30
0.0
 10
32.57092710360407
 20
-8.57844246720848
 30
0.0
 10
30.17394754697404
 20
-6.649640477508573
 30
0.0
 10
27.77704427775622
 20
-4.485175901265674
 30
0.0
 10
25.38018426001756
 20
-2.16129747059554
 30
0.0
 10
22.98345080635339
 20
0.2394235914666154
 30
0.0
 10
20.669764498711
 20
2.548186591487619
 30
0.0
 10
18.44028756010737
 20
4.692738815327953
 30
0.0
 10
16.29385890526021
 20
6.618265581617504
 30
0.0
 10
14.14720608720324
 20
8.37528579050397
 30
0.0
 10
12.71578601327989
 20
9.337371111559152
 30
0.0
 10
11.99999999999999
 20
9.818464837250524
 30
0.0
  0
SPLINE
  5
C2
330
1F
100
AcDbEntity
  8
외형선
  6
Continuous
370
    15
100
AcDbSpline
210
0.0
220
0.0
230
1.0
 70
    24
 71
     3
 72
    16
 73
    12
 74
     0
 42
0.000000001
 43
0.00000001
 40
0.0
 40
0.0
 40
0.0
 40
0.0
 40
0.004462949158079
 40
0.141077383052162
 40
0.2776918169462324
 40
0.4143062508403052
 40
0.5509206847343778
 40
0.6875351186284538
 40
0.8241495525225264
 40
0.9607639864165971
 40
1.0
 40
1.0
 40
1.0
 40
1.0
 10
11.99999999999999
 20
9.818464837250527
 30
0.0
 10
11.99999999999997
 20
9.806702434440446
 30
0.0
 10
11.99999999999967
 20
9.434883498558644
 30
0.0
 10
12.00000000000015
 20
8.537216367503227
 30
0.0
 10
11.99999999999992
 20
6.919027329474308
 30
0.0
 10
11.99999999999991
 20
5.180622863592792
 30
0.0
 10
11.99999999999998
 20
3.524092536212746
 30
0.0
 10
12.00000000000001
 20
2.121132193421544
 30
0.0
 10
11.99999999999988
 20
1.184078850541591
 30
0.0
 10
11.99999999999997
 20
0.751728326624709
 30
0.0
 10
11.99999999999998
 20
0.835946138814687
 30
0.0
 10
11.99999999999998
 20
0.8547369424233826
 30
0.0
  0
SPLINE
  5
C3
330
1F
100
AcDbEntity
  8
외형선
  6
Continuous
 62
     1
370
    15
100
AcDbSpline
210
0.0
220
0.0
230
1.0
 70
     8
 71
     3
 72
    24
 73
    20
 74
     0
 42
0.000000001
 43
0.00000001
 40
0.0
 40
0.0
 40
0.0
 40
0.0
 40
0.0545679776973949
 40
0.1091243712789736
 40
0.1636757396549528
 40
0.2182286581292465
 40
0.2791293531294446
 40
0.3400308242716137
 40
0.4009332141529365
 40
0.4618366651322007
 40
0.5227413192930598
 40
0.583647318407449
 40
0.6445548038991821
 40
0.7054639168077402
 40
0.7663742634430549
 40
0.8272832411096819
 40
0.8881906026166236
 40
0.9490964890354061
 40
1.0
 40
1.0
 40
1.0
 40
1.0
 10
11.99999999999994
 20
11.46183470899535
 30
0.0
 10
12.71578601327966
 20
11.12187509400128
 30
0.0
 10
14.14720608720261
 20
10.44202803329114
 30
0.0
 10
16.29385890526238
 20
9.036915772564486
 30
0.0
 10
18.440287560099
 20
7.397679669852368
 30
0.0
 10
20.66976449874355
 20
5.469474232950124
 30
0.0
 10
22.98345080621604
 20
3.290684459296398
 30
0.0
 10
25.38018426052835
 20
0.9161559243661282
 30
0.0
 10
27.77704427585045
 20
-1.490757735319664
 30
0.0
 10
30.17394755408667
 20
-3.844748080235004
 30
0.0
 10
32.57092707705871
 20
-6.062166218367609
 30
0.0
 10
34.96798451151022
 20
-8.06429076170349
 30
0.0
 10
37.36513037856971
 20
-9.779929781561865
 30
0.0
 10
39.76236395011102
 20
-11.14842106552232
 30
0.0
 10
42.15965646444604
 20
-12.12007141039353
 30
0.0
 10
44.55688335758222
 20
-12.66435004857821
 30
0.0
 10
46.95402150454807
 20
-12.74712467905227
 30
0.0
 10
49.21987204229747
 20
-12.43854563191908
 30
0.0
 10
50.68666623517409
 20
-11.89972473732476
 30
0.0
 10
51.35445423893093
 20
-11.65441552398656
 30
0.0
  0
SPLINE
  5
C4
330
1F
100
AcDbEntity
  8
외형선
  6
Continuous
 62
     1
370
    15
100
AcDbSpline
210
0.0
220
0.0
230
1.0
 70
     8
 71
     3
 72
    27
 73
    23
 74
     0
 42
0.000000001
 43
0.00000001
 40
0.0
 40
0.0
 40
0.0
 40
0.0
 40
0.0346856627728657
 40
0.0879317249494969
 40
0.1411787434206637
 40
0.194426842347679
 40
0.2476761456119906
 40
0.3009267767833913
 40
0.354178859088408
 40
0.4074315654820642
 40
0.4606828489487066
 40
0.5139327477746973
 40
0.5671813853758271
 40
0.6204288854941106
 40
0.6736753721660694
 40
0.7269209696908577
 40
0.7801658025982339
 40
0.8334099956163994
 40
0.8866536736397246
 40
0.939896961696382
 40
0.9931399849158998
 40
1.0
 40
1.0
 40
1.0
 40
1.0
 10
86.13754298402142
 20
12.64976591196575
 30
0.0
 10
86.65799347250827
 20
12.65150607759274
 30
0.0
 10
87.97738902516464
 20
12.65591757655357
 30
0.0
 10
90.0957646320891
 20
12.15005010900436
 30
0.0
 10
92.49268707824105
 20
11.21350378519288
 30
0.0
 10
94.88968310526674
 20
9.860713693651348
 30
0.0
 10
97.28676048110809
 20
8.16257104358379
 30
0.0
 10
99.68392672538795
 20
6.173246272445332
 30
0.0
 10
102.0811797369018
 20
3.965038975098211
 30
0.0
 10
104.4784664187692
 20
1.61596468109776
 30
0.0
 10
106.8756732840326
 20
-0.790454166077662
 30
0.0
 10
109.2727914756315
 20
-3.168732864706145
 30
0.0
 10
111.6698235747351
 20
-5.43440944232258
 30
0.0
 10
114.066779125156
 20
-7.507008290218221
 30
0.0
 10
116.4636661752303
 20
-9.31300166031089
 30
0.0
 10
118.8604931981599
 20
-10.7880003521713
 30
0.0
 10
121.2572685820444
 20
-11.88061014039648
 30
0.0
 10
123.6540007349781
 20
-12.54839082333371
 30
0.0
 10
126.0506981600565
 20
-12.78125044298945
 30
0.0
 10
128.4473690356459
 20
-12.52011622684956
 30
0.0
 10
130.1480719066219
 20
-12.12540755844691
 30
0.0
 10
131.0498855520526
 20
-11.70733414820851
 30
0.0
 10
131.152816375274
 20
-11.65961626269981
 30
0.0
  0
SPLINE
  5
C5
330
1F
100
AcDbEntity
  8
외형선
  6
Continuous
 62
     1
370
    15
100
AcDbSpline
210
0.0
220
0.0
230
1.0
 70
     8
 71
     3
 72
    27
 73
    23
 74
     0
 42
0.000000001
 43
0.00000001
 40
0.0
 40
0.0
 40
0.0
 40
0.0
 40
0.0139484201181857
 40
0.0671943705216899
 40
0.1204403353300983
 40
0.1736864397853477
 40
0.2269328090930632
 40
0.280179568390014
 40
0.3334268427116088
 40
0.386674756959445
 40
0.4399234358689438
 40
0.4931730039770675
 40
0.5464235855901652
 40
0.5996753047519384
 40
0.6529282852115601
 40
0.7061826503919638
 40
0.7594384385817272
 40
0.812693602646736
 40
0.8659473154941489
 40
0.9191997003576261
 40
0.97245088081411
 40
1.0
 40
1.0
 40
1.0
 40
1.0
 10
136.2651373516566
 20
-12.65525283025292
 30
0.0
 10
136.0558607224876
 20
-12.66824408767655
 30
0.0
 10
135.0477027201644
 20
-12.73082747400058
 30
0.0
 10
133.2406662163794
 20
-12.39163232659303
 30
0.0
 10
130.8440222703675
 20
-11.63370058276095
 30
0.0
 10
128.447369178802
 20
-10.42722717175188
 30
0.0
 10
126.0506981216975
 20
-8.859904609075754
 30
0.0
 10
123.6540007452566
 20
-6.975367681476197
 30
0.0
 10
121.25726857929
 20
-4.843754229250965
 30
0.0
 10
118.8604931988992
 20
-2.539893694964426
 30
0.0
 10
116.4636661750275
 20
-0.1458278557231955
 30
0.0
 10
114.0667791252274
 20
2.253487770053162
 30
0.0
 10
111.669823574652
 20
4.57283246116271
 30
0.0
 10
109.2727914758925
 20
6.729829880453918
 30
0.0
 10
106.8756732830712
 20
8.647905028072602
 30
0.0
 10
104.4784664223534
 20
10.25879097111009
 30
0.0
 10
102.0811797235257
 20
11.50575338306202
 30
0.0
 10
99.6839267753073
 20
12.34259915856495
 30
0.0
 10
97.28676029481386
 20
12.74675906160524
 30
0.0
 10
94.88968380050098
 20
12.67715713060234
 30
0.0
 10
92.87831089922877
 20
12.30701417506409
 30
0.0
 10
91.66597076880528
 20
11.80449082985714
 30
0.0
 10
91.25261954492741
 20
11.63315389680029
 30
0.0
  0
SPLINE
  5
C6
330
1F
100
AcDbEntity
  8
외형선
  6
Continuous
 62
     1
370
    15
100
AcDbSpline
210
0.0
220
0.0
230
1.0
 70
     8
 71
     3
 72
    26
 73
    22
 74
     0
 42
0.000000001
 43
0.00000001
 40
0.0
 40
0.0
 40
0.0
 40
0.0
 40
0.0522919953178467
 40
0.1061890588952073
 40
0.1600871772011336
 40
0.2139864757214115
 40
0.2678870796363194
 40
0.321789113788572
 40
0.3756923594239225
 40
0.4295945132599315
 40
0.4834952268964705
 40
0.5373946251478994
 40
0.5912928331686937
 40
0.6451899764214046
 40
0.6990861806444411
 40
0.7529815718196944
 40
0.8068762761400272
 40
0.855153449511755
 40
0.9034292511078348
 40
0.9517094998119475
 40
1.0
 40
1.0
 40
1.0
 40
1.0
 10
56.47045808697926
 20
-12.69241122887954
 30
0.0
 10
55.69529267154211
 20
-12.65398996886988
 30
0.0
 10
54.1211686502067
 20
-12.57596813365029
 30
0.0
 10
51.74804516958256
 20
-11.89567314926066
 30
0.0
 10
49.35107300781037
 20
-10.82088300726455
 30
0.0
 10
46.95402190862985
 20
-9.352404049349444
 30
0.0
 10
44.55688324930457
 20
-7.554211317901562
 30
0.0
 10
42.15965649345998
 20
-5.486986331786375
 30
0.0
 10
39.76236394233684
 20
-3.225040053533412
 30
0.0
 10
37.36513038065264
 20
-0.8484459626865709
 30
0.0
 10
34.96798451095211
 20
1.558280982224923
 30
0.0
 10
32.57092707720825
 20
3.909677616994753
 30
0.0
 10
30.17394755404658
 20
6.122230988883422
 30
0.0
 10
27.77704427586112
 20
8.117386466892194
 30
0.0
 10
25.38018426052547
 20
9.824245675728786
 30
0.0
 10
22.9834508062168
 20
11.18239530400799
 30
0.0
 10
20.66976449874337
 20
12.10952487845407
 30
0.0
 10
18.44028756009912
 20
12.62483411313761
 30
0.0
 10
16.29385890526243
 20
12.75458864864017
 30
0.0
 10
14.14720608720265
 20
12.54501037256028
 30
0.0
 10
12.7157860132797
 20
12.10634760393594
 30
0.0
 10
11.99999999999999
 20
11.88699293646413
 30
0.0
  0
SPLINE
  5
C7
330
1F
100
AcDbEntity
  8
외형선
  6
Continuous
370
    15
100
AcDbSpline
210
0.0
220
0.0
230
1.0
 70
    24
 71
     3
 72
     9
 73
     5
 74
     0
 42
0.000000001
 43
0.00000001
 40
0.0
 40
0.0
 40
0.0
 40
0.0
 40
0.1930277104328409
 40
1.0
 40
1.0
 40
1.0
 40
1.0
 10
11.99999999999999
 20
11.88699293646411
 30
0.0
 10
11.99999999999998
 20
11.86859075772091
 30
0.0
 10
11.9999999999999
 20
11.7732563691923
 30
0.0
 10
11.99999999999994
 20
11.68416300361183
 30
0.0
 10
11.99999999999995
 20
11.6122671264041
 30
0.0
  0
LINE
  5
C8
330
1F
100
AcDbEntity
  8
외형선
  6
Continuous
 62
     1
370
    15
100
AcDbLine
 10
164.3999999999999
 20
-12.60624746776119
 30
0.0
 11
164.3999999999999
 21
-7.619039206864474
 31
0.0
  0
SPLINE
  5
C9
330
1F
100
AcDbEntity
  8
외형선
  6
Continuous
 62
     1
370
    15
100
AcDbSpline
210
0.0
220
0.0
230
1.0
 70
     8
 71
     3
 72
    27
 73
    23
 74
     0
 42
0.000000001
 43
0.00000001
 40
0.0
 40
0.0
 40
0.0
 40
0.0
 40
0.0158260252877606
 40
0.069078765532952
 40
0.1223303397212559
 40
0.1755808718331708
 40
0.228830486119193
 40
0.2820793070678184
 40
0.3353274593734094
 40
0.3885750679039442
 40
0.4418222576686636
 40
0.495069153785642
 40
0.5483158814492912
 40
0.6015625658978233
 40
0.6548093323806893
 40
0.7080563061260077
 40
0.7613036123080086
 40
0.8145513760145052
 40
0.8677997222144213
 40
0.9210487757253795
 40
0.9742986611813788
 40
1.0
 40
1.0
 40
1.0
 40
1.0
 10
46.24165555205936
 20
12.65388261829304
 30
0.0
 10
46.47911611072688
 20
12.66745927904445
 30
0.0
 10
47.51560391845218
 20
12.72671982916451
 30
0.0
 10
49.35107157931072
 20
12.37472935993682
 30
0.0
 10
51.74804576792863
 20
11.60000242655926
 30
0.0
 10
54.14494735761852
 20
10.3800273072386
 30
0.0
 10
56.54178757189505
 20
8.800402346121887
 30
0.0
 10
58.93857405223519
 20
6.905907474681682
 30
0.0
 10
61.33531542024706
 20
4.766859014106019
 30
0.0
 10
63.73202005219439
 20
2.458407489844627
 30
0.0
 10
66.12869640424319
 20
0.0627470464231861
 30
0.0
 10
68.52535292227421
 20
-2.335108528822219
 30
0.0
 10
70.92199806270644
 20
-4.649998235442378
 30
0.0
 10
73.31864028467153
 20
-6.799714107192815
 30
0.0
 10
75.71528804575286
 20
-8.707957428481214
 30
0.0
 10
78.11194981210575
 20
-10.30681925047083
 30
0.0
 10
80.5086340074822
 20
-11.54006615293537
 30
0.0
 10
82.90534919226575
 20
-12.36186555387038
 30
0.0
 10
85.30210338356491
 20
-12.75062347891132
 30
0.0
 10
87.69890658113735
 20
-12.66418100647907
 30
0.0
 10
89.6824139254678
 20
-12.28947354442845
 30
0.0
 10
90.86699701024881
 20
-11.79271577723519
 30
0.0
 10
91.2526195449275
 20
-11.6310040393525
 30
0.0
  0
SPLINE
  5
CA
330
1F
100
AcDbEntity
  8
외형선
  6
Continuous
 62
     1
370
    15
100
AcDbSpline
210
0.0
220
0.0
230
1.0
 70
     8
 71
     3
 72
    24
 73
    20
 74
     0
 42
0.000000001
 43
0.00000001
 40
0.0
 40
0.0
 40
0.0
 40
0.0
 40
0.0003446100870871
 40
0.0628202664550916
 40
0.1252956120632852
 40
0.1877707938194046
 40
0.2502459586737915
 40
0.3127212535811847
 40
0.3751968254625049
 40
0.4376728211666594
 40
0.5001493874323947
 40
0.5626266708502058
 40
0.6251048178243275
 40
0.6875839745348477
 40
0.7500642868999227
 40
0.8125459005381771
 40
0.8750289607312353
 40
0.9375136123864789
 40
1.0
 40
1.0
 40
1.0
 40
1.0
 10
126.0374826497386
 20
12.69983790244811
 30
0.0
 10
126.0418892704676
 20
12.70025001144969
 30
0.0
 10
126.8451887057825
 20
12.77537490842013
 30
0.0
 10
128.4473684209103
 20
12.51280183408231
 30
0.0
 10
130.8440225177873
 20
11.88171664358114
 30
0.0
 10
133.2406659845895
 20
10.77353795356965
 30
0.0
 10
135.6373087993996
 20
9.297605665670574
 30
0.0
 10
138.0339590147686
 20
7.487576702944015
 30
0.0
 10
140.4306251971179
 20
5.41274921790165
 30
0.0
 10
142.8273157698582
 20
3.145451612323632
 30
0.0
 10
145.2240391867712
 20
0.766559936544546
 30
0.0
 10
147.620803880634
 20
-1.639562045850731
 30
0.0
 10
150.0176182806388
 20
-3.987387302263001
 30
0.0
 10
152.4144907794211
 20
-6.193755111363068
 30
0.0
 10
154.8114298329066
 20
-8.17952146858899
 30
0.0
 10
157.2084435793116
 20
-9.87708507363072
 30
0.0
 10
159.6055412488309
 20
-11.21522677429422
 30
0.0
 10
162.0027278912667
 20
-12.18717061643966
 30
0.0
 10
163.600901897072
 20
-12.46655389036041
 30
0.0
 10
164.3999999999999
 20
-12.60624746776119
 30
0.0
  0
SPLINE
  5
CB
330
1F
100
AcDbEntity
  8
외형선
  6
Continuous
 62
     1
370
    15
100
AcDbSpline
210
0.0
220
0.0
230
1.0
 70
     8
 71
     3
 72
    21
 73
    17
 74
     0
 42
0.000000001
 43
0.00000001
 40
0.0
 40
0.0
 40
0.0
 40
0.0
 40
0.0721006612022391
 40
0.1441993193483845
 40
0.2162961411669651
 40
0.2883912938610877
 40
0.360484945065686
 40
0.4325772628045346
 40
0.5046684154470373
 40
0.5767585716648237
 40
0.6488479003881621
 40
0.7209365707622379
 40
0.7930247521032964
 40
0.8651126138546977
 40
0.9372003255428927
 40
1.0
 40
1.0
 40
1.0
 40
1.0
 10
164.3999999999999
 20
-7.628884310425708
 30
0.0
 10
163.600901897072
 20
-6.963926374614983
 30
0.0
 10
162.0027278912669
 20
-5.634028976444728
 30
0.0
 10
159.6055412488308
 20
-3.366421205205086
 30
0.0
 10
157.2084435793119
 20
-0.9987002058948894
 30
0.0
 10
154.8114298329052
 20
1.409713327940025
 30
0.0
 10
152.4144907794266
 20
3.766678787045465
 30
0.0
 10
150.0176182806182
 20
5.990262009796851
 30
0.0
 10
147.6208038807112
 20
8.001047160030858
 30
0.0
 10
145.2240391864832
 20
9.72768968591473
 30
0.0
 10
142.8273157709329
 20
11.10911001829323
 30
0.0
 10
140.4306251931073
 20
12.09528279940498
 30
0.0
 10
138.0339590297367
 20
12.65486594953639
 30
0.0
 10
135.6373087435384
 20
12.75427761333946
 30
0.0
 10
133.3435969792961
 20
12.45462247185886
 30
0.0
 10
131.8487663697769
 20
11.91363450559978
 30
0.0
 10
131.1528163752741
 20
11.66176612014759
 30
0.0
  0
SPLINE
  5
CC
330
1F
100
AcDbEntity
  8
외형선
  6
Continuous
 62
     1
370
    15
100
AcDbSpline
210
0.0
220
0.0
230
1.0
 70
     8
 71
     3
 72
    27
 73
    23
 74
     0
 42
0.000000001
 43
0.00000001
 40
0.0
 40
0.0
 40
0.0
 40
0.0
 40
0.0328310215764537
 40
0.0860803856905655
 40
0.1393286693231573
 40
0.1925759966384915
 40
0.2458224920487505
 40
0.2990682801819481
 40
0.352313485849709
 40
0.4055582340149532
 40
0.4588026497594858
 40
0.5120468582515233
 40
0.5652909847131679
 40
0.6185351543878528
 40
0.6717794925077741
 40
0.72502412426133
 40
0.7782691747605839
 40
0.8315147690087711
 40
0.884761031867871
 40
0.9380080880262547
 40
0.9912560619664391
 40
1.0
 40
1.0
 40
1.0
 40
1.0
 10
96.367558922695
 20
-12.64549466815644
 30
0.0
 10
95.87492820101862
 20
-12.64989393822671
 30
0.0
 10
94.58328875488766
 20
-12.66142848227139
 30
0.0
 10
92.49268794559079
 20
-12.17264607630364
 30
0.0
 10
90.09576400370194
 20
-11.25159314339399
 30
0.0
 10
87.69890586440046
 20
-9.911715612994774
 30
0.0
 10
85.30210357560999
 20
-8.224963444117623
 30
0.0
 10
82.90534914080816
 20
-6.244716380410278
 30
0.0
 10
80.5086340212707
 20
-4.043048809985319
 30
0.0
 10
78.1119498084088
 20
-1.697677951711257
 30
0.0
 10
75.7152880467522
 20
0.707984518244054
 30
0.0
 10
73.31864028437121
 20
3.088545050453596
 30
0.0
 10
70.92199806290819
 20
5.359465577989516
 30
0.0
 10
68.5253529217672
 20
7.440090248646262
 30
0.0
 10
66.12869640606935
 20
9.256600649192798
 30
0.0
 10
63.73202004539669
 20
10.7442433575173
 30
0.0
 10
61.33531544561219
 20
11.85110951455231
 30
0.0
 10
58.93857395757099
 20
12.53444857870582
 30
0.0
 10
56.54178792519335
 20
12.78282365266556
 30
0.0
 10
54.14494603906026
 20
12.53949738589372
 30
0.0
 10
52.41583153578459
 20
12.14446130373522
 30
0.0
 10
51.48565528214968
 20
11.71687612501042
 30
0.0
 10
51.35445423893102
 20
11.65656538143435
 30
0.0
  0
SPLINE
  5
CD
330
1F
100
AcDbEntity
  8
외형선
  6
Continuous
 62
     1
370
    15
100
AcDbSpline
210
0.0
220
0.0
230
1.0
 70
     8
 71
     3
 72
    10
 73
     6
 74
     0
 42
0.000000001
 43
0.00000001
 40
0.0
 40
0.0
 40
0.0
 40
0.0
 40
0.0606634402056097
 40
0.5302818623882937
 40
1.0
 40
1.0
 40
1.0
 40
1.0
 10
16.57119918747487
 20
-12.67854360648527
 30
0.0
 10
16.47877303095571
 20
-12.68508133187106
 30
0.0
 10
15.67084136327825
 20
-12.74223003925738
 30
0.0
 10
14.1472019680687
 20
-12.52299508508849
 30
0.0
 10
12.71578464013788
 20
-12.09757546787048
 30
0.0
 10
11.99999999999999
 20
-11.8848430790163
 30
0.0
  0
LINE
  5
CE
330
1F
100
AcDbEntity
  8
외형선
  6
Continuous
 62
     1
370
    15
100
AcDbLine
 10
164.3999999999999
 20
-4.976288228611405
 30
0.0
 11
164.3999999999999
 21
4.978438086059434
 31
0.0
  0
SPLINE
  5
CF
330
1F
100
AcDbEntity
  8
외형선
  6
Continuous
 62
     1
370
    15
100
AcDbSpline
210
0.0
220
0.0
230
1.0
 70
     8
 71
     3
 72
    13
 73
     9
 74
     0
 42
0.000000001
 43
0.00000001
 40
0.0
 40
0.0
 40
0.0
 40
0.0
 40
0.1683554578306211
 40
0.3366751758518505
 40
0.5049793898939129
 40
0.6732883863655695
 40
0.8611818143723556
 40
1.0
 40
1.0
 40
1.0
 40
1.0
 10
11.99999999999995
 20
-10.46805363001452
 30
0.0
 10
12.71578601626768
 20
-10.84439536358456
 30
0.0
 10
14.14720609616607
 20
-11.59699893796679
 30
0.0
 10
16.29385886941888
 20
-12.31451921882072
 30
0.0
 10
18.44028769450097
 20
-12.70547186090571
 30
0.0
 10
20.66976397228284
 20
-12.71690714187342
 30
0.0
 10
22.7747583804471
 20
-12.39943092212897
 30
0.0
 10
24.16391122764296
 20
-11.86843765369756
 30
0.0
 10
24.75415555860505
 20
-11.64282118024517
 30
0.0
  0
SPLINE
  5
D0
330
1F
100
AcDbEntity
  8
외형선
  6
Continuous
 62
     1
370
    15
100
AcDbSpline
210
0.0
220
0.0
230
1.0
 70
     8
 71
     3
 72
    27
 73
    23
 74
     0
 42
0.000000001
 43
0.00000001
 40
0.0
 40
0.0
 40
0.0
 40
0.0
 40
0.0398860411401191
 40
0.0931313247946748
 40
0.1463761897016989
 40
0.1996207609738032
 40
0.2528651637999332
 40
0.306109523412833
 40
0.3593539650564849
 40
0.4125986139535398
 40
0.4658435952727625
 40
0.5190890340965048
 40
0.5723350553882338
 40
0.6255817839601225
 40
0.6788293444407284
 40
0.7320778612427793
 40
0.7853274585310819
 40
0.83857826019057
 40
0.8918303897945136
 40
0.9450839705729067
 40
0.9983381754575009
 40
1.0
 40
1.0
 40
1.0
 40
1.0
 10
59.53994200844318
 20
12.6586199680057
 30
0.0
 10
60.13840243725489
 20
12.65112002748812
 30
0.0
 10
61.53576880852815
 20
12.6336081517462
 30
0.0
 10
63.73201975949426
 20
12.07777350183845
 30
0.0
 10
66.1286964826763
 20
11.09830056228225
 30
0.0
 10
68.52535290123926
 20
9.709759102085618
 30
0.0
 10
70.92199806841373
 20
7.98046896613146
 30
0.0
 10
73.3186402828771
 20
5.96674474202766
 30
0.0
 10
75.71528804722318
 20
3.741458658644725
 30
0.0
 10
78.11194980801875
 20
1.38326467754949
 30
0.0
 10
80.50863402236008
 20
-1.024000164692003
 30
0.0
 10
82.90534913684067
 20
-3.39487738546789
 30
0.0
 10
85.30210359039083
 20
-5.645172947431541
 30
0.0
 10
87.69890580924353
 20
-7.694952912891188
 30
0.0
 10
90.095764209554
 20
-9.471503314628324
 30
0.0
 10
92.4926871773199
 20
-10.91141826956126
 30
0.0
 10
94.88968313149945
 20
-11.96470527587166
 30
0.0
 10
97.28676027708785
 20
-12.58964037203078
 30
0.0
 10
99.6839275152655
 20
-12.78008035368453
 30
0.0
 10
102.0811767813179
 20
-12.46928221647992
 30
0.0
 10
103.7043249895062
 20
-12.07847339626276
 30
0.0
 10
104.5283520291313
 20
-11.68845295272622
 30
0.0
 10
104.5532880700726
 20
-11.67665046897226
 30
0.0
  0
SPLINE
  5
D1
330
1F
100
AcDbEntity
  8
외형선
  6
Continuous
 62
     1
370
    15
100
AcDbSpline
210
0.0
220
0.0
230
1.0
 70
     8
 71
     3
 72
    18
 73
    14
 74
     0
 42
0.000000001
 43
0.00000001
 40
0.0
 40
0.0
 40
0.0
 40
0.0
 40
0.0436675552918797
 40
0.139294184832544
 40
0.2349216876827139
 40
0.3305502882158436
 40
0.4261802105202946
 40
0.5218116783413465
 40
0.6174449150233624
 40
0.7130801434522384
 40
0.8087175859980524
 40
0.9043574644580624
 40
1.0
 40
1.0
 40
1.0
 40
1.0
 10
139.3361853905293
 20
12.64500048772344
 30
0.0
 10
139.7009971484058
 20
12.65734022817099
 30
0.0
 10
140.8647022400025
 20
12.6967024978286
 30
0.0
 10
142.8273160092647
 20
12.28101705218405
 30
0.0
 10
145.2240391226213
 20
11.43220799851242
 30
0.0
 10
147.6208038978232
 20
10.15201372316447
 30
0.0
 10
150.0176182760329
 20
8.518153266878596
 30
0.0
 10
152.4144907806553
 20
6.579917967230549
 30
0.0
 10
154.8114298325759
 20
4.408756807023832
 30
0.0
 10
157.2084435794001
 20
2.079992698040818
 30
0.0
 10
159.6055412488073
 20
-0.3191961807598436
 30
0.0
 10
162.0027278912726
 20
-2.719744651268758
 30
0.0
 10
163.600901897074
 20
-4.224100070554711
 30
0.0
 10
164.3999999999999
 20
-4.976288228611407
 30
0.0
  0
SPLINE
  5
D2
330
1F
100
AcDbEntity
  8
외형선
  6
Continuous
 62
     1
370
    15
100
AcDbSpline
210
0.0
220
0.0
230
1.0
 70
     8
 71
     3
 72
    16
 73
    12
 74
     0
 42
0.000000001
 43
0.00000001
 40
0.0
 40
0.0
 40
0.0
 40
0.0
 40
0.1201546987305707
 40
0.2403060593974196
 40
0.3604543598512048
 40
0.4805998787334614
 40
0.6007428954053576
 40
0.7208836898760598
 40
0.8410225427307199
 40
0.9611597350581449
 40
1.0
 40
1.0
 40
1.0
 40
1.0
 10
164.3999999999999
 20
4.978438086059435
 30
0.0
 10
163.6009018971356
 20
5.696400185944817
 30
0.0
 10
162.0027278914577
 20
7.132304439735402
 30
0.0
 10
159.6055412480674
 20
8.985561719675015
 30
0.0
 10
157.2084435821747
 20
10.5322424060823
 30
0.0
 10
154.8114298222179
 20
11.70204906302875
 30
0.0
 10
152.4144908193122
 20
12.45511234771581
 30
0.0
 10
150.0176181317672
 20
12.77343350879731
 30
0.0
 10
147.6208044362179
 20
12.60913045506644
 30
0.0
 10
145.7646589304447
 20
12.21923259040433
 30
0.0
 10
144.7074539333192
 20
11.75340597863085
 30
0.0
 10
144.4491649727865
 20
11.63959846573546
 30
0.0
  0
SPLINE
  5
D3
330
1F
100
AcDbEntity
  8
외형선
  6
Continuous
 62
     1
370
    15
100
AcDbSpline
210
0.0
220
0.0
230
1.0
 70
     8
 71
     3
 72
    27
 73
    23
 74
     0
 42
0.000000001
 43
0.00000001
 40
0.0
 40
0.0
 40
0.0
 40
0.0
 40
0.0087600210258492
 40
0.0620140067596063
 40
0.1152693772402853
 40
0.1685261707571865
 40
0.2217823401375511
 40
0.275037058272925
 40
0.3282904483992943
 40
0.3815426340959343
 40
0.4347937392538016
 40
0.4880438880437379
 40
0.5412932048845179
 40
0.5945418144107594
 40
0.6477898414407003
 40
0.7010374109438824
 40
0.7542846480087385
 40
0.8075316778101176
 40
0.8607786255767571
 40
0.9140256165587268
 40
0.9672727759948586
 40
1.0
 40
1.0
 40
1.0
 40
1.0
 10
109.6671147505908
 20
-12.66789166689054
 30
0.0
 10
109.5356784366225
 20
-12.67775058981725
 30
0.0
 10
108.6052134938062
 20
-12.74754395118197
 30
0.0
 10
106.8756716731026
 20
-12.44094790413012
 30
0.0
 10
104.4784668502877
 20
-11.7299575754373
 30
0.0
 10
102.0811796218241
 20
-10.56056192086884
 30
0.0
 10
99.68392675418033
 20
-9.027234071442658
 30
0.0
 10
97.28676048101217
 20
-7.170262099148618
 30
0.0
 10
94.88968307686005
 20
-5.059422103703028
 30
0.0
 10
92.49268719195966
 20
-2.768667633292543
 30
0.0
 10
90.09576420563262
 20
-0.3796290806902696
 30
0.0
 10
87.69890581028925
 20
2.022922918082633
 30
0.0
 10
85.30210359012885
 20
4.353651738416199
 30
0.0
 10
82.90534913684283
 20
6.52978864029287
 30
0.0
 10
80.50863402261349
 20
8.474089661558473
 30
0.0
 10
78.11194980700273
 20
10.11739898097184
 30
0.0
 10
75.71528805103392
 20
11.40179973623512
 30
0.0
 10
73.31864026865051
 20
12.2800644961032
 30
0.0
 10
70.92199812150945
 20
12.72705696375358
 30
0.0
 10
68.52535270308263
 20
12.70432828055387
 30
0.0
 10
66.43656892510602
 20
12.34927317375495
 30
0.0
 10
65.14666214594641
 20
11.83253513441952
 30
0.0
 10
64.65564300259724
 20
11.63583233890764
 30
0.0
  0
SPLINE
  5
D4
330
1F
100
AcDbEntity
  8
외형선
  6
Continuous
 62
     1
370
    15
100
AcDbSpline
210
0.0
220
0.0
230
1.0
 70
     8
 71
     3
 72
    15
 73
    11
 74
     0
 42
0.000000001
 43
0.00000001
 40
0.0
 40
0.0
 40
0.0
 40
0.0
 40
0.1171350026085506
 40
0.2512435932308213
 40
0.3853501607664226
 40
0.51945501921793
 40
0.6395819144871543
 40
0.7597053964009961
 40
0.8798399439436558
 40
0.9999999999999999
 40
0.9999999999999999
 40
0.9999999999999999
 40
0.9999999999999999
 10
29.87053330652559
 20
-12.67396810009802
 30
0.0
 10
29.17269865276729
 20
-12.65080930700389
 30
0.0
 10
27.67590877794958
 20
-12.60113586813178
 30
0.0
 10
25.38018463644732
 20
-11.9771956721787
 30
0.0
 10
22.98345070512212
 20
-10.94385255100701
 30
0.0
 10
20.66976452270642
 20
-9.559799771492592
 30
0.0
 10
18.44028755398148
 20
-7.931138719719105
 30
0.0
 10
16.29385890689395
 20
-6.135216575485273
 30
0.0
 10
14.14720608679466
 20
-4.168657546293269
 30
0.0
 10
12.7157860131437
 20
-2.767904194825945
 30
0.0
 10
12.00000000000001
 20
-2.06745317048957
 30
0.0
  0
SPLINE
  5
D5
330
1F
100
AcDbEntity
  8
외형선
  6
Continuous
370
    15
100
AcDbSpline
210
0.0
220
0.0
230
1.0
 70
    24
 71
     3
 72
    15
 73
    11
 74
     0
 42
0.000000001
 43
0.00000001
 40
0.0
 40
0.0
 40
0.0
 40
0.0
 40
0.1403234895661731
 40
0.2815728622553227
 40
0.4228222349444722
 40
0.5640716076336252
 40
0.7053209803227743
 40
0.846570353011922
 40
0.987819725701074
 40
1.0
 40
1.0
 40
1.0
 40
1.0
 10
11.99999999999999
 20
-1.735264533847585
 30
0.0
 10
11.99999999999998
 20
-1.781741457037546
 30
0.0
 10
11.99999999999998
 20
-1.875001967675337
 30
0.0
 10
11.99999999999988
 20
-2.723960681109045
 30
0.0
 10
12.00000000000001
 20
-3.994047153425058
 30
0.0
 10
11.99999999999999
 20
-5.592946454819377
 30
0.0
 10
11.99999999999992
 20
-7.327059171460562
 30
0.0
 10
11.99999999999991
 20
-9.001483125914616
 30
0.0
 10
12.00000000000017
 20
-10.00069716704427
 30
0.0
 10
11.99999999999995
 20
-10.43368050870563
 30
0.0
 10
11.99999999999994
 20
-10.46805363001451
 30
0.0
  0
SPLINE
  5
D6
330
1F
100
AcDbEntity
  8
외형선
  6
Continuous
 62
     1
370
    15
100
AcDbSpline
210
0.0
220
0.0
230
1.0
 70
     8
 71
     3
 72
    27
 73
    23
 74
     0
 42
0.000000001
 43
0.00000001
 40
0.0
 40
0.0
 40
0.0
 40
0.0
 40
0.0210030799994481
 40
0.0742485650612798
 40
0.1274947287041313
 40
0.1807416956007369
 40
0.2339895902154019
 40
0.2872385367718822
 40
0.3404886592213976
 40
0.393740081210806
 40
0.4469929260509429
 40
0.5002468495385334
 40
0.5534995761366334
 40
0.6067508897261237
 40
0.6600009136458564
 40
0.7132497715681801
 40
0.7664975874672694
 40
0.8197444855872825
 40
0.8729905904103654
 40
0.9262360266245204
 40
0.9794809190913562
 40
1.0
 40
1.0
 40
1.0
 40
1.0
 10
19.641467898314
 20
12.65638268841823
 30
0.0
 10
19.9565185077932
 20
12.66640346339904
 30
0.0
 10
21.07026257181267
 20
12.70182818030467
 30
0.0
 10
22.98346590947629
 20
12.32160488963306
 30
0.0
 10
25.38018021353199
 20
11.49828540534604
 30
0.0
 10
27.77704536027741
 20
10.24238253352531
 30
0.0
 10
30.17394726346829
 20
8.629266406510459
 30
0.0
 10
32.57092715507667
 20
6.707966213061554
 30
0.0
 10
34.96798449006534
 20
4.548915218189523
 30
0.0
 10
37.36513038632874
 20
2.228191658406527
 30
0.0
 10
39.76236394052022
 20
-0.1716243517777822
 30
0.0
 10
42.15965649505024
 20
-2.565295809366698
 30
0.0
 10
44.55688324476045
 20
-4.867837020729055
 30
0.0
 10
46.95402192521563
 20
-6.997414769000296
 30
0.0
 10
49.35107294601348
 20
-8.878448333922178
 30
0.0
 10
51.74804540017751
 20
-10.44397186579819
 30
0.0
 10
54.14494746195895
 20
-11.63904032293373
 30
0.0
 10
56.54178752227561
 20
-12.41883181047883
 30
0.0
 10
58.93857414637296
 20
-12.76459386515111
 30
0.0
 10
61.33531509332027
 20
-12.63073354858668
 30
0.0
 10
63.24100021227903
 20
-12.24560750972976
 30
0.0
 10
64.34777039397446
 20
-11.76685741157249
 30
0.0
 10
64.65564300259716
 20
-11.63368248145986
 30
0.0
  0
SPLINE
  5
D7
330
1F
100
AcDbEntity
  8
외형선
  6
Continuous
 62
     1
370
    15
100
AcDbSpline
210
0.0
220
0.0
230
1.0
 70
     8
 71
     3
 72
    27
 73
    23
 74
     0
 42
0.000000001
 43
0.00000001
 40
0.0
 40
0.0
 40
0.0
 40
0.0
 40
0.0054555613164599
 40
0.0587122276515381
 40
0.1119695181289785
 40
0.1652253855569171
 40
0.2184798682250118
 40
0.2717330895596772
 40
0.3249851733135798
 40
0.3782362435339187
 40
0.4314864245305476
 40
0.4847358408439449
 40
0.5379846172130486
 40
0.5912328785429806
 40
0.6444807498726757
 40
0.6977283563424335
 40
0.7509758231614111
 40
0.8042232755750774
 40
0.8574708388326492
 40
0.91071863815452
 40
0.9639667986997065
 40
1.0
 40
1.0
 40
1.0
 40
1.0
 10
99.43834089695166
 20
12.68032105380058
 30
0.0
 10
99.52019751589324
 20
12.68708862935046
 30
0.0
 10
100.4011305981743
 20
12.75992062834834
 30
0.0
 10
102.0811818854261
 20
12.47193435299143
 30
0.0
 10
104.4784658430878
 20
11.79158563029467
 30
0.0
 10
106.875673438279
 20
10.64598118118404
 30
0.0
 10
109.272791434306
 20
9.134781770431866
 30
0.0
 10
111.669823585796
 20
7.295876431189
 30
0.0
 10
114.0667791222371
 20
5.198813818125973
 30
0.0
 10
116.4636661758458
 20
2.916940166864073
 30
0.0
 10
118.8604931986168
 20
0.531598099923078
 30
0.0
 10
121.2572685796017
 20
-1.872583739550985
 30
0.0
 10
123.6540007442921
 20
-4.210210113848863
 30
0.0
 10
126.0506981252434
 20
-6.398269732997292
 30
0.0
 10
128.447369165583
 20
-8.35909189999258
 30
0.0
 10
130.8440223196978
 20
-10.02294586635948
 30
0.0
 10
133.2406660322781
 20
-11.33113783553201
 30
0.0
 10
135.6373088067348
 20
-12.23576561157968
 30
0.0
 10
138.0339589377389
 20
-12.71011293784045
 30
0.0
 10
140.4306254979035
 20
-12.71715138355667
 30
0.0
 10
142.5690269162005
 20
-12.37346129321921
 30
0.0
 10
143.9085462979521
 20
-11.84908317469363
 30
0.0
 10
144.4491649727864
 20
-11.63744860828767
 30
0.0
  0
SPLINE
  5
D8
330
1F
100
AcDbEntity
  8
외형선
  6
Continuous
 62
     1
370
    15
100
AcDbSpline
210
0.0
220
0.0
230
1.0
 70
     8
 71
     3
 72
    26
 73
    22
 74
     0
 42
0.000000001
 43
0.00000001
 40
0.0
 40
0.0
 40
0.0
 40
0.0
 40
0.0431995475090673
 40
0.0964469795230934
 40
0.1496938003308651
 40
0.2029401348668704
 40
0.2561861081919461
 40
0.3094318454608189
 40
0.3626774718895882
 40
0.4159231127231739
 40
0.469168893202751
 40
0.5224149385331827
 40
0.5756613738504767
 40
0.6289083241892813
 40
0.6821559144504334
 40
0.7354042693685956
 40
0.7886535134799725
 40
0.8419037710901566
 40
0.8951551662420948
 40
0.9484078226842072
 40
1.0
 40
1.0
 40
1.0
 40
1.0
 10
149.5652988724093
 20
-12.66435265718676
 30
0.0
 10
148.9171302298198
 20
-12.64956902137748
 30
0.0
 10
147.4700338734002
 20
-12.61656318908548
 30
0.0
 10
145.2240395278024
 20
-12.0272784671596
 30
0.0
 10
142.8273156787365
 20
-11.02072502459034
 30
0.0
 10
140.4306252205784
 20
-9.609525499450308
 30
0.0
 10
138.0339590120474
 20
-7.86059283299431
 30
0.0
 10
135.6373087868243
 20
-5.831534389979096
 30
0.0
 10
133.240666037612
 20
-3.595609489512502
 30
0.0
 10
130.8440223182722
 20
-1.23189310299067
 30
0.0
 10
128.4473691659513
 20
1.175592241832433
 30
0.0
 10
126.0506981251955
 20
3.541380524571498
 30
0.0
 10
123.6540007441153
 20
5.781450648978085
 30
0.0
 10
121.257268580357
 20
7.816270953276409
 30
0.0
 10
118.8604931957725
 20
9.57352214615777
 30
0.0
 10
116.4636661864674
 20
10.99100637300578
 30
0.0
 10
114.0667790825932
 20
12.01759144426303
 30
0.0
 10
111.6698237337535
 20
12.61974344333863
 30
0.0
 10
109.2727908821025
 20
12.76511585754238
 30
0.0
 10
106.9006111960677
 20
12.49226208105851
 30
0.0
 10
105.3274239993044
 20
11.94707611868223
 30
0.0
 10
104.5532880700725
 20
11.67880032642006
 30
0.0
  0
SPLINE
  5
D9
330
1F
100
AcDbEntity
  8
외형선
  6
Continuous
 62
     1
370
    15
100
AcDbSpline
210
0.0
220
0.0
230
1.0
 70
     8
 71
     3
 72
    27
 73
    23
 74
     0
 42
0.000000001
 43
0.00000001
 40
0.0
 40
0.0
 40
0.0
 40
0.0
 40
0.0276311726274771
 40
0.0808746024613048
 40
0.1341183259237578
 40
0.1873624681247655
 40
0.2406071540654309
 40
0.2938525086056031
 40
0.3470986564315263
 40
0.4003457220235941
 40
0.4535938296242128
 40
0.5068431032058113
 40
0.5600936664389949
 40
0.613345642660877
 40
0.6665988157553844
 40
0.7198509102176379
 40
0.7731015818492112
 40
0.8263509539592039
 40
0.8795991501927305
 40
0.9328462944992646
 40
0.9860925111008116
 40
1.0
 40
1.0
 40
1.0
 40
1.0
 10
69.76911928500768
 20
-12.64250674183737
 30
0.0
 10
69.35453121077926
 20
-12.65256981668886
 30
0.0
 10
68.14105952282512
 20
-12.68202376673018
 30
0.0
 10
66.12869632952803
 20
-12.23892395136757
 30
0.0
 10
63.7320200726838
 20
-11.36176192264694
 30
0.0
 10
61.33531541300547
 20
-10.05824733293528
 30
0.0
 10
58.93857406071215
 20
-8.403616397542676
 30
0.0
 10
56.54178754522835
 20
-6.448863312414673
 30
0.0
 10
54.14494745581031
 20
-4.265477650975565
 30
0.0
 10
51.74804540181889
 20
-1.930434384596604
 30
0.0
 10
49.35107294559669
 20
0.4731969290902541
 30
0.0
 10
46.95402192524142
 20
2.860095087162648
 30
0.0
 10
44.55688324507398
 20
5.145482364604247
 30
0.0
 10
42.15965649377002
 20
7.248172540135695
 30
0.0
 10
39.76236394532756
 20
9.093497889011845
 30
0.0
 10
37.36513036838021
 20
10.6157372782054
 30
0.0
 10
34.96798455704943
 20
11.76158377249964
 30
0.0
 10
32.57092690509722
 20
12.4874223221792
 30
0.0
 10
30.17394819637437
 20
12.77843542547903
 30
0.0
 10
27.77704187872391
 20
12.58345438614211
 30
0.0
 10
25.97045097232591
 20
12.19030918411053
 30
0.0
 10
24.9628326585377
 20
11.73853349101912
 30
0.0
 10
24.75415555860499
 20
11.64497103769295
 30
0.0
  0
LINE
  5
DA
330
1F
100
AcDbEntity
  8
외형선
  6
Continuous
 62
     1
370
    15
100
AcDbLine
 10
164.3999999999999
 20
-12.69892507127611
 30
0.0
 11
164.3999999999999
 21
-12.60624746776119
 31
0.0
  0
LINE
  5
DB
330
1F
100
AcDbEntity
  8
외형선
  6
Continuous
 62
     1
370
    15
100
AcDbLine
 10
164.3999999999999
 20
4.978438086059434
 30
0.0
 11
164.3999999999999
 21
7.631034167873561
 31
0.0
  0
LINE
  5
DC
330
1F
100
AcDbEntity
  8
외형선
  6
Continuous
370
    15
100
AcDbLine
 10
11.99999999999999
 20
-2.067453170489548
 30
0.0
 11
11.99999999999994
 21
0.9927061502568375
 31
0.0
  0
LINE
  5
DD
330
1F
100
AcDbEntity
  8
외형선
  6
Continuous
 62
     1
370
    15
100
AcDbLine
 10
164.3999999999999
 20
-7.628884310425708
 30
0.0
 11
164.3999999999999
 21
-4.976288228611405
 31
0.0
  0
LINE
  5
DE
330
1F
100
AcDbEntity
  8
외형선
  6
Continuous
370
    15
100
AcDbLine
 10
11.99999999999999
 20
-11.88484307901628
 30
0.0
 11
11.99999999999994
 21
-10.46805363001451
 31
0.0
  0
LINE
  5
DF
330
1F
100
AcDbEntity
  8
외형선
  6
Continuous
 62
     1
370
    15
100
AcDbLine
 10
164.3999999999999
 20
12.60839732520899
 30
0.0
 11
164.3999999999999
 21
12.70107492872391
 31
0.0
  0
LINE
  5
E0
330
1F
100
AcDbEntity
  8
외형선
  6
Continuous
370
    15
100
AcDbLine
 10
11.99999999999999
 20
9.818464837250527
 30
0.0
 11
11.99999999999994
 21
11.46183470899535
 31
0.0
  0
SPLINE
  5
E1
330
1F
100
AcDbEntity
  8
외형선
  6
Continuous
370
    15
100
AcDbSpline
210
0.0
220
0.0
230
1.0
 70
     8
 71
     3
 72
     8
 73
     4
 74
     0
 42
0.000000001
 43
0.00000001
 40
0.0
 40
0.0
 40
0.0
 40
0.0
 40
1.0
 40
1.0
 40
1.0
 40
1.0
 10
11.99999999999998
 20
-10.46805363001453
 30
0.0
 10
11.66762489934032
 20
-10.27966432239968
 30
0.0
 10
11.33376697416459
 20
-10.08019568132032
 30
0.0
 10
10.9999714782376
 20
-9.870527469795107
 30
0.0
  0
SPLINE
  5
E2
330
1F
100
AcDbEntity
  8
외형선
  6
Continuous
370
    15
100
AcDbSpline
210
0.0
220
0.0
230
1.0
 70
     8
 71
     3
 72
     8
 73
     4
 74
     0
 42
0.000000001
 43
0.00000001
 40
0.0
 40
0.0
 40
0.0
 40
0.0
 40
1.0
 40
1.0
 40
1.0
 40
1.0
 10
11.99999999999995
 20
-11.88484307901627
 30
0.0
 10
11.66762489934031
 20
-11.76761236317639
 30
0.0
 10
11.33376697416455
 20
-11.63794652912305
 30
0.0
 10
10.99997147823757
 20
-11.49639515478566
 30
0.0
  0
LINE
  5
E3
330
1F
100
AcDbEntity
  8
외형선
  6
Continuous
370
    15
100
AcDbLine
 10
10.9999714782376
 20
-12.69892507127611
 30
0.0
 11
10.9999714782376
 21
-11.49639646815351
 31
0.0
  0
LINE
  5
E4
330
1F
100
AcDbEntity
  8
외형선
  6
Continuous
370
    15
100
AcDbLine
 10
10.9999714782376
 20
-11.85434328046941
 30
0.0
 11
11.45707201580077
 21
-11.67394984559408
 31
0.0
  0
LINE
  5
E5
330
1F
100
AcDbEntity
  8
외형선
  6
Continuous
370
    15
100
AcDbLine
 10
11.99999999999995
 20
11.8869929364641
 30
0.0
 11
11.45707201580067
 21
11.67609970304187
 31
0.0
  0
LINE
  5
E6
330
1F
100
AcDbEntity
  8
외형선
  6
Continuous
370
    15
100
AcDbLine
 10
10.9999714782376
 20
11.85649336915962
 30
0.0
 11
10.9999714782376
 21
12.7010749287239
 31
0.0
  0
SPLINE
  5
E7
330
1F
100
AcDbEntity
  8
외형선
  6
Continuous
370
    15
100
AcDbSpline
210
0.0
220
0.0
230
1.0
 70
     8
 71
     3
 72
     8
 73
     4
 74
     0
 42
0.000000001
 43
0.00000001
 40
0.0
 40
0.0
 40
0.0
 40
0.0
 40
1.0
 40
1.0
 40
1.0
 40
1.0
 10
11.99999999999998
 20
11.46183470899532
 30
0.0
 10
11.66762489934032
 20
11.60521754695946
 30
0.0
 10
11.33376697416459
 20
11.73699099607957
 30
0.0
 10
10.9999714782376
 20
11.85649313791717
 30
0.0
  0
SPLINE
  5
E8
330
1F
100
AcDbEntity
  8
외형선
  6
Continuous
370
    15
100
AcDbSpline
210
0.0
220
0.0
230
1.0
 70
     8
 71
     3
 72
     8
 73
     4
 74
     0
 42
0.000000001
 43
0.00000001
 40
0.0
 40
0.0
 40
0.0
 40
0.0
 40
1.0
 40
1.0
 40
1.0
 40
1.0
 10
11.99999999999995
 20
9.818464837250552
 30
0.0
 10
11.66762489934031
 20
10.02957838483003
 30
0.0
 10
11.33376697416455
 20
10.23087838591537
 30
0.0
 10
10.99997147823757
 20
10.42138746197996
 30
0.0
  0
LINE
  5
E9
330
1F
100
AcDbEntity
  8
외형선
  6
Continuous
370
    15
100
AcDbLine
 10
10.9999714782376
 20
1.984891376358719
 30
0.0
 11
10.9999714782376
 21
10.42138569436305
 31
0.0
  0
SPLINE
  5
EA
330
1F
100
AcDbEntity
  8
외형선
  6
Continuous
370
    15
100
AcDbSpline
210
0.0
220
0.0
230
1.0
 70
     8
 71
     3
 72
     8
 73
     4
 74
     0
 42
0.000000001
 43
0.00000001
 40
0.0
 40
0.0
 40
0.0
 40
0.0
 40
1.0
 40
1.0
 40
1.0
 40
1.0
 10
11.99999999999998
 20
0.9927061502567998
 30
0.0
 10
11.66762489934032
 20
1.324478295835791
 30
0.0
 10
11.33376697416459
 20
1.655720386035253
 30
0.0
 10
10.9999714782376
 20
1.984890739398065
 30
0.0
  0
SPLINE
  5
EB
330
1F
100
AcDbEntity
  8
외형선
  6
Continuous
370
    15
100
AcDbSpline
210
0.0
220
0.0
230
1.0
 70
     8
 71
     3
 72
     8
 73
     4
 74
     0
 42
0.000000001
 43
0.00000001
 40
0.0
 40
0.0
 40
0.0
 40
0.0
 40
1.0
 40
1.0
 40
1.0
 40
1.0
 10
11.99999999999995
 20
-2.067453170489515
 30
0.0
 10
11.66762489934031
 20
-1.73910890707015
 30
0.0
 10
11.33376697416455
 20
-1.408143071931468
 30
0.0
 10
10.99997147823757
 20
-1.076082621529499
 30
0.0
  0
LINE
  5
EC
330
1F
100
AcDbEntity
  8
외형선
  6
Continuous
370
    15
100
AcDbLine
 10
-48.96000000000004
 20
0.0010749287238949
 30
0.0
 11
-48.96000000000004
 21
10.79607492872389
 31
0.0
  0
LINE
  5
ED
330
1F
100
AcDbEntity
  8
외형선
  6
Continuous
370
    15
100
AcDbLine
 10
-48.96000000000004
 20
-12.69892507127611
 30
0.0
 11
-48.96000000000004
 21
0.0010749287238949
 31
0.0
  0
LINE
  5
EE
330
1F
100
AcDbEntity
  8
외형선
  6
Continuous
370
    15
100
AcDbLine
 10
10.9999714782376
 20
-9.8705270640769
 30
0.0
 11
10.9999714782376
 21
-1.076085702514257
 31
0.0
  0
LINE
  5
EF
330
1F
100
AcDbEntity
  8
외형선
  6
Continuous
370
    15
100
AcDbLine
 10
-51.50000000000005
 20
0.0010749287238949
 30
0.0
 11
-51.50000000000005
 21
10.1610749287239
 31
0.0
  0
LINE
  5
F0
330
1F
100
AcDbEntity
  8
외형선
  6
Continuous
370
    15
100
AcDbLine
 10
-51.50000000000005
 20
-10.15892507127611
 30
0.0
 11
-51.50000000000005
 21
0.0010749287238949
 31
0.0
  0
SPLINE
  5
F1
330
1F
100
AcDbEntity
  8
외형선
  6
Continuous
370
    15
100
AcDbSpline
210
0.0
220
0.0
230
1.0
 70
    24
 71
     3
 72
    15
 73
    11
 74
     0
 42
0.000000001
 43
0.00000001
 40
0.0
 40
0.0
 40
0.0
 40
0.0
 40
0.1303690664756225
 40
0.2698192955021409
 40
0.4092695245286612
 40
0.5487197535551812
 40
0.6881699825816966
 40
0.8276202116082173
 40
0.9670704406347359
 40
1.0
 40
1.0
 40
1.0
 40
1.0
 10
11.99999999999998
 20
0.8170761780346637
 30
0.0
 10
11.99999999999998
 20
0.8805820967715123
 30
0.0
 10
12.00000000000002
 20
1.01201758769755
 30
0.0
 10
11.99999999999995
 20
1.901267667106714
 30
0.0
 10
11.99999999999988
 20
3.210598244537333
 30
0.0
 10
12.00000000000002
 20
4.832885109222591
 30
0.0
 10
11.99999999999992
 20
6.570427979871719
 30
0.0
 10
11.99999999999999
 20
8.226306861524986
 30
0.0
 10
11.99999999999999
 20
9.274629224222565
 30
0.0
 10
11.99999999999994
 20
9.731239061611047
 30
0.0
 10
11.99999999999992
 20
9.818464837250554
 30
0.0
  0
SPLINE
  5
F2
330
1F
100
AcDbEntity
  8
외형선
  6
Continuous
370
    15
100
AcDbSpline
210
0.0
220
0.0
230
1.0
 70
    24
 71
     3
 72
    15
 73
    11
 74
     0
 42
0.000000001
 43
0.00000001
 40
0.0
 40
0.0
 40
0.0
 40
0.0
 40
0.128006934744233
 40
0.272781369602475
 40
0.4175558044607159
 40
0.5623302393189591
 40
0.7071046741772017
 40
0.8518791090354395
 40
0.996653543893683
 40
1.0
 40
1.0
 40
1.0
 40
1.0
 10
11.99999999999998
 20
-10.46805363001453
 30
0.0
 10
11.99999999999998
 20
-10.08603222600807
 30
0.0
 10
11.99999999999997
 20
-9.27194881708526
 30
0.0
 10
12.00000000000001
 20
-7.672774972442355
 30
0.0
 10
11.99999999999998
 20
-5.93944791263331
 30
0.0
 10
11.99999999999987
 20
-4.301839832684895
 30
0.0
 10
12.00000000000002
 20
-2.931330089145773
 30
0.0
 10
11.99999999999995
 20
-2.065191589302059
 30
0.0
 10
11.99999999999988
 20
-1.672773712304291
 30
0.0
 10
11.99999999999998
 20
-1.742682437220124
 30
0.0
 10
11.99999999999999
 20
-1.744261866548803
 30
0.0
  0
LINE
  5
F3
330
1F
100
AcDbEntity
  8
외형선
  6
Continuous
370
    15
100
AcDbLine
 10
11.99999999999994
 20
11.61226712640413
 30
0.0
 11
11.99999999999992
 21
11.8869929364641
 31
0.0
  0
LINE
  5
F4
330
1F
100
AcDbEntity
  8
중심선
 62
     1
100
AcDbLine
 10
-54.50000000000004
 20
0.0010749287238888
 30
0.0
 11
167.3999999999999
 21
0.0010749287239168
 31
0.0
  0
LINE
  5
F5
330
1F
100
AcDbEntity
  8
참조1
100
AcDbLine
 10
65.97500000000004
 20
0.0010749287238892
 30
0.0
 11
65.97500000000004
 21
-39.99892507127611
 31
0.0
  0
LINE
  5
F6
330
1F
100
AcDbEntity
  8
참조1
100
AcDbLine
 10
65.97500000000004
 20
-39.99892507127611
 30
0.0
 11
-9.508856814308633
 21
-39.9989250712761
 31
0.0
  0
CIRCLE
  5
F7
330
1F
100
AcDbEntity
  8
해칭선
100
AcDbCircle
 10
0.0
 20
0.0
 30
0.0
 40
3.000000000000001
  0
INSERT
  5
F8
330
1F
100
AcDbEntity
  8
0
  6
Continuous
 62
     7
100
AcDbBlockReference
 66
     1
  2
블럭10
 10
42.50972706787473
 20
-52.04609937292004
 30
0.0
  0
ATTRIB
  5
F9
330
F8
100
AcDbEntity
  8
FORMAT
 62
     2
100
AcDbText
 10
33.32843177913345
 20
-49.97073246008785
 30
0.0
 40
4.233333333333333
  1
E1175064 [ 6 FLUTE ]
 41
0.75
  7
SLDTEXTSTYLE0
 11
33.32843177913345
 21
-52.08739912675452
 31
0.0
100
AcDbAttribute
  2
AUTOATTR0
 70
     0
 74
     1
  0
SEQEND
  5
FA
330
F8
100
AcDbEntity
  8
0
  6
Continuous
 62
     7
  0
HATCH
  5
FB
330
1F
100
AcDbEntity
  8
중심선
100
AcDbHatch
 10
0.0
 20
0.0
 30
0.0
210
0.0
220
0.0
230
1.0
  2
SOLID
 70
     1
 71
     0
 91
        1
 92
        0
 93
        4
 72
     1
 10
48.22463637225558
 20
-35.7989250712761
 11
44.7783611284183
 21
-35.7989250712761
 72
     1
 10
44.7783611284183
 20
-35.7989250712761
 11
42.65013126921433
 21
-38.33525065184867
 72
     1
 10
42.65013126921433
 20
-38.33525065184867
 11
46.09643959816465
 21
-38.33521122254619
 72
     1
 10
46.09643959816465
 20
-38.33521122254619
 11
48.22463637225558
 21
-35.7989250712761
 97
        0
 75
     0
 76
     1
 98
        1
 10
-9.525000000000086
 20
0.0
  0
HATCH
  5
FC
330
1F
100
AcDbEntity
  8
중심선
100
AcDbHatch
 10
0.0
 20
0.0
 30
0.0
210
0.0
220
0.0
230
1.0
  2
SOLID
 70
     1
 71
     0
 91
        1
 92
        0
 93
        4
 72
     1
 10
53.23740036329158
 20
-35.79892507127608
 11
49.79112511945425
 21
-35.79892507127608
 72
     1
 10
49.79112511945425
 20
-35.79892507127608
 11
45.25998711109683
 21
-41.19892507127612
 72
     1
 10
45.25998711109683
 20
-41.19892507127612
 11
48.70626235493412
 21
-41.19892507127612
 72
     1
 10
48.70626235493412
 20
-41.19892507127612
 11
53.23740036329158
 21
-35.79892507127608
 97
        0
 75
     0
 76
     1
 98
        1
 10
-9.525000000000086
 20
0.0
  0
HATCH
  5
FD
330
1F
100
AcDbEntity
  8
중심선
100
AcDbHatch
 10
0.0
 20
0.0
 30
0.0
210
0.0
220
0.0
230
1.0
  2
SOLID
 70
     1
 71
     0
 91
        1
 92
        0
 93
        4
 72
     1
 10
58.25016435432749
 20
-35.79892507127608
 11
54.80388911049031
 21
-35.79892507127608
 72
     1
 10
54.80388911049031
 20
-35.79892507127608
 11
47.75545220860104
 21
-44.19892507127612
 72
     1
 10
47.75545220860104
 20
-44.19892507127612
 11
51.20172745243832
 21
-44.19892507127612
 72
     1
 10
51.20172745243832
 20
-44.19892507127612
 11
58.25016435432749
 21
-35.79892507127608
 97
        0
 75
     0
 76
     1
 98
        1
 10
-9.525000000000086
 20
0.0
  0
HATCH
  5
FE
330
1F
100
AcDbEntity
  8
중심선
100
AcDbHatch
 10
0.0
 20
0.0
 30
0.0
210
0.0
220
0.0
230
1.0
  2
SOLID
 70
     1
 71
     0
 91
        1
 92
        0
 93
        6
 72
     3
 10
63.05005478533963
 20
-39.99892507132738
 11
3.960054785062276
 21
1.540882976769353E-10
 40
0.3939339440162635
 50
17.09539180608455
 51
320.0019657685068
 73
     0
 72
     1
 10
64.73305444104018
 20
-38.58681907591438
 11
67.03835631474116
 21
-36.65249236586649
 72
     3
 10
63.05005478528678
 20
-39.99892507127625
 11
6.600054785286822
 21
-1.278976924368180E-13
 40
0.6363583540795986
 50
39.99873849337487
 51
368.4976242363724
 73
     1
 72
     1
 10
69.47538727718735
 20
-39.03892507120613
 11
61.73012209212267
 21
-39.03892507120613
 72
     1
 10
61.73012209212268
 20
-39.03892507120613
 11
61.73009704767677
 21
-40.95892507120602
 72
     1
 10
61.73009704767677
 20
-40.95892507120602
 11
66.17147681714877
 21
-40.95892507120599
 97
        0
 75
     0
 76
     1
 98
        1
 10
-9.525000000000086
 20
0.0
  0
DIMENSION
  5
FF
330
1F
100
AcDbEntity
  8
치수문자_일반주서
100
AcDbDimension
  2
_D
 10
-63.5475
 20
-12.69892507127615
 30
0.0
 11
-63.54750000000004
 21
0.0010749287238801
 31
0.0
 70
   160
  1
%%c<>
 71
     2
 42
25.39999999999998
 52
-270.0
  3
SLDDIMSTYLE1
100
AcDbAlignedDimension
 13
-51.50000000000005
 23
12.70107492872387
 33
0.0
 14
-48.96000000000004
 24
-12.69892507127609
 34
0.0
 50
90.0000000000002
100
AcDbRotatedDimension
1001
ACAD
1000
DSTYLE
1002
{
1070
   171
1070
     6
1070
   273
1070
     7
1002
}
  0
DIMENSION
  5
114
330
1F
100
AcDbEntity
  8
치수문자_일반주서
100
AcDbDimension
  2
_D_1
 10
11.99999999999999
 20
35.14838386579975
 30
0.0
 11
88.19999999999997
 21
35.14838386579975
 31
0.0
 70
   160
  1
<>
 71
     2
 42
152.3999999999999
  3
SLDDIMSTYLE1
100
AcDbAlignedDimension
 13
164.3999999999999
 23
12.70107492872391
 33
0.0
 14
11.99999999999999
 24
11.88699293646411
 34
0.0
 50
0.0000000000000027
100
AcDbRotatedDimension
1001
ACAD
1000
DSTYLE
1002
{
1070
   171
1070
     6
1070
   273
1070
     7
1002
}
  0
DIMENSION
  5
128
330
1F
100
AcDbEntity
  8
치수문자_일반주서
100
AcDbDimension
  2
_D_2
 10
-51.50000000000005
 20
47.14838386579976
 30
0.0
 11
56.44999999999995
 21
47.14838386579976
 31
0.0
 70
   160
  1
<>
 71
     2
 42
215.8999999999999
  3
SLDDIMSTYLE1
100
AcDbAlignedDimension
 13
164.3999999999999
 23
12.70107492872391
 33
0.0
 14
-51.50000000000005
 24
10.1610749287239
 34
0.0
 50
0.0000000000000019
100
AcDbRotatedDimension
1001
ACAD
1000
DSTYLE
1002
{
1070
   171
1070
     6
1070
   273
1070
     7
1002
}
  0
DIMENSION
  5
13B
330
1F
100
AcDbEntity
  8
치수문자_일반주서
100
AcDbDimension
  2
_D_3
 10
182.9572664031444
 20
-12.69892507127604
 30
0.0
 11
182.9572664031442
 21
35.79090114934637
 31
0.0
 70
   160
  1
%%c<>
 71
     2
 42
25.40000000000002
 52
-270.0
  3
SLDDIMSTYLE1
100
AcDbAlignedDimension
 13
164.3999999999999
 23
12.70107492872391
 33
0.0
 14
164.3999999999999
 24
-12.69892507127611
 34
0.0
 50
90.0000000000002
100
AcDbRotatedDimension
1001
ACAD
1000
DSTYLE
1002
{
1070
   171
1070
     6
1070
   273
1070
     7
1002
}
  0
LINE
  5
14E
330
1F
100
AcDbEntity
  8
참조1
100
AcDbLine
 10
88.46348381534564
 20
7.441074928723896
 30
0.0
 11
88.46348381534564
 21
-7.438925071276109
 31
0.0
  0
LINE
  5
14F
330
1F
100
AcDbEntity
  8
참조1
100
AcDbLine
 10
101.1634838153456
 20
5.441074928723896
 30
0.0
 11
88.46348381534564
 21
5.441074928723896
 31
0.0
  0
SOLID
  5
150
330
1F
100
AcDbEntity
  8
참조1
100
AcDbTrace
 10
88.46348381534564
 20
5.441074928723896
 30
0.0
 11
94.81348381534563
 21
4.425074928723896
 31
0.0
 12
94.81348381534563
 22
6.457074928723896
 32
0.0
 13
94.81348381534563
 23
6.457074928723896
 33
0.0
  0
LINE
  5
151
330
1F
100
AcDbEntity
  8
참조1
100
AcDbLine
 10
101.1634838153456
 20
-5.438925071276109
 30
0.0
 11
88.46348381534564
 21
-5.438925071276109
 31
0.0
  0
SOLID
  5
152
330
1F
100
AcDbEntity
  8
참조1
100
AcDbTrace
 10
88.46348381534564
 20
-5.438925071276109
 30
0.0
 11
94.81348381534563
 21
-6.454925071276109
 31
0.0
 12
94.81348381534563
 22
-4.422925071276109
 32
0.0
 13
94.81348381534563
 23
-4.422925071276109
 33
0.0
  0
MTEXT
  5
153
330
1F
100
AcDbEntity
  8
참조1
100
AcDbMText
 10
97.8609739078159
 20
10.98929157337383
 30
0.0
 40
3.5
 41
0.0
 71
     1
 72
     1
  1
A
  7
SLDTEXTSTYLE0
 73
     1
 44
1.0
  0
MTEXT
  5
154
330
1F
100
AcDbEntity
  8
참조1
100
AcDbMText
 10
97.8609739078159
 20
0.1092915733738251
 30
0.0
 40
3.5
 41
0.0
 71
     1
 72
     1
  1
A
  7
SLDTEXTSTYLE0
 73
     1
 44
1.0
  0
INSERT
  5
15B
330
1F
100
AcDbEntity
  8
해칭선
100
AcDbBlockReference
  2
SW_DOWELSYMBOL_0
 10
0.0
 20
0.0
 30
0.0
  0
LINE
  5
302
330
1F
100
AcDbEntity
  8
외형선
  6
Continuous
370
    15
100
AcDbLine
 10
-29.08132499999996
 20
10.79607492872389
 30
0.0
 11
-15.97492500000006
 21
10.79607492872389
 31
0.0
  0
LINE
  5
303
330
1F
100
AcDbEntity
  8
외형선
  6
Continuous
370
    15
100
AcDbLine
 10
-29.08132499999996
 20
10.7960749287239
 30
0.0
 11
-30.98632499999993
 21
12.70107492872389
 31
0.0
  0
LINE
  5
304
330
1F
100
AcDbEntity
  8
외형선
  6
Continuous
370
    15
100
AcDbLine
 10
-15.97492500000006
 20
10.7960749287239
 30
0.0
 11
-14.06992500000004
 21
12.70107492872389
 31
0.0
  0
LINE
  5
306
330
1F
100
AcDbEntity
  8
외형선
  6
Continuous
370
    15
100
AcDbLine
 10
-50.86500000000006
 20
10.79607492872389
 30
0.0
 11
-38.80000000000003
 21
10.79607492872389
 31
0.0
  0
LINE
  5
307
330
1F
100
AcDbEntity
  8
외형선
  6
Continuous
370
    15
100
AcDbLine
 10
-38.80000000000003
 20
10.7960749287239
 30
0.0
 11
-36.89500000000006
 21
12.70107492872388
 31
0.0
  0
LINE
  5
309
330
1F
100
AcDbEntity
  8
외형선
  6
Continuous
370
    15
100
AcDbLine
 10
-30.98632499999994
 20
12.7010749287239
 30
0.0
 11
-36.89500000000004
 21
12.7010749287239
 31
0.0
  0
ENDSEC
  0
SECTION
  2
OBJECTS
  0
DICTIONARY
  5
C
330
0
100
AcDbDictionary
281
     1
  3
ACAD_GROUP
350
D
  3
ACAD_IMAGE_VARS
350
17F
  3
ACAD_LAYOUT
350
1A
  3
ACAD_MLINESTYLE
350
17
  3
ACAD_PLOTSETTINGS
350
19
  3
ACAD_PLOTSTYLENAME
350
E
  3
ACAD_SCALELIST
350
47
  3
APPDATA
350
17D
  3
DWGPROPS
350
32D
  0
DICTIONARY
  5
23B
330
2
100
AcDbDictionary
280
     1
281
     1
  3
ACAD_LAYERSTATES
360
23C
  0
DICTIONARY
  5
D
102
{ACAD_REACTORS
330
C
102
}
330
C
100
AcDbDictionary
281
     1
  0
RASTERVARIABLES
  5
17F
102
{ACAD_REACTORS
330
C
102
}
330
C
100
AcDbRasterVariables
 90
        0
 70
     1
 71
     1
 72
     1
  0
DICTIONARY
  5
1A
102
{ACAD_REACTORS
330
C
102
}
330
C
100
AcDbDictionary
281
     1
  3
Layout1
350
1E
  3
Layout2
350
26
  3
Model
350
22
  0
DICTIONARY
  5
17
102
{ACAD_REACTORS
330
C
102
}
330
C
100
AcDbDictionary
281
     1
  3
Standard
350
18
  0
DICTIONARY
  5
19
102
{ACAD_REACTORS
330
C
102
}
330
C
100
AcDbDictionary
281
     1
  0
ACDBDICTIONARYWDFLT
  5
E
102
{ACAD_REACTORS
330
C
102
}
330
C
100
AcDbDictionary
281
     1
  3
Normal
350
F
100
AcDbDictionaryWithDefault
340
F
  0
DICTIONARY
  5
47
102
{ACAD_REACTORS
330
C
102
}
330
C
100
AcDbDictionary
281
     1
  3
A0
350
48
  3
A1
350
49
  3
A2
350
4A
  3
A3
350
4B
  3
A4
350
4C
  3
A5
350
4D
  3
A6
350
4E
  3
A7
350
4F
  3
A8
350
50
  3
A9
350
51
  3
B0
350
52
  3
B1
350
53
  3
B2
350
54
  3
B3
350
55
  3
B4
350
56
  3
B5
350
57
  3
B6
350
58
  3
B7
350
59
  3
B8
350
5A
  3
B9
350
5B
  3
C0
350
5C
  3
C1
350
5D
  3
C2
350
5E
  3
C3
350
5F
  3
C4
350
60
  3
C5
350
61
  3
C6
350
62
  3
C7
350
63
  3
C8
350
64
  3
C9
350
65
  3
D0
350
66
  3
D1
350
67
  3
D2
350
68
  0
DICTIONARY
  5
17D
102
{ACAD_REACTORS
330
C
102
}
330
C
100
AcDbDictionary
281
     1
  0
XRECORD
  5
32D
102
{ACAD_REACTORS
330
C
102
}
330
C
100
AcDbXrecord
280
     1
  1
DWGPROPS COOKIE
  2

  3

  4

  6

  7

  8
12017012
  9

300
=
301
=
302
=
303
=
304
=
305
=
306
=
307
=
308
=
309
=
 40
0.0
 41
2458323.067380231
 42
2458323.33445103
  1

 90
        0
  0
DICTIONARY
  5
23C
102
{ACAD_REACTORS
330
23B
102
}
330
23B
100
AcDbDictionary
281
     1
  0
LAYOUT
  5
1E
102
{ACAD_REACTORS
330
1A
102
}
330
1A
100
AcDbPlotSettings
  1

  2
none_device
  4

  6

 40
0.0
 41
0.0
 42
0.0
 43
0.0
 44
0.0
 45
0.0
 46
0.0
 47
0.0
 48
0.0
 49
0.0
140
0.0
141
0.0
142
1.0
143
1.0
 70
   688
 72
     1
 73
     0
 74
     5
  7

 75
    16
147
1.0
148
0.0
149
0.0
100
AcDbLayout
  1
Layout1
 70
     1
 71
     1
 10
0.0
 20
0.0
 11
420.0
 21
297.0
 12
0.0
 22
0.0
 32
0.0
 14
1.000000000000000E+20
 24
1.000000000000000E+20
 34
1.000000000000000E+20
 15
-1.000000000000000E+20
 25
-1.000000000000000E+20
 35
-1.000000000000000E+20
146
0.0
 13
0.0
 23
0.0
 33
0.0
 16
1.0
 26
0.0
 36
0.0
 17
0.0
 27
1.0
 37
0.0
 76
     0
330
1B
  0
LAYOUT
  5
26
102
{ACAD_REACTORS
330
1A
102
}
330
1A
100
AcDbPlotSettings
  1

  2
none_device
  4

  6

 40
0.0
 41
0.0
 42
0.0
 43
0.0
 44
0.0
 45
0.0
 46
0.0
 47
0.0
 48
0.0
 49
0.0
140
0.0
141
0.0
142
1.0
143
1.0
 70
   688
 72
     1
 73
     0
 74
     5
  7

 75
    16
147
1.0
148
0.0
149
0.0
100
AcDbLayout
  1
Layout2
 70
     1
 71
     2
 10
0.0
 20
0.0
 11
0.0
 21
0.0
 12
0.0
 22
0.0
 32
0.0
 14
0.0
 24
0.0
 34
0.0
 15
0.0
 25
0.0
 35
0.0
146
0.0
 13
0.0
 23
0.0
 33
0.0
 16
1.0
 26
0.0
 36
0.0
 17
0.0
 27
1.0
 37
0.0
 76
     0
330
23
  0
LAYOUT
  5
22
102
{ACAD_REACTORS
330
1A
102
}
330
1A
100
AcDbPlotSettings
  1

  2
none_device
  4
ANSI_A_(11.00_x_8.50_Inches)
  6

 40
6.35
 41
19.05
 42
6.35000508
 43
19.05000254
 44
279.4
 45
215.9
 46
52.96617225572761
 47
85.671160077828
 48
0.0
 49
0.0
140
0.0
141
0.0
142
0.0351811932893136
143
1.0
 70
  1696
 72
     0
 73
     0
 74
     0
  7

 75
     0
147
0.0235690232323232
148
0.0
149
0.0
100
AcDbLayout
  1
Model
 70
     1
 71
     0
 10
0.0
 20
0.0
 11
420.0
 21
297.0
 12
0.0
 22
0.0
 32
0.0
 14
-67.92250000000007
 24
-49.97073246008785
 34
0.0
 15
183.5075997364777
 25
51.52338386579976
 35
0.0
146
0.0
 13
0.0
 23
0.0
 33
0.0
 16
1.0
 26
0.0
 36
0.0
 17
0.0
 27
1.0
 37
0.0
 76
     0
330
1F
331
29
  0
MLINESTYLE
  5
18
102
{ACAD_REACTORS
330
17
102
}
330
17
100
AcDbMlineStyle
  2
Standard
 70
     0
  3

 62
   256
 51
90.0
 52
90.0
 71
     2
 49
0.5
 62
   256
  6
BYLAYER
 49
-0.5
 62
   256
  6
BYLAYER
  0
ACDBPLACEHOLDER
  5
F
102
{ACAD_REACTORS
330
E
102
}
330
E
  0
SCALE
  5
48
102
{ACAD_REACTORS
330
47
102
}
330
47
100
AcDbScale
 70
     0
300
1:1
140
1.0
141
1.0
290
     1
  0
SCALE
  5
49
102
{ACAD_REACTORS
330
47
102
}
330
47
100
AcDbScale
 70
     0
300
1:2
140
1.0
141
2.0
290
     0
  0
SCALE
  5
4A
102
{ACAD_REACTORS
330
47
102
}
330
47
100
AcDbScale
 70
     0
300
1:4
140
1.0
141
4.0
290
     0
  0
SCALE
  5
4B
102
{ACAD_REACTORS
330
47
102
}
330
47
100
AcDbScale
 70
     0
300
1:5
140
1.0
141
5.0
290
     0
  0
SCALE
  5
4C
102
{ACAD_REACTORS
330
47
102
}
330
47
100
AcDbScale
 70
     0
300
1:8
140
1.0
141
8.0
290
     0
  0
SCALE
  5
4D
102
{ACAD_REACTORS
330
47
102
}
330
47
100
AcDbScale
 70
     0
300
1:10
140
1.0
141
10.0
290
     0
  0
SCALE
  5
4E
102
{ACAD_REACTORS
330
47
102
}
330
47
100
AcDbScale
 70
     0
300
1:16
140
1.0
141
16.0
290
     0
  0
SCALE
  5
4F
102
{ACAD_REACTORS
330
47
102
}
330
47
100
AcDbScale
 70
     0
300
1:20
140
1.0
141
20.0
290
     0
  0
SCALE
  5
50
102
{ACAD_REACTORS
330
47
102
}
330
47
100
AcDbScale
 70
     0
300
1:30
140
1.0
141
30.0
290
     0
  0
SCALE
  5
51
102
{ACAD_REACTORS
330
47
102
}
330
47
100
AcDbScale
 70
     0
300
1:40
140
1.0
141
40.0
290
     0
  0
SCALE
  5
52
102
{ACAD_REACTORS
330
47
102
}
330
47
100
AcDbScale
 70
     0
300
1:50
140
1.0
141
50.0
290
     0
  0
SCALE
  5
53
102
{ACAD_REACTORS
330
47
102
}
330
47
100
AcDbScale
 70
     0
300
1:100
140
1.0
141
100.0
290
     0
  0
SCALE
  5
54
102
{ACAD_REACTORS
330
47
102
}
330
47
100
AcDbScale
 70
     0
300
2:1
140
2.0
141
1.0
290
     0
  0
SCALE
  5
55
102
{ACAD_REACTORS
330
47
102
}
330
47
100
AcDbScale
 70
     0
300
4:1
140
4.0
141
1.0
290
     0
  0
SCALE
  5
56
102
{ACAD_REACTORS
330
47
102
}
330
47
100
AcDbScale
 70
     0
300
8:1
140
8.0
141
1.0
290
     0
  0
SCALE
  5
57
102
{ACAD_REACTORS
330
47
102
}
330
47
100
AcDbScale
 70
     0
300
10:1
140
10.0
141
1.0
290
     0
  0
SCALE
  5
58
102
{ACAD_REACTORS
330
47
102
}
330
47
100
AcDbScale
 70
     0
300
100:1
140
100.0
141
1.0
290
     0
  0
SCALE
  5
59
102
{ACAD_REACTORS
330
47
102
}
330
47
100
AcDbScale
 70
     0
300
1/128" = 1'-0"
140
0.0078125
141
12.0
290
     0
  0
SCALE
  5
5A
102
{ACAD_REACTORS
330
47
102
}
330
47
100
AcDbScale
 70
     0
300
1/64" = 1'-0"
140
0.015625
141
12.0
290
     0
  0
SCALE
  5
5B
102
{ACAD_REACTORS
330
47
102
}
330
47
100
AcDbScale
 70
     0
300
1/32" = 1'-0"
140
0.03125
141
12.0
290
     0
  0
SCALE
  5
5C
102
{ACAD_REACTORS
330
47
102
}
330
47
100
AcDbScale
 70
     0
300
1/16" = 1'-0"
140
0.0625
141
12.0
290
     0
  0
SCALE
  5
5D
102
{ACAD_REACTORS
330
47
102
}
330
47
100
AcDbScale
 70
     0
300
3/32" = 1'-0"
140
0.09375
141
12.0
290
     0
  0
SCALE
  5
5E
102
{ACAD_REACTORS
330
47
102
}
330
47
100
AcDbScale
 70
     0
300
1/8" = 1'-0"
140
0.125
141
12.0
290
     0
  0
SCALE
  5
5F
102
{ACAD_REACTORS
330
47
102
}
330
47
100
AcDbScale
 70
     0
300
3/16" = 1'-0"
140
0.1875
141
12.0
290
     0
  0
SCALE
  5
60
102
{ACAD_REACTORS
330
47
102
}
330
47
100
AcDbScale
 70
     0
300
1/4" = 1'-0"
140
0.25
141
12.0
290
     0
  0
SCALE
  5
61
102
{ACAD_REACTORS
330
47
102
}
330
47
100
AcDbScale
 70
     0
300
3/8" = 1'-0"
140
0.375
141
12.0
290
     0
  0
SCALE
  5
62
102
{ACAD_REACTORS
330
47
102
}
330
47
100
AcDbScale
 70
     0
300
1/2" = 1'-0"
140
0.5
141
12.0
290
     0
  0
SCALE
  5
63
102
{ACAD_REACTORS
330
47
102
}
330
47
100
AcDbScale
 70
     0
300
3/4" = 1'-0"
140
0.75
141
12.0
290
     0
  0
SCALE
  5
64
102
{ACAD_REACTORS
330
47
102
}
330
47
100
AcDbScale
 70
     0
300
1" = 1'-0"
140
1.0
141
12.0
290
     0
  0
SCALE
  5
65
102
{ACAD_REACTORS
330
47
102
}
330
47
100
AcDbScale
 70
     0
300
1-1/2" = 1'-0"
140
1.5
141
12.0
290
     0
  0
SCALE
  5
66
102
{ACAD_REACTORS
330
47
102
}
330
47
100
AcDbScale
 70
     0
300
3" = 1'-0"
140
3.0
141
12.0
290
     0
  0
SCALE
  5
67
102
{ACAD_REACTORS
330
47
102
}
330
47
100
AcDbScale
 70
     0
300
6" = 1'-0"
140
6.0
141
12.0
290
     0
  0
SCALE
  5
68
102
{ACAD_REACTORS
330
47
102
}
330
47
100
AcDbScale
 70
     0
300
1'-0" = 1'-0"
140
12.0
141
12.0
290
     0
  0
ENDSEC
  0
EOF
