  0
SECTION
  2
HEADER
  9
$ACADVER
  1
AC1015
  9
$ACADMAINTVER
 70
     6
  9
$DWGCODEPAGE
  3
ANSI_949
  9
$INSBASE
 10
0.0
 20
0.0
 30
0.0
  9
$EXTMIN
 10
1.000000000000000E+20
 20
1.000000000000000E+20
 30
1.000000000000000E+20
  9
$EXTMAX
 10
-1.000000000000000E+20
 20
-1.000000000000000E+20
 30
-1.000000000000000E+20
  9
$LIMMIN
 10
0.0
 20
0.0
  9
$LIMMAX
 10
420.0
 20
297.0
  9
$ORTHOMODE
 70
     0
  9
$REGENMODE
 70
     1
  9
$FILLMODE
 70
     1
  9
$QTEXTMODE
 70
     0
  9
$MIRRTEXT
 70
     1
  9
$LTSCALE
 40
1.0
  9
$ATTMODE
 70
     1
  9
$TEXTSIZE
 40
3.5
  9
$TRACEWID
 40
1.0
  9
$TEXTSTYLE
  7
Standard
  9
$CLAYER
  8
0
  9
$CELTYPE
  6
ByLayer
  9
$CECOLOR
 62
   256
  9
$CELTSCALE
 40
1.0
  9
$DISPSILH
 70
     0
  9
$DIMSCALE
 40
1.0
  9
$DIMASZ
 40
3.302
  9
$DIMEXO
 40
1.0
  9
$DIMDLI
 40
3.75
  9
$DIMRND
 40
0.0
  9
$DIMDLE
 40
0.0
  9
$DIMEXE
 40
1.0
  9
$DIMTP
 40
0.0
  9
$DIMTM
 40
0.0
  9
$DIMTXT
 40
3.5
  9
$DIMCEN
 40
2.5
  9
$DIMTSZ
 40
0.0
  9
$DIMTOL
 70
     0
  9
$DIMLIM
 70
     0
  9
$DIMTIH
 70
     1
  9
$DIMTOH
 70
     1
  9
$DIMSE1
 70
     0
  9
$DIMSE2
 70
     0
  9
$DIMTAD
 70
     1
  9
$DIMZIN
 70
     0
  9
$DIMBLK
  1

  9
$DIMASO
 70
     1
  9
$DIMSHO
 70
     1
  9
$DIMPOST
  1

  9
$DIMAPOST
  1

  9
$DIMALT
 70
     0
  9
$DIMALTD
 70
     3
  9
$DIMALTF
 40
0.0393700787401575
  9
$DIMLFAC
 40
1.0
  9
$DIMTOFL
 70
     1
  9
$DIMTVP
 40
0.0
  9
$DIMTIX
 70
     0
  9
$DIMSOXD
 70
     0
  9
$DIMSAH
 70
     0
  9
$DIMBLK1
  1

  9
$DIMBLK2
  1

  9
$DIMSTYLE
  2
ISO-25
  9
$DIMCLRD
 70
     0
  9
$DIMCLRE
 70
     0
  9
$DIMCLRT
 70
     0
  9
$DIMTFAC
 40
1.0
  9
$DIMGAP
 40
1.524
  9
$DIMJUST
 70
     0
  9
$DIMSD1
 70
     0
  9
$DIMSD2
 70
     0
  9
$DIMTOLJ
 70
     0
  9
$DIMTZIN
 70
     0
  9
$DIMALTZ
 70
     0
  9
$DIMALTTZ
 70
     0
  9
$DIMUPT
 70
     0
  9
$DIMDEC
 70
     2
  9
$DIMTDEC
 70
     2
  9
$DIMALTU
 70
     2
  9
$DIMALTTD
 70
     3
  9
$DIMTXSTY
  7
Standard
  9
$DIMAUNIT
 70
     0
  9
$DIMADEC
 70
     2
  9
$DIMALTRND
 40
0.0
  9
$DIMAZIN
 70
     0
  9
$DIMDSEP
 70
    44
  9
$DIMATFIT
 70
     3
  9
$DIMFRAC
 70
     0
  9
$DIMLDRBLK
  1

  9
$DIMLUNIT
 70
     2
  9
$DIMLWD
 70
    -2
  9
$DIMLWE
 70
    -2
  9
$DIMTMOVE
 70
     0
  9
$LUNITS
 70
     2
  9
$LUPREC
 70
     2
  9
$SKETCHINC
 40
1.0
  9
$FILLETRAD
 40
10.0
  9
$AUNITS
 70
     0
  9
$AUPREC
 70
     2
  9
$MENU
  1
.
  9
$ELEVATION
 40
0.0
  9
$PELEVATION
 40
0.0
  9
$THICKNESS
 40
0.0
  9
$LIMCHECK
 70
     0
  9
$CHAMFERA
 40
0.0
  9
$CHAMFERB
 40
0.0
  9
$CHAMFERC
 40
0.0
  9
$CHAMFERD
 40
0.0
  9
$SKPOLY
 70
     0
  9
$TDCREATE
 40
2458323.441533079
  9
$TDUCREATE
 40
2458323.066533079
  9
$TDUPDATE
 40
2458323.71206375
  9
$TDUUPDATE
 40
2458323.33706375
  9
$TDINDWG
 40
0.0002627083
  9
$TDUSRTIMER
 40
2458323.336801343
  9
$USRTIMER
 70
     1
  9
$ANGBASE
 50
0.0
  9
$ANGDIR
 70
     0
  9
$PDMODE
 70
     0
  9
$PDSIZE
 40
-1.0
  9
$PLINEWID
 40
0.0
  9
$SPLFRAME
 70
     0
  9
$SPLINETYPE
 70
     6
  9
$SPLINESEGS
 70
     8
  9
$HANDSEED
  5
31B
  9
$SURFTAB1
 70
     6
  9
$SURFTAB2
 70
     6
  9
$SURFTYPE
 70
     6
  9
$SURFU
 70
     6
  9
$SURFV
 70
     6
  9
$UCSBASE
  2

  9
$UCSNAME
  2

  9
$UCSORG
 10
0.0
 20
0.0
 30
0.0
  9
$UCSXDIR
 10
1.0
 20
0.0
 30
0.0
  9
$UCSYDIR
 10
0.0
 20
1.0
 30
0.0
  9
$UCSORTHOREF
  2

  9
$UCSORTHOVIEW
 70
     0
  9
$UCSORGTOP
 10
0.0
 20
0.0
 30
0.0
  9
$UCSORGBOTTOM
 10
0.0
 20
0.0
 30
0.0
  9
$UCSORGLEFT
 10
0.0
 20
0.0
 30
0.0
  9
$UCSORGRIGHT
 10
0.0
 20
0.0
 30
0.0
  9
$UCSORGFRONT
 10
0.0
 20
0.0
 30
0.0
  9
$UCSORGBACK
 10
0.0
 20
0.0
 30
0.0
  9
$PUCSBASE
  2

  9
$PUCSNAME
  2

  9
$PUCSORG
 10
0.0
 20
0.0
 30
0.0
  9
$PUCSXDIR
 10
1.0
 20
0.0
 30
0.0
  9
$PUCSYDIR
 10
0.0
 20
1.0
 30
0.0
  9
$PUCSORTHOREF
  2

  9
$PUCSORTHOVIEW
 70
     0
  9
$PUCSORGTOP
 10
0.0
 20
0.0
 30
0.0
  9
$PUCSORGBOTTOM
 10
0.0
 20
0.0
 30
0.0
  9
$PUCSORGLEFT
 10
0.0
 20
0.0
 30
0.0
  9
$PUCSORGRIGHT
 10
0.0
 20
0.0
 30
0.0
  9
$PUCSORGFRONT
 10
0.0
 20
0.0
 30
0.0
  9
$PUCSORGBACK
 10
0.0
 20
0.0
 30
0.0
  9
$USERI1
 70
     0
  9
$USERI2
 70
     0
  9
$USERI3
 70
     0
  9
$USERI4
 70
     0
  9
$USERI5
 70
     0
  9
$USERR1
 40
0.0
  9
$USERR2
 40
0.0
  9
$USERR3
 40
0.0
  9
$USERR4
 40
0.0
  9
$USERR5
 40
0.0
  9
$WORLDVIEW
 70
     1
  9
$SHADEDGE
 70
     3
  9
$SHADEDIF
 70
    70
  9
$TILEMODE
 70
     1
  9
$MAXACTVP
 70
    64
  9
$PINSBASE
 10
0.0
 20
0.0
 30
0.0
  9
$PLIMCHECK
 70
     0
  9
$PEXTMIN
 10
1.000000000000000E+20
 20
1.000000000000000E+20
 30
1.000000000000000E+20
  9
$PEXTMAX
 10
-1.000000000000000E+20
 20
-1.000000000000000E+20
 30
-1.000000000000000E+20
  9
$PLIMMIN
 10
0.0
 20
0.0
  9
$PLIMMAX
 10
0.0
 20
0.0
  9
$UNITMODE
 70
     0
  9
$VISRETAIN
 70
     1
  9
$PLINEGEN
 70
     0
  9
$PSLTSCALE
 70
     1
  9
$TREEDEPTH
 70
  3020
  9
$CMLSTYLE
  2
Standard
  9
$CMLJUST
 70
     0
  9
$CMLSCALE
 40
20.0
  9
$PROXYGRAPHICS
 70
     1
  9
$MEASUREMENT
 70
     1
  9
$CELWEIGHT
370
    -1
  9
$ENDCAPS
280
     0
  9
$JOINSTYLE
280
     0
  9
$LWDISPLAY
290
     1
  9
$INSUNITS
 70
     4
  9
$HYPERLINKBASE
  1

  9
$STYLESHEET
  1

  9
$XEDIT
290
     1
  9
$CEPSNTYPE
380
     0
  9
$PSTYLEMODE
290
     1
  9
$FINGERPRINTGUID
  2
{3A136B62-7F81-468A-AB06-898042369560}
  9
$VERSIONGUID
  2
{FAEB1C32-E019-11D5-929B-00C0DF256EC4}
  9
$EXTNAMES
290
     1
  9
$PSVPSCALE
 40
0.0
  9
$OLESTARTUP
290
     0
  0
ENDSEC
  0
SECTION
  2
CLASSES
  0
CLASS
  1
ACDBDICTIONARYWDFLT
  2
AcDbDictionaryWithDefault
  3
ObjectDBX Classes
 90
        0
280
     0
281
     0
  0
CLASS
  1
VISUALSTYLE
  2
AcDbVisualStyle
  3
ObjectDBX Classes
 90
     4095
280
     0
281
     0
  0
CLASS
  1
MATERIAL
  2
AcDbMaterial
  3
ObjectDBX Classes
 90
     1153
280
     0
281
     0
  0
CLASS
  1
SCALE
  2
AcDbScale
  3
ObjectDBX Classes
 90
     1153
280
     0
281
     0
  0
CLASS
  1
SUN
  2
AcDbSun
  3
SCENEOE
 90
     1153
280
     0
281
     0
  0
CLASS
  1
ACDBPLACEHOLDER
  2
AcDbPlaceHolder
  3
ObjectDBX Classes
 90
        0
280
     0
281
     0
  0
CLASS
  1
LAYOUT
  2
AcDbLayout
  3
ObjectDBX Classes
 90
        0
280
     0
281
     0
  0
CLASS
  1
TABLESTYLE
  2
AcDbTableStyle
  3
ObjectDBX Classes
 90
     4095
280
     0
281
     0
  0
CLASS
  1
MLEADERSTYLE
  2
AcDbMLeaderStyle
  3
ACDB_MLEADERSTYLE_CLASS
 90
     4095
280
     0
281
     0
  0
CLASS
  1
RASTERVARIABLES
  2
AcDbRasterVariables
  3
ISM
 90
        0
280
     0
281
     0
  0
ENDSEC
  0
SECTION
  2
TABLES
  0
TABLE
  2
VPORT
  5
8
330
0
100
AcDbSymbolTable
 70
     1
  0
VPORT
  5
29
330
8
100
AcDbSymbolTableRecord
100
AcDbViewportTableRecord
  2
*Active
 70
     0
 10
0.0
 20
0.0
 11
1.0
 21
1.0
 12
-3.015345988855472
 22
0.1889327508511087
 13
0.0
 23
0.0
 14
10.0
 24
10.0
 15
10.0
 25
10.0
 16
0.0
 26
0.0
 36
1.0
 17
0.0
 27
0.0
 37
0.0
 40
155.3962466743748
 41
1.632093933463796
 42
50.0
 43
0.0
 44
0.0
 50
0.0
 51
0.0
 71
    16
 72
  2000
 73
     1
 74
     3
 75
     0
 76
     0
 77
     0
 78
     0
281
     0
 65
     1
110
0.0
120
0.0
130
0.0
111
1.0
121
0.0
131
0.0
112
0.0
122
1.0
132
0.0
 79
     0
146
0.0
  0
ENDTAB
  0
TABLE
  2
LTYPE
  5
5
330
0
100
AcDbSymbolTable
 70
     6
  0
LTYPE
  5
14
330
5
100
AcDbSymbolTableRecord
100
AcDbLinetypeTableRecord
  2
ByBlock
 70
     0
  3

 72
    65
 73
     0
 40
0.0
  0
LTYPE
  5
15
330
5
100
AcDbSymbolTableRecord
100
AcDbLinetypeTableRecord
  2
ByLayer
 70
     0
  3

 72
    65
 73
     0
 40
0.0
  0
LTYPE
  5
16
330
5
100
AcDbSymbolTableRecord
100
AcDbLinetypeTableRecord
  2
Continuous
 70
     0
  3
Solid line
 72
    65
 73
     0
 40
0.0
  0
LTYPE
  5
6A
330
5
100
AcDbSymbolTableRecord
100
AcDbLinetypeTableRecord
  2
HIDDEN
 70
     0
  3
Hidden __ __ __ __ __ __ __ __ __ __ __ __ __ __
 72
    65
 73
     2
 40
1.905
 49
1.27
 74
     0
 49
-0.635
 74
     0
  0
LTYPE
  5
6B
330
5
100
AcDbSymbolTableRecord
100
AcDbLinetypeTableRecord
  2
PHANTOM
 70
     0
  3
Phantom ______  __  __  ______  __  __  ______
 72
    65
 73
     6
 40
12.7
 49
6.35
 74
     0
 49
-1.27
 74
     0
 49
1.27
 74
     0
 49
-1.27
 74
     0
 49
1.27
 74
     0
 49
-1.27
 74
     0
  0
LTYPE
  5
6C
330
5
100
AcDbSymbolTableRecord
100
AcDbLinetypeTableRecord
  2
CENTER
 70
     0
  3
Center ____ _ ____ _ ____ _ ____ _ ____ _ ____
 72
    65
 73
     4
 40
10.16
 49
6.35
 74
     0
 49
-1.27
 74
     0
 49
1.27
 74
     0
 49
-1.27
 74
     0
  0
LTYPE
  5
6D
330
5
100
AcDbSymbolTableRecord
100
AcDbLinetypeTableRecord
  2
CENTERX2
 70
     0
  3
Center (2x) ________  __  ________  __  _____
 72
    65
 73
     4
 40
20.32
 49
12.7
 74
     0
 49
-2.54
 74
     0
 49
2.54
 74
     0
 49
-2.54
 74
     0
  0
LTYPE
  5
6E
330
5
100
AcDbSymbolTableRecord
100
AcDbLinetypeTableRecord
  2
DOT2
 70
     0
  3
Dot (.5x) ........................................
 72
    65
 73
     2
 40
0.635
 49
0.0
 74
     0
 49
-0.635
 74
     0
  0
ENDTAB
  0
TABLE
  2
LAYER
  5
2
102
{ACAD_XDICTIONARY
360
232
102
}
330
0
100
AcDbSymbolTable
 70
    18
  0
LAYER
  5
10
330
2
100
AcDbSymbolTableRecord
100
AcDbLayerTableRecord
  2
0
 70
     0
 62
     7
  6
Continuous
370
    -3
390
F
  0
LAYER
  5
6F
330
2
100
AcDbSymbolTableRecord
100
AcDbLayerTableRecord
  2
FORMAT
 70
     0
 62
     2
  6
Continuous
370
    -3
390
F
  0
LAYER
  5
70
330
2
100
AcDbSymbolTableRecord
100
AcDbLayerTableRecord
  2
외형선
 70
     0
 62
     4
  6
Continuous
370
    30
390
F
  0
LAYER
  5
71
330
2
100
AcDbSymbolTableRecord
100
AcDbLayerTableRecord
  2
숨은선
 70
     0
 62
     2
  6
HIDDEN
370
    15
390
F
  0
LAYER
  5
72
330
2
100
AcDbSymbolTableRecord
100
AcDbLayerTableRecord
  2
중심선
 70
     0
 62
     1
  6
CENTERX2
370
    -3
390
F
  0
LAYER
  5
73
330
2
100
AcDbSymbolTableRecord
100
AcDbLayerTableRecord
  2
파단선
 70
     0
 62
     4
  6
Continuous
370
    -3
390
F
  0
LAYER
  5
74
330
2
100
AcDbSymbolTableRecord
100
AcDbLayerTableRecord
  2
해칭선
 70
     0
 62
   100
  6
Continuous
370
    -3
390
F
  0
LAYER
  5
75
330
2
100
AcDbSymbolTableRecord
100
AcDbLayerTableRecord
  2
가는실선
 70
     0
 62
     4
  6
Continuous
370
    -3
390
F
  0
LAYER
  5
76
330
2
100
AcDbSymbolTableRecord
100
AcDbLayerTableRecord
  2
치수_보조선
 70
     0
 62
     4
  6
Continuous
370
    -3
390
F
  0
LAYER
  5
77
330
2
100
AcDbSymbolTableRecord
100
AcDbLayerTableRecord
  2
치수문자_일반주서
 70
     0
 62
     7
  6
Continuous
370
    15
390
F
  0
LAYER
  5
78
330
2
100
AcDbSymbolTableRecord
100
AcDbLayerTableRecord
  2
개별주서
 70
     0
 62
   100
  6
Continuous
370
    30
390
F
  0
LAYER
  5
79
330
2
100
AcDbSymbolTableRecord
100
AcDbLayerTableRecord
  2
중간선
 70
     0
 62
     2
  6
Continuous
370
    15
390
F
  0
LAYER
  5
7A
330
2
100
AcDbSymbolTableRecord
100
AcDbLayerTableRecord
  2
윤곽선
 70
     0
 62
     3
  6
Continuous
370
    40
390
F
  0
LAYER
  5
7B
330
2
100
AcDbSymbolTableRecord
100
AcDbLayerTableRecord
  2
중심마크
 70
     0
 62
   100
  6
Continuous
370
    30
390
F
  0
LAYER
  5
7C
330
2
100
AcDbSymbolTableRecord
100
AcDbLayerTableRecord
  2
가상선
 70
     0
 62
     4
  6
PHANTOM
370
    -3
390
F
  0
LAYER
  5
7D
330
2
100
AcDbSymbolTableRecord
100
AcDbLayerTableRecord
  2
특수지정선
 70
     0
 62
     5
  6
CENTERX2
370
    60
390
F
  0
LAYER
  5
7E
330
2
100
AcDbSymbolTableRecord
100
AcDbLayerTableRecord
  2
참조1
 70
     0
 62
    -4
  6
Continuous
370
    -3
390
F
  0
LAYER
  5
17D
330
2
100
AcDbSymbolTableRecord
100
AcDbLayerTableRecord
  2
Defpoints
 70
     0
 62
     7
  6
Continuous
290
     0
370
    -3
390
F
  0
ENDTAB
  0
TABLE
  2
STYLE
  5
3
330
0
100
AcDbSymbolTable
 70
     2
  0
STYLE
  5
11
330
3
100
AcDbSymbolTableRecord
100
AcDbTextStyleTableRecord
  2
Standard
 70
     0
 40
0.0
 41
1.0
 50
0.0
 71
     0
 42
3.5
  3
txt
  4

  0
STYLE
  5
94
330
3
100
AcDbSymbolTableRecord
100
AcDbTextStyleTableRecord
  2
SLDTEXTSTYLE0
 70
     0
 40
0.0
 41
0.75
 50
0.0
 71
     0
 42
3.5
  3
TXT
  4

  0
ENDTAB
  0
TABLE
  2
VIEW
  5
6
330
0
100
AcDbSymbolTable
 70
     0
  0
ENDTAB
  0
TABLE
  2
UCS
  5
7
330
0
100
AcDbSymbolTable
 70
     0
  0
ENDTAB
  0
TABLE
  2
APPID
  5
9
330
0
100
AcDbSymbolTable
 70
     1
  0
APPID
  5
12
330
9
100
AcDbSymbolTableRecord
100
AcDbRegAppTableRecord
  2
ACAD
 70
     0
  0
ENDTAB
  0
TABLE
  2
DIMSTYLE
  5
A
330
0
100
AcDbSymbolTable
 70
     4
100
AcDbDimStyleTable
  0
DIMSTYLE
105
27
330
A
100
AcDbSymbolTableRecord
100
AcDbDimStyleTableRecord
  2
ISO-25
 70
     0
 41
2.5
 42
0.625
 43
3.75
 44
1.25
 73
     0
 74
     0
 77
     1
 78
     8
140
2.5
141
2.5
143
0.03937007874016
147
0.625
171
     3
172
     1
178
     0
271
     2
272
     2
274
     3
278
    44
283
     0
284
     8
340
11
  0
DIMSTYLE
105
FB
330
A
100
AcDbSymbolTableRecord
100
AcDbDimStyleTableRecord
  2
SLDDIMSTYLE0
 70
     0
 41
3.302
 44
0.0
 45
0.000000001
 73
     0
 74
     0
 77
     1
 78
     4
 79
     1
140
3.5
143
0.0393700787401575
147
0.875
148
0.000000001
170
     1
172
     1
173
     1
178
     0
271
     2
272
     2
276
     2
284
    12
289
     0
340
94
  0
DIMSTYLE
105
110
102
{ACAD_REACTORS
330
10F
330
137
330
1FF
330
20C
330
219
330
123
330
FA
102
}
330
A
100
AcDbSymbolTableRecord
100
AcDbDimStyleTableRecord
  2
SLDDIMSTYLE1
 70
     0
 41
3.302
 44
0.0
 45
0.000000001
 73
     0
 74
     0
 77
     1
 78
     4
 79
     1
140
3.5
143
0.0393700787401575
147
0.875
148
0.000000001
170
     1
173
     1
178
     0
271
     2
272
     2
276
     2
284
    12
340
94
  0
DIMSTYLE
105
124
330
A
100
AcDbSymbolTableRecord
100
AcDbDimStyleTableRecord
  2
SLDDIMSTYLE2
 70
     0
 41
3.302
 44
0.0
 45
0.000000001
 73
     0
 74
     0
 77
     1
 78
    12
 79
     3
140
3.5
143
0.0393700787401575
147
0.875
148
0.000000001
170
     1
173
     1
178
     0
271
     2
272
     2
276
     2
284
    12
340
94
  0
ENDTAB
  0
TABLE
  2
BLOCK_RECORD
  5
1
330
0
100
AcDbSymbolTable
 70
    15
  0
BLOCK_RECORD
  5
1F
330
1
100
AcDbSymbolTableRecord
100
AcDbBlockTableRecord
  2
*Model_Space
340
22
  0
BLOCK_RECORD
  5
1B
330
1
100
AcDbSymbolTableRecord
100
AcDbBlockTableRecord
  2
*Paper_Space
340
1E
  0
BLOCK_RECORD
  5
23
330
1
100
AcDbSymbolTableRecord
100
AcDbBlockTableRecord
  2
*Paper_Space0
340
26
  0
BLOCK_RECORD
  5
7F
330
1
100
AcDbSymbolTableRecord
100
AcDbBlockTableRecord
  2
블럭10
340
0
102
{BLKREFS
331
F3
102
}
  0
BLOCK_RECORD
  5
FC
330
1
100
AcDbSymbolTableRecord
100
AcDbBlockTableRecord
  2
_D
340
0
  0
BLOCK_RECORD
  5
111
330
1
100
AcDbSymbolTableRecord
100
AcDbBlockTableRecord
  2
_D_1
340
0
  0
BLOCK_RECORD
  5
125
330
1
100
AcDbSymbolTableRecord
100
AcDbBlockTableRecord
  2
_D_2
340
0
  0
BLOCK_RECORD
  5
138
330
1
100
AcDbSymbolTableRecord
100
AcDbBlockTableRecord
  2
_D_3
340
0
  0
BLOCK_RECORD
  5
151
330
1
100
AcDbSymbolTableRecord
100
AcDbBlockTableRecord
  2
SW_DOWELSYMBOL_0
340
0
102
{BLKREFS
331
157
331
226
331
0
102
}
  0
BLOCK_RECORD
  5
236
330
1
100
AcDbSymbolTableRecord
100
AcDbBlockTableRecord
  2
*D8
340
0
  0
BLOCK_RECORD
  5
242
330
1
100
AcDbSymbolTableRecord
100
AcDbBlockTableRecord
  2
*D9
340
0
  0
BLOCK_RECORD
  5
24E
330
1
100
AcDbSymbolTableRecord
100
AcDbBlockTableRecord
  2
*D10
340
0
  0
BLOCK_RECORD
  5
2BD
330
1
100
AcDbSymbolTableRecord
100
AcDbBlockTableRecord
  2
*D11
340
0
  0
BLOCK_RECORD
  5
2C9
330
1
100
AcDbSymbolTableRecord
100
AcDbBlockTableRecord
  2
*D12
340
0
  0
BLOCK_RECORD
  5
2D5
330
1
100
AcDbSymbolTableRecord
100
AcDbBlockTableRecord
  2
*D13
340
0
  0
ENDTAB
  0
ENDSEC
  0
SECTION
  2
BLOCKS
  0
BLOCK
  5
20
330
1F
100
AcDbEntity
  8
0
100
AcDbBlockBegin
  2
*Model_Space
 70
     0
 10
0.0
 20
0.0
 30
0.0
  3
*Model_Space
  1
*Model_Space
  0
ENDBLK
  5
21
330
1F
100
AcDbEntity
  8
0
100
AcDbBlockEnd
  0
BLOCK
  5
1C
330
1B
100
AcDbEntity
 67
     1
  8
0
100
AcDbBlockBegin
  2
*Paper_Space
 70
     0
 10
0.0
 20
0.0
 30
0.0
  3
*Paper_Space
  1
*Paper_Space
  0
ENDBLK
  5
1D
330
1B
100
AcDbEntity
 67
     1
  8
0
100
AcDbBlockEnd
  0
BLOCK
  5
24
330
23
100
AcDbEntity
  8
0
100
AcDbBlockBegin
  2
*Paper_Space0
 70
     0
 10
0.0
 20
0.0
 30
0.0
  3
*Paper_Space0
  1
*Paper_Space0
  0
ENDBLK
  5
25
330
23
100
AcDbEntity
  8
0
100
AcDbBlockEnd
  0
BLOCK
  5
80
330
7F
100
AcDbEntity
  8
0
100
AcDbBlockBegin
  2
블럭10
 70
     2
 10
0.0
 20
0.0
 30
0.0
  3
블럭10
  1
블럭10
  0
ELLIPSE
  5
82
330
7F
100
AcDbEntity
  8
중심선
100
AcDbEllipse
 10
20.54032771741204
 20
12.0471743016438
 30
0.0
 11
6.600054785286829
 21
-1.261213355974178E-13
 31
0.0
210
0.0
220
0.0
230
1.0
 40
0.636358354079598
 41
0.9219305317359503
 42
6.513795318482858
  0
ELLIPSE
  5
83
330
7F
100
AcDbEntity
  8
중심선
100
AcDbEllipse
 10
20.54032771746488
 20
12.04717430159265
 30
0.0
 11
3.960054785062283
 21
1.540847449632565E-10
 31
0.0
210
0.0
220
0.0
230
1.0
 40
0.3939339440162632
 41
1.131841032648279
 42
5.62031148352944
  0
LINE
  5
84
330
7F
100
AcDbEntity
  8
중심선
100
AcDbLine
 10
2.268634060543552
 20
16.24717430164393
 30
0.0
 11
5.714909304380834
 21
16.24717430164393
 31
0.0
  0
LINE
  5
85
330
7F
100
AcDbEntity
  8
중심선
100
AcDbLine
 10
5.245725140726316
 20
7.84717430164391
 30
0.0
 11
8.692000384563599
 21
7.84717430164391
 31
0.0
  0
LINE
  5
86
330
7F
100
AcDbEntity
  8
중심선
100
AcDbLine
 10
15.74043728645272
 20
16.24717430164393
 30
0.0
 11
8.692000384563599
 21
7.84717430164391
 31
0.0
  0
LINE
  5
87
330
7F
100
AcDbEntity
  8
중심선
100
AcDbLine
 10
0.1404042013395286
 20
13.71084872107135
 30
0.0
 11
3.58671253028996
 21
13.71088815037384
 31
0.0
  0
LINE
  5
88
330
7F
100
AcDbEntity
  8
중심선
100
AcDbLine
 10
2.750260043222114
 20
10.84717430164391
 30
0.0
 11
6.196535287059397
 21
10.84717430164391
 31
0.0
  0
LINE
  5
89
330
7F
100
AcDbEntity
  8
중심선
100
AcDbLine
 10
12.29416204261559
 20
16.24717430164393
 30
0.0
 11
5.245725140726316
 21
7.84717430164391
 31
0.0
  0
LINE
  5
8A
330
7F
100
AcDbEntity
  8
중심선
100
AcDbLine
 10
10.72767329541681
 20
16.24717430164393
 30
0.0
 11
6.196535287059397
 21
10.84717430164391
 31
0.0
  0
LINE
  5
8B
330
7F
100
AcDbEntity
  8
중심선
100
AcDbLine
 10
7.28139805157953
 20
16.24717430164393
 30
0.0
 11
2.750260043222114
 21
10.84717430164391
 31
0.0
  0
LINE
  5
8C
330
7F
100
AcDbEntity
  8
중심선
100
AcDbLine
 10
5.714909304380834
 20
16.24717430164393
 30
0.0
 11
3.58671253028996
 21
13.71088815037384
 31
0.0
  0
LINE
  5
8D
330
7F
100
AcDbEntity
  8
중심선
100
AcDbLine
 10
2.268634060543552
 20
16.24717430164393
 30
0.0
 11
0.1404042013395286
 21
13.71084872107135
 31
0.0
  0
LINE
  5
8E
330
7F
100
AcDbEntity
  8
중심선
100
AcDbLine
 10
7.28139805157953
 20
16.24717430164393
 30
0.0
 11
10.72767329541681
 21
16.24717430164393
 31
0.0
  0
LINE
  5
8F
330
7F
100
AcDbEntity
  8
중심선
100
AcDbLine
 10
12.29416204261559
 20
16.24717430164393
 30
0.0
 11
15.74043728645272
 21
16.24717430164393
 31
0.0
  0
LINE
  5
90
330
7F
100
AcDbEntity
  8
중심선
100
AcDbLine
 10
19.22036997980202
 20
11.08717430171403
 30
0.0
 11
23.66174974927406
 21
11.08717430171406
 31
0.0
  0
LINE
  5
91
330
7F
100
AcDbEntity
  8
중심선
100
AcDbLine
 10
19.22039502424796
 20
13.00717430171391
 30
0.0
 11
19.22036997980202
 21
11.08717430171403
 31
0.0
  0
LINE
  5
92
330
7F
100
AcDbEntity
  8
중심선
100
AcDbLine
 10
19.22039502424796
 20
13.00717430171391
 30
0.0
 11
26.96566020931264
 21
13.00717430171391
 31
0.0
  0
LINE
  5
93
330
7F
100
AcDbEntity
  8
중심선
100
AcDbLine
 10
22.22332737316547
 20
13.45928029700563
 30
0.0
 11
24.52862924686651
 21
15.39360700705356
 31
0.0
  0
ATTDEF
  5
95
330
7F
100
AcDbEntity
  8
FORMAT
 62
     2
100
AcDbText
 10
4.408487351596664
 20
2.075366912832191
 30
0.0
 40
4.233333333333333
  1
E1175032
 41
0.75
  7
SLDTEXTSTYLE0
 11
4.408487351596664
 21
-0.0412997538344756
 31
0.0
100
AcDbAttributeDefinition
  3

  2
AUTOATTR0
 70
     0
 74
     1
  0
ENDBLK
  5
81
330
7F
100
AcDbEntity
  8
0
100
AcDbBlockEnd
  0
BLOCK
  5
FD
330
FC
100
AcDbEntity
  8
0
100
AcDbBlockBegin
  2
_D
 70
     0
 10
0.0
 20
0.0
 30
0.0
  3
_D
  1
_D
  0
LINE
  5
FF
330
FC
100
AcDbEntity
  8
치수문자_일반주서
 62
     0
370
    -2
100
AcDbLine
 10
-37.59250000000003
 20
6.351074928723889
 30
0.0
 11
-52.11750000000006
 21
6.351074928723834
 31
0.0
  0
LINE
  5
100
330
FC
100
AcDbEntity
  8
치수문자_일반주서
 62
     0
370
    -2
100
AcDbLine
 10
-37.59250000000003
 20
-6.3489250712761
 30
0.0
 11
-52.11750000000002
 21
-6.348925071276155
 31
0.0
  0
LINE
  5
101
330
FC
100
AcDbEntity
  8
치수문자_일반주서
 62
     0
370
    -2
100
AcDbLine
 10
-52.11750000000005
 20
3.049074928723835
 30
0.0
 11
-52.11750000000004
 21
-3.046925071276156
 31
0.0
  0
SOLID
  5
102
330
FC
100
AcDbEntity
  8
치수문자_일반주서
 62
     0
100
AcDbTrace
 10
-51.56716666666672
 20
3.049074928723837
 30
0.0
 11
-52.66783333333338
 21
3.049074928723833
 31
0.0
 12
-52.11750000000006
 22
6.351074928723834
 32
0.0
 13
-52.11750000000006
 23
6.351074928723834
 33
0.0
  0
SOLID
  5
103
330
FC
100
AcDbEntity
  8
치수문자_일반주서
 62
     0
100
AcDbTrace
 10
-52.66783333333337
 20
-3.046925071276157
 30
0.0
 11
-51.5671666666667
 21
-3.046925071276154
 31
0.0
 12
-52.11750000000002
 22
-6.348925071276155
 32
0.0
 13
-52.11750000000002
 23
-6.348925071276155
 33
0.0
  0
MTEXT
  5
104
330
FC
100
AcDbEntity
  8
치수문자_일반주서
 62
     0
100
AcDbMText
 10
-56.49250000000004
 20
0.0010749287238751
 30
0.0
 40
3.5
 41
0.0
 71
     2
 72
     1
  1
\A1;%%c12.70 [1/2]
  7
SLDTEXTSTYLE0
 11
-3.356894814614650E-15
 21
1.0
 31
0.0
 73
     1
 44
1.0
  0
POINT
  5
105
330
FC
100
AcDbEntity
  8
Defpoints
 62
     0
100
AcDbPoint
 10
-37.53000000000003
 20
6.351074928723889
 30
0.0
  0
POINT
  5
106
330
FC
100
AcDbEntity
  8
Defpoints
 62
     0
100
AcDbPoint
 10
-37.53000000000003
 20
-6.3489250712761
 30
0.0
  0
POINT
  5
107
330
FC
100
AcDbEntity
  8
Defpoints
 62
     0
100
AcDbPoint
 10
-52.11750000000002
 20
-6.348925071276154
 30
0.0
  0
ENDBLK
  5
FE
330
FC
100
AcDbEntity
  8
0
100
AcDbBlockEnd
  0
BLOCK
  5
112
330
111
100
AcDbEntity
  8
0
100
AcDbBlockBegin
  2
_D_1
 70
     0
 10
0.0
 20
0.0
 30
0.0
  3
_D_1
  1
_D_1
  0
LINE
  5
114
330
111
100
AcDbEntity
  8
치수문자_일반주서
 62
     0
370
    -2
100
AcDbLine
 10
88.19999999999999
 20
6.367236126966445
 30
0.0
 11
88.19999999999999
 21
28.8447226675572
 31
0.0
  0
LINE
  5
115
330
111
100
AcDbEntity
  8
치수문자_일반주서
 62
     0
370
    -2
100
AcDbLine
 10
11.99999999999999
 20
6.006953525676918
 30
0.0
 11
11.99999999999999
 21
28.8447226675572
 31
0.0
  0
LINE
  5
116
330
111
100
AcDbEntity
  8
치수문자_일반주서
 62
     0
370
    -2
100
AcDbLine
 10
84.898
 20
28.8447226675572
 30
0.0
 11
15.30199999999999
 21
28.8447226675572
 31
0.0
  0
SOLID
  5
117
330
111
100
AcDbEntity
  8
치수문자_일반주서
 62
     0
100
AcDbTrace
 10
84.898
 20
28.29438933422387
 30
0.0
 11
84.898
 21
29.39505600089053
 31
0.0
 12
88.19999999999999
 22
28.8447226675572
 32
0.0
 13
88.19999999999999
 23
28.8447226675572
 33
0.0
  0
SOLID
  5
118
330
111
100
AcDbEntity
  8
치수문자_일반주서
 62
     0
100
AcDbTrace
 10
15.30199999999999
 20
29.39505600089053
 30
0.0
 11
15.30199999999999
 21
28.29438933422387
 31
0.0
 12
11.99999999999999
 22
28.8447226675572
 32
0.0
 13
11.99999999999999
 23
28.8447226675572
 33
0.0
  0
MTEXT
  5
119
330
111
100
AcDbEntity
  8
치수문자_일반주서
 62
     0
100
AcDbMText
 10
50.09999999999998
 20
33.2197226675572
 30
0.0
 40
3.5
 41
0.0
 71
     2
 72
     1
  1
\A1;76.20 [3]
  7
SLDTEXTSTYLE0
 73
     1
 44
1.0
  0
POINT
  5
11A
330
111
100
AcDbEntity
  8
Defpoints
 62
     0
100
AcDbPoint
 10
88.19999999999999
 20
6.304736126966445
 30
0.0
  0
POINT
  5
11B
330
111
100
AcDbEntity
  8
Defpoints
 62
     0
100
AcDbPoint
 10
11.99999999999999
 20
5.944453525676918
 30
0.0
  0
POINT
  5
11C
330
111
100
AcDbEntity
  8
Defpoints
 62
     0
100
AcDbPoint
 10
11.99999999999999
 20
28.8447226675572
 30
0.0
  0
ENDBLK
  5
113
330
111
100
AcDbEntity
  8
0
100
AcDbBlockEnd
  0
BLOCK
  5
126
330
125
100
AcDbEntity
  8
0
100
AcDbBlockBegin
  2
_D_2
 70
     0
 10
0.0
 20
0.0
 30
0.0
  3
_D_2
  1
_D_2
  0
LINE
  5
128
330
125
100
AcDbEntity
  8
치수문자_일반주서
 62
     0
370
    -2
100
AcDbLine
 10
88.19999999999999
 20
6.367236126966445
 30
0.0
 11
88.19999999999999
 21
40.84472266755721
 31
0.0
  0
LINE
  5
129
330
125
100
AcDbEntity
  8
치수문자_일반주서
 62
     0
370
    -2
100
AcDbLine
 10
-38.80000000000003
 20
5.1435749287239
 30
0.0
 11
-38.80000000000003
 21
40.84472266755721
 31
0.0
  0
LINE
  5
12A
330
125
100
AcDbEntity
  8
치수문자_일반주서
 62
     0
370
    -2
100
AcDbLine
 10
84.898
 20
40.84472266755721
 30
0.0
 11
-35.49800000000003
 21
40.84472266755721
 31
0.0
  0
SOLID
  5
12B
330
125
100
AcDbEntity
  8
치수문자_일반주서
 62
     0
100
AcDbTrace
 10
84.898
 20
40.29438933422388
 30
0.0
 11
84.898
 21
41.39505600089055
 31
0.0
 12
88.19999999999999
 22
40.84472266755721
 32
0.0
 13
88.19999999999999
 23
40.84472266755721
 33
0.0
  0
SOLID
  5
12C
330
125
100
AcDbEntity
  8
치수문자_일반주서
 62
     0
100
AcDbTrace
 10
-35.49800000000003
 20
41.39505600089055
 30
0.0
 11
-35.49800000000003
 21
40.29438933422388
 31
0.0
 12
-38.80000000000003
 22
40.84472266755721
 32
0.0
 13
-38.80000000000003
 23
40.84472266755721
 33
0.0
  0
MTEXT
  5
12D
330
125
100
AcDbEntity
  8
치수문자_일반주서
 62
     0
100
AcDbMText
 10
24.69999999999998
 20
45.21972266755721
 30
0.0
 40
3.5
 41
0.0
 71
     2
 72
     1
  1
\A1;127.00 [5]
  7
SLDTEXTSTYLE0
 73
     1
 44
1.0
  0
POINT
  5
12E
330
125
100
AcDbEntity
  8
Defpoints
 62
     0
100
AcDbPoint
 10
88.19999999999999
 20
6.304736126966445
 30
0.0
  0
POINT
  5
12F
330
125
100
AcDbEntity
  8
Defpoints
 62
     0
100
AcDbPoint
 10
-38.80000000000003
 20
5.0810749287239
 30
0.0
  0
POINT
  5
130
330
125
100
AcDbEntity
  8
Defpoints
 62
     0
100
AcDbPoint
 10
-38.80000000000003
 20
40.84472266755721
 30
0.0
  0
ENDBLK
  5
127
330
125
100
AcDbEntity
  8
0
100
AcDbBlockEnd
  0
BLOCK
  5
139
330
138
100
AcDbEntity
  8
0
100
AcDbBlockBegin
  2
_D_3
 70
     0
 10
0.0
 20
0.0
 30
0.0
  3
_D_3
  1
_D_3
  0
LINE
  5
13B
330
138
100
AcDbEntity
  8
치수문자_일반주서
 62
     0
370
    -2
100
AcDbLine
 10
88.26249999999999
 20
6.3510749287239
 30
0.0
 11
98.69621415236449
 21
6.351074928723939
 31
0.0
  0
LINE
  5
13C
330
138
100
AcDbEntity
  8
치수문자_일반주서
 62
     0
370
    -2
100
AcDbLine
 10
88.26249999999999
 20
-6.34892507127611
 30
0.0
 11
98.69621415236453
 21
-6.348925071276078
 31
0.0
  0
LINE
  5
13D
330
138
100
AcDbEntity
  8
치수문자_일반주서
 62
     0
370
    -2
100
AcDbLine
 10
98.69621415236449
 20
6.351074928723939
 30
0.0
 11
98.69621415236438
 21
40.09758964756982
 31
0.0
  0
LINE
  5
13E
330
138
100
AcDbEntity
  8
치수문자_일반주서
 62
     0
370
    -2
100
AcDbLine
 10
98.6962141523645
 20
3.04907492872394
 30
0.0
 11
98.69621415236452
 21
-3.046925071276078
 31
0.0
  0
SOLID
  5
13F
330
138
100
AcDbEntity
  8
치수문자_일반주서
 62
     0
100
AcDbTrace
 10
99.24654748569783
 20
3.049074928723941
 30
0.0
 11
98.14588081903118
 21
3.049074928723938
 31
0.0
 12
98.69621415236449
 22
6.351074928723939
 32
0.0
 13
98.69621415236449
 23
6.351074928723939
 33
0.0
  0
SOLID
  5
140
330
138
100
AcDbEntity
  8
치수문자_일반주서
 62
     0
100
AcDbTrace
 10
98.14588081903119
 20
-3.04692507127608
 30
0.0
 11
99.24654748569785
 21
-3.046925071276076
 31
0.0
 12
98.69621415236453
 22
-6.348925071276078
 32
0.0
 13
98.69621415236453
 23
-6.348925071276078
 33
0.0
  0
MTEXT
  5
141
330
138
100
AcDbEntity
  8
치수문자_일반주서
 62
     0
100
AcDbMText
 10
94.32121415236442
 20
26.75383964756981
 30
0.0
 40
3.5
 41
0.0
 71
     2
 72
     1
  1
\A1;%%c12.70 [1/2]
  7
SLDTEXTSTYLE0
 11
-3.356894814614644E-15
 21
1.0
 31
0.0
 73
     1
 44
1.0
  0
POINT
  5
142
330
138
100
AcDbEntity
  8
Defpoints
 62
     0
100
AcDbPoint
 10
88.19999999999999
 20
6.3510749287239
 30
0.0
  0
POINT
  5
143
330
138
100
AcDbEntity
  8
Defpoints
 62
     0
100
AcDbPoint
 10
88.19999999999999
 20
-6.34892507127611
 30
0.0
  0
POINT
  5
144
330
138
100
AcDbEntity
  8
Defpoints
 62
     0
100
AcDbPoint
 10
98.69621415236453
 20
-6.348925071276071
 30
0.0
  0
ENDBLK
  5
13A
330
138
100
AcDbEntity
  8
0
100
AcDbBlockEnd
  0
BLOCK
  5
152
330
151
100
AcDbEntity
  8
0
100
AcDbBlockBegin
  2
SW_DOWELSYMBOL_0
 70
     0
 10
0.0
 20
0.0
 30
0.0
  3
SW_DOWELSYMBOL_0
  1
SW_DOWELSYMBOL_0
  0
CIRCLE
  5
154
330
151
100
AcDbEntity
  8
해칭선
 62
     0
100
AcDbCircle
 10
0.0
 20
0.0
 30
0.0
 40
3.000000000000001
  0
HATCH
  5
155
330
151
100
AcDbEntity
  8
0
  6
Continuous
 62
     0
370
     0
100
AcDbHatch
 10
0.0
 20
0.0
 30
0.0
210
0.0
220
0.0
230
1.0
  2
SOLID
 70
     1
 71
     0
 91
        1
 92
        0
 93
        3
 72
     2
 10
0.0
 20
0.0
 40
3.000000000000001
 50
0.0
 51
90.0
 73
     1
 72
     1
 10
0.0
 20
3.000000000000001
 11
0.0
 21
0.0
 72
     1
 10
0.0
 20
0.0
 11
3.000000000000001
 21
0.0
 97
        0
 75
     0
 76
     1
 98
        1
 10
0.0
 20
0.0
  0
HATCH
  5
156
330
151
100
AcDbEntity
  8
0
  6
Continuous
 62
     0
370
     0
100
AcDbHatch
 10
0.0
 20
0.0
 30
0.0
210
0.0
220
0.0
230
1.0
  2
SOLID
 70
     1
 71
     0
 91
        1
 92
        0
 93
        3
 72
     2
 10
0.0
 20
0.0
 40
3.000000000000001
 50
180.0
 51
270.0000000000008
 73
     1
 72
     1
 10
0.0
 20
-3.000000000000001
 11
0.0
 21
0.0
 72
     1
 10
0.0
 20
0.0
 11
-3.000000000000001
 21
0.0
 97
        0
 75
     0
 76
     1
 98
        1
 10
0.0
 20
0.0
  0
ENDBLK
  5
153
330
151
100
AcDbEntity
  8
0
100
AcDbBlockEnd
  0
BLOCK
  5
237
330
236
100
AcDbEntity
  8
0
100
AcDbBlockBegin
  2
*D8
 70
     1
 10
0.0
 20
0.0
 30
0.0
  3
*D8
  1
*D8
  0
LINE
  5
239
330
236
100
AcDbEntity
  8
치수문자_일반주서
 62
     0
370
    -2
100
AcDbLine
 10
18.90000000000005
 20
21.06250000000001
 30
0.0
 11
4.375000000000015
 21
21.06249999999996
 31
0.0
  0
LINE
  5
23A
330
236
100
AcDbEntity
  8
치수문자_일반주서
 62
     0
370
    -2
100
AcDbLine
 10
18.90000000000005
 20
5.187499999999984
 30
0.0
 11
4.37500000000007
 21
5.187499999999931
 31
0.0
  0
LINE
  5
23B
330
236
100
AcDbEntity
  8
치수문자_일반주서
 62
     0
370
    -2
100
AcDbLine
 10
4.375000000000027
 20
17.76049999999996
 30
0.0
 11
4.375000000000059
 21
8.48949999999993
 31
0.0
  0
SOLID
  5
23C
330
236
100
AcDbEntity
  8
치수문자_일반주서
 62
     0
100
AcDbTrace
 10
4.92533333333336
 20
17.76049999999996
 30
0.0
 11
3.824666666666694
 21
17.76049999999995
 31
0.0
 12
4.375000000000015
 22
21.06249999999996
 32
0.0
 13
4.375000000000015
 23
21.06249999999996
 33
0.0
  0
SOLID
  5
23D
330
236
100
AcDbEntity
  8
치수문자_일반주서
 62
     0
100
AcDbTrace
 10
3.824666666666726
 20
8.489499999999929
 30
0.0
 11
4.925333333333392
 21
8.489499999999932
 31
0.0
 12
4.37500000000007
 22
5.187499999999931
 32
0.0
 13
4.37500000000007
 23
5.187499999999931
 33
0.0
  0
MTEXT
  5
23E
330
236
100
AcDbEntity
  8
치수문자_일반주서
 62
     0
100
AcDbMText
 10
0.0000000000000426
 20
13.125
 30
0.0
 40
3.5
 41
0.0
 71
     2
 72
     1
  1
\A1;%%c15.88 [5/8]
  7
SLDTEXTSTYLE0
 11
-3.468791308435129E-15
 21
1.0
 31
0.0
 73
     1
 44
1.0
  0
POINT
  5
23F
330
236
100
AcDbEntity
  8
Defpoints
 62
     0
100
AcDbPoint
 10
18.96250000000005
 20
21.06250000000001
 30
0.0
  0
POINT
  5
240
330
236
100
AcDbEntity
  8
Defpoints
 62
     0
100
AcDbPoint
 10
18.96250000000005
 20
5.187499999999984
 30
0.0
  0
POINT
  5
241
330
236
100
AcDbEntity
  8
Defpoints
 62
     0
100
AcDbPoint
 10
4.375000000000071
 20
5.18749999999993
 30
0.0
  0
ENDBLK
  5
238
330
236
100
AcDbEntity
  8
0
100
AcDbBlockEnd
  0
BLOCK
  5
243
330
242
100
AcDbEntity
  8
0
100
AcDbBlockBegin
  2
*D9
 70
     1
 10
0.0
 20
0.0
 30
0.0
  3
*D9
  1
*D9
  0
LINE
  5
245
330
242
100
AcDbEntity
  8
치수문자_일반주서
 62
     0
370
    -2
100
AcDbLine
 10
172.95
 20
21.12500000000001
 30
0.0
 11
172.95
 21
43.54456303839394
 31
0.0
  0
LINE
  5
246
330
242
100
AcDbEntity
  8
치수문자_일반주서
 62
     0
370
    -2
100
AcDbLine
 10
71.35000000000007
 20
21.07463526861171
 30
0.0
 11
71.35000000000007
 21
43.54456303839394
 31
0.0
  0
LINE
  5
247
330
242
100
AcDbEntity
  8
치수문자_일반주서
 62
     0
370
    -2
100
AcDbLine
 10
169.6480000000001
 20
43.54456303839394
 30
0.0
 11
74.65200000000007
 21
43.54456303839394
 31
0.0
  0
SOLID
  5
248
330
242
100
AcDbEntity
  8
치수문자_일반주서
 62
     0
100
AcDbTrace
 10
169.6480000000001
 20
42.9942297050606
 30
0.0
 11
169.6480000000001
 21
44.09489637172727
 31
0.0
 12
172.95
 22
43.54456303839394
 32
0.0
 13
172.95
 23
43.54456303839394
 33
0.0
  0
SOLID
  5
249
330
242
100
AcDbEntity
  8
치수문자_일반주서
 62
     0
100
AcDbTrace
 10
74.65200000000007
 20
44.09489637172727
 30
0.0
 11
74.65200000000007
 21
42.9942297050606
 31
0.0
 12
71.35000000000007
 22
43.54456303839394
 32
0.0
 13
71.35000000000007
 23
43.54456303839394
 33
0.0
  0
MTEXT
  5
24A
330
242
100
AcDbEntity
  8
치수문자_일반주서
 62
     0
100
AcDbMText
 10
122.15
 20
47.91956303839394
 30
0.0
 40
3.5
 41
0.0
 71
     2
 72
     1
  1
\A1;101.60 [4]
  7
SLDTEXTSTYLE0
 73
     1
 44
1.0
  0
POINT
  5
24B
330
242
100
AcDbEntity
  8
Defpoints
 62
     0
100
AcDbPoint
 10
172.95
 20
21.06250000000001
 30
0.0
  0
POINT
  5
24C
330
242
100
AcDbEntity
  8
Defpoints
 62
     0
100
AcDbPoint
 10
71.35000000000007
 20
21.01213526861171
 30
0.0
  0
POINT
  5
24D
330
242
100
AcDbEntity
  8
Defpoints
 62
     0
100
AcDbPoint
 10
71.35000000000007
 20
43.54456303839394
 30
0.0
  0
ENDBLK
  5
244
330
242
100
AcDbEntity
  8
0
100
AcDbBlockEnd
  0
BLOCK
  5
24F
330
24E
100
AcDbEntity
  8
0
100
AcDbBlockBegin
  2
*D10
 70
     1
 10
0.0
 20
0.0
 30
0.0
  3
*D10
  1
*D10
  0
LINE
  5
251
330
24E
100
AcDbEntity
  8
치수문자_일반주서
 62
     0
370
    -2
100
AcDbLine
 10
172.95
 20
21.12500000000001
 30
0.0
 11
172.95
 21
55.54456303839395
 31
0.0
  0
LINE
  5
252
330
24E
100
AcDbEntity
  8
치수문자_일반주서
 62
     0
370
    -2
100
AcDbLine
 10
17.37500000000006
 20
19.5375
 30
0.0
 11
17.37500000000006
 21
55.54456303839395
 31
0.0
  0
LINE
  5
253
330
24E
100
AcDbEntity
  8
치수문자_일반주서
 62
     0
370
    -2
100
AcDbLine
 10
169.6480000000001
 20
55.54456303839395
 30
0.0
 11
20.67700000000006
 21
55.54456303839395
 31
0.0
  0
SOLID
  5
254
330
24E
100
AcDbEntity
  8
치수문자_일반주서
 62
     0
100
AcDbTrace
 10
169.6480000000001
 20
54.99422970506062
 30
0.0
 11
169.6480000000001
 21
56.09489637172729
 31
0.0
 12
172.95
 22
55.54456303839395
 32
0.0
 13
172.95
 23
55.54456303839395
 33
0.0
  0
SOLID
  5
255
330
24E
100
AcDbEntity
  8
치수문자_일반주서
 62
     0
100
AcDbTrace
 10
20.67700000000006
 20
56.09489637172729
 30
0.0
 11
20.67700000000006
 21
54.99422970506062
 31
0.0
 12
17.37500000000006
 22
55.54456303839395
 32
0.0
 13
17.37500000000006
 23
55.54456303839395
 33
0.0
  0
MTEXT
  5
256
330
24E
100
AcDbEntity
  8
치수문자_일반주서
 62
     0
100
AcDbMText
 10
95.16250000000005
 20
59.91956303839395
 30
0.0
 40
3.5
 41
0.0
 71
     2
 72
     1
  1
\A1;155.58 [6 1/8]
  7
SLDTEXTSTYLE0
 73
     1
 44
1.0
  0
POINT
  5
257
330
24E
100
AcDbEntity
  8
Defpoints
 62
     0
100
AcDbPoint
 10
172.95
 20
21.06250000000001
 30
0.0
  0
POINT
  5
258
330
24E
100
AcDbEntity
  8
Defpoints
 62
     0
100
AcDbPoint
 10
17.37500000000006
 20
19.475
 30
0.0
  0
POINT
  5
259
330
24E
100
AcDbEntity
  8
Defpoints
 62
     0
100
AcDbPoint
 10
17.37500000000006
 20
55.54456303839395
 30
0.0
  0
ENDBLK
  5
250
330
24E
100
AcDbEntity
  8
0
100
AcDbBlockEnd
  0
BLOCK
  5
2BE
330
2BD
100
AcDbEntity
  8
0
100
AcDbBlockBegin
  2
*D11
 70
     1
 10
0.0
 20
0.0
 30
0.0
  3
*D11
  1
*D11
  0
LINE
  5
2C0
330
2BD
100
AcDbEntity
  8
치수문자_일반주서
 62
     0
370
    -2
100
AcDbLine
 10
107.4595535320258
 20
-61.46006714897982
 30
0.0
 11
92.93455353202573
 21
-61.46006714897987
 31
0.0
  0
LINE
  5
2C1
330
2BD
100
AcDbEntity
  8
치수문자_일반주서
 62
     0
370
    -2
100
AcDbLine
 10
107.4595535320258
 20
-77.33506714897985
 30
0.0
 11
92.93455353202579
 21
-77.3350671489799
 31
0.0
  0
LINE
  5
2C2
330
2BD
100
AcDbEntity
  8
치수문자_일반주서
 62
     0
370
    -2
100
AcDbLine
 10
92.93455353202575
 20
-64.76206714897987
 30
0.0
 11
92.93455353202577
 21
-74.03306714897991
 31
0.0
  0
SOLID
  5
2C3
330
2BD
100
AcDbEntity
  8
치수문자_일반주서
 62
     0
100
AcDbTrace
 10
93.48488686535907
 20
-64.76206714897987
 30
0.0
 11
92.38422019869242
 21
-64.76206714897987
 31
0.0
 12
92.93455353202573
 22
-61.46006714897987
 32
0.0
 13
92.93455353202573
 23
-61.46006714897987
 33
0.0
  0
SOLID
  5
2C4
330
2BD
100
AcDbEntity
  8
치수문자_일반주서
 62
     0
100
AcDbTrace
 10
92.38422019869245
 20
-74.03306714897991
 30
0.0
 11
93.4848868653591
 21
-74.03306714897991
 31
0.0
 12
92.93455353202579
 22
-77.3350671489799
 32
0.0
 13
92.93455353202579
 23
-77.3350671489799
 33
0.0
  0
MTEXT
  5
2C5
330
2BD
100
AcDbEntity
  8
치수문자_일반주서
 62
     0
100
AcDbMText
 10
88.55955353202576
 20
-69.39756714897983
 30
0.0
 40
3.5
 41
0.0
 71
     2
 72
     1
  1
\A1;%%c15.88 [5/8]
  7
SLDTEXTSTYLE0
 11
-3.580687802255617E-15
 21
1.0
 31
0.0
 73
     1
 44
1.0
  0
POINT
  5
2C6
330
2BD
100
AcDbEntity
  8
Defpoints
 62
     0
100
AcDbPoint
 10
107.5220535320258
 20
-61.46006714897982
 30
0.0
  0
POINT
  5
2C7
330
2BD
100
AcDbEntity
  8
Defpoints
 62
     0
100
AcDbPoint
 10
107.5220535320258
 20
-77.33506714897985
 30
0.0
  0
POINT
  5
2C8
330
2BD
100
AcDbEntity
  8
Defpoints
 62
     0
100
AcDbPoint
 10
92.93455353202579
 20
-77.3350671489799
 30
0.0
  0
ENDBLK
  5
2BF
330
2BD
100
AcDbEntity
  8
0
100
AcDbBlockEnd
  0
BLOCK
  5
2CA
330
2C9
100
AcDbEntity
  8
0
100
AcDbBlockBegin
  2
*D12
 70
     1
 10
0.0
 20
0.0
 30
0.0
  3
*D12
  1
*D12
  0
LINE
  5
2CC
330
2C9
100
AcDbEntity
  8
치수문자_일반주서
 62
     0
370
    -2
100
AcDbLine
 10
261.5095535320257
 20
-61.39756714897982
 30
0.0
 11
261.5095535320257
 21
-38.97800411058589
 31
0.0
  0
LINE
  5
2CD
330
2C9
100
AcDbEntity
  8
치수문자_일반주서
 62
     0
370
    -2
100
AcDbLine
 10
159.9095535320258
 20
-61.44793188036812
 30
0.0
 11
159.9095535320258
 21
-38.97800411058589
 31
0.0
  0
LINE
  5
2CE
330
2C9
100
AcDbEntity
  8
치수문자_일반주서
 62
     0
370
    -2
100
AcDbLine
 10
258.2075535320257
 20
-38.97800411058589
 30
0.0
 11
163.2115535320258
 21
-38.97800411058589
 31
0.0
  0
SOLID
  5
2CF
330
2C9
100
AcDbEntity
  8
치수문자_일반주서
 62
     0
100
AcDbTrace
 10
258.2075535320257
 20
-39.52833744391923
 30
0.0
 11
258.2075535320257
 21
-38.42767077725256
 31
0.0
 12
261.5095535320257
 22
-38.97800411058589
 32
0.0
 13
261.5095535320257
 23
-38.97800411058589
 33
0.0
  0
SOLID
  5
2D0
330
2C9
100
AcDbEntity
  8
치수문자_일반주서
 62
     0
100
AcDbTrace
 10
163.2115535320258
 20
-38.42767077725256
 30
0.0
 11
163.2115535320258
 21
-39.52833744391923
 31
0.0
 12
159.9095535320258
 22
-38.97800411058589
 32
0.0
 13
159.9095535320258
 23
-38.97800411058589
 33
0.0
  0
MTEXT
  5
2D1
330
2C9
100
AcDbEntity
  8
치수문자_일반주서
 62
     0
100
AcDbMText
 10
210.7095535320258
 20
-34.60300411058589
 30
0.0
 40
3.5
 41
0.0
 71
     2
 72
     1
  1
\A1;101.60 [4]
  7
SLDTEXTSTYLE0
 73
     1
 44
1.0
  0
POINT
  5
2D2
330
2C9
100
AcDbEntity
  8
Defpoints
 62
     0
100
AcDbPoint
 10
261.5095535320257
 20
-61.46006714897982
 30
0.0
  0
POINT
  5
2D3
330
2C9
100
AcDbEntity
  8
Defpoints
 62
     0
100
AcDbPoint
 10
159.9095535320258
 20
-61.51043188036812
 30
0.0
  0
POINT
  5
2D4
330
2C9
100
AcDbEntity
  8
Defpoints
 62
     0
100
AcDbPoint
 10
159.9095535320258
 20
-38.97800411058589
 30
0.0
  0
ENDBLK
  5
2CB
330
2C9
100
AcDbEntity
  8
0
100
AcDbBlockEnd
  0
BLOCK
  5
2D6
330
2D5
100
AcDbEntity
  8
0
100
AcDbBlockBegin
  2
*D13
 70
     1
 10
0.0
 20
0.0
 30
0.0
  3
*D13
  1
*D13
  0
LINE
  5
2D8
330
2D5
100
AcDbEntity
  8
치수문자_일반주서
 62
     0
370
    -2
100
AcDbLine
 10
261.5095535320257
 20
-61.39756714897982
 30
0.0
 11
261.5095535320257
 21
-26.97800411058588
 31
0.0
  0
LINE
  5
2D9
330
2D5
100
AcDbEntity
  8
치수문자_일반주서
 62
     0
370
    -2
100
AcDbLine
 10
105.9345535320258
 20
-62.98506714897982
 30
0.0
 11
105.9345535320258
 21
-26.97800411058588
 31
0.0
  0
LINE
  5
2DA
330
2D5
100
AcDbEntity
  8
치수문자_일반주서
 62
     0
370
    -2
100
AcDbLine
 10
258.2075535320257
 20
-26.97800411058588
 30
0.0
 11
109.2365535320258
 21
-26.97800411058588
 31
0.0
  0
SOLID
  5
2DB
330
2D5
100
AcDbEntity
  8
치수문자_일반주서
 62
     0
100
AcDbTrace
 10
258.2075535320257
 20
-27.52833744391921
 30
0.0
 11
258.2075535320257
 21
-26.42767077725254
 31
0.0
 12
261.5095535320257
 22
-26.97800411058588
 32
0.0
 13
261.5095535320257
 23
-26.97800411058588
 33
0.0
  0
SOLID
  5
2DC
330
2D5
100
AcDbEntity
  8
치수문자_일반주서
 62
     0
100
AcDbTrace
 10
109.2365535320258
 20
-26.42767077725254
 30
0.0
 11
109.2365535320258
 21
-27.52833744391921
 31
0.0
 12
105.9345535320258
 22
-26.97800411058588
 32
0.0
 13
105.9345535320258
 23
-26.97800411058588
 33
0.0
  0
MTEXT
  5
2DD
330
2D5
100
AcDbEntity
  8
치수문자_일반주서
 62
     0
100
AcDbMText
 10
183.7220535320258
 20
-22.60300411058588
 30
0.0
 40
3.5
 41
0.0
 71
     2
 72
     1
  1
\A1;155.58 [6 1/8]
  7
SLDTEXTSTYLE0
 73
     1
 44
1.0
  0
POINT
  5
2DE
330
2D5
100
AcDbEntity
  8
Defpoints
 62
     0
100
AcDbPoint
 10
261.5095535320257
 20
-61.46006714897982
 30
0.0
  0
POINT
  5
2DF
330
2D5
100
AcDbEntity
  8
Defpoints
 62
     0
100
AcDbPoint
 10
105.9345535320258
 20
-63.04756714897982
 30
0.0
  0
POINT
  5
2E0
330
2D5
100
AcDbEntity
  8
Defpoints
 62
     0
100
AcDbPoint
 10
105.9345535320258
 20
-26.97800411058588
 30
0.0
  0
ENDBLK
  5
2D7
330
2D5
100
AcDbEntity
  8
0
100
AcDbBlockEnd
  0
ENDSEC
  0
SECTION
  2
ENTITIES
  0
LINE
  5
96
330
1F
100
AcDbEntity
  8
외형선
  6
Continuous
 62
     1
370
    15
100
AcDbLine
 10
60.83265661677201
 20
-6.34892507127611
 30
0.0
 11
62.3693401462135
 21
-6.34892507127611
 31
0.0
  0
LINE
  5
97
330
1F
100
AcDbEntity
  8
외형선
  6
Continuous
 62
     1
370
    15
100
AcDbLine
 10
20.93439949625139
 20
-6.34892507127611
 30
0.0
 11
22.47072047596415
 21
-6.34892507127611
 31
0.0
  0
LINE
  5
98
330
1F
100
AcDbEntity
  8
외형선
  6
Continuous
 62
     1
370
    15
100
AcDbLine
 10
42.41916264751009
 20
6.3510749287239
 30
0.0
 11
40.88548087859894
 21
6.3510749287239
 31
0.0
  0
LINE
  5
99
330
1F
100
AcDbEntity
  8
외형선
  6
Continuous
 62
     1
370
    15
100
AcDbLine
 10
82.31702339531894
 20
6.3510749287239
 30
0.0
 11
80.78364156243374
 21
6.3510749287239
 31
0.0
  0
LINE
  5
9A
330
1F
100
AcDbEntity
  8
외형선
  6
Continuous
 62
     1
370
    15
100
AcDbLine
 10
54.18489449194722
 20
-6.34892507127611
 30
0.0
 11
55.71842630414989
 21
-6.34892507127611
 31
0.0
  0
LINE
  5
9B
330
1F
100
AcDbEntity
  8
외형선
  6
Continuous
 62
     1
370
    15
100
AcDbLine
 10
14.28679446006425
 20
-6.34892507127611
 30
0.0
 11
15.82070271370568
 21
-6.34892507127611
 31
0.0
  0
LINE
  5
9C
330
1F
100
AcDbEntity
  8
외형선
  6
Continuous
 62
     1
370
    15
100
AcDbLine
 10
35.77026553728768
 20
6.3510749287239
 30
0.0
 11
34.233794480385
 21
6.3510749287239
 31
0.0
  0
LINE
  5
9D
330
1F
100
AcDbEntity
  8
외형선
  6
Continuous
 62
     1
370
    15
100
AcDbLine
 10
75.66886540418336
 20
6.3510749287239
 30
0.0
 11
74.13212534568088
 21
6.3510749287239
 31
0.0
  0
LINE
  5
9E
330
1F
100
AcDbEntity
  8
외형선
  6
Continuous
 62
     1
370
    15
100
AcDbLine
 10
80.78364156243369
 20
-6.34892507127611
 30
0.0
 11
82.31702339531891
 21
-6.34892507127611
 31
0.0
  0
LINE
  5
9F
330
1F
100
AcDbEntity
  8
외형선
  6
Continuous
 62
     1
370
    15
100
AcDbLine
 10
40.88548087859888
 20
-6.34892507127611
 30
0.0
 11
42.41916264751006
 21
-6.34892507127611
 31
0.0
  0
LINE
  5
A0
330
1F
100
AcDbEntity
  8
외형선
  6
Continuous
 62
     1
370
    15
100
AcDbLine
 10
22.47072047596412
 20
6.3510749287239
 30
0.0
 11
20.93439949625134
 21
6.3510749287239
 31
0.0
  0
LINE
  5
A1
330
1F
100
AcDbEntity
  8
외형선
  6
Continuous
 62
     1
370
    15
100
AcDbLine
 10
62.3693401462135
 20
6.3510749287239
 30
0.0
 11
60.83265661677198
 21
6.3510749287239
 31
0.0
  0
LINE
  5
A2
330
1F
100
AcDbEntity
  8
외형선
  6
Continuous
 62
     1
370
    15
100
AcDbLine
 10
74.13212534568085
 20
-6.34892507127611
 30
0.0
 11
75.66886540418334
 21
-6.34892507127611
 31
0.0
  0
LINE
  5
A3
330
1F
100
AcDbEntity
  8
외형선
  6
Continuous
 62
     1
370
    15
100
AcDbLine
 10
34.23379448038494
 20
-6.34892507127611
 30
0.0
 11
35.77026553728765
 21
-6.34892507127611
 31
0.0
  0
LINE
  5
A4
330
1F
100
AcDbEntity
  8
외형선
  6
Continuous
 62
     1
370
    15
100
AcDbLine
 10
15.82070271370565
 20
6.3510749287239
 30
0.0
 11
14.28679446006417
 21
6.3510749287239
 31
0.0
  0
LINE
  5
A5
330
1F
100
AcDbEntity
  8
외형선
  6
Continuous
 62
     1
370
    15
100
AcDbLine
 10
55.71842630414987
 20
6.3510749287239
 30
0.0
 11
54.18489449194717
 21
6.3510749287239
 31
0.0
  0
LINE
  5
A6
330
1F
100
AcDbEntity
  8
외형선
  6
Continuous
 62
     1
370
    15
100
AcDbLine
 10
87.43162022510576
 20
-6.34892507127611
 30
0.0
 11
88.19999999999999
 21
-6.34892507127611
 31
0.0
  0
LINE
  5
A7
330
1F
100
AcDbEntity
  8
외형선
  6
Continuous
 62
     1
370
    15
100
AcDbLine
 10
47.53321325703991
 20
-6.34892507127611
 30
0.0
 11
49.06980614260923
 21
-6.34892507127611
 31
0.0
  0
LINE
  5
A8
330
1F
100
AcDbEntity
  8
외형선
  6
Continuous
 62
     1
370
    15
100
AcDbLine
 10
29.11992117316798
 20
6.3510749287239
 30
0.0
 11
27.58603949713682
 21
6.3510749287239
 31
0.0
  0
LINE
  5
A9
330
1F
100
AcDbEntity
  8
외형선
  6
Continuous
 62
     1
370
    15
100
AcDbLine
 10
69.0177129515831
 20
6.3510749287239
 30
0.0
 11
67.4842811230794
 21
6.3510749287239
 31
0.0
  0
LINE
  5
AA
330
1F
100
AcDbEntity
  8
외형선
  6
Continuous
 62
     1
370
    15
100
AcDbLine
 10
67.48428112307943
 20
-6.34892507127611
 30
0.0
 11
69.01771295158305
 21
-6.34892507127611
 31
0.0
  0
LINE
  5
AB
330
1F
100
AcDbEntity
  8
외형선
  6
Continuous
 62
     1
370
    15
100
AcDbLine
 10
27.58603949713682
 20
-6.34892507127611
 30
0.0
 11
29.11992117316791
 21
-6.34892507127611
 31
0.0
  0
LINE
  5
AC
330
1F
100
AcDbEntity
  8
외형선
  6
Continuous
 62
     1
370
    15
100
AcDbLine
 10
49.0698061426092
 20
6.3510749287239
 30
0.0
 11
47.53321325703994
 21
6.3510749287239
 31
0.0
  0
LINE
  5
AD
330
1F
100
AcDbEntity
  8
외형선
  6
Continuous
 62
     1
370
    15
100
AcDbLine
 10
88.19999999999999
 20
6.3510749287239
 30
0.0
 11
87.43162022510579
 21
6.3510749287239
 31
0.0
  0
LINE
  5
AE
330
1F
100
AcDbEntity
  8
외형선
  6
Continuous
370
    15
100
AcDbLine
 10
-37.53000000000002
 20
-6.348925071276105
 30
0.0
 11
11.00012470888798
 21
-6.348925071276105
 31
0.0
  0
LINE
  5
AF
330
1F
100
AcDbEntity
  8
외형선
  6
Continuous
370
    15
100
AcDbLine
 10
11.00012470888798
 20
6.351074928723895
 30
0.0
 11
-9.066125000000005
 21
6.351074928723895
 31
0.0
  0
LINE
  5
B0
330
1F
100
AcDbEntity
  8
외형선
  6
Continuous
370
    15
100
AcDbLine
 10
-37.53000000000002
 20
6.351074928723896
 30
0.0
 11
-38.80000000000003
 21
5.0810749287239
 31
0.0
  0
LINE
  5
B1
330
1F
100
AcDbEntity
  8
외형선
  6
Continuous
370
    15
100
AcDbLine
 10
-38.80000000000003
 20
-5.078925071276109
 30
0.0
 11
-37.53000000000002
 21
-6.348925071276105
 31
0.0
  0
LINE
  5
B2
330
1F
100
AcDbEntity
  8
외형선
  6
Continuous
 62
     1
370
    15
100
AcDbLine
 10
88.19999999999999
 20
3.786399534888307
 30
0.0
 11
88.19999999999999
 21
6.304736126966445
 31
0.0
  0
SPLINE
  5
B3
330
1F
100
AcDbEntity
  8
외형선
  6
Continuous
 62
     1
370
    15
100
AcDbSpline
210
0.0
220
0.0
230
1.0
 70
     8
 71
     3
 72
    18
 73
    14
 74
     0
 42
0.000000001
 43
0.00000001
 40
0.0
 40
0.0
 40
0.0
 40
0.0
 40
0.0979365310752701
 40
0.1957857915681779
 40
0.2935407331815512
 40
0.3860852331394455
 40
0.4788028469296922
 40
0.5714043024409943
 40
0.6639126793365179
 40
0.7565093153953684
 40
0.8492291917791233
 40
0.9417768035237553
 40
1.0
 40
1.0
 40
1.0
 40
1.0
 10
11.99999999999998
 20
0.4957027532606325
 30
0.0
 10
12.42556166098994
 20
0.0700537283421069
 30
0.0
 10
13.27630576784369
 20
-0.7808650285193939
 30
0.0
 10
14.55113088263008
 20
-2.031225052490239
 30
0.0
 10
15.80191311271224
 20
-3.177789208745926
 30
0.0
 10
17.02999555647766
 20
-4.183692419843535
 30
0.0
 10
18.23788301635859
 20
-5.019090889308459
 30
0.0
 10
19.44411288194089
 20
-5.675019801872803
 30
0.0
 10
20.64912003471295
 20
-6.126065530709636
 30
0.0
 10
21.8552851356897
 20
-6.358838608097876
 30
0.0
 10
23.06320126871789
 20
-6.354069351281907
 30
0.0
 10
24.11980109119684
 20
-6.178152377398431
 30
0.0
 10
24.77419376554466
 20
-5.917165537589302
 30
0.0
 10
25.02690072984871
 20
-5.816380191730704
 30
0.0
  0
SPLINE
  5
B4
330
1F
100
AcDbEntity
  8
외형선
  6
Continuous
 62
     1
370
    15
100
AcDbSpline
210
0.0
220
0.0
230
1.0
 70
     8
 71
     3
 72
    26
 73
    22
 74
     0
 42
0.000000001
 43
0.00000001
 40
0.0
 40
0.0
 40
0.0
 40
0.0
 40
0.0510257680669584
 40
0.1046954984048535
 40
0.1582800844653714
 40
0.2118248624275624
 40
0.2654347744517735
 40
0.3190926151321286
 40
0.3726510221803153
 40
0.426206967860457
 40
0.4798606350407539
 40
0.5334761585353516
 40
0.5870216474518206
 40
0.6406020285096178
 40
0.6942721936448282
 40
0.7478508298167446
 40
0.8013966970735034
 40
0.855014713917854
 40
0.9086663915337961
 40
0.9622213455905712
 40
1.0
 40
1.0
 40
1.0
 40
1.0
 10
42.41916264751008
 20
6.345898874207007
 30
0.0
 10
42.80176532695618
 20
6.327933341442825
 30
0.0
 10
43.58679570931274
 20
6.291071369970165
 30
0.0
 10
44.77564763238286
 20
5.952107226806246
 30
0.0
 10
45.9815679991433
 20
5.411623603183107
 30
0.0
 10
47.18659110304566
 20
4.67136874071322
 30
0.0
 10
48.39311395498735
 20
3.764625646531061
 30
0.0
 10
49.60079316827153
 20
2.722991685017912
 30
0.0
 10
50.80613187732599
 20
1.582200713552543
 30
0.0
 10
52.01141493364316
 20
0.3844326822592936
 30
0.0
 10
53.21899267261238
 20
-0.8256992600325764
 30
0.0
 10
54.42564997290633
 20
-2.006855174475159
 30
0.0
 10
55.63068805776599
 20
-3.11624488824091
 30
0.0
 10
56.83651903933213
 20
-4.113400530206979
 30
0.0
 10
58.04449975597341
 20
-4.961356256501057
 30
0.0
 10
59.25029020987503
 20
-5.632082335742291
 30
0.0
 10
60.45533986759953
 20
-6.099390237130416
 30
0.0
 10
61.66204725487461
 20
-6.349035145549687
 30
0.0
 10
62.86961253482665
 20
-6.362710315915789
 30
0.0
 10
63.95644375140598
 20
-6.194183371353605
 30
0.0
 10
64.64142184445686
 20
-5.928821750074594
 30
0.0
 10
64.92475183754449
 20
-5.819059252433486
 30
0.0
  0
SPLINE
  5
B5
330
1F
100
AcDbEntity
  8
외형선
  6
Continuous
 62
     1
370
    15
100
AcDbSpline
210
0.0
220
0.0
230
1.0
 70
     8
 71
     3
 72
    12
 73
     8
 74
     0
 42
0.000000001
 43
0.00000001
 40
0.0
 40
0.0
 40
0.0
 40
0.0
 40
0.1796786397691211
 40
0.3849968110992904
 40
0.589935647374232
 40
0.7948030123264601
 40
1.0
 40
1.0
 40
1.0
 40
1.0
 10
82.31702339531894
 20
6.338684917062367
 30
0.0
 10
82.66925847793672
 20
6.326683772275866
 30
0.0
 10
83.42399139298652
 20
6.300968960107419
 30
0.0
 10
84.5821837826698
 20
5.984853510859335
 30
0.0
 10
85.78772286976675
 20
5.45865140975621
 30
0.0
 10
86.99286002641328
 20
4.739904745491217
 30
0.0
 10
87.79740443604047
 20
4.124169596504556
 30
0.0
 10
88.20000000000002
 20
3.816054548298727
 30
0.0
  0
SPLINE
  5
B6
330
1F
100
AcDbEntity
  8
외형선
  6
Continuous
 62
     1
370
    15
100
AcDbSpline
210
0.0
220
0.0
230
1.0
 70
     8
 71
     3
 72
    10
 73
     6
 74
     0
 42
0.000000001
 43
0.00000001
 40
0.0
 40
0.0
 40
0.0
 40
0.0
 40
0.3631714896469451
 40
0.7257595907360057
 40
1.0
 40
1.0
 40
1.0
 40
1.0
 10
88.20000000000002
 20
6.304736126966445
 30
0.0
 10
87.79739512750338
 20
6.329960526174467
 30
0.0
 10
86.99283211575505
 20
6.380368804818735
 30
0.0
 10
85.88577986665989
 20
6.20491184945982
 30
0.0
 10
85.18034922146433
 20
5.93842913372599
 30
0.0
 10
84.8765663573169
 20
5.823672448312972
 30
0.0
  0
SPLINE
  5
B7
330
1F
100
AcDbEntity
  8
외형선
  6
Continuous
 62
     1
370
    15
100
AcDbSpline
210
0.0
220
0.0
230
1.0
 70
     8
 71
     3
 72
    26
 73
    22
 74
     0
 42
0.000000001
 43
0.00000001
 40
0.0
 40
0.0
 40
0.0
 40
0.0
 40
0.0442576141731445
 40
0.0979164534518601
 40
0.1514753796233507
 40
0.205029718878038
 40
0.2586807805815211
 40
0.312298181899834
 40
0.3658434344588189
 40
0.4194214555567813
 40
0.4730910045672981
 40
0.5266707705311092
 40
0.5802156447541486
 40
0.6338305527513309
 40
0.6874836039963292
 40
0.7410389348629988
 40
0.7945967270694579
 40
0.8482539517666037
 40
0.9018632483578177
 40
0.9554074116347402
 40
1.0
 40
1.0
 40
1.0
 40
1.0
 10
67.48428112307943
 20
-6.332453309385901
 30
0.0
 10
67.15228741659422
 20
-6.324015603717379
 30
0.0
 10
66.4177777301888
 20
-6.305347850613922
 30
0.0
 10
65.2801918281707
 20
-6.003047426777489
 30
0.0
 10
64.0748493552192
 20
-5.489988978320544
 30
0.0
 10
62.86958307232207
 20
-4.772617668606443
 30
0.0
 10
61.6620551501686
 20
-3.886212568114669
 30
0.0
 10
60.45533775585469
 20
-2.859078908615086
 30
0.0
 10
59.25029077570221
 20
-1.728626186728012
 30
0.0
 10
58.04449960419806
 20
-0.5358263852501826
 30
0.0
 10
56.83651907930444
 20
0.6746331995350243
 30
0.0
 10
55.63068804949143
 20
1.862491511766931
 30
0.0
 10
54.42564996609553
 20
2.983303855241227
 30
0.0
 10
53.21899270820695
 20
3.996335108487537
 30
0.0
 10
52.01141479809144
 20
4.865135706358043
 30
0.0
 10
50.8061323829069
 20
5.560033551421607
 30
0.0
 10
49.60079127953514
 20
6.054257342674032
 30
0.0
 10
48.39312101582195
 20
6.331901940535296
 30
0.0
 10
47.18656479297731
 20
6.376163673471068
 30
0.0
 10
46.04906610470894
 20
6.222197085037292
 30
0.0
 10
45.31284600978543
 20
5.951422860596294
 30
0.0
 10
44.97831323699856
 20
5.828385126736454
 30
0.0
  0
SPLINE
  5
B8
330
1F
100
AcDbEntity
  8
외형선
  6
Continuous
 62
     1
370
    15
100
AcDbSpline
210
0.0
220
0.0
230
1.0
 70
     8
 71
     3
 72
    20
 73
    16
 74
     0
 42
0.000000001
 43
0.00000001
 40
0.0
 40
0.0
 40
0.0
 40
0.0
 40
0.0580471074204001
 40
0.1355046151698746
 40
0.2128347692164382
 40
0.2901888321800256
 40
0.3676868790832288
 40
0.4450819180354708
 40
0.5224031873382489
 40
0.5998022545330498
 40
0.6772984102929017
 40
0.7546498723320264
 40
0.8363563774056594
 40
0.9181417170208724
 40
1.0
 40
1.0
 40
1.0
 40
1.0
 10
27.58603949713682
 20
-6.327427534302871
 30
0.0
 10
27.28440520168985
 20
-6.323597245802898
 30
0.0
 10
26.58027297283367
 20
-6.314655856778642
 30
0.0
 10
25.47383277681995
 20
-6.033100618101366
 30
0.0
 10
24.26870949374558
 20
-5.536792427543714
 30
0.0
 10
23.06317825966812
 20
-4.83340826408894
 30
0.0
 10
21.85529129684213
 20
-3.959313637577376
 30
0.0
 10
20.64911838657684
 20
-2.941241349103408
 30
0.0
 10
19.44411332385345
 20
-1.817270607053944
 30
0.0
 10
18.23788289774109
 20
-0.6279209925764896
 30
0.0
 10
17.029995588153
 20
0.5824955950594752
 30
0.0
 10
15.80191310370151
 20
1.797087014190164
 30
0.0
 10
14.55113088509036
 20
2.961805304098099
 30
0.0
 10
13.27630576722669
 20
4.042925349479553
 30
0.0
 10
12.42556166078328
 20
4.620231998563856
 30
0.0
 10
11.99999999999859
 20
4.909013988948058
 30
0.0
  0
SPLINE
  5
B9
330
1F
100
AcDbEntity
  8
외형선
  6
Continuous
370
    15
100
AcDbSpline
210
0.0
220
0.0
230
1.0
 70
    24
 71
     3
 72
    16
 73
    12
 74
     0
 42
0.000000001
 43
0.00000001
 40
0.0
 40
0.0
 40
0.0
 40
0.0
 40
0.0047198521016076
 40
0.1439184889832608
 40
0.2831171258648992
 40
0.4223157627465401
 40
0.5615143996281817
 40
0.7007130365098228
 40
0.8399116733914656
 40
0.9791103102731052
 40
0.9999999999999999
 40
0.9999999999999999
 40
0.9999999999999999
 40
0.9999999999999999
 10
11.99999999999999
 20
4.909013988938382
 30
0.0
 10
11.99999999999998
 20
4.902910121493371
 30
0.0
 10
11.99999999999955
 20
4.716790014183055
 30
0.0
 10
12.00000000000016
 20
4.267570956021964
 30
0.0
 10
11.99999999999996
 20
3.458435644844051
 30
0.0
 10
12.00000000000001
 20
2.589137347795465
 30
0.0
 10
11.99999999999996
 20
1.76125743068677
 30
0.0
 10
12.00000000000007
 20
1.058681484173974
 30
0.0
 10
11.99999999999997
 20
0.5948513991484123
 30
0.0
 10
12.0
 20
0.3796533361781917
 30
0.0
 10
12.00000000000001
 20
0.4129219726412568
 30
0.0
 10
12.0
 20
0.4172631479666115
 30
0.0
  0
SPLINE
  5
BA
330
1F
100
AcDbEntity
  8
외형선
  6
Continuous
 62
     1
370
    15
100
AcDbSpline
210
0.0
220
0.0
230
1.0
 70
     8
 71
     3
 72
    27
 73
    23
 74
     0
 42
0.000000001
 43
0.00000001
 40
0.0
 40
0.0
 40
0.0
 40
0.0
 40
0.0001667757453007
 40
0.0537319131936539
 40
0.1073972496406335
 40
0.1609953531977033
 40
0.2145395824688895
 40
0.2681348965070456
 40
0.3218015425524596
 40
0.3753684811157832
 40
0.4289188629858932
 40
0.4825574360604243
 40
0.536190496352776
 40
0.5897395079445376
 40
0.6433093260322883
 40
0.6969775871352097
 40
0.750568802714797
 40
0.8041131747296519
 40
0.8577156591322297
 40
0.9113786298612832
 40
0.9649411719828125
 40
1.0
 40
1.0
 40
1.0
 40
1.0
 10
15.82070271370564
 20
6.350700593458868
 30
0.0
 10
15.82195348250142
 20
6.350825346885141
 30
0.0
 10
16.22492694989085
 20
6.3910184832372
 30
0.0
 10
17.02995811073243
 20
6.255010901547747
 30
0.0
 10
18.23789294116267
 20
5.937542781309637
 30
0.0
 10
19.44411061062903
 20
5.376496444720688
 30
0.0
 10
20.64911921331296
 20
4.629783673722398
 30
0.0
 10
21.8552907036657
 20
3.714411253616924
 30
0.0
 10
23.06317980497436
 20
2.667216577238399
 30
0.0
 10
24.26870391820214
 20
1.522493693351185
 30
0.0
 10
25.47385354562497
 20
0.3230482371539015
 30
0.0
 10
26.68106061747473
 20
-0.886934675151225
 30
0.0
 10
27.88813441516217
 20
-2.065104071635894
 30
0.0
 10
29.09325144904664
 20
-3.169806135703061
 30
0.0
 10
30.29883923497708
 20
-4.160352698877681
 30
0.0
 10
31.5067678395338
 20
-4.999958925579359
 30
0.0
 10
32.71284421543556
 20
-5.66083924496218
 30
0.0
 10
33.9178528547565
 20
-6.117314755947302
 30
0.0
 10
35.12418658572516
 20
-6.355718241384169
 30
0.0
 10
36.33201647218809
 20
-6.357105748812791
 30
0.0
 10
37.3986815848465
 20
-6.183537821897239
 30
0.0
 10
38.06325759963364
 20
-5.920998883204659
 30
0.0
 10
38.32616547580734
 20
-5.817137845116093
 30
0.0
  0
SPLINE
  5
BB
330
1F
100
AcDbEntity
  8
외형선
  6
Continuous
 62
     1
370
    15
100
AcDbSpline
210
0.0
220
0.0
230
1.0
 70
     8
 71
     3
 72
    26
 73
    22
 74
     0
 42
0.000000001
 43
0.00000001
 40
0.0
 40
0.0
 40
0.0
 40
0.0
 40
0.0496723862605465
 40
0.1033424497783797
 40
0.1569209845062167
 40
0.2104667503809399
 40
0.2640846657066491
 40
0.3177362417402176
 40
0.3712910943977524
 40
0.4248505340160638
 40
0.4785098876994256
 40
0.5321173455906693
 40
0.5856617865439201
 40
0.639248157638505
 40
0.6929174108769107
 40
0.7464904656537992
 40
0.8000377939587668
 40
0.8536642801656029
 40
0.907308450313581
 40
0.9608603222327775
 40
1.0
 40
1.0
 40
1.0
 40
1.0
 10
55.71842630414987
 20
6.343349150626119
 30
0.0
 10
56.090905500094
 20
6.327474545764844
 30
0.0
 10
56.86584134469876
 20
6.294447733905576
 30
0.0
 10
58.04450783795156
 20
5.963023801788665
 30
0.0
 10
59.2502885506577
 20
5.427973104419133
 30
0.0
 10
60.45533843492282
 20
4.692269848870397
 30
0.0
 10
61.66205466083361
 20
3.789540860657191
 30
0.0
 10
62.86958434944516
 20
2.750786150997455
 30
0.0
 10
64.07484474494865
 20
1.611994255381987
 30
0.0
 10
65.2802090108033
 20
0.4151348469247849
 30
0.0
 10
66.4879273322339
 20
-0.7950686294166676
 30
0.0
 10
67.69439473700332
 20
-1.977652305603039
 30
0.0
 10
68.89941024522108
 20
-3.089360548805885
 30
0.0
 10
70.10538165647169
 20
-4.089765731456547
 30
0.0
 10
71.31334241947039
 20
-4.941893546430966
 30
0.0
 10
72.51900875735139
 20
-5.617505156226128
 30
0.0
 10
73.7240957296197
 20
-6.09021777064893
 30
0.0
 10
74.93100867042325
 20
-6.345472022797439
 30
0.0
 10
76.13839554162709
 20
-6.365279411383485
 30
0.0
 10
77.2353291033502
 20
-6.199442573565716
 30
0.0
 10
77.93052699657575
 20
-5.932810474485049
 30
0.0
 10
78.22407933891283
 20
-5.820223140734338
 30
0.0
  0
SPLINE
  5
BC
330
1F
100
AcDbEntity
  8
외형선
  6
Continuous
 62
     1
370
    15
100
AcDbSpline
210
0.0
220
0.0
230
1.0
 70
     8
 71
     3
 72
    26
 73
    22
 74
     0
 42
0.000000001
 43
0.00000001
 40
0.0
 40
0.0
 40
0.0
 40
0.0
 40
0.045611442762911
 40
0.0992749813308162
 40
0.1528381293293478
 40
0.2063896425705419
 40
0.2600334534223251
 40
0.3136595804514097
 40
0.3672065501088064
 40
0.4207792460658155
 40
0.4744481398400246
 40
0.5280341520255406
 40
0.5815782343505589
 40
0.635185333191498
 40
0.6888443274769684
 40
0.7424034083665904
 40
0.7959579023261585
 40
0.849609119013929
 40
0.903226675219293
 40
0.9567720824569096
 40
1.0
 40
1.0
 40
1.0
 40
1.0
 10
80.78364156243371
 20
-6.334421224571505
 30
0.0
 10
80.4415274297992
 20
-6.324263183592814
 30
0.0
 10
79.6969034478998
 20
-6.30215383410876
 30
0.0
 10
78.54899821544218
 20
-5.992728537705952
 30
0.0
 10
77.34356239438173
 20
-5.474134747721713
 30
0.0
 10
76.1383654304775
 20
-4.752150388589442
 30
0.0
 10
74.9310167419724
 20
-3.861646141335054
 30
0.0
 10
73.72409357076589
 20
-2.831566960521725
 30
0.0
 10
72.51900933568041
 20
-1.698992985149078
 30
0.0
 10
71.31334226434414
 20
-0.5051129267953011
 30
0.0
 10
70.105381697303
 20
0.70528664654138
 30
0.0
 10
68.89941023688746
 20
1.891892091227564
 30
0.0
 10
67.69439472957602
 20
3.010453933964064
 30
0.0
 10
66.48792737035474
 20
4.020384949437571
 30
0.0
 10
65.28020886572347
 20
4.885019546750639
 30
0.0
 10
64.07484528597374
 20
5.575134641087073
 30
0.0
 10
62.86958232864446
 20
6.064001806675693
 30
0.0
 10
61.66206221583268
 20
6.336050125434596
 30
0.0
 10
60.45531027666211
 20
6.374210315794731
 30
0.0
 10
59.32797912299787
 20
6.217111288087145
 30
0.0
 10
58.60203802225564
 20
5.94723162598147
 30
0.0
 10
58.27776558338746
 20
5.826678407349189
 30
0.0
  0
SPLINE
  5
BD
330
1F
100
AcDbEntity
  8
외형선
  6
Continuous
 62
     1
370
    15
100
AcDbSpline
210
0.0
220
0.0
230
1.0
 70
     8
 71
     3
 72
    26
 73
    22
 74
     0
 42
0.000000001
 43
0.00000001
 40
0.0
 40
0.0
 40
0.0
 40
0.0
 40
0.0415498448259881
 40
0.0951954716343456
 40
0.1487472866881572
 40
0.202308611027334
 40
0.2559703616907208
 40
0.3095716274028295
 40
0.3631147820484422
 40
0.4167047791937656
 40
0.4703718201107387
 40
0.523940420250712
 40
0.5774882143677476
 40
0.6311200552744659
 40
0.6847574088380272
 40
0.7383065732022566
 40
0.7918722938832716
 40
0.8455377197794562
 40
0.8991318152901676
 40
0.9526748271953573
 40
1.0
 40
1.0
 40
1.0
 40
1.0
 10
40.8854808785989
 20
-6.328956249929256
 30
0.0
 10
40.57372696967266
 20
-6.323682223719413
 30
0.0
 10
39.85946292083266
 20
-6.311598823298533
 30
0.0
 10
38.74261005727331
 20
-6.023233951838328
 30
0.0
 10
37.53742401333971
 20
-5.521318244544905
 30
0.0
 10
36.33199051715403
 20
-4.813247594184914
 30
0.0
 10
35.12419353736107
 20
-3.935046649818845
 30
0.0
 10
33.91785099527662
 20
-2.913918665588727
 30
0.0
 10
32.7128447138779
 20
-1.787760117768052
 30
0.0
 10
31.50676770585024
 20
-0.5972535124784358
 30
0.0
 10
30.29883927020428
 20
0.6133187487194981
 30
0.0
 10
29.09325144163752
 20
1.803550476264667
 30
0.0
 10
27.88813440961705
 20
2.928812670991628
 30
0.0
 10
26.68106064713312
 20
3.947930465713201
 30
0.0
 10
25.47385343262046
 20
4.825059215743553
 30
0.0
 10
24.26870433985901
 20
5.529443113104892
 30
0.0
 10
23.06317822929245
 20
6.034334069056049
 30
0.0
 10
21.85529659307462
 20
6.323171151257051
 30
0.0
 10
20.64909727645658
 20
6.379610865072268
 30
0.0
 10
19.49120685713962
 20
6.232236307095839
 30
0.0
 10
18.73437779112007
 20
5.959955101601198
 30
0.0
 10
18.37928994616691
 20
5.832206643169447
 30
0.0
  0
SPLINE
  5
BE
330
1F
100
AcDbEntity
  8
외형선
  6
Continuous
 62
     1
370
    15
100
AcDbSpline
210
0.0
220
0.0
230
1.0
 70
     8
 71
     3
 72
    27
 73
    23
 74
     0
 42
0.000000001
 43
0.00000001
 40
0.0
 40
0.0
 40
0.0
 40
0.0
 40
0.0263243362557477
 40
0.0798873382518038
 40
0.1334337847713769
 40
0.1870684160143099
 40
0.2406975348801909
 40
0.2942426112221157
 40
0.3478084925309862
 40
0.4014728096205735
 40
0.4550600868488056
 40
0.5086005239547804
 40
0.5621990691778713
 40
0.6158580962823735
 40
0.6694167021597244
 40
0.7229657992343472
 40
0.7766087033021746
 40
0.8302289268640619
 40
0.8837721105417424
 40
0.937343142924638
 40
0.9910091397201912
 40
1.0
 40
1.0
 40
1.0
 40
1.0
 10
22.47072047596414
 20
6.32242727890902
 30
0.0
 10
22.66837337241008
 20
6.32813065628292
 30
0.0
 10
23.26819718720342
 20
6.345438885178794
 30
0.0
 10
24.2686953742803
 20
6.127459121493086
 30
0.0
 10
25.47385583903807
 20
5.689499687558947
 30
0.0
 10
26.68106000196284
 20
5.035236619745106
 30
0.0
 10
27.88813458204769
 20
4.203204994417477
 30
0.0
 10
29.09325139593322
 20
3.218423522732317
 30
0.0
 10
30.2988392806658
 20
2.117952772401408
 30
0.0
 10
31.50676770982527
 20
0.9428893619800779
 30
0.0
 10
32.71284468758264
 20
-0.2674390802985942
 30
0.0
 10
33.91785109644398
 20
-1.468201405848072
 30
0.0
 10
35.12419315832318
 20
-2.615812913907808
 30
0.0
 10
36.33199193257315
 20
-3.668288473641674
 30
0.0
 10
37.5374187424747
 20
-4.590156563200092
 30
0.0
 10
38.74262974027
 20
-5.346525294675129
 30
0.0
 10
39.95003889592206
 20
-5.910222022013389
 30
0.0
 10
41.1568914947339
 20
-6.260230686549595
 30
0.0
 10
42.36198891254219
 20
-6.390180226735508
 30
0.0
 10
43.56759681251081
 20
-6.270909082642011
 30
0.0
 10
44.44088991428949
 20
-6.073382468290721
 30
0.0
 10
44.9108735727084
 20
-5.857249040791788
 30
0.0
 10
44.97831323699855
 20
-5.826235269288665
 30
0.0
  0
SPLINE
  5
BF
330
1F
100
AcDbEntity
  8
외형선
  6
Continuous
 62
     1
370
    15
100
AcDbSpline
210
0.0
220
0.0
230
1.0
 70
     8
 71
     3
 72
    27
 73
    23
 74
     0
 42
0.000000001
 43
0.00000001
 40
0.0
 40
0.0
 40
0.0
 40
0.0
 40
0.0222335915944498
 40
0.0757854003196478
 40
0.1293417957449104
 40
0.1829980995563421
 40
0.2366025105252907
 40
0.2901439081379817
 40
0.3437272335087959
 40
0.397393436312604
 40
0.4509634461225899
 40
0.5045077309228874
 40
0.5581311691259037
 40
0.6117722902649482
 40
0.6653211184212261
 40
0.7188815807514723
 40
0.7725424286174875
 40
0.8261393430208347
 40
0.8796802673462565
 40
0.9332701529878097
 40
0.9869343006514241
 40
1.0
 40
1.0
 40
1.0
 40
1.0
 10
62.36934014621352
 20
6.323265847022548
 30
0.0
 10
62.53625113082514
 20
6.33001605714852
 30
0.0
 10
63.10518376291029
 20
6.353024817315108
 30
0.0
 10
64.07482035749224
 20
6.151548460857219
 30
0.0
 10
65.28021555963163
 20
5.731222507081662
 30
0.0
 10
66.48792557720702
 20
5.09167283473611
 30
0.0
 10
67.69439520911115
 20
4.272236562513121
 30
0.0
 10
68.89941010872046
 20
3.297801708778211
 30
0.0
 10
70.10538173034948
 20
2.204966266772759
 30
0.0
 10
71.31334226061394
 20
1.034264426454542
 30
0.0
 10
72.51900931764509
 20
-0.1752196595210607
 30
0.0
 10
73.72409364664738
 20
-1.378311783882681
 30
0.0
 10
74.93101645596566
 20
-2.531018909517313
 30
0.0
 10
76.13836649804949
 20
-3.592377892585864
 30
0.0
 10
77.3435584173074
 20
-4.525493278622052
 30
0.0
 10
78.54901307431764
 20
-5.295487428618071
 30
0.0
 10
79.75684373132232
 20
-5.874440791647111
 30
0.0
 10
80.96312755949288
 20
-6.241453207231195
 30
0.0
 10
82.16815392288413
 20
-6.388298846957615
 30
0.0
 10
83.37419549897697
 20
-6.288301408188958
 30
0.0
 10
84.27814718157993
 20
-6.091480340532733
 30
0.0
 10
84.77858137706183
 20
-5.865725393588376
 30
0.0
 10
84.8765663573169
 20
-5.821522590865182
 30
0.0
  0
SPLINE
  5
C0
330
1F
100
AcDbEntity
  8
외형선
  6
Continuous
 62
     1
370
    15
100
AcDbSpline
210
0.0
220
0.0
230
1.0
 70
     8
 71
     3
 72
    27
 73
    23
 74
     0
 42
0.000000001
 43
0.00000001
 40
0.0
 40
0.0
 40
0.0
 40
0.0
 40
0.0195052793128899
 40
0.0730521966114797
 40
0.1266177946257968
 40
0.1802825408028068
 40
0.2338730241295146
 40
0.2874145455940292
 40
0.341012057760924
 40
0.3946735041035317
 40
0.4482345637907769
 40
0.5017839891742987
 40
0.5554257085699253
 40
0.6090497448323074
 40
0.6625946268091762
 40
0.7161652340826447
 40
0.7698320354227683
 40
0.8234159584055727
 40
0.8769579531626341
 40
0.9305629619787386
 40
0.9842198642160833
 40
1.0
 40
1.0
 40
1.0
 40
1.0
 10
87.43162022510576
 20
-6.322417032254335
 30
0.0
 10
87.2852177502975
 20
-6.329439822136716
 30
0.0
 10
86.73690351175021
 20
-6.355741943681306
 30
0.0
 10
85.78776102349191
 20
-6.16466661570969
 30
0.0
 10
84.58216148732976
 20
-5.756276481657097
 30
0.0
 10
83.37426335315885
 20
-5.126514138609561
 30
0.0
 10
82.16813577121147
 20
-4.315635902466267
 30
0.0
 10
80.96313242683615
 20
-3.348171095336185
 30
0.0
 10
79.75684242470459
 20
-2.260629271165769
 30
0.0
 10
78.54901342397181
 20
-1.092847419223274
 30
0.0
 10
77.343558323352
 20
0.1158512548481038
 30
0.0
 10
76.13836652464516
 20
1.320393441733802
 30
0.0
 10
74.93101644369817
 20
2.476303036451623
 30
0.0
 10
73.72409366908407
 20
3.543555862077065
 30
0.0
 10
72.5190092402584
 20
4.484008001386084
 30
0.0
 10
71.31334254814004
 20
5.262959728554516
 30
0.0
 10
70.10538065630676
 20
5.852074601685056
 30
0.0
 10
68.8994141085263
 20
6.230349019234792
 30
0.0
 10
67.69438028654582
 20
6.388480749004512
 30
0.0
 10
66.48798136640661
 20
6.301226297550333
 30
0.0
 10
65.5637641363951
 20
6.10552483971411
 30
0.0
 10
65.04308128210585
 20
5.873857427373271
 30
0.0
 10
64.92475183754452
 20
5.821209109881277
 30
0.0
  0
SPLINE
  5
C1
330
1F
100
AcDbEntity
  8
외형선
  6
Continuous
 62
     1
370
    15
100
AcDbSpline
210
0.0
220
0.0
230
1.0
 70
     8
 71
     3
 72
    27
 73
    23
 74
     0
 42
0.000000001
 43
0.00000001
 40
0.0
 40
0.0
 40
0.0
 40
0.0
 40
0.0154139514987888
 40
0.068957162720256
 40
0.1225401808752502
 40
0.1762083408162673
 40
0.2297815325168437
 40
0.2833268743896906
 40
0.3369492592520345
 40
0.3905943255345146
 40
0.4441455810426575
 40
0.4977063457368062
 40
0.5513675357058426
 40
0.6049682413555887
 40
0.6585108365460226
 40
0.712100273746725
 40
0.7657667539140716
 40
0.8193347943329942
 40
0.8728820289463747
 40
0.92651330947126
 40
0.9801501025953883
 40
1.0
 40
1.0
 40
1.0
 40
1.0
 10
47.53321325703993
 20
-6.325476326485571
 30
0.0
 10
47.41755330682689
 20
-6.33229079631769
 30
0.0
 10
46.90012712914077
 20
-6.362776587394865
 30
0.0
 10
45.98161621927039
 20
-6.186356816451632
 30
0.0
 10
44.77562924768318
 20
-5.796157218421812
 30
0.0
 10
43.56767530535976
 20
-5.181039724371093
 30
0.0
 10
42.36196790937603
 20
-4.383235516942358
 30
0.0
 10
41.15689713023995
 20
-3.426333328454588
 30
0.0
 10
39.95003738416101
 20
-2.347031937351419
 30
0.0
 10
38.74263014468347
 20
-1.183653966437684
 30
0.0
 10
37.53741863395917
 20
0.0235503803994836
 30
0.0
 10
36.3319919625303
 20
1.229973364807905
 30
0.0
 10
35.12419314724708
 20
2.39063106426561
 30
0.0
 10
33.91785111077703
 20
3.466460514693202
 30
0.0
 10
32.71284464134379
 20
4.417794543385937
 30
0.0
 10
31.50676788073301
 20
5.209970378605073
 30
0.0
 10
30.29883864284063
 20
5.814319973370381
 30
0.0
 10
29.09325377082241
 20
6.209369121438892
 30
0.0
 10
27.88812571632277
 20
6.384454034354754
 30
0.0
 10
26.68109314911507
 20
6.316175542523427
 30
0.0
 10
25.72673148522744
 20
6.123086805434408
 30
0.0
 10
25.17573377595038
 20
5.883300151658328
 30
0.0
 10
25.02690072984871
 20
5.818530049178492
 30
0.0
  0
SPLINE
  5
C2
330
1F
100
AcDbEntity
  8
외형선
  6
Continuous
 62
     1
370
    15
100
AcDbSpline
210
0.0
220
0.0
230
1.0
 70
     8
 71
     3
 72
    24
 73
    20
 74
     0
 42
0.000000001
 43
0.00000001
 40
0.0
 40
0.0
 40
0.0
 40
0.0
 40
0.0648325769724586
 40
0.1296073820728046
 40
0.1943197494295401
 40
0.255582879244569
 40
0.3169606079302925
 40
0.3782614415036613
 40
0.439500658370213
 40
0.5007983015352776
 40
0.5621775280254073
 40
0.623442717798564
 40
0.6846889714708538
 40
0.7460360905466948
 40
0.8073769045833556
 40
0.8686215910508489
 40
0.9298900741727614
 40
0.991271147824729
 40
1.0
 40
1.0
 40
1.0
 40
1.0
 10
11.99999999999998
 20
5.730941393079263
 30
0.0
 10
12.4255616607976
 20
5.525451749980207
 30
0.0
 10
13.27630576726685
 20
5.114655574217248
 30
0.0
 10
14.55113088493409
 20
4.231431090757626
 30
0.0
 10
15.80191310427556
 20
3.213351402332924
 30
0.0
 10
17.02999558613549
 20
2.088674520383695
 30
0.0
 10
18.23788290529636
 20
0.912414949576425
 30
0.0
 10
19.44411329570618
 20
-0.2981730437103093
 30
0.0
 10
20.6491184915537
 20
-1.498104040477195
 30
0.0
 10
21.85529090441177
 20
-2.643936598049785
 30
0.0
 10
23.06317972521365
 20
-3.693445463204876
 30
0.0
 10
24.26870403653236
 20
-4.611497099664592
 30
0.0
 10
25.47385315177426
 20
-5.363275374816013
 30
0.0
 10
26.68106207710912
 20
-5.921882146714959
 30
0.0
 10
27.88812897570276
 20
-6.266194571770925
 30
0.0
 10
29.09327171637082
 20
-6.390523113169779
 30
0.0
 10
30.29876350109139
 20
-6.264779416735196
 30
0.0
 10
31.16176614273156
 20
-6.067287454408119
 30
0.0
 10
31.62157503724452
 20
-5.854562707420485
 30
0.0
 10
31.67882233599319
 20
-5.828077971506593
 30
0.0
  0
SPLINE
  5
C3
330
1F
100
AcDbEntity
  8
외형선
  6
Continuous
 62
     1
370
    15
100
AcDbSpline
210
0.0
220
0.0
230
1.0
 70
     8
 71
     3
 72
    27
 73
    23
 74
     0
 42
0.000000001
 43
0.00000001
 40
0.0
 40
0.0
 40
0.0
 40
0.0
 40
0.0235974909348619
 40
0.0771525083417354
 40
0.1307050645363407
 40
0.1843553360464356
 40
0.237967466284895
 40
0.2915095663776224
 40
0.3450865564034
 40
0.3987533248242746
 40
0.452328570074603
 40
0.5058710484836755
 40
0.559485671914087
 40
0.613133953985744
 40
0.6666855186197412
 40
0.7202416699328965
 40
0.7738977291768346
 40
0.8275018958148194
 40
0.8810430493837637
 40
0.9346261305197228
 40
0.9882920887109176
 40
1.0
 40
1.0
 40
1.0
 40
1.0
 10
49.0698061426092
 20
6.322837825322114
 30
0.0
 10
49.24696840382519
 20
6.329325020425374
 30
0.0
 10
49.82620425877428
 20
6.350535045495426
 30
0.0
 10
50.80611281923663
 20
6.143675869422022
 30
0.0
 10
52.01142005084041
 20
5.717436737763992
 30
0.0
 10
53.21899130073852
 20
5.072986767470871
 30
0.0
 10
54.42565034244317
 20
4.249319579616959
 30
0.0
 10
55.63068794905161
 20
3.271421340480486
 30
0.0
 10
56.83651910472734
 20
2.175999904919797
 30
0.0
 10
58.04449960318293
 20
1.00384187020008
 30
0.0
 10
59.25029075442237
 20
-0.2059684773887995
 30
0.0
 10
60.4553378419868
 20
-1.408302307872987
 30
0.0
 10
61.66205482633765
 20
-2.559353653435832
 30
0.0
 10
62.86958428123019
 20
-3.617753563360194
 30
0.0
 10
64.07484485238251
 20
-4.547153941023074
 30
0.0
 10
65.28020864885607
 20
-5.312630890446476
 30
0.0
 10
66.48792867470887
 20
-5.886500813537817
 30
0.0
 10
67.69438973783444
 20
-6.247859755795843
 30
0.0
 10
68.89942888388674
 20
-6.389068439955683
 30
0.0
 10
70.10531198719728
 20
-6.282668912169863
 30
0.0
 10
70.99907920230076
 20
-6.085480470892718
 30
0.0
 10
71.48937453277533
 20
-5.86283214081713
 30
0.0
 10
71.57718231102504
 20
-5.822957693764953
 30
0.0
  0
SPLINE
  5
C4
330
1F
100
AcDbEntity
  8
외형선
  6
Continuous
 62
     1
370
    15
100
AcDbSpline
210
0.0
220
0.0
230
1.0
 70
     8
 71
     3
 72
    27
 73
    23
 74
     0
 42
0.000000001
 43
0.00000001
 40
0.0
 40
0.0
 40
0.0
 40
0.0
 40
0.0181411856961067
 40
0.0716863959341889
 40
0.1252573316265817
 40
0.1789244619753552
 40
0.232508713458717
 40
0.2860510364592914
 40
0.3396563739052215
 40
0.3933136050905288
 40
0.4468709261628915
 40
0.5004236604559154
 40
0.554073114299075
 40
0.6076889087658275
 40
0.6612325566354668
 40
0.7148089720620484
 40
0.7684769126581986
 40
0.8220550728983373
 40
0.8755983424433693
 40
0.9292116436637132
 40
0.9828630869887639
 40
1.0
 40
1.0
 40
1.0
 40
1.0
 10
74.13212534568085
 20
-6.323289453941903
 30
0.0
 10
73.9959754378288
 20
-6.330323918053995
 30
0.0
 10
73.45796781450241
 20
-6.358121184890445
 30
0.0
 10
72.51904861352189
 20
-6.172059589552692
 30
0.0
 10
71.31333171595496
 20
-5.769693749332902
 30
0.0
 10
70.10538452176289
 20
-5.144818065679725
 30
0.0
 10
68.89940947872282
 20
-4.338266471336819
 30
0.0
 10
67.69439494238462
 20
-3.37430825646548
 30
0.0
 10
66.48792727784729
 20
-2.289473465634843
 30
0.0
 10
65.28020902260675
 20
-1.123156253909825
 30
0.0
 10
64.07484475200955
 20
0.0850861337852311
 30
0.0
 10
62.86958430937802
 20
1.29029688362028
 30
0.0
 10
61.66205481431032
 20
2.447792581361174
 30
0.0
 10
60.45533786191584
 20
3.517943380895923
 30
0.0
 10
59.25029068679644
 20
4.462037268886696
 30
0.0
 10
58.04449985414316
 20
5.245425943830807
 30
0.0
 10
56.83651816750957
 20
5.839619867741084
 30
0.0
 10
55.63069143899137
 20
6.223501980413727
 30
0.0
 10
54.42563731942086
 20
6.387281972297624
 30
0.0
 10
53.21903998996005
 20
6.306370464903535
 30
0.0
 10
52.28474104792103
 20
6.111417214523743
 30
0.0
 10
51.75394645852806
 20
5.876943619153889
 30
0.0
 10
51.6254481972879
 20
5.820180701984342
 30
0.0
  0
SPLINE
  5
C5
330
1F
100
AcDbEntity
  8
외형선
  6
Continuous
 62
     1
370
    15
100
AcDbSpline
210
0.0
220
0.0
230
1.0
 70
     8
 71
     3
 72
    26
 73
    22
 74
     0
 42
0.000000001
 43
0.00000001
 40
0.0
 40
0.0
 40
0.0
 40
0.0
 40
0.0142233514696222
 40
0.0684235329046063
 40
0.1226711316425116
 40
0.1769967195543737
 40
0.2312226587247802
 40
0.2854275365620317
 40
0.3397174925251423
 40
0.3940130287907782
 40
0.4482192936894947
 40
0.50244231806717
 40
0.5567662711403616
 40
0.6110180185345999
 40
0.6652180554775967
 40
0.7194726265566695
 40
0.7737952539915155
 40
0.8280164551942323
 40
0.8852904191812015
 40
0.9426196439664553
 40
1.0
 40
1.0
 40
1.0
 40
1.0
 10
34.23379448038494
 20
-6.326790580550697
 30
0.0
 10
34.12837177162514
 20
-6.33337572856319
 30
0.0
 10
33.62122026115829
 20
-6.365054555643914
 30
0.0
 10
32.71289409233529
 20
-6.193258201206213
 30
0.0
 10
31.50675444789892
 20
-5.809202796256602
 30
0.0
 10
30.2988428181179
 20
-5.198956314871393
 30
0.0
 10
29.09325049022323
 20
-4.405572407492294
 30
0.0
 10
27.88813467223776
 20
-3.452219514055226
 30
0.0
 10
26.68106054945863
 20
-2.375744081081067
 30
0.0
 10
25.47385356036965
 20
-1.213840797923273
 30
0.0
 10
24.26870392709444
 20
-0.0072182287154076
 30
0.0
 10
23.06317975460346
 20
1.199748887219136
 30
0.0
 10
21.85529089654205
 20
2.361980343541549
 30
0.0
 10
20.64911849365895
 20
3.440598513170066
 30
0.0
 10
19.44411329514165
 20
4.395499211574685
 30
0.0
 10
18.23788290544786
 20
5.192142829135416
 30
0.0
 10
17.02999558609503
 20
5.801127693261616
 30
0.0
 10
15.80191310428695
 20
6.210960441627313
 30
0.0
 10
14.55113088493049
 20
6.385424323007383
 30
0.0
 10
13.2763057672667
 20
6.323887518586578
 30
0.0
 10
12.42556166079663
 20
6.070969102381388
 30
0.0
 10
11.99999999999859
 20
5.944453525690204
 30
0.0
  0
SPLINE
  5
C6
330
1F
100
AcDbEntity
  8
외형선
  6
Continuous
370
    15
100
AcDbSpline
210
0.0
220
0.0
230
1.0
 70
    24
 71
     3
 72
     9
 73
     5
 74
     0
 42
0.000000001
 43
0.00000001
 40
0.0
 40
0.0
 40
0.0
 40
0.0
 40
0.2195687515275203
 40
1.0
 40
1.0
 40
1.0
 40
1.0
 10
11.99999999999999
 20
5.944453525676918
 30
0.0
 10
11.99999999999997
 20
5.934897863531534
 30
0.0
 10
11.99999999999992
 20
5.891377726540702
 30
0.0
 10
11.99999999999994
 20
5.850709727863673
 30
0.0
 10
11.99999999999995
 20
5.818971150883282
 30
0.0
  0
LINE
  5
C7
330
1F
100
AcDbEntity
  8
외형선
  6
Continuous
 62
     1
370
    15
100
AcDbLine
 10
88.19999999999999
 20
-6.302586269518648
 30
0.0
 11
88.19999999999999
 21
-3.798843848155794
 31
0.0
  0
SPLINE
  5
C8
330
1F
100
AcDbEntity
  8
외형선
  6
Continuous
 62
     1
370
    15
100
AcDbSpline
210
0.0
220
0.0
230
1.0
 70
     8
 71
     3
 72
    26
 73
    22
 74
     0
 42
0.000000001
 43
0.00000001
 40
0.0
 40
0.0
 40
0.0
 40
0.0
 40
0.052378975531391
 40
0.1060471270658876
 40
0.1596382332343451
 40
0.2131824959337056
 40
0.2667848709021474
 40
0.3204477320735767
 40
0.3740101648425156
 40
0.4275630881292998
 40
0.4812098251120243
 40
0.5348338799682321
 40
0.5883808894355474
 40
0.6419557495979351
 40
0.6956255809584166
 40
0.7492102678812539
 40
0.8027551466308334
 40
0.856365159565035
 40
0.9100231012455965
 40
0.9635816091068258
 40
1.0
 40
1.0
 40
1.0
 40
1.0
 10
29.11992117316795
 20
6.348593167839937
 30
0.0
 10
29.51264849410748
 20
6.328443955199884
 30
0.0
 10
30.30776912568534
 20
6.287649608013069
 30
0.0
 10
31.50677131080041
 20
5.941042176327378
 30
0.0
 10
32.71284372376971
 20
5.395152328747756
 30
0.0
 10
33.91785135675476
 20
4.650355381203969
 30
0.0
 10
35.12419308153251
 20
3.739631627544277
 30
0.0
 10
36.33199197894456
 20
2.695121621609518
 30
0.0
 10
37.53741863390498
 20
1.552370389831823
 30
0.0
 10
38.74263012849343
 20
0.3537358378855845
 30
0.0
 10
39.95003744909744
 20
-0.856321387672659
 30
0.0
 10
41.15689688699123
 20
-2.036006158098083
 30
0.0
 10
42.3619688162639
 20
-3.143060383902379
 30
0.0
 10
43.5676719160616
 20
-4.13692975763681
 30
0.0
 10
44.77564191302844
 20
-4.980711655469522
 30
0.0
 10
45.98156905266487
 20
-5.646527179549514
 30
0.0
 10
47.18659259865584
 20
-6.108422703689686
 30
0.0
 10
48.39310690488435
 20
-6.352450509435714
 30
0.0
 10
49.60081987502868
 20
-6.359985908564555
 30
0.0
 10
50.67756185805715
 20
-6.188881642018477
 30
0.0
 10
51.35233283578467
 20
-5.924884425420776
 30
0.0
 10
51.62544819728793
 20
-5.818030844536554
 30
0.0
  0
SPLINE
  5
C9
330
1F
100
AcDbEntity
  8
외형선
  6
Continuous
 62
     1
370
    15
100
AcDbSpline
210
0.0
220
0.0
230
1.0
 70
     8
 71
     3
 72
    23
 73
    19
 74
     0
 42
0.000000001
 43
0.00000001
 40
0.0
 40
0.0
 40
0.0
 40
0.0
 40
0.0566913903217468
 40
0.1196601531751259
 40
0.182516048832771
 40
0.2453417602785687
 40
0.3082603456670799
 40
0.3711996791716703
 40
0.4340307215238924
 40
0.4968754147309046
 40
0.559837894415541
 40
0.6227253583390691
 40
0.6855471268014905
 40
0.7484263435897373
 40
0.8113926950626063
 40
0.8742427132160291
 40
0.937070812761873
 40
1.0
 40
1.0
 40
1.0
 40
1.0
 10
69.0177129515831
 20
6.340944380631706
 30
0.0
 10
69.38006966574369
 20
6.327067967464073
 30
0.0
 10
70.144906436802
 20
6.297778621837931
 30
0.0
 10
71.31335289994291
 20
5.973791449129028
 30
0.0
 10
72.51900647024068
 20
5.444200283161331
 30
0.0
 10
73.72409441231213
 20
4.713058029979081
 30
0.0
 10
74.93101624457181
 20
3.814376281827999
 30
0.0
 10
76.13836657704825
 20
2.778504221967523
 30
0.0
 10
77.34355831251104
 20
1.641749695641849
 30
0.0
 10
78.54901341495425
 20
0.4458422996599836
 30
0.0
 10
79.75684247171986
 20
-0.7644344828750729
 30
0.0
 10
80.96313224814223
 20
-1.948384059419684
 30
0.0
 10
82.1681364385624
 20
-3.062462310976618
 30
0.0
 10
83.37426085822645
 20
-4.065824261661701
 30
0.0
 10
84.58217080543608
 20
-4.923078067132161
 30
0.0
 10
85.78772632612812
 20
-5.599989526061581
 30
0.0
 10
86.9928591608266
 20
-6.091383636912486
 30
0.0
 10
87.797404147357
 20
-6.232147675118385
 30
0.0
 10
88.20000000000002
 20
-6.302586269518649
 30
0.0
  0
SPLINE
  5
CA
330
1F
100
AcDbEntity
  8
외형선
  6
Continuous
 62
     1
370
    15
100
AcDbSpline
210
0.0
220
0.0
230
1.0
 70
     8
 71
     3
 72
    21
 73
    17
 74
     0
 42
0.000000001
 43
0.00000001
 40
0.0
 40
0.0
 40
0.0
 40
0.0
 40
0.0726159845435306
 40
0.1451153207935969
 40
0.2176399496199541
 40
0.2902988191523739
 40
0.3628571412092982
 40
0.4353491718214548
 40
0.5079170105092863
 40
0.5805714122624955
 40
0.6530898964643438
 40
0.7255926285120023
 40
0.798220321154127
 40
0.8708240718872169
 40
0.9433206524329165
 40
0.9999999999999999
 40
0.9999999999999999
 40
0.9999999999999999
 40
0.9999999999999999
 10
88.20000000000002
 20
-3.813904690850906
 30
0.0
 10
87.7974041473616
 20
-3.47914625027047
 30
0.0
 10
86.9928591608405
 20
-2.810167115737451
 30
0.0
 10
85.78772632607239
 20
-1.667663724608096
 30
0.0
 10
84.58217080564538
 20
-0.4748449756993567
 30
0.0
 10
83.37426085744386
 20
0.7360549976929454
 30
0.0
 10
82.16813644147732
 20
1.921212909738952
 30
0.0
 10
80.96313223726958
 20
3.037547562582509
 30
0.0
 10
79.75684251236646
 20
4.044329846380547
 30
0.0
 10
78.54901326318272
 20
4.904799939237713
 30
0.0
 10
77.34355887767526
 20
5.590105447617421
 30
0.0
 10
76.1383644666754
 20
6.073601314932241
 30
0.0
 10
74.93102413469536
 20
6.340053170697749
 30
0.0
 10
73.72406499680316
 20
6.372103630195125
 30
0.0
 10
72.60688328328969
 20
6.211981724600752
 30
0.0
 10
71.89120503157288
 20
5.943090619801859
 30
0.0
 10
71.5771823110251
 20
5.825107551212739
 30
0.0
  0
SPLINE
  5
CB
330
1F
100
AcDbEntity
  8
외형선
  6
Continuous
 62
     1
370
    15
100
AcDbSpline
210
0.0
220
0.0
230
1.0
 70
     8
 71
     3
 72
    26
 73
    22
 74
     0
 42
0.000000001
 43
0.00000001
 40
0.0
 40
0.0
 40
0.0
 40
0.0
 40
0.0429037391476389
 40
0.096556609302967
 40
0.1501117594097919
 40
0.203669370848099
 40
0.2573264144414882
 40
0.3109355300907127
 40
0.3644795126454833
 40
0.418063302707232
 40
0.47173223578154
 40
0.5253061992473129
 40
0.578852312484157
 40
0.6324754698203647
 40
0.6861213089034529
 40
0.7396733358607838
 40
0.7932348721411079
 40
0.846896835143027
 40
0.9004983129543304
 40
0.9540416794691933
 40
1.0
 40
1.0
 40
1.0
 40
1.0
 10
54.1848944919472
 20
-6.33063157459538
 30
0.0
 10
53.86302081856856
 20
-6.323821814176974
 30
0.0
 10
53.1386310301078
 20
-6.30849617148872
 30
0.0
 10
52.01139609295661
 20
-6.013216055912789
 30
0.0
 10
50.80613692923739
 20
-5.505716965108022
 30
0.0
 10
49.60079178374408
 20
-4.792983695988953
 30
0.0
 10
48.39311443061828
 20
-3.910679658230028
 30
0.0
 10
47.18659058569777
 20
-2.886529805809359
 30
0.0
 10
45.98156959213598
 20
-1.758215566789874
 30
0.0
 10
44.77564176832562
 20
-0.5665402771824799
 30
0.0
 10
43.56767195419477
 20
0.6439768702534525
 30
0.0
 10
42.36196880825646
 20
1.83304397235815
 30
0.0
 10
41.1568968809427
 20
2.956089774450029
 30
0.0
 10
39.9500374813716
 20
3.972183361342717
 30
0.0
 10
38.74263000549669
 20
4.845148647081568
 30
0.0
 10
37.53741909275833
 20
5.544802864913438
 30
0.0
 10
36.33199026450166
 20
6.044368039872708
 30
0.0
 10
35.12419949026068
 20
6.327608865363548
 30
0.0
 10
33.91782748148887
 20
6.377963818569932
 30
0.0
 10
32.77014256910151
 20
6.227238841973501
 30
0.0
 10
32.02362669775965
 20
5.955664089371184
 30
0.0
 10
31.67882233599324
 20
5.830227828954381
 30
0.0
  0
SPLINE
  5
CC
330
1F
100
AcDbEntity
  8
외형선
  6
Continuous
 62
     1
370
    15
100
AcDbSpline
210
0.0
220
0.0
230
1.0
 70
     8
 71
     3
 72
     9
 73
     5
 74
     0
 42
0.000000001
 43
0.00000001
 40
0.0
 40
0.0
 40
0.0
 40
0.0
 40
0.4418743551212941
 40
0.9999999999999999
 40
0.9999999999999999
 40
0.9999999999999999
 40
0.9999999999999999
 10
14.28679446006427
 20
-6.327918719624733
 30
0.0
 10
13.95008593702054
 20
-6.322911443010688
 30
0.0
 10
13.18808533856693
 20
-6.311579541631914
 30
0.0
 10
12.42557601046918
 20
-6.074579480306139
 30
0.0
 10
11.99999999999859
 20
-5.942303668242398
 30
0.0
  0
LINE
  5
CD
330
1F
100
AcDbEntity
  8
외형선
  6
Continuous
 62
     1
370
    15
100
AcDbLine
 10
88.19999999999999
 20
-2.487606649943755
 30
0.0
 11
88.19999999999999
 21
2.489756507391665
 31
0.0
  0
SPLINE
  5
CE
330
1F
100
AcDbEntity
  8
외형선
  6
Continuous
 62
     1
370
    15
100
AcDbSpline
210
0.0
220
0.0
230
1.0
 70
     8
 71
     3
 72
    13
 73
     9
 74
     0
 42
0.000000001
 43
0.00000001
 40
0.0
 40
0.0
 40
0.0
 40
0.0
 40
0.2000179412195509
 40
0.3998576478005917
 40
0.5995047248500829
 40
0.7885104017873674
 40
0.9778696329292332
 40
1.0
 40
1.0
 40
1.0
 40
1.0
 10
11.99999999999998
 20
-5.234163711094687
 30
0.0
 10
12.42556215257357
 20
-5.454407126604084
 30
0.0
 10
13.27630724215657
 20
-5.894697700200629
 30
0.0
 10
14.55112499387473
 20
-6.260574562149475
 30
0.0
 10
15.80193467603035
 20
-6.393751820444316
 30
0.0
 10
17.02991975390976
 20
-6.258333953219405
 30
0.0
 10
17.88262183382614
 20
-6.061167268351028
 30
0.0
 10
18.33224153733291
 20
-5.851949434358447
 30
0.0
 10
18.37928994616696
 20
-5.830056785721651
 30
0.0
  0
SPLINE
  5
CF
330
1F
100
AcDbEntity
  8
외형선
  6
Continuous
 62
     1
370
    15
100
AcDbSpline
210
0.0
220
0.0
230
1.0
 70
     8
 71
     3
 72
    27
 73
    23
 74
     0
 42
0.000000001
 43
0.00000001
 40
0.0
 40
0.0
 40
0.0
 40
0.0
 40
0.0249611015151425
 40
0.0785198472750454
 40
0.1320690842073858
 40
0.1857121283779323
 40
0.2393324919833029
 40
0.2928758155032565
 40
0.3464469878011595
 40
0.400113124759745
 40
0.4536941231416653
 40
0.5072353160905525
 40
0.5608416387405029
 40
0.6144958868376029
 40
0.66805070795997
 40
0.7216030678790895
 40
0.7752531427555622
 40
0.828865076500191
 40
0.8824069803557553
 40
0.9359837740164948
 40
0.9896503457432844
 40
1.0
 40
1.0
 40
1.0
 40
1.0
 10
35.77026553728768
 20
6.322558279719014
 30
0.0
 10
35.95767550231972
 20
6.328696796925716
 30
0.0
 10
36.547208853771
 20
6.348006659243813
 30
0.0
 10
37.53740488280953
 20
6.135645733884473
 30
0.0
 10
38.74263382023851
 20
5.703528976962946
 30
0.0
 10
39.95003645892529
 20
5.054174496421797
 30
0.0
 10
41.15689715429139
 20
4.226308778261918
 30
0.0
 10
42.36196873547399
 20
3.244961647845902
 30
0.0
 10
43.56767197204044
 20
2.146995048311969
 30
0.0
 10
44.77564176990355
 20
0.9733831696944132
 30
0.0
 10
45.98156956805292
 20
-0.2367086381865739
 30
0.0
 10
47.18659068043298
 20
-1.438265866307937
 30
0.0
 10
48.39311407512727
 20
-2.587618633036961
 30
0.0
 10
49.60079311103532
 20
-3.643057419954352
 30
0.0
 10
50.80613198609957
 20
-4.568708619975681
 30
0.0
 10
52.01141455540346
 20
-5.329643654496818
 30
0.0
 10
53.21899407913944
 20
-5.898428070137084
 30
0.0
 10
54.42564473305384
 20
-6.254118998000929
 30
0.0
 10
55.63070758994404
 20
-6.389695459670519
 30
0.0
 10
56.83644603656427
 20
-6.276871835612005
 30
0.0
 10
57.71999385446556
 20
-6.07944735012705
 30
0.0
 10
58.20013933153837
 20
-5.860006129637556
 30
0.0
 10
58.27776558338752
 20
-5.824528549901395
 30
0.0
  0
SPLINE
  5
D0
330
1F
100
AcDbEntity
  8
외형선
  6
Continuous
 62
     1
370
    15
100
AcDbSpline
210
0.0
220
0.0
230
1.0
 70
     8
 71
     3
 72
    18
 73
    14
 74
     0
 42
0.000000001
 43
0.00000001
 40
0.0
 40
0.0
 40
0.0
 40
0.0
 40
0.0374825990208542
 40
0.1336593495447811
 40
0.229856995708927
 40
0.3262349400226732
 40
0.4224980561898317
 40
0.5186606109825986
 40
0.6149111030925586
 40
0.7112949740310588
 40
0.807500771198647
 40
0.903673017109181
 40
1.0
 40
1.0
 40
1.0
 40
1.0
 10
75.66886540418336
 20
6.323842245271905
 30
0.0
 10
75.82552273188618
 20
6.330770675871618
 30
0.0
 10
76.38414772239264
 20
6.355476794217588
 30
0.0
 10
77.34352867960277
 20
6.15926227879252
 30
0.0
 10
78.54902137270143
 20
5.744886244723666
 30
0.0
 10
79.75684034052153
 20
5.110230616969321
 30
0.0
 10
80.96313281822444
 20
4.295064444452589
 30
0.0
 10
82.16813628572798
 20
3.324081183023397
 30
0.0
 10
83.37426089925889
 20
2.23397037642399
 30
0.0
 10
84.58217079446138
 20
1.064361042242395
 30
0.0
 10
85.78772632905105
 20
-0.1433879912367382
 30
0.0
 10
86.9928591600946
 20
-1.352309661504298
 30
0.0
 10
87.79740414711286
 20
-2.108971577521864
 30
0.0
 10
88.20000000000002
 20
-2.487606649943756
 30
0.0
  0
SPLINE
  5
D1
330
1F
100
AcDbEntity
  8
외형선
  6
Continuous
 62
     1
370
    15
100
AcDbSpline
210
0.0
220
0.0
230
1.0
 70
     8
 71
     3
 72
    16
 73
    12
 74
     0
 42
0.000000001
 43
0.00000001
 40
0.0
 40
0.0
 40
0.0
 40
0.0
 40
0.1210065688809375
 40
0.2418187561825759
 40
0.3626730907868276
 40
0.4837511227952654
 40
0.604661603470538
 40
0.7254616167283691
 40
0.8463879558246304
 40
0.9674585427693375
 40
1.0
 40
1.0
 40
1.0
 40
1.0
 10
88.20000000000002
 20
2.489756507391665
 30
0.0
 10
87.7974041542421
 20
2.851062992182457
 30
0.0
 10
86.99285918147089
 20
3.573095569097971
 30
0.0
 10
85.78772624369356
 20
4.504801994048437
 30
0.0
 10
84.58217111494405
 20
5.28065232673032
 30
0.0
 10
83.3742597010348
 20
5.864321094060994
 30
0.0
 10
82.16814074878138
 20
6.237070144572802
 30
0.0
 10
80.96311617074635
 20
6.389530702604892
 30
0.0
 10
79.75690257554298
 20
6.295921698810287
 30
0.0
 10
78.84280099739442
 20
6.099595368042097
 30
0.0
 10
78.33223795121448
 20
5.870834186524239
 30
0.0
 10
78.22407933891286
 20
5.822372998182128
 30
0.0
  0
SPLINE
  5
D2
330
1F
100
AcDbEntity
  8
외형선
  6
Continuous
 62
     1
370
    15
100
AcDbSpline
210
0.0
220
0.0
230
1.0
 70
     8
 71
     3
 72
    27
 73
    23
 74
     0
 42
0.000000001
 43
0.00000001
 40
0.0
 40
0.0
 40
0.0
 40
0.0
 40
0.0167774002520179
 40
0.0703213767827345
 40
0.1238981210715269
 40
0.1775663910916867
 40
0.2311448802047462
 40
0.2846884784085333
 40
0.3383021087175
 40
0.3919538813652969
 40
0.4455079359635237
 40
0.4990644518428843
 40
0.5527203978433719
 40
0.6063284168800945
 40
0.6598713041547073
 40
0.7134539981220073
 40
0.7671218333602057
 40
0.8206947009325398
 40
0.8742397188456413
 40
0.9278617792821148
 40
0.9815065210014974
 40
1.0
 40
1.0
 40
1.0
 40
1.0
 10
60.83265661677203
 20
-6.324309246347002
 30
0.0
 10
60.70675424220202
 20
-6.331273897544645
 30
0.0
 10
60.17904266669054
 20
-6.36046577791186
 30
0.0
 10
59.25033403603607
 20
-6.179290119029731
 30
0.0
 10
58.04448798674364
 20
-5.782987437950047
 30
0.0
 10
56.83652218933433
 20
-5.162993451637246
 30
0.0
 10
55.63068721500952
 20
-4.360799942054424
 30
0.0
 10
54.4256501988453
 20
-3.400362622239205
 30
0.0
 10
53.21899261250757
 20
-2.318274711716922
 30
0.0
 10
52.01141494777795
 20
-1.15342543917252
 30
0.0
 10
50.80613188077409
 20
0.054318817009446
 30
0.0
 10
49.60079314032915
 20
1.260156525122039
 30
0.0
 10
48.39311406349473
 20
2.419234901309716
 30
0.0
 10
47.1865906976448
 20
3.492244650508674
 30
0.0
 10
45.98156951087581
 20
4.43996584856377
 30
0.0
 10
44.77564198174139
 20
5.227762669896539
 30
0.0
 10
43.56767118116644
 20
5.827034793948648
 30
0.0
 10
42.36197168030028
 20
6.216508595119604
 30
0.0
 10
41.15688616316157
 20
6.385939775762338
 30
0.0
 10
39.95007755230171
 20
6.311353342288252
 30
0.0
 10
39.00573055397832
 20
6.117271524587758
 30
0.0
 10
38.46483133488977
 20
5.880091566683576
 30
0.0
 10
38.32616547580736
 20
5.819287702563884
 30
0.0
  0
SPLINE
  5
D3
330
1F
100
AcDbEntity
  8
외형선
  6
Continuous
 62
     1
370
    15
100
AcDbSpline
210
0.0
220
0.0
230
1.0
 70
     8
 71
     3
 72
    15
 73
    11
 74
     0
 42
0.000000001
 43
0.00000001
 40
0.0
 40
0.0
 40
0.0
 40
0.0
 40
0.0319637576146314
 40
0.1668481548347472
 40
0.3018682679046563
 40
0.4370577487654972
 40
0.571994816215671
 40
0.7145291122146552
 40
0.8572009324643022
 40
1.0
 40
1.0
 40
1.0
 40
1.0
 10
20.9343994962514
 20
-6.328251863893364
 30
0.0
 10
20.83920878702029
 20
-6.33452991145846
 30
0.0
 10
20.34232120627628
 20
-6.36730079731079
 30
0.0
 10
19.44416476621826
 20
-6.199990868508667
 30
0.0
 10
18.23786908966062
 20
-5.822130468416156
 30
0.0
 10
17.02999927543231
 20
-5.216718250113114
 30
0.0
 10
15.80191205479276
 20
-4.41303714346674
 30
0.0
 10
14.55113117153824
 20
-3.422478918370816
 30
0.0
 10
13.27630569551141
 20
-2.279903556843832
 30
0.0
 10
12.42556163687108
 20
-1.449667615529803
 30
0.0
 10
11.99999999999859
 20
-1.034364608018183
 30
0.0
  0
SPLINE
  5
D4
330
1F
100
AcDbEntity
  8
외형선
  6
Continuous
370
    15
100
AcDbSpline
210
0.0
220
0.0
230
1.0
 70
    24
 71
     3
 72
    15
 73
    11
 74
     0
 42
0.000000001
 43
0.00000001
 40
0.0
 40
0.0
 40
0.0
 40
0.0
 40
0.1404022761732858
 40
0.2816674616616659
 40
0.4229326471500466
 40
0.5641978326384268
 40
0.7054630181268089
 40
0.8467282036151876
 40
0.9879933891035696
 40
1.0
 40
1.0
 40
1.0
 40
1.0
 10
11.99999999999998
 20
-0.86803406723822
 30
0.0
 10
11.99999999999999
 20
-0.8913438208239273
 30
0.0
 10
12.0
 20
-0.938106589230486
 30
0.0
 10
11.99999999999998
 20
-1.362806176181649
 30
0.0
 10
11.99999999999998
 20
-1.997988579730803
 30
0.0
 10
12.00000000000005
 20
-2.797515885738556
 30
0.0
 10
12.0
 20
-3.66458467215678
 30
0.0
 10
11.99999999999993
 20
-4.501750046040885
 30
0.0
 10
12.00000000000021
 20
-5.000965967729626
 30
0.0
 10
11.99999999999997
 20
-5.217223116055282
 30
0.0
 10
11.99999999999997
 20
-5.234163711094691
 30
0.0
  0
LINE
  5
D5
330
1F
100
AcDbEntity
  8
외형선
  6
Continuous
 62
     1
370
    15
100
AcDbLine
 10
88.19999999999999
 20
2.489756507391665
 30
0.0
 11
88.19999999999999
 21
3.816054548298728
 31
0.0
  0
LINE
  5
D6
330
1F
100
AcDbEntity
  8
외형선
  6
Continuous
370
    15
100
AcDbLine
 10
11.99999999999999
 20
-1.034364608014574
 30
0.0
 11
11.99999999999998
 21
0.4957027532606237
 31
0.0
  0
LINE
  5
D7
330
1F
100
AcDbEntity
  8
외형선
  6
Continuous
 62
     1
370
    15
100
AcDbLine
 10
88.19999999999999
 20
-3.813904690850906
 30
0.0
 11
88.19999999999999
 21
-2.487606649943755
 31
0.0
  0
LINE
  5
D8
330
1F
100
AcDbEntity
  8
외형선
  6
Continuous
370
    15
100
AcDbLine
 10
11.99999999999999
 20
-5.942303668229113
 30
0.0
 11
11.99999999999997
 21
-5.234163711094691
 31
0.0
  0
LINE
  5
D9
330
1F
100
AcDbEntity
  8
외형선
  6
Continuous
 62
     1
370
    15
100
AcDbLine
 10
88.19999999999999
 20
-6.34892507127611
 30
0.0
 11
88.19999999999999
 21
-6.302586269518648
 31
0.0
  0
LINE
  5
DA
330
1F
100
AcDbEntity
  8
외형선
  6
Continuous
 62
     1
370
    15
100
AcDbLine
 10
88.19999999999999
 20
6.304736126966445
 30
0.0
 11
88.19999999999999
 21
6.3510749287239
 31
0.0
  0
LINE
  5
DB
330
1F
100
AcDbEntity
  8
외형선
  6
Continuous
370
    15
100
AcDbLine
 10
11.99999999999999
 20
4.909013988938382
 30
0.0
 11
11.99999999999998
 21
5.730941393079259
 31
0.0
  0
SPLINE
  5
DC
330
1F
100
AcDbEntity
  8
외형선
  6
Continuous
370
    15
100
AcDbSpline
210
0.0
220
0.0
230
1.0
 70
     8
 71
     3
 72
    10
 73
     6
 74
     0
 42
0.000000001
 43
0.00000001
 40
0.0
 40
0.0
 40
0.0
 40
0.0
 40
0.5
 40
0.5
 40
1.0
 40
1.0
 40
1.0
 40
1.0
 10
11.99999999999996
 20
-5.234163711094691
 30
0.0
 10
11.83331734672406
 20
-5.139735331173778
 30
0.0
 10
11.66824633529224
 20
-5.040208514496095
 30
0.0
 10
11.33520582919271
 20
-4.830365620916562
 30
0.0
 10
11.16774613599605
 20
-4.720130149655814
 30
0.0
 10
11.00012470888796
 20
-4.605061623998078
 30
0.0
  0
SPLINE
  5
DD
330
1F
100
AcDbEntity
  8
외형선
  6
Continuous
370
    15
100
AcDbSpline
210
0.0
220
0.0
230
1.0
 70
     8
 71
     3
 72
    10
 73
     6
 74
     0
 42
0.000000001
 43
0.00000001
 40
0.0
 40
0.0
 40
0.0
 40
0.0
 40
0.5
 40
0.5
 40
1.0
 40
1.0
 40
1.0
 40
1.0
 10
11.99999999999997
 20
-5.942303668242883
 30
0.0
 10
11.83331734672408
 20
-5.883556107513451
 30
0.0
 10
11.66824633529222
 20
-5.818864437065496
 30
0.0
 10
11.33520582919273
 20
-5.677212953060788
 30
0.0
 10
11.16774613599607
 20
-5.600294746692143
 30
0.0
 10
11.00012470888798
 20
-5.517603947194214
 30
0.0
  0
LINE
  5
DE
330
1F
100
AcDbEntity
  8
외형선
  6
Continuous
370
    15
100
AcDbLine
 10
11.00012470888798
 20
-6.348925071276105
 30
0.0
 11
11.00012470888798
 21
-5.517589504243652
 31
0.0
  0
LINE
  5
DF
330
1F
100
AcDbEntity
  8
외형선
  6
Continuous
370
    15
100
AcDbLine
 10
11.00012470888796
 20
-6.08742655181054
 30
0.0
 11
11.72746580024481
 21
-5.826544033375305
 31
0.0
  0
LINE
  5
E0
330
1F
100
AcDbEntity
  8
외형선
  6
Continuous
370
    15
100
AcDbLine
 10
11.99999999999997
 20
5.944453525690688
 30
0.0
 11
11.72746580024476
 21
5.828693890823092
 31
0.0
  0
LINE
  5
E1
330
1F
100
AcDbEntity
  8
외형선
  6
Continuous
370
    15
100
AcDbLine
 10
11.00012470888798
 20
6.089569220341979
 30
0.0
 11
11.00012470888798
 21
6.351074928723895
 31
0.0
  0
SPLINE
  5
E2
330
1F
100
AcDbEntity
  8
외형선
  6
Continuous
370
    15
100
AcDbSpline
210
0.0
220
0.0
230
1.0
 70
     8
 71
     3
 72
    10
 73
     6
 74
     0
 42
0.000000001
 43
0.00000001
 40
0.0
 40
0.0
 40
0.0
 40
0.0
 40
0.5
 40
0.5
 40
1.0
 40
1.0
 40
1.0
 40
1.0
 10
11.99999999999996
 20
5.730941393079248
 30
0.0
 10
11.83331734672406
 20
5.802858592830152
 30
0.0
 10
11.66824633529224
 20
5.868631231795203
 30
0.0
 10
11.33520582919271
 20
5.988297400551539
 30
0.0
 10
11.16774613599605
 20
6.042098647007285
 30
0.0
 10
11.00012470888796
 20
6.089576409258317
 30
0.0
  0
SPLINE
  5
E3
330
1F
100
AcDbEntity
  8
외형선
  6
Continuous
370
    15
100
AcDbSpline
210
0.0
220
0.0
230
1.0
 70
     8
 71
     3
 72
    10
 73
     6
 74
     0
 42
0.000000001
 43
0.00000001
 40
0.0
 40
0.0
 40
0.0
 40
0.0
 40
0.5
 40
0.5
 40
1.0
 40
1.0
 40
1.0
 40
1.0
 10
11.99999999999997
 20
4.909013988947173
 30
0.0
 10
11.83331734672408
 20
5.014885801104661
 30
0.0
 10
11.66824633529222
 20
5.115351898650642
 30
0.0
 10
11.33520582919273
 20
5.306091196084957
 30
0.0
 10
11.16774613599607
 20
5.396239756546739
 30
0.0
 10
11.00012470888798
 20
5.480710784055744
 30
0.0
  0
LINE
  5
E4
330
1F
100
AcDbEntity
  8
외형선
  6
Continuous
370
    15
100
AcDbLine
 10
11.00012470888798
 20
1.48341524450096
 30
0.0
 11
11.00012470888798
 21
5.480725537827191
 31
0.0
  0
SPLINE
  5
E5
330
1F
100
AcDbEntity
  8
외형선
  6
Continuous
370
    15
100
AcDbSpline
210
0.0
220
0.0
230
1.0
 70
     8
 71
     3
 72
    10
 73
     6
 74
     0
 42
0.000000001
 43
0.00000001
 40
0.0
 40
0.0
 40
0.0
 40
0.0
 40
0.5
 40
0.5
 40
1.0
 40
1.0
 40
1.0
 40
1.0
 10
11.99999999999996
 20
0.4957027532606131
 30
0.0
 10
11.83331734672406
 20
0.662048332932427
 30
0.0
 10
11.66824633529224
 20
0.8273477885751618
 30
0.0
 10
11.33520582919271
 20
1.156856850911028
 30
0.0
 10
11.16774613599605
 20
1.320893568627524
 30
0.0
 10
11.00012470888796
 20
1.48343985653629
 30
0.0
  0
SPLINE
  5
E6
330
1F
100
AcDbEntity
  8
외형선
  6
Continuous
370
    15
100
AcDbSpline
210
0.0
220
0.0
230
1.0
 70
     8
 71
     3
 72
    10
 73
     6
 74
     0
 42
0.000000001
 43
0.00000001
 40
0.0
 40
0.0
 40
0.0
 40
0.0
 40
0.5
 40
0.5
 40
1.0
 40
1.0
 40
1.0
 40
1.0
 10
11.99999999999997
 20
-1.034364608019552
 30
0.0
 10
11.83331734672408
 20
-0.8697452351326328
 30
0.0
 10
11.66824633529222
 20
-0.7045874671386961
 30
0.0
 10
11.33520582919273
 20
-0.3721966856996786
 30
0.0
 10
11.16774613599607
 20
-0.2051299188692522
 30
0.0
 10
11.00012470888798
 20
-0.0379680918623194
 30
0.0
  0
LINE
  5
E7
330
1F
100
AcDbEntity
  8
외형선
  6
Continuous
370
    15
100
AcDbLine
 10
-37.53000000000002
 20
0.0010749287238949
 30
0.0
 11
-37.53000000000002
 21
6.351074928723895
 31
0.0
  0
LINE
  5
E8
330
1F
100
AcDbEntity
  8
외형선
  6
Continuous
370
    15
100
AcDbLine
 10
-37.53000000000002
 20
-6.348925071276105
 30
0.0
 11
-37.53000000000002
 21
0.0010749287238949
 31
0.0
  0
LINE
  5
E9
330
1F
100
AcDbEntity
  8
외형선
  6
Continuous
370
    15
100
AcDbLine
 10
11.00012470888798
 20
-4.605079047117069
 30
0.0
 11
11.00012470888798
 21
-0.0379388951403112
 31
0.0
  0
SPLINE
  5
EA
330
1F
100
AcDbEntity
  8
외형선
  6
Continuous
370
    15
100
AcDbSpline
210
0.0
220
0.0
230
1.0
 70
    24
 71
     3
 72
    15
 73
    11
 74
     0
 42
0.000000001
 43
0.00000001
 40
0.0
 40
0.0
 40
0.0
 40
0.0
 40
0.1280166979591751
 40
0.2727824939654995
 40
0.4175482899718264
 40
0.5623140859781535
 40
0.7070798819844792
 40
0.851845677990801
 40
0.9966114739970396
 40
0.9999999999999999
 40
0.9999999999999999
 40
0.9999999999999999
 40
0.9999999999999999
 10
11.99999999999998
 20
-5.234163711094697
 30
0.0
 10
12.0
 20
-5.04309355766159
 30
0.0
 10
12.00000000000002
 20
-4.635954537465371
 30
0.0
 10
11.99999999999998
 20
-3.836272555600535
 30
0.0
 10
11.99999999999991
 20
-2.969609140099781
 30
0.0
 10
11.99999999999997
 20
-2.150870063193379
 30
0.0
 10
12.0
 20
-1.465743295491778
 30
0.0
 10
11.99999999999992
 20
-1.032827846347751
 30
0.0
 10
12.00000000000011
 20
-0.8367582274476519
 30
0.0
 10
11.99999999999996
 20
-0.8718010000237222
 30
0.0
 10
11.99999999999996
 20
-0.8726024842091278
 30
0.0
  0
LINE
  5
EB
330
1F
100
AcDbEntity
  8
외형선
  6
Continuous
370
    15
100
AcDbLine
 10
-38.80000000000003
 20
0.0010749287238949
 30
0.0
 11
-38.80000000000003
 21
5.0810749287239
 31
0.0
  0
LINE
  5
EC
330
1F
100
AcDbEntity
  8
외형선
  6
Continuous
370
    15
100
AcDbLine
 10
-38.80000000000003
 20
-5.078925071276109
 30
0.0
 11
-38.80000000000003
 21
0.0010749287238949
 31
0.0
  0
SPLINE
  5
ED
330
1F
100
AcDbEntity
  8
외형선
  6
Continuous
370
    15
100
AcDbSpline
210
0.0
220
0.0
230
1.0
 70
    24
 71
     3
 72
    15
 73
    11
 74
     0
 42
0.000000001
 43
0.00000001
 40
0.0
 40
0.0
 40
0.0
 40
0.0
 40
0.1304059760998944
 40
0.2698530023526087
 40
0.4093000286053232
 40
0.5487470548580364
 40
0.6881940811107459
 40
0.827641107363375
 40
0.9670881336161754
 40
1.0
 40
1.0
 40
1.0
 40
1.0
 10
12.0
 20
0.4079969878159873
 30
0.0
 10
12.0
 20
0.4398179167886708
 30
0.0
 10
11.99999999999999
 20
0.5056659206742434
 30
0.0
 10
11.99999999999993
 20
0.950490236362241
 30
0.0
 10
11.99999999999997
 20
1.605288107679414
 30
0.0
 10
11.99999999999996
 20
2.416502734381287
 30
0.0
 10
12.00000000000004
 20
3.285281073418858
 30
0.0
 10
11.99999999999989
 20
4.113161507046943
 30
0.0
 10
12.00000000000007
 20
4.637204761448042
 30
0.0
 10
11.99999999999996
 20
4.865433748780338
 30
0.0
 10
11.99999999999995
 20
4.909013988947186
 30
0.0
  0
LINE
  5
EE
330
1F
100
AcDbEntity
  8
외형선
  6
Continuous
370
    15
100
AcDbLine
 10
11.99999999999998
 20
5.818971150883298
 30
0.0
 11
11.99999999999995
 21
5.944453525690688
 31
0.0
  0
LINE
  5
EF
330
1F
100
AcDbEntity
  8
중심선
 48
0.8
100
AcDbLine
 10
-41.80000000000002
 20
0.0010749287238888
 30
0.0
 11
91.19999999999999
 21
0.0010749287239051
 31
0.0
  0
LINE
  5
F0
330
1F
100
AcDbEntity
  8
참조1
100
AcDbLine
 10
21.52500000000004
 20
0.0010749287238892
 30
0.0
 11
21.52500000000005
 21
-39.99892507127612
 31
0.0
  0
LINE
  5
F1
330
1F
100
AcDbEntity
  8
참조1
100
AcDbLine
 10
21.52500000000005
 20
-39.99892507127612
 30
0.0
 11
-9.508856814308633
 21
-39.9989250712761
 31
0.0
  0
CIRCLE
  5
F2
330
1F
100
AcDbEntity
  8
해칭선
100
AcDbCircle
 10
0.0
 20
0.0
 30
0.0
 40
3.000000000000001
  0
INSERT
  5
F3
330
1F
100
AcDbEntity
  8
0
  6
Continuous
 62
     7
100
AcDbBlockReference
 66
     1
  2
블럭10
 10
10.75972706787478
 20
-52.04609937292005
 30
0.0
  0
ATTRIB
  5
F4
330
F3
100
AcDbEntity
  8
FORMAT
 62
     2
100
AcDbText
 10
1.578431779133499
 20
-49.97073246008786
 30
0.0
 40
4.233333333333333
  1
E1175032 [ 6 FLUTE ]
 41
0.75
  7
SLDTEXTSTYLE0
 11
1.578431779133499
 21
-52.08739912675453
 31
0.0
100
AcDbAttribute
  2
AUTOATTR0
 70
     0
 74
     1
  0
SEQEND
  5
F5
330
F3
100
AcDbEntity
  8
0
  6
Continuous
 62
     7
  0
HATCH
  5
F6
330
1F
100
AcDbEntity
  8
중심선
100
AcDbHatch
 10
0.0
 20
0.0
 30
0.0
210
0.0
220
0.0
230
1.0
  2
SOLID
 70
     1
 71
     0
 91
        1
 92
        0
 93
        4
 72
     1
 10
16.47463637225562
 20
-35.7989250712761
 11
13.02836112841833
 21
-35.7989250712761
 72
     1
 10
13.02836112841833
 20
-35.7989250712761
 11
10.90013126921431
 21
-38.3352506518487
 72
     1
 10
10.90013126921431
 20
-38.3352506518487
 11
14.34643959816474
 21
-38.33521122254621
 72
     1
 10
14.34643959816474
 20
-38.33521122254621
 11
16.47463637225562
 21
-35.7989250712761
 97
        0
 75
     0
 76
     1
 98
        1
 10
3.174999999999942
 20
0.0
  0
HATCH
  5
F7
330
1F
100
AcDbEntity
  8
중심선
100
AcDbHatch
 10
0.0
 20
0.0
 30
0.0
210
0.0
220
0.0
230
1.0
  2
SOLID
 70
     1
 71
     0
 91
        1
 92
        0
 93
        4
 72
     1
 10
21.48740036329162
 20
-35.7989250712761
 11
18.04112511945431
 21
-35.7989250712761
 72
     1
 10
18.04112511945431
 20
-35.7989250712761
 11
13.5099871110969
 21
-41.19892507127612
 72
     1
 10
13.5099871110969
 20
-41.19892507127612
 11
16.95626235493418
 21
-41.19892507127612
 72
     1
 10
16.95626235493418
 20
-41.19892507127612
 11
21.48740036329162
 21
-35.7989250712761
 97
        0
 75
     0
 76
     1
 98
        1
 10
3.174999999999942
 20
0.0
  0
HATCH
  5
F8
330
1F
100
AcDbEntity
  8
중심선
100
AcDbHatch
 10
0.0
 20
0.0
 30
0.0
210
0.0
220
0.0
230
1.0
  2
SOLID
 70
     1
 71
     0
 91
        1
 92
        0
 93
        4
 72
     1
 10
26.50016435432746
 20
-35.79892507127608
 11
23.05388911049037
 21
-35.79892507127608
 72
     1
 10
23.05388911049037
 20
-35.79892507127608
 11
16.0054522086011
 21
-44.19892507127612
 72
     1
 10
16.0054522086011
 20
-44.19892507127612
 11
19.45172745243838
 21
-44.19892507127612
 72
     1
 10
19.45172745243838
 20
-44.19892507127612
 11
26.50016435432746
 21
-35.79892507127608
 97
        0
 75
     0
 76
     1
 98
        1
 10
3.174999999999942
 20
0.0
  0
HATCH
  5
F9
330
1F
100
AcDbEntity
  8
중심선
100
AcDbHatch
 10
0.0
 20
0.0
 30
0.0
210
0.0
220
0.0
230
1.0
  2
SOLID
 70
     1
 71
     0
 91
        1
 92
        0
 93
        6
 72
     3
 10
31.30005478533966
 20
-39.99892507132738
 11
3.960054785062283
 21
1.540882976769353E-10
 40
0.3939339440162628
 50
17.09539180608436
 51
320.0019657685079
 73
     0
 72
     1
 10
32.98305444104026
 20
-38.58681907591441
 11
35.28835631474129
 21
-36.65249236586646
 72
     3
 10
31.30005478528681
 20
-39.99892507127625
 11
6.600054785286833
 21
-1.278976924368180E-13
 40
0.6363583540795976
 50
39.9987384933743
 51
368.4976242363725
 73
     1
 72
     1
 10
37.72538727718742
 20
-39.03892507120613
 11
29.98012209212274
 21
-39.03892507120613
 72
     1
 10
29.98012209212274
 20
-39.03892507120613
 11
29.9800970476768
 21
-40.95892507120602
 72
     1
 10
29.9800970476768
 20
-40.95892507120602
 11
34.42147681714884
 21
-40.95892507120599
 97
        0
 75
     0
 76
     1
 98
        1
 10
3.174999999999942
 20
0.0
  0
DIMENSION
  5
FA
330
1F
100
AcDbEntity
  8
치수문자_일반주서
100
AcDbDimension
  2
_D
 10
-52.11750000000002
 20
-6.348925071276155
 30
0.0
 11
-52.11750000000004
 21
0.0010749287238896
 31
0.0
 70
   160
  1
%%c<>
 71
     2
 42
12.69999999999999
 52
-270.0
  3
SLDDIMSTYLE1
100
AcDbAlignedDimension
 13
-37.53000000000003
 23
6.351074928723889
 33
0.0
 14
-37.53000000000003
 24
-6.3489250712761
 34
0.0
 50
90.0000000000002
100
AcDbRotatedDimension
1001
ACAD
1000
DSTYLE
1002
{
1070
   171
1070
     6
1070
   273
1070
     7
1002
}
  0
DIMENSION
  5
10F
330
1F
100
AcDbEntity
  8
치수문자_일반주서
100
AcDbDimension
  2
_D_1
 10
11.99999999999999
 20
28.8447226675572
 30
0.0
 11
50.09999999999998
 21
28.8447226675572
 31
0.0
 70
   160
  1
<>
 71
     2
 42
76.2
  3
SLDDIMSTYLE1
100
AcDbAlignedDimension
 13
88.19999999999999
 23
6.304736126966445
 33
0.0
 14
11.99999999999999
 24
5.944453525676918
 34
0.0
 50
0.0000000000000053
100
AcDbRotatedDimension
1001
ACAD
1000
DSTYLE
1002
{
1070
   171
1070
     6
1070
   273
1070
     7
1002
}
  0
DIMENSION
  5
123
330
1F
100
AcDbEntity
  8
치수문자_일반주서
100
AcDbDimension
  2
_D_2
 10
-38.80000000000003
 20
40.84472266755721
 30
0.0
 11
24.69999999999998
 21
40.84472266755721
 31
0.0
 70
   160
  1
<>
 71
     2
 42
127.0
  3
SLDDIMSTYLE1
100
AcDbAlignedDimension
 13
88.19999999999999
 23
6.304736126966445
 33
0.0
 14
-38.80000000000003
 24
5.0810749287239
 34
0.0
 50
0.0000000000000064
100
AcDbRotatedDimension
1001
ACAD
1000
DSTYLE
1002
{
1070
   171
1070
     6
1070
   273
1070
     7
1002
}
  0
DIMENSION
  5
137
330
1F
100
AcDbEntity
  8
치수문자_일반주서
100
AcDbDimension
  2
_D_3
 10
98.69621415236453
 20
-6.348925071276078
 30
0.0
 11
98.69621415236442
 21
26.75383964756982
 31
0.0
 70
   160
  1
%%c<>
 71
     2
 42
12.70000000000001
 52
-270.0
  3
SLDDIMSTYLE1
100
AcDbAlignedDimension
 13
88.19999999999999
 23
6.3510749287239
 33
0.0
 14
88.19999999999999
 24
-6.34892507127611
 34
0.0
 50
90.0000000000002
100
AcDbRotatedDimension
1001
ACAD
1000
DSTYLE
1002
{
1070
   171
1070
     6
1070
   273
1070
     7
1002
}
  0
LINE
  5
14A
330
1F
100
AcDbEntity
  8
참조1
100
AcDbLine
 10
88.46348381534564
 20
7.441074928723896
 30
0.0
 11
88.46348381534564
 21
-7.438925071276109
 31
0.0
  0
LINE
  5
14B
330
1F
100
AcDbEntity
  8
참조1
100
AcDbLine
 10
101.1634838153456
 20
5.441074928723896
 30
0.0
 11
88.46348381534564
 21
5.441074928723896
 31
0.0
  0
SOLID
  5
14C
330
1F
100
AcDbEntity
  8
참조1
100
AcDbTrace
 10
88.46348381534564
 20
5.441074928723896
 30
0.0
 11
94.81348381534563
 21
4.425074928723896
 31
0.0
 12
94.81348381534563
 22
6.457074928723896
 32
0.0
 13
94.81348381534563
 23
6.457074928723896
 33
0.0
  0
LINE
  5
14D
330
1F
100
AcDbEntity
  8
참조1
100
AcDbLine
 10
101.1634838153456
 20
-5.438925071276109
 30
0.0
 11
88.46348381534564
 21
-5.438925071276109
 31
0.0
  0
SOLID
  5
14E
330
1F
100
AcDbEntity
  8
참조1
100
AcDbTrace
 10
88.46348381534564
 20
-5.438925071276109
 30
0.0
 11
94.81348381534563
 21
-6.454925071276109
 31
0.0
 12
94.81348381534563
 22
-4.422925071276109
 32
0.0
 13
94.81348381534563
 23
-4.422925071276109
 33
0.0
  0
MTEXT
  5
14F
330
1F
100
AcDbEntity
  8
참조1
100
AcDbMText
 10
97.8609739078159
 20
10.98929157337383
 30
0.0
 40
3.5
 41
0.0
 71
     1
 72
     1
  1
A
  7
SLDTEXTSTYLE0
 73
     1
 44
1.0
  0
MTEXT
  5
150
330
1F
100
AcDbEntity
  8
참조1
100
AcDbMText
 10
97.8609739078159
 20
0.1092915733738251
 30
0.0
 40
3.5
 41
0.0
 71
     1
 72
     1
  1
A
  7
SLDTEXTSTYLE0
 73
     1
 44
1.0
  0
INSERT
  5
157
330
1F
100
AcDbEntity
  8
해칭선
100
AcDbBlockReference
  2
SW_DOWELSYMBOL_0
 10
0.0
 20
0.0
 30
0.0
  0
LINE
  5
315
330
1F
100
AcDbEntity
  8
외형선
  6
Continuous
370
    15
100
AcDbLine
 10
-21.766125
 20
4.827074928723889
 30
0.0
 11
-10.59012500000013
 21
4.827074928723889
 31
0.0
  0
LINE
  5
316
330
1F
100
AcDbEntity
  8
외형선
  6
Continuous
370
    15
100
AcDbLine
 10
-21.766125
 20
4.827074928723889
 30
0.0
 11
-23.290125
 21
6.351074928723889
 31
0.0
  0
LINE
  5
317
330
1F
100
AcDbEntity
  8
외형선
  6
Continuous
370
    15
100
AcDbLine
 10
-10.59012500000001
 20
4.827074928723889
 30
0.0
 11
-9.066125000000012
 21
6.351074928723889
 31
0.0
  0
LINE
  5
319
330
1F
100
AcDbEntity
  8
외형선
  6
Continuous
370
    15
100
AcDbLine
 10
-23.29012500000001
 20
6.351074928723895
 30
0.0
 11
-37.53000000000002
 21
6.351074928723895
 31
0.0
  0
ENDSEC
  0
SECTION
  2
OBJECTS
  0
DICTIONARY
  5
C
330
0
100
AcDbDictionary
281
     1
  3
ACAD_GROUP
350
D
  3
ACAD_IMAGE_VARS
350
17B
  3
ACAD_LAYOUT
350
1A
  3
ACAD_MLINESTYLE
350
17
  3
ACAD_PLOTSETTINGS
350
19
  3
ACAD_PLOTSTYLENAME
350
E
  3
ACAD_SCALELIST
350
47
  3
APPDATA
350
179
  3
DWGPROPS
350
31A
  0
DICTIONARY
  5
232
330
2
100
AcDbDictionary
280
     1
281
     1
  3
ACAD_LAYERSTATES
360
233
  0
DICTIONARY
  5
D
102
{ACAD_REACTORS
330
C
102
}
330
C
100
AcDbDictionary
281
     1
  0
RASTERVARIABLES
  5
17B
102
{ACAD_REACTORS
330
C
102
}
330
C
100
AcDbRasterVariables
 90
        0
 70
     1
 71
     1
 72
     1
  0
DICTIONARY
  5
1A
102
{ACAD_REACTORS
330
C
102
}
330
C
100
AcDbDictionary
281
     1
  3
Layout1
350
1E
  3
Layout2
350
26
  3
Model
350
22
  0
DICTIONARY
  5
17
102
{ACAD_REACTORS
330
C
102
}
330
C
100
AcDbDictionary
281
     1
  3
Standard
350
18
  0
DICTIONARY
  5
19
102
{ACAD_REACTORS
330
C
102
}
330
C
100
AcDbDictionary
281
     1
  0
ACDBDICTIONARYWDFLT
  5
E
102
{ACAD_REACTORS
330
C
102
}
330
C
100
AcDbDictionary
281
     1
  3
Normal
350
F
100
AcDbDictionaryWithDefault
340
F
  0
DICTIONARY
  5
47
102
{ACAD_REACTORS
330
C
102
}
330
C
100
AcDbDictionary
281
     1
  3
A0
350
48
  3
A1
350
49
  3
A2
350
4A
  3
A3
350
4B
  3
A4
350
4C
  3
A5
350
4D
  3
A6
350
4E
  3
A7
350
4F
  3
A8
350
50
  3
A9
350
51
  3
B0
350
52
  3
B1
350
53
  3
B2
350
54
  3
B3
350
55
  3
B4
350
56
  3
B5
350
57
  3
B6
350
58
  3
B7
350
59
  3
B8
350
5A
  3
B9
350
5B
  3
C0
350
5C
  3
C1
350
5D
  3
C2
350
5E
  3
C3
350
5F
  3
C4
350
60
  3
C5
350
61
  3
C6
350
62
  3
C7
350
63
  3
C8
350
64
  3
C9
350
65
  3
D0
350
66
  3
D1
350
67
  3
D2
350
68
  0
DICTIONARY
  5
179
102
{ACAD_REACTORS
330
C
102
}
330
C
100
AcDbDictionary
281
     1
  0
XRECORD
  5
31A
102
{ACAD_REACTORS
330
C
102
}
330
C
100
AcDbXrecord
280
     1
  1
DWGPROPS COOKIE
  2

  3

  4

  6

  7

  8
12017012
  9

300
=
301
=
302
=
303
=
304
=
305
=
306
=
307
=
308
=
309
=
 40
0.0
 41
2458323.066533079
 42
2458323.33706375
  1

 90
        0
  0
DICTIONARY
  5
233
102
{ACAD_REACTORS
330
232
102
}
330
232
100
AcDbDictionary
281
     1
  0
LAYOUT
  5
1E
102
{ACAD_REACTORS
330
1A
102
}
330
1A
100
AcDbPlotSettings
  1

  2
none_device
  4

  6

 40
0.0
 41
0.0
 42
0.0
 43
0.0
 44
0.0
 45
0.0
 46
0.0
 47
0.0
 48
0.0
 49
0.0
140
0.0
141
0.0
142
1.0
143
1.0
 70
   688
 72
     1
 73
     0
 74
     5
  7

 75
    16
147
1.0
148
0.0
149
0.0
100
AcDbLayout
  1
Layout1
 70
     1
 71
     1
 10
0.0
 20
0.0
 11
420.0
 21
297.0
 12
0.0
 22
0.0
 32
0.0
 14
1.000000000000000E+20
 24
1.000000000000000E+20
 34
1.000000000000000E+20
 15
-1.000000000000000E+20
 25
-1.000000000000000E+20
 35
-1.000000000000000E+20
146
0.0
 13
0.0
 23
0.0
 33
0.0
 16
1.0
 26
0.0
 36
0.0
 17
0.0
 27
1.0
 37
0.0
 76
     0
330
1B
  0
LAYOUT
  5
26
102
{ACAD_REACTORS
330
1A
102
}
330
1A
100
AcDbPlotSettings
  1

  2
none_device
  4

  6

 40
0.0
 41
0.0
 42
0.0
 43
0.0
 44
0.0
 45
0.0
 46
0.0
 47
0.0
 48
0.0
 49
0.0
140
0.0
141
0.0
142
1.0
143
1.0
 70
   688
 72
     1
 73
     0
 74
     5
  7

 75
    16
147
1.0
148
0.0
149
0.0
100
AcDbLayout
  1
Layout2
 70
     1
 71
     2
 10
0.0
 20
0.0
 11
0.0
 21
0.0
 12
0.0
 22
0.0
 32
0.0
 14
0.0
 24
0.0
 34
0.0
 15
0.0
 25
0.0
 35
0.0
146
0.0
 13
0.0
 23
0.0
 33
0.0
 16
1.0
 26
0.0
 36
0.0
 17
0.0
 27
1.0
 37
0.0
 76
     0
330
23
  0
LAYOUT
  5
22
102
{ACAD_REACTORS
330
1A
102
}
330
1A
100
AcDbPlotSettings
  1

  2
none_device
  4
ANSI_A_(11.00_x_8.50_Inches)
  6

 40
6.35
 41
19.05
 42
6.35000508
 43
19.05000254
 44
279.4
 45
215.9
 46
53.85974687339649
 47
88.48932810346699
 48
0.0
 49
0.0
140
0.0
141
0.0
142
0.0350374396758379
143
1.0
 70
  1696
 72
     0
 73
     0
 74
     0
  7

 75
     0
147
0.0235690232323232
148
0.0
149
0.0
100
AcDbLayout
  1
Model
 70
     1
 71
     0
 10
0.0
 20
0.0
 11
420.0
 21
297.0
 12
0.0
 22
0.0
 32
0.0
 14
1.000000000000000E+20
 24
1.000000000000000E+20
 34
1.000000000000000E+20
 15
-1.000000000000000E+20
 25
-1.000000000000000E+20
 35
-1.000000000000000E+20
146
0.0
 13
0.0
 23
0.0
 33
0.0
 16
1.0
 26
0.0
 36
0.0
 17
0.0
 27
1.0
 37
0.0
 76
     0
330
1F
331
29
  0
MLINESTYLE
  5
18
102
{ACAD_REACTORS
330
17
102
}
330
17
100
AcDbMlineStyle
  2
Standard
 70
     0
  3

 62
   256
 51
90.0
 52
90.0
 71
     2
 49
0.5
 62
   256
  6
BYLAYER
 49
-0.5
 62
   256
  6
BYLAYER
  0
ACDBPLACEHOLDER
  5
F
102
{ACAD_REACTORS
330
E
102
}
330
E
  0
SCALE
  5
48
102
{ACAD_REACTORS
330
47
102
}
330
47
100
AcDbScale
 70
     0
300
1:1
140
1.0
141
1.0
290
     1
  0
SCALE
  5
49
102
{ACAD_REACTORS
330
47
102
}
330
47
100
AcDbScale
 70
     0
300
1:2
140
1.0
141
2.0
290
     0
  0
SCALE
  5
4A
102
{ACAD_REACTORS
330
47
102
}
330
47
100
AcDbScale
 70
     0
300
1:4
140
1.0
141
4.0
290
     0
  0
SCALE
  5
4B
102
{ACAD_REACTORS
330
47
102
}
330
47
100
AcDbScale
 70
     0
300
1:5
140
1.0
141
5.0
290
     0
  0
SCALE
  5
4C
102
{ACAD_REACTORS
330
47
102
}
330
47
100
AcDbScale
 70
     0
300
1:8
140
1.0
141
8.0
290
     0
  0
SCALE
  5
4D
102
{ACAD_REACTORS
330
47
102
}
330
47
100
AcDbScale
 70
     0
300
1:10
140
1.0
141
10.0
290
     0
  0
SCALE
  5
4E
102
{ACAD_REACTORS
330
47
102
}
330
47
100
AcDbScale
 70
     0
300
1:16
140
1.0
141
16.0
290
     0
  0
SCALE
  5
4F
102
{ACAD_REACTORS
330
47
102
}
330
47
100
AcDbScale
 70
     0
300
1:20
140
1.0
141
20.0
290
     0
  0
SCALE
  5
50
102
{ACAD_REACTORS
330
47
102
}
330
47
100
AcDbScale
 70
     0
300
1:30
140
1.0
141
30.0
290
     0
  0
SCALE
  5
51
102
{ACAD_REACTORS
330
47
102
}
330
47
100
AcDbScale
 70
     0
300
1:40
140
1.0
141
40.0
290
     0
  0
SCALE
  5
52
102
{ACAD_REACTORS
330
47
102
}
330
47
100
AcDbScale
 70
     0
300
1:50
140
1.0
141
50.0
290
     0
  0
SCALE
  5
53
102
{ACAD_REACTORS
330
47
102
}
330
47
100
AcDbScale
 70
     0
300
1:100
140
1.0
141
100.0
290
     0
  0
SCALE
  5
54
102
{ACAD_REACTORS
330
47
102
}
330
47
100
AcDbScale
 70
     0
300
2:1
140
2.0
141
1.0
290
     0
  0
SCALE
  5
55
102
{ACAD_REACTORS
330
47
102
}
330
47
100
AcDbScale
 70
     0
300
4:1
140
4.0
141
1.0
290
     0
  0
SCALE
  5
56
102
{ACAD_REACTORS
330
47
102
}
330
47
100
AcDbScale
 70
     0
300
8:1
140
8.0
141
1.0
290
     0
  0
SCALE
  5
57
102
{ACAD_REACTORS
330
47
102
}
330
47
100
AcDbScale
 70
     0
300
10:1
140
10.0
141
1.0
290
     0
  0
SCALE
  5
58
102
{ACAD_REACTORS
330
47
102
}
330
47
100
AcDbScale
 70
     0
300
100:1
140
100.0
141
1.0
290
     0
  0
SCALE
  5
59
102
{ACAD_REACTORS
330
47
102
}
330
47
100
AcDbScale
 70
     0
300
1/128" = 1'-0"
140
0.0078125
141
12.0
290
     0
  0
SCALE
  5
5A
102
{ACAD_REACTORS
330
47
102
}
330
47
100
AcDbScale
 70
     0
300
1/64" = 1'-0"
140
0.015625
141
12.0
290
     0
  0
SCALE
  5
5B
102
{ACAD_REACTORS
330
47
102
}
330
47
100
AcDbScale
 70
     0
300
1/32" = 1'-0"
140
0.03125
141
12.0
290
     0
  0
SCALE
  5
5C
102
{ACAD_REACTORS
330
47
102
}
330
47
100
AcDbScale
 70
     0
300
1/16" = 1'-0"
140
0.0625
141
12.0
290
     0
  0
SCALE
  5
5D
102
{ACAD_REACTORS
330
47
102
}
330
47
100
AcDbScale
 70
     0
300
3/32" = 1'-0"
140
0.09375
141
12.0
290
     0
  0
SCALE
  5
5E
102
{ACAD_REACTORS
330
47
102
}
330
47
100
AcDbScale
 70
     0
300
1/8" = 1'-0"
140
0.125
141
12.0
290
     0
  0
SCALE
  5
5F
102
{ACAD_REACTORS
330
47
102
}
330
47
100
AcDbScale
 70
     0
300
3/16" = 1'-0"
140
0.1875
141
12.0
290
     0
  0
SCALE
  5
60
102
{ACAD_REACTORS
330
47
102
}
330
47
100
AcDbScale
 70
     0
300
1/4" = 1'-0"
140
0.25
141
12.0
290
     0
  0
SCALE
  5
61
102
{ACAD_REACTORS
330
47
102
}
330
47
100
AcDbScale
 70
     0
300
3/8" = 1'-0"
140
0.375
141
12.0
290
     0
  0
SCALE
  5
62
102
{ACAD_REACTORS
330
47
102
}
330
47
100
AcDbScale
 70
     0
300
1/2" = 1'-0"
140
0.5
141
12.0
290
     0
  0
SCALE
  5
63
102
{ACAD_REACTORS
330
47
102
}
330
47
100
AcDbScale
 70
     0
300
3/4" = 1'-0"
140
0.75
141
12.0
290
     0
  0
SCALE
  5
64
102
{ACAD_REACTORS
330
47
102
}
330
47
100
AcDbScale
 70
     0
300
1" = 1'-0"
140
1.0
141
12.0
290
     0
  0
SCALE
  5
65
102
{ACAD_REACTORS
330
47
102
}
330
47
100
AcDbScale
 70
     0
300
1-1/2" = 1'-0"
140
1.5
141
12.0
290
     0
  0
SCALE
  5
66
102
{ACAD_REACTORS
330
47
102
}
330
47
100
AcDbScale
 70
     0
300
3" = 1'-0"
140
3.0
141
12.0
290
     0
  0
SCALE
  5
67
102
{ACAD_REACTORS
330
47
102
}
330
47
100
AcDbScale
 70
     0
300
6" = 1'-0"
140
6.0
141
12.0
290
     0
  0
SCALE
  5
68
102
{ACAD_REACTORS
330
47
102
}
330
47
100
AcDbScale
 70
     0
300
1'-0" = 1'-0"
140
12.0
141
12.0
290
     0
  0
ENDSEC
  0
EOF
