  0
SECTION
  2
HEADER
  9
$ACADVER
  1
AC1015
  9
$ACADMAINTVER
 70
     6
  9
$DWGCODEPAGE
  3
ANSI_949
  9
$INSBASE
 10
0.0
 20
0.0
 30
0.0
  9
$EXTMIN
 10
1.000000000000000E+20
 20
1.000000000000000E+20
 30
1.000000000000000E+20
  9
$EXTMAX
 10
-1.000000000000000E+20
 20
-1.000000000000000E+20
 30
-1.000000000000000E+20
  9
$LIMMIN
 10
0.0
 20
0.0
  9
$LIMMAX
 10
420.0
 20
297.0
  9
$ORTHOMODE
 70
     1
  9
$REGENMODE
 70
     1
  9
$FILLMODE
 70
     1
  9
$QTEXTMODE
 70
     0
  9
$MIRRTEXT
 70
     1
  9
$LTSCALE
 40
1.0
  9
$ATTMODE
 70
     1
  9
$TEXTSIZE
 40
3.5
  9
$TRACEWID
 40
1.0
  9
$TEXTSTYLE
  7
Standard
  9
$CLAYER
  8
0
  9
$CELTYPE
  6
ByLayer
  9
$CECOLOR
 62
   256
  9
$CELTSCALE
 40
1.0
  9
$DISPSILH
 70
     0
  9
$DIMSCALE
 40
1.0
  9
$DIMASZ
 40
3.302
  9
$DIMEXO
 40
1.0
  9
$DIMDLI
 40
3.75
  9
$DIMRND
 40
0.0
  9
$DIMDLE
 40
0.0
  9
$DIMEXE
 40
1.0
  9
$DIMTP
 40
0.0
  9
$DIMTM
 40
0.0
  9
$DIMTXT
 40
3.5
  9
$DIMCEN
 40
2.5
  9
$DIMTSZ
 40
0.0
  9
$DIMTOL
 70
     0
  9
$DIMLIM
 70
     0
  9
$DIMTIH
 70
     1
  9
$DIMTOH
 70
     1
  9
$DIMSE1
 70
     0
  9
$DIMSE2
 70
     0
  9
$DIMTAD
 70
     1
  9
$DIMZIN
 70
     0
  9
$DIMBLK
  1

  9
$DIMASO
 70
     1
  9
$DIMSHO
 70
     1
  9
$DIMPOST
  1

  9
$DIMAPOST
  1

  9
$DIMALT
 70
     0
  9
$DIMALTD
 70
     3
  9
$DIMALTF
 40
0.0393700787401575
  9
$DIMLFAC
 40
1.0
  9
$DIMTOFL
 70
     1
  9
$DIMTVP
 40
0.0
  9
$DIMTIX
 70
     0
  9
$DIMSOXD
 70
     0
  9
$DIMSAH
 70
     0
  9
$DIMBLK1
  1

  9
$DIMBLK2
  1

  9
$DIMSTYLE
  2
ISO-25
  9
$DIMCLRD
 70
     0
  9
$DIMCLRE
 70
     0
  9
$DIMCLRT
 70
     0
  9
$DIMTFAC
 40
1.0
  9
$DIMGAP
 40
1.524
  9
$DIMJUST
 70
     0
  9
$DIMSD1
 70
     0
  9
$DIMSD2
 70
     0
  9
$DIMTOLJ
 70
     0
  9
$DIMTZIN
 70
     0
  9
$DIMALTZ
 70
     0
  9
$DIMALTTZ
 70
     0
  9
$DIMUPT
 70
     0
  9
$DIMDEC
 70
     2
  9
$DIMTDEC
 70
     2
  9
$DIMALTU
 70
     2
  9
$DIMALTTD
 70
     3
  9
$DIMTXSTY
  7
Standard
  9
$DIMAUNIT
 70
     0
  9
$DIMADEC
 70
     2
  9
$DIMALTRND
 40
0.0
  9
$DIMAZIN
 70
     0
  9
$DIMDSEP
 70
    44
  9
$DIMATFIT
 70
     3
  9
$DIMFRAC
 70
     0
  9
$DIMLDRBLK
  1

  9
$DIMLUNIT
 70
     2
  9
$DIMLWD
 70
    -2
  9
$DIMLWE
 70
    -2
  9
$DIMTMOVE
 70
     0
  9
$LUNITS
 70
     2
  9
$LUPREC
 70
     2
  9
$SKETCHINC
 40
1.0
  9
$FILLETRAD
 40
10.0
  9
$AUNITS
 70
     0
  9
$AUPREC
 70
     2
  9
$MENU
  1
.
  9
$ELEVATION
 40
0.0
  9
$PELEVATION
 40
0.0
  9
$THICKNESS
 40
0.0
  9
$LIMCHECK
 70
     0
  9
$CHAMFERA
 40
0.0
  9
$CHAMFERB
 40
0.0
  9
$CHAMFERC
 40
0.0
  9
$CHAMFERD
 40
0.0
  9
$SKPOLY
 70
     0
  9
$TDCREATE
 40
2458323.481173565
  9
$TDUCREATE
 40
2458323.106173565
  9
$TDUPDATE
 40
2458323.684553553
  9
$TDUUPDATE
 40
2458323.309553553
  9
$TDINDWG
 40
0.002397581
  9
$TDUSRTIMER
 40
2458323.307156227
  9
$USRTIMER
 70
     1
  9
$ANGBASE
 50
0.0
  9
$ANGDIR
 70
     0
  9
$PDMODE
 70
     0
  9
$PDSIZE
 40
-1.0
  9
$PLINEWID
 40
0.0
  9
$SPLFRAME
 70
     0
  9
$SPLINETYPE
 70
     6
  9
$SPLINESEGS
 70
     8
  9
$HANDSEED
  5
253
  9
$SURFTAB1
 70
     6
  9
$SURFTAB2
 70
     6
  9
$SURFTYPE
 70
     6
  9
$SURFU
 70
     6
  9
$SURFV
 70
     6
  9
$UCSBASE
  2

  9
$UCSNAME
  2

  9
$UCSORG
 10
0.0
 20
0.0
 30
0.0
  9
$UCSXDIR
 10
1.0
 20
0.0
 30
0.0
  9
$UCSYDIR
 10
0.0
 20
1.0
 30
0.0
  9
$UCSORTHOREF
  2

  9
$UCSORTHOVIEW
 70
     0
  9
$UCSORGTOP
 10
0.0
 20
0.0
 30
0.0
  9
$UCSORGBOTTOM
 10
0.0
 20
0.0
 30
0.0
  9
$UCSORGLEFT
 10
0.0
 20
0.0
 30
0.0
  9
$UCSORGRIGHT
 10
0.0
 20
0.0
 30
0.0
  9
$UCSORGFRONT
 10
0.0
 20
0.0
 30
0.0
  9
$UCSORGBACK
 10
0.0
 20
0.0
 30
0.0
  9
$PUCSBASE
  2

  9
$PUCSNAME
  2

  9
$PUCSORG
 10
0.0
 20
0.0
 30
0.0
  9
$PUCSXDIR
 10
1.0
 20
0.0
 30
0.0
  9
$PUCSYDIR
 10
0.0
 20
1.0
 30
0.0
  9
$PUCSORTHOREF
  2

  9
$PUCSORTHOVIEW
 70
     0
  9
$PUCSORGTOP
 10
0.0
 20
0.0
 30
0.0
  9
$PUCSORGBOTTOM
 10
0.0
 20
0.0
 30
0.0
  9
$PUCSORGLEFT
 10
0.0
 20
0.0
 30
0.0
  9
$PUCSORGRIGHT
 10
0.0
 20
0.0
 30
0.0
  9
$PUCSORGFRONT
 10
0.0
 20
0.0
 30
0.0
  9
$PUCSORGBACK
 10
0.0
 20
0.0
 30
0.0
  9
$USERI1
 70
     0
  9
$USERI2
 70
     0
  9
$USERI3
 70
     0
  9
$USERI4
 70
     0
  9
$USERI5
 70
     0
  9
$USERR1
 40
0.0
  9
$USERR2
 40
0.0
  9
$USERR3
 40
0.0
  9
$USERR4
 40
0.0
  9
$USERR5
 40
0.0
  9
$WORLDVIEW
 70
     1
  9
$SHADEDGE
 70
     3
  9
$SHADEDIF
 70
    70
  9
$TILEMODE
 70
     1
  9
$MAXACTVP
 70
    64
  9
$PINSBASE
 10
0.0
 20
0.0
 30
0.0
  9
$PLIMCHECK
 70
     0
  9
$PEXTMIN
 10
1.000000000000000E+20
 20
1.000000000000000E+20
 30
1.000000000000000E+20
  9
$PEXTMAX
 10
-1.000000000000000E+20
 20
-1.000000000000000E+20
 30
-1.000000000000000E+20
  9
$PLIMMIN
 10
0.0
 20
0.0
  9
$PLIMMAX
 10
0.0
 20
0.0
  9
$UNITMODE
 70
     0
  9
$VISRETAIN
 70
     1
  9
$PLINEGEN
 70
     0
  9
$PSLTSCALE
 70
     1
  9
$TREEDEPTH
 70
  3020
  9
$CMLSTYLE
  2
Standard
  9
$CMLJUST
 70
     0
  9
$CMLSCALE
 40
20.0
  9
$PROXYGRAPHICS
 70
     1
  9
$MEASUREMENT
 70
     1
  9
$CELWEIGHT
370
    -1
  9
$ENDCAPS
280
     0
  9
$JOINSTYLE
280
     0
  9
$LWDISPLAY
290
     1
  9
$INSUNITS
 70
     4
  9
$HYPERLINKBASE
  1

  9
$STYLESHEET
  1

  9
$XEDIT
290
     1
  9
$CEPSNTYPE
380
     0
  9
$PSTYLEMODE
290
     1
  9
$FINGERPRINTGUID
  2
{60AB90C3-CDAF-41EB-AB2F-F4DDE417EF1E}
  9
$VERSIONGUID
  2
{FAEB1C32-E019-11D5-929B-00C0DF256EC4}
  9
$EXTNAMES
290
     1
  9
$PSVPSCALE
 40
0.0
  9
$OLESTARTUP
290
     0
  0
ENDSEC
  0
SECTION
  2
CLASSES
  0
CLASS
  1
ACDBDICTIONARYWDFLT
  2
AcDbDictionaryWithDefault
  3
ObjectDBX Classes
 90
        0
280
     0
281
     0
  0
CLASS
  1
VISUALSTYLE
  2
AcDbVisualStyle
  3
ObjectDBX Classes
 90
     4095
280
     0
281
     0
  0
CLASS
  1
MATERIAL
  2
AcDbMaterial
  3
ObjectDBX Classes
 90
     1153
280
     0
281
     0
  0
CLASS
  1
SCALE
  2
AcDbScale
  3
ObjectDBX Classes
 90
     1153
280
     0
281
     0
  0
CLASS
  1
SUN
  2
AcDbSun
  3
SCENEOE
 90
     1153
280
     0
281
     0
  0
CLASS
  1
ACDBPLACEHOLDER
  2
AcDbPlaceHolder
  3
ObjectDBX Classes
 90
        0
280
     0
281
     0
  0
CLASS
  1
LAYOUT
  2
AcDbLayout
  3
ObjectDBX Classes
 90
        0
280
     0
281
     0
  0
CLASS
  1
TABLESTYLE
  2
AcDbTableStyle
  3
ObjectDBX Classes
 90
     4095
280
     0
281
     0
  0
CLASS
  1
MLEADERSTYLE
  2
AcDbMLeaderStyle
  3
ACDB_MLEADERSTYLE_CLASS
 90
     4095
280
     0
281
     0
  0
CLASS
  1
RASTERVARIABLES
  2
AcDbRasterVariables
  3
ISM
 90
        0
280
     0
281
     0
  0
ENDSEC
  0
SECTION
  2
TABLES
  0
TABLE
  2
VPORT
  5
8
330
0
100
AcDbSymbolTable
 70
     1
  0
VPORT
  5
29
330
8
100
AcDbSymbolTableRecord
100
AcDbViewportTableRecord
  2
*Active
 70
     0
 10
0.0
 20
0.0
 11
1.0
 21
1.0
 12
77.28300074565044
 22
9.084312580032098
 13
0.0
 23
0.0
 14
10.0
 24
10.0
 15
10.0
 25
10.0
 16
0.0
 26
0.0
 36
1.0
 17
0.0
 27
0.0
 37
0.0
 40
219.4775597700045
 41
1.632093933463796
 42
50.0
 43
0.0
 44
0.0
 50
0.0
 51
0.0
 71
    16
 72
  2000
 73
     1
 74
     3
 75
     0
 76
     0
 77
     0
 78
     0
281
     0
 65
     1
110
0.0
120
0.0
130
0.0
111
1.0
121
0.0
131
0.0
112
0.0
122
1.0
132
0.0
 79
     0
146
0.0
  0
ENDTAB
  0
TABLE
  2
LTYPE
  5
5
330
0
100
AcDbSymbolTable
 70
     6
  0
LTYPE
  5
14
330
5
100
AcDbSymbolTableRecord
100
AcDbLinetypeTableRecord
  2
ByBlock
 70
     0
  3

 72
    65
 73
     0
 40
0.0
  0
LTYPE
  5
15
330
5
100
AcDbSymbolTableRecord
100
AcDbLinetypeTableRecord
  2
ByLayer
 70
     0
  3

 72
    65
 73
     0
 40
0.0
  0
LTYPE
  5
16
330
5
100
AcDbSymbolTableRecord
100
AcDbLinetypeTableRecord
  2
Continuous
 70
     0
  3
Solid line
 72
    65
 73
     0
 40
0.0
  0
LTYPE
  5
6A
330
5
100
AcDbSymbolTableRecord
100
AcDbLinetypeTableRecord
  2
HIDDEN
 70
     0
  3
Hidden __ __ __ __ __ __ __ __ __ __ __ __ __ __
 72
    65
 73
     2
 40
1.905
 49
1.27
 74
     0
 49
-0.635
 74
     0
  0
LTYPE
  5
6B
330
5
100
AcDbSymbolTableRecord
100
AcDbLinetypeTableRecord
  2
PHANTOM
 70
     0
  3
Phantom ______  __  __  ______  __  __  ______
 72
    65
 73
     6
 40
12.7
 49
6.35
 74
     0
 49
-1.27
 74
     0
 49
1.27
 74
     0
 49
-1.27
 74
     0
 49
1.27
 74
     0
 49
-1.27
 74
     0
  0
LTYPE
  5
6C
330
5
100
AcDbSymbolTableRecord
100
AcDbLinetypeTableRecord
  2
CENTER
 70
     0
  3
Center ____ _ ____ _ ____ _ ____ _ ____ _ ____
 72
    65
 73
     4
 40
10.16
 49
6.35
 74
     0
 49
-1.27
 74
     0
 49
1.27
 74
     0
 49
-1.27
 74
     0
  0
LTYPE
  5
6D
330
5
100
AcDbSymbolTableRecord
100
AcDbLinetypeTableRecord
  2
CENTERX2
 70
     0
  3
Center (2x) ________  __  ________  __  _____
 72
    65
 73
     4
 40
20.32
 49
12.7
 74
     0
 49
-2.54
 74
     0
 49
2.54
 74
     0
 49
-2.54
 74
     0
  0
LTYPE
  5
6E
330
5
100
AcDbSymbolTableRecord
100
AcDbLinetypeTableRecord
  2
DOT2
 70
     0
  3
Dot (.5x) ........................................
 72
    65
 73
     2
 40
0.635
 49
0.0
 74
     0
 49
-0.635
 74
     0
  0
ENDTAB
  0
TABLE
  2
LAYER
  5
2
102
{ACAD_XDICTIONARY
360
1CE
102
}
330
0
100
AcDbSymbolTable
 70
    18
  0
LAYER
  5
10
330
2
100
AcDbSymbolTableRecord
100
AcDbLayerTableRecord
  2
0
 70
     0
 62
     7
  6
Continuous
370
    -3
390
F
  0
LAYER
  5
6F
330
2
100
AcDbSymbolTableRecord
100
AcDbLayerTableRecord
  2
FORMAT
 70
     0
 62
     2
  6
Continuous
370
    -3
390
F
  0
LAYER
  5
70
330
2
100
AcDbSymbolTableRecord
100
AcDbLayerTableRecord
  2
외형선
 70
     0
 62
     4
  6
Continuous
370
    30
390
F
  0
LAYER
  5
71
330
2
100
AcDbSymbolTableRecord
100
AcDbLayerTableRecord
  2
숨은선
 70
     0
 62
     2
  6
HIDDEN
370
    15
390
F
  0
LAYER
  5
72
330
2
100
AcDbSymbolTableRecord
100
AcDbLayerTableRecord
  2
중심선
 70
     0
 62
     1
  6
CENTERX2
370
    -3
390
F
  0
LAYER
  5
73
330
2
100
AcDbSymbolTableRecord
100
AcDbLayerTableRecord
  2
파단선
 70
     0
 62
     4
  6
Continuous
370
    -3
390
F
  0
LAYER
  5
74
330
2
100
AcDbSymbolTableRecord
100
AcDbLayerTableRecord
  2
해칭선
 70
     0
 62
   100
  6
Continuous
370
    -3
390
F
  0
LAYER
  5
75
330
2
100
AcDbSymbolTableRecord
100
AcDbLayerTableRecord
  2
가는실선
 70
     0
 62
     4
  6
Continuous
370
    -3
390
F
  0
LAYER
  5
76
330
2
100
AcDbSymbolTableRecord
100
AcDbLayerTableRecord
  2
치수_보조선
 70
     0
 62
     4
  6
Continuous
370
    -3
390
F
  0
LAYER
  5
77
330
2
100
AcDbSymbolTableRecord
100
AcDbLayerTableRecord
  2
치수문자_일반주서
 70
     0
 62
     7
  6
Continuous
370
    15
390
F
  0
LAYER
  5
78
330
2
100
AcDbSymbolTableRecord
100
AcDbLayerTableRecord
  2
개별주서
 70
     0
 62
   100
  6
Continuous
370
    30
390
F
  0
LAYER
  5
79
330
2
100
AcDbSymbolTableRecord
100
AcDbLayerTableRecord
  2
중간선
 70
     0
 62
     2
  6
Continuous
370
    15
390
F
  0
LAYER
  5
7A
330
2
100
AcDbSymbolTableRecord
100
AcDbLayerTableRecord
  2
윤곽선
 70
     0
 62
     3
  6
Continuous
370
    40
390
F
  0
LAYER
  5
7B
330
2
100
AcDbSymbolTableRecord
100
AcDbLayerTableRecord
  2
중심마크
 70
     0
 62
   100
  6
Continuous
370
    30
390
F
  0
LAYER
  5
7C
330
2
100
AcDbSymbolTableRecord
100
AcDbLayerTableRecord
  2
가상선
 70
     0
 62
     4
  6
PHANTOM
370
    -3
390
F
  0
LAYER
  5
7D
330
2
100
AcDbSymbolTableRecord
100
AcDbLayerTableRecord
  2
특수지정선
 70
     0
 62
     5
  6
CENTERX2
370
    60
390
F
  0
LAYER
  5
7E
330
2
100
AcDbSymbolTableRecord
100
AcDbLayerTableRecord
  2
참조1
 70
     0
 62
    -4
  6
Continuous
370
    -3
390
F
  0
LAYER
  5
129
330
2
100
AcDbSymbolTableRecord
100
AcDbLayerTableRecord
  2
Defpoints
 70
     0
 62
     7
  6
Continuous
290
     0
370
    -3
390
F
  0
ENDTAB
  0
TABLE
  2
STYLE
  5
3
330
0
100
AcDbSymbolTable
 70
     2
  0
STYLE
  5
11
330
3
100
AcDbSymbolTableRecord
100
AcDbTextStyleTableRecord
  2
Standard
 70
     0
 40
0.0
 41
1.0
 50
0.0
 71
     0
 42
3.5
  3
txt
  4

  0
STYLE
  5
94
330
3
100
AcDbSymbolTableRecord
100
AcDbTextStyleTableRecord
  2
SLDTEXTSTYLE0
 70
     0
 40
0.0
 41
0.75
 50
0.0
 71
     0
 42
3.5
  3
TXT
  4

  0
ENDTAB
  0
TABLE
  2
VIEW
  5
6
330
0
100
AcDbSymbolTable
 70
     0
  0
ENDTAB
  0
TABLE
  2
UCS
  5
7
330
0
100
AcDbSymbolTable
 70
     0
  0
ENDTAB
  0
TABLE
  2
APPID
  5
9
330
0
100
AcDbSymbolTable
 70
     1
  0
APPID
  5
12
330
9
100
AcDbSymbolTableRecord
100
AcDbRegAppTableRecord
  2
ACAD
 70
     0
  0
ENDTAB
  0
TABLE
  2
DIMSTYLE
  5
A
330
0
100
AcDbSymbolTable
 70
     3
100
AcDbDimStyleTable
  0
DIMSTYLE
105
27
330
A
100
AcDbSymbolTableRecord
100
AcDbDimStyleTableRecord
  2
ISO-25
 70
     0
 41
2.5
 42
0.625
 43
3.75
 44
1.25
 73
     0
 74
     0
 77
     1
 78
     8
140
2.5
141
2.5
143
0.03937007874016
147
0.625
171
     3
172
     1
178
     0
271
     2
272
     2
274
     3
278
    44
283
     0
284
     8
340
11
  0
DIMSTYLE
105
A8
102
{ACAD_REACTORS
330
17F
330
18C
330
199
330
1A6
330
1FF
330
200
330
201
330
202
102
}
330
A
100
AcDbSymbolTableRecord
100
AcDbDimStyleTableRecord
  2
SLDDIMSTYLE0
 70
     0
 41
3.302
 44
0.0
 45
0.000000001
 73
     0
 74
     0
 77
     1
 78
    12
 79
     3
140
3.5
143
0.0393700787401575
147
0.875
148
0.000000001
170
     1
172
     1
173
     1
178
     0
271
     2
272
     2
276
     2
284
    12
289
     0
340
94
  0
DIMSTYLE
105
D1
330
A
100
AcDbSymbolTableRecord
100
AcDbDimStyleTableRecord
  2
SLDDIMSTYLE1
 70
     0
 41
3.302
 44
0.0
 45
0.000000001
 73
     0
 74
     0
 77
     1
 78
    12
 79
     3
140
3.5
143
0.0393700787401575
147
0.875
148
0.000000001
170
     1
173
     1
178
     0
271
     2
272
     2
276
     2
284
    12
340
94
  0
ENDTAB
  0
TABLE
  2
BLOCK_RECORD
  5
1
330
0
100
AcDbSymbolTable
 70
    16
  0
BLOCK_RECORD
  5
1F
330
1
100
AcDbSymbolTableRecord
100
AcDbBlockTableRecord
  2
*Model_Space
340
22
  0
BLOCK_RECORD
  5
1B
330
1
100
AcDbSymbolTableRecord
100
AcDbBlockTableRecord
  2
*Paper_Space
340
1E
  0
BLOCK_RECORD
  5
23
330
1
100
AcDbSymbolTableRecord
100
AcDbBlockTableRecord
  2
*Paper_Space0
340
26
  0
BLOCK_RECORD
  5
7F
330
1
100
AcDbSymbolTableRecord
100
AcDbBlockTableRecord
  2
블럭10
340
0
102
{BLKREFS
331
A0
102
}
  0
BLOCK_RECORD
  5
A9
330
1
100
AcDbSymbolTableRecord
100
AcDbBlockTableRecord
  2
_D
340
0
  0
BLOCK_RECORD
  5
BD
330
1
100
AcDbSymbolTableRecord
100
AcDbBlockTableRecord
  2
_D_1
340
0
  0
BLOCK_RECORD
  5
D2
330
1
100
AcDbSymbolTableRecord
100
AcDbBlockTableRecord
  2
_D_2
340
0
  0
BLOCK_RECORD
  5
E5
330
1
100
AcDbSymbolTableRecord
100
AcDbBlockTableRecord
  2
_D_3
340
0
  0
BLOCK_RECORD
  5
FE
330
1
100
AcDbSymbolTableRecord
100
AcDbBlockTableRecord
  2
SW_DOWELSYMBOL_0
340
0
102
{BLKREFS
331
0
331
1B6
331
203
102
}
  0
BLOCK_RECORD
  5
180
330
1
100
AcDbSymbolTableRecord
100
AcDbBlockTableRecord
  2
*D8
340
0
  0
BLOCK_RECORD
  5
18D
330
1
100
AcDbSymbolTableRecord
100
AcDbBlockTableRecord
  2
*D9
340
0
  0
BLOCK_RECORD
  5
19A
330
1
100
AcDbSymbolTableRecord
100
AcDbBlockTableRecord
  2
*D10
340
0
  0
BLOCK_RECORD
  5
1A7
330
1
100
AcDbSymbolTableRecord
100
AcDbBlockTableRecord
  2
*D11
340
0
  0
BLOCK_RECORD
  5
215
330
1
100
AcDbSymbolTableRecord
100
AcDbBlockTableRecord
  2
*D12
340
0
  0
BLOCK_RECORD
  5
221
330
1
100
AcDbSymbolTableRecord
100
AcDbBlockTableRecord
  2
*D13
340
0
  0
BLOCK_RECORD
  5
22D
330
1
100
AcDbSymbolTableRecord
100
AcDbBlockTableRecord
  2
*D14
340
0
  0
BLOCK_RECORD
  5
239
330
1
100
AcDbSymbolTableRecord
100
AcDbBlockTableRecord
  2
*D15
340
0
  0
ENDTAB
  0
ENDSEC
  0
SECTION
  2
BLOCKS
  0
BLOCK
  5
20
330
1F
100
AcDbEntity
  8
0
100
AcDbBlockBegin
  2
*Model_Space
 70
     0
 10
0.0
 20
0.0
 30
0.0
  3
*Model_Space
  1
*Model_Space
  0
ENDBLK
  5
21
330
1F
100
AcDbEntity
  8
0
100
AcDbBlockEnd
  0
BLOCK
  5
1C
330
1B
100
AcDbEntity
 67
     1
  8
0
100
AcDbBlockBegin
  2
*Paper_Space
 70
     0
 10
0.0
 20
0.0
 30
0.0
  3
*Paper_Space
  1
*Paper_Space
  0
ENDBLK
  5
1D
330
1B
100
AcDbEntity
 67
     1
  8
0
100
AcDbBlockEnd
  0
BLOCK
  5
24
330
23
100
AcDbEntity
  8
0
100
AcDbBlockBegin
  2
*Paper_Space0
 70
     0
 10
0.0
 20
0.0
 30
0.0
  3
*Paper_Space0
  1
*Paper_Space0
  0
ENDBLK
  5
25
330
23
100
AcDbEntity
  8
0
100
AcDbBlockEnd
  0
BLOCK
  5
80
330
7F
100
AcDbEntity
  8
0
100
AcDbBlockBegin
  2
블럭10
 70
     2
 10
0.0
 20
0.0
 30
0.0
  3
블럭10
  1
블럭10
  0
ELLIPSE
  5
82
330
7F
100
AcDbEntity
  8
중심선
100
AcDbEllipse
 10
20.54032771741204
 20
12.0471743016438
 30
0.0
 11
6.600054785286829
 21
-1.261213355974178E-13
 31
0.0
210
0.0
220
0.0
230
1.0
 40
0.636358354079598
 41
0.9219305317359503
 42
6.513795318482858
  0
ELLIPSE
  5
83
330
7F
100
AcDbEntity
  8
중심선
100
AcDbEllipse
 10
20.54032771746488
 20
12.04717430159265
 30
0.0
 11
3.960054785062283
 21
1.540847449632565E-10
 31
0.0
210
0.0
220
0.0
230
1.0
 40
0.3939339440162632
 41
1.131841032648279
 42
5.62031148352944
  0
LINE
  5
84
330
7F
100
AcDbEntity
  8
중심선
100
AcDbLine
 10
2.268634060543552
 20
16.24717430164393
 30
0.0
 11
5.714909304380834
 21
16.24717430164393
 31
0.0
  0
LINE
  5
85
330
7F
100
AcDbEntity
  8
중심선
100
AcDbLine
 10
5.245725140726316
 20
7.84717430164391
 30
0.0
 11
8.692000384563599
 21
7.84717430164391
 31
0.0
  0
LINE
  5
86
330
7F
100
AcDbEntity
  8
중심선
100
AcDbLine
 10
15.74043728645272
 20
16.24717430164393
 30
0.0
 11
8.692000384563599
 21
7.84717430164391
 31
0.0
  0
LINE
  5
87
330
7F
100
AcDbEntity
  8
중심선
100
AcDbLine
 10
0.1404042013395286
 20
13.71084872107135
 30
0.0
 11
3.58671253028996
 21
13.71088815037384
 31
0.0
  0
LINE
  5
88
330
7F
100
AcDbEntity
  8
중심선
100
AcDbLine
 10
2.750260043222114
 20
10.84717430164391
 30
0.0
 11
6.196535287059397
 21
10.84717430164391
 31
0.0
  0
LINE
  5
89
330
7F
100
AcDbEntity
  8
중심선
100
AcDbLine
 10
12.29416204261559
 20
16.24717430164393
 30
0.0
 11
5.245725140726316
 21
7.84717430164391
 31
0.0
  0
LINE
  5
8A
330
7F
100
AcDbEntity
  8
중심선
100
AcDbLine
 10
10.72767329541681
 20
16.24717430164393
 30
0.0
 11
6.196535287059397
 21
10.84717430164391
 31
0.0
  0
LINE
  5
8B
330
7F
100
AcDbEntity
  8
중심선
100
AcDbLine
 10
7.28139805157953
 20
16.24717430164393
 30
0.0
 11
2.750260043222114
 21
10.84717430164391
 31
0.0
  0
LINE
  5
8C
330
7F
100
AcDbEntity
  8
중심선
100
AcDbLine
 10
5.714909304380834
 20
16.24717430164393
 30
0.0
 11
3.58671253028996
 21
13.71088815037384
 31
0.0
  0
LINE
  5
8D
330
7F
100
AcDbEntity
  8
중심선
100
AcDbLine
 10
2.268634060543552
 20
16.24717430164393
 30
0.0
 11
0.1404042013395286
 21
13.71084872107135
 31
0.0
  0
LINE
  5
8E
330
7F
100
AcDbEntity
  8
중심선
100
AcDbLine
 10
7.28139805157953
 20
16.24717430164393
 30
0.0
 11
10.72767329541681
 21
16.24717430164393
 31
0.0
  0
LINE
  5
8F
330
7F
100
AcDbEntity
  8
중심선
100
AcDbLine
 10
12.29416204261559
 20
16.24717430164393
 30
0.0
 11
15.74043728645272
 21
16.24717430164393
 31
0.0
  0
LINE
  5
90
330
7F
100
AcDbEntity
  8
중심선
100
AcDbLine
 10
19.22036997980202
 20
11.08717430171403
 30
0.0
 11
23.66174974927406
 21
11.08717430171406
 31
0.0
  0
LINE
  5
91
330
7F
100
AcDbEntity
  8
중심선
100
AcDbLine
 10
19.22039502424796
 20
13.00717430171391
 30
0.0
 11
19.22036997980202
 21
11.08717430171403
 31
0.0
  0
LINE
  5
92
330
7F
100
AcDbEntity
  8
중심선
100
AcDbLine
 10
19.22039502424796
 20
13.00717430171391
 30
0.0
 11
26.96566020931264
 21
13.00717430171391
 31
0.0
  0
LINE
  5
93
330
7F
100
AcDbEntity
  8
중심선
100
AcDbLine
 10
22.22332737316547
 20
13.45928029700563
 30
0.0
 11
24.52862924686651
 21
15.39360700705356
 31
0.0
  0
ATTDEF
  5
95
330
7F
100
AcDbEntity
  8
FORMAT
 62
     2
100
AcDbText
 10
4.408487351596664
 20
2.075366912832191
 30
0.0
 40
4.233333333333333
  1
E1162901
 41
0.75
  7
SLDTEXTSTYLE0
 11
4.408487351596664
 21
-0.0412997538344756
 31
0.0
100
AcDbAttributeDefinition
  3

  2
AUTOATTR0
 70
     0
 74
     1
  0
ENDBLK
  5
81
330
7F
100
AcDbEntity
  8
0
100
AcDbBlockEnd
  0
BLOCK
  5
AA
330
A9
100
AcDbEntity
  8
0
100
AcDbBlockBegin
  2
_D
 70
     0
 10
0.0
 20
0.0
 30
0.0
  3
_D
  1
_D
  0
SOLID
  5
AC
330
A9
100
AcDbEntity
  8
치수문자_일반주서
100
AcDbTrace
 10
97.9119459855236
 20
12.5010749287239
 30
0.0
 11
98.4199459855236
 21
15.80307492872389
 31
0.0
 12
97.4039459855236
 22
15.80307492872389
 32
0.0
 13
97.4039459855236
 23
15.80307492872389
 33
0.0
  0
SOLID
  5
AD
330
A9
100
AcDbEntity
  8
치수문자_일반주서
100
AcDbTrace
 10
97.9119459855236
 20
-12.49892507127611
 30
0.0
 11
97.4039459855236
 21
-15.80092507127611
 31
0.0
 12
98.4199459855236
 22
-15.80092507127611
 32
0.0
 13
98.4199459855236
 23
-15.80092507127611
 33
0.0
  0
LINE
  5
AE
330
A9
100
AcDbEntity
  8
치수문자_일반주서
100
AcDbLine
 10
87.11906426948089
 20
-5.413291502344828
 30
0.0
 11
87.11906426948089
 21
-6.124228987909328
 31
0.0
  0
LINE
  5
AF
330
A9
100
AcDbEntity
  8
치수문자_일반주서
100
AcDbLine
 10
87.11906426948089
 20
-6.124228987909328
 30
0.0
 11
92.67531426054019
 21
-6.124228987909289
 31
0.0
  0
LINE
  5
B0
330
A9
100
AcDbEntity
  8
치수문자_일반주서
100
AcDbLine
 10
92.67531426054019
 20
-6.124228987909289
 30
0.0
 11
92.67531426054019
 21
-5.413291502344789
 31
0.0
  0
LINE
  5
B1
330
A9
100
AcDbEntity
  8
치수문자_일반주서
100
AcDbLine
 10
87.1190642694808
 20
5.41544135979243
 30
0.0
 11
87.1190642694808
 21
6.12637884535693
 31
0.0
  0
LINE
  5
B2
330
A9
100
AcDbEntity
  8
치수문자_일반주서
100
AcDbLine
 10
87.1190642694808
 20
6.12637884535693
 30
0.0
 11
92.6753142605401
 21
6.126378845356969
 31
0.0
  0
LINE
  5
B3
330
A9
100
AcDbEntity
  8
치수문자_일반주서
100
AcDbLine
 10
92.6753142605401
 20
6.126378845356969
 30
0.0
 11
92.6753142605401
 21
5.415441359792469
 31
0.0
  0
LINE
  5
B4
330
A9
100
AcDbEntity
  8
치수문자_일반주서
100
AcDbLine
 10
79.91194598552357
 20
12.5010749287239
 30
0.0
 11
98.9119459855236
 21
12.5010749287239
 31
0.0
  0
LINE
  5
B5
330
A9
100
AcDbEntity
  8
치수문자_일반주서
100
AcDbLine
 10
79.91194598552357
 20
-12.49892507127611
 30
0.0
 11
98.9119459855236
 21
-12.49892507127611
 31
0.0
  0
LINE
  5
B6
330
A9
100
AcDbEntity
  8
치수문자_일반주서
100
AcDbLine
 10
97.9119459855236
 20
12.5010749287239
 30
0.0
 11
97.9119459855236
 21
18.8510749287239
 31
0.0
  0
LINE
  5
B7
330
A9
100
AcDbEntity
  8
치수문자_일반주서
100
AcDbLine
 10
97.9119459855236
 20
12.5010749287239
 30
0.0
 11
97.9119459855236
 21
-12.49892507127611
 31
0.0
  0
LINE
  5
B8
330
A9
100
AcDbEntity
  8
치수문자_일반주서
100
AcDbLine
 10
97.9119459855236
 20
-12.49892507127611
 30
0.0
 11
97.9119459855236
 21
-18.84892507127611
 31
0.0
  0
MTEXT
  5
B9
330
A9
100
AcDbEntity
  8
치수문자_일반주서
100
AcDbMText
 10
88.16357734596129
 20
-4.52461960173345
 30
0.0
 40
3.5
 41
0.0
 71
     1
 72
     1
  1
0.98
  7
SLDTEXTSTYLE0
 11
-7.044195017643634E-15
 21
1.0
 31
0.0
 73
     1
 44
1.0
  0
MTEXT
  5
BA
330
A9
100
AcDbEntity
  8
치수문자_일반주서
100
AcDbMText
 10
93.40020889632177
 20
-5.22425519681665
 30
0.0
 40
3.5
 41
0.0
 71
     1
 72
     1
  1
%%c
  7
SLDTEXTSTYLE0
 11
-7.044195017643634E-15
 21
1.0
 31
0.0
 73
     1
 44
1.0
  0
MTEXT
  5
BB
330
A9
100
AcDbEntity
  8
치수문자_일반주서
100
AcDbMText
 10
93.40020889632173
 20
0.0541822015574309
 30
0.0
 40
3.5
 41
0.0
 71
     1
 72
     1
  1
25
  7
SLDTEXTSTYLE0
 11
-7.044195017643634E-15
 21
1.0
 31
0.0
 73
     1
 44
1.0
  0
ENDBLK
  5
AB
330
A9
100
AcDbEntity
  8
0
100
AcDbBlockEnd
  0
BLOCK
  5
BE
330
BD
100
AcDbEntity
  8
0
100
AcDbBlockBegin
  2
_D_1
 70
     0
 10
0.0
 20
0.0
 30
0.0
  3
_D_1
  1
_D_1
  0
SOLID
  5
C0
330
BD
100
AcDbEntity
  8
치수문자_일반주서
100
AcDbTrace
 10
-55.08805401447646
 20
7.938574928723906
 30
0.0
 11
-54.58005401447646
 21
11.24057492872391
 31
0.0
 12
-55.59605401447646
 22
11.24057492872391
 32
0.0
 13
-55.59605401447646
 23
11.24057492872391
 33
0.0
  0
SOLID
  5
C1
330
BD
100
AcDbEntity
  8
치수문자_일반주서
100
AcDbTrace
 10
-55.08805401447646
 20
-7.936425071276123
 30
0.0
 11
-55.59605401447646
 21
-11.23842507127612
 31
0.0
 12
-54.58005401447646
 22
-11.23842507127612
 32
0.0
 13
-54.58005401447646
 23
-11.23842507127612
 33
0.0
  0
LINE
  5
C2
330
BD
100
AcDbEntity
  8
치수문자_일반주서
100
AcDbLine
 10
-65.88093573051917
 20
-6.595745043212554
 30
0.0
 11
-65.88093573051917
 21
-7.306682528777054
 31
0.0
  0
LINE
  5
C3
330
BD
100
AcDbEntity
  8
치수문자_일반주서
100
AcDbLine
 10
-65.88093573051917
 20
-7.306682528777054
 30
0.0
 11
-60.32468573945987
 21
-7.306682528777015
 31
0.0
  0
LINE
  5
C4
330
BD
100
AcDbEntity
  8
치수문자_일반주서
100
AcDbLine
 10
-60.32468573945987
 20
-7.306682528777015
 30
0.0
 11
-60.32468573945987
 21
-6.595745043212514
 31
0.0
  0
LINE
  5
C5
330
BD
100
AcDbEntity
  8
치수문자_일반주서
100
AcDbLine
 10
-65.88093573051925
 20
4.232987818924705
 30
0.0
 11
-65.88093573051925
 21
4.943925304489205
 31
0.0
  0
LINE
  5
C6
330
BD
100
AcDbEntity
  8
치수문자_일반주서
100
AcDbLine
 10
-65.88093573051925
 20
4.943925304489205
 30
0.0
 11
-60.32468573945995
 21
4.943925304489244
 31
0.0
  0
LINE
  5
C7
330
BD
100
AcDbEntity
  8
치수문자_일반주서
100
AcDbLine
 10
-60.32468573945995
 20
4.943925304489244
 30
0.0
 11
-60.32468573945994
 21
4.232987818924744
 31
0.0
  0
LINE
  5
C8
330
BD
100
AcDbEntity
  8
치수문자_일반주서
100
AcDbLine
 10
-41.50055401447643
 20
7.938574928723908
 30
0.0
 11
-56.08805401447646
 21
7.938574928723906
 31
0.0
  0
LINE
  5
C9
330
BD
100
AcDbEntity
  8
치수문자_일반주서
100
AcDbLine
 10
-41.50055401447643
 20
-7.936425071276121
 30
0.0
 11
-56.08805401447646
 21
-7.936425071276123
 31
0.0
  0
LINE
  5
CA
330
BD
100
AcDbEntity
  8
치수문자_일반주서
100
AcDbLine
 10
-55.08805401447646
 20
7.938574928723906
 30
0.0
 11
-55.08805401447646
 21
14.28857492872391
 31
0.0
  0
LINE
  5
CB
330
BD
100
AcDbEntity
  8
치수문자_일반주서
100
AcDbLine
 10
-55.08805401447646
 20
7.938574928723906
 30
0.0
 11
-55.08805401447646
 21
-7.936425071276123
 31
0.0
  0
LINE
  5
CC
330
BD
100
AcDbEntity
  8
치수문자_일반주서
100
AcDbLine
 10
-55.08805401447646
 20
-7.936425071276123
 30
0.0
 11
-55.08805401447646
 21
-14.28642507127612
 31
0.0
  0
MTEXT
  5
CD
330
BD
100
AcDbEntity
  8
치수문자_일반주서
100
AcDbMText
 10
-64.83642265403878
 20
-5.707073142601175
 30
0.0
 40
3.5
 41
0.0
 71
     1
 72
     1
  1
0.63
  7
SLDTEXTSTYLE0
 11
-7.044195017643634E-15
 21
1.0
 31
0.0
 73
     1
 44
1.0
  0
MTEXT
  5
CE
330
BD
100
AcDbEntity
  8
치수문자_일반주서
100
AcDbMText
 10
-59.59979110367827
 20
-9.639347554964907
 30
0.0
 40
3.5
 41
0.0
 71
     1
 72
     1
  1
%%c
  7
SLDTEXTSTYLE0
 11
-7.044195017643634E-15
 21
1.0
 31
0.0
 73
     1
 44
1.0
  0
MTEXT
  5
CF
330
BD
100
AcDbEntity
  8
치수문자_일반주서
100
AcDbMText
 10
-59.59979110367831
 20
-4.360910156590827
 30
0.0
 40
3.5
 41
0.0
 71
     1
 72
     1
  1
15.88
  7
SLDTEXTSTYLE0
 11
-7.044195017643634E-15
 21
1.0
 31
0.0
 73
     1
 44
1.0
  0
ENDBLK
  5
BF
330
BD
100
AcDbEntity
  8
0
100
AcDbBlockEnd
  0
BLOCK
  5
D3
330
D2
100
AcDbEntity
  8
0
100
AcDbBlockBegin
  2
_D_2
 70
     0
 10
0.0
 20
0.0
 30
0.0
  3
_D_2
  1
_D_2
  0
SOLID
  5
D5
330
D2
100
AcDbEntity
  8
치수문자_일반주서
100
AcDbTrace
 10
78.9119459855236
 20
22.33656116902758
 30
0.0
 11
75.60994598552361
 21
22.84456116902758
 31
0.0
 12
75.60994598552361
 22
21.82856116902758
 32
0.0
 13
75.60994598552361
 23
21.82856116902758
 33
0.0
  0
SOLID
  5
D6
330
D2
100
AcDbEntity
  8
치수문자_일반주서
100
AcDbTrace
 10
33.9119459855236
 20
22.3365611690276
 30
0.0
 11
37.2139459855236
 21
21.8285611690276
 31
0.0
 12
37.2139459855236
 22
22.8445611690276
 32
0.0
 13
37.2139459855236
 23
22.8445611690276
 33
0.0
  0
LINE
  5
D7
330
D2
100
AcDbEntity
  8
치수문자_일반주서
100
AcDbLine
 10
50.99757990370091
 20
33.12944288507032
 30
0.0
 11
50.28664241813641
 21
33.12944288507033
 31
0.0
  0
LINE
  5
D8
330
D2
100
AcDbEntity
  8
치수문자_일반주서
100
AcDbLine
 10
50.28664241813641
 20
33.12944288507033
 30
0.0
 11
50.28664241813637
 21
27.57319289401102
 31
0.0
  0
LINE
  5
D9
330
D2
100
AcDbEntity
  8
치수문자_일반주서
100
AcDbLine
 10
50.28664241813637
 20
27.57319289401102
 30
0.0
 11
50.99757990370087
 21
27.57319289401102
 31
0.0
  0
LINE
  5
DA
330
D2
100
AcDbEntity
  8
치수문자_일반주서
100
AcDbLine
 10
61.82631276583817
 20
33.12944288507024
 30
0.0
 11
62.53725025140267
 21
33.12944288507023
 31
0.0
  0
LINE
  5
DB
330
D2
100
AcDbEntity
  8
치수문자_일반주서
100
AcDbLine
 10
62.53725025140267
 20
33.12944288507023
 30
0.0
 11
62.53725025140263
 21
27.57319289401093
 31
0.0
  0
LINE
  5
DC
330
D2
100
AcDbEntity
  8
치수문자_일반주서
100
AcDbLine
 10
62.53725025140263
 20
27.57319289401093
 30
0.0
 11
61.82631276583813
 21
27.57319289401094
 31
0.0
  0
LINE
  5
DD
330
D2
100
AcDbEntity
  8
치수문자_일반주서
100
AcDbLine
 10
78.9119459855236
 20
13.04623741649756
 30
0.0
 11
78.9119459855236
 21
23.33656116902758
 31
0.0
  0
LINE
  5
DE
330
D2
100
AcDbEntity
  8
치수문자_일반주서
100
AcDbLine
 10
33.91194598552359
 20
13.50102630229547
 30
0.0
 11
33.9119459855236
 21
23.3365611690276
 31
0.0
  0
LINE
  5
DF
330
D2
100
AcDbEntity
  8
치수문자_일반주서
100
AcDbLine
 10
78.9119459855236
 20
22.33656116902758
 30
0.0
 11
33.9119459855236
 21
22.3365611690276
 31
0.0
  0
MTEXT
  5
E0
330
D2
100
AcDbEntity
  8
치수문자_일반주서
100
AcDbMText
 10
49.77288369264966
 20
26.90177043488931
 30
0.0
 40
3.5
 41
0.0
 71
     1
 72
     1
  1

  7
SLDTEXTSTYLE0
 73
     1
 44
1.0
  0
MTEXT
  5
E1
330
D2
100
AcDbEntity
  8
치수문자_일반주서
100
AcDbMText
 10
51.88625180431227
 20
32.08492980858991
 30
0.0
 40
3.5
 41
0.0
 71
     1
 72
     1
  1
1.77
  7
SLDTEXTSTYLE0
 73
     1
 44
1.0
  0
MTEXT
  5
E2
330
D2
100
AcDbEntity
  8
치수문자_일반주서
100
AcDbMText
 10
53.82583514124668
 20
26.84829825822942
 30
0.0
 40
3.5
 41
0.0
 71
     1
 72
     1
  1
45
  7
SLDTEXTSTYLE0
 73
     1
 44
1.0
  0
MTEXT
  5
E3
330
D2
100
AcDbEntity
  8
치수문자_일반주서
100
AcDbMText
 10
64.38295349654321
 20
26.9017704348892
 30
0.0
 40
3.5
 41
0.0
 71
     1
 72
     1
  1

  7
SLDTEXTSTYLE0
 73
     1
 44
1.0
  0
ENDBLK
  5
D4
330
D2
100
AcDbEntity
  8
0
100
AcDbBlockEnd
  0
BLOCK
  5
E6
330
E5
100
AcDbEntity
  8
0
100
AcDbBlockBegin
  2
_D_3
 70
     0
 10
0.0
 20
0.0
 30
0.0
  3
_D_3
  1
_D_3
  0
SOLID
  5
E8
330
E5
100
AcDbEntity
  8
치수문자_일반주서
100
AcDbTrace
 10
78.91194598552357
 20
38.36394344956528
 30
0.0
 11
75.60994598552358
 21
38.87194344956529
 31
0.0
 12
75.60994598552358
 22
37.85594344956528
 32
0.0
 13
75.60994598552358
 23
37.85594344956528
 33
0.0
  0
SOLID
  5
E9
330
E5
100
AcDbEntity
  8
치수문자_일반주서
100
AcDbTrace
 10
-42.08805401447642
 20
38.36394344956528
 30
0.0
 11
-38.78605401447642
 21
37.85594344956527
 31
0.0
 12
-38.78605401447642
 22
38.87194344956528
 32
0.0
 13
-38.78605401447642
 23
38.87194344956528
 33
0.0
  0
LINE
  5
EA
330
E5
100
AcDbEntity
  8
치수문자_일반주서
100
AcDbLine
 10
14.47912979228456
 20
49.15682516560803
 30
0.0
 11
13.76819230672006
 21
49.15682516560804
 31
0.0
  0
LINE
  5
EB
330
E5
100
AcDbEntity
  8
치수문자_일반주서
100
AcDbLine
 10
13.76819230672006
 20
49.15682516560804
 30
0.0
 11
13.76819230672002
 21
43.60057517454874
 31
0.0
  0
LINE
  5
EC
330
E5
100
AcDbEntity
  8
치수문자_일반주서
100
AcDbLine
 10
13.76819230672002
 20
43.60057517454874
 30
0.0
 11
14.47912979228452
 21
43.60057517454873
 31
0.0
  0
LINE
  5
ED
330
E5
100
AcDbEntity
  8
치수문자_일반주서
100
AcDbLine
 10
25.30786265442182
 20
49.15682516560796
 30
0.0
 11
26.01880013998632
 21
49.15682516560796
 31
0.0
  0
LINE
  5
EE
330
E5
100
AcDbEntity
  8
치수문자_일반주서
100
AcDbLine
 10
26.01880013998632
 20
49.15682516560796
 30
0.0
 11
26.01880013998629
 21
43.60057517454865
 31
0.0
  0
LINE
  5
EF
330
E5
100
AcDbEntity
  8
치수문자_일반주서
100
AcDbLine
 10
26.01880013998629
 20
43.60057517454865
 30
0.0
 11
25.30786265442179
 21
43.60057517454866
 31
0.0
  0
LINE
  5
F0
330
E5
100
AcDbEntity
  8
치수문자_일반주서
100
AcDbLine
 10
78.91194598552357
 20
13.21639659633511
 30
0.0
 11
78.91194598552357
 21
39.36394344956528
 31
0.0
  0
LINE
  5
F1
330
E5
100
AcDbEntity
  8
치수문자_일반주서
100
AcDbLine
 10
-42.08805401447642
 20
7.351074928723897
 30
0.0
 11
-42.08805401447642
 21
39.36394344956528
 31
0.0
  0
LINE
  5
F2
330
E5
100
AcDbEntity
  8
치수문자_일반주서
100
AcDbLine
 10
78.91194598552357
 20
38.36394344956528
 30
0.0
 11
-42.08805401447642
 21
38.36394344956528
 31
0.0
  0
MTEXT
  5
F3
330
E5
100
AcDbEntity
  8
치수문자_일반주서
100
AcDbMText
 10
13.25443358123332
 20
42.92915271542702
 30
0.0
 40
3.5
 41
0.0
 71
     1
 72
     1
  1

  7
SLDTEXTSTYLE0
 73
     1
 44
1.0
  0
MTEXT
  5
F4
330
E5
100
AcDbEntity
  8
치수문자_일반주서
100
AcDbMText
 10
15.36780169289593
 20
48.11231208912763
 30
0.0
 40
3.5
 41
0.0
 71
     1
 72
     1
  1
4.76
  7
SLDTEXTSTYLE0
 73
     1
 44
1.0
  0
MTEXT
  5
F5
330
E5
100
AcDbEntity
  8
치수문자_일반주서
100
AcDbMText
 10
16.01432954948426
 20
42.87568053876715
 30
0.0
 40
3.5
 41
0.0
 71
     1
 72
     1
  1
121
  7
SLDTEXTSTYLE0
 73
     1
 44
1.0
  0
MTEXT
  5
F6
330
E5
100
AcDbEntity
  8
치수문자_일반주서
100
AcDbMText
 10
27.86450338512689
 20
42.92915271542692
 30
0.0
 40
3.5
 41
0.0
 71
     1
 72
     1
  1

  7
SLDTEXTSTYLE0
 73
     1
 44
1.0
  0
ENDBLK
  5
E7
330
E5
100
AcDbEntity
  8
0
100
AcDbBlockEnd
  0
BLOCK
  5
FF
330
FE
100
AcDbEntity
  8
0
100
AcDbBlockBegin
  2
SW_DOWELSYMBOL_0
 70
     0
 10
0.0
 20
0.0
 30
0.0
  3
SW_DOWELSYMBOL_0
  1
SW_DOWELSYMBOL_0
  0
CIRCLE
  5
101
330
FE
100
AcDbEntity
  8
해칭선
 62
     0
100
AcDbCircle
 10
0.0
 20
0.0
 30
0.0
 40
3.000000000000001
  0
HATCH
  5
102
330
FE
100
AcDbEntity
  8
0
  6
Continuous
 62
     0
370
     0
100
AcDbHatch
 10
0.0
 20
0.0
 30
0.0
210
0.0
220
0.0
230
1.0
  2
SOLID
 70
     1
 71
     0
 91
        1
 92
        0
 93
        3
 72
     2
 10
0.0
 20
0.0
 40
3.000000000000001
 50
0.0
 51
90.0
 73
     1
 72
     1
 10
0.0
 20
3.000000000000001
 11
0.0
 21
0.0
 72
     1
 10
0.0
 20
0.0
 11
3.000000000000001
 21
0.0
 97
        0
 75
     0
 76
     1
 98
        1
 10
0.0
 20
0.0
  0
HATCH
  5
103
330
FE
100
AcDbEntity
  8
0
  6
Continuous
 62
     0
370
     0
100
AcDbHatch
 10
0.0
 20
0.0
 30
0.0
210
0.0
220
0.0
230
1.0
  2
SOLID
 70
     1
 71
     0
 91
        1
 92
        0
 93
        3
 72
     2
 10
0.0
 20
0.0
 40
3.000000000000001
 50
180.0
 51
270.0000000000008
 73
     1
 72
     1
 10
0.0
 20
-3.000000000000001
 11
0.0
 21
0.0
 72
     1
 10
0.0
 20
0.0
 11
-3.000000000000001
 21
0.0
 97
        0
 75
     0
 76
     1
 98
        1
 10
0.0
 20
0.0
  0
ENDBLK
  5
100
330
FE
100
AcDbEntity
  8
0
100
AcDbBlockEnd
  0
BLOCK
  5
181
330
180
100
AcDbEntity
  8
0
100
AcDbBlockBegin
  2
*D8
 70
     1
 10
0.0
 20
0.0
 30
0.0
  3
*D8
  1
*D8
  0
LINE
  5
182
330
180
100
AcDbEntity
  8
치수문자_일반주서
 62
     0
370
    -2
100
AcDbLine
 10
15.72500000000005
 20
41.52899999999993
 30
0.0
 11
4.375000000000002
 21
41.52899999999988
 31
0.0
  0
LINE
  5
183
330
180
100
AcDbEntity
  8
치수문자_일반주서
 62
     0
370
    -2
100
AcDbLine
 10
18.90000000000006
 20
9.77899999999994
 30
0.0
 11
4.375000000000113
 21
9.778999999999884
 31
0.0
  0
LINE
  5
184
330
180
100
AcDbEntity
  8
치수문자_일반주서
 62
     0
370
    -2
100
AcDbLine
 10
4.375000000000013
 20
38.22699999999988
 30
0.0
 11
4.375000000000101
 21
13.08099999999988
 31
0.0
  0
SOLID
  5
185
330
180
100
AcDbEntity
  8
치수문자_일반주서
 62
     0
100
AcDbTrace
 10
4.925333333333347
 20
38.22699999999988
 30
0.0
 11
3.82466666666668
 21
38.22699999999988
 31
0.0
 12
4.375000000000002
 22
41.52899999999988
 32
0.0
 13
4.375000000000002
 23
41.52899999999988
 33
0.0
  0
SOLID
  5
186
330
180
100
AcDbEntity
  8
치수문자_일반주서
 62
     0
100
AcDbTrace
 10
3.824666666666768
 20
13.08099999999988
 30
0.0
 11
4.925333333333435
 21
13.08099999999989
 31
0.0
 12
4.375000000000113
 22
9.778999999999884
 32
0.0
 13
4.375000000000113
 23
9.778999999999884
 33
0.0
  0
MTEXT
  5
187
330
180
100
AcDbEntity
  8
치수문자_일반주서
 62
     0
100
AcDbMText
 10
0.0000000000000568
 20
25.65399999999991
 30
0.0
 40
3.5
 41
0.0
 71
     2
 72
     1
  1
\A1;%%c31.75 [1 1/4]
  7
SLDTEXTSTYLE0
 11
-3.496765431890257E-15
 21
1.0
 31
0.0
 73
     1
 44
1.0
  0
POINT
  5
188
330
180
100
AcDbEntity
  8
Defpoints
 62
     0
100
AcDbPoint
 10
15.78750000000005
 20
41.52899999999993
 30
0.0
  0
POINT
  5
189
330
180
100
AcDbEntity
  8
Defpoints
 62
     0
100
AcDbPoint
 10
18.96250000000006
 20
9.77899999999994
 30
0.0
  0
POINT
  5
18A
330
180
100
AcDbEntity
  8
Defpoints
 62
     0
100
AcDbPoint
 10
4.375000000000114
 20
9.778999999999884
 30
0.0
  0
ENDBLK
  5
18B
330
180
100
AcDbEntity
  8
0
100
AcDbBlockEnd
  0
BLOCK
  5
18E
330
18D
100
AcDbEntity
  8
0
100
AcDbBlockBegin
  2
*D9
 70
     1
 10
0.0
 20
0.0
 30
0.0
  3
*D9
  1
*D9
  0
LINE
  5
18F
330
18D
100
AcDbEntity
  8
치수문자_일반주서
 62
     0
370
    -2
100
AcDbLine
 10
180.8875000000001
 20
44.76649999999993
 30
0.0
 11
180.8875000000001
 21
63.95313953619713
 31
0.0
  0
LINE
  5
190
330
18D
100
AcDbEntity
  8
치수문자_일반주서
 62
     0
370
    -2
100
AcDbLine
 10
79.28750000000008
 20
41.59136653488482
 30
0.0
 11
79.28750000000008
 21
63.95313953619713
 31
0.0
  0
LINE
  5
191
330
18D
100
AcDbEntity
  8
치수문자_일반주서
 62
     0
370
    -2
100
AcDbLine
 10
177.5855000000001
 20
63.95313953619713
 30
0.0
 11
82.58950000000007
 21
63.95313953619713
 31
0.0
  0
SOLID
  5
192
330
18D
100
AcDbEntity
  8
치수문자_일반주서
 62
     0
100
AcDbTrace
 10
177.5855000000001
 20
63.40280620286379
 30
0.0
 11
177.5855000000001
 21
64.50347286953046
 31
0.0
 12
180.8875000000001
 22
63.95313953619713
 32
0.0
 13
180.8875000000001
 23
63.95313953619713
 33
0.0
  0
SOLID
  5
193
330
18D
100
AcDbEntity
  8
치수문자_일반주서
 62
     0
100
AcDbTrace
 10
82.58950000000007
 20
64.50347286953046
 30
0.0
 11
82.58950000000007
 21
63.40280620286379
 31
0.0
 12
79.28750000000008
 22
63.95313953619713
 32
0.0
 13
79.28750000000008
 23
63.95313953619713
 33
0.0
  0
MTEXT
  5
194
330
18D
100
AcDbEntity
  8
치수문자_일반주서
 62
     0
100
AcDbMText
 10
130.0875000000001
 20
68.32813953619713
 30
0.0
 40
3.5
 41
0.0
 71
     2
 72
     1
  1
\A1;101.6 [4]
  7
SLDTEXTSTYLE0
 73
     1
 44
1.0
  0
POINT
  5
195
330
18D
100
AcDbEntity
  8
Defpoints
 62
     0
100
AcDbPoint
 10
180.8875000000001
 20
44.70399999999993
 30
0.0
  0
POINT
  5
196
330
18D
100
AcDbEntity
  8
Defpoints
 62
     0
100
AcDbPoint
 10
79.28750000000008
 20
41.52886653488482
 30
0.0
  0
POINT
  5
197
330
18D
100
AcDbEntity
  8
Defpoints
 62
     0
100
AcDbPoint
 10
79.28750000000008
 20
63.95313953619713
 30
0.0
  0
ENDBLK
  5
198
330
18D
100
AcDbEntity
  8
0
100
AcDbBlockEnd
  0
BLOCK
  5
19B
330
19A
100
AcDbEntity
  8
0
100
AcDbBlockBegin
  2
*D10
 70
     1
 10
0.0
 20
0.0
 30
0.0
  3
*D10
  1
*D10
  0
LINE
  5
19C
330
19A
100
AcDbEntity
  8
치수문자_일반주서
 62
     0
370
    -2
100
AcDbLine
 10
180.8875000000001
 20
44.76649999999993
 30
0.0
 11
180.8875000000001
 21
75.95313953619709
 31
0.0
  0
LINE
  5
19D
330
19A
100
AcDbEntity
  8
치수문자_일반주서
 62
     0
370
    -2
100
AcDbLine
 10
15.78750000000005
 20
38.41649999999996
 30
0.0
 11
15.78750000000005
 21
75.95313953619709
 31
0.0
  0
LINE
  5
19E
330
19A
100
AcDbEntity
  8
치수문자_일반주서
 62
     0
370
    -2
100
AcDbLine
 10
177.5855000000001
 20
75.95313953619709
 30
0.0
 11
19.08950000000005
 21
75.95313953619709
 31
0.0
  0
SOLID
  5
19F
330
19A
100
AcDbEntity
  8
치수문자_일반주서
 62
     0
100
AcDbTrace
 10
177.5855000000001
 20
75.40280620286376
 30
0.0
 11
177.5855000000001
 21
76.50347286953041
 31
0.0
 12
180.8875000000001
 22
75.95313953619709
 32
0.0
 13
180.8875000000001
 23
75.95313953619709
 33
0.0
  0
SOLID
  5
1A0
330
19A
100
AcDbEntity
  8
치수문자_일반주서
 62
     0
100
AcDbTrace
 10
19.08950000000005
 20
76.50347286953041
 30
0.0
 11
19.08950000000005
 21
75.40280620286376
 31
0.0
 12
15.78750000000005
 22
75.95313953619709
 32
0.0
 13
15.78750000000005
 23
75.95313953619709
 33
0.0
  0
MTEXT
  5
1A1
330
19A
100
AcDbEntity
  8
치수문자_일반주서
 62
     0
100
AcDbMText
 10
98.33750000000006
 20
80.32813953619709
 30
0.0
 40
3.5
 41
0.0
 71
     2
 72
     1
  1
\A1;165.1 [6 1/2]
  7
SLDTEXTSTYLE0
 73
     1
 44
1.0
  0
POINT
  5
1A2
330
19A
100
AcDbEntity
  8
Defpoints
 62
     0
100
AcDbPoint
 10
180.8875000000001
 20
44.70399999999993
 30
0.0
  0
POINT
  5
1A3
330
19A
100
AcDbEntity
  8
Defpoints
 62
     0
100
AcDbPoint
 10
15.78750000000005
 20
38.35399999999996
 30
0.0
  0
POINT
  5
1A4
330
19A
100
AcDbEntity
  8
Defpoints
 62
     0
100
AcDbPoint
 10
15.78750000000005
 20
75.95313953619709
 30
0.0
  0
ENDBLK
  5
1A5
330
19A
100
AcDbEntity
  8
0
100
AcDbBlockEnd
  0
BLOCK
  5
1A8
330
1A7
100
AcDbEntity
  8
0
100
AcDbBlockBegin
  2
*D11
 70
     1
 10
0.0
 20
0.0
 30
0.0
  3
*D11
  1
*D11
  0
LINE
  5
1A9
330
1A7
100
AcDbEntity
  8
치수문자_일반주서
 62
     0
370
    -2
100
AcDbLine
 10
180.9500000000001
 20
44.70399999999993
 30
0.0
 11
206.924064420741
 21
44.70400000000003
 31
0.0
  0
LINE
  5
1AA
330
1A7
100
AcDbEntity
  8
치수문자_일반주서
 62
     0
370
    -2
100
AcDbLine
 10
180.9500000000001
 20
6.6039999999999
 30
0.0
 11
206.9240644207412
 21
6.603999999999999
 31
0.0
  0
LINE
  5
1AB
330
1A7
100
AcDbEntity
  8
치수문자_일반주서
 62
     0
370
    -2
100
AcDbLine
 10
206.924064420741
 20
44.70400000000003
 30
0.0
 11
206.9240644207409
 21
82.37050000000002
 31
0.0
  0
LINE
  5
1AC
330
1A7
100
AcDbEntity
  8
치수문자_일반주서
 62
     0
370
    -2
100
AcDbLine
 10
206.924064420741
 20
44.70400000000003
 30
0.0
 11
206.9240644207412
 21
6.603999999999999
 31
0.0
  0
LINE
  5
1AD
330
1A7
100
AcDbEntity
  8
치수문자_일반주서
 62
     0
370
    -2
100
AcDbLine
 10
206.924064420741
 20
48.00600000000003
 30
0.0
 11
206.924064420741
 21
51.30800000000003
 31
0.0
  0
LINE
  5
1AE
330
1A7
100
AcDbEntity
  8
치수문자_일반주서
 62
     0
370
    -2
100
AcDbLine
 10
206.9240644207412
 20
3.302
 30
0.0
 11
206.9240644207412
 21
0.0
 31
0.0
  0
SOLID
  5
1AF
330
1A7
100
AcDbEntity
  8
치수문자_일반주서
 62
     0
100
AcDbTrace
 10
206.3737310874077
 20
48.00600000000003
 30
0.0
 11
207.4743977540744
 21
48.00600000000003
 31
0.0
 12
206.924064420741
 22
44.70400000000003
 32
0.0
 13
206.924064420741
 23
44.70400000000003
 33
0.0
  0
SOLID
  5
1B0
330
1A7
100
AcDbEntity
  8
치수문자_일반주서
 62
     0
100
AcDbTrace
 10
207.4743977540745
 20
3.302000000000002
 30
0.0
 11
206.3737310874079
 21
3.301999999999997
 31
0.0
 12
206.9240644207412
 22
6.603999999999999
 32
0.0
 13
206.9240644207412
 23
6.603999999999999
 33
0.0
  0
MTEXT
  5
1B1
330
1A7
100
AcDbEntity
  8
치수문자_일반주서
 62
     0
100
AcDbMText
 10
202.549064420741
 20
67.933
 30
0.0
 40
3.5
 41
0.0
 71
     2
 72
     1
  1
\A1;%%c38.1 [1 1/2]
  7
SLDTEXTSTYLE0
 11
-3.729883127349604E-15
 21
1.0
 31
0.0
 73
     1
 44
1.0
  0
POINT
  5
1B2
330
1A7
100
AcDbEntity
  8
Defpoints
 62
     0
100
AcDbPoint
 10
180.8875000000001
 20
44.70399999999993
 30
0.0
  0
POINT
  5
1B3
330
1A7
100
AcDbEntity
  8
Defpoints
 62
     0
100
AcDbPoint
 10
180.8875000000001
 20
6.6039999999999
 30
0.0
  0
POINT
  5
1B4
330
1A7
100
AcDbEntity
  8
Defpoints
 62
     0
100
AcDbPoint
 10
206.9240644207412
 20
6.603999999999997
 30
0.0
  0
ENDBLK
  5
1B5
330
1A7
100
AcDbEntity
  8
0
100
AcDbBlockEnd
  0
BLOCK
  5
216
330
215
100
AcDbEntity
  8
0
100
AcDbBlockBegin
  2
*D12
 70
     1
 10
0.0
 20
0.0
 30
0.0
  3
*D12
  1
*D12
  0
LINE
  5
218
330
215
100
AcDbEntity
  8
치수문자_일반주서
 62
     0
370
    -2
100
AcDbLine
 10
-61.56249999999999
 20
15.87607492872388
 30
0.0
 11
-72.91250000000004
 21
15.87607492872384
 31
0.0
  0
LINE
  5
219
330
215
100
AcDbEntity
  8
치수문자_일반주서
 62
     0
370
    -2
100
AcDbLine
 10
-58.38749999999997
 20
-15.8739250712761
 30
0.0
 11
-72.91249999999992
 21
-15.87392507127616
 31
0.0
  0
LINE
  5
21A
330
215
100
AcDbEntity
  8
치수문자_일반주서
 62
     0
370
    -2
100
AcDbLine
 10
-72.91250000000002
 20
12.57407492872384
 30
0.0
 11
-72.91249999999994
 21
-12.57192507127616
 31
0.0
  0
SOLID
  5
21B
330
215
100
AcDbEntity
  8
치수문자_일반주서
 62
     0
100
AcDbTrace
 10
-72.3621666666667
 20
12.57407492872384
 30
0.0
 11
-73.46283333333335
 21
12.57407492872384
 31
0.0
 12
-72.91250000000004
 22
15.87607492872384
 32
0.0
 13
-72.91250000000004
 23
15.87607492872384
 33
0.0
  0
SOLID
  5
21C
330
215
100
AcDbEntity
  8
치수문자_일반주서
 62
     0
100
AcDbTrace
 10
-73.46283333333326
 20
-12.57192507127616
 30
0.0
 11
-72.36216666666661
 21
-12.57192507127615
 31
0.0
 12
-72.91249999999992
 22
-15.87392507127616
 32
0.0
 13
-72.91249999999992
 23
-15.87392507127616
 33
0.0
  0
MTEXT
  5
21D
330
215
100
AcDbEntity
  8
치수문자_일반주서
 62
     0
100
AcDbMText
 10
-77.28749999999998
 20
0.0010749287238725
 30
0.0
 40
3.5
 41
0.0
 71
     2
 72
     1
  1
\A1;%%c31.75 [1 1/4]
  7
SLDTEXTSTYLE0
 11
-3.580687802255623E-15
 21
1.0
 31
0.0
 73
     1
 44
1.0
  0
POINT
  5
21E
330
215
100
AcDbEntity
  8
Defpoints
 62
     0
100
AcDbPoint
 10
-61.49999999999999
 20
15.87607492872388
 30
0.0
  0
POINT
  5
21F
330
215
100
AcDbEntity
  8
Defpoints
 62
     0
100
AcDbPoint
 10
-58.32499999999997
 20
-15.8739250712761
 30
0.0
  0
POINT
  5
220
330
215
100
AcDbEntity
  8
Defpoints
 62
     0
100
AcDbPoint
 10
-72.91249999999992
 20
-15.87392507127616
 30
0.0
  0
ENDBLK
  5
217
330
215
100
AcDbEntity
  8
0
100
AcDbBlockEnd
  0
BLOCK
  5
222
330
221
100
AcDbEntity
  8
0
100
AcDbBlockBegin
  2
*D13
 70
     1
 10
0.0
 20
0.0
 30
0.0
  3
*D13
  1
*D13
  0
LINE
  5
224
330
221
100
AcDbEntity
  8
치수문자_일반주서
 62
     0
370
    -2
100
AcDbLine
 10
103.6
 20
25.46357486522383
 30
0.0
 11
103.6
 21
38.30021446492108
 31
0.0
  0
LINE
  5
225
330
221
100
AcDbEntity
  8
치수문자_일반주서
 62
     0
370
    -2
100
AcDbLine
 10
2.000000000000171
 20
25.44172397647756
 30
0.0
 11
2.000000000000171
 21
38.30021446492108
 31
0.0
  0
LINE
  5
226
330
221
100
AcDbEntity
  8
치수문자_일반주서
 62
     0
370
    -2
100
AcDbLine
 10
100.298
 20
38.30021446492108
 30
0.0
 11
5.30200000000017
 21
38.30021446492108
 31
0.0
  0
SOLID
  5
227
330
221
100
AcDbEntity
  8
치수문자_일반주서
 62
     0
100
AcDbTrace
 10
100.298
 20
37.74988113158775
 30
0.0
 11
100.298
 21
38.85054779825442
 31
0.0
 12
103.6
 22
38.30021446492108
 32
0.0
 13
103.6
 23
38.30021446492108
 33
0.0
  0
SOLID
  5
228
330
221
100
AcDbEntity
  8
치수문자_일반주서
 62
     0
100
AcDbTrace
 10
5.30200000000017
 20
38.85054779825442
 30
0.0
 11
5.30200000000017
 21
37.74988113158775
 31
0.0
 12
2.000000000000171
 22
38.30021446492108
 32
0.0
 13
2.000000000000171
 23
38.30021446492108
 33
0.0
  0
MTEXT
  5
229
330
221
100
AcDbEntity
  8
치수문자_일반주서
 62
     0
100
AcDbMText
 10
52.80000000000007
 20
42.67521446492108
 30
0.0
 40
3.5
 41
0.0
 71
     2
 72
     1
  1
\A1;101.6 [4]
  7
SLDTEXTSTYLE0
 73
     1
 44
1.0
  0
POINT
  5
22A
330
221
100
AcDbEntity
  8
Defpoints
 62
     0
100
AcDbPoint
 10
103.6
 20
25.40107486522383
 30
0.0
  0
POINT
  5
22B
330
221
100
AcDbEntity
  8
Defpoints
 62
     0
100
AcDbPoint
 10
2.000000000000171
 20
25.37922397647756
 30
0.0
  0
POINT
  5
22C
330
221
100
AcDbEntity
  8
Defpoints
 62
     0
100
AcDbPoint
 10
2.000000000000171
 20
38.30021446492108
 30
0.0
  0
ENDBLK
  5
223
330
221
100
AcDbEntity
  8
0
100
AcDbBlockEnd
  0
BLOCK
  5
22E
330
22D
100
AcDbEntity
  8
0
100
AcDbBlockBegin
  2
*D14
 70
     1
 10
0.0
 20
0.0
 30
0.0
  3
*D14
  1
*D14
  0
LINE
  5
230
330
22D
100
AcDbEntity
  8
치수문자_일반주서
 62
     0
370
    -2
100
AcDbLine
 10
103.6
 20
25.46357486522383
 30
0.0
 11
103.6
 21
50.30021446492104
 31
0.0
  0
LINE
  5
231
330
22D
100
AcDbEntity
  8
치수문자_일반주서
 62
     0
370
    -2
100
AcDbLine
 10
-61.49999999999999
 20
12.76357492872391
 30
0.0
 11
-61.49999999999996
 21
50.30021446492104
 31
0.0
  0
LINE
  5
232
330
22D
100
AcDbEntity
  8
치수문자_일반주서
 62
     0
370
    -2
100
AcDbLine
 10
100.298
 20
50.30021446492104
 30
0.0
 11
-58.19799999999996
 21
50.30021446492104
 31
0.0
  0
SOLID
  5
233
330
22D
100
AcDbEntity
  8
치수문자_일반주서
 62
     0
100
AcDbTrace
 10
100.298
 20
49.74988113158771
 30
0.0
 11
100.298
 21
50.85054779825438
 31
0.0
 12
103.6
 22
50.30021446492104
 32
0.0
 13
103.6
 23
50.30021446492104
 33
0.0
  0
SOLID
  5
234
330
22D
100
AcDbEntity
  8
치수문자_일반주서
 62
     0
100
AcDbTrace
 10
-58.19799999999996
 20
50.85054779825438
 30
0.0
 11
-58.19799999999996
 21
49.74988113158771
 31
0.0
 12
-61.49999999999996
 22
50.30021446492104
 32
0.0
 13
-61.49999999999996
 23
50.30021446492104
 33
0.0
  0
MTEXT
  5
235
330
22D
100
AcDbEntity
  8
치수문자_일반주서
 62
     0
100
AcDbMText
 10
21.05000000000001
 20
54.67521446492104
 30
0.0
 40
3.5
 41
0.0
 71
     2
 72
     1
  1
\A1;165.1 [6 1/2]
  7
SLDTEXTSTYLE0
 73
     1
 44
1.0
  0
POINT
  5
236
330
22D
100
AcDbEntity
  8
Defpoints
 62
     0
100
AcDbPoint
 10
103.6
 20
25.40107486522383
 30
0.0
  0
POINT
  5
237
330
22D
100
AcDbEntity
  8
Defpoints
 62
     0
100
AcDbPoint
 10
-61.49999999999999
 20
12.70107492872391
 30
0.0
  0
POINT
  5
238
330
22D
100
AcDbEntity
  8
Defpoints
 62
     0
100
AcDbPoint
 10
-61.49999999999999
 20
50.30021446492104
 30
0.0
  0
ENDBLK
  5
22F
330
22D
100
AcDbEntity
  8
0
100
AcDbBlockEnd
  0
BLOCK
  5
23A
330
239
100
AcDbEntity
  8
0
100
AcDbBlockBegin
  2
*D15
 70
     1
 10
0.0
 20
0.0
 30
0.0
  3
*D15
  1
*D15
  0
LINE
  5
23C
330
239
100
AcDbEntity
  8
치수문자_일반주서
 62
     0
370
    -2
100
AcDbLine
 10
103.6625
 20
25.40107486522383
 30
0.0
 11
138.3154191408661
 21
25.40107486522395
 31
0.0
  0
LINE
  5
23D
330
239
100
AcDbEntity
  8
치수문자_일반주서
 62
     0
370
    -2
100
AcDbLine
 10
103.6625
 20
-25.39892500777621
 30
0.0
 11
138.3154191408663
 21
-25.39892500777608
 31
0.0
  0
LINE
  5
23E
330
239
100
AcDbEntity
  8
치수문자_일반주서
 62
     0
370
    -2
100
AcDbLine
 10
138.3154191408661
 20
25.40107486522395
 30
0.0
 11
138.3154191408659
 21
66.65432478779394
 31
0.0
  0
LINE
  5
23F
330
239
100
AcDbEntity
  8
치수문자_일반주서
 62
     0
370
    -2
100
AcDbLine
 10
138.3154191408661
 20
25.40107486522395
 30
0.0
 11
138.3154191408663
 21
-25.39892500777608
 31
0.0
  0
LINE
  5
240
330
239
100
AcDbEntity
  8
치수문자_일반주서
 62
     0
370
    -2
100
AcDbLine
 10
138.3154191408661
 20
28.70307486522395
 30
0.0
 11
138.3154191408661
 21
32.00507486522395
 31
0.0
  0
LINE
  5
241
330
239
100
AcDbEntity
  8
치수문자_일반주서
 62
     0
370
    -2
100
AcDbLine
 10
138.3154191408663
 20
-28.70092500777608
 30
0.0
 11
138.3154191408663
 21
-32.00292500777608
 31
0.0
  0
SOLID
  5
242
330
239
100
AcDbEntity
  8
치수문자_일반주서
 62
     0
100
AcDbTrace
 10
137.7650858075328
 20
28.70307486522395
 30
0.0
 11
138.8657524741994
 21
28.70307486522396
 31
0.0
 12
138.3154191408661
 22
25.40107486522395
 32
0.0
 13
138.3154191408661
 23
25.40107486522395
 33
0.0
  0
SOLID
  5
243
330
239
100
AcDbEntity
  8
치수문자_일반주서
 62
     0
100
AcDbTrace
 10
138.8657524741996
 20
-28.70092500777607
 30
0.0
 11
137.7650858075329
 21
-28.70092500777608
 31
0.0
 12
138.3154191408663
 22
-25.39892500777608
 32
0.0
 13
138.3154191408663
 23
-25.39892500777608
 33
0.0
  0
MTEXT
  5
244
330
239
100
AcDbEntity
  8
치수문자_일반주서
 62
     0
100
AcDbMText
 10
133.940419140866
 20
56.37307478779393
 30
0.0
 40
3.5
 41
0.0
 71
     2
 72
     1
  1
\A1;%%c50.8 [2]
  7
SLDTEXTSTYLE0
 11
-3.356894823006881E-15
 21
1.0
 31
0.0
 73
     1
 44
1.0
  0
POINT
  5
245
330
239
100
AcDbEntity
  8
Defpoints
 62
     0
100
AcDbPoint
 10
103.6
 20
25.40107486522383
 30
0.0
  0
POINT
  5
246
330
239
100
AcDbEntity
  8
Defpoints
 62
     0
100
AcDbPoint
 10
103.6
 20
-25.39892500777621
 30
0.0
  0
POINT
  5
247
330
239
100
AcDbEntity
  8
Defpoints
 62
     0
100
AcDbPoint
 10
138.3154191408663
 20
-25.39892500777608
 30
0.0
  0
ENDBLK
  5
23B
330
239
100
AcDbEntity
  8
0
100
AcDbBlockEnd
  0
ENDSEC
  0
SECTION
  2
ENTITIES
  0
LINE
  5
9D
330
1F
100
AcDbEntity
  8
참조1
100
AcDbLine
 10
18.41194598552359
 20
0.0010749287238892
 30
0.0
 11
18.4119459855236
 21
-39.99892507127611
 31
0.0
  0
LINE
  5
9E
330
1F
100
AcDbEntity
  8
참조1
100
AcDbLine
 10
18.4119459855236
 20
-39.99892507127611
 30
0.0
 11
3.253089171214916
 21
-39.9989250712761
 31
0.0
  0
INSERT
  5
A0
330
1F
100
AcDbEntity
  8
0
  6
Continuous
 62
     7
100
AcDbBlockReference
 66
     1
  2
블럭10
 10
-148.3100715607148
 20
-46.43633005343916
 30
0.0
  0
ATTRIB
  5
A1
330
A0
100
AcDbEntity
  8
FORMAT
 62
     2
100
AcDbText
 10
-157.4913668494561
 20
-44.36096314060697
 30
0.0
 40
4.233333333333333
  1
E1162901 [ 6 FLUTE ]
 41
0.75
  7
SLDTEXTSTYLE0
 11
-157.4913668494561
 21
-46.47762980727364
 31
0.0
100
AcDbAttribute
  2
AUTOATTR0
 70
     0
 74
     1
  0
SEQEND
  5
A2
330
A0
100
AcDbEntity
  8
0
  6
Continuous
 62
     7
  0
HATCH
  5
A3
330
1F
100
AcDbEntity
  8
중심선
100
AcDbHatch
 10
0.0
 20
0.0
 30
0.0
210
0.0
220
0.0
230
1.0
  2
SOLID
 70
     1
 71
     0
 91
        1
 92
        0
 93
        4
 72
     1
 10
10.18658235777922
 20
-35.7989250712761
 11
6.74030711394194
 21
-35.7989250712761
 72
     1
 10
6.74030711394194
 20
-35.7989250712761
 11
4.612077254737917
 21
-38.3352506518487
 72
     1
 10
4.612077254737917
 20
-38.3352506518487
 11
8.058385583688349
 21
-38.33521122254621
 72
     1
 10
8.058385583688349
 20
-38.33521122254621
 11
10.18658235777922
 21
-35.7989250712761
 97
        0
 75
     0
 76
     1
 98
        1
 10
0.0
 20
0.0
  0
HATCH
  5
A4
330
1F
100
AcDbEntity
  8
중심선
100
AcDbHatch
 10
0.0
 20
0.0
 30
0.0
210
0.0
220
0.0
230
1.0
  2
SOLID
 70
     1
 71
     0
 91
        1
 92
        0
 93
        4
 72
     1
 10
15.1993463488152
 20
-35.7989250712761
 11
11.75307110497792
 21
-35.7989250712761
 72
     1
 10
11.75307110497792
 20
-35.7989250712761
 11
7.221933096620504
 21
-41.19892507127612
 72
     1
 10
7.221933096620504
 20
-41.19892507127612
 11
10.66820834045778
 21
-41.19892507127612
 72
     1
 10
10.66820834045778
 20
-41.19892507127612
 11
15.1993463488152
 21
-35.7989250712761
 97
        0
 75
     0
 76
     1
 98
        1
 10
0.0
 20
0.0
  0
HATCH
  5
A5
330
1F
100
AcDbEntity
  8
중심선
100
AcDbHatch
 10
0.0
 20
0.0
 30
0.0
210
0.0
220
0.0
230
1.0
  2
SOLID
 70
     1
 71
     0
 91
        1
 92
        0
 93
        4
 72
     1
 10
20.21211033985107
 20
-35.7989250712761
 11
16.76583509601396
 21
-35.7989250712761
 72
     1
 10
16.76583509601396
 20
-35.7989250712761
 11
9.717398194124705
 21
-44.19892507127612
 72
     1
 10
9.717398194124705
 20
-44.19892507127612
 11
13.16367343796199
 21
-44.19892507127612
 72
     1
 10
13.16367343796199
 20
-44.19892507127612
 11
20.21211033985107
 21
-35.7989250712761
 97
        0
 75
     0
 76
     1
 98
        1
 10
0.0
 20
0.0
  0
HATCH
  5
A6
330
1F
100
AcDbEntity
  8
중심선
100
AcDbHatch
 10
0.0
 20
0.0
 30
0.0
210
0.0
220
0.0
230
1.0
  2
SOLID
 70
     1
 71
     0
 91
        1
 92
        0
 93
        6
 72
     3
 10
25.01200077086327
 20
-39.99892507132738
 11
3.960054785062284
 21
1.540850780301639E-10
 40
0.3939339440162633
 50
17.09539180608432
 51
320.0019657685075
 73
     0
 72
     1
 10
26.69500042656387
 20
-38.58681907591438
 11
29.0003023002649
 21
-36.65249236586649
 72
     3
 10
25.01200077081042
 20
-39.99892507127625
 11
6.600054785286829
 21
-1.249000902703301E-13
 40
0.6363583540795982
 50
39.99873849337406
 51
368.4976242363725
 73
     1
 72
     1
 10
31.43733326271103
 20
-39.03892507120613
 11
23.69206807764634
 21
-39.0389250712061
 72
     1
 10
23.69206807764634
 20
-39.0389250712061
 11
23.69204303320041
 21
-40.95892507120602
 72
     1
 10
23.69204303320041
 20
-40.95892507120602
 11
28.13342280267245
 21
-40.95892507120599
 97
        0
 75
     0
 76
     1
 98
        1
 10
0.0
 20
0.0
  0
LINE
  5
F7
330
1F
100
AcDbEntity
  8
참조1
100
AcDbLine
 10
101.2254298008692
 20
7.441074928723896
 30
0.0
 11
101.2254298008692
 21
-7.438925071276109
 31
0.0
  0
LINE
  5
F8
330
1F
100
AcDbEntity
  8
참조1
100
AcDbLine
 10
113.9254298008692
 20
5.441074928723896
 30
0.0
 11
101.2254298008692
 21
5.441074928723896
 31
0.0
  0
SOLID
  5
F9
330
1F
100
AcDbEntity
  8
참조1
100
AcDbTrace
 10
101.2254298008692
 20
5.441074928723896
 30
0.0
 11
107.5754298008692
 21
4.425074928723896
 31
0.0
 12
107.5754298008692
 22
6.457074928723896
 32
0.0
 13
107.5754298008692
 23
6.457074928723896
 33
0.0
  0
LINE
  5
FA
330
1F
100
AcDbEntity
  8
참조1
100
AcDbLine
 10
113.9254298008692
 20
-5.438925071276109
 30
0.0
 11
101.2254298008692
 21
-5.438925071276109
 31
0.0
  0
SOLID
  5
FB
330
1F
100
AcDbEntity
  8
참조1
100
AcDbTrace
 10
101.2254298008692
 20
-5.438925071276109
 30
0.0
 11
107.5754298008692
 21
-6.454925071276109
 31
0.0
 12
107.5754298008692
 22
-4.422925071276109
 32
0.0
 13
107.5754298008692
 23
-4.422925071276109
 33
0.0
  0
MTEXT
  5
FC
330
1F
100
AcDbEntity
  8
참조1
100
AcDbMText
 10
110.6229198933395
 20
10.98929157337383
 30
0.0
 40
3.5
 41
0.0
 71
     1
 72
     1
  1
A
  7
SLDTEXTSTYLE0
 73
     1
 44
1.0
  0
MTEXT
  5
FD
330
1F
100
AcDbEntity
  8
참조1
100
AcDbMText
 10
110.6229198933395
 20
0.1092915733738259
 30
0.0
 40
3.5
 41
0.0
 71
     1
 72
     1
  1
A
  7
SLDTEXTSTYLE0
 73
     1
 44
1.0
  0
LINE
  5
1D3
330
1F
100
AcDbEntity
  8
0
  6
Continuous
 62
     1
370
    15
100
AcDbLine
 10
26.87236381939954
 20
25.40107486522383
 30
0.0
 11
20.73421151086546
 21
25.40107486522383
 31
0.0
  0
LINE
  5
1D4
330
1F
100
AcDbEntity
  8
0
  6
Continuous
 62
     1
370
    15
100
AcDbLine
 10
80.07193182543591
 20
25.40107486522383
 30
0.0
 11
73.93242198970523
 21
25.40107486522383
 31
0.0
  0
LINE
  5
1D5
330
1F
100
AcDbEntity
  8
0
  6
Continuous
 62
     1
370
    15
100
AcDbLine
 10
53.47387098173022
 20
25.40107486522383
 30
0.0
 11
47.33230541128455
 21
25.40107486522383
 31
0.0
  0
LINE
  5
1D6
330
1F
100
AcDbEntity
  8
0
  6
Continuous
 62
     1
370
    15
100
AcDbLine
 10
103.6
 20
25.40107486522383
 30
0.0
 11
100.5279152776824
 21
25.40107486522383
 31
0.0
  0
LINE
  5
1D8
330
1F
100
AcDbEntity
  8
외형선
  6
Continuous
370
    15
100
AcDbLine
 10
1.934941096559214
 20
-15.8739250712761
 30
0.0
 11
2.0
 21
-15.8739250712761
 31
0.0
  0
LINE
  5
1D9
330
1F
100
AcDbEntity
  8
외형선
  6
Continuous
370
    15
100
AcDbLine
 10
-58.32499999999999
 20
-15.8739250712761
 30
0.0
 11
0.9999100489983448
 21
-15.8739250712761
 31
0.0
  0
LINE
  5
1DA
330
1F
100
AcDbEntity
  8
외형선
  6
Continuous
370
    15
100
AcDbLine
 10
2.0
 20
15.8760749287239
 30
0.0
 11
1.934941096559214
 21
15.8760749287239
 31
0.0
  0
LINE
  5
1DB
330
1F
100
AcDbEntity
  8
외형선
  6
Continuous
370
    15
100
AcDbLine
 10
-61.49999999999999
 20
-12.69892507127612
 30
0.0
 11
-58.32499999999999
 21
-15.8739250712761
 31
0.0
  0
LINE
  5
1DC
330
1F
100
AcDbEntity
  8
0
  6
Continuous
 62
     1
370
    15
100
AcDbLine
 10
103.6
 20
15.2259761577239
 30
0.0
 11
103.6
 21
25.40107486522383
 31
0.0
  0
SPLINE
  5
1DD
330
1F
100
AcDbEntity
  8
0
  6
Continuous
 62
     1
370
    15
100
AcDbSpline
210
0.0
220
0.0
230
1.0
 70
     8
 71
     3
 72
    13
 73
     9
 74
     0
 42
0.000000001
 43
0.00000001
 40
0.0
 40
0.0
 40
0.0
 40
0.0
 40
0.1279072623673748
 40
0.3022993142516614
 40
0.4766910737269934
 40
0.6510960999490012
 40
0.8255279206195878
 40
1.0
 40
1.0
 40
1.0
 40
1.0
 10
80.07193182543591
 20
25.33631236016581
 30
0.0
 10
81.07504572204812
 20
25.32778931094292
 30
0.0
 10
83.4458309100794
 20
25.30764571715692
 30
0.0
 10
87.1840558713148
 20
24.50366723879324
 30
0.0
 10
91.28694520064175
 20
23.06982835317785
 30
0.0
 10
95.39030569613413
 20
21.00472862063627
 30
0.0
 10
99.4945689564816
 20
18.42685575088717
 30
0.0
 10
102.2314177205961
 20
16.31636200352535
 30
0.0
 10
103.6
 20
15.26099336887334
 30
0.0
  0
SPLINE
  5
1DE
330
1F
100
AcDbEntity
  8
외형선
  6
Continuous
370
    15
100
AcDbSpline
210
0.0
220
0.0
230
1.0
 70
    24
 71
     3
 72
    12
 73
     8
 74
     0
 42
0.000000001
 43
0.00000001
 40
0.0
 40
0.0
 40
0.0
 40
0.0
 40
0.1913016559535283
 40
0.3871701215877004
 40
0.5970948890651402
 40
0.8131074890207399
 40
1.0
 40
1.0
 40
1.0
 40
1.0
 10
2.000000000000057
 20
15.87594146362068
 30
0.0
 10
2.0
 20
15.55919449428897
 30
0.0
 10
1.999999999999943
 20
14.91813907834167
 30
0.0
 10
2.000000000000057
 20
13.91235361389337
 30
0.0
 10
2.0
 20
12.88636788073589
 30
0.0
 10
2.0
 20
11.91159349812642
 30
0.0
 10
2.0
 20
11.3368700307918
 30
0.0
 10
2.0
 20
11.07027745349823
 30
0.0
  0
SPLINE
  5
1DF
330
1F
100
AcDbEntity
  8
0
  6
Continuous
 62
     1
370
    15
100
AcDbSpline
210
0.0
220
0.0
230
1.0
 70
     8
 71
     3
 72
    11
 73
     7
 74
     0
 42
0.000000001
 43
0.00000001
 40
0.0
 40
0.0
 40
0.0
 40
0.0
 40
0.3086210507870028
 40
0.6171708885445392
 40
0.9256733300028794
 40
0.9999999999999999
 40
0.9999999999999999
 40
0.9999999999999999
 40
0.9999999999999999
 10
103.6
 20
25.21571965865739
 30
0.0
 10
102.2314172699229
 20
25.31978033045948
 30
0.0
 10
99.49456760456593
 20
25.52787766249456
 30
0.0
 10
95.390311101995
 20
24.95303037309047
 30
0.0
 10
92.32505014209107
 20
24.21063335103226
 30
0.0
 10
90.62783143789414
 20
23.45923808978819
 30
0.0
 10
90.29831466196197
 20
23.31335391863004
 30
0.0
  0
LINE
  5
1E0
330
1F
100
AcDbEntity
  8
0
  6
Continuous
 62
     1
370
    15
100
AcDbLine
 10
103.6
 20
-25.39892500777621
 30
0.0
 11
103.6
 21
-15.22940309240464
 31
0.0
  0
SPLINE
  5
1E1
330
1F
100
AcDbEntity
  8
0
  6
Continuous
 62
     1
370
    15
100
AcDbSpline
210
0.0
220
0.0
230
1.0
 70
     8
 71
     3
 72
    26
 73
    22
 74
     0
 42
0.000000001
 43
0.00000001
 40
0.0
 40
0.0
 40
0.0
 40
0.0
 40
0.0371984260035301
 40
0.0906876201034111
 40
0.1441888046439761
 40
0.1976923504623193
 40
0.2511833183182287
 40
0.3046657126360986
 40
0.3581436804360314
 40
0.4116213792319868
 40
0.465102967175973
 40
0.5185925931989903
 40
0.5720943871989821
 40
0.6255973924155229
 40
0.6790879053185046
 40
0.7325700231330827
 40
0.7860478935345622
 40
0.8395256742679174
 40
0.893007523290806
 40
0.9464975889155013
 40
1.0
 40
1.0
 40
1.0
 40
1.0
 10
26.87236381939954
 20
25.33092898492303
 30
0.0
 10
27.82367085054778
 20
25.32785086572693
 30
0.0
 10
30.14290260068395
 20
25.32034658841524
 30
0.0
 10
33.8306479199353
 20
24.5453867251267
 30
0.0
 10
37.93596408976038
 20
23.13453207573775
 30
0.0
 10
42.04149732558915
 20
21.09666662972333
 30
0.0
 10
46.1458519146575
 20
18.51563562069768
 30
0.0
 10
50.24927932824653
 20
15.45079251767537
 30
0.0
 10
54.35218289509288
 20
11.98412954453075
 30
0.0
 10
58.45505677952895
 20
8.205238989281707
 30
0.0
 10
62.55838754943454
 20
4.212558071557737
 30
0.0
 10
66.66260495756336
 20
0.1098144968966936
 30
0.0
 10
70.76798126103296
 20
-3.995695441797267
 30
0.0
 10
74.87346505450887
 20
-7.997042618628129
 30
0.0
 10
78.97777375387102
 20
-11.79010974322475
 30
0.0
 10
83.08116821954263
 20
-15.27592141116565
 30
0.0
 10
87.1840609700144
 20
-18.36278914763784
 30
0.0
 10
91.28694383481178
 20
-20.97473142627448
 30
0.0
 10
95.39030606042701
 20
-23.02777756707968
 30
0.0
 10
99.49456886537786
 20
-24.52821472719226
 30
0.0
 10
102.2314176902258
 20
-24.98510053709172
 30
0.0
 10
103.6
 20
-25.21356980120977
 30
0.0
  0
SPLINE
  5
1E2
330
1F
100
AcDbEntity
  8
외형선
  6
Continuous
370
    15
100
AcDbSpline
210
0.0
220
0.0
230
1.0
 70
    24
 71
     3
 72
    15
 73
    11
 74
     0
 42
0.000000001
 43
0.00000001
 40
0.0
 40
0.0
 40
0.0
 40
0.0
 40
0.136047070212487
 40
0.2687060946515817
 40
0.4052122397863714
 40
0.537871264225438
 40
0.6743774093602584
 40
0.8070364337993523
 40
0.9435425789341398
 40
1.0
 40
1.0
 40
1.0
 40
1.0
 10
2.0
 20
-8.110770903907763
 30
0.0
 10
2.0
 20
-8.371363785953406
 30
0.0
 10
1.999999999999886
 20
-8.886059879879738
 30
0.0
 10
2.000000000000114
 20
-9.807093548117209
 30
0.0
 10
2.000000000000057
 20
-10.79397528235737
 30
0.0
 10
2.000000000000057
 20
-11.84752112032039
 30
0.0
 10
2.000000000000057
 20
-12.91606044852178
 30
0.0
 10
2.000000000000057
 20
-13.98812556815405
 30
0.0
 10
1.999999999999943
 20
-14.82332718171281
 30
0.0
 10
2.0
 20
-15.29088498316121
 30
0.0
 10
2.0
 20
-15.42768338603457
 30
0.0
  0
SPLINE
  5
1E3
330
1F
100
AcDbEntity
  8
0
  6
Continuous
 62
     1
370
    15
100
AcDbSpline
210
0.0
220
0.0
230
1.0
 70
     8
 71
     3
 72
    24
 73
    20
 74
     0
 42
0.000000001
 43
0.00000001
 40
0.0
 40
0.0
 40
0.0
 40
0.0
 40
0.0617316686068705
 40
0.1234490928868414
 40
0.185157036761546
 40
0.2468602865991754
 40
0.3085636398968691
 40
0.3702718939063726
 40
0.4319898342609352
 40
0.4937221883838708
 40
0.5554531449918705
 40
0.6171700620546045
 40
0.6788777046936091
 40
0.7405808599909675
 40
0.8022843256680651
 40
0.8639928987100992
 40
0.9257113639943381
 40
0.9874443418695613
 40
0.9999999999999999
 40
0.9999999999999999
 40
0.9999999999999999
 40
0.9999999999999999
 10
103.6
 20
-15.25884351142557
 30
0.0
 10
102.2314176902258
 20
-14.12671462388923
 30
0.0
 10
99.49456886537808
 20
-11.86271808286916
 30
0.0
 10
95.39030606042621
 20
-8.050895678426848
 30
0.0
 10
91.28694383481411
 20
-4.058191697194744
 30
0.0
 10
87.18406097000542
 20
0.0477416123755603
 30
0.0
 10
83.08116821957572
 20
4.150415113686966
 30
0.0
 10
78.97777375374784
 20
8.145711458765964
 30
0.0
 10
74.87346505496805
 20
11.9290381837546
 30
0.0
 10
70.76798125931873
 20
15.40151406638394
 30
0.0
 10
66.66260496396012
 20
18.47280851294569
 30
0.0
 10
62.55838752556895
 20
21.06298338997949
 30
0.0
 10
58.45505686857928
 20
23.10402653327913
 30
0.0
 10
54.35218256277653
 20
24.5442597307921
 30
0.0
 10
50.24928056852201
 20
25.34149925549316
 30
0.0
 10
46.14584728514552
 20
25.49269056524285
 30
0.0
 10
42.04151460791593
 20
24.92763634912686
 30
0.0
 10
39.02613668521661
 20
24.17868467043334
 30
0.0
 10
37.37923760893034
 20
23.44388570277075
 30
0.0
 10
37.10089218641372
 20
23.31969598643424
 30
0.0
  0
SPLINE
  5
1E4
330
1F
100
AcDbEntity
  8
0
  6
Continuous
 62
     1
370
    15
100
AcDbSpline
210
0.0
220
0.0
230
1.0
 70
     8
 71
     3
 72
    29
 73
    25
 74
     0
 42
0.000000001
 43
0.00000001
 40
0.0191630734276345
 40
0.0191630734276345
 40
0.0191630734276345
 40
0.0191630734276345
 40
0.053637270117579
 40
0.0992390128665373
 40
0.1448300145250213
 40
0.1904135568547825
 40
0.2359931738068904
 40
0.2815724086378302
 40
0.3271548055104374
 40
0.3727439010902072
 40
0.4183432161798347
 40
0.4639445437977893
 40
0.509535151158293
 40
0.5551184512513809
 40
0.6006979786020914
 40
0.6462772766794271
 40
0.6918598894962031
 40
0.7374493532061246
 40
0.7830491877409321
 40
0.828650054601389
 40
0.8742402742033395
 40
0.9198233386313515
 40
0.9654027829688948
 40
1.0
 40
1.0
 40
1.0
 40
1.0
 10
2.000000000000199
 20
25.37922397647755
 30
0.0
 10
3.034576716400409
 20
25.32643337052725
 30
0.0
 10
5.437861588310398
 20
24.9288770364521
 30
0.0
 10
9.209520173340053
 20
23.96037771287242
 30
0.0
 10
13.31393045691297
 20
22.22174151885357
 30
0.0
 10
17.41738889497341
 20
19.92052623500273
 30
0.0
 10
21.52030492605053
 20
17.09626039034713
 30
0.0
 10
25.62317049741824
 20
13.82790159183175
 30
0.0
 10
29.7264708312124
 20
10.19897780564335
 30
0.0
 10
33.83064341986159
 20
6.30417581546622
 30
0.0
 10
37.93596529573381
 20
2.24514902131907
 30
0.0
 10
42.04149700253038
 20
-1.872216343725603
 30
0.0
 10
46.14585200118205
 20
-5.940988757974552
 30
0.0
 10
50.24927930512223
 20
-9.854593571336718
 30
0.0
 10
54.35218290107883
 20
-13.51134645120753
 30
0.0
 10
58.45505677870847
 20
-16.81613659477867
 30
0.0
 10
62.55838754672948
 20
-19.68302973845906
 30
0.0
 10
66.66260496920762
 20
-22.03726653533502
 30
0.0
 10
70.76798121715075
 20
-23.8177033040043
 30
0.0
 10
74.87346521837708
 20
-24.97617495508642
 30
0.0
 10
78.97777314247696
 20
-25.4893193518341
 30
0.0
 10
83.08117050084581
 20
-25.31842362813891
 30
0.0
 10
86.85453768204667
 20
-24.62331879134728
 30
0.0
 10
89.26022915642653
 20
-23.70672540037698
 30
0.0
 10
90.29831466196197
 20
-23.31120406118239
 30
0.0
  0
SPLINE
  5
1E5
330
1F
100
AcDbEntity
  8
0
  6
Continuous
 62
     1
370
    15
100
AcDbSpline
210
0.0
220
0.0
230
1.0
 70
     8
 71
     3
 72
    30
 73
    26
 74
     0
 42
0.000000001
 43
0.00000001
 40
0.0
 40
0.0
 40
0.0
 40
0.0
 40
0.0114795748025207
 40
0.0570699102497729
 40
0.1026532425717115
 40
0.1482331074332471
 40
0.193813048720186
 40
0.239396610137063
 40
0.2849873268058912
 40
0.3305886908493117
 40
0.376189022555828
 40
0.4217789833243854
 40
0.467362093125103
 40
0.5129418881502397
 40
0.5585219124512508
 40
0.6041057095357737
 40
0.6496968139673822
 40
0.6952986387733242
 40
0.7408984510289967
 40
0.7864880436633889
 40
0.8320709375175828
 40
0.8776506692956343
 40
0.9232307831990197
 40
0.9688148225228566
 40
1.0
 40
1.0
 40
1.0
 40
1.0
 10
103.6
 20
-25.39892500777621
 30
0.0
 10
100.1833931295445
 20
-25.35524560551606
 30
0.0
 10
98.47062515585804
 20
-25.44836763349263
 30
0.0
 10
95.3903252614947
 20
-24.95651920734677
 30
0.0
 10
91.28693869067223
 20
-23.84841480000112
 30
0.0
 10
87.18406234833651
 20
-22.06630467108251
 30
0.0
 10
83.08116785019081
 20
-19.72358581224242
 30
0.0
 10
78.97777385286042
 20
-16.8632134556154
 30
0.0
 10
74.87346502796788
 20
-13.56425232515033
 30
0.0
 10
70.76798126817539
 20
-9.911748343115015
 30
0.0
 10
66.66260495553746
 20
-6.001020225715461
 30
0.0
 10
62.55838755039719
 20
-1.933844929664112
 30
0.0
 10
58.45505677770404
 20
2.18338377376904
 30
0.0
 10
54.35218290142939
 20
6.243631435898395
 30
0.0
 10
50.24927930472404
 20
10.14129485801249
 30
0.0
 10
46.14585200242402
 20
13.77498593714197
 30
0.0
 10
42.04149699795875
 20
17.05016518356151
 30
0.0
 10
37.93596531278189
 20
19.88105368840948
 30
0.0
 10
33.83064335625164
 20
22.19399886814119
 30
0.0
 10
29.72647106853276
 20
23.92920853600839
 30
0.0
 10
25.62316961189106
 20
25.03932273451815
 30
0.0
 10
21.52030823065752
 20
25.50342245909938
 30
0.0
 10
17.41737656141507
 20
25.28025475130314
 30
0.0
 10
13.74624308602029
 20
24.56840617477195
 30
0.0
 10
11.44248986381461
 20
23.66867979699158
 30
0.0
 10
10.50665964316408
 20
23.30319310921298
 30
0.0
  0
LINE
  5
1E6
330
1F
100
AcDbEntity
  8
0
  6
Continuous
 62
     1
370
    15
100
AcDbLine
 10
103.6
 20
-9.953651361059968
 30
0.0
 11
103.6
 21
9.955801218508071
 31
0.0
  0
SPLINE
  5
1E7
330
1F
100
AcDbEntity
  8
0
  6
Continuous
 62
     1
370
    15
100
AcDbSpline
210
0.0
220
0.0
230
1.0
 70
     8
 71
     3
 72
    20
 73
    16
 74
     0
 42
0.000000001
 43
0.00000001
 40
0.0
 40
0.0
 40
0.0
 40
0.0
 40
0.0175237644289935
 40
0.0993809754567554
 40
0.1812441395232279
 40
0.2631196073115566
 40
0.3450137003713801
 40
0.4269096474154043
 40
0.5087864727326102
 40
0.5906504478610736
 40
0.6725079215618734
 40
0.7543652580095241
 40
0.83622882170409
 40
0.9181049623816441
 40
1.0
 40
1.0
 40
1.0
 40
1.0
 10
53.47387098173022
 20
25.34536290300225
 30
0.0
 10
53.76664366652807
 20
25.36255790084854
 30
0.0
 10
55.42701950187978
 20
25.46007437145999
 30
0.0
 10
58.45505267089413
 20
24.98725618100674
 30
0.0
 10
62.5583886505496
 20
23.90607870651077
 30
0.0
 10
66.6626046624271
 20
22.14569234185854
 30
0.0
 10
70.7679813401246
 20
19.82351834277421
 30
0.0
 10
74.87346503332151
 20
16.98092895857179
 30
0.0
 10
78.97777375954638
 20
13.69696344918426
 30
0.0
 10
83.08116821802207
 20
10.0561375309825
 30
0.0
 10
87.18406097042174
 20
6.153986321125032
 30
0.0
 10
91.28694383470264
 20
2.090222640236674
 30
0.0
 10
95.39030606045611
 20
-2.023110514479606
 30
0.0
 10
99.49456886537058
 20
-6.102687329637302
 30
0.0
 10
102.2314176902235
 20
-8.66989794365741
 30
0.0
 10
103.6
 20
-9.953651361059968
 30
0.0
  0
SPLINE
  5
1E8
330
1F
100
AcDbEntity
  8
외형선
  6
Continuous
370
    15
100
AcDbSpline
210
0.0
220
0.0
230
1.0
 70
    24
 71
     3
 72
    34
 73
    30
 74
     0
 42
0.000000001
 43
0.00000001
 40
0.0
 40
0.0
 40
0.0
 40
0.0
 40
0.1250000000000008
 40
0.1250000000000008
 40
0.1562500000000009
 40
0.1562500000000009
 40
0.187500000000001
 40
0.187500000000001
 40
0.2500000000000008
 40
0.2500000000000008
 40
0.3750000000000007
 40
0.3750000000000007
 40
0.5000000000000004
 40
0.5000000000000004
 40
0.5625000000000003
 40
0.5625000000000003
 40
0.6250000000000002
 40
0.6250000000000002
 40
0.6875000000000002
 40
0.6875000000000002
 40
0.7500000000000002
 40
0.7500000000000002
 40
0.8125000000000001
 40
0.8125000000000001
 40
0.8750000000000001
 40
0.8750000000000001
 40
0.9375
 40
0.9375
 40
1.0
 40
1.0
 40
1.0
 40
1.0
 10
2.000000000000057
 20
7.882133339960333
 30
0.0
 10
2.000000000000057
 20
7.693645381126416
 30
0.0
 10
2.000000000000057
 20
7.445040539208065
 30
0.0
 10
2.000000000000057
 20
7.113623205089951
 30
0.0
 10
2.0
 20
7.046188576176021
 30
0.0
 10
2.0
 20
6.90992754483652
 30
0.0
 10
2.0
 20
6.83972069621688
 30
0.0
 10
2.000000000000057
 20
6.612334664792144
 30
0.0
 10
2.000000000000057
 20
6.442082776035107
 30
0.0
 10
2.000000000000057
 20
5.865686422115182
 30
0.0
 10
2.0
 20
5.392450376432137
 30
0.0
 10
2.0
 20
4.234376160533074
 30
0.0
 10
2.000000000000057
 20
3.546996242094693
 30
0.0
 10
2.0
 20
2.388030790304754
 30
0.0
 10
2.0
 20
1.981313526200587
 30
0.0
 10
2.0
 20
1.145551547363965
 30
0.0
 10
2.000000000000057
 20
0.7165863476612202
 30
0.0
 10
2.000000000000057
 20
-0.1369722011747996
 30
0.0
 10
2.0
 20
-0.5613770735920838
 30
0.0
 10
2.000000000000057
 20
-1.374885614653749
 30
0.0
 10
2.000000000000057
 20
-1.763752036521169
 30
0.0
 10
2.000000000000057
 20
-2.477712424067093
 30
0.0
 10
2.000000000000057
 20
-2.802627064975027
 30
0.0
 10
2.000000000000057
 20
-3.369341227681545
 30
0.0
 10
2.000000000000057
 20
-3.611097739106171
 30
0.0
 10
2.000000000000057
 20
-4.00485174240977
 30
0.0
 10
2.000000000000057
 20
-4.156937904073231
 30
0.0
 10
2.000000000000057
 20
-4.376621730564693
 30
0.0
 10
2.000000000000057
 20
-4.444371053706419
 30
0.0
 10
2.000000000000057
 20
-4.476518570231363
 30
0.0
  0
SPLINE
  5
1E9
330
1F
100
AcDbEntity
  8
0
  6
Continuous
 62
     1
370
    15
100
AcDbSpline
210
0.0
220
0.0
230
1.0
 70
     8
 71
     3
 72
    17
 73
    13
 74
     0
 42
0.000000001
 43
0.00000001
 40
0.0
 40
0.0
 40
0.0
 40
0.0
 40
0.1028915870523125
 40
0.2057594322969877
 40
0.3086114760257513
 40
0.4114556959432481
 40
0.5143000883033576
 40
0.617152648950947
 40
0.7200213543656934
 40
0.8229140840055542
 40
0.9258044843299611
 40
1.0
 40
1.0
 40
1.0
 40
1.0
 10
103.6
 20
9.955801218508071
 30
0.0
 10
102.2314176899621
 20
11.18942583045972
 30
0.0
 10
99.4945688645866
 20
13.65639040059224
 30
0.0
 10
95.39030606359142
 20
16.93182651280397
 30
0.0
 10
91.2869438229472
 20
19.78458321642707
 30
0.0
 10
87.18406101430543
 20
22.11685612871938
 30
0.0
 10
83.0811680542356
 20
23.87485075014738
 30
0.0
 10
78.97777437090133
 20
25.00916507349451
 30
0.0
 10
74.8734627510957
 20
25.49793064090597
 30
0.0
 10
70.76798985959391
 20
25.30090822256546
 30
0.0
 10
67.04393800566532
 20
24.59711969871839
 30
0.0
 10
64.68887971704123
 20
23.68849886127897
 30
0.0
 10
63.70215661613156
 20
23.30780460220261
 30
0.0
  0
SPLINE
  5
1EB
330
1F
100
AcDbEntity
  8
0
  6
Continuous
 62
     1
370
    15
100
AcDbSpline
210
0.0
220
0.0
230
1.0
 70
     8
 71
     3
 72
    25
 73
    21
 74
     0
 42
0.000000001
 43
0.00000001
 40
0.0
 40
0.0
 40
0.0
 40
0.0
 40
0.0351448538892448
 40
0.0807423203176807
 40
0.1263294164598114
 40
0.1719096620645799
 40
0.2174865931020501
 40
0.2630637534009884
 40
0.3086446862463771
 40
0.3542329259796972
 40
0.3998318854137407
 40
0.4454288324239722
 40
0.4910155604550693
 40
0.5365955901268832
 40
0.5821724579212424
 40
0.6277497078169247
 40
0.6733308828864064
 40
0.7189195168972305
 40
0.7645188914407189
 40
0.7989915733304179
 40
0.7989915733304179
 40
0.7989915733304179
 40
0.7989915733304179
 10
80.03384524945182
 20
-25.39698385716302
 30
0.0
 10
72.87760638146676
 20
-25.32586027286494
 30
0.0
 10
70.45425700619705
 20
-25.29249164990641
 30
0.0
 10
66.66259632285028
 20
-24.45957806030956
 30
0.0
 10
62.558389862909
 20
-22.99924114679766
 30
0.0
 10
58.45505615818081
 20
-20.91878922362203
 30
0.0
 10
54.35218306734077
 20
-18.29918058087074
 30
0.0
 10
50.24927926058047
 20
-15.20139929807903
 30
0.0
 10
46.14585201307443
 20
-11.70792178045691
 30
0.0
 10
42.04149699951017
 20
-7.908966680900789
 30
0.0
 10
37.93596529591838
 20
-3.904165467327555
 30
0.0
 10
33.83064342214351
 20
0.2024952359713046
 30
0.0
 10
29.72647082190292
 20
4.303916231781331
 30
0.0
 10
25.62317053236842
 20
8.292919657942424
 30
0.0
 10
21.52030479556657
 20
12.06581902646123
 30
0.0
 10
17.41738938198478
 20
15.52450095024779
 30
0.0
 10
13.31392863905771
 20
18.57895665612757
 30
0.0
 10
9.209526959561146
 20
21.14977777068911
 30
0.0
 10
5.437830598146064
 20
23.00497754708669
 30
0.0
 10
3.034596769307967
 20
23.87750356894317
 30
0.0
 10
2.000000000000171
 20
24.19272405634677
 30
0.0
  0
LINE
  5
1EC
330
1F
100
AcDbEntity
  8
0
  6
Continuous
 62
     1
370
    15
100
AcDbLine
 10
103.6
 20
-21.16559168502617
 30
0.0
 11
103.6
 21
-21.01112901288745
 31
0.0
  0
LINE
  5
1ED
330
1F
100
AcDbEntity
  8
외형선
  6
Continuous
370
    15
100
AcDbLine
 10
2.0
 20
-25.33642799720344
 30
0.0
 11
2.0
 21
-9.91032639715975
 31
0.0
  0
LINE
  5
1EE
330
1F
100
AcDbEntity
  8
외형선
  6
Continuous
370
    15
100
AcDbLine
 10
2.000000000000057
 20
7.882133339960326
 30
0.0
 11
2.0
 21
10.95223974452695
 31
0.0
  0
LINE
  5
1EF
330
1F
100
AcDbEntity
  8
0
  6
Continuous
 62
     1
370
    15
100
AcDbLine
 10
103.6
 20
9.955801218508071
 30
0.0
 11
103.6
 21
15.26099336887334
 31
0.0
  0
LINE
  5
1F0
330
1F
100
AcDbEntity
  8
0
  6
Continuous
 62
     1
370
    15
100
AcDbLine
 10
103.6
 20
-15.25884351142557
 30
0.0
 11
103.6
 21
-9.953651361059968
 31
0.0
  0
LINE
  5
1F1
330
1F
100
AcDbEntity
  8
외형선
  6
Continuous
370
    15
100
AcDbLine
 10
2.000000000000057
 20
-7.992733194936491
 30
0.0
 11
2.0
 21
-4.476518570231377
 31
0.0
  0
LINE
  5
1F2
330
1F
100
AcDbEntity
  8
0
  6
Continuous
 62
     1
370
    15
100
AcDbLine
 10
103.6
 20
15.76022792433027
 30
0.0
 11
103.6
 21
15.87607492872391
 31
0.0
  0
LINE
  5
1F3
330
1F
100
AcDbEntity
  8
외형선
  6
Continuous
370
    15
100
AcDbLine
 10
1.934941096559214
 20
-15.87200844990116
 30
0.0
 11
0.9999100489983448
 21
-15.84638080497571
 31
0.0
  0
LINE
  5
1F4
330
1F
100
AcDbEntity
  8
외형선
  6
Continuous
370
    15
100
AcDbLine
 10
0.9999100489983448
 20
-15.8739250712761
 30
0.0
 11
0.9999100489983448
 21
-15.84637740055858
 31
0.0
  0
LINE
  5
1F5
330
1F
100
AcDbEntity
  8
외형선
  6
Continuous
370
    15
100
AcDbLine
 10
2.000000000000057
 20
15.87594146360878
 30
0.0
 11
2.0
 21
15.8760749287239
 31
0.0
  0
SPLINE
  5
1F6
330
1F
100
AcDbEntity
  8
외형선
  6
Continuous
370
    15
100
AcDbSpline
210
0.0
220
0.0
230
1.0
 70
     8
 71
     3
 72
     8
 73
     4
 74
     0
 42
0.000000001
 43
0.00000001
 40
0.0
 40
0.0
 40
0.0
 40
0.0
 40
1.0
 40
1.0
 40
1.0
 40
1.0
 10
2.0
 20
15.87594146362058
 30
0.0
 10
1.665920430025892
 20
15.87730982860388
 30
0.0
 10
1.332227475752063
 20
15.86814533515137
 30
0.0
 10
0.9999100489983448
 20
15.84853066242351
 30
0.0
  0
LINE
  5
1F7
330
1F
100
AcDbEntity
  8
외형선
  6
Continuous
370
    15
100
AcDbLine
 10
-58.32499999999999
 20
-15.87392507127613
 30
0.0
 11
-58.32499999999999
 21
0.0010749287238951
 31
0.0
  0
LINE
  5
1F8
330
1F
100
AcDbEntity
  8
외형선
  6
Continuous
370
    15
100
AcDbLine
 10
-61.49999999999999
 20
0.0010749287238951
 30
0.0
 11
-61.49999999999999
 21
12.70107492872391
 31
0.0
  0
LINE
  5
1F9
330
1F
100
AcDbEntity
  8
외형선
  6
Continuous
370
    15
100
AcDbLine
 10
-61.49999999999999
 20
-12.69892507127612
 30
0.0
 11
-61.49999999999999
 21
0.0010749287238951
 31
0.0
  0
SPLINE
  5
1FA
330
1F
100
AcDbEntity
  8
외형선
  6
Continuous
370
    15
100
AcDbSpline
210
0.0
220
0.0
230
1.0
 70
    24
 71
     3
 72
    34
 73
    30
 74
     0
 42
0.000000001
 43
0.00000001
 40
0.0
 40
0.0
 40
0.0
 40
0.0
 40
0.0625
 40
0.0625
 40
0.1249999999999999
 40
0.1249999999999999
 40
0.1874999999999999
 40
0.1874999999999999
 40
0.2499999999999998
 40
0.2499999999999998
 40
0.3124999999999998
 40
0.3124999999999998
 40
0.3749999999999998
 40
0.3749999999999998
 40
0.4374999999999997
 40
0.4374999999999997
 40
0.4999999999999997
 40
0.4999999999999997
 40
0.6249999999999996
 40
0.6249999999999996
 40
0.7499999999999996
 40
0.7499999999999996
 40
0.8124999999999994
 40
0.8124999999999994
 40
0.8437499999999994
 40
0.8437499999999994
 40
0.8749999999999994
 40
0.8749999999999994
 40
1.0
 40
1.0
 40
1.0
 40
1.0
 10
2.000000000000057
 20
-4.476518570231363
 30
0.0
 10
2.000000000000057
 20
-4.444371053706448
 30
0.0
 10
2.000000000000057
 20
-4.376621730564807
 30
0.0
 10
2.000000000000057
 20
-4.156937904073672
 30
0.0
 10
2.000000000000057
 20
-4.004851742410452
 30
0.0
 10
2.0
 20
-3.611097739107478
 30
0.0
 10
2.000000000000057
 20
-3.369341227683222
 30
0.0
 10
2.000000000000057
 20
-2.802627064977614
 30
0.0
 10
2.000000000000057
 20
-2.477712424070148
 30
0.0
 10
2.000000000000057
 20
-1.763752036525247
 30
0.0
 10
2.000000000000057
 20
-1.374885614658368
 30
0.0
 10
2.000000000000057
 20
-0.5613770735976829
 30
0.0
 10
2.000000000000057
 20
-0.1369722011808392
 30
0.0
 10
2.000000000000057
 20
0.7165863476544132
 30
0.0
 10
2.000000000000057
 20
1.145551547356845
 30
0.0
 10
2.000000000000057
 20
1.98131352619302
 30
0.0
 10
2.000000000000057
 20
2.388030790297051
 30
0.0
 10
2.000000000000057
 20
3.54699624208682
 30
0.0
 10
2.000000000000057
 20
4.234376160525429
 30
0.0
 10
2.000000000000057
 20
5.392450376425245
 30
0.0
 10
2.0
 20
5.86568642210883
 30
0.0
 10
2.0
 20
6.442082776029586
 30
0.0
 10
2.000000000000057
 20
6.612334664786914
 30
0.0
 10
2.000000000000057
 20
6.839720696212069
 30
0.0
 10
2.000000000000057
 20
6.90992754483193
 30
0.0
 10
2.000000000000057
 20
7.046188576171375
 30
0.0
 10
2.000000000000057
 20
7.11362320508529
 30
0.0
 10
2.000000000000057
 20
7.445040539203404
 30
0.0
 10
2.000000000000057
 20
7.693645381121947
 30
0.0
 10
2.000000000000057
 20
7.882133339956539
 30
0.0
  0
SPLINE
  5
1FB
330
1F
100
AcDbEntity
  8
외형선
  6
Continuous
370
    15
100
AcDbSpline
210
0.0
220
0.0
230
1.0
 70
    24
 71
     3
 72
    15
 73
    11
 74
     0
 42
0.000000001
 43
0.00000001
 40
0.0
 40
0.0
 40
0.0
 40
0.0
 40
0.1334126233543344
 40
0.2675960283849861
 40
0.4017794334156381
 40
0.5359628384462889
 40
0.6701462434769399
 40
0.8043296485075909
 40
0.938513053538242
 40
0.9999999999999999
 40
0.9999999999999999
 40
0.9999999999999999
 40
0.9999999999999999
 10
2.0
 20
-15.42768338603456
 30
0.0
 10
2.0
 20
-15.09905962226284
 30
0.0
 10
2.000000000000057
 20
-14.43991349495315
 30
0.0
 10
2.0
 20
-13.38126450237527
 30
0.0
 10
2.0
 20
-12.30757828780538
 30
0.0
 10
2.0
 20
-11.24520692910932
 30
0.0
 10
2.0
 20
-10.22246678331091
 30
0.0
 10
2.0
 20
-9.279653776667757
 30
0.0
 10
2.0
 20
-8.562994275690613
 30
0.0
 10
2.0
 20
-8.218898631453428
 30
0.0
 10
2.0
 20
-8.110770903907763
 30
0.0
  0
SPLINE
  5
1FC
330
1F
100
AcDbEntity
  8
외형선
  6
Continuous
370
    15
100
AcDbSpline
210
0.0
220
0.0
230
1.0
 70
    24
 71
     3
 72
    12
 73
     8
 74
     0
 42
0.000000001
 43
0.00000001
 40
0.0
 40
0.0
 40
0.0
 40
0.0
 40
0.0982011605824234
 40
0.310801804492462
 40
0.5234024484025613
 40
0.7360030923126601
 40
1.0
 40
1.0
 40
1.0
 40
1.0
 10
2.0
 20
11.07027745349823
 30
0.0
 10
2.0
 20
11.20482430457115
 30
0.0
 10
2.0
 20
11.63065841746992
 30
0.0
 10
2.000000000000057
 20
12.44713997867702
 30
0.0
 10
2.0
 20
13.48218194032096
 30
0.0
 10
2.0
 20
14.64243818904153
 30
0.0
 10
2.0
 20
15.43623921357784
 30
0.0
 10
2.000000000000057
 20
15.87594146360878
 30
0.0
  0
LINE
  5
1FD
330
1F
100
AcDbEntity
  8
중심선
100
AcDbLine
 10
-64.49999999999997
 20
0.0010749287238951
 30
0.0
 11
106.6
 21
0.0010749287239165
 31
0.0
  0
CIRCLE
  5
1FE
330
1F
100
AcDbEntity
  8
해칭선
100
AcDbCircle
 10
0.0
 20
0.0
 30
0.0
 40
3.000000000000001
  0
DIMENSION
  5
1FF
330
1F
100
AcDbEntity
  8
치수문자_일반주서
100
AcDbDimension
  2
*D12
 10
-72.91249999999992
 20
-15.87392507127616
 30
0.0
 11
-72.91249999999998
 21
0.001074928723888
 31
0.0
 70
   160
  1
%%c<>
 71
     2
 42
31.75
 52
-270.0
  3
SLDDIMSTYLE0
100
AcDbAlignedDimension
 13
-61.49999999999999
 23
15.87607492872388
 33
0.0
 14
-58.32499999999997
 24
-15.8739250712761
 34
0.0
 50
90.0000000000002
100
AcDbRotatedDimension
1001
ACAD
1000
DSTYLE
1002
{
1070
   171
1070
     6
1070
   273
1070
     7
1002
}
  0
DIMENSION
  5
200
330
1F
100
AcDbEntity
  8
치수문자_일반주서
100
AcDbDimension
  2
*D13
 10
2.000000000000171
 20
38.30021446492108
 30
0.0
 11
52.80000000000007
 21
38.30021446492108
 31
0.0
 70
   160
  1
<>
 71
     2
 42
101.5999999999999
  3
SLDDIMSTYLE0
100
AcDbAlignedDimension
 13
103.6
 23
25.40107486522383
 33
0.0
 14
2.000000000000171
 24
25.37922397647756
 34
0.0
 50
-0.0000000000000481
100
AcDbRotatedDimension
1001
ACAD
1000
DSTYLE
1002
{
1070
   171
1070
     6
1070
   273
1070
     7
1002
}
  0
DIMENSION
  5
201
330
1F
100
AcDbEntity
  8
치수문자_일반주서
100
AcDbDimension
  2
*D14
 10
-61.49999999999996
 20
50.30021446492104
 30
0.0
 11
21.05000000000001
 21
50.30021446492104
 31
0.0
 70
   160
  1
<>
 71
     2
 42
165.1
  3
SLDDIMSTYLE0
100
AcDbAlignedDimension
 13
103.6
 23
25.40107486522383
 33
0.0
 14
-61.49999999999999
 24
12.70107492872391
 34
0.0
 50
0.0000000000000049
100
AcDbRotatedDimension
1001
ACAD
1000
DSTYLE
1002
{
1070
   171
1070
     6
1070
   273
1070
     7
1002
}
  0
DIMENSION
  5
202
330
1F
100
AcDbEntity
  8
치수문자_일반주서
100
AcDbDimension
  2
*D15
 10
138.3154191408663
 20
-25.39892500777608
 30
0.0
 11
138.315419140866
 21
56.37307478779395
 31
0.0
 70
   160
  1
%%c<>
 71
     2
 42
50.79999987300004
 52
-270.0
  3
SLDDIMSTYLE0
100
AcDbAlignedDimension
 13
103.6
 23
25.40107486522383
 33
0.0
 14
103.6
 24
-25.39892500777621
 34
0.0
 50
90.0000000000002
100
AcDbRotatedDimension
1001
ACAD
1000
DSTYLE
1002
{
1070
   171
1070
     6
1070
   273
1070
     7
1002
}
  0
INSERT
  5
203
330
1F
100
AcDbEntity
  8
해칭선
100
AcDbBlockReference
  2
SW_DOWELSYMBOL_0
 10
0.0
 20
0.0
 30
0.0
  0
LINE
  5
204
330
1F
100
AcDbEntity
  8
외형선
  6
Continuous
370
    15
100
AcDbLine
 10
-39.08132499999998
 20
13.48847492872389
 30
0.0
 11
-25.97492499999997
 21
13.48847492872389
 31
0.0
  0
LINE
  5
205
330
1F
100
AcDbEntity
  8
외형선
  6
Continuous
370
    15
100
AcDbLine
 10
-25.97492499999997
 20
13.48847492872389
 30
0.0
 11
-23.58732499999996
 21
15.87607492872391
 31
0.0
  0
LINE
  5
206
330
1F
100
AcDbEntity
  8
외형선
  6
Continuous
370
    15
100
AcDbLine
 10
-39.08132499999998
 20
13.48847492872389
 30
0.0
 11
-41.468925
 21
15.87607492872391
 31
0.0
  0
LINE
  5
207
330
1F
100
AcDbEntity
  8
외형선
  6
Continuous
370
    15
100
AcDbLine
 10
-48.8
 20
13.48847492872389
 30
0.0
 11
-46.41240000000009
 21
15.87607492872388
 31
0.0
  0
LINE
  5
208
330
1F
100
AcDbEntity
  8
외형선
  6
Continuous
370
    15
100
AcDbLine
 10
-60.71260000000001
 20
13.48847492872389
 30
0.0
 11
-61.49999999999999
 21
12.70107492872391
 31
0.0
  0
LINE
  5
209
330
1F
100
AcDbEntity
  8
외형선
  6
Continuous
370
    15
100
AcDbLine
 10
-58.32499999999999
 20
0.0010749287238951
 30
0.0
 11
-58.32499999999999
 21
13.48847492872389
 31
0.0
  0
LINE
  5
20A
330
1F
100
AcDbEntity
  8
외형선
  6
Continuous
370
    15
100
AcDbLine
 10
-41.468925
 20
15.8760749287239
 30
0.0
 11
-46.41240000000006
 21
15.8760749287239
 31
0.0
  0
LINE
  5
20B
330
1F
100
AcDbEntity
  8
외형선
  6
Continuous
370
    15
100
AcDbLine
 10
0.9999100489983448
 20
15.8760749287239
 30
0.0
 11
-23.58732499999996
 21
15.8760749287239
 31
0.0
  0
LINE
  5
20C
330
1F
100
AcDbEntity
  8
외형선
  6
Continuous
370
    15
100
AcDbLine
 10
-60.71260000000001
 20
13.48847492872389
 30
0.0
 11
-48.8
 21
13.48847492872389
 31
0.0
  0
SPLINE
  5
20D
330
1F
100
AcDbEntity
  8
0
  6
Continuous
 62
     1
370
    15
100
AcDbSpline
210
0.0
220
0.0
230
1.0
 70
     8
 71
     3
 72
    19
 73
    15
 74
     0
 42
0.000000001
 43
0.00000001
 40
0.0
 40
0.0
 40
0.0
 40
0.0
 40
0.0131780503533012
 40
0.0587681728014143
 40
0.1043690153929555
 40
0.1499678454775754
 40
0.1955564561610348
 40
0.2411383682085804
 40
0.2867171182480913
 40
0.3322962504047055
 40
0.3778793078972218
 40
0.4234698246391216
 40
0.4690710823572513
 40
0.5035451871609323
 40
0.5035451871609323
 40
0.5035451871609323
 40
0.5035451871609323
 10
53.14309460829966
 20
-25.39892500777621
 30
0.0
 10
46.93688125692205
 20
-25.35059908941049
 30
0.0
 10
45.17346751889562
 20
-25.43867888919511
 30
0.0
 10
42.04148591718752
 20
-24.92705046188903
 30
0.0
 10
37.93596826559184
 20
-23.79243440533175
 30
0.0
 10
33.83064262662504
 20
-21.98827683800854
 30
0.0
 10
29.7264710350305
 20
-19.62453677550478
 30
0.0
 10
25.62317047518093
 20
-16.74620169719228
 30
0.0
 10
21.5203048112183
 20
-13.43271520079906
 30
0.0
 10
17.41738937656365
 20
-9.769059298213254
 30
0.0
 10
13.31392864508993
 20
-5.850839160642469
 30
0.0
 10
9.209526940849258
 20
-1.779775060955427
 30
0.0
 10
5.437830682296351
 20
2.002604832033145
 30
0.0
 10
3.034596714900033
 20
4.381606763394311
 30
0.0
 10
2.000000000000085
 20
5.392447054560362
 30
0.0
  0
SPLINE
  5
210
330
1F
100
AcDbEntity
  8
0
  6
Continuous
 62
     1
370
    15
100
AcDbSpline
210
0.0
220
0.0
230
1.0
 70
     8
 71
     3
 72
    12
 73
     8
 74
     0
 42
0.000000001
 43
0.00000001
 40
0.0
 40
0.0
 40
0.0
 40
0.0
 40
0.0416216539204289
 40
0.0931125215817198
 40
0.1446118152513567
 40
0.1961232419856894
 40
0.2350653766049557
 40
0.2350653766049557
 40
0.2350653766049557
 40
0.2350653766049557
 10
26.83921873965812
 20
-25.39684265028867
 30
0.0
 10
19.62864065826716
 20
-25.32651644660943
 30
0.0
 10
17.1553489897168
 20
-25.27925884050193
 30
0.0
 10
13.3139274571582
 20
-24.41650454595546
 30
0.0
 10
9.209527259262671
 20
-22.93170791886951
 30
0.0
 10
5.437830633856805
 20
-21.00091771979018
 30
0.0
 10
3.034596697305204
 20
-19.49429900628587
 30
0.0
 10
1.999999999999972
 20
-18.79890176870531
 30
0.0
  0
LINE
  5
214
330
1F
100
AcDbEntity
  8
외형선
  6
Continuous
370
    15
100
AcDbLine
 10
2.0
 20
15.8760749287239
 30
0.0
 11
2.000000000000171
 21
25.37922397647756
 31
0.0
  0
SPLINE
  5
24D
330
1F
100
AcDbEntity
  8
0
  6
Continuous
 62
     1
370
    15
100
AcDbSpline
210
0.0
220
0.0
230
1.0
 70
     8
 71
     3
 72
    23
 73
    19
 74
     0
 42
0.000000001
 43
0.00000001
 40
0.3146248283320441
 40
0.3146248283320441
 40
0.3146248283320441
 40
0.3146248283320441
 40
0.3490978517896653
 40
0.3946976791211698
 40
0.4402867658133597
 40
0.4858683934901422
 40
0.5314460959541497
 40
0.5770234163130394
 40
0.6226038985807809
 40
0.668191079274318
 40
0.7137884790484609
 40
0.7593878912663984
 40
0.8049765836771698
 40
0.8505579691274539
 40
0.8961355819938274
 40
0.9417129655964566
 40
0.9872936637992963
 40
1.0
 40
1.0
 40
1.0
 40
1.0
 10
2.000000000000028
 20
11.17828355107959
 30
0.0
 10
3.034596715783437
 20
10.24940341574434
 30
0.0
 10
5.437830680860543
 20
8.027321800219225
 30
0.0
 10
9.209526941450974
 20
4.364844318977195
 30
0.0
 10
13.31392864389949
 20
0.2642145032768708
 30
0.0
 10
17.41738938072339
 20
-3.842881246214368
 30
0.0
 10
21.52030479577155
 20
-7.849692746693123
 30
0.0
 10
25.62317053281032
 20
-11.65200323545424
 30
0.0
 10
29.72647081993028
 20
-15.15091690266278
 30
0.0
 10
33.83064342959398
 20
-18.25537483775005
 30
0.0
 10
37.93596526808227
 20
-20.88426114745377
 30
0.0
 10
42.04149710339584
 20
-22.96875453271663
 30
0.0
 10
46.14585162549434
 20
-24.45580940510491
 30
0.0
 10
50.2492807067523
 20
-25.30232551578345
 30
0.0
 10
54.35217767063114
 20
-25.50208307690339
 30
0.0
 10
58.45507629954585
 20
-24.99155726759308
 30
0.0
 10
61.57166923760963
 20
-24.23980738926199
 30
0.0
 10
63.32084370377845
 20
-23.47284863149197
 30
0.0
 10
63.70215661613133
 20
-23.30565474475498
 30
0.0
  0
SPLINE
  5
24F
330
1F
100
AcDbEntity
  8
0
  6
Continuous
 62
     1
370
    15
100
AcDbSpline
210
0.0
220
0.0
230
1.0
 70
     8
 71
     3
 72
    16
 73
    12
 74
     0
 42
0.000000001
 43
0.00000001
 40
0.6100997153661993
 40
0.6100997153661993
 40
0.6100997153661993
 40
0.6100997153661993
 40
0.6445737062436132
 40
0.6901748132595514
 40
0.7357651793347566
 40
0.7813480861852292
 40
0.8269270677127722
 40
0.8725056671244743
 40
0.9180874285337619
 40
0.9636758885568254
 40
1.0
 40
1.0
 40
1.0
 40
1.0
 10
2.000000000000057
 20
-14.16308689966128
 30
0.0
 10
3.034596715300864
 20
-15.02170426380586
 30
0.0
 10
5.437830683373477
 20
-16.93416531730884
 30
0.0
 10
9.209526933708673
 20
-19.5844131187986
 30
0.0
 10
13.31392867173722
 20
-21.95908754391053
 30
0.0
 10
17.41738927713405
 20
-23.76183334283569
 30
0.0
 10
21.52030518226076
 20
-24.944240090131
 30
0.0
 10
25.6231690903989
 20
-25.48188163554408
 30
0.0
 10
29.7264762038302
 20
-25.33724933856211
 30
0.0
 10
33.55231304913963
 20
-24.65159433170942
 30
0.0
 10
36.0107145792997
 20
-23.72738607369647
 30
0.0
 10
37.10089218641349
 20
-23.31754612898661
 30
0.0
  0
SPLINE
  5
251
330
1F
100
AcDbEntity
  8
0
  6
Continuous
 62
     1
370
    15
100
AcDbSpline
210
0.0
220
0.0
230
1.0
 70
     8
 71
     3
 72
    10
 73
     6
 74
     0
 42
0.000000001
 43
0.00000001
 40
0.8775595203314871
 40
0.8775595203314871
 40
0.8775595203314871
 40
0.8775595203314871
 40
0.9222352362992978
 40
0.9813309276883572
 40
1.0
 40
1.0
 40
1.0
 40
1.0
 10
2.0
 20
-25.33642799720345
 30
0.0
 10
3.034591821984293
 20
-25.26186523479846
 30
0.0
 10
5.437817218319992
 20
-24.94376409644561
 30
0.0
 10
8.273627903822245
 20
-24.2711936509527
 30
0.0
 10
10.07435670116945
 20
-23.48885915440432
 30
0.0
 10
10.50665964316408
 20
-23.30104325176535
 30
0.0
  0
ENDSEC
  0
SECTION
  2
OBJECTS
  0
DICTIONARY
  5
C
330
0
100
AcDbDictionary
281
     1
  3
ACAD_GROUP
350
D
  3
ACAD_IMAGE_VARS
350
128
  3
ACAD_LAYOUT
350
1A
  3
ACAD_MLINESTYLE
350
17
  3
ACAD_PLOTSETTINGS
350
19
  3
ACAD_PLOTSTYLENAME
350
E
  3
ACAD_SCALELIST
350
47
  3
APPDATA
350
126
  3
DWGPROPS
350
252
  0
DICTIONARY
  5
1CE
330
2
100
AcDbDictionary
280
     1
281
     1
  3
ACAD_LAYERSTATES
360
1CF
  0
DICTIONARY
  5
D
102
{ACAD_REACTORS
330
C
102
}
330
C
100
AcDbDictionary
281
     1
  0
RASTERVARIABLES
  5
128
102
{ACAD_REACTORS
330
C
102
}
330
C
100
AcDbRasterVariables
 90
        0
 70
     1
 71
     1
 72
     1
  0
DICTIONARY
  5
1A
102
{ACAD_REACTORS
330
C
102
}
330
C
100
AcDbDictionary
281
     1
  3
Layout1
350
1E
  3
Layout2
350
26
  3
Model
350
22
  0
DICTIONARY
  5
17
102
{ACAD_REACTORS
330
C
102
}
330
C
100
AcDbDictionary
281
     1
  3
Standard
350
18
  0
DICTIONARY
  5
19
102
{ACAD_REACTORS
330
C
102
}
330
C
100
AcDbDictionary
281
     1
  0
ACDBDICTIONARYWDFLT
  5
E
102
{ACAD_REACTORS
330
C
102
}
330
C
100
AcDbDictionary
281
     1
  3
Normal
350
F
100
AcDbDictionaryWithDefault
340
F
  0
DICTIONARY
  5
47
102
{ACAD_REACTORS
330
C
102
}
330
C
100
AcDbDictionary
281
     1
  3
A0
350
48
  3
A1
350
49
  3
A2
350
4A
  3
A3
350
4B
  3
A4
350
4C
  3
A5
350
4D
  3
A6
350
4E
  3
A7
350
4F
  3
A8
350
50
  3
A9
350
51
  3
B0
350
52
  3
B1
350
53
  3
B2
350
54
  3
B3
350
55
  3
B4
350
56
  3
B5
350
57
  3
B6
350
58
  3
B7
350
59
  3
B8
350
5A
  3
B9
350
5B
  3
C0
350
5C
  3
C1
350
5D
  3
C2
350
5E
  3
C3
350
5F
  3
C4
350
60
  3
C5
350
61
  3
C6
350
62
  3
C7
350
63
  3
C8
350
64
  3
C9
350
65
  3
D0
350
66
  3
D1
350
67
  3
D2
350
68
  0
DICTIONARY
  5
126
102
{ACAD_REACTORS
330
C
102
}
330
C
100
AcDbDictionary
281
     1
  0
XRECORD
  5
252
102
{ACAD_REACTORS
330
C
102
}
330
C
100
AcDbXrecord
280
     1
  1
DWGPROPS COOKIE
  2

  3

  4

  6

  7

  8
12017012
  9

300
=
301
=
302
=
303
=
304
=
305
=
306
=
307
=
308
=
309
=
 40
0.0
 41
2458323.106173565
 42
2458323.309553553
  1

 90
        0
  0
DICTIONARY
  5
1CF
102
{ACAD_REACTORS
330
1CE
102
}
330
1CE
100
AcDbDictionary
281
     1
  0
LAYOUT
  5
1E
102
{ACAD_REACTORS
330
1A
102
}
330
1A
100
AcDbPlotSettings
  1

  2
none_device
  4

  6

 40
0.0
 41
0.0
 42
0.0
 43
0.0
 44
0.0
 45
0.0
 46
0.0
 47
0.0
 48
0.0
 49
0.0
140
0.0
141
0.0
142
1.0
143
1.0
 70
   688
 72
     1
 73
     0
 74
     5
  7

 75
    16
147
1.0
148
0.0
149
0.0
100
AcDbLayout
  1
Layout1
 70
     1
 71
     1
 10
0.0
 20
0.0
 11
420.0
 21
297.0
 12
0.0
 22
0.0
 32
0.0
 14
1.000000000000000E+20
 24
1.000000000000000E+20
 34
1.000000000000000E+20
 15
-1.000000000000000E+20
 25
-1.000000000000000E+20
 35
-1.000000000000000E+20
146
0.0
 13
0.0
 23
0.0
 33
0.0
 16
1.0
 26
0.0
 36
0.0
 17
0.0
 27
1.0
 37
0.0
 76
     0
330
1B
  0
LAYOUT
  5
26
102
{ACAD_REACTORS
330
1A
102
}
330
1A
100
AcDbPlotSettings
  1

  2
none_device
  4

  6

 40
0.0
 41
0.0
 42
0.0
 43
0.0
 44
0.0
 45
0.0
 46
0.0
 47
0.0
 48
0.0
 49
0.0
140
0.0
141
0.0
142
1.0
143
1.0
 70
   688
 72
     1
 73
     0
 74
     5
  7

 75
    16
147
1.0
148
0.0
149
0.0
100
AcDbLayout
  1
Layout2
 70
     1
 71
     2
 10
0.0
 20
0.0
 11
0.0
 21
0.0
 12
0.0
 22
0.0
 32
0.0
 14
0.0
 24
0.0
 34
0.0
 15
0.0
 25
0.0
 35
0.0
146
0.0
 13
0.0
 23
0.0
 33
0.0
 16
1.0
 26
0.0
 36
0.0
 17
0.0
 27
1.0
 37
0.0
 76
     0
330
23
  0
LAYOUT
  5
22
102
{ACAD_REACTORS
330
1A
102
}
330
1A
100
AcDbPlotSettings
  1

  2
none_device
  4
ANSI_A_(11.00_x_8.50_Inches)
  6

 40
6.35
 41
19.05
 42
6.35000508
 43
19.05000254
 44
279.4
 45
215.9
 46
96.39525648754174
 47
90.09827952143297
 48
0.0
 49
0.0
140
0.0
141
0.0
142
0.0605651527843098
143
1.0
 70
  1696
 72
     0
 73
     0
 74
     0
  7

 75
     0
147
0.0235690232323232
148
0.0
149
0.0
100
AcDbLayout
  1
Model
 70
     1
 71
     0
 10
0.0
 20
0.0
 11
420.0
 21
297.0
 12
0.0
 22
0.0
 32
0.0
 14
1.000000000000000E+20
 24
1.000000000000000E+20
 34
1.000000000000000E+20
 15
-1.000000000000000E+20
 25
-1.000000000000000E+20
 35
-1.000000000000000E+20
146
0.0
 13
0.0
 23
0.0
 33
0.0
 16
1.0
 26
0.0
 36
0.0
 17
0.0
 27
1.0
 37
0.0
 76
     0
330
1F
331
29
  0
MLINESTYLE
  5
18
102
{ACAD_REACTORS
330
17
102
}
330
17
100
AcDbMlineStyle
  2
Standard
 70
     0
  3

 62
   256
 51
90.0
 52
90.0
 71
     2
 49
0.5
 62
   256
  6
BYLAYER
 49
-0.5
 62
   256
  6
BYLAYER
  0
ACDBPLACEHOLDER
  5
F
102
{ACAD_REACTORS
330
E
102
}
330
E
  0
SCALE
  5
48
102
{ACAD_REACTORS
330
47
102
}
330
47
100
AcDbScale
 70
     0
300
1:1
140
1.0
141
1.0
290
     1
  0
SCALE
  5
49
102
{ACAD_REACTORS
330
47
102
}
330
47
100
AcDbScale
 70
     0
300
1:2
140
1.0
141
2.0
290
     0
  0
SCALE
  5
4A
102
{ACAD_REACTORS
330
47
102
}
330
47
100
AcDbScale
 70
     0
300
1:4
140
1.0
141
4.0
290
     0
  0
SCALE
  5
4B
102
{ACAD_REACTORS
330
47
102
}
330
47
100
AcDbScale
 70
     0
300
1:5
140
1.0
141
5.0
290
     0
  0
SCALE
  5
4C
102
{ACAD_REACTORS
330
47
102
}
330
47
100
AcDbScale
 70
     0
300
1:8
140
1.0
141
8.0
290
     0
  0
SCALE
  5
4D
102
{ACAD_REACTORS
330
47
102
}
330
47
100
AcDbScale
 70
     0
300
1:10
140
1.0
141
10.0
290
     0
  0
SCALE
  5
4E
102
{ACAD_REACTORS
330
47
102
}
330
47
100
AcDbScale
 70
     0
300
1:16
140
1.0
141
16.0
290
     0
  0
SCALE
  5
4F
102
{ACAD_REACTORS
330
47
102
}
330
47
100
AcDbScale
 70
     0
300
1:20
140
1.0
141
20.0
290
     0
  0
SCALE
  5
50
102
{ACAD_REACTORS
330
47
102
}
330
47
100
AcDbScale
 70
     0
300
1:30
140
1.0
141
30.0
290
     0
  0
SCALE
  5
51
102
{ACAD_REACTORS
330
47
102
}
330
47
100
AcDbScale
 70
     0
300
1:40
140
1.0
141
40.0
290
     0
  0
SCALE
  5
52
102
{ACAD_REACTORS
330
47
102
}
330
47
100
AcDbScale
 70
     0
300
1:50
140
1.0
141
50.0
290
     0
  0
SCALE
  5
53
102
{ACAD_REACTORS
330
47
102
}
330
47
100
AcDbScale
 70
     0
300
1:100
140
1.0
141
100.0
290
     0
  0
SCALE
  5
54
102
{ACAD_REACTORS
330
47
102
}
330
47
100
AcDbScale
 70
     0
300
2:1
140
2.0
141
1.0
290
     0
  0
SCALE
  5
55
102
{ACAD_REACTORS
330
47
102
}
330
47
100
AcDbScale
 70
     0
300
4:1
140
4.0
141
1.0
290
     0
  0
SCALE
  5
56
102
{ACAD_REACTORS
330
47
102
}
330
47
100
AcDbScale
 70
     0
300
8:1
140
8.0
141
1.0
290
     0
  0
SCALE
  5
57
102
{ACAD_REACTORS
330
47
102
}
330
47
100
AcDbScale
 70
     0
300
10:1
140
10.0
141
1.0
290
     0
  0
SCALE
  5
58
102
{ACAD_REACTORS
330
47
102
}
330
47
100
AcDbScale
 70
     0
300
100:1
140
100.0
141
1.0
290
     0
  0
SCALE
  5
59
102
{ACAD_REACTORS
330
47
102
}
330
47
100
AcDbScale
 70
     0
300
1/128" = 1'-0"
140
0.0078125
141
12.0
290
     0
  0
SCALE
  5
5A
102
{ACAD_REACTORS
330
47
102
}
330
47
100
AcDbScale
 70
     0
300
1/64" = 1'-0"
140
0.015625
141
12.0
290
     0
  0
SCALE
  5
5B
102
{ACAD_REACTORS
330
47
102
}
330
47
100
AcDbScale
 70
     0
300
1/32" = 1'-0"
140
0.03125
141
12.0
290
     0
  0
SCALE
  5
5C
102
{ACAD_REACTORS
330
47
102
}
330
47
100
AcDbScale
 70
     0
300
1/16" = 1'-0"
140
0.0625
141
12.0
290
     0
  0
SCALE
  5
5D
102
{ACAD_REACTORS
330
47
102
}
330
47
100
AcDbScale
 70
     0
300
3/32" = 1'-0"
140
0.09375
141
12.0
290
     0
  0
SCALE
  5
5E
102
{ACAD_REACTORS
330
47
102
}
330
47
100
AcDbScale
 70
     0
300
1/8" = 1'-0"
140
0.125
141
12.0
290
     0
  0
SCALE
  5
5F
102
{ACAD_REACTORS
330
47
102
}
330
47
100
AcDbScale
 70
     0
300
3/16" = 1'-0"
140
0.1875
141
12.0
290
     0
  0
SCALE
  5
60
102
{ACAD_REACTORS
330
47
102
}
330
47
100
AcDbScale
 70
     0
300
1/4" = 1'-0"
140
0.25
141
12.0
290
     0
  0
SCALE
  5
61
102
{ACAD_REACTORS
330
47
102
}
330
47
100
AcDbScale
 70
     0
300
3/8" = 1'-0"
140
0.375
141
12.0
290
     0
  0
SCALE
  5
62
102
{ACAD_REACTORS
330
47
102
}
330
47
100
AcDbScale
 70
     0
300
1/2" = 1'-0"
140
0.5
141
12.0
290
     0
  0
SCALE
  5
63
102
{ACAD_REACTORS
330
47
102
}
330
47
100
AcDbScale
 70
     0
300
3/4" = 1'-0"
140
0.75
141
12.0
290
     0
  0
SCALE
  5
64
102
{ACAD_REACTORS
330
47
102
}
330
47
100
AcDbScale
 70
     0
300
1" = 1'-0"
140
1.0
141
12.0
290
     0
  0
SCALE
  5
65
102
{ACAD_REACTORS
330
47
102
}
330
47
100
AcDbScale
 70
     0
300
1-1/2" = 1'-0"
140
1.5
141
12.0
290
     0
  0
SCALE
  5
66
102
{ACAD_REACTORS
330
47
102
}
330
47
100
AcDbScale
 70
     0
300
3" = 1'-0"
140
3.0
141
12.0
290
     0
  0
SCALE
  5
67
102
{ACAD_REACTORS
330
47
102
}
330
47
100
AcDbScale
 70
     0
300
6" = 1'-0"
140
6.0
141
12.0
290
     0
  0
SCALE
  5
68
102
{ACAD_REACTORS
330
47
102
}
330
47
100
AcDbScale
 70
     0
300
1'-0" = 1'-0"
140
12.0
141
12.0
290
     0
  0
ENDSEC
  0
EOF
