  0
SECTION
  2
HEADER
  9
$ACADVER
  1
AC1015
  9
$ACADMAINTVER
 70
     6
  9
$DWGCODEPAGE
  3
ANSI_949
  9
$INSBASE
 10
0.0
 20
0.0
 30
0.0
  9
$EXTMIN
 10
1.000000000000000E+20
 20
1.000000000000000E+20
 30
1.000000000000000E+20
  9
$EXTMAX
 10
-1.000000000000000E+20
 20
-1.000000000000000E+20
 30
-1.000000000000000E+20
  9
$LIMMIN
 10
0.0
 20
0.0
  9
$LIMMAX
 10
420.0
 20
297.0
  9
$ORTHOMODE
 70
     0
  9
$REGENMODE
 70
     1
  9
$FILLMODE
 70
     1
  9
$QTEXTMODE
 70
     0
  9
$MIRRTEXT
 70
     1
  9
$LTSCALE
 40
1.0
  9
$ATTMODE
 70
     1
  9
$TEXTSIZE
 40
3.5
  9
$TRACEWID
 40
1.0
  9
$TEXTSTYLE
  7
Standard
  9
$CLAYER
  8
0
  9
$CELTYPE
  6
ByLayer
  9
$CECOLOR
 62
   256
  9
$CELTSCALE
 40
1.0
  9
$DISPSILH
 70
     0
  9
$DIMSCALE
 40
1.0
  9
$DIMASZ
 40
3.302
  9
$DIMEXO
 40
1.0
  9
$DIMDLI
 40
3.75
  9
$DIMRND
 40
0.0
  9
$DIMDLE
 40
0.0
  9
$DIMEXE
 40
1.0
  9
$DIMTP
 40
0.0
  9
$DIMTM
 40
0.0
  9
$DIMTXT
 40
3.5
  9
$DIMCEN
 40
2.5
  9
$DIMTSZ
 40
0.0
  9
$DIMTOL
 70
     0
  9
$DIMLIM
 70
     0
  9
$DIMTIH
 70
     1
  9
$DIMTOH
 70
     1
  9
$DIMSE1
 70
     0
  9
$DIMSE2
 70
     0
  9
$DIMTAD
 70
     1
  9
$DIMZIN
 70
     0
  9
$DIMBLK
  1

  9
$DIMASO
 70
     1
  9
$DIMSHO
 70
     1
  9
$DIMPOST
  1

  9
$DIMAPOST
  1

  9
$DIMALT
 70
     0
  9
$DIMALTD
 70
     3
  9
$DIMALTF
 40
0.0393700787401575
  9
$DIMLFAC
 40
1.0
  9
$DIMTOFL
 70
     1
  9
$DIMTVP
 40
0.0
  9
$DIMTIX
 70
     0
  9
$DIMSOXD
 70
     0
  9
$DIMSAH
 70
     0
  9
$DIMBLK1
  1

  9
$DIMBLK2
  1

  9
$DIMSTYLE
  2
ISO-25
  9
$DIMCLRD
 70
     0
  9
$DIMCLRE
 70
     0
  9
$DIMCLRT
 70
     0
  9
$DIMTFAC
 40
1.0
  9
$DIMGAP
 40
1.524
  9
$DIMJUST
 70
     0
  9
$DIMSD1
 70
     0
  9
$DIMSD2
 70
     0
  9
$DIMTOLJ
 70
     0
  9
$DIMTZIN
 70
     0
  9
$DIMALTZ
 70
     0
  9
$DIMALTTZ
 70
     0
  9
$DIMUPT
 70
     0
  9
$DIMDEC
 70
     2
  9
$DIMTDEC
 70
     2
  9
$DIMALTU
 70
     2
  9
$DIMALTTD
 70
     3
  9
$DIMTXSTY
  7
Standard
  9
$DIMAUNIT
 70
     0
  9
$DIMADEC
 70
     2
  9
$DIMALTRND
 40
0.0
  9
$DIMAZIN
 70
     0
  9
$DIMDSEP
 70
    44
  9
$DIMATFIT
 70
     3
  9
$DIMFRAC
 70
     0
  9
$DIMLDRBLK
  1

  9
$DIMLUNIT
 70
     2
  9
$DIMLWD
 70
    -2
  9
$DIMLWE
 70
    -2
  9
$DIMTMOVE
 70
     0
  9
$LUNITS
 70
     2
  9
$LUPREC
 70
     2
  9
$SKETCHINC
 40
1.0
  9
$FILLETRAD
 40
10.0
  9
$AUNITS
 70
     0
  9
$AUPREC
 70
     2
  9
$MENU
  1
.
  9
$ELEVATION
 40
0.0
  9
$PELEVATION
 40
0.0
  9
$THICKNESS
 40
0.0
  9
$LIMCHECK
 70
     0
  9
$CHAMFERA
 40
0.0
  9
$CHAMFERB
 40
0.0
  9
$CHAMFERC
 40
0.0
  9
$CHAMFERD
 40
0.0
  9
$SKPOLY
 70
     0
  9
$TDCREATE
 40
2458323.440897697
  9
$TDUCREATE
 40
2458323.065897697
  9
$TDUPDATE
 40
2458323.679533785
  9
$TDUUPDATE
 40
2458323.304533785
  9
$TDINDWG
 40
0.0005893056
  9
$TDUSRTIMER
 40
2458323.303944965
  9
$USRTIMER
 70
     1
  9
$ANGBASE
 50
0.0
  9
$ANGDIR
 70
     0
  9
$PDMODE
 70
     0
  9
$PDSIZE
 40
-1.0
  9
$PLINEWID
 40
0.0
  9
$SPLFRAME
 70
     0
  9
$SPLINETYPE
 70
     6
  9
$SPLINESEGS
 70
     8
  9
$HANDSEED
  5
621
  9
$SURFTAB1
 70
     6
  9
$SURFTAB2
 70
     6
  9
$SURFTYPE
 70
     6
  9
$SURFU
 70
     6
  9
$SURFV
 70
     6
  9
$UCSBASE
  2

  9
$UCSNAME
  2

  9
$UCSORG
 10
0.0
 20
0.0
 30
0.0
  9
$UCSXDIR
 10
1.0
 20
0.0
 30
0.0
  9
$UCSYDIR
 10
0.0
 20
1.0
 30
0.0
  9
$UCSORTHOREF
  2

  9
$UCSORTHOVIEW
 70
     0
  9
$UCSORGTOP
 10
0.0
 20
0.0
 30
0.0
  9
$UCSORGBOTTOM
 10
0.0
 20
0.0
 30
0.0
  9
$UCSORGLEFT
 10
0.0
 20
0.0
 30
0.0
  9
$UCSORGRIGHT
 10
0.0
 20
0.0
 30
0.0
  9
$UCSORGFRONT
 10
0.0
 20
0.0
 30
0.0
  9
$UCSORGBACK
 10
0.0
 20
0.0
 30
0.0
  9
$PUCSBASE
  2

  9
$PUCSNAME
  2

  9
$PUCSORG
 10
0.0
 20
0.0
 30
0.0
  9
$PUCSXDIR
 10
1.0
 20
0.0
 30
0.0
  9
$PUCSYDIR
 10
0.0
 20
1.0
 30
0.0
  9
$PUCSORTHOREF
  2

  9
$PUCSORTHOVIEW
 70
     0
  9
$PUCSORGTOP
 10
0.0
 20
0.0
 30
0.0
  9
$PUCSORGBOTTOM
 10
0.0
 20
0.0
 30
0.0
  9
$PUCSORGLEFT
 10
0.0
 20
0.0
 30
0.0
  9
$PUCSORGRIGHT
 10
0.0
 20
0.0
 30
0.0
  9
$PUCSORGFRONT
 10
0.0
 20
0.0
 30
0.0
  9
$PUCSORGBACK
 10
0.0
 20
0.0
 30
0.0
  9
$USERI1
 70
     0
  9
$USERI2
 70
     0
  9
$USERI3
 70
     0
  9
$USERI4
 70
     0
  9
$USERI5
 70
     0
  9
$USERR1
 40
0.0
  9
$USERR2
 40
0.0
  9
$USERR3
 40
0.0
  9
$USERR4
 40
0.0
  9
$USERR5
 40
0.0
  9
$WORLDVIEW
 70
     1
  9
$SHADEDGE
 70
     3
  9
$SHADEDIF
 70
    70
  9
$TILEMODE
 70
     1
  9
$MAXACTVP
 70
    64
  9
$PINSBASE
 10
0.0
 20
0.0
 30
0.0
  9
$PLIMCHECK
 70
     0
  9
$PEXTMIN
 10
1.000000000000000E+20
 20
1.000000000000000E+20
 30
1.000000000000000E+20
  9
$PEXTMAX
 10
-1.000000000000000E+20
 20
-1.000000000000000E+20
 30
-1.000000000000000E+20
  9
$PLIMMIN
 10
0.0
 20
0.0
  9
$PLIMMAX
 10
0.0
 20
0.0
  9
$UNITMODE
 70
     0
  9
$VISRETAIN
 70
     1
  9
$PLINEGEN
 70
     0
  9
$PSLTSCALE
 70
     1
  9
$TREEDEPTH
 70
  3020
  9
$CMLSTYLE
  2
Standard
  9
$CMLJUST
 70
     0
  9
$CMLSCALE
 40
20.0
  9
$PROXYGRAPHICS
 70
     1
  9
$MEASUREMENT
 70
     1
  9
$CELWEIGHT
370
    -1
  9
$ENDCAPS
280
     0
  9
$JOINSTYLE
280
     0
  9
$LWDISPLAY
290
     1
  9
$INSUNITS
 70
     4
  9
$HYPERLINKBASE
  1

  9
$STYLESHEET
  1

  9
$XEDIT
290
     1
  9
$CEPSNTYPE
380
     0
  9
$PSTYLEMODE
290
     1
  9
$FINGERPRINTGUID
  2
{280F44C4-1CB2-4493-B94A-0906A6AAD19B}
  9
$VERSIONGUID
  2
{FAEB1C32-E019-11D5-929B-00C0DF256EC4}
  9
$EXTNAMES
290
     1
  9
$PSVPSCALE
 40
0.0
  9
$OLESTARTUP
290
     0
  0
ENDSEC
  0
SECTION
  2
CLASSES
  0
CLASS
  1
ACDBDICTIONARYWDFLT
  2
AcDbDictionaryWithDefault
  3
ObjectDBX Classes
 90
        0
280
     0
281
     0
  0
CLASS
  1
VISUALSTYLE
  2
AcDbVisualStyle
  3
ObjectDBX Classes
 90
     4095
280
     0
281
     0
  0
CLASS
  1
MATERIAL
  2
AcDbMaterial
  3
ObjectDBX Classes
 90
     1153
280
     0
281
     0
  0
CLASS
  1
SCALE
  2
AcDbScale
  3
ObjectDBX Classes
 90
     1153
280
     0
281
     0
  0
CLASS
  1
SUN
  2
AcDbSun
  3
SCENEOE
 90
     1153
280
     0
281
     0
  0
CLASS
  1
ACDBPLACEHOLDER
  2
AcDbPlaceHolder
  3
ObjectDBX Classes
 90
        0
280
     0
281
     0
  0
CLASS
  1
LAYOUT
  2
AcDbLayout
  3
ObjectDBX Classes
 90
        0
280
     0
281
     0
  0
CLASS
  1
TABLESTYLE
  2
AcDbTableStyle
  3
ObjectDBX Classes
 90
     4095
280
     0
281
     0
  0
CLASS
  1
MLEADERSTYLE
  2
AcDbMLeaderStyle
  3
ACDB_MLEADERSTYLE_CLASS
 90
     4095
280
     0
281
     0
  0
CLASS
  1
RASTERVARIABLES
  2
AcDbRasterVariables
  3
ISM
 90
        0
280
     0
281
     0
  0
ENDSEC
  0
SECTION
  2
TABLES
  0
TABLE
  2
VPORT
  5
8
330
0
100
AcDbSymbolTable
 70
     1
  0
VPORT
  5
29
330
8
100
AcDbSymbolTableRecord
100
AcDbViewportTableRecord
  2
*Active
 70
     0
 10
0.0
 20
0.0
 11
1.0
 21
1.0
 12
58.58303816978226
 22
24.79645430472376
 13
0.0
 23
0.0
 14
10.0
 24
10.0
 15
10.0
 25
10.0
 16
0.0
 26
0.0
 36
1.0
 17
0.0
 27
0.0
 37
0.0
 40
193.0547518681485
 41
1.632093933463796
 42
50.0
 43
0.0
 44
0.0
 50
0.0
 51
0.0
 71
    16
 72
  2000
 73
     1
 74
     3
 75
     0
 76
     0
 77
     0
 78
     0
281
     0
 65
     1
110
0.0
120
0.0
130
0.0
111
1.0
121
0.0
131
0.0
112
0.0
122
1.0
132
0.0
 79
     0
146
0.0
  0
ENDTAB
  0
TABLE
  2
LTYPE
  5
5
330
0
100
AcDbSymbolTable
 70
     6
  0
LTYPE
  5
14
330
5
100
AcDbSymbolTableRecord
100
AcDbLinetypeTableRecord
  2
ByBlock
 70
     0
  3

 72
    65
 73
     0
 40
0.0
  0
LTYPE
  5
15
330
5
100
AcDbSymbolTableRecord
100
AcDbLinetypeTableRecord
  2
ByLayer
 70
     0
  3

 72
    65
 73
     0
 40
0.0
  0
LTYPE
  5
16
330
5
100
AcDbSymbolTableRecord
100
AcDbLinetypeTableRecord
  2
Continuous
 70
     0
  3
Solid line
 72
    65
 73
     0
 40
0.0
  0
LTYPE
  5
6A
330
5
100
AcDbSymbolTableRecord
100
AcDbLinetypeTableRecord
  2
HIDDEN
 70
     0
  3
Hidden __ __ __ __ __ __ __ __ __ __ __ __ __ __
 72
    65
 73
     2
 40
1.905
 49
1.27
 74
     0
 49
-0.635
 74
     0
  0
LTYPE
  5
6B
330
5
100
AcDbSymbolTableRecord
100
AcDbLinetypeTableRecord
  2
PHANTOM
 70
     0
  3
Phantom ______  __  __  ______  __  __  ______
 72
    65
 73
     6
 40
12.7
 49
6.35
 74
     0
 49
-1.27
 74
     0
 49
1.27
 74
     0
 49
-1.27
 74
     0
 49
1.27
 74
     0
 49
-1.27
 74
     0
  0
LTYPE
  5
6C
330
5
100
AcDbSymbolTableRecord
100
AcDbLinetypeTableRecord
  2
CENTER
 70
     0
  3
Center ____ _ ____ _ ____ _ ____ _ ____ _ ____
 72
    65
 73
     4
 40
10.16
 49
6.35
 74
     0
 49
-1.27
 74
     0
 49
1.27
 74
     0
 49
-1.27
 74
     0
  0
LTYPE
  5
6D
330
5
100
AcDbSymbolTableRecord
100
AcDbLinetypeTableRecord
  2
CENTERX2
 70
     0
  3
Center (2x) ________  __  ________  __  _____
 72
    65
 73
     4
 40
20.32
 49
12.7
 74
     0
 49
-2.54
 74
     0
 49
2.54
 74
     0
 49
-2.54
 74
     0
  0
LTYPE
  5
6E
330
5
100
AcDbSymbolTableRecord
100
AcDbLinetypeTableRecord
  2
DOT2
 70
     0
  3
Dot (.5x) ........................................
 72
    65
 73
     2
 40
0.635
 49
0.0
 74
     0
 49
-0.635
 74
     0
  0
ENDTAB
  0
TABLE
  2
LAYER
  5
2
102
{ACAD_XDICTIONARY
360
225
102
}
330
0
100
AcDbSymbolTable
 70
    18
  0
LAYER
  5
10
330
2
100
AcDbSymbolTableRecord
100
AcDbLayerTableRecord
  2
0
 70
     0
 62
     7
  6
Continuous
370
    -3
390
F
  0
LAYER
  5
6F
330
2
100
AcDbSymbolTableRecord
100
AcDbLayerTableRecord
  2
FORMAT
 70
     0
 62
     2
  6
Continuous
370
    -3
390
F
  0
LAYER
  5
70
330
2
100
AcDbSymbolTableRecord
100
AcDbLayerTableRecord
  2
외형선
 70
     0
 62
     4
  6
Continuous
370
    30
390
F
  0
LAYER
  5
71
330
2
100
AcDbSymbolTableRecord
100
AcDbLayerTableRecord
  2
숨은선
 70
     0
 62
     2
  6
HIDDEN
370
    15
390
F
  0
LAYER
  5
72
330
2
100
AcDbSymbolTableRecord
100
AcDbLayerTableRecord
  2
중심선
 70
     0
 62
     1
  6
CENTERX2
370
    -3
390
F
  0
LAYER
  5
73
330
2
100
AcDbSymbolTableRecord
100
AcDbLayerTableRecord
  2
파단선
 70
     0
 62
     4
  6
Continuous
370
    -3
390
F
  0
LAYER
  5
74
330
2
100
AcDbSymbolTableRecord
100
AcDbLayerTableRecord
  2
해칭선
 70
     0
 62
   100
  6
Continuous
370
    -3
390
F
  0
LAYER
  5
75
330
2
100
AcDbSymbolTableRecord
100
AcDbLayerTableRecord
  2
가는실선
 70
     0
 62
     4
  6
Continuous
370
    -3
390
F
  0
LAYER
  5
76
330
2
100
AcDbSymbolTableRecord
100
AcDbLayerTableRecord
  2
치수_보조선
 70
     0
 62
     4
  6
Continuous
370
    -3
390
F
  0
LAYER
  5
77
330
2
100
AcDbSymbolTableRecord
100
AcDbLayerTableRecord
  2
치수문자_일반주서
 70
     0
 62
     7
  6
Continuous
370
    15
390
F
  0
LAYER
  5
78
330
2
100
AcDbSymbolTableRecord
100
AcDbLayerTableRecord
  2
개별주서
 70
     0
 62
   100
  6
Continuous
370
    30
390
F
  0
LAYER
  5
79
330
2
100
AcDbSymbolTableRecord
100
AcDbLayerTableRecord
  2
중간선
 70
     0
 62
     2
  6
Continuous
370
    15
390
F
  0
LAYER
  5
7A
330
2
100
AcDbSymbolTableRecord
100
AcDbLayerTableRecord
  2
윤곽선
 70
     0
 62
     3
  6
Continuous
370
    40
390
F
  0
LAYER
  5
7B
330
2
100
AcDbSymbolTableRecord
100
AcDbLayerTableRecord
  2
중심마크
 70
     0
 62
   100
  6
Continuous
370
    30
390
F
  0
LAYER
  5
7C
330
2
100
AcDbSymbolTableRecord
100
AcDbLayerTableRecord
  2
가상선
 70
     0
 62
     4
  6
PHANTOM
370
    -3
390
F
  0
LAYER
  5
7D
330
2
100
AcDbSymbolTableRecord
100
AcDbLayerTableRecord
  2
특수지정선
 70
     0
 62
     5
  6
CENTERX2
370
    60
390
F
  0
LAYER
  5
7E
330
2
100
AcDbSymbolTableRecord
100
AcDbLayerTableRecord
  2
참조1
 70
     0
 62
    -4
  6
Continuous
370
    -3
390
F
  0
LAYER
  5
169
330
2
100
AcDbSymbolTableRecord
100
AcDbLayerTableRecord
  2
Defpoints
 70
     0
 62
     7
  6
Continuous
290
     0
370
    -3
390
F
  0
ENDTAB
  0
TABLE
  2
STYLE
  5
3
330
0
100
AcDbSymbolTable
 70
     2
  0
STYLE
  5
11
330
3
100
AcDbSymbolTableRecord
100
AcDbTextStyleTableRecord
  2
Standard
 70
     0
 40
0.0
 41
1.0
 50
0.0
 71
     0
 42
3.5
  3
txt
  4

  0
STYLE
  5
94
330
3
100
AcDbSymbolTableRecord
100
AcDbTextStyleTableRecord
  2
SLDTEXTSTYLE0
 70
     0
 40
0.0
 41
0.75
 50
0.0
 71
     0
 42
3.5
  3
TXT
  4

  0
ENDTAB
  0
TABLE
  2
VIEW
  5
6
330
0
100
AcDbSymbolTable
 70
     0
  0
ENDTAB
  0
TABLE
  2
UCS
  5
7
330
0
100
AcDbSymbolTable
 70
     0
  0
ENDTAB
  0
TABLE
  2
APPID
  5
9
330
0
100
AcDbSymbolTable
 70
     1
  0
APPID
  5
12
330
9
100
AcDbSymbolTableRecord
100
AcDbRegAppTableRecord
  2
ACAD
 70
     0
  0
ENDTAB
  0
TABLE
  2
DIMSTYLE
  5
A
330
0
100
AcDbSymbolTable
 70
     3
100
AcDbDimStyleTable
  0
DIMSTYLE
105
27
330
A
100
AcDbSymbolTableRecord
100
AcDbDimStyleTableRecord
  2
ISO-25
 70
     0
 41
2.5
 42
0.625
 43
3.75
 44
1.25
 73
     0
 74
     0
 77
     1
 78
     8
140
2.5
141
2.5
143
0.03937007874016
147
0.625
171
     3
172
     1
178
     0
271
     2
272
     2
274
     3
278
    44
283
     0
284
     8
340
11
  0
DIMSTYLE
105
EA
102
{ACAD_REACTORS
330
E9
330
123
330
35D
330
36A
330
377
330
384
330
4E0
330
4ED
330
4FA
330
507
330
FC
330
110
102
}
330
A
100
AcDbSymbolTableRecord
100
AcDbDimStyleTableRecord
  2
SLDDIMSTYLE0
 70
     0
 41
3.302
 44
0.0
 45
0.000000001
 73
     0
 74
     0
 77
     1
 78
    12
 79
     3
140
3.5
143
0.0393700787401575
147
0.875
148
0.000000001
170
     1
173
     1
178
     0
271
     2
272
     2
276
     2
284
    12
340
94
  0
DIMSTYLE
105
FD
330
A
100
AcDbSymbolTableRecord
100
AcDbDimStyleTableRecord
  2
SLDDIMSTYLE1
 70
     0
 41
3.302
 44
0.0
 45
0.000000001
 73
     0
 74
     0
 77
     1
 78
     4
 79
     1
140
3.5
143
0.0393700787401575
147
0.875
148
0.000000001
170
     1
173
     1
178
     0
271
     2
272
     2
276
     2
284
    12
340
94
  0
ENDTAB
  0
TABLE
  2
BLOCK_RECORD
  5
1
330
0
100
AcDbSymbolTable
 70
    26
  0
BLOCK_RECORD
  5
1F
330
1
100
AcDbSymbolTableRecord
100
AcDbBlockTableRecord
  2
*Model_Space
340
22
  0
BLOCK_RECORD
  5
1B
330
1
100
AcDbSymbolTableRecord
100
AcDbBlockTableRecord
  2
*Paper_Space
340
1E
  0
BLOCK_RECORD
  5
23
330
1
100
AcDbSymbolTableRecord
100
AcDbBlockTableRecord
  2
*Paper_Space0
340
26
  0
BLOCK_RECORD
  5
7F
330
1
100
AcDbSymbolTableRecord
100
AcDbBlockTableRecord
  2
블럭10
340
0
102
{BLKREFS
331
E2
102
}
  0
BLOCK_RECORD
  5
EB
330
1
100
AcDbSymbolTableRecord
100
AcDbBlockTableRecord
  2
_D
340
0
  0
BLOCK_RECORD
  5
FE
330
1
100
AcDbSymbolTableRecord
100
AcDbBlockTableRecord
  2
_D_1
340
0
  0
BLOCK_RECORD
  5
111
330
1
100
AcDbSymbolTableRecord
100
AcDbBlockTableRecord
  2
_D_2
340
0
  0
BLOCK_RECORD
  5
124
330
1
100
AcDbSymbolTableRecord
100
AcDbBlockTableRecord
  2
_D_3
340
0
  0
BLOCK_RECORD
  5
13D
330
1
100
AcDbSymbolTableRecord
100
AcDbBlockTableRecord
  2
SW_DOWELSYMBOL_0
340
0
102
{BLKREFS
331
143
331
394
331
0
331
517
331
0
102
}
  0
BLOCK_RECORD
  5
3A7
330
1
100
AcDbSymbolTableRecord
100
AcDbBlockTableRecord
  2
*D8
340
0
  0
BLOCK_RECORD
  5
3B3
330
1
100
AcDbSymbolTableRecord
100
AcDbBlockTableRecord
  2
*D9
340
0
  0
BLOCK_RECORD
  5
3BF
330
1
100
AcDbSymbolTableRecord
100
AcDbBlockTableRecord
  2
*D10
340
0
  0
BLOCK_RECORD
  5
3CB
330
1
100
AcDbSymbolTableRecord
100
AcDbBlockTableRecord
  2
*D11
340
0
  0
BLOCK_RECORD
  5
435
330
1
100
AcDbSymbolTableRecord
100
AcDbBlockTableRecord
  2
*D12
340
0
  0
BLOCK_RECORD
  5
441
330
1
100
AcDbSymbolTableRecord
100
AcDbBlockTableRecord
  2
*D13
340
0
  0
BLOCK_RECORD
  5
44D
330
1
100
AcDbSymbolTableRecord
100
AcDbBlockTableRecord
  2
*D14
340
0
  0
BLOCK_RECORD
  5
459
330
1
100
AcDbSymbolTableRecord
100
AcDbBlockTableRecord
  2
*D15
340
0
  0
BLOCK_RECORD
  5
526
330
1
100
AcDbSymbolTableRecord
100
AcDbBlockTableRecord
  2
*D17
340
0
  0
BLOCK_RECORD
  5
532
330
1
100
AcDbSymbolTableRecord
100
AcDbBlockTableRecord
  2
*D18
340
0
  0
BLOCK_RECORD
  5
53E
330
1
100
AcDbSymbolTableRecord
100
AcDbBlockTableRecord
  2
*D19
340
0
  0
BLOCK_RECORD
  5
54A
330
1
100
AcDbSymbolTableRecord
100
AcDbBlockTableRecord
  2
*D20
340
0
  0
BLOCK_RECORD
  5
5B4
330
1
100
AcDbSymbolTableRecord
100
AcDbBlockTableRecord
  2
*D21
340
0
  0
BLOCK_RECORD
  5
5C0
330
1
100
AcDbSymbolTableRecord
100
AcDbBlockTableRecord
  2
*D22
340
0
  0
BLOCK_RECORD
  5
5CC
330
1
100
AcDbSymbolTableRecord
100
AcDbBlockTableRecord
  2
*D23
340
0
  0
BLOCK_RECORD
  5
5D8
330
1
100
AcDbSymbolTableRecord
100
AcDbBlockTableRecord
  2
*D24
340
0
  0
ENDTAB
  0
ENDSEC
  0
SECTION
  2
BLOCKS
  0
BLOCK
  5
20
330
1F
100
AcDbEntity
  8
0
100
AcDbBlockBegin
  2
*Model_Space
 70
     0
 10
0.0
 20
0.0
 30
0.0
  3
*Model_Space
  1
*Model_Space
  0
ENDBLK
  5
21
330
1F
100
AcDbEntity
  8
0
100
AcDbBlockEnd
  0
BLOCK
  5
1C
330
1B
100
AcDbEntity
 67
     1
  8
0
100
AcDbBlockBegin
  2
*Paper_Space
 70
     0
 10
0.0
 20
0.0
 30
0.0
  3
*Paper_Space
  1
*Paper_Space
  0
ENDBLK
  5
1D
330
1B
100
AcDbEntity
 67
     1
  8
0
100
AcDbBlockEnd
  0
BLOCK
  5
24
330
23
100
AcDbEntity
  8
0
100
AcDbBlockBegin
  2
*Paper_Space0
 70
     0
 10
0.0
 20
0.0
 30
0.0
  3
*Paper_Space0
  1
*Paper_Space0
  0
ENDBLK
  5
25
330
23
100
AcDbEntity
  8
0
100
AcDbBlockEnd
  0
BLOCK
  5
80
330
7F
100
AcDbEntity
  8
0
100
AcDbBlockBegin
  2
블럭10
 70
     2
 10
0.0
 20
0.0
 30
0.0
  3
블럭10
  1
블럭10
  0
ELLIPSE
  5
82
330
7F
100
AcDbEntity
  8
중심선
100
AcDbEllipse
 10
20.54032771741204
 20
12.0471743016438
 30
0.0
 11
6.600054785286829
 21
-1.261213355974178E-13
 31
0.0
210
0.0
220
0.0
230
1.0
 40
0.636358354079598
 41
0.9219305317359503
 42
6.513795318482858
  0
ELLIPSE
  5
83
330
7F
100
AcDbEntity
  8
중심선
100
AcDbEllipse
 10
20.54032771746488
 20
12.04717430159265
 30
0.0
 11
3.960054785062283
 21
1.540847449632565E-10
 31
0.0
210
0.0
220
0.0
230
1.0
 40
0.3939339440162632
 41
1.131841032648279
 42
5.62031148352944
  0
LINE
  5
84
330
7F
100
AcDbEntity
  8
중심선
100
AcDbLine
 10
2.268634060543552
 20
16.24717430164393
 30
0.0
 11
5.714909304380834
 21
16.24717430164393
 31
0.0
  0
LINE
  5
85
330
7F
100
AcDbEntity
  8
중심선
100
AcDbLine
 10
5.245725140726316
 20
7.84717430164391
 30
0.0
 11
8.692000384563599
 21
7.84717430164391
 31
0.0
  0
LINE
  5
86
330
7F
100
AcDbEntity
  8
중심선
100
AcDbLine
 10
15.74043728645272
 20
16.24717430164393
 30
0.0
 11
8.692000384563599
 21
7.84717430164391
 31
0.0
  0
LINE
  5
87
330
7F
100
AcDbEntity
  8
중심선
100
AcDbLine
 10
0.1404042013395286
 20
13.71084872107135
 30
0.0
 11
3.58671253028996
 21
13.71088815037384
 31
0.0
  0
LINE
  5
88
330
7F
100
AcDbEntity
  8
중심선
100
AcDbLine
 10
2.750260043222114
 20
10.84717430164391
 30
0.0
 11
6.196535287059397
 21
10.84717430164391
 31
0.0
  0
LINE
  5
89
330
7F
100
AcDbEntity
  8
중심선
100
AcDbLine
 10
12.29416204261559
 20
16.24717430164393
 30
0.0
 11
5.245725140726316
 21
7.84717430164391
 31
0.0
  0
LINE
  5
8A
330
7F
100
AcDbEntity
  8
중심선
100
AcDbLine
 10
10.72767329541681
 20
16.24717430164393
 30
0.0
 11
6.196535287059397
 21
10.84717430164391
 31
0.0
  0
LINE
  5
8B
330
7F
100
AcDbEntity
  8
중심선
100
AcDbLine
 10
7.28139805157953
 20
16.24717430164393
 30
0.0
 11
2.750260043222114
 21
10.84717430164391
 31
0.0
  0
LINE
  5
8C
330
7F
100
AcDbEntity
  8
중심선
100
AcDbLine
 10
5.714909304380834
 20
16.24717430164393
 30
0.0
 11
3.58671253028996
 21
13.71088815037384
 31
0.0
  0
LINE
  5
8D
330
7F
100
AcDbEntity
  8
중심선
100
AcDbLine
 10
2.268634060543552
 20
16.24717430164393
 30
0.0
 11
0.1404042013395286
 21
13.71084872107135
 31
0.0
  0
LINE
  5
8E
330
7F
100
AcDbEntity
  8
중심선
100
AcDbLine
 10
7.28139805157953
 20
16.24717430164393
 30
0.0
 11
10.72767329541681
 21
16.24717430164393
 31
0.0
  0
LINE
  5
8F
330
7F
100
AcDbEntity
  8
중심선
100
AcDbLine
 10
12.29416204261559
 20
16.24717430164393
 30
0.0
 11
15.74043728645272
 21
16.24717430164393
 31
0.0
  0
LINE
  5
90
330
7F
100
AcDbEntity
  8
중심선
100
AcDbLine
 10
19.22036997980202
 20
11.08717430171403
 30
0.0
 11
23.66174974927406
 21
11.08717430171406
 31
0.0
  0
LINE
  5
91
330
7F
100
AcDbEntity
  8
중심선
100
AcDbLine
 10
19.22039502424796
 20
13.00717430171391
 30
0.0
 11
19.22036997980202
 21
11.08717430171403
 31
0.0
  0
LINE
  5
92
330
7F
100
AcDbEntity
  8
중심선
100
AcDbLine
 10
19.22039502424796
 20
13.00717430171391
 30
0.0
 11
26.96566020931264
 21
13.00717430171391
 31
0.0
  0
LINE
  5
93
330
7F
100
AcDbEntity
  8
중심선
100
AcDbLine
 10
22.22332737316547
 20
13.45928029700563
 30
0.0
 11
24.52862924686651
 21
15.39360700705356
 31
0.0
  0
ATTDEF
  5
95
330
7F
100
AcDbEntity
  8
FORMAT
 62
     2
100
AcDbText
 10
4.408487351596664
 20
2.075366912832191
 30
0.0
 40
4.233333333333333
  1
E1162116
 41
0.75
  7
SLDTEXTSTYLE0
 11
4.408487351596664
 21
-0.0412997538344756
 31
0.0
100
AcDbAttributeDefinition
  3

  2
AUTOATTR0
 70
     0
 74
     1
  0
ENDBLK
  5
81
330
7F
100
AcDbEntity
  8
0
100
AcDbBlockEnd
  0
BLOCK
  5
EC
330
EB
100
AcDbEntity
  8
0
100
AcDbBlockBegin
  2
_D
 70
     0
 10
0.0
 20
0.0
 30
0.0
  3
_D
  1
_D
  0
LINE
  5
EE
330
EB
100
AcDbEntity
  8
치수문자_일반주서
 62
     0
370
    -2
100
AcDbLine
 10
-48.38749999999999
 20
15.87607492872389
 30
0.0
 11
-62.91250000000005
 21
15.87607492872384
 31
0.0
  0
LINE
  5
EF
330
EB
100
AcDbEntity
  8
치수문자_일반주서
 62
     0
370
    -2
100
AcDbLine
 10
-48.38749999999999
 20
-15.87392507127611
 30
0.0
 11
-62.91249999999994
 21
-15.87392507127616
 31
0.0
  0
LINE
  5
F0
330
EB
100
AcDbEntity
  8
치수문자_일반주서
 62
     0
370
    -2
100
AcDbLine
 10
-62.91250000000004
 20
12.57407492872384
 30
0.0
 11
-62.91249999999995
 21
-12.57192507127616
 31
0.0
  0
SOLID
  5
F1
330
EB
100
AcDbEntity
  8
치수문자_일반주서
 62
     0
100
AcDbTrace
 10
-62.3621666666667
 20
12.57407492872384
 30
0.0
 11
-63.46283333333337
 21
12.57407492872384
 31
0.0
 12
-62.91250000000005
 22
15.87607492872384
 32
0.0
 13
-62.91250000000005
 23
15.87607492872384
 33
0.0
  0
SOLID
  5
F2
330
EB
100
AcDbEntity
  8
치수문자_일반주서
 62
     0
100
AcDbTrace
 10
-63.46283333333329
 20
-12.57192507127616
 30
0.0
 11
-62.36216666666662
 21
-12.57192507127616
 31
0.0
 12
-62.91249999999994
 22
-15.87392507127616
 32
0.0
 13
-62.91249999999994
 23
-15.87392507127616
 33
0.0
  0
MTEXT
  5
F3
330
EB
100
AcDbEntity
  8
치수문자_일반주서
 62
     0
100
AcDbMText
 10
-67.2875
 20
0.0010749287238715
 30
0.0
 40
3.5
 41
0.0
 71
     2
 72
     1
  1
\A1;%%c31.75 [1 1/4]
  7
SLDTEXTSTYLE0
 11
-3.580687802255623E-15
 21
1.0
 31
0.0
 73
     1
 44
1.0
  0
POINT
  5
F4
330
EB
100
AcDbEntity
  8
Defpoints
 62
     0
100
AcDbPoint
 10
-48.32499999999999
 20
15.87607492872389
 30
0.0
  0
POINT
  5
F5
330
EB
100
AcDbEntity
  8
Defpoints
 62
     0
100
AcDbPoint
 10
-48.32499999999999
 20
-15.87392507127611
 30
0.0
  0
POINT
  5
F6
330
EB
100
AcDbEntity
  8
Defpoints
 62
     0
100
AcDbPoint
 10
-62.91249999999994
 20
-15.87392507127616
 30
0.0
  0
ENDBLK
  5
ED
330
EB
100
AcDbEntity
  8
0
100
AcDbBlockEnd
  0
BLOCK
  5
FF
330
FE
100
AcDbEntity
  8
0
100
AcDbBlockBegin
  2
_D_1
 70
     0
 10
0.0
 20
0.0
 30
0.0
  3
_D_1
  1
_D_1
  0
LINE
  5
101
330
FE
100
AcDbEntity
  8
치수문자_일반주서
 62
     0
370
    -2
100
AcDbLine
 10
113.6
 20
15.82272792433027
 30
0.0
 11
113.6
 21
38.30021446492108
 31
0.0
  0
LINE
  5
102
330
FE
100
AcDbEntity
  8
치수문자_일반주서
 62
     0
370
    -2
100
AcDbLine
 10
12.00000000000004
 20
15.93844146360877
 30
0.0
 11
12.00000000000002
 21
38.30021446492108
 31
0.0
  0
LINE
  5
103
330
FE
100
AcDbEntity
  8
치수문자_일반주서
 62
     0
370
    -2
100
AcDbLine
 10
110.298
 20
38.30021446492108
 30
0.0
 11
15.30200000000002
 21
38.30021446492108
 31
0.0
  0
SOLID
  5
104
330
FE
100
AcDbEntity
  8
치수문자_일반주서
 62
     0
100
AcDbTrace
 10
110.298
 20
37.74988113158774
 30
0.0
 11
110.298
 21
38.85054779825441
 31
0.0
 12
113.6
 22
38.30021446492108
 32
0.0
 13
113.6
 23
38.30021446492108
 33
0.0
  0
SOLID
  5
105
330
FE
100
AcDbEntity
  8
치수문자_일반주서
 62
     0
100
AcDbTrace
 10
15.30200000000002
 20
38.85054779825441
 30
0.0
 11
15.30200000000002
 21
37.74988113158774
 31
0.0
 12
12.00000000000002
 22
38.30021446492108
 32
0.0
 13
12.00000000000002
 23
38.30021446492108
 33
0.0
  0
MTEXT
  5
106
330
FE
100
AcDbEntity
  8
치수문자_일반주서
 62
     0
100
AcDbMText
 10
62.80000000000003
 20
42.67521446492108
 30
0.0
 40
3.5
 41
0.0
 71
     2
 72
     1
  1
\A1;101.6 [4]
  7
SLDTEXTSTYLE0
 73
     1
 44
1.0
  0
POINT
  5
107
330
FE
100
AcDbEntity
  8
Defpoints
 62
     0
100
AcDbPoint
 10
113.6
 20
15.76022792433027
 30
0.0
  0
POINT
  5
108
330
FE
100
AcDbEntity
  8
Defpoints
 62
     0
100
AcDbPoint
 10
12.00000000000004
 20
15.87594146360877
 30
0.0
  0
POINT
  5
109
330
FE
100
AcDbEntity
  8
Defpoints
 62
     0
100
AcDbPoint
 10
12.00000000000004
 20
38.30021446492108
 30
0.0
  0
ENDBLK
  5
100
330
FE
100
AcDbEntity
  8
0
100
AcDbBlockEnd
  0
BLOCK
  5
112
330
111
100
AcDbEntity
  8
0
100
AcDbBlockBegin
  2
_D_2
 70
     0
 10
0.0
 20
0.0
 30
0.0
  3
_D_2
  1
_D_2
  0
LINE
  5
114
330
111
100
AcDbEntity
  8
치수문자_일반주서
 62
     0
370
    -2
100
AcDbLine
 10
113.6
 20
15.82272792433027
 30
0.0
 11
113.6
 21
50.30021446492103
 31
0.0
  0
LINE
  5
115
330
111
100
AcDbEntity
  8
치수문자_일반주서
 62
     0
370
    -2
100
AcDbLine
 10
-51.5
 20
12.76357492872391
 30
0.0
 11
-51.50000000000001
 21
50.30021446492103
 31
0.0
  0
LINE
  5
116
330
111
100
AcDbEntity
  8
치수문자_일반주서
 62
     0
370
    -2
100
AcDbLine
 10
110.298
 20
50.30021446492103
 30
0.0
 11
-48.19800000000001
 21
50.30021446492103
 31
0.0
  0
SOLID
  5
117
330
111
100
AcDbEntity
  8
치수문자_일반주서
 62
     0
100
AcDbTrace
 10
110.298
 20
49.7498811315877
 30
0.0
 11
110.298
 21
50.85054779825437
 31
0.0
 12
113.6
 22
50.30021446492103
 32
0.0
 13
113.6
 23
50.30021446492103
 33
0.0
  0
SOLID
  5
118
330
111
100
AcDbEntity
  8
치수문자_일반주서
 62
     0
100
AcDbTrace
 10
-48.19800000000001
 20
50.85054779825437
 30
0.0
 11
-48.19800000000001
 21
49.7498811315877
 31
0.0
 12
-51.50000000000001
 22
50.30021446492103
 32
0.0
 13
-51.50000000000001
 23
50.30021446492103
 33
0.0
  0
MTEXT
  5
119
330
111
100
AcDbEntity
  8
치수문자_일반주서
 62
     0
100
AcDbMText
 10
31.05000000000001
 20
54.67521446492103
 30
0.0
 40
3.5
 41
0.0
 71
     2
 72
     1
  1
\A1;165.1 [6 1/2]
  7
SLDTEXTSTYLE0
 73
     1
 44
1.0
  0
POINT
  5
11A
330
111
100
AcDbEntity
  8
Defpoints
 62
     0
100
AcDbPoint
 10
113.6
 20
15.76022792433027
 30
0.0
  0
POINT
  5
11B
330
111
100
AcDbEntity
  8
Defpoints
 62
     0
100
AcDbPoint
 10
-51.5
 20
12.70107492872391
 30
0.0
  0
POINT
  5
11C
330
111
100
AcDbEntity
  8
Defpoints
 62
     0
100
AcDbPoint
 10
-51.5
 20
50.30021446492103
 30
0.0
  0
ENDBLK
  5
113
330
111
100
AcDbEntity
  8
0
100
AcDbBlockEnd
  0
BLOCK
  5
125
330
124
100
AcDbEntity
  8
0
100
AcDbBlockBegin
  2
_D_3
 70
     0
 10
0.0
 20
0.0
 30
0.0
  3
_D_3
  1
_D_3
  0
LINE
  5
127
330
124
100
AcDbEntity
  8
치수문자_일반주서
 62
     0
370
    -2
100
AcDbLine
 10
113.6625
 20
15.87607492872391
 30
0.0
 11
139.636564420741
 21
15.876074928724
 31
0.0
  0
LINE
  5
128
330
124
100
AcDbEntity
  8
치수문자_일반주서
 62
     0
370
    -2
100
AcDbLine
 10
113.6625
 20
-15.87392507127612
 30
0.0
 11
139.6365644207411
 21
-15.87392507127603
 31
0.0
  0
LINE
  5
129
330
124
100
AcDbEntity
  8
치수문자_일반주서
 62
     0
370
    -2
100
AcDbLine
 10
139.636564420741
 20
15.876074928724
 30
0.0
 11
139.6365644207409
 21
53.52970033532734
 31
0.0
  0
LINE
  5
12A
330
124
100
AcDbEntity
  8
치수문자_일반주서
 62
     0
370
    -2
100
AcDbLine
 10
139.636564420741
 20
12.574074928724
 30
0.0
 11
139.6365644207411
 21
-12.57192507127603
 31
0.0
  0
SOLID
  5
12B
330
124
100
AcDbEntity
  8
치수문자_일반주서
 62
     0
100
AcDbTrace
 10
140.1868977540744
 20
12.574074928724
 30
0.0
 11
139.0862310874077
 21
12.574074928724
 31
0.0
 12
139.636564420741
 22
15.876074928724
 32
0.0
 13
139.636564420741
 23
15.876074928724
 33
0.0
  0
SOLID
  5
12C
330
124
100
AcDbEntity
  8
치수문자_일반주서
 62
     0
100
AcDbTrace
 10
139.0862310874078
 20
-12.57192507127603
 30
0.0
 11
140.1868977540745
 21
-12.57192507127603
 31
0.0
 12
139.6365644207411
 22
-15.87392507127603
 32
0.0
 13
139.6365644207411
 23
-15.87392507127603
 33
0.0
  0
MTEXT
  5
12D
330
124
100
AcDbEntity
  8
치수문자_일반주서
 62
     0
100
AcDbMText
 10
135.2615644207409
 20
37.77970033532733
 30
0.0
 40
3.5
 41
0.0
 71
     2
 72
     1
  1
\A1;%%c31.75 [1 1/4]
  7
SLDTEXTSTYLE0
 11
-3.580687802255621E-15
 21
1.0
 31
0.0
 73
     1
 44
1.0
  0
POINT
  5
12E
330
124
100
AcDbEntity
  8
Defpoints
 62
     0
100
AcDbPoint
 10
113.6
 20
15.87607492872391
 30
0.0
  0
POINT
  5
12F
330
124
100
AcDbEntity
  8
Defpoints
 62
     0
100
AcDbPoint
 10
113.6
 20
-15.87392507127612
 30
0.0
  0
POINT
  5
130
330
124
100
AcDbEntity
  8
Defpoints
 62
     0
100
AcDbPoint
 10
139.6365644207411
 20
-15.87392507127602
 30
0.0
  0
ENDBLK
  5
126
330
124
100
AcDbEntity
  8
0
100
AcDbBlockEnd
  0
BLOCK
  5
13E
330
13D
100
AcDbEntity
  8
0
100
AcDbBlockBegin
  2
SW_DOWELSYMBOL_0
 70
     0
 10
0.0
 20
0.0
 30
0.0
  3
SW_DOWELSYMBOL_0
  1
SW_DOWELSYMBOL_0
  0
CIRCLE
  5
140
330
13D
100
AcDbEntity
  8
해칭선
 62
     0
100
AcDbCircle
 10
0.0
 20
0.0
 30
0.0
 40
3.000000000000001
  0
HATCH
  5
141
330
13D
100
AcDbEntity
  8
0
  6
Continuous
 62
     0
370
     0
100
AcDbHatch
 10
0.0
 20
0.0
 30
0.0
210
0.0
220
0.0
230
1.0
  2
SOLID
 70
     1
 71
     0
 91
        1
 92
        0
 93
        3
 72
     2
 10
0.0
 20
0.0
 40
3.000000000000001
 50
0.0
 51
90.0
 73
     1
 72
     1
 10
0.0
 20
3.000000000000001
 11
0.0
 21
0.0
 72
     1
 10
0.0
 20
0.0
 11
3.000000000000001
 21
0.0
 97
        0
 75
     0
 76
     1
 98
        1
 10
0.0
 20
0.0
  0
HATCH
  5
142
330
13D
100
AcDbEntity
  8
0
  6
Continuous
 62
     0
370
     0
100
AcDbHatch
 10
0.0
 20
0.0
 30
0.0
210
0.0
220
0.0
230
1.0
  2
SOLID
 70
     1
 71
     0
 91
        1
 92
        0
 93
        3
 72
     2
 10
0.0
 20
0.0
 40
3.000000000000001
 50
180.0
 51
270.0000000000008
 73
     1
 72
     1
 10
0.0
 20
-3.000000000000001
 11
0.0
 21
0.0
 72
     1
 10
0.0
 20
0.0
 11
-3.000000000000001
 21
0.0
 97
        0
 75
     0
 76
     1
 98
        1
 10
0.0
 20
0.0
  0
ENDBLK
  5
13F
330
13D
100
AcDbEntity
  8
0
100
AcDbBlockEnd
  0
BLOCK
  5
3A8
330
3A7
100
AcDbEntity
  8
0
100
AcDbBlockBegin
  2
*D8
 70
     1
 10
0.0
 20
0.0
 30
0.0
  3
*D8
  1
*D8
  0
LINE
  5
3AA
330
3A7
100
AcDbEntity
  8
치수문자_일반주서
 62
     0
370
    -2
100
AcDbLine
 10
18.90000000000004
 20
32.00399999999992
 30
0.0
 11
4.374999999999991
 21
32.00399999999986
 31
0.0
  0
LINE
  5
3AB
330
3A7
100
AcDbEntity
  8
치수문자_일반주서
 62
     0
370
    -2
100
AcDbLine
 10
18.90000000000004
 20
6.603999999999946
 30
0.0
 11
4.37500000000008
 21
6.603999999999889
 31
0.0
  0
LINE
  5
3AC
330
3A7
100
AcDbEntity
  8
치수문자_일반주서
 62
     0
370
    -2
100
AcDbLine
 10
4.375000000000003
 20
28.70199999999986
 30
0.0
 11
4.375000000000068
 21
9.905999999999889
 31
0.0
  0
SOLID
  5
3AD
330
3A7
100
AcDbEntity
  8
치수문자_일반주서
 62
     0
100
AcDbTrace
 10
4.925333333333336
 20
28.70199999999987
 30
0.0
 11
3.82466666666667
 21
28.70199999999986
 31
0.0
 12
4.374999999999991
 22
32.00399999999986
 32
0.0
 13
4.374999999999991
 23
32.00399999999986
 33
0.0
  0
SOLID
  5
3AE
330
3A7
100
AcDbEntity
  8
치수문자_일반주서
 62
     0
100
AcDbTrace
 10
3.824666666666735
 20
9.905999999999887
 30
0.0
 11
4.925333333333402
 21
9.90599999999989
 31
0.0
 12
4.37500000000008
 22
6.603999999999889
 32
0.0
 13
4.37500000000008
 23
6.603999999999889
 33
0.0
  0
MTEXT
  5
3AF
330
3A7
100
AcDbEntity
  8
치수문자_일반주서
 62
     0
100
AcDbMText
 10
0.0000000000000355
 20
19.3039999999999
 30
0.0
 40
3.5
 41
0.0
 71
     2
 72
     1
  1
\A1;%%c25.4 [1]
  7
SLDTEXTSTYLE0
 11
-3.496765431890261E-15
 21
1.0
 31
0.0
 73
     1
 44
1.0
  0
POINT
  5
3B0
330
3A7
100
AcDbEntity
  8
Defpoints
 62
     0
100
AcDbPoint
 10
18.96250000000004
 20
32.00399999999992
 30
0.0
  0
POINT
  5
3B1
330
3A7
100
AcDbEntity
  8
Defpoints
 62
     0
100
AcDbPoint
 10
18.96250000000004
 20
6.603999999999946
 30
0.0
  0
POINT
  5
3B2
330
3A7
100
AcDbEntity
  8
Defpoints
 62
     0
100
AcDbPoint
 10
4.375000000000078
 20
6.603999999999892
 30
0.0
  0
ENDBLK
  5
3A9
330
3A7
100
AcDbEntity
  8
0
100
AcDbBlockEnd
  0
BLOCK
  5
3B4
330
3B3
100
AcDbEntity
  8
0
100
AcDbBlockBegin
  2
*D9
 70
     1
 10
0.0
 20
0.0
 30
0.0
  3
*D9
  1
*D9
  0
LINE
  5
3B6
330
3B3
100
AcDbEntity
  8
치수문자_일반주서
 62
     0
370
    -2
100
AcDbLine
 10
181.5225000000001
 20
31.97382239648503
 30
0.0
 11
181.5225000000001
 21
54.45130893707578
 31
0.0
  0
LINE
  5
3B7
330
3B3
100
AcDbEntity
  8
치수문자_일반주서
 62
     0
370
    -2
100
AcDbLine
 10
79.92250000000004
 20
31.65017917995374
 30
0.0
 11
79.92250000000004
 21
54.45130893707578
 31
0.0
  0
LINE
  5
3B8
330
3B3
100
AcDbEntity
  8
치수문자_일반주서
 62
     0
370
    -2
100
AcDbLine
 10
178.2205000000001
 20
54.45130893707578
 30
0.0
 11
83.22450000000003
 21
54.45130893707578
 31
0.0
  0
SOLID
  5
3B9
330
3B3
100
AcDbEntity
  8
치수문자_일반주서
 62
     0
100
AcDbTrace
 10
178.2205000000001
 20
53.90097560374245
 30
0.0
 11
178.2205000000001
 21
55.00164227040911
 31
0.0
 12
181.5225000000001
 22
54.45130893707578
 32
0.0
 13
181.5225000000001
 23
54.45130893707578
 33
0.0
  0
SOLID
  5
3BA
330
3B3
100
AcDbEntity
  8
치수문자_일반주서
 62
     0
100
AcDbTrace
 10
83.22450000000003
 20
55.00164227040911
 30
0.0
 11
83.22450000000003
 21
53.90097560374245
 31
0.0
 12
79.92250000000004
 22
54.45130893707578
 32
0.0
 13
79.92250000000004
 23
54.45130893707578
 33
0.0
  0
MTEXT
  5
3BB
330
3B3
100
AcDbEntity
  8
치수문자_일반주서
 62
     0
100
AcDbMText
 10
130.7225000000001
 20
58.82630893707578
 30
0.0
 40
3.5
 41
0.0
 71
     2
 72
     1
  1
\A1;101.6 [4]
  7
SLDTEXTSTYLE0
 73
     1
 44
1.0
  0
POINT
  5
3BC
330
3B3
100
AcDbEntity
  8
Defpoints
 62
     0
100
AcDbPoint
 10
181.5225000000001
 20
31.91132239648503
 30
0.0
  0
POINT
  5
3BD
330
3B3
100
AcDbEntity
  8
Defpoints
 62
     0
100
AcDbPoint
 10
79.92250000000004
 20
31.58767917995374
 30
0.0
  0
POINT
  5
3BE
330
3B3
100
AcDbEntity
  8
Defpoints
 62
     0
100
AcDbPoint
 10
79.92250000000004
 20
54.45130893707578
 30
0.0
  0
ENDBLK
  5
3B5
330
3B3
100
AcDbEntity
  8
0
100
AcDbBlockEnd
  0
BLOCK
  5
3C0
330
3BF
100
AcDbEntity
  8
0
100
AcDbBlockBegin
  2
*D10
 70
     1
 10
0.0
 20
0.0
 30
0.0
  3
*D10
  1
*D10
  0
LINE
  5
3C2
330
3BF
100
AcDbEntity
  8
치수문자_일반주서
 62
     0
370
    -2
100
AcDbLine
 10
181.5225000000001
 20
31.97382239648503
 30
0.0
 11
181.5225
 21
66.4513089370758
 31
0.0
  0
LINE
  5
3C3
330
3BF
100
AcDbEntity
  8
치수문자_일반주서
 62
     0
370
    -2
100
AcDbLine
 10
16.42250000000003
 20
29.52649999999994
 30
0.0
 11
16.4225
 21
66.4513089370758
 31
0.0
  0
LINE
  5
3C4
330
3BF
100
AcDbEntity
  8
치수문자_일반주서
 62
     0
370
    -2
100
AcDbLine
 10
178.2205
 20
66.4513089370758
 30
0.0
 11
19.7245
 21
66.4513089370758
 31
0.0
  0
SOLID
  5
3C5
330
3BF
100
AcDbEntity
  8
치수문자_일반주서
 62
     0
100
AcDbTrace
 10
178.2205
 20
65.90097560374247
 30
0.0
 11
178.2205
 21
67.00164227040912
 31
0.0
 12
181.5225
 22
66.4513089370758
 32
0.0
 13
181.5225
 23
66.4513089370758
 33
0.0
  0
SOLID
  5
3C6
330
3BF
100
AcDbEntity
  8
치수문자_일반주서
 62
     0
100
AcDbTrace
 10
19.7245
 20
67.00164227040912
 30
0.0
 11
19.7245
 21
65.90097560374247
 31
0.0
 12
16.4225
 22
66.4513089370758
 32
0.0
 13
16.4225
 23
66.4513089370758
 33
0.0
  0
MTEXT
  5
3C7
330
3BF
100
AcDbEntity
  8
치수문자_일반주서
 62
     0
100
AcDbMText
 10
98.97250000000004
 20
70.8263089370758
 30
0.0
 40
3.5
 41
0.0
 71
     2
 72
     1
  1
\A1;165.1 [6 1/2]
  7
SLDTEXTSTYLE0
 73
     1
 44
1.0
  0
POINT
  5
3C8
330
3BF
100
AcDbEntity
  8
Defpoints
 62
     0
100
AcDbPoint
 10
181.5225000000001
 20
31.91132239648503
 30
0.0
  0
POINT
  5
3C9
330
3BF
100
AcDbEntity
  8
Defpoints
 62
     0
100
AcDbPoint
 10
16.42250000000003
 20
29.46399999999994
 30
0.0
  0
POINT
  5
3CA
330
3BF
100
AcDbEntity
  8
Defpoints
 62
     0
100
AcDbPoint
 10
16.42250000000003
 20
66.4513089370758
 30
0.0
  0
ENDBLK
  5
3C1
330
3BF
100
AcDbEntity
  8
0
100
AcDbBlockEnd
  0
BLOCK
  5
3CC
330
3CB
100
AcDbEntity
  8
0
100
AcDbBlockBegin
  2
*D11
 70
     1
 10
0.0
 20
0.0
 30
0.0
  3
*D11
  1
*D11
  0
LINE
  5
3CE
330
3CB
100
AcDbEntity
  8
치수문자_일반주서
 62
     0
370
    -2
100
AcDbLine
 10
181.5850000000001
 20
32.00399999999994
 30
0.0
 11
201.8895446236073
 21
32.00400000000001
 31
0.0
  0
LINE
  5
3CF
330
3CB
100
AcDbEntity
  8
치수문자_일반주서
 62
     0
370
    -2
100
AcDbLine
 10
181.5850000000001
 20
6.603999999999928
 30
0.0
 11
201.8895446236073
 21
6.603999999999999
 31
0.0
  0
LINE
  5
3D0
330
3CB
100
AcDbEntity
  8
치수문자_일반주서
 62
     0
370
    -2
100
AcDbLine
 10
201.8895446236073
 20
32.00400000000001
 30
0.0
 11
201.8895446236072
 21
59.82675000000001
 31
0.0
  0
LINE
  5
3D1
330
3CB
100
AcDbEntity
  8
치수문자_일반주서
 62
     0
370
    -2
100
AcDbLine
 10
201.8895446236073
 20
28.70200000000001
 30
0.0
 11
201.8895446236073
 21
9.905999999999999
 31
0.0
  0
SOLID
  5
3D2
330
3CB
100
AcDbEntity
  8
치수문자_일반주서
 62
     0
100
AcDbTrace
 10
202.4398779569406
 20
28.70200000000002
 30
0.0
 11
201.3392112902739
 21
28.70200000000001
 31
0.0
 12
201.8895446236073
 22
32.00400000000001
 32
0.0
 13
201.8895446236073
 23
32.00400000000001
 33
0.0
  0
SOLID
  5
3D3
330
3CB
100
AcDbEntity
  8
치수문자_일반주서
 62
     0
100
AcDbTrace
 10
201.339211290274
 20
9.905999999999997
 30
0.0
 11
202.4398779569407
 21
9.906
 31
0.0
 12
201.8895446236073
 22
6.603999999999999
 32
0.0
 13
201.8895446236073
 23
6.603999999999999
 33
0.0
  0
MTEXT
  5
3D4
330
3CB
100
AcDbEntity
  8
치수문자_일반주서
 62
     0
100
AcDbMText
 10
197.5145446236072
 20
49.76425
 30
0.0
 40
3.5
 41
0.0
 71
     2
 72
     1
  1
\A1;%%c25.4 [1]
  7
SLDTEXTSTYLE0
 11
-3.356894814614646E-15
 21
1.0
 31
0.0
 73
     1
 44
1.0
  0
POINT
  5
3D5
330
3CB
100
AcDbEntity
  8
Defpoints
 62
     0
100
AcDbPoint
 10
181.5225000000001
 20
32.00399999999994
 30
0.0
  0
POINT
  5
3D6
330
3CB
100
AcDbEntity
  8
Defpoints
 62
     0
100
AcDbPoint
 10
181.5225000000001
 20
6.603999999999928
 30
0.0
  0
POINT
  5
3D7
330
3CB
100
AcDbEntity
  8
Defpoints
 62
     0
100
AcDbPoint
 10
201.8895446236074
 20
6.604000000000005
 30
0.0
  0
ENDBLK
  5
3CD
330
3CB
100
AcDbEntity
  8
0
100
AcDbBlockEnd
  0
BLOCK
  5
436
330
435
100
AcDbEntity
  8
0
100
AcDbBlockBegin
  2
*D12
 70
     1
 10
0.0
 20
0.0
 30
0.0
  3
*D12
  1
*D12
  0
LINE
  5
438
330
435
100
AcDbEntity
  8
치수문자_일반주서
 62
     0
370
    -2
100
AcDbLine
 10
81.78195784953098
 20
-115.5568258895877
 30
0.0
 11
67.25695784953093
 21
-115.5568258895877
 31
0.0
  0
LINE
  5
439
330
435
100
AcDbEntity
  8
치수문자_일반주서
 62
     0
370
    -2
100
AcDbLine
 10
81.78195784953098
 20
-140.9568258895876
 30
0.0
 11
67.25695784953102
 21
-140.9568258895877
 31
0.0
  0
LINE
  5
43A
330
435
100
AcDbEntity
  8
치수문자_일반주서
 62
     0
370
    -2
100
AcDbLine
 10
67.25695784953095
 20
-118.8588258895877
 30
0.0
 11
67.256957849531
 21
-137.6548258895877
 31
0.0
  0
SOLID
  5
43B
330
435
100
AcDbEntity
  8
치수문자_일반주서
 62
     0
100
AcDbTrace
 10
67.80729118286428
 20
-118.8588258895877
 30
0.0
 11
66.70662451619762
 21
-118.8588258895877
 31
0.0
 12
67.25695784953093
 22
-115.5568258895877
 32
0.0
 13
67.25695784953093
 23
-115.5568258895877
 33
0.0
  0
SOLID
  5
43C
330
435
100
AcDbEntity
  8
치수문자_일반주서
 62
     0
100
AcDbTrace
 10
66.70662451619768
 20
-137.6548258895877
 30
0.0
 11
67.80729118286433
 21
-137.6548258895877
 31
0.0
 12
67.25695784953102
 22
-140.9568258895877
 32
0.0
 13
67.25695784953102
 23
-140.9568258895877
 33
0.0
  0
MTEXT
  5
43D
330
435
100
AcDbEntity
  8
치수문자_일반주서
 62
     0
100
AcDbMText
 10
62.88195784953098
 20
-128.2568258895877
 30
0.0
 40
3.5
 41
0.0
 71
     2
 72
     1
  1
\A1;%%c25.4 [1]
  7
SLDTEXTSTYLE0
 11
-3.356894814614651E-15
 21
1.0
 31
0.0
 73
     1
 44
1.0
  0
POINT
  5
43E
330
435
100
AcDbEntity
  8
Defpoints
 62
     0
100
AcDbPoint
 10
81.84445784953098
 20
-115.5568258895877
 30
0.0
  0
POINT
  5
43F
330
435
100
AcDbEntity
  8
Defpoints
 62
     0
100
AcDbPoint
 10
81.84445784953098
 20
-140.9568258895876
 30
0.0
  0
POINT
  5
440
330
435
100
AcDbEntity
  8
Defpoints
 62
     0
100
AcDbPoint
 10
67.25695784953102
 20
-140.9568258895877
 30
0.0
  0
ENDBLK
  5
437
330
435
100
AcDbEntity
  8
0
100
AcDbBlockEnd
  0
BLOCK
  5
442
330
441
100
AcDbEntity
  8
0
100
AcDbBlockBegin
  2
*D13
 70
     1
 10
0.0
 20
0.0
 30
0.0
  3
*D13
  1
*D13
  0
LINE
  5
444
330
441
100
AcDbEntity
  8
치수문자_일반주서
 62
     0
370
    -2
100
AcDbLine
 10
244.404457849531
 20
-115.5870034931026
 30
0.0
 11
244.404457849531
 21
-93.10951695251181
 31
0.0
  0
LINE
  5
445
330
441
100
AcDbEntity
  8
치수문자_일반주서
 62
     0
370
    -2
100
AcDbLine
 10
142.804457849531
 20
-115.9106467096339
 30
0.0
 11
142.804457849531
 21
-93.10951695251181
 31
0.0
  0
LINE
  5
446
330
441
100
AcDbEntity
  8
치수문자_일반주서
 62
     0
370
    -2
100
AcDbLine
 10
241.102457849531
 20
-93.10951695251181
 30
0.0
 11
146.106457849531
 21
-93.10951695251181
 31
0.0
  0
SOLID
  5
447
330
441
100
AcDbEntity
  8
치수문자_일반주서
 62
     0
100
AcDbTrace
 10
241.102457849531
 20
-93.65985028584514
 30
0.0
 11
241.102457849531
 21
-92.55918361917848
 31
0.0
 12
244.404457849531
 22
-93.10951695251181
 32
0.0
 13
244.404457849531
 23
-93.10951695251181
 33
0.0
  0
SOLID
  5
448
330
441
100
AcDbEntity
  8
치수문자_일반주서
 62
     0
100
AcDbTrace
 10
146.106457849531
 20
-92.55918361917848
 30
0.0
 11
146.106457849531
 21
-93.65985028584514
 31
0.0
 12
142.804457849531
 22
-93.10951695251181
 32
0.0
 13
142.804457849531
 23
-93.10951695251181
 33
0.0
  0
MTEXT
  5
449
330
441
100
AcDbEntity
  8
치수문자_일반주서
 62
     0
100
AcDbMText
 10
193.604457849531
 20
-88.73451695251181
 30
0.0
 40
3.5
 41
0.0
 71
     2
 72
     1
  1
\A1;101.6 [4]
  7
SLDTEXTSTYLE0
 73
     1
 44
1.0
  0
POINT
  5
44A
330
441
100
AcDbEntity
  8
Defpoints
 62
     0
100
AcDbPoint
 10
244.404457849531
 20
-115.6495034931026
 30
0.0
  0
POINT
  5
44B
330
441
100
AcDbEntity
  8
Defpoints
 62
     0
100
AcDbPoint
 10
142.804457849531
 20
-115.9731467096339
 30
0.0
  0
POINT
  5
44C
330
441
100
AcDbEntity
  8
Defpoints
 62
     0
100
AcDbPoint
 10
142.804457849531
 20
-93.10951695251181
 30
0.0
  0
ENDBLK
  5
443
330
441
100
AcDbEntity
  8
0
100
AcDbBlockEnd
  0
BLOCK
  5
44E
330
44D
100
AcDbEntity
  8
0
100
AcDbBlockBegin
  2
*D14
 70
     1
 10
0.0
 20
0.0
 30
0.0
  3
*D14
  1
*D14
  0
LINE
  5
450
330
44D
100
AcDbEntity
  8
치수문자_일반주서
 62
     0
370
    -2
100
AcDbLine
 10
244.404457849531
 20
-115.5870034931026
 30
0.0
 11
244.404457849531
 21
-81.1095169525118
 31
0.0
  0
LINE
  5
451
330
44D
100
AcDbEntity
  8
치수문자_일반주서
 62
     0
370
    -2
100
AcDbLine
 10
79.30445784953096
 20
-118.0343258895876
 30
0.0
 11
79.30445784953096
 21
-81.1095169525118
 31
0.0
  0
LINE
  5
452
330
44D
100
AcDbEntity
  8
치수문자_일반주서
 62
     0
370
    -2
100
AcDbLine
 10
241.102457849531
 20
-81.1095169525118
 30
0.0
 11
82.60645784953095
 21
-81.1095169525118
 31
0.0
  0
SOLID
  5
453
330
44D
100
AcDbEntity
  8
치수문자_일반주서
 62
     0
100
AcDbTrace
 10
241.102457849531
 20
-81.65985028584512
 30
0.0
 11
241.102457849531
 21
-80.55918361917847
 31
0.0
 12
244.404457849531
 22
-81.1095169525118
 32
0.0
 13
244.404457849531
 23
-81.1095169525118
 33
0.0
  0
SOLID
  5
454
330
44D
100
AcDbEntity
  8
치수문자_일반주서
 62
     0
100
AcDbTrace
 10
82.60645784953095
 20
-80.55918361917847
 30
0.0
 11
82.60645784953095
 21
-81.65985028584512
 31
0.0
 12
79.30445784953096
 22
-81.1095169525118
 32
0.0
 13
79.30445784953096
 23
-81.1095169525118
 33
0.0
  0
MTEXT
  5
455
330
44D
100
AcDbEntity
  8
치수문자_일반주서
 62
     0
100
AcDbMText
 10
161.854457849531
 20
-76.7345169525118
 30
0.0
 40
3.5
 41
0.0
 71
     2
 72
     1
  1
\A1;165.1 [6 1/2]
  7
SLDTEXTSTYLE0
 73
     1
 44
1.0
  0
POINT
  5
456
330
44D
100
AcDbEntity
  8
Defpoints
 62
     0
100
AcDbPoint
 10
244.404457849531
 20
-115.6495034931026
 30
0.0
  0
POINT
  5
457
330
44D
100
AcDbEntity
  8
Defpoints
 62
     0
100
AcDbPoint
 10
79.30445784953096
 20
-118.0968258895876
 30
0.0
  0
POINT
  5
458
330
44D
100
AcDbEntity
  8
Defpoints
 62
     0
100
AcDbPoint
 10
79.30445784953096
 20
-81.1095169525118
 30
0.0
  0
ENDBLK
  5
44F
330
44D
100
AcDbEntity
  8
0
100
AcDbBlockEnd
  0
BLOCK
  5
45A
330
459
100
AcDbEntity
  8
0
100
AcDbBlockBegin
  2
*D15
 70
     1
 10
0.0
 20
0.0
 30
0.0
  3
*D15
  1
*D15
  0
LINE
  5
45C
330
459
100
AcDbEntity
  8
치수문자_일반주서
 62
     0
370
    -2
100
AcDbLine
 10
244.466957849531
 20
-115.5568258895877
 30
0.0
 11
264.7715024731382
 21
-115.5568258895876
 31
0.0
  0
LINE
  5
45D
330
459
100
AcDbEntity
  8
치수문자_일반주서
 62
     0
370
    -2
100
AcDbLine
 10
244.466957849531
 20
-140.9568258895877
 30
0.0
 11
264.7715024731383
 21
-140.9568258895876
 31
0.0
  0
LINE
  5
45E
330
459
100
AcDbEntity
  8
치수문자_일반주서
 62
     0
370
    -2
100
AcDbLine
 10
264.7715024731382
 20
-115.5568258895876
 30
0.0
 11
264.7715024731381
 21
-87.73407588958759
 31
0.0
  0
LINE
  5
45F
330
459
100
AcDbEntity
  8
치수문자_일반주서
 62
     0
370
    -2
100
AcDbLine
 10
264.7715024731382
 20
-118.8588258895876
 30
0.0
 11
264.7715024731383
 21
-137.6548258895876
 31
0.0
  0
SOLID
  5
460
330
459
100
AcDbEntity
  8
치수문자_일반주서
 62
     0
100
AcDbTrace
 10
265.3218358064715
 20
-118.8588258895876
 30
0.0
 11
264.2211691398048
 21
-118.8588258895876
 31
0.0
 12
264.7715024731382
 22
-115.5568258895876
 32
0.0
 13
264.7715024731382
 23
-115.5568258895876
 33
0.0
  0
SOLID
  5
461
330
459
100
AcDbEntity
  8
치수문자_일반주서
 62
     0
100
AcDbTrace
 10
264.2211691398049
 20
-137.6548258895876
 30
0.0
 11
265.3218358064717
 21
-137.6548258895876
 31
0.0
 12
264.7715024731383
 22
-140.9568258895876
 32
0.0
 13
264.7715024731383
 23
-140.9568258895876
 33
0.0
  0
MTEXT
  5
462
330
459
100
AcDbEntity
  8
치수문자_일반주서
 62
     0
100
AcDbMText
 10
260.3965024731381
 20
-97.79657588958761
 30
0.0
 40
3.5
 41
0.0
 71
     2
 72
     1
  1
\A1;%%c25.4 [1]
  7
SLDTEXTSTYLE0
 11
-4.475859752819530E-15
 21
1.0
 31
0.0
 73
     1
 44
1.0
  0
POINT
  5
463
330
459
100
AcDbEntity
  8
Defpoints
 62
     0
100
AcDbPoint
 10
244.404457849531
 20
-115.5568258895877
 30
0.0
  0
POINT
  5
464
330
459
100
AcDbEntity
  8
Defpoints
 62
     0
100
AcDbPoint
 10
244.404457849531
 20
-140.9568258895877
 30
0.0
  0
POINT
  5
465
330
459
100
AcDbEntity
  8
Defpoints
 62
     0
100
AcDbPoint
 10
264.7715024731383
 20
-140.9568258895876
 30
0.0
  0
ENDBLK
  5
45B
330
459
100
AcDbEntity
  8
0
100
AcDbBlockEnd
  0
BLOCK
  5
527
330
526
100
AcDbEntity
  8
0
100
AcDbBlockBegin
  2
*D17
 70
     1
 10
0.0
 20
0.0
 30
0.0
  3
*D17
  1
*D17
  0
LINE
  5
529
330
526
100
AcDbEntity
  8
치수문자_일반주서
 62
     0
370
    -2
100
AcDbLine
 10
18.90000000000004
 20
32.00399999999991
 30
0.0
 11
4.374999999999991
 21
32.00399999999985
 31
0.0
  0
LINE
  5
52A
330
526
100
AcDbEntity
  8
치수문자_일반주서
 62
     0
370
    -2
100
AcDbLine
 10
18.90000000000004
 20
6.603999999999939
 30
0.0
 11
4.37500000000008
 21
6.603999999999882
 31
0.0
  0
LINE
  5
52B
330
526
100
AcDbEntity
  8
치수문자_일반주서
 62
     0
370
    -2
100
AcDbLine
 10
4.375000000000003
 20
28.70199999999985
 30
0.0
 11
4.375000000000068
 21
9.905999999999882
 31
0.0
  0
SOLID
  5
52C
330
526
100
AcDbEntity
  8
치수문자_일반주서
 62
     0
100
AcDbTrace
 10
4.925333333333336
 20
28.70199999999985
 30
0.0
 11
3.82466666666667
 21
28.70199999999985
 31
0.0
 12
4.374999999999991
 22
32.00399999999985
 32
0.0
 13
4.374999999999991
 23
32.00399999999985
 33
0.0
  0
SOLID
  5
52D
330
526
100
AcDbEntity
  8
치수문자_일반주서
 62
     0
100
AcDbTrace
 10
3.824666666666735
 20
9.90599999999988
 30
0.0
 11
4.925333333333402
 21
9.905999999999883
 31
0.0
 12
4.37500000000008
 22
6.603999999999882
 32
0.0
 13
4.37500000000008
 23
6.603999999999882
 33
0.0
  0
MTEXT
  5
52E
330
526
100
AcDbEntity
  8
치수문자_일반주서
 62
     0
100
AcDbMText
 10
0.0000000000000355
 20
19.30399999999989
 30
0.0
 40
3.5
 41
0.0
 71
     2
 72
     1
  1
\A1;%%c25.4 [1]
  7
SLDTEXTSTYLE0
 11
-3.496765431890262E-15
 21
1.0
 31
0.0
 73
     1
 44
1.0
  0
POINT
  5
52F
330
526
100
AcDbEntity
  8
Defpoints
 62
     0
100
AcDbPoint
 10
18.96250000000004
 20
32.00399999999991
 30
0.0
  0
POINT
  5
530
330
526
100
AcDbEntity
  8
Defpoints
 62
     0
100
AcDbPoint
 10
18.96250000000004
 20
6.603999999999939
 30
0.0
  0
POINT
  5
531
330
526
100
AcDbEntity
  8
Defpoints
 62
     0
100
AcDbPoint
 10
4.375000000000071
 20
6.603999999999885
 30
0.0
  0
ENDBLK
  5
528
330
526
100
AcDbEntity
  8
0
100
AcDbBlockEnd
  0
BLOCK
  5
533
330
532
100
AcDbEntity
  8
0
100
AcDbBlockBegin
  2
*D18
 70
     1
 10
0.0
 20
0.0
 30
0.0
  3
*D18
  1
*D18
  0
LINE
  5
535
330
532
100
AcDbEntity
  8
치수문자_일반주서
 62
     0
370
    -2
100
AcDbLine
 10
181.5225000000001
 20
31.97382239648502
 30
0.0
 11
181.5225000000001
 21
54.45130893707577
 31
0.0
  0
LINE
  5
536
330
532
100
AcDbEntity
  8
치수문자_일반주서
 62
     0
370
    -2
100
AcDbLine
 10
79.92250000000004
 20
31.65017917995373
 30
0.0
 11
79.92250000000004
 21
54.45130893707577
 31
0.0
  0
LINE
  5
537
330
532
100
AcDbEntity
  8
치수문자_일반주서
 62
     0
370
    -2
100
AcDbLine
 10
178.2205000000001
 20
54.45130893707577
 30
0.0
 11
83.22450000000003
 21
54.45130893707577
 31
0.0
  0
SOLID
  5
538
330
532
100
AcDbEntity
  8
치수문자_일반주서
 62
     0
100
AcDbTrace
 10
178.2205000000001
 20
53.90097560374243
 30
0.0
 11
178.2205000000001
 21
55.0016422704091
 31
0.0
 12
181.5225000000001
 22
54.45130893707577
 32
0.0
 13
181.5225000000001
 23
54.45130893707577
 33
0.0
  0
SOLID
  5
539
330
532
100
AcDbEntity
  8
치수문자_일반주서
 62
     0
100
AcDbTrace
 10
83.22450000000003
 20
55.0016422704091
 30
0.0
 11
83.22450000000003
 21
53.90097560374243
 31
0.0
 12
79.92250000000004
 22
54.45130893707577
 32
0.0
 13
79.92250000000004
 23
54.45130893707577
 33
0.0
  0
MTEXT
  5
53A
330
532
100
AcDbEntity
  8
치수문자_일반주서
 62
     0
100
AcDbMText
 10
130.7225000000001
 20
58.82630893707577
 30
0.0
 40
3.5
 41
0.0
 71
     2
 72
     1
  1
\A1;101.6 [4]
  7
SLDTEXTSTYLE0
 73
     1
 44
1.0
  0
POINT
  5
53B
330
532
100
AcDbEntity
  8
Defpoints
 62
     0
100
AcDbPoint
 10
181.5225000000001
 20
31.91132239648502
 30
0.0
  0
POINT
  5
53C
330
532
100
AcDbEntity
  8
Defpoints
 62
     0
100
AcDbPoint
 10
79.92250000000004
 20
31.58767917995373
 30
0.0
  0
POINT
  5
53D
330
532
100
AcDbEntity
  8
Defpoints
 62
     0
100
AcDbPoint
 10
79.92250000000004
 20
54.45130893707577
 30
0.0
  0
ENDBLK
  5
534
330
532
100
AcDbEntity
  8
0
100
AcDbBlockEnd
  0
BLOCK
  5
53F
330
53E
100
AcDbEntity
  8
0
100
AcDbBlockBegin
  2
*D19
 70
     1
 10
0.0
 20
0.0
 30
0.0
  3
*D19
  1
*D19
  0
LINE
  5
541
330
53E
100
AcDbEntity
  8
치수문자_일반주서
 62
     0
370
    -2
100
AcDbLine
 10
181.5225000000001
 20
31.97382239648502
 30
0.0
 11
181.5225000000001
 21
66.45130893707578
 31
0.0
  0
LINE
  5
542
330
53E
100
AcDbEntity
  8
치수문자_일반주서
 62
     0
370
    -2
100
AcDbLine
 10
16.42250000000002
 20
29.52649999999993
 30
0.0
 11
16.42250000000001
 21
66.45130893707578
 31
0.0
  0
LINE
  5
543
330
53E
100
AcDbEntity
  8
치수문자_일반주서
 62
     0
370
    -2
100
AcDbLine
 10
178.2205000000001
 20
66.45130893707578
 30
0.0
 11
19.72450000000001
 21
66.45130893707578
 31
0.0
  0
SOLID
  5
544
330
53E
100
AcDbEntity
  8
치수문자_일반주서
 62
     0
100
AcDbTrace
 10
178.2205000000001
 20
65.90097560374245
 30
0.0
 11
178.2205000000001
 21
67.0016422704091
 31
0.0
 12
181.5225000000001
 22
66.45130893707578
 32
0.0
 13
181.5225000000001
 23
66.45130893707578
 33
0.0
  0
SOLID
  5
545
330
53E
100
AcDbEntity
  8
치수문자_일반주서
 62
     0
100
AcDbTrace
 10
19.72450000000001
 20
67.0016422704091
 30
0.0
 11
19.72450000000001
 21
65.90097560374245
 31
0.0
 12
16.42250000000001
 22
66.45130893707578
 32
0.0
 13
16.42250000000001
 23
66.45130893707578
 33
0.0
  0
MTEXT
  5
546
330
53E
100
AcDbEntity
  8
치수문자_일반주서
 62
     0
100
AcDbMText
 10
98.97250000000005
 20
70.82630893707578
 30
0.0
 40
3.5
 41
0.0
 71
     2
 72
     1
  1
\A1;165.1 [6 1/2]
  7
SLDTEXTSTYLE0
 73
     1
 44
1.0
  0
POINT
  5
547
330
53E
100
AcDbEntity
  8
Defpoints
 62
     0
100
AcDbPoint
 10
181.5225000000001
 20
31.91132239648502
 30
0.0
  0
POINT
  5
548
330
53E
100
AcDbEntity
  8
Defpoints
 62
     0
100
AcDbPoint
 10
16.42250000000002
 20
29.46399999999993
 30
0.0
  0
POINT
  5
549
330
53E
100
AcDbEntity
  8
Defpoints
 62
     0
100
AcDbPoint
 10
16.42250000000002
 20
66.45130893707578
 30
0.0
  0
ENDBLK
  5
540
330
53E
100
AcDbEntity
  8
0
100
AcDbBlockEnd
  0
BLOCK
  5
54B
330
54A
100
AcDbEntity
  8
0
100
AcDbBlockBegin
  2
*D20
 70
     1
 10
0.0
 20
0.0
 30
0.0
  3
*D20
  1
*D20
  0
LINE
  5
54D
330
54A
100
AcDbEntity
  8
치수문자_일반주서
 62
     0
370
    -2
100
AcDbLine
 10
181.5850000000001
 20
32.00399999999993
 30
0.0
 11
201.8895446236073
 21
32.004
 31
0.0
  0
LINE
  5
54E
330
54A
100
AcDbEntity
  8
치수문자_일반주서
 62
     0
370
    -2
100
AcDbLine
 10
181.5850000000001
 20
6.603999999999919
 30
0.0
 11
201.8895446236073
 21
6.603999999999999
 31
0.0
  0
LINE
  5
54F
330
54A
100
AcDbEntity
  8
치수문자_일반주서
 62
     0
370
    -2
100
AcDbLine
 10
201.8895446236073
 20
32.004
 30
0.0
 11
201.8895446236072
 21
59.82675
 31
0.0
  0
LINE
  5
550
330
54A
100
AcDbEntity
  8
치수문자_일반주서
 62
     0
370
    -2
100
AcDbLine
 10
201.8895446236073
 20
28.70200000000001
 30
0.0
 11
201.8895446236073
 21
9.905999999999999
 31
0.0
  0
SOLID
  5
551
330
54A
100
AcDbEntity
  8
치수문자_일반주서
 62
     0
100
AcDbTrace
 10
202.4398779569406
 20
28.70200000000001
 30
0.0
 11
201.3392112902739
 21
28.702
 31
0.0
 12
201.8895446236073
 22
32.004
 32
0.0
 13
201.8895446236073
 23
32.004
 33
0.0
  0
SOLID
  5
552
330
54A
100
AcDbEntity
  8
치수문자_일반주서
 62
     0
100
AcDbTrace
 10
201.339211290274
 20
9.905999999999997
 30
0.0
 11
202.4398779569407
 21
9.906
 31
0.0
 12
201.8895446236073
 22
6.603999999999999
 32
0.0
 13
201.8895446236073
 23
6.603999999999999
 33
0.0
  0
MTEXT
  5
553
330
54A
100
AcDbEntity
  8
치수문자_일반주서
 62
     0
100
AcDbMText
 10
197.5145446236072
 20
49.76424999999998
 30
0.0
 40
3.5
 41
0.0
 71
     2
 72
     1
  1
\A1;%%c25.4 [1]
  7
SLDTEXTSTYLE0
 11
-3.356894814614645E-15
 21
1.0
 31
0.0
 73
     1
 44
1.0
  0
POINT
  5
554
330
54A
100
AcDbEntity
  8
Defpoints
 62
     0
100
AcDbPoint
 10
181.5225000000001
 20
32.00399999999993
 30
0.0
  0
POINT
  5
555
330
54A
100
AcDbEntity
  8
Defpoints
 62
     0
100
AcDbPoint
 10
181.5225000000001
 20
6.603999999999919
 30
0.0
  0
POINT
  5
556
330
54A
100
AcDbEntity
  8
Defpoints
 62
     0
100
AcDbPoint
 10
201.8895446236074
 20
6.603999999999996
 30
0.0
  0
ENDBLK
  5
54C
330
54A
100
AcDbEntity
  8
0
100
AcDbBlockEnd
  0
BLOCK
  5
5B5
330
5B4
100
AcDbEntity
  8
0
100
AcDbBlockBegin
  2
*D21
 70
     1
 10
0.0
 20
0.0
 30
0.0
  3
*D21
  1
*D21
  0
LINE
  5
5B7
330
5B4
100
AcDbEntity
  8
치수문자_일반주서
 62
     0
370
    -2
100
AcDbLine
 10
75.14688137265355
 20
-89.18275107957712
 30
0.0
 11
60.6218813726535
 21
-89.18275107957717
 31
0.0
  0
LINE
  5
5B8
330
5B4
100
AcDbEntity
  8
치수문자_일반주서
 62
     0
370
    -2
100
AcDbLine
 10
75.14688137265355
 20
-114.5827510795771
 30
0.0
 11
60.62188137265358
 21
-114.5827510795771
 31
0.0
  0
LINE
  5
5B9
330
5B4
100
AcDbEntity
  8
치수문자_일반주서
 62
     0
370
    -2
100
AcDbLine
 10
60.62188137265351
 20
-92.48475107957717
 30
0.0
 11
60.62188137265357
 21
-111.2807510795771
 31
0.0
  0
SOLID
  5
5BA
330
5B4
100
AcDbEntity
  8
치수문자_일반주서
 62
     0
100
AcDbTrace
 10
61.17221470598685
 20
-92.48475107957717
 30
0.0
 11
60.07154803932018
 21
-92.48475107957717
 31
0.0
 12
60.6218813726535
 22
-89.18275107957717
 32
0.0
 13
60.6218813726535
 23
-89.18275107957717
 33
0.0
  0
SOLID
  5
5BB
330
5B4
100
AcDbEntity
  8
치수문자_일반주서
 62
     0
100
AcDbTrace
 10
60.07154803932023
 20
-111.2807510795771
 30
0.0
 11
61.1722147059869
 21
-111.2807510795771
 31
0.0
 12
60.62188137265358
 22
-114.5827510795771
 32
0.0
 13
60.62188137265358
 23
-114.5827510795771
 33
0.0
  0
MTEXT
  5
5BC
330
5B4
100
AcDbEntity
  8
치수문자_일반주서
 62
     0
100
AcDbMText
 10
56.24688137265354
 20
-101.8827510795771
 30
0.0
 40
3.5
 41
0.0
 71
     2
 72
     1
  1
\A1;%%c25.4 [1]
  7
SLDTEXTSTYLE0
 11
-3.356894814614651E-15
 21
1.0
 31
0.0
 73
     1
 44
1.0
  0
POINT
  5
5BD
330
5B4
100
AcDbEntity
  8
Defpoints
 62
     0
100
AcDbPoint
 10
75.20938137265355
 20
-89.18275107957712
 30
0.0
  0
POINT
  5
5BE
330
5B4
100
AcDbEntity
  8
Defpoints
 62
     0
100
AcDbPoint
 10
75.20938137265355
 20
-114.5827510795771
 30
0.0
  0
POINT
  5
5BF
330
5B4
100
AcDbEntity
  8
Defpoints
 62
     0
100
AcDbPoint
 10
60.62188137265358
 20
-114.5827510795771
 30
0.0
  0
ENDBLK
  5
5B6
330
5B4
100
AcDbEntity
  8
0
100
AcDbBlockEnd
  0
BLOCK
  5
5C1
330
5C0
100
AcDbEntity
  8
0
100
AcDbBlockBegin
  2
*D22
 70
     1
 10
0.0
 20
0.0
 30
0.0
  3
*D22
  1
*D22
  0
LINE
  5
5C3
330
5C0
100
AcDbEntity
  8
치수문자_일반주서
 62
     0
370
    -2
100
AcDbLine
 10
237.7693813726536
 20
-89.212928683092
 30
0.0
 11
237.7693813726536
 21
-66.73544214250126
 31
0.0
  0
LINE
  5
5C4
330
5C0
100
AcDbEntity
  8
치수문자_일반주서
 62
     0
370
    -2
100
AcDbLine
 10
136.1693813726536
 20
-89.5365718996233
 30
0.0
 11
136.1693813726536
 21
-66.73544214250126
 31
0.0
  0
LINE
  5
5C5
330
5C0
100
AcDbEntity
  8
치수문자_일반주서
 62
     0
370
    -2
100
AcDbLine
 10
234.4673813726536
 20
-66.73544214250126
 30
0.0
 11
139.4713813726536
 21
-66.73544214250126
 31
0.0
  0
SOLID
  5
5C6
330
5C0
100
AcDbEntity
  8
치수문자_일반주서
 62
     0
100
AcDbTrace
 10
234.4673813726536
 20
-67.28577547583458
 30
0.0
 11
234.4673813726536
 21
-66.18510880916793
 31
0.0
 12
237.7693813726536
 22
-66.73544214250126
 32
0.0
 13
237.7693813726536
 23
-66.73544214250126
 33
0.0
  0
SOLID
  5
5C7
330
5C0
100
AcDbEntity
  8
치수문자_일반주서
 62
     0
100
AcDbTrace
 10
139.4713813726536
 20
-66.18510880916793
 30
0.0
 11
139.4713813726536
 21
-67.28577547583458
 31
0.0
 12
136.1693813726536
 22
-66.73544214250126
 32
0.0
 13
136.1693813726536
 23
-66.73544214250126
 33
0.0
  0
MTEXT
  5
5C8
330
5C0
100
AcDbEntity
  8
치수문자_일반주서
 62
     0
100
AcDbMText
 10
186.9693813726536
 20
-62.36044214250126
 30
0.0
 40
3.5
 41
0.0
 71
     2
 72
     1
  1
\A1;101.6 [4]
  7
SLDTEXTSTYLE0
 73
     1
 44
1.0
  0
POINT
  5
5C9
330
5C0
100
AcDbEntity
  8
Defpoints
 62
     0
100
AcDbPoint
 10
237.7693813726536
 20
-89.275428683092
 30
0.0
  0
POINT
  5
5CA
330
5C0
100
AcDbEntity
  8
Defpoints
 62
     0
100
AcDbPoint
 10
136.1693813726536
 20
-89.5990718996233
 30
0.0
  0
POINT
  5
5CB
330
5C0
100
AcDbEntity
  8
Defpoints
 62
     0
100
AcDbPoint
 10
136.1693813726536
 20
-66.73544214250126
 30
0.0
  0
ENDBLK
  5
5C2
330
5C0
100
AcDbEntity
  8
0
100
AcDbBlockEnd
  0
BLOCK
  5
5CD
330
5CC
100
AcDbEntity
  8
0
100
AcDbBlockBegin
  2
*D23
 70
     1
 10
0.0
 20
0.0
 30
0.0
  3
*D23
  1
*D23
  0
LINE
  5
5CF
330
5CC
100
AcDbEntity
  8
치수문자_일반주서
 62
     0
370
    -2
100
AcDbLine
 10
237.7693813726536
 20
-89.212928683092
 30
0.0
 11
237.7693813726536
 21
-54.73544214250124
 31
0.0
  0
LINE
  5
5D0
330
5CC
100
AcDbEntity
  8
치수문자_일반주서
 62
     0
370
    -2
100
AcDbLine
 10
72.66938137265353
 20
-91.6602510795771
 30
0.0
 11
72.66938137265353
 21
-54.73544214250124
 31
0.0
  0
LINE
  5
5D1
330
5CC
100
AcDbEntity
  8
치수문자_일반주서
 62
     0
370
    -2
100
AcDbLine
 10
234.4673813726536
 20
-54.73544214250124
 30
0.0
 11
75.97138137265352
 21
-54.73544214250124
 31
0.0
  0
SOLID
  5
5D2
330
5CC
100
AcDbEntity
  8
치수문자_일반주서
 62
     0
100
AcDbTrace
 10
234.4673813726536
 20
-55.28577547583458
 30
0.0
 11
234.4673813726536
 21
-54.18510880916791
 31
0.0
 12
237.7693813726536
 22
-54.73544214250124
 32
0.0
 13
237.7693813726536
 23
-54.73544214250124
 33
0.0
  0
SOLID
  5
5D3
330
5CC
100
AcDbEntity
  8
치수문자_일반주서
 62
     0
100
AcDbTrace
 10
75.97138137265352
 20
-54.18510880916791
 30
0.0
 11
75.97138137265352
 21
-55.28577547583458
 31
0.0
 12
72.66938137265353
 22
-54.73544214250124
 32
0.0
 13
72.66938137265353
 23
-54.73544214250124
 33
0.0
  0
MTEXT
  5
5D4
330
5CC
100
AcDbEntity
  8
치수문자_일반주서
 62
     0
100
AcDbMText
 10
155.2193813726536
 20
-50.36044214250124
 30
0.0
 40
3.5
 41
0.0
 71
     2
 72
     1
  1
\A1;165.1 [6 1/2]
  7
SLDTEXTSTYLE0
 73
     1
 44
1.0
  0
POINT
  5
5D5
330
5CC
100
AcDbEntity
  8
Defpoints
 62
     0
100
AcDbPoint
 10
237.7693813726536
 20
-89.275428683092
 30
0.0
  0
POINT
  5
5D6
330
5CC
100
AcDbEntity
  8
Defpoints
 62
     0
100
AcDbPoint
 10
72.66938137265353
 20
-91.7227510795771
 30
0.0
  0
POINT
  5
5D7
330
5CC
100
AcDbEntity
  8
Defpoints
 62
     0
100
AcDbPoint
 10
72.66938137265353
 20
-54.73544214250124
 30
0.0
  0
ENDBLK
  5
5CE
330
5CC
100
AcDbEntity
  8
0
100
AcDbBlockEnd
  0
BLOCK
  5
5D9
330
5D8
100
AcDbEntity
  8
0
100
AcDbBlockBegin
  2
*D24
 70
     1
 10
0.0
 20
0.0
 30
0.0
  3
*D24
  1
*D24
  0
LINE
  5
5DB
330
5D8
100
AcDbEntity
  8
치수문자_일반주서
 62
     0
370
    -2
100
AcDbLine
 10
237.8318813726536
 20
-89.18275107957709
 30
0.0
 11
258.1364259962608
 21
-89.18275107957702
 31
0.0
  0
LINE
  5
5DC
330
5D8
100
AcDbEntity
  8
치수문자_일반주서
 62
     0
370
    -2
100
AcDbLine
 10
237.8318813726536
 20
-114.5827510795771
 30
0.0
 11
258.1364259962609
 21
-114.582751079577
 31
0.0
  0
LINE
  5
5DD
330
5D8
100
AcDbEntity
  8
치수문자_일반주서
 62
     0
370
    -2
100
AcDbLine
 10
258.1364259962608
 20
-89.18275107957702
 30
0.0
 11
258.1364259962606
 21
-61.36000107957702
 31
0.0
  0
LINE
  5
5DE
330
5D8
100
AcDbEntity
  8
치수문자_일반주서
 62
     0
370
    -2
100
AcDbLine
 10
258.1364259962608
 20
-92.48475107957702
 30
0.0
 11
258.1364259962609
 21
-111.280751079577
 31
0.0
  0
SOLID
  5
5DF
330
5D8
100
AcDbEntity
  8
치수문자_일반주서
 62
     0
100
AcDbTrace
 10
258.6867593295941
 20
-92.48475107957702
 30
0.0
 11
257.5860926629274
 21
-92.48475107957702
 31
0.0
 12
258.1364259962608
 22
-89.18275107957702
 32
0.0
 13
258.1364259962608
 23
-89.18275107957702
 33
0.0
  0
SOLID
  5
5E0
330
5D8
100
AcDbEntity
  8
치수문자_일반주서
 62
     0
100
AcDbTrace
 10
257.5860926629275
 20
-111.280751079577
 30
0.0
 11
258.6867593295942
 21
-111.280751079577
 31
0.0
 12
258.1364259962609
 22
-114.582751079577
 32
0.0
 13
258.1364259962609
 23
-114.582751079577
 33
0.0
  0
MTEXT
  5
5E1
330
5D8
100
AcDbEntity
  8
치수문자_일반주서
 62
     0
100
AcDbMText
 10
253.7614259962607
 20
-71.42250107957705
 30
0.0
 40
3.5
 41
0.0
 71
     2
 72
     1
  1
\A1;%%c25.4 [1]
  7
SLDTEXTSTYLE0
 11
-4.475859752819526E-15
 21
1.0
 31
0.0
 73
     1
 44
1.0
  0
POINT
  5
5E2
330
5D8
100
AcDbEntity
  8
Defpoints
 62
     0
100
AcDbPoint
 10
237.7693813726536
 20
-89.18275107957709
 30
0.0
  0
POINT
  5
5E3
330
5D8
100
AcDbEntity
  8
Defpoints
 62
     0
100
AcDbPoint
 10
237.7693813726536
 20
-114.5827510795771
 30
0.0
  0
POINT
  5
5E4
330
5D8
100
AcDbEntity
  8
Defpoints
 62
     0
100
AcDbPoint
 10
258.1364259962609
 20
-114.582751079577
 30
0.0
  0
ENDBLK
  5
5DA
330
5D8
100
AcDbEntity
  8
0
100
AcDbBlockEnd
  0
ENDSEC
  0
SECTION
  2
ENTITIES
  0
LINE
  5
96
330
1F
100
AcDbEntity
  8
0
  6
Continuous
 62
     1
370
    15
100
AcDbLine
 10
27.1772013161677
 20
-3.071735157755146
 30
0.0
 11
27.28263969297606
 21
-3.174108966667978
 31
0.0
  0
LINE
  5
97
330
1F
100
AcDbEntity
  8
0
  6
Continuous
 62
     1
370
    15
100
AcDbLine
 10
33.90357276739823
 20
2.954676677505949
 30
0.0
 11
33.67633551677993
 21
3.175786282303685
 31
0.0
  0
LINE
  5
98
330
1F
100
AcDbEntity
  8
0
  6
Continuous
 62
     1
370
    15
100
AcDbLine
 10
111.6799470437513
 20
-15.87392507127612
 30
0.0
 11
113.6
 21
-15.87392507127612
 31
0.0
  0
LINE
  5
99
330
1F
100
AcDbEntity
  8
0
  6
Continuous
 62
     1
370
    15
100
AcDbLine
 10
12.00000000000001
 20
-15.87392507127612
 30
0.0
 11
15.77342597900764
 21
-15.87392507127612
 31
0.0
  0
LINE
  5
9A
330
1F
100
AcDbEntity
  8
0
  6
Continuous
 62
     1
370
    15
100
AcDbLine
 10
65.64522726723773
 20
15.87607492872391
 30
0.0
 11
61.8088820648131
 21
15.87607492872391
 31
0.0
  0
LINE
  5
9B
330
1F
100
AcDbEntity
  8
0
  6
Continuous
 62
     1
370
    15
100
AcDbLine
 10
45.18297843376087
 20
-15.87392507127612
 30
0.0
 11
49.0217629271024
 21
-15.87392507127612
 31
0.0
  0
LINE
  5
9C
330
1F
100
AcDbEntity
  8
0
  6
Continuous
 62
     1
370
    15
100
AcDbLine
 10
98.89495735413479
 20
15.87607492872391
 30
0.0
 11
95.0577636972101
 21
15.87607492872391
 31
0.0
  0
LINE
  5
9D
330
1F
100
AcDbEntity
  8
0
  6
Continuous
 62
     1
370
    15
100
AcDbLine
 10
28.55943910786394
 20
-15.87392507127612
 30
0.0
 11
32.39741320083857
 21
-15.87392507127612
 31
0.0
  0
LINE
  5
9E
330
1F
100
AcDbEntity
  8
0
  6
Continuous
 62
     1
370
    15
100
AcDbLine
 10
82.27116928525932
 20
15.87607492872391
 30
0.0
 11
78.43269079413456
 21
15.87607492872391
 31
0.0
  0
LINE
  5
9F
330
1F
100
AcDbEntity
  8
0
  6
Continuous
 62
     1
370
    15
100
AcDbLine
 10
61.80888206481313
 20
-15.87392507127612
 30
0.0
 11
65.64522726723762
 21
-15.87392507127612
 31
0.0
  0
LINE
  5
A0
330
1F
100
AcDbEntity
  8
0
  6
Continuous
 62
     1
370
    15
100
AcDbLine
 10
15.77342597900754
 20
15.87607492872391
 30
0.0
 11
12.00000000000001
 21
15.87607492872391
 31
0.0
  0
LINE
  5
A1
330
1F
100
AcDbEntity
  8
0
  6
Continuous
 62
     1
370
    15
100
AcDbLine
 10
113.6
 20
15.87607492872391
 30
0.0
 11
111.6799470437513
 21
15.87607492872391
 31
0.0
  0
LINE
  5
A2
330
1F
100
AcDbEntity
  8
0
  6
Continuous
 62
     1
370
    15
100
AcDbLine
 10
95.05776369720998
 20
-15.87392507127612
 30
0.0
 11
98.89495735413479
 21
-15.87392507127612
 31
0.0
  0
LINE
  5
A3
330
1F
100
AcDbEntity
  8
0
  6
Continuous
 62
     1
370
    15
100
AcDbLine
 10
49.0217629271024
 20
15.87607492872391
 30
0.0
 11
45.18297843376074
 21
15.87607492872391
 31
0.0
  0
LINE
  5
A4
330
1F
100
AcDbEntity
  8
0
  6
Continuous
 62
     1
370
    15
100
AcDbLine
 10
78.43269079413444
 20
-15.87392507127612
 30
0.0
 11
82.27116928525923
 21
-15.87392507127612
 31
0.0
  0
LINE
  5
A5
330
1F
100
AcDbEntity
  8
0
  6
Continuous
 62
     1
370
    15
100
AcDbLine
 10
32.39741320083849
 20
15.87607492872391
 30
0.0
 11
28.55943910786382
 21
15.87607492872391
 31
0.0
  0
LINE
  5
A6
330
1F
100
AcDbEntity
  8
외형선
  6
Continuous
370
    15
100
AcDbLine
 10
11.93494109655922
 20
-15.87392507127611
 30
0.0
 11
12.00000000000001
 21
-15.87392507127611
 31
0.0
  0
LINE
  5
A7
330
1F
100
AcDbEntity
  8
외형선
  6
Continuous
370
    15
100
AcDbLine
 10
-48.325
 20
-15.87392507127611
 30
0.0
 11
10.99991004899832
 21
-15.87392507127611
 31
0.0
  0
LINE
  5
A8
330
1F
100
AcDbEntity
  8
외형선
  6
Continuous
370
    15
100
AcDbLine
 10
10.99991004899832
 20
15.8760749287239
 30
0.0
 11
-13.58732499999997
 21
15.8760749287239
 31
0.0
  0
LINE
  5
A9
330
1F
100
AcDbEntity
  8
외형선
  6
Continuous
370
    15
100
AcDbLine
 10
12.00000000000001
 20
15.8760749287239
 30
0.0
 11
11.93494109655918
 21
15.8760749287239
 31
0.0
  0
LINE
  5
AA
330
1F
100
AcDbEntity
  8
외형선
  6
Continuous
370
    15
100
AcDbLine
 10
-50.71260000000002
 20
13.48847492872389
 30
0.0
 11
-51.5
 21
12.70107492872391
 31
0.0
  0
LINE
  5
AB
330
1F
100
AcDbEntity
  8
외형선
  6
Continuous
370
    15
100
AcDbLine
 10
-51.5
 20
-12.69892507127612
 30
0.0
 11
-48.325
 21
-15.87392507127611
 31
0.0
  0
LINE
  5
AC
330
1F
100
AcDbEntity
  8
0
  6
Continuous
 62
     1
370
    15
100
AcDbLine
 10
113.6
 20
9.516638220637857
 30
0.0
 11
113.6
 21
15.76022792433027
 31
0.0
  0
SPLINE
  5
AD
330
1F
100
AcDbEntity
  8
0
  6
Continuous
 62
     1
370
    15
100
AcDbSpline
210
0.0
220
0.0
230
1.0
 70
     8
 71
     3
 72
    25
 73
    21
 74
     0
 42
0.000000001
 43
0.00000001
 40
0.0
 40
0.0
 40
0.0
 40
0.0
 40
0.0544672829900751
 40
0.1089623835124796
 40
0.1634508549807326
 40
0.217914457036826
 40
0.2723700064714151
 40
0.3314400932500237
 40
0.3905184663888956
 40
0.449609690724028
 40
0.5087058609543462
 40
0.5677881523181051
 40
0.6268605800584885
 40
0.6859277230892009
 40
0.7449941728512117
 40
0.8040645224298382
 40
0.863143355663446
 40
0.9222352362992978
 40
0.9813309276883572
 40
1.0
 40
1.0
 40
1.0
 40
1.0
 10
11.99999999999999
 20
10.95223974452695
 30
0.0
 10
12.78810553035034
 20
10.35810273332376
 30
0.0
 10
14.36471909233008
 20
9.169525273246009
 30
0.0
 10
16.73072350565711
 20
7.11922467457935
 30
0.0
 10
19.09638200595999
 20
4.928500608071928
 30
0.0
 10
21.46079752761892
 20
2.623816047299293
 30
0.0
 10
23.89123471422276
 20
0.1959732905716715
 30
0.0
 10
26.38918324596866
 20
-2.305251791801335
 30
0.0
 10
28.95419582248514
 20
-4.813296625938025
 30
0.0
 10
31.51996554019506
 20
-7.19599059587108
 30
0.0
 10
34.08597095955297
 20
-9.391067851832773
 30
0.0
 10
36.65125224402468
 20
-11.34159735724691
 30
0.0
 10
39.21593629550279
 20
-12.99649988590975
 30
0.0
 10
41.78026639054765
 20
-14.31265449091589
 30
0.0
 10
44.34455327105493
 20
-15.25650584538637
 30
0.0
 10
46.90909616918286
 20
-15.80103071566871
 30
0.0
 10
49.4741814495252
 20
-15.94119814678779
 30
0.0
 10
52.0399550617029
 20
-15.63894235632603
 30
0.0
 10
54.02101729094144
 20
-15.16909297149934
 30
0.0
 10
55.14647279209706
 20
-14.68013390993421
 30
0.0
 10
55.41666213151919
 20
-14.56274897049139
 30
0.0
  0
SPLINE
  5
AE
330
1F
100
AcDbEntity
  8
0
  6
Continuous
 62
     1
370
    15
100
AcDbSpline
210
0.0
220
0.0
230
1.0
 70
     8
 71
     3
 72
    13
 73
     9
 74
     0
 42
0.000000001
 43
0.00000001
 40
0.0
 40
0.0
 40
0.0
 40
0.0
 40
0.1279072623673748
 40
0.3022993142516614
 40
0.4766910737269934
 40
0.6510960999490012
 40
0.8255279206195878
 40
1.0
 40
1.0
 40
1.0
 40
1.0
 10
98.89495735413479
 20
15.83559836296145
 30
0.0
 10
99.52190354108481
 20
15.83027145718383
 30
0.0
 10
101.0036442873087
 20
15.8176817110361
 30
0.0
 10
103.3400348939218
 20
15.31519516080259
 30
0.0
 10
105.904340731162
 20
14.41904585505259
 30
0.0
 10
108.4689410472562
 20
13.12835851898739
 30
0.0
 10
111.0341055913863
 20
11.51718797136628
 30
0.0
 10
112.7446360732341
 20
10.19812937596749
 30
0.0
 10
113.6
 20
9.538523977660976
 30
0.0
  0
SPLINE
  5
AF
330
1F
100
AcDbEntity
  8
외형선
  6
Continuous
370
    15
100
AcDbSpline
210
0.0
220
0.0
230
1.0
 70
    24
 71
     3
 72
    12
 73
     8
 74
     0
 42
0.000000001
 43
0.00000001
 40
0.0
 40
0.0
 40
0.0
 40
0.0
 40
0.1913016559535283
 40
0.3871701215877004
 40
0.5970948890651402
 40
0.8131074890207399
 40
1.0
 40
1.0
 40
1.0
 40
1.0
 10
12.00000000000005
 20
15.87594146362067
 30
0.0
 10
12.00000000000001
 20
15.55919449428896
 30
0.0
 10
11.99999999999995
 20
14.91813907834167
 30
0.0
 10
12.00000000000002
 20
13.91235361389336
 30
0.0
 10
11.99999999999998
 20
12.88636788073588
 30
0.0
 10
11.99999999999999
 20
11.91159349812642
 30
0.0
 10
11.99999999999998
 20
11.33687003079179
 30
0.0
 10
11.99999999999998
 20
11.07027745349822
 30
0.0
  0
SPLINE
  5
B0
330
1F
100
AcDbEntity
  8
0
  6
Continuous
 62
     1
370
    15
100
AcDbSpline
210
0.0
220
0.0
230
1.0
 70
     8
 71
     3
 72
    11
 73
     7
 74
     0
 42
0.000000001
 43
0.00000001
 40
0.0
 40
0.0
 40
0.0
 40
0.0
 40
0.3086210507870028
 40
0.6171708885445392
 40
0.9256733300028794
 40
0.9999999999999999
 40
0.9999999999999999
 40
0.9999999999999999
 40
0.9999999999999999
 10
113.6000000000001
 20
15.76022792433027
 30
0.0
 10
112.7446357915634
 20
15.82526584436917
 30
0.0
 10
111.034104746439
 20
15.95532667721625
 30
0.0
 10
108.4689444259192
 20
15.59604712044048
 30
0.0
 10
106.5531563211899
 20
15.13204898049411
 30
0.0
 10
105.4923946284148
 20
14.66242694104251
 30
0.0
 10
105.2864466429423
 20
14.57124933384072
 30
0.0
  0
SPLINE
  5
B1
330
1F
100
AcDbEntity
  8
0
  6
Continuous
 62
     1
370
    15
100
AcDbSpline
210
0.0
220
0.0
230
1.0
 70
     8
 71
     3
 72
    27
 73
    23
 74
     0
 42
0.000000001
 43
0.00000001
 40
0.0
 40
0.0
 40
0.0
 40
0.0
 40
0.0416216539204289
 40
0.0931125215817198
 40
0.1446118152513567
 40
0.1961232419856894
 40
0.2476313470339563
 40
0.2991280791667198
 40
0.3506174164258174
 40
0.4021033543657236
 40
0.4535898966011222
 40
0.5050810453133832
 40
0.556580791764344
 40
0.6080926358860671
 40
0.6596001688624
 40
0.7110964999483916
 40
0.7625856081348862
 40
0.8100524027360397
 40
0.8575262164956616
 40
0.905021707959229
 40
0.952522977712706
 40
1.0
 40
1.0
 40
1.0
 40
1.0
 10
61.8088820648131
 20
-15.84187242734428
 30
0.0
 10
61.11790028021171
 20
-15.82866972043374
 30
0.0
 10
59.57209298350324
 20
-15.79913371654271
 30
0.0
 10
57.17120451965188
 20
-15.25991228110311
 30
0.0
 10
54.60595438955401
 20
-14.33191438685441
 30
0.0
 10
52.03996983309041
 20
-13.01834695960254
 30
0.0
 10
49.47417749260499
 20
-11.36882565365194
 30
0.0
 10
46.90909722917029
 20
-9.42222559518856
 30
0.0
 10
44.34455298707039
 20
-7.230549713663795
 30
0.0
 10
41.78026646663974
 20
-4.850524935336642
 30
0.0
 10
39.21593627511197
 20
-2.344136275811708
 30
0.0
 10
36.65125224948957
 20
0.2234477976166876
 30
0.0
 10
34.08597095808811
 20
2.785481663745477
 30
0.0
 10
31.51996554058754
 20
5.274797326630193
 30
0.0
 10
28.95419582237993
 20
7.62686166632084
 30
0.0
 10
26.38918324599688
 20
9.780172098181808
 30
0.0
 10
23.89123471421583
 20
11.62933157274961
 30
0.0
 10
21.46079752762071
 20
13.15154669314006
 30
0.0
 10
19.09638200595956
 20
14.34270743870535
 30
0.0
 10
16.73072350565731
 20
15.20932456021919
 30
0.0
 10
14.36471909233008
 20
15.76431007575453
 30
0.0
 10
12.78810553035038
 20
15.83873733462985
 30
0.0
 10
12.00000000000005
 20
15.8759414636206
 30
0.0
  0
SPLINE
  5
B2
330
1F
100
AcDbEntity
  8
0
  6
Continuous
 62
     1
370
    15
100
AcDbSpline
210
0.0
220
0.0
230
1.0
 70
     8
 71
     3
 72
    30
 73
    26
 74
     0
 42
0.000000001
 43
0.00000001
 40
0.0
 40
0.0
 40
0.0
 40
0.0
 40
0.0170128549976136
 40
0.0590588072515661
 40
0.1010855690586575
 40
0.1431061170717084
 40
0.1886874663260598
 40
0.2342752097386359
 40
0.2798728697587037
 40
0.3254743462718247
 40
0.3710651131771154
 40
0.4166482688313229
 40
0.4622273465467568
 40
0.5078058893023738
 40
0.5533874413459888
 40
0.5989755397900198
 40
0.6445737062436132
 40
0.6901748132595514
 40
0.7357651793347566
 40
0.7813480861852292
 40
0.8269270677127722
 40
0.8725056671244743
 40
0.9180874285337619
 40
0.9636758885568254
 40
1.0
 40
1.0
 40
1.0
 40
1.0
 10
15.77342597900754
 20
15.83364696912663
 30
0.0
 10
16.09254128346314
 20
15.8441392012353
 30
0.0
 10
17.20032532438467
 20
15.88056217162045
 30
0.0
 10
19.09639307865165
 20
15.57378404970349
 30
0.0
 10
21.46079456979986
 20
14.92700658962424
 30
0.0
 10
23.89123558180153
 20
13.8999268310579
 30
0.0
 10
26.38918300555491
 20
12.51109902727307
 30
0.0
 10
28.9541958868251
 20
10.75740284807827
 30
0.0
 10
31.51996552331756
 20
8.723912086662072
 30
0.0
 10
34.08597096270962
 20
6.463165055419874
 30
0.0
 10
36.65125224827031
 20
4.033937653339727
 30
0.0
 10
39.21593627536875
 20
1.499874848466129
 30
0.0
 10
41.78026646683158
 20
-1.073118351820175
 30
0.0
 10
44.34455298604608
 20
-3.618117540003564
 30
0.0
 10
46.90909723307637
 20
-6.068928310031084
 30
0.0
 10
49.47417747800155
 20
-8.361805165210122
 30
0.0
 10
52.03996988761183
 20
-10.43682174969629
 30
0.0
 10
54.60595418608277
 20
-12.23985513157994
 30
0.0
 10
57.17120527876374
 20
-13.72402665098533
 30
0.0
 10
59.73586816354845
 20
-14.85074277813034
 30
0.0
 10
62.30019061066346
 20
-15.58974699703743
 30
0.0
 10
64.86448055966054
 20
-15.92577296376067
 30
0.0
 10
67.42904751196652
 20
-15.83537777792095
 30
0.0
 10
69.82019554626275
 20
-15.40684339756667
 30
0.0
 10
71.35669650645404
 20
-14.82921323486449
 30
0.0
 10
72.03805751260359
 20
-14.57306326878046
 30
0.0
  0
SPLINE
  5
B3
330
1F
100
AcDbEntity
  8
0
  6
Continuous
 62
     1
370
    15
100
AcDbSpline
210
0.0
220
0.0
230
1.0
 70
     8
 71
     3
 72
    30
 73
    26
 74
     0
 42
0.000000001
 43
0.00000001
 40
0.0
 40
0.0
 40
0.0
 40
0.0
 40
0.0131780503533012
 40
0.0587681728014143
 40
0.1043690153929555
 40
0.1499678454775754
 40
0.1955564561610348
 40
0.2411383682085804
 40
0.2867171182480913
 40
0.3322962504047055
 40
0.3778793078972218
 40
0.4234698246391216
 40
0.4690710823572513
 40
0.5146693995033185
 40
0.5602576486065503
 40
0.6058393512877314
 40
0.6514180446709694
 40
0.6969972730157925
 40
0.7425805793128659
 40
0.7881714968861767
 40
0.8337731241027101
 40
0.8793709348135774
 40
0.9249588288841811
 40
0.9705403287754285
 40
0.9999999999999999
 40
0.9999999999999999
 40
0.9999999999999999
 40
0.9999999999999999
 10
78.43269079413444
 20
-15.83137710507622
 30
0.0
 10
78.18555069704017
 20
-15.84372137222204
 30
0.0
 10
77.08341710801825
 20
-15.89877124722505
 30
0.0
 10
75.125928602057
 20
-15.57900347935934
 30
0.0
 10
72.55998006339482
 20
-14.86986844223819
 30
0.0
 10
69.99415153262598
 20
-13.7422699598422
 30
0.0
 10
67.42904428146664
 20
-12.264932417084
 30
0.0
 10
64.86448142514925
 20
-10.46597298864129
 30
0.0
 10
62.30019037876191
 20
-8.395043923218202
 30
0.0
 10
59.73586822569196
 20
-6.105258978377613
 30
0.0
 10
57.1712052621092
 20
-3.656371386273655
 30
0.0
 10
54.60595419054567
 20
-1.111956317608204
 30
0.0
 10
52.03996988642038
 20
1.461296344410614
 30
0.0
 10
49.47417747830421
 20
3.996613635256043
 30
0.0
 10
46.90909723305674
 20
6.427813743098698
 30
0.0
 10
44.34455298582193
 20
8.691416478024433
 30
0.0
 10
41.78026646774769
 20
10.7285930076799
 30
0.0
 10
39.21593627192843
 20
12.48638996320303
 30
0.0
 10
36.65125226111766
 20
13.9189806954237
 30
0.0
 10
34.08597091474758
 20
14.98936530706462
 30
0.0
 10
31.51996570235399
 20
15.66825632986927
 30
0.0
 10
28.95419521878101
 20
15.94259319921219
 30
0.0
 10
26.38918549798358
 20
15.788285818655
 30
0.0
 10
24.12680645121728
 20
15.33326987106859
 30
0.0
 10
22.71980381784184
 20
14.78671443860768
 30
0.0
 10
22.1674425690099
 20
14.57214764671353
 30
0.0
  0
LINE
  5
B4
330
1F
100
AcDbEntity
  8
0
  6
Continuous
 62
     1
370
    15
100
AcDbLine
 10
113.6
 20
-15.75807806688247
 30
0.0
 11
113.6
 21
-9.517973858279005
 31
0.0
  0
SPLINE
  5
B5
330
1F
100
AcDbEntity
  8
0
  6
Continuous
 62
     1
370
    15
100
AcDbSpline
210
0.0
220
0.0
230
1.0
 70
     8
 71
     3
 72
    12
 73
     8
 74
     0
 42
0.000000001
 43
0.00000001
 40
0.0
 40
0.0
 40
0.0
 40
0.0
 40
0.2325747808306873
 40
0.4652683422601045
 40
0.6979335976912834
 40
0.9304926609688442
 40
1.0
 40
1.0
 40
1.0
 40
1.0
 10
11.99999999999999
 20
-15.42768338603458
 30
0.0
 10
12.78810566094684
 20
-15.5799315053747
 30
0.0
 10
14.36471948418627
 20
-15.88450550021881
 30
0.0
 10
16.73072193737782
 20
-15.90363507683919
 30
0.0
 10
19.09638788497526
 20
-15.57152119527073
 30
0.0
 10
20.90837609671761
 20
-15.11514422876725
 30
0.0
 10
21.93191903648907
 20
-14.6719739898859
 30
0.0
 10
22.16744256901001
 20
-14.56999778926574
 30
0.0
  0
SPLINE
  5
B6
330
1F
100
AcDbEntity
  8
0
  6
Continuous
 62
     1
370
    15
100
AcDbSpline
210
0.0
220
0.0
230
1.0
 70
     8
 71
     3
 72
    26
 73
    22
 74
     0
 42
0.000000001
 43
0.00000001
 40
0.0
 40
0.0
 40
0.0
 40
0.0
 40
0.0371984260035301
 40
0.0906876201034111
 40
0.1441888046439761
 40
0.1976923504623193
 40
0.2511833183182287
 40
0.3046657126360986
 40
0.3581436804360314
 40
0.4116213792319868
 40
0.465102967175973
 40
0.5185925931989903
 40
0.5720943871989821
 40
0.6255973924155229
 40
0.6790879053185046
 40
0.7325700231330827
 40
0.7860478935345622
 40
0.8395256742679174
 40
0.893007523290806
 40
0.9464975889155013
 40
1.0
 40
1.0
 40
1.0
 40
1.0
 10
65.64522726723773
 20
15.8322337534263
 30
0.0
 10
66.23979416319182
 20
15.83030992892393
 30
0.0
 10
67.68931401065073
 20
15.82561975559239
 30
0.0
 10
69.99415484094493
 20
15.34126983982618
 30
0.0
 10
72.55997745350018
 20
14.45948568175363
 30
0.0
 10
75.12593573230805
 20
13.18581977481046
 30
0.0
 10
77.69115735688881
 20
11.57267539013656
 30
0.0
 10
80.25579949679354
 20
9.657148445958802
 30
0.0
 10
82.8201142324833
 20
7.490484082326759
 30
0.0
 10
85.38441041666658
 20
5.128677479391579
 30
0.0
 10
87.94899215426908
 20
2.633251899575535
 30
0.0
 10
90.51412804076242
 20
0.069037159001849
 30
0.0
 10
93.07998823684555
 20
-2.49690655909674
 30
0.0
 10
95.64591561418284
 20
-4.997748550868123
 30
0.0
 10
98.2111085576971
 20
-7.368415509667682
 30
0.0
 10
100.7757301051534
 20
-9.547047807577336
 30
0.0
 10
103.3400380806091
 20
-11.47634014769568
 30
0.0
 10
105.9043398775182
 20
-13.10880407592475
 30
0.0
 10
108.4689412749392
 20
-14.39195791713587
 30
0.0
 10
111.0341055344465
 20
-15.32973114455066
 30
0.0
 10
112.7446360542528
 20
-15.61528477645172
 30
0.0
 10
113.6000000000001
 20
-15.75807806688247
 30
0.0
  0
SPLINE
  5
B7
330
1F
100
AcDbEntity
  8
외형선
  6
Continuous
370
    15
100
AcDbSpline
210
0.0
220
0.0
230
1.0
 70
    24
 71
     3
 72
    15
 73
    11
 74
     0
 42
0.000000001
 43
0.00000001
 40
0.0
 40
0.0
 40
0.0
 40
0.0
 40
0.136047070212487
 40
0.2687060946515817
 40
0.4052122397863714
 40
0.537871264225438
 40
0.6743774093602584
 40
0.8070364337993523
 40
0.9435425789341398
 40
1.0
 40
1.0
 40
1.0
 40
1.0
 10
12.00000000000001
 20
-8.110770903907765
 30
0.0
 10
11.99999999999996
 20
-8.371363785953415
 30
0.0
 10
11.9999999999999
 20
-8.886059879879735
 30
0.0
 10
12.00000000000009
 20
-9.807093548117207
 30
0.0
 10
12.00000000000004
 20
-10.79397528235737
 30
0.0
 10
12.00000000000005
 20
-11.8475211203204
 30
0.0
 10
12.00000000000002
 20
-12.91606044852178
 30
0.0
 10
12.00000000000006
 20
-13.98812556815405
 30
0.0
 10
11.99999999999995
 20
-14.82332718171282
 30
0.0
 10
11.99999999999999
 20
-15.2908849831612
 30
0.0
 10
12.00000000000001
 20
-15.42768338603458
 30
0.0
  0
SPLINE
  5
B8
330
1F
100
AcDbEntity
  8
0
  6
Continuous
 62
     1
370
    15
100
AcDbSpline
210
0.0
220
0.0
230
1.0
 70
     8
 71
     3
 72
    24
 73
    20
 74
     0
 42
0.000000001
 43
0.00000001
 40
0.0
 40
0.0
 40
0.0
 40
0.0
 40
0.0617316686068705
 40
0.1234490928868414
 40
0.185157036761546
 40
0.2468602865991754
 40
0.3085636398968691
 40
0.3702718939063726
 40
0.4319898342609352
 40
0.4937221883838708
 40
0.5554531449918705
 40
0.6171700620546045
 40
0.6788777046936091
 40
0.7405808599909675
 40
0.8022843256680651
 40
0.8639928987100992
 40
0.9257113639943381
 40
0.9874443418695613
 40
0.9999999999999999
 40
0.9999999999999999
 40
0.9999999999999999
 40
0.9999999999999999
 10
113.6000000000001
 20
-9.536374120213106
 30
0.0
 10
112.7446360542528
 20
-8.828793563733935
 30
0.0
 10
111.0341055344466
 20
-7.413795722058901
 30
0.0
 10
108.4689412749388
 20
-5.031406713326475
 30
0.0
 10
105.9043398775197
 20
-2.53596671881781
 30
0.0
 10
103.3400380806035
 20
0.0302416060791586
 30
0.0
 10
100.7757301051741
 20
2.594412550809204
 30
0.0
 10
98.21110855762016
 20
5.091472772726238
 30
0.0
 10
95.64591561446983
 20
7.456051981755577
 30
0.0
 10
93.07998823577415
 20
9.626349413824657
 30
0.0
 10
90.51412804476038
 20
11.54590844772465
 30
0.0
 10
87.94899213935308
 20
13.16476774991792
 30
0.0
 10
85.3844104723231
 20
14.44041971766933
 30
0.0
 10
82.8201140247856
 20
15.3405654683653
 30
0.0
 10
80.25580027196574
 20
15.83884017254915
 30
0.0
 10
77.69115446344385
 20
15.93333474137894
 30
0.0
 10
75.12594653376232
 20
15.58017585542355
 30
0.0
 10
73.24133532736371
 20
15.11208105506986
 30
0.0
 10
72.21202340211153
 20
14.65283169913262
 30
0.0
 10
72.0380575126037
 20
14.57521312622825
 30
0.0
  0
SPLINE
  5
B9
330
1F
100
AcDbEntity
  8
0
  6
Continuous
 62
     1
370
    15
100
AcDbSpline
210
0.0
220
0.0
230
1.0
 70
     8
 71
     3
 72
    14
 73
    10
 74
     0
 42
0.000000001
 43
0.00000001
 40
0.0
 40
0.0
 40
0.0
 40
0.0
 40
0.1310571535716713
 40
0.28592233249694
 40
0.4286894904032554
 40
0.5714777600217442
 40
0.7143312302548576
 40
0.8572020800063241
 40
1.0
 40
1.0
 40
1.0
 40
1.0
 10
28.55943910786393
 20
-15.84698449441297
 30
0.0
 10
27.83597579822856
 20
-15.82928976720959
 30
0.0
 10
26.25762382483724
 20
-15.79068586397343
 30
0.0
 10
23.89123915945398
 20
-15.24727131101659
 30
0.0
 10
21.46079637756294
 20
-14.3673470480408
 30
0.0
 10
19.09638231418572
 20
-13.18409241636751
 30
0.0
 10
16.73072342343522
 20
-11.70809450583734
 30
0.0
 10
14.3647191128744
 20
-9.98492276092242
 30
0.0
 10
12.78810553719732
 20
-8.656683352717243
 30
0.0
 10
12.00000000000005
 20
-7.992733194936456
 30
0.0
  0
SPLINE
  5
BA
330
1F
100
AcDbEntity
  8
0
  6
Continuous
 62
     1
370
    15
100
AcDbSpline
210
0.0
220
0.0
230
1.0
 70
     8
 71
     3
 72
    30
 73
    26
 74
     0
 42
0.000000001
 43
0.00000001
 40
0.0
 40
0.0
 40
0.0
 40
0.0
 40
0.0080384679719603
 40
0.053637270117579
 40
0.0992390128665373
 40
0.1448300145250213
 40
0.1904135568547825
 40
0.2359931738068904
 40
0.2815724086378302
 40
0.3271548055104374
 40
0.3727439010902072
 40
0.4183432161798347
 40
0.4639445437977893
 40
0.509535151158293
 40
0.5551184512513809
 40
0.6006979786020914
 40
0.6462772766794271
 40
0.6918598894962031
 40
0.7374493532061246
 40
0.7830491877409321
 40
0.828650054601389
 40
0.8742402742033395
 40
0.9198233386313515
 40
0.9654027829688948
 40
1.0
 40
1.0
 40
1.0
 40
1.0
 10
49.02176292710239
 20
15.84601601040293
 30
0.0
 10
49.17252281288664
 20
15.85550785827856
 30
0.0
 10
50.17847926440351
 20
15.91884291294268
 30
0.0
 10
52.03998567610897
 20
15.63453624533503
 30
0.0
 10
54.60594996085239
 20
14.97563920625318
 30
0.0
 10
57.1712063944986
 20
13.88899158227479
 30
0.0
 10
59.73586792469804
 20
12.45073202627237
 30
0.0
 10
62.30019045053203
 20
10.68556586894969
 30
0.0
 10
64.86448143904758
 20
8.642841614770774
 30
0.0
 10
67.42904415408033
 20
6.374764242732834
 30
0.0
 10
69.99415202839884
 20
3.940512992786488
 30
0.0
 10
72.55997820723358
 20
1.403621240102295
 30
0.0
 10
75.12593553039632
 20
-1.169732119484013
 30
0.0
 10
77.69115741096665
 20
-3.712714884747059
 30
0.0
 10
80.25579948234088
 20
-6.158717899213424
 30
0.0
 10
82.82011423622454
 20
-8.444188454846351
 30
0.0
 10
85.3844104161538
 20
-10.50968229974206
 30
0.0
 10
87.94899215257837
 20
-12.30149051902181
 30
0.0
 10
90.51412804804006
 20
-13.77288852074778
 30
0.0
 10
93.07998820941918
 20
-14.88566150394801
 30
0.0
 10
95.64591571660044
 20
-15.60970628768446
 30
0.0
 10
98.21110817557587
 20
-15.93042153645353
 30
0.0
 10
100.775731530968
 20
-15.82361170887703
 30
0.0
 10
103.1340860251144
 20
-15.38917118479616
 30
0.0
 10
104.6376432003607
 20
-14.81630031400753
 30
0.0
 10
105.2864466429423
 20
-14.56909947639293
 30
0.0
  0
SPLINE
  5
BB
330
1F
100
AcDbEntity
  8
0
  6
Continuous
 62
     1
370
    15
100
AcDbSpline
210
0.0
220
0.0
230
1.0
 70
     8
 71
     3
 72
    30
 73
    26
 74
     0
 42
0.000000001
 43
0.00000001
 40
0.0
 40
0.0
 40
0.0
 40
0.0
 40
0.0114795748025207
 40
0.0570699102497729
 40
0.1026532425717115
 40
0.1482331074332471
 40
0.193813048720186
 40
0.239396610137063
 40
0.2849873268058912
 40
0.3305886908493117
 40
0.376189022555828
 40
0.4217789833243854
 40
0.467362093125103
 40
0.5129418881502397
 40
0.5585219124512508
 40
0.6041057095357737
 40
0.6496968139673822
 40
0.6952986387733242
 40
0.7408984510289967
 40
0.7864880436633889
 40
0.8320709375175828
 40
0.8776506692956343
 40
0.9232307831990197
 40
0.9688148225228566
 40
1.0
 40
1.0
 40
1.0
 40
1.0
 10
111.6799470437513
 20
-15.83491829820181
 30
0.0
 10
111.4646207006268
 20
-15.84662544479529
 30
0.0
 10
110.3941407143966
 20
-15.90482671242615
 30
0.0
 10
108.4689532756066
 20
-15.59742144531646
 30
0.0
 10
105.904336662431
 20
-14.90485618899402
 30
0.0
 10
103.3400389420604
 20
-13.79103735563534
 30
0.0
 10
100.7757298743086
 20
-12.32683806519978
 30
0.0
 10
98.21110861956552
 20
-10.53910533783856
 30
0.0
 10
95.64591559759467
 20
-8.477254626143262
 30
0.0
 10
93.07998824130956
 20
-6.194439631664162
 30
0.0
 10
90.51412803949624
 20
-3.750234552178926
 30
0.0
 10
87.94899215487071
 20
-1.208249985791873
 30
0.0
 10
85.38441041552602
 20
1.365017960287016
 30
0.0
 10
82.82011423644362
 20
3.902672755462002
 30
0.0
 10
80.25579948209202
 20
6.338712400373412
 30
0.0
 10
77.69115741174289
 20
8.609769330506976
 30
0.0
 10
75.12593552753904
 20
10.65675636463666
 30
0.0
 10
72.55997821788863
 20
12.4260616845899
 30
0.0
 10
69.99415198864264
 20
13.8716524255362
 30
0.0
 10
67.42904430240557
 20
14.95615847066447
 30
0.0
 10
64.8644808855931
 20
15.64997984646762
 30
0.0
 10
62.30019251591138
 20
15.94004217505605
 30
0.0
 10
59.73586021622404
 20
15.80056235733469
 30
0.0
 10
57.44140178836621
 20
15.35565699589044
 30
0.0
 10
56.00155602088802
 20
14.79332800837189
 30
0.0
 10
55.41666213151919
 20
14.56489882793918
 30
0.0
  0
LINE
  5
BC
330
1F
100
AcDbEntity
  8
0
  6
Continuous
 62
     1
370
    15
100
AcDbLine
 10
113.6
 20
-6.220629017945233
 30
0.0
 11
113.6
 21
6.22277887539332
 31
0.0
  0
SPLINE
  5
BD
330
1F
100
AcDbEntity
  8
0
  6
Continuous
 62
     1
370
    15
100
AcDbSpline
210
0.0
220
0.0
230
1.0
 70
     8
 71
     3
 72
    18
 73
    14
 74
     0
 42
0.000000001
 43
0.00000001
 40
0.0
 40
0.0
 40
0.0
 40
0.0
 40
0.0882693958126585
 40
0.1765838725736756
 40
0.2648876063239783
 40
0.3531510368341513
 40
0.4414014173077545
 40
0.5371300930248667
 40
0.6328721975743676
 40
0.7286351287057559
 40
0.8244060751291845
 40
0.9201545295335787
 40
1.0
 40
1.0
 40
1.0
 40
1.0
 10
11.99999999999999
 20
-4.476518570231382
 30
0.0
 10
12.78810553033281
 20
-5.223231512396433
 30
0.0
 10
14.36471909227747
 20
-6.717038757981753
 30
0.0
 10
16.73072350586761
 20
-8.781548776996381
 30
0.0
 10
19.09638200517091
 20
-10.6588524926391
 30
0.0
 10
21.46079753056321
 20
-12.29821141146566
 30
0.0
 10
23.89123470284235
 20
-13.70399451884759
 30
0.0
 10
26.38918329247003
 20
-14.81508727355113
 30
0.0
 10
28.95419564936546
 20
-15.56922796087987
 30
0.0
 10
31.51996618633699
 20
-15.92060325747633
 30
0.0
 10
34.08596854818514
 20
-15.84645275369436
 30
0.0
 10
36.50938295632862
 20
-15.4242168127251
 30
0.0
 10
38.07738873550562
 20
-14.84221844537758
 30
0.0
 10
38.79038697405271
 20
-14.57757413330506
 30
0.0
  0
SPLINE
  5
BE
330
1F
100
AcDbEntity
  8
0
  6
Continuous
 62
     1
370
    15
100
AcDbSpline
210
0.0
220
0.0
230
1.0
 70
     8
 71
     3
 72
    20
 73
    16
 74
     0
 42
0.000000001
 43
0.00000001
 40
0.0
 40
0.0
 40
0.0
 40
0.0
 40
0.0175237644289935
 40
0.0993809754567554
 40
0.1812441395232279
 40
0.2631196073115566
 40
0.3450137003713801
 40
0.4269096474154043
 40
0.5087864727326102
 40
0.5906504478610736
 40
0.6725079215618734
 40
0.7543652580095241
 40
0.83622882170409
 40
0.9181049623816441
 40
1.0
 40
1.0
 40
1.0
 40
1.0
 10
82.27116928525935
 20
15.84125495224837
 30
0.0
 10
82.4541522137154
 20
15.85200182592917
 30
0.0
 10
83.49188711340454
 20
15.91294962021369
 30
0.0
 10
85.38440784876983
 20
15.61743825044163
 30
0.0
 10
87.94899284246596
 20
14.94170232719231
 30
0.0
 10
90.51412785630225
 20
13.84146084653407
 30
0.0
 10
93.0799882862779
 20
12.39010209347796
 30
0.0
 10
95.64591560094074
 20
10.61348372390991
 30
0.0
 10
98.21110856124429
 20
8.561005275411501
 30
0.0
 10
100.7757301042031
 20
6.285489070846608
 30
0.0
 10
103.3400380808637
 20
3.846644558588583
 30
0.0
 10
105.9043398774499
 20
1.306792251683729
 30
0.0
 10
108.4689412749574
 20
-1.264040976441035
 30
0.0
 10
111.0341055344419
 20
-3.81377649228893
 30
0.0
 10
112.7446360542512
 20
-5.418283130062767
 30
0.0
 10
113.6
 20
-6.220629017945234
 30
0.0
  0
SPLINE
  5
BF
330
1F
100
AcDbEntity
  8
외형선
  6
Continuous
370
    15
100
AcDbSpline
210
0.0
220
0.0
230
1.0
 70
    24
 71
     3
 72
    34
 73
    30
 74
     0
 42
0.000000001
 43
0.00000001
 40
0.0
 40
0.0
 40
0.0
 40
0.0
 40
0.1250000000000008
 40
0.1250000000000008
 40
0.1562500000000009
 40
0.1562500000000009
 40
0.187500000000001
 40
0.187500000000001
 40
0.2500000000000008
 40
0.2500000000000008
 40
0.3750000000000007
 40
0.3750000000000007
 40
0.5000000000000004
 40
0.5000000000000004
 40
0.5625000000000003
 40
0.5625000000000003
 40
0.6250000000000002
 40
0.6250000000000002
 40
0.6875000000000002
 40
0.6875000000000002
 40
0.7500000000000002
 40
0.7500000000000002
 40
0.8125000000000001
 40
0.8125000000000001
 40
0.8750000000000001
 40
0.8750000000000001
 40
0.9375
 40
0.9375
 40
1.0
 40
1.0
 40
1.0
 40
1.0
 10
12.00000000000004
 20
7.882133339960325
 30
0.0
 10
12.00000000000005
 20
7.69364538112641
 30
0.0
 10
12.00000000000004
 20
7.445040539208066
 30
0.0
 10
12.00000000000005
 20
7.113623205089947
 30
0.0
 10
12.00000000000001
 20
7.046188576176018
 30
0.0
 10
11.99999999999999
 20
6.909927544836518
 30
0.0
 10
11.99999999999999
 20
6.839720696216874
 30
0.0
 10
12.00000000000004
 20
6.612334664792137
 30
0.0
 10
12.00000000000005
 20
6.442082776035099
 30
0.0
 10
12.00000000000006
 20
5.865686422115178
 30
0.0
 10
12.00000000000001
 20
5.392450376432131
 30
0.0
 10
11.99999999999999
 20
4.234376160533073
 30
0.0
 10
12.00000000000002
 20
3.546996242094688
 30
0.0
 10
12.00000000000001
 20
2.388030790304752
 30
0.0
 10
12.00000000000001
 20
1.981313526200583
 30
0.0
 10
11.99999999999999
 20
1.145551547363958
 30
0.0
 10
12.00000000000002
 20
0.7165863476612199
 30
0.0
 10
12.00000000000004
 20
-0.1369722011748034
 30
0.0
 10
12.00000000000001
 20
-0.5613770735920952
 30
0.0
 10
12.00000000000005
 20
-1.374885614653756
 30
0.0
 10
12.00000000000005
 20
-1.763752036521176
 30
0.0
 10
12.00000000000004
 20
-2.477712424067088
 30
0.0
 10
12.00000000000004
 20
-2.802627064975038
 30
0.0
 10
12.00000000000004
 20
-3.369341227681543
 30
0.0
 10
12.00000000000002
 20
-3.611097739106182
 30
0.0
 10
12.00000000000004
 20
-4.004851742409778
 30
0.0
 10
12.00000000000002
 20
-4.156937904073237
 30
0.0
 10
12.00000000000005
 20
-4.3766217305647
 30
0.0
 10
12.00000000000004
 20
-4.444371053706428
 30
0.0
 10
12.00000000000002
 20
-4.476518570231373
 30
0.0
  0
SPLINE
  5
C0
330
1F
100
AcDbEntity
  8
0
  6
Continuous
 62
     1
370
    15
100
AcDbSpline
210
0.0
220
0.0
230
1.0
 70
     8
 71
     3
 72
    17
 73
    13
 74
     0
 42
0.000000001
 43
0.00000001
 40
0.0
 40
0.0
 40
0.0
 40
0.0
 40
0.1028915870523125
 40
0.2057594322969877
 40
0.3086114760257513
 40
0.4114556959432481
 40
0.5143000883033576
 40
0.617152648950947
 40
0.7200213543656934
 40
0.8229140840055542
 40
0.9258044843299611
 40
1.0
 40
1.0
 40
1.0
 40
1.0
 10
113.6000000000001
 20
6.22277887539332
 30
0.0
 10
112.7446360540878
 20
6.993794259790635
 30
0.0
 10
111.0341055339519
 20
8.535647119978094
 30
0.0
 10
108.468941276917
 20
10.58279469522829
 30
0.0
 10
105.9043398701028
 20
12.36576763945017
 30
0.0
 10
103.3400381082909
 20
13.82343821327703
 30
0.0
 10
100.7757300018366
 20
14.9221848544164
 30
0.0
 10
98.21110894334109
 20
15.63113130828073
 30
0.0
 10
95.64591417454965
 20
15.93660978867658
 30
0.0
 10
93.0799936109462
 20
15.81347077690592
 30
0.0
 10
90.75246119642199
 20
15.37360294840183
 30
0.0
 10
89.28054976235211
 20
14.80571492358247
 30
0.0
 10
88.66384782274181
 20
14.56778101106491
 30
0.0
  0
SPLINE
  5
C1
330
1F
100
AcDbEntity
  8
0
  6
Continuous
 62
     1
370
    15
100
AcDbSpline
210
0.0
220
0.0
230
1.0
 70
     8
 71
     3
 72
    21
 73
    17
 74
     0
 42
0.000000001
 43
0.00000001
 40
0.0
 40
0.0
 40
0.0
 40
0.0
 40
0.0252688992218382
 40
0.1025499138843264
 40
0.179831835601647
 40
0.2571206716963721
 40
0.334422413100724
 40
0.4117423132549979
 40
0.4890557423279739
 40
0.5663523572282583
 40
0.6436381304691637
 40
0.7148863624395057
 40
0.7861451302514815
 40
0.8574364365588891
 40
0.9287364161492376
 40
0.9999999999999999
 40
0.9999999999999999
 40
0.9999999999999999
 40
0.9999999999999999
 10
45.18297843376087
 20
-15.82836524909909
 30
0.0
 10
44.90348815206147
 20
-15.84104346475559
 30
0.0
 10
43.76922013080127
 20
-15.8924960394153
 30
0.0
 10
41.78027184116151
 20
-15.55987466433082
 30
0.0
 10
39.21593483487143
 20
-14.83430932827936
 30
0.0
 10
36.6512526354843
 20
-13.69319576129334
 30
0.0
 10
34.08597085462632
 20
-12.20299854949999
 30
0.0
 10
31.51996556831079
 20
-10.39288749862117
 30
0.0
 10
28.95419581495212
 20
-8.31245352728442
 30
0.0
 10
26.38918324799206
 20
-6.015345278854613
 30
0.0
 10
23.89123471372757
 20
-3.625487958673024
 30
0.0
 10
21.46079752774705
 20
-1.21520053432536
 30
0.0
 10
19.09638200592569
 20
1.157091245188385
 30
0.0
 10
16.73072350566631
 20
3.500274859943274
 30
0.0
 10
14.36471909232785
 20
5.778282468846386
 30
0.0
 10
12.78810553034961
 20
7.18096908246554
 30
0.0
 10
12.00000000000005
 20
7.88213333996028
 30
0.0
  0
SPLINE
  5
C2
330
1F
100
AcDbEntity
  8
0
  6
Continuous
 62
     1
370
    15
100
AcDbSpline
210
0.0
220
0.0
230
1.0
 70
     8
 71
     3
 72
    30
 73
    26
 74
     0
 42
0.000000001
 43
0.00000001
 40
0.0
 40
0.0
 40
0.0
 40
0.0
 40
0.0300074465672343
 40
0.0755969340782615
 40
0.1211788105517966
 40
0.1667566092009958
 40
0.2123338729053904
 40
0.2579141458133345
 40
0.3035009649379858
 40
0.3490978517896653
 40
0.3946976791211698
 40
0.4402867658133597
 40
0.4858683934901422
 40
0.5314460959541497
 40
0.5770234163130394
 40
0.6226038985807809
 40
0.668191079274318
 40
0.7137884790484609
 40
0.7593878912663984
 40
0.8049765836771698
 40
0.8505579691274539
 40
0.8961355819938274
 40
0.9417129655964566
 40
0.9872936637992963
 40
1.0
 40
1.0
 40
1.0
 40
1.0
 10
32.39741320083849
 20
15.82946552246989
 30
0.0
 10
32.96031953773432
 20
15.83056941639313
 30
0.0
 10
34.37843397633566
 20
15.83335042596547
 30
0.0
 10
36.6512503424121
 20
15.36640243053678
 30
0.0
 10
39.21593678595676
 20
14.50016261358054
 30
0.0
 10
41.78026633002135
 20
13.23996507083586
 30
0.0
 10
44.34455302272883
 20
11.63933442202623
 30
0.0
 10
46.90909722316248
 20
9.734338778624052
 30
0.0
 10
49.47417748096861
 20
7.575949820374183
 30
0.0
 10
52.03996988566018
 20
5.220110697510153
 30
0.0
 10
54.60595419092176
 20
2.728430804450652
 30
0.0
 10
57.17120526136519
 20
0.1655371632307041
 30
0.0
 10
59.73586822829176
 20
-2.401397686618655
 30
0.0
 10
62.30019036910767
 20
-4.905654880678522
 30
0.0
 10
64.86448146116763
 20
-7.282098942095327
 30
0.0
 10
67.42904414702902
 20
-9.468919989567711
 30
0.0
 10
69.99415203448164
 20
-11.40920620384797
 30
0.0
 10
72.55997818995138
 20
-13.05226015152044
 30
0.0
 10
75.12593559343722
 20
-14.35506852056674
 30
0.0
 10
77.69115717616187
 20
-15.28447781813294
 30
0.0
 10
80.25580035835966
 20
-15.81355038862971
 30
0.0
 10
82.82011096719474
 20
-15.93839886464178
 30
0.0
 10
85.3844226166772
 20
-15.61932023302515
 30
0.0
 10
87.33229320783676
 20
-15.14947655789361
 30
0.0
 10
88.42552725192535
 20
-14.67012733308898
 30
0.0
 10
88.66384782274167
 20
-14.56563115361713
 30
0.0
  0
SPLINE
  5
C3
330
1F
100
AcDbEntity
  8
0
  6
Continuous
 62
     1
370
    15
100
AcDbSpline
210
0.0
220
0.0
230
1.0
 70
     8
 71
     3
 72
    30
 73
    26
 74
     0
 42
0.000000001
 43
0.00000001
 40
0.0
 40
0.0
 40
0.0
 40
0.0
 40
0.0351448538892448
 40
0.0807423203176807
 40
0.1263294164598114
 40
0.1719096620645799
 40
0.2174865931020501
 40
0.2630637534009884
 40
0.3086446862463771
 40
0.3542329259796972
 40
0.3998318854137407
 40
0.4454288324239722
 40
0.4910155604550693
 40
0.5365955901268832
 40
0.5821724579212424
 40
0.6277497078169247
 40
0.6733308828864064
 40
0.7189195168972305
 40
0.7645188914407189
 40
0.8101153255335805
 40
0.8557016919993818
 40
0.9012815123134773
 40
0.9468583234539034
 40
0.9924356695338223
 40
1.0
 40
1.0
 40
1.0
 40
1.0
 10
95.05776369720998
 20
-15.83733737441384
 30
0.0
 10
94.39850394041302
 20
-15.82825961184242
 30
0.0
 10
92.8839105770829
 20
-15.80740422244119
 30
0.0
 10
90.51412264406672
 20
-15.28683322764174
 30
0.0
 10
87.94899360019059
 20
-14.37412265441501
 30
0.0
 10
85.384410028324
 20
-13.07384019917954
 30
0.0
 10
82.82011434013828
 20
-11.43658479336685
 30
0.0
 10
80.25579945450231
 20
-9.500471486781752
 30
0.0
 10
77.69115741839938
 20
-7.317048032809373
 30
0.0
 10
75.12593552850866
 20
-4.942701089650925
 30
0.0
 10
72.55997820734889
 20
-2.439700324910154
 30
0.0
 10
69.99415202982506
 20
0.1269626210683017
 30
0.0
 10
67.4290441482619
 20
2.69035074985804
 30
0.0
 10
64.86448146089147
 20
5.183477897441531
 30
0.0
 10
62.30019036897957
 20
7.541540008660943
 30
0.0
 10
59.73586822908017
 20
9.703216216431729
 30
0.0
 10
57.17120525833904
 20
11.61225103737918
 30
0.0
 10
54.6059542022406
 20
13.21901423799706
 30
0.0
 10
52.03996984340198
 20
14.48115550086665
 30
0.0
 10
49.47417763865252
 20
15.36678393808889
 30
0.0
 10
46.90909663485697
 20
15.84959870926406
 30
0.0
 10
44.34455521791914
 20
15.92883267628082
 30
0.0
 10
41.78025813797736
 20
15.5585432997729
 30
0.0
 10
39.92892649837972
 20
15.09205867041763
 30
0.0
 10
38.93225578794237
 20
14.64356394691211
 30
0.0
 10
38.79038697405259
 20
14.57972399075284
 30
0.0
  0
LINE
  5
C4
330
1F
100
AcDbEntity
  8
0
  6
Continuous
 62
     1
370
    15
100
AcDbLine
 10
113.6
 20
-15.87392507127612
 30
0.0
 11
113.6
 21
-15.75807806688247
 31
0.0
  0
LINE
  5
C5
330
1F
100
AcDbEntity
  8
외형선
  6
Continuous
370
    15
100
AcDbLine
 10
12.00000000000001
 20
-15.87392507127612
 30
0.0
 11
11.99999999999999
 21
-15.42768338603458
 31
0.0
  0
LINE
  5
C6
330
1F
100
AcDbEntity
  8
외형선
  6
Continuous
370
    15
100
AcDbLine
 10
12.00000000000005
 20
7.882133339960322
 30
0.0
 11
11.99999999999999
 21
10.95223974452695
 31
0.0
  0
LINE
  5
C7
330
1F
100
AcDbEntity
  8
0
  6
Continuous
 62
     1
370
    15
100
AcDbLine
 10
113.6
 20
6.22277887539332
 30
0.0
 11
113.6
 21
9.538523977660978
 31
0.0
  0
LINE
  5
C8
330
1F
100
AcDbEntity
  8
0
  6
Continuous
 62
     1
370
    15
100
AcDbLine
 10
113.6
 20
-9.536374120213106
 30
0.0
 11
113.6
 21
-6.220629017945233
 31
0.0
  0
LINE
  5
C9
330
1F
100
AcDbEntity
  8
외형선
  6
Continuous
370
    15
100
AcDbLine
 10
12.00000000000005
 20
-7.99273319493649
 30
0.0
 11
11.99999999999999
 21
-4.476518570231382
 31
0.0
  0
LINE
  5
CA
330
1F
100
AcDbEntity
  8
0
  6
Continuous
 62
     1
370
    15
100
AcDbLine
 10
113.6
 20
15.76022792433027
 30
0.0
 11
113.6
 21
15.87607492872391
 31
0.0
  0
SPLINE
  5
CB
330
1F
100
AcDbEntity
  8
외형선
  6
Continuous
370
    15
100
AcDbSpline
210
0.0
220
0.0
230
1.0
 70
     8
 71
     3
 72
     8
 73
     4
 74
     0
 42
0.000000001
 43
0.00000001
 40
0.0
 40
0.0
 40
0.0
 40
0.0
 40
1.0
 40
1.0
 40
1.0
 40
1.0
 10
11.99999999999999
 20
-4.476518570231382
 30
0.0
 10
11.66592043002592
 20
-4.156363757437093
 30
0.0
 10
11.33222747575206
 20
-3.833362314875669
 30
0.0
 10
10.99991004899833
 20
-3.508488430058034
 30
0.0
  0
SPLINE
  5
CC
330
1F
100
AcDbEntity
  8
외형선
  6
Continuous
370
    15
100
AcDbSpline
210
0.0
220
0.0
230
1.0
 70
     8
 71
     3
 72
     8
 73
     4
 74
     0
 42
0.000000001
 43
0.00000001
 40
0.0
 40
0.0
 40
0.0
 40
0.0
 40
1.0
 40
1.0
 40
1.0
 40
1.0
 10
11.99999999999998
 20
-7.99273319493639
 30
0.0
 10
11.66592043002591
 20
-7.704424026397797
 30
0.0
 10
11.33222747575206
 20
-7.410923021411624
 30
0.0
 10
10.99991004899832
 20
-7.113129111222902
 30
0.0
  0
LINE
  5
CD
330
1F
100
AcDbEntity
  8
외형선
  6
Continuous
370
    15
100
AcDbLine
 10
10.99991004899832
 20
-15.16170121015097
 30
0.0
 11
10.99991004899832
 21
-7.11307742622493
 31
0.0
  0
SPLINE
  5
CE
330
1F
100
AcDbEntity
  8
외형선
  6
Continuous
370
    15
100
AcDbSpline
210
0.0
220
0.0
230
1.0
 70
     8
 71
     3
 72
     8
 73
     4
 74
     0
 42
0.000000001
 43
0.00000001
 40
0.0
 40
0.0
 40
0.0
 40
0.0
 40
1.0
 40
1.0
 40
1.0
 40
1.0
 10
11.99999999999999
 20
-15.42768338603457
 30
0.0
 10
11.66592043002592
 20
-15.34911814523389
 30
0.0
 10
11.33222747575206
 20
-15.2603469977665
 30
0.0
 10
10.99991004899833
 20
-15.16168730416661
 30
0.0
  0
LINE
  5
CF
330
1F
100
AcDbEntity
  8
외형선
  6
Continuous
370
    15
100
AcDbLine
 10
11.93494109655921
 20
-15.87200844990116
 30
0.0
 11
10.99991004899832
 21
-15.84638080497572
 31
0.0
  0
LINE
  5
D0
330
1F
100
AcDbEntity
  8
외형선
  6
Continuous
370
    15
100
AcDbLine
 10
10.99991004899832
 20
-15.87392507127611
 30
0.0
 11
10.99991004899832
 21
-15.84637740055858
 31
0.0
  0
LINE
  5
D1
330
1F
100
AcDbEntity
  8
외형선
  6
Continuous
370
    15
100
AcDbLine
 10
12.00000000000004
 20
15.87594146360877
 30
0.0
 11
12.00000000000001
 21
15.8760749287239
 31
0.0
  0
SPLINE
  5
D2
330
1F
100
AcDbEntity
  8
외형선
  6
Continuous
370
    15
100
AcDbSpline
210
0.0
220
0.0
230
1.0
 70
     8
 71
     3
 72
     8
 73
     4
 74
     0
 42
0.000000001
 43
0.00000001
 40
0.0
 40
0.0
 40
0.0
 40
0.0
 40
1.0
 40
1.0
 40
1.0
 40
1.0
 10
11.99999999999998
 20
15.87594146362058
 30
0.0
 10
11.66592043002591
 20
15.87730982860387
 30
0.0
 10
11.33222747575206
 20
15.86814533515136
 30
0.0
 10
10.99991004899832
 20
15.8485306624235
 30
0.0
  0
LINE
  5
D3
330
1F
100
AcDbEntity
  8
외형선
  6
Continuous
370
    15
100
AcDbLine
 10
10.99991004899832
 20
11.6542419179671
 30
0.0
 11
10.99991004899832
 21
15.8760749287239
 31
0.0
  0
SPLINE
  5
D4
330
1F
100
AcDbEntity
  8
외형선
  6
Continuous
370
    15
100
AcDbSpline
210
0.0
220
0.0
230
1.0
 70
     8
 71
     3
 72
     8
 73
     4
 74
     0
 42
0.000000001
 43
0.00000001
 40
0.0
 40
0.0
 40
0.0
 40
0.0
 40
1.0
 40
1.0
 40
1.0
 40
1.0
 10
11.99999999999999
 20
10.95223974452694
 30
0.0
 10
11.66592043002592
 20
11.19382931652055
 30
0.0
 10
11.33222747575206
 20
11.42805961161458
 30
0.0
 10
10.99991004899833
 20
11.65427380283234
 30
0.0
  0
SPLINE
  5
D5
330
1F
100
AcDbEntity
  8
외형선
  6
Continuous
370
    15
100
AcDbSpline
210
0.0
220
0.0
230
1.0
 70
     8
 71
     3
 72
     8
 73
     4
 74
     0
 42
0.000000001
 43
0.00000001
 40
0.0
 40
0.0
 40
0.0
 40
0.0
 40
1.0
 40
1.0
 40
1.0
 40
1.0
 10
11.99999999999998
 20
7.882133339960332
 30
0.0
 10
11.66592043002591
 20
8.171810873482213
 30
0.0
 10
11.33222747575206
 20
8.456147385015871
 30
0.0
 10
10.99991004899832
 20
8.734326622476734
 30
0.0
  0
LINE
  5
D6
330
1F
100
AcDbEntity
  8
외형선
  6
Continuous
370
    15
100
AcDbLine
 10
-48.325
 20
0.0010749287238949
 30
0.0
 11
-48.325
 21
13.48847492872389
 31
0.0
  0
LINE
  5
D7
330
1F
100
AcDbEntity
  8
외형선
  6
Continuous
370
    15
100
AcDbLine
 10
-48.325
 20
-15.87392507127614
 30
0.0
 11
-48.325
 21
0.0010749287238949
 31
0.0
  0
LINE
  5
D8
330
1F
100
AcDbEntity
  8
외형선
  6
Continuous
370
    15
100
AcDbLine
 10
10.99991004899832
 20
-3.508534220907628
 30
0.0
 11
10.99991004899832
 21
8.734374903057567
 31
0.0
  0
LINE
  5
D9
330
1F
100
AcDbEntity
  8
외형선
  6
Continuous
370
    15
100
AcDbLine
 10
-51.5
 20
0.0010749287238949
 30
0.0
 11
-51.5
 21
12.70107492872391
 31
0.0
  0
LINE
  5
DA
330
1F
100
AcDbEntity
  8
외형선
  6
Continuous
370
    15
100
AcDbLine
 10
-51.5
 20
-12.69892507127612
 30
0.0
 11
-51.5
 21
0.0010749287238949
 31
0.0
  0
SPLINE
  5
DB
330
1F
100
AcDbEntity
  8
외형선
  6
Continuous
370
    15
100
AcDbSpline
210
0.0
220
0.0
230
1.0
 70
    24
 71
     3
 72
    34
 73
    30
 74
     0
 42
0.000000001
 43
0.00000001
 40
0.0
 40
0.0
 40
0.0
 40
0.0
 40
0.0625
 40
0.0625
 40
0.1249999999999999
 40
0.1249999999999999
 40
0.1874999999999999
 40
0.1874999999999999
 40
0.2499999999999998
 40
0.2499999999999998
 40
0.3124999999999998
 40
0.3124999999999998
 40
0.3749999999999998
 40
0.3749999999999998
 40
0.4374999999999997
 40
0.4374999999999997
 40
0.4999999999999997
 40
0.4999999999999997
 40
0.6249999999999996
 40
0.6249999999999996
 40
0.7499999999999996
 40
0.7499999999999996
 40
0.8124999999999994
 40
0.8124999999999994
 40
0.8437499999999994
 40
0.8437499999999994
 40
0.8749999999999994
 40
0.8749999999999994
 40
1.0
 40
1.0
 40
1.0
 40
1.0
 10
12.00000000000005
 20
-4.476518570231371
 30
0.0
 10
12.00000000000005
 20
-4.444371053706451
 30
0.0
 10
12.00000000000004
 20
-4.376621730564813
 30
0.0
 10
12.00000000000002
 20
-4.15693790407367
 30
0.0
 10
12.00000000000004
 20
-4.004851742410447
 30
0.0
 10
11.99999999999999
 20
-3.611097739107477
 30
0.0
 10
12.00000000000004
 20
-3.369341227683228
 30
0.0
 10
12.00000000000005
 20
-2.80262706497761
 30
0.0
 10
12.00000000000005
 20
-2.47771242407015
 30
0.0
 10
12.00000000000005
 20
-1.763752036525259
 30
0.0
 10
12.00000000000005
 20
-1.37488561465837
 30
0.0
 10
12.00000000000002
 20
-0.5613770735976877
 30
0.0
 10
12.00000000000004
 20
-0.1369722011808436
 30
0.0
 10
12.00000000000006
 20
0.7165863476544146
 30
0.0
 10
12.00000000000005
 20
1.145551547356845
 30
0.0
 10
12.00000000000004
 20
1.98131352619302
 30
0.0
 10
12.00000000000005
 20
2.388030790297049
 30
0.0
 10
12.00000000000007
 20
3.546996242086821
 30
0.0
 10
12.00000000000005
 20
4.234376160525422
 30
0.0
 10
12.00000000000002
 20
5.39245037642524
 30
0.0
 10
11.99999999999999
 20
5.865686422108828
 30
0.0
 10
12.00000000000001
 20
6.442082776029583
 30
0.0
 10
12.00000000000002
 20
6.612334664786906
 30
0.0
 10
12.00000000000004
 20
6.839720696212063
 30
0.0
 10
12.00000000000002
 20
6.909927544831922
 30
0.0
 10
12.00000000000002
 20
7.046188576171374
 30
0.0
 10
12.00000000000004
 20
7.113623205085284
 30
0.0
 10
12.00000000000005
 20
7.445040539203398
 30
0.0
 10
12.00000000000006
 20
7.693645381121942
 30
0.0
 10
12.00000000000002
 20
7.882133339956531
 30
0.0
  0
SPLINE
  5
DC
330
1F
100
AcDbEntity
  8
외형선
  6
Continuous
370
    15
100
AcDbSpline
210
0.0
220
0.0
230
1.0
 70
    24
 71
     3
 72
    15
 73
    11
 74
     0
 42
0.000000001
 43
0.00000001
 40
0.0
 40
0.0
 40
0.0
 40
0.0
 40
0.1334126233543344
 40
0.2675960283849861
 40
0.4017794334156381
 40
0.5359628384462889
 40
0.6701462434769399
 40
0.8043296485075909
 40
0.938513053538242
 40
0.9999999999999999
 40
0.9999999999999999
 40
0.9999999999999999
 40
0.9999999999999999
 10
11.99999999999999
 20
-15.42768338603456
 30
0.0
 10
12.00000000000001
 20
-15.09905962226285
 30
0.0
 10
12.00000000000002
 20
-14.43991349495315
 30
0.0
 10
11.99999999999999
 20
-13.38126450237527
 30
0.0
 10
11.99999999999996
 20
-12.30757828780538
 30
0.0
 10
11.99999999999999
 20
-11.24520692910931
 30
0.0
 10
11.99999999999998
 20
-10.2224667833109
 30
0.0
 10
11.99999999999999
 20
-9.279653776667761
 30
0.0
 10
11.99999999999999
 20
-8.562994275690622
 30
0.0
 10
12.00000000000001
 20
-8.218898631453433
 30
0.0
 10
12.00000000000001
 20
-8.110770903907765
 30
0.0
  0
SPLINE
  5
DD
330
1F
100
AcDbEntity
  8
외형선
  6
Continuous
370
    15
100
AcDbSpline
210
0.0
220
0.0
230
1.0
 70
    24
 71
     3
 72
    12
 73
     8
 74
     0
 42
0.000000001
 43
0.00000001
 40
0.0
 40
0.0
 40
0.0
 40
0.0
 40
0.0982011605824234
 40
0.310801804492462
 40
0.5234024484025613
 40
0.7360030923126601
 40
1.0
 40
1.0
 40
1.0
 40
1.0
 10
12.00000000000001
 20
11.07027745349822
 30
0.0
 10
11.99999999999999
 20
11.20482430457115
 30
0.0
 10
12.00000000000001
 20
11.63065841746992
 30
0.0
 10
12.00000000000006
 20
12.44713997867702
 30
0.0
 10
11.99999999999999
 20
13.48218194032095
 30
0.0
 10
11.99999999999999
 20
14.64243818904153
 30
0.0
 10
12.00000000000001
 20
15.43623921357784
 30
0.0
 10
12.00000000000004
 20
15.87594146360877
 30
0.0
  0
LINE
  5
DE
330
1F
100
AcDbEntity
  8
중심선
100
AcDbLine
 10
-54.49999999999999
 20
0.0010749287238888
 30
0.0
 11
116.6
 21
0.0010749287239106
 31
0.0
  0
LINE
  5
DF
330
1F
100
AcDbEntity
  8
참조1
100
AcDbLine
 10
40.57500000000005
 20
0.0010749287238892
 30
0.0
 11
40.57500000000005
 21
-39.99892507127611
 31
0.0
  0
LINE
  5
E0
330
1F
100
AcDbEntity
  8
참조1
100
AcDbLine
 10
40.57500000000005
 20
-39.99892507127611
 30
0.0
 11
-9.508856814308633
 21
-39.9989250712761
 31
0.0
  0
CIRCLE
  5
E1
330
1F
100
AcDbEntity
  8
해칭선
100
AcDbCircle
 10
0.0
 20
0.0
 30
0.0
 40
3.000000000000001
  0
INSERT
  5
E2
330
1F
100
AcDbEntity
  8
0
  6
Continuous
 62
     7
100
AcDbBlockReference
 66
     1
  2
블럭10
 10
17.10972706787481
 20
-52.04609937292004
 30
0.0
  0
ATTRIB
  5
E3
330
E2
100
AcDbEntity
  8
FORMAT
 62
     2
100
AcDbText
 10
7.928431779133536
 20
-49.97073246008785
 30
0.0
 40
4.233333333333333
  1
E1162116 [ 6 FLUTE ]
 41
0.75
  7
SLDTEXTSTYLE0
 11
7.928431779133536
 21
-52.08739912675452
 31
0.0
100
AcDbAttribute
  2
AUTOATTR0
 70
     0
 74
     1
  0
SEQEND
  5
E4
330
E2
100
AcDbEntity
  8
0
  6
Continuous
 62
     7
  0
HATCH
  5
E5
330
1F
100
AcDbEntity
  8
중심선
100
AcDbHatch
 10
0.0
 20
0.0
 30
0.0
210
0.0
220
0.0
230
1.0
  2
SOLID
 70
     1
 71
     0
 91
        1
 92
        0
 93
        4
 72
     1
 10
22.82463637225566
 20
-35.7989250712761
 11
19.37836112841837
 21
-35.7989250712761
 72
     1
 10
19.37836112841837
 20
-35.7989250712761
 11
17.25013126921435
 21
-38.3352506518487
 72
     1
 10
17.25013126921435
 20
-38.3352506518487
 11
20.69643959816481
 21
-38.33521122254621
 72
     1
 10
20.69643959816481
 20
-38.33521122254621
 11
22.82463637225566
 21
-35.7989250712761
 97
        0
 75
     0
 76
     1
 98
        1
 10
-9.52500000000003
 20
0.0
  0
HATCH
  5
E6
330
1F
100
AcDbEntity
  8
중심선
100
AcDbHatch
 10
0.0
 20
0.0
 30
0.0
210
0.0
220
0.0
230
1.0
  2
SOLID
 70
     1
 71
     0
 91
        1
 92
        0
 93
        4
 72
     1
 10
27.83740036329166
 20
-35.7989250712761
 11
24.39112511945438
 21
-35.79892507127608
 72
     1
 10
24.39112511945438
 20
-35.79892507127608
 11
19.85998711109693
 21
-41.19892507127612
 72
     1
 10
19.85998711109693
 20
-41.19892507127612
 11
23.30626235493422
 21
-41.19892507127612
 72
     1
 10
23.30626235493422
 20
-41.19892507127612
 11
27.83740036329166
 21
-35.7989250712761
 97
        0
 75
     0
 76
     1
 98
        1
 10
-9.52500000000003
 20
0.0
  0
HATCH
  5
E7
330
1F
100
AcDbEntity
  8
중심선
100
AcDbHatch
 10
0.0
 20
0.0
 30
0.0
210
0.0
220
0.0
230
1.0
  2
SOLID
 70
     1
 71
     0
 91
        1
 92
        0
 93
        4
 72
     1
 10
32.8501643543275
 20
-35.7989250712761
 11
29.40388911049039
 21
-35.79892507127608
 72
     1
 10
29.40388911049039
 20
-35.79892507127608
 11
22.35545220860114
 21
-44.19892507127612
 72
     1
 10
22.35545220860114
 20
-44.19892507127612
 11
25.80172745243842
 21
-44.19892507127612
 72
     1
 10
25.80172745243842
 20
-44.19892507127612
 11
32.8501643543275
 21
-35.7989250712761
 97
        0
 75
     0
 76
     1
 98
        1
 10
-9.52500000000003
 20
0.0
  0
HATCH
  5
E8
330
1F
100
AcDbEntity
  8
중심선
100
AcDbHatch
 10
0.0
 20
0.0
 30
0.0
210
0.0
220
0.0
230
1.0
  2
SOLID
 70
     1
 71
     0
 91
        1
 92
        0
 93
        6
 72
     3
 10
37.65005478533971
 20
-39.99892507132738
 11
3.960054785062283
 21
1.540882976769353E-10
 40
0.3939339440162628
 50
17.09539180608459
 51
320.0019657685075
 73
     0
 72
     1
 10
39.33305444104028
 20
-38.58681907591441
 11
41.63835631474131
 21
-36.65249236586651
 72
     3
 10
37.65005478528686
 20
-39.99892507127625
 11
6.600054785286829
 21
-1.278976924368180E-13
 40
0.636358354079598
 50
39.99873849337402
 51
368.4976242363725
 73
     1
 72
     1
 10
44.07538727718743
 20
-39.03892507120613
 11
36.33012209212277
 21
-39.03892507120613
 72
     1
 10
36.33012209212278
 20
-39.03892507120613
 11
36.33009704767684
 21
-40.95892507120602
 72
     1
 10
36.33009704767684
 20
-40.95892507120602
 11
40.77147681714886
 21
-40.95892507120599
 97
        0
 75
     0
 76
     1
 98
        1
 10
-9.52500000000003
 20
0.0
  0
DIMENSION
  5
E9
330
1F
100
AcDbEntity
  8
치수문자_일반주서
100
AcDbDimension
  2
_D
 10
-62.91249999999994
 20
-15.87392507127616
 30
0.0
 11
-62.91249999999999
 21
0.001074928723887
 31
0.0
 70
   160
  1
%%c<>
 71
     2
 42
31.75
 52
-270.0
  3
SLDDIMSTYLE0
100
AcDbAlignedDimension
 13
-48.32499999999999
 23
15.87607492872389
 33
0.0
 14
-48.32499999999999
 24
-15.87392507127611
 34
0.0
 50
90.0000000000002
100
AcDbRotatedDimension
1001
ACAD
1000
DSTYLE
1002
{
1070
   171
1070
     6
1070
   273
1070
     7
1002
}
  0
DIMENSION
  5
FC
330
1F
100
AcDbEntity
  8
치수문자_일반주서
100
AcDbDimension
  2
_D_1
 10
12.00000000000002
 20
38.30021446492108
 30
0.0
 11
62.80000000000003
 21
38.30021446492108
 31
0.0
 70
   160
  1
<>
 71
     2
 42
101.6
  3
SLDDIMSTYLE0
100
AcDbAlignedDimension
 13
113.6
 23
15.76022792433027
 33
0.0
 14
12.00000000000004
 24
15.87594146360877
 34
0.0
 50
-0.0000000000000481
100
AcDbRotatedDimension
1001
ACAD
1000
DSTYLE
1002
{
1070
   171
1070
     6
1070
   273
1070
     7
1002
}
  0
DIMENSION
  5
110
330
1F
100
AcDbEntity
  8
치수문자_일반주서
100
AcDbDimension
  2
_D_2
 10
-51.50000000000001
 20
50.30021446492103
 30
0.0
 11
31.05000000000001
 21
50.30021446492103
 31
0.0
 70
   160
  1
<>
 71
     2
 42
165.1
  3
SLDDIMSTYLE0
100
AcDbAlignedDimension
 13
113.6
 23
15.76022792433027
 33
0.0
 14
-51.5
 24
12.70107492872391
 34
0.0
 50
0.0000000000000049
100
AcDbRotatedDimension
1001
ACAD
1000
DSTYLE
1002
{
1070
   171
1070
     6
1070
   273
1070
     7
1002
}
  0
DIMENSION
  5
123
330
1F
100
AcDbEntity
  8
치수문자_일반주서
100
AcDbDimension
  2
_D_3
 10
139.6365644207411
 20
-15.87392507127603
 30
0.0
 11
139.6365644207409
 21
37.77970033532734
 31
0.0
 70
   160
  1
%%c<>
 71
     2
 42
31.75000000000003
 52
-270.0
  3
SLDDIMSTYLE0
100
AcDbAlignedDimension
 13
113.6
 23
15.87607492872391
 33
0.0
 14
113.6
 24
-15.87392507127612
 34
0.0
 50
90.0000000000002
100
AcDbRotatedDimension
1001
ACAD
1000
DSTYLE
1002
{
1070
   171
1070
     6
1070
   273
1070
     7
1002
}
  0
LINE
  5
136
330
1F
100
AcDbEntity
  8
참조1
100
AcDbLine
 10
88.46348381534564
 20
7.441074928723896
 30
0.0
 11
88.46348381534564
 21
-7.438925071276109
 31
0.0
  0
LINE
  5
137
330
1F
100
AcDbEntity
  8
참조1
100
AcDbLine
 10
101.1634838153456
 20
5.441074928723896
 30
0.0
 11
88.46348381534564
 21
5.441074928723896
 31
0.0
  0
SOLID
  5
138
330
1F
100
AcDbEntity
  8
참조1
100
AcDbTrace
 10
88.46348381534564
 20
5.441074928723896
 30
0.0
 11
94.81348381534563
 21
4.425074928723896
 31
0.0
 12
94.81348381534563
 22
6.457074928723896
 32
0.0
 13
94.81348381534563
 23
6.457074928723896
 33
0.0
  0
LINE
  5
139
330
1F
100
AcDbEntity
  8
참조1
100
AcDbLine
 10
101.1634838153456
 20
-5.438925071276109
 30
0.0
 11
88.46348381534564
 21
-5.438925071276109
 31
0.0
  0
SOLID
  5
13A
330
1F
100
AcDbEntity
  8
참조1
100
AcDbTrace
 10
88.46348381534564
 20
-5.438925071276109
 30
0.0
 11
94.81348381534563
 21
-6.454925071276109
 31
0.0
 12
94.81348381534563
 22
-4.422925071276109
 32
0.0
 13
94.81348381534563
 23
-4.422925071276109
 33
0.0
  0
MTEXT
  5
13B
330
1F
100
AcDbEntity
  8
참조1
100
AcDbMText
 10
97.8609739078159
 20
10.98929157337383
 30
0.0
 40
3.5
 41
0.0
 71
     1
 72
     1
  1
A
  7
SLDTEXTSTYLE0
 73
     1
 44
1.0
  0
MTEXT
  5
13C
330
1F
100
AcDbEntity
  8
참조1
100
AcDbMText
 10
97.8609739078159
 20
0.1092915733738251
 30
0.0
 40
3.5
 41
0.0
 71
     1
 72
     1
  1
A
  7
SLDTEXTSTYLE0
 73
     1
 44
1.0
  0
INSERT
  5
143
330
1F
100
AcDbEntity
  8
해칭선
100
AcDbBlockReference
  2
SW_DOWELSYMBOL_0
 10
0.0
 20
0.0
 30
0.0
  0
LINE
  5
615
330
1F
100
AcDbEntity
  8
외형선
  6
Continuous
370
    15
100
AcDbLine
 10
-29.08132499999999
 20
13.48847492872389
 30
0.0
 11
-15.97492499999998
 21
13.48847492872389
 31
0.0
  0
LINE
  5
616
330
1F
100
AcDbEntity
  8
외형선
  6
Continuous
370
    15
100
AcDbLine
 10
-15.97492499999998
 20
13.48847492872389
 30
0.0
 11
-13.58732499999996
 21
15.87607492872391
 31
0.0
  0
LINE
  5
617
330
1F
100
AcDbEntity
  8
외형선
  6
Continuous
370
    15
100
AcDbLine
 10
-29.08132499999999
 20
13.48847492872389
 30
0.0
 11
-31.46892500000001
 21
15.87607492872391
 31
0.0
  0
LINE
  5
618
330
1F
100
AcDbEntity
  8
외형선
  6
Continuous
370
    15
100
AcDbLine
 10
-50.71260000000002
 20
13.48847492872389
 30
0.0
 11
-38.80000000000001
 21
13.48847492872389
 31
0.0
  0
LINE
  5
619
330
1F
100
AcDbEntity
  8
외형선
  6
Continuous
370
    15
100
AcDbLine
 10
-38.80000000000001
 20
13.48847492872389
 30
0.0
 11
-36.4124000000001
 21
15.87607492872388
 31
0.0
  0
LINE
  5
61F
330
1F
100
AcDbEntity
  8
외형선
  6
Continuous
370
    15
100
AcDbLine
 10
-31.468925
 20
15.8760749287239
 30
0.0
 11
-36.41240000000008
 21
15.8760749287239
 31
0.0
  0
ENDSEC
  0
SECTION
  2
OBJECTS
  0
DICTIONARY
  5
C
330
0
100
AcDbDictionary
281
     1
  3
ACAD_GROUP
350
D
  3
ACAD_IMAGE_VARS
350
167
  3
ACAD_LAYOUT
350
1A
  3
ACAD_MLINESTYLE
350
17
  3
ACAD_PLOTSETTINGS
350
19
  3
ACAD_PLOTSTYLENAME
350
E
  3
ACAD_SCALELIST
350
47
  3
APPDATA
350
165
  3
DWGPROPS
350
620
  0
DICTIONARY
  5
225
330
2
100
AcDbDictionary
280
     1
281
     1
  3
ACAD_LAYERSTATES
360
3A4
  0
DICTIONARY
  5
D
102
{ACAD_REACTORS
330
C
102
}
330
C
100
AcDbDictionary
281
     1
  0
RASTERVARIABLES
  5
167
102
{ACAD_REACTORS
330
C
102
}
330
C
100
AcDbRasterVariables
 90
        0
 70
     1
 71
     1
 72
     1
  0
DICTIONARY
  5
1A
102
{ACAD_REACTORS
330
C
102
}
330
C
100
AcDbDictionary
281
     1
  3
Layout1
350
1E
  3
Layout2
350
26
  3
Model
350
22
  0
DICTIONARY
  5
17
102
{ACAD_REACTORS
330
C
102
}
330
C
100
AcDbDictionary
281
     1
  3
Standard
350
18
  0
DICTIONARY
  5
19
102
{ACAD_REACTORS
330
C
102
}
330
C
100
AcDbDictionary
281
     1
  0
ACDBDICTIONARYWDFLT
  5
E
102
{ACAD_REACTORS
330
C
102
}
330
C
100
AcDbDictionary
281
     1
  3
Normal
350
F
100
AcDbDictionaryWithDefault
340
F
  0
DICTIONARY
  5
47
102
{ACAD_REACTORS
330
C
102
}
330
C
100
AcDbDictionary
281
     1
  3
A0
350
48
  3
A1
350
49
  3
A2
350
4A
  3
A3
350
4B
  3
A4
350
4C
  3
A5
350
4D
  3
A6
350
4E
  3
A7
350
4F
  3
A8
350
50
  3
A9
350
51
  3
B0
350
52
  3
B1
350
53
  3
B2
350
54
  3
B3
350
55
  3
B4
350
56
  3
B5
350
57
  3
B6
350
58
  3
B7
350
59
  3
B8
350
5A
  3
B9
350
5B
  3
C0
350
5C
  3
C1
350
5D
  3
C2
350
5E
  3
C3
350
5F
  3
C4
350
60
  3
C5
350
61
  3
C6
350
62
  3
C7
350
63
  3
C8
350
64
  3
C9
350
65
  3
D0
350
66
  3
D1
350
67
  3
D2
350
68
  0
DICTIONARY
  5
165
102
{ACAD_REACTORS
330
C
102
}
330
C
100
AcDbDictionary
281
     1
  0
XRECORD
  5
620
102
{ACAD_REACTORS
330
C
102
}
330
C
100
AcDbXrecord
280
     1
  1
DWGPROPS COOKIE
  2

  3

  4

  6

  7

  8
12017012
  9

300
=
301
=
302
=
303
=
304
=
305
=
306
=
307
=
308
=
309
=
 40
0.0
 41
2458323.065897697
 42
2458323.304533785
  1

 90
        0
  0
DICTIONARY
  5
3A4
102
{ACAD_REACTORS
330
225
102
}
330
225
100
AcDbDictionary
281
     1
  0
LAYOUT
  5
1E
102
{ACAD_REACTORS
330
1A
102
}
330
1A
100
AcDbPlotSettings
  1

  2
none_device
  4

  6

 40
0.0
 41
0.0
 42
0.0
 43
0.0
 44
0.0
 45
0.0
 46
0.0
 47
0.0
 48
0.0
 49
0.0
140
0.0
141
0.0
142
1.0
143
1.0
 70
   688
 72
     1
 73
     0
 74
     5
  7

 75
    16
147
1.0
148
0.0
149
0.0
100
AcDbLayout
  1
Layout1
 70
     1
 71
     1
 10
0.0
 20
0.0
 11
420.0
 21
297.0
 12
0.0
 22
0.0
 32
0.0
 14
1.000000000000000E+20
 24
1.000000000000000E+20
 34
1.000000000000000E+20
 15
-1.000000000000000E+20
 25
-1.000000000000000E+20
 35
-1.000000000000000E+20
146
0.0
 13
0.0
 23
0.0
 33
0.0
 16
1.0
 26
0.0
 36
0.0
 17
0.0
 27
1.0
 37
0.0
 76
     0
330
1B
  0
LAYOUT
  5
26
102
{ACAD_REACTORS
330
1A
102
}
330
1A
100
AcDbPlotSettings
  1

  2
none_device
  4

  6

 40
0.0
 41
0.0
 42
0.0
 43
0.0
 44
0.0
 45
0.0
 46
0.0
 47
0.0
 48
0.0
 49
0.0
140
0.0
141
0.0
142
1.0
143
1.0
 70
   688
 72
     1
 73
     0
 74
     5
  7

 75
    16
147
1.0
148
0.0
149
0.0
100
AcDbLayout
  1
Layout2
 70
     1
 71
     2
 10
0.0
 20
0.0
 11
0.0
 21
0.0
 12
0.0
 22
0.0
 32
0.0
 14
0.0
 24
0.0
 34
0.0
 15
0.0
 25
0.0
 35
0.0
146
0.0
 13
0.0
 23
0.0
 33
0.0
 16
1.0
 26
0.0
 36
0.0
 17
0.0
 27
1.0
 37
0.0
 76
     0
330
23
  0
LAYOUT
  5
22
102
{ACAD_REACTORS
330
1A
102
}
330
1A
100
AcDbPlotSettings
  1

  2
none_device
  4
ANSI_A_(11.00_x_8.50_Inches)
  6

 40
6.35
 41
19.05
 42
6.35000508
 43
19.05000254
 44
279.4
 45
215.9
 46
52.51662963774768
 47
84.25338633280148
 48
0.0
 49
0.0
140
0.0
141
0.0
142
0.0352535133557838
143
1.0
 70
  1696
 72
     0
 73
     0
 74
     0
  7

 75
     0
147
0.0235690232323232
148
0.0
149
0.0
100
AcDbLayout
  1
Model
 70
     1
 71
     0
 10
0.0
 20
0.0
 11
420.0
 21
297.0
 12
0.0
 22
0.0
 32
0.0
 14
1.000000000000000E+20
 24
1.000000000000000E+20
 34
1.000000000000000E+20
 15
-1.000000000000000E+20
 25
-1.000000000000000E+20
 35
-1.000000000000000E+20
146
0.0
 13
0.0
 23
0.0
 33
0.0
 16
1.0
 26
0.0
 36
0.0
 17
0.0
 27
1.0
 37
0.0
 76
     0
330
1F
331
29
  0
MLINESTYLE
  5
18
102
{ACAD_REACTORS
330
17
102
}
330
17
100
AcDbMlineStyle
  2
Standard
 70
     0
  3

 62
   256
 51
90.0
 52
90.0
 71
     2
 49
0.5
 62
   256
  6
BYLAYER
 49
-0.5
 62
   256
  6
BYLAYER
  0
ACDBPLACEHOLDER
  5
F
102
{ACAD_REACTORS
330
E
102
}
330
E
  0
SCALE
  5
48
102
{ACAD_REACTORS
330
47
102
}
330
47
100
AcDbScale
 70
     0
300
1:1
140
1.0
141
1.0
290
     1
  0
SCALE
  5
49
102
{ACAD_REACTORS
330
47
102
}
330
47
100
AcDbScale
 70
     0
300
1:2
140
1.0
141
2.0
290
     0
  0
SCALE
  5
4A
102
{ACAD_REACTORS
330
47
102
}
330
47
100
AcDbScale
 70
     0
300
1:4
140
1.0
141
4.0
290
     0
  0
SCALE
  5
4B
102
{ACAD_REACTORS
330
47
102
}
330
47
100
AcDbScale
 70
     0
300
1:5
140
1.0
141
5.0
290
     0
  0
SCALE
  5
4C
102
{ACAD_REACTORS
330
47
102
}
330
47
100
AcDbScale
 70
     0
300
1:8
140
1.0
141
8.0
290
     0
  0
SCALE
  5
4D
102
{ACAD_REACTORS
330
47
102
}
330
47
100
AcDbScale
 70
     0
300
1:10
140
1.0
141
10.0
290
     0
  0
SCALE
  5
4E
102
{ACAD_REACTORS
330
47
102
}
330
47
100
AcDbScale
 70
     0
300
1:16
140
1.0
141
16.0
290
     0
  0
SCALE
  5
4F
102
{ACAD_REACTORS
330
47
102
}
330
47
100
AcDbScale
 70
     0
300
1:20
140
1.0
141
20.0
290
     0
  0
SCALE
  5
50
102
{ACAD_REACTORS
330
47
102
}
330
47
100
AcDbScale
 70
     0
300
1:30
140
1.0
141
30.0
290
     0
  0
SCALE
  5
51
102
{ACAD_REACTORS
330
47
102
}
330
47
100
AcDbScale
 70
     0
300
1:40
140
1.0
141
40.0
290
     0
  0
SCALE
  5
52
102
{ACAD_REACTORS
330
47
102
}
330
47
100
AcDbScale
 70
     0
300
1:50
140
1.0
141
50.0
290
     0
  0
SCALE
  5
53
102
{ACAD_REACTORS
330
47
102
}
330
47
100
AcDbScale
 70
     0
300
1:100
140
1.0
141
100.0
290
     0
  0
SCALE
  5
54
102
{ACAD_REACTORS
330
47
102
}
330
47
100
AcDbScale
 70
     0
300
2:1
140
2.0
141
1.0
290
     0
  0
SCALE
  5
55
102
{ACAD_REACTORS
330
47
102
}
330
47
100
AcDbScale
 70
     0
300
4:1
140
4.0
141
1.0
290
     0
  0
SCALE
  5
56
102
{ACAD_REACTORS
330
47
102
}
330
47
100
AcDbScale
 70
     0
300
8:1
140
8.0
141
1.0
290
     0
  0
SCALE
  5
57
102
{ACAD_REACTORS
330
47
102
}
330
47
100
AcDbScale
 70
     0
300
10:1
140
10.0
141
1.0
290
     0
  0
SCALE
  5
58
102
{ACAD_REACTORS
330
47
102
}
330
47
100
AcDbScale
 70
     0
300
100:1
140
100.0
141
1.0
290
     0
  0
SCALE
  5
59
102
{ACAD_REACTORS
330
47
102
}
330
47
100
AcDbScale
 70
     0
300
1/128" = 1'-0"
140
0.0078125
141
12.0
290
     0
  0
SCALE
  5
5A
102
{ACAD_REACTORS
330
47
102
}
330
47
100
AcDbScale
 70
     0
300
1/64" = 1'-0"
140
0.015625
141
12.0
290
     0
  0
SCALE
  5
5B
102
{ACAD_REACTORS
330
47
102
}
330
47
100
AcDbScale
 70
     0
300
1/32" = 1'-0"
140
0.03125
141
12.0
290
     0
  0
SCALE
  5
5C
102
{ACAD_REACTORS
330
47
102
}
330
47
100
AcDbScale
 70
     0
300
1/16" = 1'-0"
140
0.0625
141
12.0
290
     0
  0
SCALE
  5
5D
102
{ACAD_REACTORS
330
47
102
}
330
47
100
AcDbScale
 70
     0
300
3/32" = 1'-0"
140
0.09375
141
12.0
290
     0
  0
SCALE
  5
5E
102
{ACAD_REACTORS
330
47
102
}
330
47
100
AcDbScale
 70
     0
300
1/8" = 1'-0"
140
0.125
141
12.0
290
     0
  0
SCALE
  5
5F
102
{ACAD_REACTORS
330
47
102
}
330
47
100
AcDbScale
 70
     0
300
3/16" = 1'-0"
140
0.1875
141
12.0
290
     0
  0
SCALE
  5
60
102
{ACAD_REACTORS
330
47
102
}
330
47
100
AcDbScale
 70
     0
300
1/4" = 1'-0"
140
0.25
141
12.0
290
     0
  0
SCALE
  5
61
102
{ACAD_REACTORS
330
47
102
}
330
47
100
AcDbScale
 70
     0
300
3/8" = 1'-0"
140
0.375
141
12.0
290
     0
  0
SCALE
  5
62
102
{ACAD_REACTORS
330
47
102
}
330
47
100
AcDbScale
 70
     0
300
1/2" = 1'-0"
140
0.5
141
12.0
290
     0
  0
SCALE
  5
63
102
{ACAD_REACTORS
330
47
102
}
330
47
100
AcDbScale
 70
     0
300
3/4" = 1'-0"
140
0.75
141
12.0
290
     0
  0
SCALE
  5
64
102
{ACAD_REACTORS
330
47
102
}
330
47
100
AcDbScale
 70
     0
300
1" = 1'-0"
140
1.0
141
12.0
290
     0
  0
SCALE
  5
65
102
{ACAD_REACTORS
330
47
102
}
330
47
100
AcDbScale
 70
     0
300
1-1/2" = 1'-0"
140
1.5
141
12.0
290
     0
  0
SCALE
  5
66
102
{ACAD_REACTORS
330
47
102
}
330
47
100
AcDbScale
 70
     0
300
3" = 1'-0"
140
3.0
141
12.0
290
     0
  0
SCALE
  5
67
102
{ACAD_REACTORS
330
47
102
}
330
47
100
AcDbScale
 70
     0
300
6" = 1'-0"
140
6.0
141
12.0
290
     0
  0
SCALE
  5
68
102
{ACAD_REACTORS
330
47
102
}
330
47
100
AcDbScale
 70
     0
300
1'-0" = 1'-0"
140
12.0
141
12.0
290
     0
  0
ENDSEC
  0
EOF
