  0
SECTION
  2
HEADER
  9
$ACADVER
  1
AC1015
  9
$ACADMAINTVER
 70
     6
  9
$DWGCODEPAGE
  3
ANSI_949
  9
$INSBASE
 10
0.0
 20
0.0
 30
0.0
  9
$EXTMIN
 10
1.000000000000000E+20
 20
1.000000000000000E+20
 30
1.000000000000000E+20
  9
$EXTMAX
 10
-1.000000000000000E+20
 20
-1.000000000000000E+20
 30
-1.000000000000000E+20
  9
$LIMMIN
 10
0.0
 20
0.0
  9
$LIMMAX
 10
420.0
 20
297.0
  9
$ORTHOMODE
 70
     0
  9
$REGENMODE
 70
     1
  9
$FILLMODE
 70
     1
  9
$QTEXTMODE
 70
     0
  9
$MIRRTEXT
 70
     1
  9
$LTSCALE
 40
1.0
  9
$ATTMODE
 70
     1
  9
$TEXTSIZE
 40
3.5
  9
$TRACEWID
 40
1.0
  9
$TEXTSTYLE
  7
Standard
  9
$CLAYER
  8
0
  9
$CELTYPE
  6
ByLayer
  9
$CECOLOR
 62
   256
  9
$CELTSCALE
 40
1.0
  9
$DISPSILH
 70
     0
  9
$DIMSCALE
 40
1.0
  9
$DIMASZ
 40
3.302
  9
$DIMEXO
 40
1.0
  9
$DIMDLI
 40
3.75
  9
$DIMRND
 40
0.0
  9
$DIMDLE
 40
0.0
  9
$DIMEXE
 40
1.0
  9
$DIMTP
 40
0.0
  9
$DIMTM
 40
0.0
  9
$DIMTXT
 40
3.5
  9
$DIMCEN
 40
2.5
  9
$DIMTSZ
 40
0.0
  9
$DIMTOL
 70
     0
  9
$DIMLIM
 70
     0
  9
$DIMTIH
 70
     1
  9
$DIMTOH
 70
     1
  9
$DIMSE1
 70
     0
  9
$DIMSE2
 70
     0
  9
$DIMTAD
 70
     1
  9
$DIMZIN
 70
     0
  9
$DIMBLK
  1

  9
$DIMASO
 70
     1
  9
$DIMSHO
 70
     1
  9
$DIMPOST
  1

  9
$DIMAPOST
  1

  9
$DIMALT
 70
     0
  9
$DIMALTD
 70
     3
  9
$DIMALTF
 40
0.0393700787401575
  9
$DIMLFAC
 40
1.0
  9
$DIMTOFL
 70
     1
  9
$DIMTVP
 40
0.0
  9
$DIMTIX
 70
     0
  9
$DIMSOXD
 70
     0
  9
$DIMSAH
 70
     0
  9
$DIMBLK1
  1

  9
$DIMBLK2
  1

  9
$DIMSTYLE
  2
ISO-25
  9
$DIMCLRD
 70
     0
  9
$DIMCLRE
 70
     0
  9
$DIMCLRT
 70
     0
  9
$DIMTFAC
 40
1.0
  9
$DIMGAP
 40
1.524
  9
$DIMJUST
 70
     0
  9
$DIMSD1
 70
     0
  9
$DIMSD2
 70
     0
  9
$DIMTOLJ
 70
     0
  9
$DIMTZIN
 70
     0
  9
$DIMALTZ
 70
     0
  9
$DIMALTTZ
 70
     0
  9
$DIMUPT
 70
     0
  9
$DIMDEC
 70
     2
  9
$DIMTDEC
 70
     2
  9
$DIMALTU
 70
     2
  9
$DIMALTTD
 70
     3
  9
$DIMTXSTY
  7
Standard
  9
$DIMAUNIT
 70
     0
  9
$DIMADEC
 70
     2
  9
$DIMALTRND
 40
0.0
  9
$DIMAZIN
 70
     0
  9
$DIMDSEP
 70
    44
  9
$DIMATFIT
 70
     3
  9
$DIMFRAC
 70
     0
  9
$DIMLDRBLK
  1

  9
$DIMLUNIT
 70
     2
  9
$DIMLWD
 70
    -2
  9
$DIMLWE
 70
    -2
  9
$DIMTMOVE
 70
     0
  9
$LUNITS
 70
     2
  9
$LUPREC
 70
     2
  9
$SKETCHINC
 40
1.0
  9
$FILLETRAD
 40
10.0
  9
$AUNITS
 70
     0
  9
$AUPREC
 70
     2
  9
$MENU
  1
.
  9
$ELEVATION
 40
0.0
  9
$PELEVATION
 40
0.0
  9
$THICKNESS
 40
0.0
  9
$LIMCHECK
 70
     0
  9
$CHAMFERA
 40
0.0
  9
$CHAMFERB
 40
0.0
  9
$CHAMFERC
 40
0.0
  9
$CHAMFERD
 40
0.0
  9
$SKPOLY
 70
     0
  9
$TDCREATE
 40
2458323.440685544
  9
$TDUCREATE
 40
2458323.065685544
  9
$TDUPDATE
 40
2458323.678428843
  9
$TDUUPDATE
 40
2458323.303428843
  9
$TDINDWG
 40
0.0004200579
  9
$TDUSRTIMER
 40
2458323.303342535
  9
$USRTIMER
 70
     1
  9
$ANGBASE
 50
0.0
  9
$ANGDIR
 70
     0
  9
$PDMODE
 70
     0
  9
$PDSIZE
 40
-1.0
  9
$PLINEWID
 40
0.0
  9
$SPLFRAME
 70
     0
  9
$SPLINETYPE
 70
     6
  9
$SPLINESEGS
 70
     8
  9
$HANDSEED
  5
385
  9
$SURFTAB1
 70
     6
  9
$SURFTAB2
 70
     6
  9
$SURFTYPE
 70
     6
  9
$SURFU
 70
     6
  9
$SURFV
 70
     6
  9
$UCSBASE
  2

  9
$UCSNAME
  2

  9
$UCSORG
 10
0.0
 20
0.0
 30
0.0
  9
$UCSXDIR
 10
1.0
 20
0.0
 30
0.0
  9
$UCSYDIR
 10
0.0
 20
1.0
 30
0.0
  9
$UCSORTHOREF
  2

  9
$UCSORTHOVIEW
 70
     0
  9
$UCSORGTOP
 10
0.0
 20
0.0
 30
0.0
  9
$UCSORGBOTTOM
 10
0.0
 20
0.0
 30
0.0
  9
$UCSORGLEFT
 10
0.0
 20
0.0
 30
0.0
  9
$UCSORGRIGHT
 10
0.0
 20
0.0
 30
0.0
  9
$UCSORGFRONT
 10
0.0
 20
0.0
 30
0.0
  9
$UCSORGBACK
 10
0.0
 20
0.0
 30
0.0
  9
$PUCSBASE
  2

  9
$PUCSNAME
  2

  9
$PUCSORG
 10
0.0
 20
0.0
 30
0.0
  9
$PUCSXDIR
 10
1.0
 20
0.0
 30
0.0
  9
$PUCSYDIR
 10
0.0
 20
1.0
 30
0.0
  9
$PUCSORTHOREF
  2

  9
$PUCSORTHOVIEW
 70
     0
  9
$PUCSORGTOP
 10
0.0
 20
0.0
 30
0.0
  9
$PUCSORGBOTTOM
 10
0.0
 20
0.0
 30
0.0
  9
$PUCSORGLEFT
 10
0.0
 20
0.0
 30
0.0
  9
$PUCSORGRIGHT
 10
0.0
 20
0.0
 30
0.0
  9
$PUCSORGFRONT
 10
0.0
 20
0.0
 30
0.0
  9
$PUCSORGBACK
 10
0.0
 20
0.0
 30
0.0
  9
$USERI1
 70
     0
  9
$USERI2
 70
     0
  9
$USERI3
 70
     0
  9
$USERI4
 70
     0
  9
$USERI5
 70
     0
  9
$USERR1
 40
0.0
  9
$USERR2
 40
0.0
  9
$USERR3
 40
0.0
  9
$USERR4
 40
0.0
  9
$USERR5
 40
0.0
  9
$WORLDVIEW
 70
     1
  9
$SHADEDGE
 70
     3
  9
$SHADEDIF
 70
    70
  9
$TILEMODE
 70
     1
  9
$MAXACTVP
 70
    64
  9
$PINSBASE
 10
0.0
 20
0.0
 30
0.0
  9
$PLIMCHECK
 70
     0
  9
$PEXTMIN
 10
1.000000000000000E+20
 20
1.000000000000000E+20
 30
1.000000000000000E+20
  9
$PEXTMAX
 10
-1.000000000000000E+20
 20
-1.000000000000000E+20
 30
-1.000000000000000E+20
  9
$PLIMMIN
 10
0.0
 20
0.0
  9
$PLIMMAX
 10
0.0
 20
0.0
  9
$UNITMODE
 70
     0
  9
$VISRETAIN
 70
     1
  9
$PLINEGEN
 70
     0
  9
$PSLTSCALE
 70
     1
  9
$TREEDEPTH
 70
  3020
  9
$CMLSTYLE
  2
Standard
  9
$CMLJUST
 70
     0
  9
$CMLSCALE
 40
20.0
  9
$PROXYGRAPHICS
 70
     1
  9
$MEASUREMENT
 70
     1
  9
$CELWEIGHT
370
    -1
  9
$ENDCAPS
280
     0
  9
$JOINSTYLE
280
     0
  9
$LWDISPLAY
290
     1
  9
$INSUNITS
 70
     4
  9
$HYPERLINKBASE
  1

  9
$STYLESHEET
  1

  9
$XEDIT
290
     1
  9
$CEPSNTYPE
380
     0
  9
$PSTYLEMODE
290
     1
  9
$FINGERPRINTGUID
  2
{D19913E5-E558-49C3-A137-AC5D8801411B}
  9
$VERSIONGUID
  2
{FAEB1C32-E019-11D5-929B-00C0DF256EC4}
  9
$EXTNAMES
290
     1
  9
$PSVPSCALE
 40
0.0
  9
$OLESTARTUP
290
     0
  0
ENDSEC
  0
SECTION
  2
CLASSES
  0
CLASS
  1
ACDBDICTIONARYWDFLT
  2
AcDbDictionaryWithDefault
  3
ObjectDBX Classes
 90
        0
280
     0
281
     0
  0
CLASS
  1
VISUALSTYLE
  2
AcDbVisualStyle
  3
ObjectDBX Classes
 90
     4095
280
     0
281
     0
  0
CLASS
  1
MATERIAL
  2
AcDbMaterial
  3
ObjectDBX Classes
 90
     1153
280
     0
281
     0
  0
CLASS
  1
SCALE
  2
AcDbScale
  3
ObjectDBX Classes
 90
     1153
280
     0
281
     0
  0
CLASS
  1
SUN
  2
AcDbSun
  3
SCENEOE
 90
     1153
280
     0
281
     0
  0
CLASS
  1
ACDBPLACEHOLDER
  2
AcDbPlaceHolder
  3
ObjectDBX Classes
 90
        0
280
     0
281
     0
  0
CLASS
  1
LAYOUT
  2
AcDbLayout
  3
ObjectDBX Classes
 90
        0
280
     0
281
     0
  0
CLASS
  1
TABLESTYLE
  2
AcDbTableStyle
  3
ObjectDBX Classes
 90
     4095
280
     0
281
     0
  0
CLASS
  1
MLEADERSTYLE
  2
AcDbMLeaderStyle
  3
ACDB_MLEADERSTYLE_CLASS
 90
     4095
280
     0
281
     0
  0
CLASS
  1
RASTERVARIABLES
  2
AcDbRasterVariables
  3
ISM
 90
        0
280
     0
281
     0
  0
ENDSEC
  0
SECTION
  2
TABLES
  0
TABLE
  2
VPORT
  5
8
330
0
100
AcDbSymbolTable
 70
     1
  0
VPORT
  5
29
330
8
100
AcDbSymbolTableRecord
100
AcDbViewportTableRecord
  2
*Active
 70
     0
 10
0.0
 20
0.0
 11
1.0
 21
1.0
 12
46.49094389505591
 22
2.362082114772974
 13
0.0
 23
0.0
 14
10.0
 24
10.0
 15
10.0
 25
10.0
 16
0.0
 26
0.0
 36
1.0
 17
0.0
 27
0.0
 37
0.0
 40
154.7612832211374
 41
1.632093933463796
 42
50.0
 43
0.0
 44
0.0
 50
0.0
 51
0.0
 71
    16
 72
  2000
 73
     1
 74
     3
 75
     0
 76
     0
 77
     0
 78
     0
281
     0
 65
     1
110
0.0
120
0.0
130
0.0
111
1.0
121
0.0
131
0.0
112
0.0
122
1.0
132
0.0
 79
     0
146
0.0
  0
ENDTAB
  0
TABLE
  2
LTYPE
  5
5
330
0
100
AcDbSymbolTable
 70
     6
  0
LTYPE
  5
14
330
5
100
AcDbSymbolTableRecord
100
AcDbLinetypeTableRecord
  2
ByBlock
 70
     0
  3

 72
    65
 73
     0
 40
0.0
  0
LTYPE
  5
15
330
5
100
AcDbSymbolTableRecord
100
AcDbLinetypeTableRecord
  2
ByLayer
 70
     0
  3

 72
    65
 73
     0
 40
0.0
  0
LTYPE
  5
16
330
5
100
AcDbSymbolTableRecord
100
AcDbLinetypeTableRecord
  2
Continuous
 70
     0
  3
Solid line
 72
    65
 73
     0
 40
0.0
  0
LTYPE
  5
6A
330
5
100
AcDbSymbolTableRecord
100
AcDbLinetypeTableRecord
  2
HIDDEN
 70
     0
  3
Hidden __ __ __ __ __ __ __ __ __ __ __ __ __ __
 72
    65
 73
     2
 40
1.905
 49
1.27
 74
     0
 49
-0.635
 74
     0
  0
LTYPE
  5
6B
330
5
100
AcDbSymbolTableRecord
100
AcDbLinetypeTableRecord
  2
PHANTOM
 70
     0
  3
Phantom ______  __  __  ______  __  __  ______
 72
    65
 73
     6
 40
12.7
 49
6.35
 74
     0
 49
-1.27
 74
     0
 49
1.27
 74
     0
 49
-1.27
 74
     0
 49
1.27
 74
     0
 49
-1.27
 74
     0
  0
LTYPE
  5
6C
330
5
100
AcDbSymbolTableRecord
100
AcDbLinetypeTableRecord
  2
CENTER
 70
     0
  3
Center ____ _ ____ _ ____ _ ____ _ ____ _ ____
 72
    65
 73
     4
 40
10.16
 49
6.35
 74
     0
 49
-1.27
 74
     0
 49
1.27
 74
     0
 49
-1.27
 74
     0
  0
LTYPE
  5
6D
330
5
100
AcDbSymbolTableRecord
100
AcDbLinetypeTableRecord
  2
CENTERX2
 70
     0
  3
Center (2x) ________  __  ________  __  _____
 72
    65
 73
     4
 40
20.32
 49
12.7
 74
     0
 49
-2.54
 74
     0
 49
2.54
 74
     0
 49
-2.54
 74
     0
  0
LTYPE
  5
6E
330
5
100
AcDbSymbolTableRecord
100
AcDbLinetypeTableRecord
  2
DOT2
 70
     0
  3
Dot (.5x) ........................................
 72
    65
 73
     2
 40
0.635
 49
0.0
 74
     0
 49
-0.635
 74
     0
  0
ENDTAB
  0
TABLE
  2
LAYER
  5
2
102
{ACAD_XDICTIONARY
360
231
102
}
330
0
100
AcDbSymbolTable
 70
    18
  0
LAYER
  5
10
330
2
100
AcDbSymbolTableRecord
100
AcDbLayerTableRecord
  2
0
 70
     0
 62
     7
  6
Continuous
370
    -3
390
F
  0
LAYER
  5
6F
330
2
100
AcDbSymbolTableRecord
100
AcDbLayerTableRecord
  2
FORMAT
 70
     0
 62
     2
  6
Continuous
370
    -3
390
F
  0
LAYER
  5
70
330
2
100
AcDbSymbolTableRecord
100
AcDbLayerTableRecord
  2
외형선
 70
     0
 62
     4
  6
Continuous
370
    30
390
F
  0
LAYER
  5
71
330
2
100
AcDbSymbolTableRecord
100
AcDbLayerTableRecord
  2
숨은선
 70
     0
 62
     2
  6
HIDDEN
370
    15
390
F
  0
LAYER
  5
72
330
2
100
AcDbSymbolTableRecord
100
AcDbLayerTableRecord
  2
중심선
 70
     0
 62
     1
  6
CENTERX2
370
    -3
390
F
  0
LAYER
  5
73
330
2
100
AcDbSymbolTableRecord
100
AcDbLayerTableRecord
  2
파단선
 70
     0
 62
     4
  6
Continuous
370
    -3
390
F
  0
LAYER
  5
74
330
2
100
AcDbSymbolTableRecord
100
AcDbLayerTableRecord
  2
해칭선
 70
     0
 62
   100
  6
Continuous
370
    -3
390
F
  0
LAYER
  5
75
330
2
100
AcDbSymbolTableRecord
100
AcDbLayerTableRecord
  2
가는실선
 70
     0
 62
     4
  6
Continuous
370
    -3
390
F
  0
LAYER
  5
76
330
2
100
AcDbSymbolTableRecord
100
AcDbLayerTableRecord
  2
치수_보조선
 70
     0
 62
     4
  6
Continuous
370
    -3
390
F
  0
LAYER
  5
77
330
2
100
AcDbSymbolTableRecord
100
AcDbLayerTableRecord
  2
치수문자_일반주서
 70
     0
 62
     7
  6
Continuous
370
    15
390
F
  0
LAYER
  5
78
330
2
100
AcDbSymbolTableRecord
100
AcDbLayerTableRecord
  2
개별주서
 70
     0
 62
   100
  6
Continuous
370
    30
390
F
  0
LAYER
  5
79
330
2
100
AcDbSymbolTableRecord
100
AcDbLayerTableRecord
  2
중간선
 70
     0
 62
     2
  6
Continuous
370
    15
390
F
  0
LAYER
  5
7A
330
2
100
AcDbSymbolTableRecord
100
AcDbLayerTableRecord
  2
윤곽선
 70
     0
 62
     3
  6
Continuous
370
    40
390
F
  0
LAYER
  5
7B
330
2
100
AcDbSymbolTableRecord
100
AcDbLayerTableRecord
  2
중심마크
 70
     0
 62
   100
  6
Continuous
370
    30
390
F
  0
LAYER
  5
7C
330
2
100
AcDbSymbolTableRecord
100
AcDbLayerTableRecord
  2
가상선
 70
     0
 62
     4
  6
PHANTOM
370
    -3
390
F
  0
LAYER
  5
7D
330
2
100
AcDbSymbolTableRecord
100
AcDbLayerTableRecord
  2
특수지정선
 70
     0
 62
     5
  6
CENTERX2
370
    60
390
F
  0
LAYER
  5
7E
330
2
100
AcDbSymbolTableRecord
100
AcDbLayerTableRecord
  2
참조1
 70
     0
 62
    -4
  6
Continuous
370
    -3
390
F
  0
LAYER
  5
172
330
2
100
AcDbSymbolTableRecord
100
AcDbLayerTableRecord
  2
Defpoints
 70
     0
 62
     7
  6
Continuous
290
     0
370
    -3
390
F
  0
ENDTAB
  0
TABLE
  2
STYLE
  5
3
330
0
100
AcDbSymbolTable
 70
     2
  0
STYLE
  5
11
330
3
100
AcDbSymbolTableRecord
100
AcDbTextStyleTableRecord
  2
Standard
 70
     0
 40
0.0
 41
1.0
 50
0.0
 71
     0
 42
3.5
  3
txt
  4

  0
STYLE
  5
94
330
3
100
AcDbSymbolTableRecord
100
AcDbTextStyleTableRecord
  2
SLDTEXTSTYLE0
 70
     0
 40
0.0
 41
0.75
 50
0.0
 71
     0
 42
3.5
  3
TXT
  4

  0
ENDTAB
  0
TABLE
  2
VIEW
  5
6
330
0
100
AcDbSymbolTable
 70
     0
  0
ENDTAB
  0
TABLE
  2
UCS
  5
7
330
0
100
AcDbSymbolTable
 70
     0
  0
ENDTAB
  0
TABLE
  2
APPID
  5
9
330
0
100
AcDbSymbolTable
 70
     1
  0
APPID
  5
12
330
9
100
AcDbSymbolTableRecord
100
AcDbRegAppTableRecord
  2
ACAD
 70
     0
  0
ENDTAB
  0
TABLE
  2
DIMSTYLE
  5
A
330
0
100
AcDbSymbolTable
 70
     3
100
AcDbDimStyleTable
  0
DIMSTYLE
105
27
330
A
100
AcDbSymbolTableRecord
100
AcDbDimStyleTableRecord
  2
ISO-25
 70
     0
 41
2.5
 42
0.625
 43
3.75
 44
1.25
 73
     0
 74
     0
 77
     1
 78
     8
140
2.5
141
2.5
143
0.03937007874016
147
0.625
171
     3
172
     1
178
     0
271
     2
272
     2
274
     3
278
    44
283
     0
284
     8
340
11
  0
DIMSTYLE
105
F1
102
{ACAD_REACTORS
330
F0
330
105
330
119
330
12C
102
}
330
A
100
AcDbSymbolTableRecord
100
AcDbDimStyleTableRecord
  2
SLDDIMSTYLE0
 70
     0
 41
3.302
 44
0.0
 45
0.000000001
 73
     0
 74
     0
 77
     1
 78
     4
 79
     1
140
3.5
143
0.0393700787401575
147
0.875
148
0.000000001
170
     1
172
     1
173
     1
178
     0
271
     2
272
     2
276
     2
284
    12
289
     0
340
94
  0
DIMSTYLE
105
106
330
A
100
AcDbSymbolTableRecord
100
AcDbDimStyleTableRecord
  2
SLDDIMSTYLE1
 70
     0
 41
3.302
 44
0.0
 45
0.000000001
 73
     0
 74
     0
 77
     1
 78
     4
 79
     1
140
3.5
143
0.0393700787401575
147
0.875
148
0.000000001
170
     1
173
     1
178
     0
271
     2
272
     2
276
     2
284
    12
340
94
  0
ENDTAB
  0
TABLE
  2
BLOCK_RECORD
  5
1
330
0
100
AcDbSymbolTable
 70
    16
  0
BLOCK_RECORD
  5
1F
330
1
100
AcDbSymbolTableRecord
100
AcDbBlockTableRecord
  2
*Model_Space
340
22
  0
BLOCK_RECORD
  5
1B
330
1
100
AcDbSymbolTableRecord
100
AcDbBlockTableRecord
  2
*Paper_Space
340
1E
  0
BLOCK_RECORD
  5
23
330
1
100
AcDbSymbolTableRecord
100
AcDbBlockTableRecord
  2
*Paper_Space0
340
26
  0
BLOCK_RECORD
  5
7F
330
1
100
AcDbSymbolTableRecord
100
AcDbBlockTableRecord
  2
블럭10
340
0
102
{BLKREFS
331
E9
102
}
  0
BLOCK_RECORD
  5
F2
330
1
100
AcDbSymbolTableRecord
100
AcDbBlockTableRecord
  2
_D
340
0
  0
BLOCK_RECORD
  5
107
330
1
100
AcDbSymbolTableRecord
100
AcDbBlockTableRecord
  2
_D_1
340
0
  0
BLOCK_RECORD
  5
11A
330
1
100
AcDbSymbolTableRecord
100
AcDbBlockTableRecord
  2
_D_2
340
0
  0
BLOCK_RECORD
  5
12D
330
1
100
AcDbSymbolTableRecord
100
AcDbBlockTableRecord
  2
_D_3
340
0
  0
BLOCK_RECORD
  5
146
330
1
100
AcDbSymbolTableRecord
100
AcDbBlockTableRecord
  2
SW_DOWELSYMBOL_0
340
0
102
{BLKREFS
331
14C
102
}
  0
BLOCK_RECORD
  5
235
330
1
100
AcDbSymbolTableRecord
100
AcDbBlockTableRecord
  2
*D7
340
0
  0
BLOCK_RECORD
  5
241
330
1
100
AcDbSymbolTableRecord
100
AcDbBlockTableRecord
  2
*D8
340
0
  0
BLOCK_RECORD
  5
24D
330
1
100
AcDbSymbolTableRecord
100
AcDbBlockTableRecord
  2
*D9
340
0
  0
BLOCK_RECORD
  5
259
330
1
100
AcDbSymbolTableRecord
100
AcDbBlockTableRecord
  2
*D10
340
0
  0
BLOCK_RECORD
  5
2C6
330
1
100
AcDbSymbolTableRecord
100
AcDbBlockTableRecord
  2
*D11
340
0
  0
BLOCK_RECORD
  5
2D2
330
1
100
AcDbSymbolTableRecord
100
AcDbBlockTableRecord
  2
*D12
340
0
  0
BLOCK_RECORD
  5
2DE
330
1
100
AcDbSymbolTableRecord
100
AcDbBlockTableRecord
  2
*D13
340
0
  0
BLOCK_RECORD
  5
2EA
330
1
100
AcDbSymbolTableRecord
100
AcDbBlockTableRecord
  2
*D14
340
0
  0
ENDTAB
  0
ENDSEC
  0
SECTION
  2
BLOCKS
  0
BLOCK
  5
20
330
1F
100
AcDbEntity
  8
0
100
AcDbBlockBegin
  2
*Model_Space
 70
     0
 10
0.0
 20
0.0
 30
0.0
  3
*Model_Space
  1
*Model_Space
  0
ENDBLK
  5
21
330
1F
100
AcDbEntity
  8
0
100
AcDbBlockEnd
  0
BLOCK
  5
1C
330
1B
100
AcDbEntity
 67
     1
  8
0
100
AcDbBlockBegin
  2
*Paper_Space
 70
     0
 10
0.0
 20
0.0
 30
0.0
  3
*Paper_Space
  1
*Paper_Space
  0
ENDBLK
  5
1D
330
1B
100
AcDbEntity
 67
     1
  8
0
100
AcDbBlockEnd
  0
BLOCK
  5
24
330
23
100
AcDbEntity
  8
0
100
AcDbBlockBegin
  2
*Paper_Space0
 70
     0
 10
0.0
 20
0.0
 30
0.0
  3
*Paper_Space0
  1
*Paper_Space0
  0
ENDBLK
  5
25
330
23
100
AcDbEntity
  8
0
100
AcDbBlockEnd
  0
BLOCK
  5
80
330
7F
100
AcDbEntity
  8
0
100
AcDbBlockBegin
  2
블럭10
 70
     2
 10
0.0
 20
0.0
 30
0.0
  3
블럭10
  1
블럭10
  0
ELLIPSE
  5
82
330
7F
100
AcDbEntity
  8
중심선
100
AcDbEllipse
 10
20.54032771741204
 20
12.0471743016438
 30
0.0
 11
6.600054785286829
 21
-1.261213355974178E-13
 31
0.0
210
0.0
220
0.0
230
1.0
 40
0.636358354079598
 41
0.9219305317359503
 42
6.513795318482858
  0
ELLIPSE
  5
83
330
7F
100
AcDbEntity
  8
중심선
100
AcDbEllipse
 10
20.54032771746488
 20
12.04717430159265
 30
0.0
 11
3.960054785062283
 21
1.540847449632565E-10
 31
0.0
210
0.0
220
0.0
230
1.0
 40
0.3939339440162632
 41
1.131841032648279
 42
5.62031148352944
  0
LINE
  5
84
330
7F
100
AcDbEntity
  8
중심선
100
AcDbLine
 10
2.268634060543552
 20
16.24717430164393
 30
0.0
 11
5.714909304380834
 21
16.24717430164393
 31
0.0
  0
LINE
  5
85
330
7F
100
AcDbEntity
  8
중심선
100
AcDbLine
 10
5.245725140726316
 20
7.84717430164391
 30
0.0
 11
8.692000384563599
 21
7.84717430164391
 31
0.0
  0
LINE
  5
86
330
7F
100
AcDbEntity
  8
중심선
100
AcDbLine
 10
15.74043728645272
 20
16.24717430164393
 30
0.0
 11
8.692000384563599
 21
7.84717430164391
 31
0.0
  0
LINE
  5
87
330
7F
100
AcDbEntity
  8
중심선
100
AcDbLine
 10
0.1404042013395286
 20
13.71084872107135
 30
0.0
 11
3.58671253028996
 21
13.71088815037384
 31
0.0
  0
LINE
  5
88
330
7F
100
AcDbEntity
  8
중심선
100
AcDbLine
 10
2.750260043222114
 20
10.84717430164391
 30
0.0
 11
6.196535287059397
 21
10.84717430164391
 31
0.0
  0
LINE
  5
89
330
7F
100
AcDbEntity
  8
중심선
100
AcDbLine
 10
12.29416204261559
 20
16.24717430164393
 30
0.0
 11
5.245725140726316
 21
7.84717430164391
 31
0.0
  0
LINE
  5
8A
330
7F
100
AcDbEntity
  8
중심선
100
AcDbLine
 10
10.72767329541681
 20
16.24717430164393
 30
0.0
 11
6.196535287059397
 21
10.84717430164391
 31
0.0
  0
LINE
  5
8B
330
7F
100
AcDbEntity
  8
중심선
100
AcDbLine
 10
7.28139805157953
 20
16.24717430164393
 30
0.0
 11
2.750260043222114
 21
10.84717430164391
 31
0.0
  0
LINE
  5
8C
330
7F
100
AcDbEntity
  8
중심선
100
AcDbLine
 10
5.714909304380834
 20
16.24717430164393
 30
0.0
 11
3.58671253028996
 21
13.71088815037384
 31
0.0
  0
LINE
  5
8D
330
7F
100
AcDbEntity
  8
중심선
100
AcDbLine
 10
2.268634060543552
 20
16.24717430164393
 30
0.0
 11
0.1404042013395286
 21
13.71084872107135
 31
0.0
  0
LINE
  5
8E
330
7F
100
AcDbEntity
  8
중심선
100
AcDbLine
 10
7.28139805157953
 20
16.24717430164393
 30
0.0
 11
10.72767329541681
 21
16.24717430164393
 31
0.0
  0
LINE
  5
8F
330
7F
100
AcDbEntity
  8
중심선
100
AcDbLine
 10
12.29416204261559
 20
16.24717430164393
 30
0.0
 11
15.74043728645272
 21
16.24717430164393
 31
0.0
  0
LINE
  5
90
330
7F
100
AcDbEntity
  8
중심선
100
AcDbLine
 10
19.22036997980202
 20
11.08717430171403
 30
0.0
 11
23.66174974927406
 21
11.08717430171406
 31
0.0
  0
LINE
  5
91
330
7F
100
AcDbEntity
  8
중심선
100
AcDbLine
 10
19.22039502424796
 20
13.00717430171391
 30
0.0
 11
19.22036997980202
 21
11.08717430171403
 31
0.0
  0
LINE
  5
92
330
7F
100
AcDbEntity
  8
중심선
100
AcDbLine
 10
19.22039502424796
 20
13.00717430171391
 30
0.0
 11
26.96566020931264
 21
13.00717430171391
 31
0.0
  0
LINE
  5
93
330
7F
100
AcDbEntity
  8
중심선
100
AcDbLine
 10
22.22332737316547
 20
13.45928029700563
 30
0.0
 11
24.52862924686651
 21
15.39360700705356
 31
0.0
  0
ATTDEF
  5
95
330
7F
100
AcDbEntity
  8
FORMAT
 62
     2
100
AcDbText
 10
4.408487351596664
 20
2.075366912832191
 30
0.0
 40
4.233333333333333
  1
E1162064
 41
0.75
  7
SLDTEXTSTYLE0
 11
4.408487351596664
 21
-0.0412997538344756
 31
0.0
100
AcDbAttributeDefinition
  3

  2
AUTOATTR0
 70
     0
 74
     1
  0
ENDBLK
  5
81
330
7F
100
AcDbEntity
  8
0
100
AcDbBlockEnd
  0
BLOCK
  5
F3
330
F2
100
AcDbEntity
  8
0
100
AcDbBlockBegin
  2
_D
 70
     0
 10
0.0
 20
0.0
 30
0.0
  3
_D
  1
_D
  0
LINE
  5
F5
330
F2
100
AcDbEntity
  8
치수문자_일반주서
 62
     0
370
    -2
100
AcDbLine
 10
-39.49749999999995
 20
12.70107492872388
 30
0.0
 11
-54.0225
 21
12.70107492872383
 31
0.0
  0
LINE
  5
F6
330
F2
100
AcDbEntity
  8
치수문자_일반주서
 62
     0
370
    -2
100
AcDbLine
 10
-39.49749999999995
 20
-12.69892507127609
 30
0.0
 11
-54.02249999999992
 21
-12.69892507127615
 31
0.0
  0
LINE
  5
F7
330
F2
100
AcDbEntity
  8
치수문자_일반주서
 62
     0
370
    -2
100
AcDbLine
 10
-54.02249999999999
 20
9.399074928723833
 30
0.0
 11
-54.02249999999993
 21
-9.396925071276145
 31
0.0
  0
SOLID
  5
F8
330
F2
100
AcDbEntity
  8
치수문자_일반주서
 62
     0
100
AcDbTrace
 10
-53.47216666666665
 20
9.399074928723834
 30
0.0
 11
-54.57283333333332
 21
9.39907492872383
 31
0.0
 12
-54.0225
 22
12.70107492872383
 32
0.0
 13
-54.0225
 23
12.70107492872383
 33
0.0
  0
SOLID
  5
F9
330
F2
100
AcDbEntity
  8
치수문자_일반주서
 62
     0
100
AcDbTrace
 10
-54.57283333333326
 20
-9.396925071276147
 30
0.0
 11
-53.4721666666666
 21
-9.396925071276144
 31
0.0
 12
-54.02249999999992
 22
-12.69892507127615
 32
0.0
 13
-54.02249999999992
 23
-12.69892507127615
 33
0.0
  0
MTEXT
  5
FA
330
F2
100
AcDbEntity
  8
치수문자_일반주서
 62
     0
100
AcDbMText
 10
-58.39749999999996
 20
0.0010749287238656
 30
0.0
 40
3.5
 41
0.0
 71
     2
 72
     1
  1
\A1;%%c25.40 [1]
  7
SLDTEXTSTYLE0
 11
-3.356894814614650E-15
 21
1.0
 31
0.0
 73
     1
 44
1.0
  0
POINT
  5
FB
330
F2
100
AcDbEntity
  8
Defpoints
 62
     0
100
AcDbPoint
 10
-39.43499999999995
 20
12.70107492872388
 30
0.0
  0
POINT
  5
FC
330
F2
100
AcDbEntity
  8
Defpoints
 62
     0
100
AcDbPoint
 10
-39.43499999999995
 20
-12.69892507127609
 30
0.0
  0
POINT
  5
FD
330
F2
100
AcDbEntity
  8
Defpoints
 62
     0
100
AcDbPoint
 10
-54.02249999999996
 20
-12.69892507127615
 30
0.0
  0
ENDBLK
  5
F4
330
F2
100
AcDbEntity
  8
0
100
AcDbBlockEnd
  0
BLOCK
  5
108
330
107
100
AcDbEntity
  8
0
100
AcDbBlockBegin
  2
_D_1
 70
     0
 10
0.0
 20
0.0
 30
0.0
  3
_D_1
  1
_D_1
  0
LINE
  5
10A
330
107
100
AcDbEntity
  8
치수문자_일반주서
 62
     0
370
    -2
100
AcDbLine
 10
123.1250000000001
 20
12.67089732520899
 30
0.0
 11
123.1250000000001
 21
35.14838386579974
 31
0.0
  0
LINE
  5
10B
330
107
100
AcDbEntity
  8
치수문자_일반주서
 62
     0
370
    -2
100
AcDbLine
 10
21.52500000000005
 20
12.3472541086777
 30
0.0
 11
21.52500000000005
 21
35.14838386579974
 31
0.0
  0
LINE
  5
10C
330
107
100
AcDbEntity
  8
치수문자_일반주서
 62
     0
370
    -2
100
AcDbLine
 10
119.8230000000001
 20
35.14838386579974
 30
0.0
 11
24.82700000000005
 21
35.14838386579974
 31
0.0
  0
SOLID
  5
10D
330
107
100
AcDbEntity
  8
치수문자_일반주서
 62
     0
100
AcDbTrace
 10
119.8230000000001
 20
34.59805053246641
 30
0.0
 11
119.8230000000001
 21
35.69871719913308
 31
0.0
 12
123.1250000000001
 22
35.14838386579974
 32
0.0
 13
123.1250000000001
 23
35.14838386579974
 33
0.0
  0
SOLID
  5
10E
330
107
100
AcDbEntity
  8
치수문자_일반주서
 62
     0
100
AcDbTrace
 10
24.82700000000005
 20
35.69871719913308
 30
0.0
 11
24.82700000000005
 21
34.59805053246641
 31
0.0
 12
21.52500000000005
 22
35.14838386579974
 32
0.0
 13
21.52500000000005
 23
35.14838386579974
 33
0.0
  0
MTEXT
  5
10F
330
107
100
AcDbEntity
  8
치수문자_일반주서
 62
     0
100
AcDbMText
 10
72.32500000000006
 20
39.52338386579974
 30
0.0
 40
3.5
 41
0.0
 71
     2
 72
     1
  1
\A1;101.60 [4]
  7
SLDTEXTSTYLE0
 73
     1
 44
1.0
  0
POINT
  5
110
330
107
100
AcDbEntity
  8
Defpoints
 62
     0
100
AcDbPoint
 10
123.1250000000001
 20
12.60839732520899
 30
0.0
  0
POINT
  5
111
330
107
100
AcDbEntity
  8
Defpoints
 62
     0
100
AcDbPoint
 10
21.52500000000005
 20
12.2847541086777
 30
0.0
  0
POINT
  5
112
330
107
100
AcDbEntity
  8
Defpoints
 62
     0
100
AcDbPoint
 10
21.52500000000005
 20
35.14838386579974
 30
0.0
  0
ENDBLK
  5
109
330
107
100
AcDbEntity
  8
0
100
AcDbBlockEnd
  0
BLOCK
  5
11B
330
11A
100
AcDbEntity
  8
0
100
AcDbBlockBegin
  2
_D_2
 70
     0
 10
0.0
 20
0.0
 30
0.0
  3
_D_2
  1
_D_2
  0
LINE
  5
11D
330
11A
100
AcDbEntity
  8
치수문자_일반주서
 62
     0
370
    -2
100
AcDbLine
 10
123.1250000000001
 20
12.67089732520899
 30
0.0
 11
123.1250000000001
 21
47.14838386579975
 31
0.0
  0
LINE
  5
11E
330
11A
100
AcDbEntity
  8
치수문자_일반주서
 62
     0
370
    -2
100
AcDbLine
 10
-41.97499999999997
 20
10.2235749287239
 30
0.0
 11
-41.97499999999998
 21
47.14838386579975
 31
0.0
  0
LINE
  5
11F
330
11A
100
AcDbEntity
  8
치수문자_일반주서
 62
     0
370
    -2
100
AcDbLine
 10
119.8230000000001
 20
47.14838386579975
 30
0.0
 11
-38.67299999999998
 21
47.14838386579975
 31
0.0
  0
SOLID
  5
120
330
11A
100
AcDbEntity
  8
치수문자_일반주서
 62
     0
100
AcDbTrace
 10
119.8230000000001
 20
46.59805053246642
 30
0.0
 11
119.8230000000001
 21
47.69871719913309
 31
0.0
 12
123.1250000000001
 22
47.14838386579975
 32
0.0
 13
123.1250000000001
 23
47.14838386579975
 33
0.0
  0
SOLID
  5
121
330
11A
100
AcDbEntity
  8
치수문자_일반주서
 62
     0
100
AcDbTrace
 10
-38.67299999999998
 20
47.69871719913309
 30
0.0
 11
-38.67299999999998
 21
46.59805053246642
 31
0.0
 12
-41.97499999999998
 22
47.14838386579975
 32
0.0
 13
-41.97499999999998
 23
47.14838386579975
 33
0.0
  0
MTEXT
  5
122
330
11A
100
AcDbEntity
  8
치수문자_일반주서
 62
     0
100
AcDbMText
 10
40.57500000000005
 20
51.52338386579975
 30
0.0
 40
3.5
 41
0.0
 71
     2
 72
     1
  1
\A1;165.10 [6 1/2]
  7
SLDTEXTSTYLE0
 73
     1
 44
1.0
  0
POINT
  5
123
330
11A
100
AcDbEntity
  8
Defpoints
 62
     0
100
AcDbPoint
 10
123.1250000000001
 20
12.60839732520899
 30
0.0
  0
POINT
  5
124
330
11A
100
AcDbEntity
  8
Defpoints
 62
     0
100
AcDbPoint
 10
-41.97499999999997
 20
10.1610749287239
 30
0.0
  0
POINT
  5
125
330
11A
100
AcDbEntity
  8
Defpoints
 62
     0
100
AcDbPoint
 10
-41.97499999999997
 20
47.14838386579975
 30
0.0
  0
ENDBLK
  5
11C
330
11A
100
AcDbEntity
  8
0
100
AcDbBlockEnd
  0
BLOCK
  5
12E
330
12D
100
AcDbEntity
  8
0
100
AcDbBlockBegin
  2
_D_3
 70
     0
 10
0.0
 20
0.0
 30
0.0
  3
_D_3
  1
_D_3
  0
LINE
  5
130
330
12D
100
AcDbEntity
  8
치수문자_일반주서
 62
     0
370
    -2
100
AcDbLine
 10
123.1875000000001
 20
12.7010749287239
 30
0.0
 11
143.4920446236073
 21
12.70107492872397
 31
0.0
  0
LINE
  5
131
330
12D
100
AcDbEntity
  8
치수문자_일반주서
 62
     0
370
    -2
100
AcDbLine
 10
123.1875000000001
 20
-12.69892507127611
 30
0.0
 11
143.4920446236074
 21
-12.69892507127604
 31
0.0
  0
LINE
  5
132
330
12D
100
AcDbEntity
  8
치수문자_일반주서
 62
     0
370
    -2
100
AcDbLine
 10
143.4920446236073
 20
12.70107492872397
 30
0.0
 11
143.4920446236072
 21
41.61757492872397
 31
0.0
  0
LINE
  5
133
330
12D
100
AcDbEntity
  8
치수문자_일반주서
 62
     0
370
    -2
100
AcDbLine
 10
143.4920446236073
 20
12.70107492872397
 30
0.0
 11
143.4920446236074
 21
-12.69892507127604
 31
0.0
  0
LINE
  5
134
330
12D
100
AcDbEntity
  8
치수문자_일반주서
 62
     0
370
    -2
100
AcDbLine
 10
143.4920446236073
 20
16.00307492872397
 30
0.0
 11
143.4920446236073
 21
19.30507492872397
 31
0.0
  0
LINE
  5
135
330
12D
100
AcDbEntity
  8
치수문자_일반주서
 62
     0
370
    -2
100
AcDbLine
 10
143.4920446236074
 20
-16.00092507127604
 30
0.0
 11
143.4920446236074
 21
-19.30292507127604
 31
0.0
  0
SOLID
  5
136
330
12D
100
AcDbEntity
  8
치수문자_일반주서
 62
     0
100
AcDbTrace
 10
142.941711290274
 20
16.00307492872397
 30
0.0
 11
144.0423779569406
 21
16.00307492872398
 31
0.0
 12
143.4920446236073
 22
12.70107492872397
 32
0.0
 13
143.4920446236073
 23
12.70107492872397
 33
0.0
  0
SOLID
  5
137
330
12D
100
AcDbEntity
  8
치수문자_일반주서
 62
     0
100
AcDbTrace
 10
144.0423779569407
 20
-16.00092507127604
 30
0.0
 11
142.941711290274
 21
-16.00092507127604
 31
0.0
 12
143.4920446236074
 22
-12.69892507127604
 32
0.0
 13
143.4920446236074
 23
-12.69892507127604
 33
0.0
  0
MTEXT
  5
138
330
12D
100
AcDbEntity
  8
치수문자_일반주서
 62
     0
100
AcDbMText
 10
139.1170446236072
 20
30.46132492872396
 30
0.0
 40
3.5
 41
0.0
 71
     2
 72
     1
  1
\A1;%%c25.40 [1]
  7
SLDTEXTSTYLE0
 11
-3.356894814614645E-15
 21
1.0
 31
0.0
 73
     1
 44
1.0
  0
POINT
  5
139
330
12D
100
AcDbEntity
  8
Defpoints
 62
     0
100
AcDbPoint
 10
123.1250000000001
 20
12.7010749287239
 30
0.0
  0
POINT
  5
2F9
330
12D
100
AcDbEntity
  8
Defpoints
 62
     0
100
AcDbPoint
 10
123.1250000000001
 20
-12.69892507127611
 30
0.0
  0
POINT
  5
2FA
330
12D
100
AcDbEntity
  8
Defpoints
 62
     0
100
AcDbPoint
 10
143.4920446236074
 20
-12.69892507127604
 30
0.0
  0
ENDBLK
  5
12F
330
12D
100
AcDbEntity
  8
0
100
AcDbBlockEnd
  0
BLOCK
  5
147
330
146
100
AcDbEntity
  8
0
100
AcDbBlockBegin
  2
SW_DOWELSYMBOL_0
 70
     0
 10
0.0
 20
0.0
 30
0.0
  3
SW_DOWELSYMBOL_0
  1
SW_DOWELSYMBOL_0
  0
CIRCLE
  5
149
330
146
100
AcDbEntity
  8
해칭선
 62
     0
100
AcDbCircle
 10
0.0
 20
0.0
 30
0.0
 40
3.000000000000001
  0
HATCH
  5
14A
330
146
100
AcDbEntity
  8
0
  6
Continuous
 62
     0
370
     0
100
AcDbHatch
 10
0.0
 20
0.0
 30
0.0
210
0.0
220
0.0
230
1.0
  2
SOLID
 70
     1
 71
     0
 91
        1
 92
        0
 93
        3
 72
     2
 10
0.0
 20
0.0
 40
3.000000000000001
 50
0.0
 51
90.0
 73
     1
 72
     1
 10
0.0
 20
3.000000000000001
 11
0.0
 21
0.0
 72
     1
 10
0.0
 20
0.0
 11
3.000000000000001
 21
0.0
 97
        0
 75
     0
 76
     1
 98
        1
 10
0.0
 20
0.0
  0
HATCH
  5
14B
330
146
100
AcDbEntity
  8
0
  6
Continuous
 62
     0
370
     0
100
AcDbHatch
 10
0.0
 20
0.0
 30
0.0
210
0.0
220
0.0
230
1.0
  2
SOLID
 70
     1
 71
     0
 91
        1
 92
        0
 93
        3
 72
     2
 10
0.0
 20
0.0
 40
3.000000000000001
 50
180.0
 51
270.0000000000007
 73
     1
 72
     1
 10
0.0
 20
-3.000000000000001
 11
0.0
 21
0.0
 72
     1
 10
0.0
 20
0.0
 11
-3.000000000000001
 21
0.0
 97
        0
 75
     0
 76
     1
 98
        1
 10
0.0
 20
0.0
  0
ENDBLK
  5
148
330
146
100
AcDbEntity
  8
0
100
AcDbBlockEnd
  0
BLOCK
  5
236
330
235
100
AcDbEntity
  8
0
100
AcDbBlockBegin
  2
*D7
 70
     1
 10
0.0
 20
0.0
 30
0.0
  3
*D7
  1
*D8
  0
LINE
  5
238
330
235
100
AcDbEntity
  8
치수문자_일반주서
 62
     0
370
    -2
100
AcDbLine
 10
18.90000000000005
 20
28.82899999999994
 30
0.0
 11
4.375000000000004
 21
28.82899999999988
 31
0.0
  0
LINE
  5
239
330
235
100
AcDbEntity
  8
치수문자_일반주서
 62
     0
370
    -2
100
AcDbLine
 10
18.90000000000005
 20
6.603999999999942
 30
0.0
 11
4.375000000000082
 21
6.603999999999889
 31
0.0
  0
LINE
  5
23A
330
235
100
AcDbEntity
  8
치수문자_일반주서
 62
     0
370
    -2
100
AcDbLine
 10
4.375000000000016
 20
25.52699999999988
 30
0.0
 11
4.37500000000007
 21
9.905999999999889
 31
0.0
  0
SOLID
  5
23B
330
235
100
AcDbEntity
  8
치수문자_일반주서
 62
     0
100
AcDbTrace
 10
4.92533333333335
 20
25.52699999999989
 30
0.0
 11
3.824666666666683
 21
25.52699999999988
 31
0.0
 12
4.375000000000004
 22
28.82899999999988
 32
0.0
 13
4.375000000000004
 23
28.82899999999988
 33
0.0
  0
SOLID
  5
23C
330
235
100
AcDbEntity
  8
치수문자_일반주서
 62
     0
100
AcDbTrace
 10
3.824666666666737
 20
9.905999999999887
 30
0.0
 11
4.925333333333404
 21
9.90599999999989
 31
0.0
 12
4.375000000000082
 22
6.603999999999889
 32
0.0
 13
4.375000000000082
 23
6.603999999999889
 33
0.0
  0
MTEXT
  5
23D
330
235
100
AcDbEntity
  8
치수문자_일반주서
 62
     0
100
AcDbMText
 10
0.0000000000000426
 20
17.71649999999992
 30
0.0
 40
3.5
 41
0.0
 71
     2
 72
     1
  1
\A1;%%c22.23 [7/8]
  7
SLDTEXTSTYLE0
 11
-3.476783915136599E-15
 21
1.0
 31
0.0
 73
     1
 44
1.0
  0
POINT
  5
23E
330
235
100
AcDbEntity
  8
Defpoints
 62
     0
100
AcDbPoint
 10
18.96250000000005
 20
28.82899999999994
 30
0.0
  0
POINT
  5
23F
330
235
100
AcDbEntity
  8
Defpoints
 62
     0
100
AcDbPoint
 10
18.96250000000005
 20
6.603999999999942
 30
0.0
  0
POINT
  5
240
330
235
100
AcDbEntity
  8
Defpoints
 62
     0
100
AcDbPoint
 10
4.375000000000085
 20
6.603999999999888
 30
0.0
  0
ENDBLK
  5
237
330
235
100
AcDbEntity
  8
0
100
AcDbBlockEnd
  0
BLOCK
  5
242
330
241
100
AcDbEntity
  8
0
100
AcDbBlockBegin
  2
*D8
 70
     1
 10
0.0
 20
0.0
 30
0.0
  3
*D8
  1
*D9
  0
LINE
  5
244
330
241
100
AcDbEntity
  8
치수문자_일반주서
 62
     0
370
    -2
100
AcDbLine
 10
162.7900000000001
 20
28.8104070969244
 30
0.0
 11
162.7900000000001
 21
51.28789363751515
 31
0.0
  0
LINE
  5
245
330
241
100
AcDbEntity
  8
치수문자_일반주서
 62
     0
370
    -2
100
AcDbLine
 10
73.89000000000004
 20
28.52759204400073
 30
0.0
 11
73.89000000000004
 21
51.28789363751515
 31
0.0
  0
LINE
  5
246
330
241
100
AcDbEntity
  8
치수문자_일반주서
 62
     0
370
    -2
100
AcDbLine
 10
159.4880000000001
 20
51.28789363751515
 30
0.0
 11
77.19200000000004
 21
51.28789363751515
 31
0.0
  0
SOLID
  5
247
330
241
100
AcDbEntity
  8
치수문자_일반주서
 62
     0
100
AcDbTrace
 10
159.4880000000001
 20
50.73756030418182
 30
0.0
 11
159.4880000000001
 21
51.83822697084849
 31
0.0
 12
162.7900000000001
 22
51.28789363751515
 32
0.0
 13
162.7900000000001
 23
51.28789363751515
 33
0.0
  0
SOLID
  5
248
330
241
100
AcDbEntity
  8
치수문자_일반주서
 62
     0
100
AcDbTrace
 10
77.19200000000004
 20
51.83822697084849
 30
0.0
 11
77.19200000000004
 21
50.73756030418182
 31
0.0
 12
73.89000000000004
 22
51.28789363751515
 32
0.0
 13
73.89000000000004
 23
51.28789363751515
 33
0.0
  0
MTEXT
  5
249
330
241
100
AcDbEntity
  8
치수문자_일반주서
 62
     0
100
AcDbMText
 10
118.3400000000001
 20
55.66289363751515
 30
0.0
 40
3.5
 41
0.0
 71
     2
 72
     1
  1
\A1;88.90 [3 1/2]
  7
SLDTEXTSTYLE0
 73
     1
 44
1.0
  0
POINT
  5
24A
330
241
100
AcDbEntity
  8
Defpoints
 62
     0
100
AcDbPoint
 10
162.7900000000001
 20
28.7479070969244
 30
0.0
  0
POINT
  5
24B
330
241
100
AcDbEntity
  8
Defpoints
 62
     0
100
AcDbPoint
 10
73.89000000000004
 20
28.46509204400073
 30
0.0
  0
POINT
  5
24C
330
241
100
AcDbEntity
  8
Defpoints
 62
     0
100
AcDbPoint
 10
73.89000000000004
 20
51.28789363751515
 30
0.0
  0
ENDBLK
  5
243
330
241
100
AcDbEntity
  8
0
100
AcDbBlockEnd
  0
BLOCK
  5
24E
330
24D
100
AcDbEntity
  8
0
100
AcDbBlockBegin
  2
*D9
 70
     1
 10
0.0
 20
0.0
 30
0.0
  3
*D9
  1
*D10
  0
LINE
  5
250
330
24D
100
AcDbEntity
  8
치수문자_일반주서
 62
     0
370
    -2
100
AcDbLine
 10
162.7900000000001
 20
28.8104070969244
 30
0.0
 11
162.7900000000001
 21
63.28789363751517
 31
0.0
  0
LINE
  5
251
330
24D
100
AcDbEntity
  8
치수문자_일반주서
 62
     0
370
    -2
100
AcDbLine
 10
16.74000000000006
 20
26.66899999999995
 30
0.0
 11
16.74000000000007
 21
63.28789363751517
 31
0.0
  0
LINE
  5
252
330
24D
100
AcDbEntity
  8
치수문자_일반주서
 62
     0
370
    -2
100
AcDbLine
 10
159.4880000000001
 20
63.28789363751517
 30
0.0
 11
20.04200000000007
 21
63.28789363751517
 31
0.0
  0
SOLID
  5
253
330
24D
100
AcDbEntity
  8
치수문자_일반주서
 62
     0
100
AcDbTrace
 10
159.4880000000001
 20
62.73756030418183
 30
0.0
 11
159.4880000000001
 21
63.8382269708485
 31
0.0
 12
162.7900000000001
 22
63.28789363751517
 32
0.0
 13
162.7900000000001
 23
63.28789363751517
 33
0.0
  0
SOLID
  5
254
330
24D
100
AcDbEntity
  8
치수문자_일반주서
 62
     0
100
AcDbTrace
 10
20.04200000000007
 20
63.8382269708485
 30
0.0
 11
20.04200000000007
 21
62.73756030418183
 31
0.0
 12
16.74000000000007
 22
63.28789363751517
 32
0.0
 13
16.74000000000007
 23
63.28789363751517
 33
0.0
  0
MTEXT
  5
255
330
24D
100
AcDbEntity
  8
치수문자_일반주서
 62
     0
100
AcDbMText
 10
89.76500000000007
 20
67.66289363751517
 30
0.0
 40
3.5
 41
0.0
 71
     2
 72
     1
  1
\A1;146.05 [5 3/4]
  7
SLDTEXTSTYLE0
 73
     1
 44
1.0
  0
POINT
  5
256
330
24D
100
AcDbEntity
  8
Defpoints
 62
     0
100
AcDbPoint
 10
162.7900000000001
 20
28.7479070969244
 30
0.0
  0
POINT
  5
257
330
24D
100
AcDbEntity
  8
Defpoints
 62
     0
100
AcDbPoint
 10
16.74000000000006
 20
26.60649999999995
 30
0.0
  0
POINT
  5
258
330
24D
100
AcDbEntity
  8
Defpoints
 62
     0
100
AcDbPoint
 10
16.74000000000006
 20
63.28789363751517
 30
0.0
  0
ENDBLK
  5
24F
330
24D
100
AcDbEntity
  8
0
100
AcDbBlockEnd
  0
BLOCK
  5
25A
330
259
100
AcDbEntity
  8
0
100
AcDbBlockBegin
  2
*D10
 70
     1
 10
0.0
 20
0.0
 30
0.0
  3
*D10
  1
*D11
  0
LINE
  5
25C
330
259
100
AcDbEntity
  8
치수문자_일반주서
 62
     0
370
    -2
100
AcDbLine
 10
162.8525000000001
 20
28.82899999999995
 30
0.0
 11
182.96930466337
 21
28.82900000000002
 31
0.0
  0
LINE
  5
25D
330
259
100
AcDbEntity
  8
치수문자_일반주서
 62
     0
370
    -2
100
AcDbLine
 10
162.8525000000001
 20
6.603999999999932
 30
0.0
 11
182.9693046633701
 21
6.603999999999999
 31
0.0
  0
LINE
  5
25E
330
259
100
AcDbEntity
  8
치수문자_일반주서
 62
     0
370
    -2
100
AcDbLine
 10
182.96930466337
 20
28.82900000000002
 30
0.0
 11
182.9693046633699
 21
64.30800000000002
 31
0.0
  0
LINE
  5
25F
330
259
100
AcDbEntity
  8
치수문자_일반주서
 62
     0
370
    -2
100
AcDbLine
 10
182.96930466337
 20
28.82900000000002
 30
0.0
 11
182.9693046633701
 21
6.603999999999999
 31
0.0
  0
LINE
  5
260
330
259
100
AcDbEntity
  8
치수문자_일반주서
 62
     0
370
    -2
100
AcDbLine
 10
182.96930466337
 20
32.13100000000002
 30
0.0
 11
182.96930466337
 21
35.43300000000002
 31
0.0
  0
LINE
  5
261
330
259
100
AcDbEntity
  8
치수문자_일반주서
 62
     0
370
    -2
100
AcDbLine
 10
182.9693046633701
 20
3.302
 30
0.0
 11
182.9693046633701
 21
0.0
 31
0.0
  0
SOLID
  5
262
330
259
100
AcDbEntity
  8
치수문자_일반주서
 62
     0
100
AcDbTrace
 10
182.4189713300367
 20
32.13100000000002
 30
0.0
 11
183.5196379967034
 21
32.13100000000002
 31
0.0
 12
182.96930466337
 22
28.82900000000002
 32
0.0
 13
182.96930466337
 23
28.82900000000002
 33
0.0
  0
SOLID
  5
263
330
259
100
AcDbEntity
  8
치수문자_일반주서
 62
     0
100
AcDbTrace
 10
183.5196379967034
 20
3.302000000000002
 30
0.0
 11
182.4189713300368
 21
3.301999999999997
 31
0.0
 12
182.9693046633701
 22
6.603999999999999
 32
0.0
 13
182.9693046633701
 23
6.603999999999999
 33
0.0
  0
MTEXT
  5
264
330
259
100
AcDbEntity
  8
치수문자_일반주서
 62
     0
100
AcDbMText
 10
178.5943046633699
 20
49.87050000000001
 30
0.0
 40
3.5
 41
0.0
 71
     2
 72
     1
  1
\A1;%%c22.23 [7/8]
  7
SLDTEXTSTYLE0
 11
-3.836451216702450E-15
 21
1.0
 31
0.0
 73
     1
 44
1.0
  0
POINT
  5
265
330
259
100
AcDbEntity
  8
Defpoints
 62
     0
100
AcDbPoint
 10
162.7900000000001
 20
28.82899999999995
 30
0.0
  0
POINT
  5
266
330
259
100
AcDbEntity
  8
Defpoints
 62
     0
100
AcDbPoint
 10
162.7900000000001
 20
6.603999999999932
 30
0.0
  0
POINT
  5
267
330
259
100
AcDbEntity
  8
Defpoints
 62
     0
100
AcDbPoint
 10
182.9693046633701
 20
6.604000000000007
 30
0.0
  0
ENDBLK
  5
25B
330
259
100
AcDbEntity
  8
0
100
AcDbBlockEnd
  0
BLOCK
  5
2C7
330
2C6
100
AcDbEntity
  8
0
100
AcDbBlockBegin
  2
*D11
 70
     1
 10
0.0
 20
0.0
 30
0.0
  3
*D11
  1
*D12
  0
LINE
  5
2C9
330
2C6
100
AcDbEntity
  8
치수문자_일반주서
 62
     0
370
    -2
100
AcDbLine
 10
108.4762345744123
 20
-72.16278556942825
 30
0.0
 11
93.95123457441223
 21
-72.16278556942831
 31
0.0
  0
LINE
  5
2CA
330
2C6
100
AcDbEntity
  8
치수문자_일반주서
 62
     0
370
    -2
100
AcDbLine
 10
108.4762345744123
 20
-94.38778556942825
 30
0.0
 11
93.9512345744123
 21
-94.3877855694283
 31
0.0
  0
LINE
  5
2CB
330
2C6
100
AcDbEntity
  8
치수문자_일반주서
 62
     0
370
    -2
100
AcDbLine
 10
93.95123457441224
 20
-75.4647855694283
 30
0.0
 11
93.95123457441228
 21
-91.08578556942831
 31
0.0
  0
SOLID
  5
2CC
330
2C6
100
AcDbEntity
  8
치수문자_일반주서
 62
     0
100
AcDbTrace
 10
94.50156790774557
 20
-75.4647855694283
 30
0.0
 11
93.40090124107891
 21
-75.4647855694283
 31
0.0
 12
93.95123457441223
 22
-72.16278556942831
 32
0.0
 13
93.95123457441223
 23
-72.16278556942831
 33
0.0
  0
SOLID
  5
2CD
330
2C6
100
AcDbEntity
  8
치수문자_일반주서
 62
     0
100
AcDbTrace
 10
93.40090124107896
 20
-91.08578556942831
 30
0.0
 11
94.50156790774561
 21
-91.08578556942831
 31
0.0
 12
93.9512345744123
 22
-94.3877855694283
 32
0.0
 13
93.9512345744123
 23
-94.3877855694283
 33
0.0
  0
MTEXT
  5
2CE
330
2C6
100
AcDbEntity
  8
치수문자_일반주서
 62
     0
100
AcDbMText
 10
89.57623457441225
 20
-83.27528556942826
 30
0.0
 40
3.5
 41
0.0
 71
     2
 72
     1
  1
\A1;%%c22.23 [7/8]
  7
SLDTEXTSTYLE0
 11
-3.197042680585378E-15
 21
1.0
 31
0.0
 73
     1
 44
1.0
  0
POINT
  5
2CF
330
2C6
100
AcDbEntity
  8
Defpoints
 62
     0
100
AcDbPoint
 10
108.5387345744123
 20
-72.16278556942825
 30
0.0
  0
POINT
  5
2D0
330
2C6
100
AcDbEntity
  8
Defpoints
 62
     0
100
AcDbPoint
 10
108.5387345744123
 20
-94.38778556942825
 30
0.0
  0
POINT
  5
2D1
330
2C6
100
AcDbEntity
  8
Defpoints
 62
     0
100
AcDbPoint
 10
93.9512345744123
 20
-94.3877855694283
 30
0.0
  0
ENDBLK
  5
2C8
330
2C6
100
AcDbEntity
  8
0
100
AcDbBlockEnd
  0
BLOCK
  5
2D3
330
2D2
100
AcDbEntity
  8
0
100
AcDbBlockBegin
  2
*D12
 70
     1
 10
0.0
 20
0.0
 30
0.0
  3
*D12
  1
*D13
  0
LINE
  5
2D5
330
2D2
100
AcDbEntity
  8
치수문자_일반주서
 62
     0
370
    -2
100
AcDbLine
 10
252.3662345744123
 20
-72.18137847250378
 30
0.0
 11
252.3662345744123
 21
-49.70389193191303
 31
0.0
  0
LINE
  5
2D6
330
2D2
100
AcDbEntity
  8
치수문자_일반주서
 62
     0
370
    -2
100
AcDbLine
 10
163.4662345744123
 20
-72.46419352542745
 30
0.0
 11
163.4662345744123
 21
-49.70389193191303
 31
0.0
  0
LINE
  5
2D7
330
2D2
100
AcDbEntity
  8
치수문자_일반주서
 62
     0
370
    -2
100
AcDbLine
 10
249.0642345744123
 20
-49.70389193191303
 30
0.0
 11
166.7682345744122
 21
-49.70389193191303
 31
0.0
  0
SOLID
  5
2D8
330
2D2
100
AcDbEntity
  8
치수문자_일반주서
 62
     0
100
AcDbTrace
 10
249.0642345744123
 20
-50.25422526524637
 30
0.0
 11
249.0642345744123
 21
-49.1535585985797
 31
0.0
 12
252.3662345744123
 22
-49.70389193191303
 32
0.0
 13
252.3662345744123
 23
-49.70389193191303
 33
0.0
  0
SOLID
  5
2D9
330
2D2
100
AcDbEntity
  8
치수문자_일반주서
 62
     0
100
AcDbTrace
 10
166.7682345744122
 20
-49.1535585985797
 30
0.0
 11
166.7682345744122
 21
-50.25422526524637
 31
0.0
 12
163.4662345744123
 22
-49.70389193191303
 32
0.0
 13
163.4662345744123
 23
-49.70389193191303
 33
0.0
  0
MTEXT
  5
2DA
330
2D2
100
AcDbEntity
  8
치수문자_일반주서
 62
     0
100
AcDbMText
 10
207.9162345744123
 20
-45.32889193191303
 30
0.0
 40
3.5
 41
0.0
 71
     2
 72
     1
  1
\A1;88.90 [3 1/2]
  7
SLDTEXTSTYLE0
 73
     1
 44
1.0
  0
POINT
  5
2DB
330
2D2
100
AcDbEntity
  8
Defpoints
 62
     0
100
AcDbPoint
 10
252.3662345744123
 20
-72.24387847250378
 30
0.0
  0
POINT
  5
2DC
330
2D2
100
AcDbEntity
  8
Defpoints
 62
     0
100
AcDbPoint
 10
163.4662345744123
 20
-72.52669352542745
 30
0.0
  0
POINT
  5
2DD
330
2D2
100
AcDbEntity
  8
Defpoints
 62
     0
100
AcDbPoint
 10
163.4662345744123
 20
-49.70389193191303
 30
0.0
  0
ENDBLK
  5
2D4
330
2D2
100
AcDbEntity
  8
0
100
AcDbBlockEnd
  0
BLOCK
  5
2DF
330
2DE
100
AcDbEntity
  8
0
100
AcDbBlockBegin
  2
*D13
 70
     1
 10
0.0
 20
0.0
 30
0.0
  3
*D13
  1
*D14
  0
LINE
  5
2E1
330
2DE
100
AcDbEntity
  8
치수문자_일반주서
 62
     0
370
    -2
100
AcDbLine
 10
252.3662345744123
 20
-72.18137847250378
 30
0.0
 11
252.3662345744123
 21
-37.70389193191302
 31
0.0
  0
LINE
  5
2E2
330
2DE
100
AcDbEntity
  8
치수문자_일반주서
 62
     0
370
    -2
100
AcDbLine
 10
106.3162345744123
 20
-74.32278556942823
 30
0.0
 11
106.3162345744123
 21
-37.70389193191302
 31
0.0
  0
LINE
  5
2E3
330
2DE
100
AcDbEntity
  8
치수문자_일반주서
 62
     0
370
    -2
100
AcDbLine
 10
249.0642345744123
 20
-37.70389193191302
 30
0.0
 11
109.6182345744123
 21
-37.70389193191302
 31
0.0
  0
SOLID
  5
2E4
330
2DE
100
AcDbEntity
  8
치수문자_일반주서
 62
     0
100
AcDbTrace
 10
249.0642345744123
 20
-38.25422526524635
 30
0.0
 11
249.0642345744123
 21
-37.15355859857969
 31
0.0
 12
252.3662345744123
 22
-37.70389193191302
 32
0.0
 13
252.3662345744123
 23
-37.70389193191302
 33
0.0
  0
SOLID
  5
2E5
330
2DE
100
AcDbEntity
  8
치수문자_일반주서
 62
     0
100
AcDbTrace
 10
109.6182345744123
 20
-37.15355859857969
 30
0.0
 11
109.6182345744123
 21
-38.25422526524635
 31
0.0
 12
106.3162345744123
 22
-37.70389193191302
 32
0.0
 13
106.3162345744123
 23
-37.70389193191302
 33
0.0
  0
MTEXT
  5
2E6
330
2DE
100
AcDbEntity
  8
치수문자_일반주서
 62
     0
100
AcDbMText
 10
179.3412345744123
 20
-33.32889193191302
 30
0.0
 40
3.5
 41
0.0
 71
     2
 72
     1
  1
\A1;146.05 [5 3/4]
  7
SLDTEXTSTYLE0
 73
     1
 44
1.0
  0
POINT
  5
2E7
330
2DE
100
AcDbEntity
  8
Defpoints
 62
     0
100
AcDbPoint
 10
252.3662345744123
 20
-72.24387847250378
 30
0.0
  0
POINT
  5
2E8
330
2DE
100
AcDbEntity
  8
Defpoints
 62
     0
100
AcDbPoint
 10
106.3162345744123
 20
-74.38528556942823
 30
0.0
  0
POINT
  5
2E9
330
2DE
100
AcDbEntity
  8
Defpoints
 62
     0
100
AcDbPoint
 10
106.3162345744123
 20
-37.70389193191302
 30
0.0
  0
ENDBLK
  5
2E0
330
2DE
100
AcDbEntity
  8
0
100
AcDbBlockEnd
  0
BLOCK
  5
2EB
330
2EA
100
AcDbEntity
  8
0
100
AcDbBlockBegin
  2
*D14
 70
     1
 10
0.0
 20
0.0
 30
0.0
  3
*D14
  1
*D15
  0
LINE
  5
2ED
330
2EA
100
AcDbEntity
  8
치수문자_일반주서
 62
     0
370
    -2
100
AcDbLine
 10
252.4287345744123
 20
-72.16278556942824
 30
0.0
 11
272.5455392377822
 21
-72.16278556942817
 31
0.0
  0
LINE
  5
2EE
330
2EA
100
AcDbEntity
  8
치수문자_일반주서
 62
     0
370
    -2
100
AcDbLine
 10
252.4287345744123
 20
-94.38778556942826
 30
0.0
 11
272.5455392377822
 21
-94.38778556942819
 31
0.0
  0
LINE
  5
2EF
330
2EA
100
AcDbEntity
  8
치수문자_일반주서
 62
     0
370
    -2
100
AcDbLine
 10
272.5455392377822
 20
-72.16278556942817
 30
0.0
 11
272.5455392377821
 21
-36.68378556942817
 31
0.0
  0
LINE
  5
2F0
330
2EA
100
AcDbEntity
  8
치수문자_일반주서
 62
     0
370
    -2
100
AcDbLine
 10
272.5455392377822
 20
-72.16278556942817
 30
0.0
 11
272.5455392377822
 21
-94.38778556942819
 31
0.0
  0
LINE
  5
2F1
330
2EA
100
AcDbEntity
  8
치수문자_일반주서
 62
     0
370
    -2
100
AcDbLine
 10
272.5455392377822
 20
-68.86078556942817
 30
0.0
 11
272.5455392377822
 21
-65.55878556942818
 31
0.0
  0
LINE
  5
2F2
330
2EA
100
AcDbEntity
  8
치수문자_일반주서
 62
     0
370
    -2
100
AcDbLine
 10
272.5455392377822
 20
-97.68978556942818
 30
0.0
 11
272.5455392377822
 21
-100.9917855694282
 31
0.0
  0
SOLID
  5
2F3
330
2EA
100
AcDbEntity
  8
치수문자_일반주서
 62
     0
100
AcDbTrace
 10
271.9952059044488
 20
-68.86078556942817
 30
0.0
 11
273.0958725711155
 21
-68.86078556942817
 31
0.0
 12
272.5455392377822
 22
-72.16278556942817
 32
0.0
 13
272.5455392377822
 23
-72.16278556942817
 33
0.0
  0
SOLID
  5
2F4
330
2EA
100
AcDbEntity
  8
치수문자_일반주서
 62
     0
100
AcDbTrace
 10
273.0958725711156
 20
-97.68978556942818
 30
0.0
 11
271.9952059044489
 21
-97.68978556942818
 31
0.0
 12
272.5455392377822
 22
-94.38778556942819
 32
0.0
 13
272.5455392377822
 23
-94.38778556942819
 33
0.0
  0
MTEXT
  5
2F5
330
2EA
100
AcDbEntity
  8
치수문자_일반주서
 62
     0
100
AcDbMText
 10
268.1705392377821
 20
-51.12128556942818
 30
0.0
 40
3.5
 41
0.0
 71
     2
 72
     1
  1
\A1;%%c22.23 [7/8]
  7
SLDTEXTSTYLE0
 11
-2.557634144468300E-15
 21
1.0
 31
0.0
 73
     1
 44
1.0
  0
POINT
  5
2F6
330
2EA
100
AcDbEntity
  8
Defpoints
 62
     0
100
AcDbPoint
 10
252.3662345744123
 20
-72.16278556942824
 30
0.0
  0
POINT
  5
2F7
330
2EA
100
AcDbEntity
  8
Defpoints
 62
     0
100
AcDbPoint
 10
252.3662345744123
 20
-94.38778556942826
 30
0.0
  0
POINT
  5
2F8
330
2EA
100
AcDbEntity
  8
Defpoints
 62
     0
100
AcDbPoint
 10
272.5455392377824
 20
-94.38778556942819
 30
0.0
  0
ENDBLK
  5
2EC
330
2EA
100
AcDbEntity
  8
0
100
AcDbBlockEnd
  0
ENDSEC
  0
SECTION
  2
ENTITIES
  0
LINE
  5
96
330
1F
100
AcDbEntity
  8
0
  6
Continuous
 62
     1
370
    15
100
AcDbLine
 10
53.97830979879376
 20
-2.450095437865358
 30
0.0
 11
54.07005554791464
 21
-2.538927436146955
 31
0.0
  0
LINE
  5
97
330
1F
100
AcDbEntity
  8
0
  6
Continuous
 62
     1
370
    15
100
AcDbLine
 10
27.35912917680628
 20
-2.429793600051005
 30
0.0
 11
27.47268273208448
 21
-2.539188982836379
 31
0.0
  0
LINE
  5
98
330
1F
100
AcDbEntity
  8
0
  6
Continuous
 62
     1
370
    15
100
AcDbLine
 10
32.67451474001048
 20
2.456224544797391
 30
0.0
 11
32.58701427465883
 21
2.541100175896698
 31
0.0
  0
LINE
  5
99
330
1F
100
AcDbEntity
  8
0
  6
Continuous
 62
     1
370
    15
100
AcDbLine
 10
107.1711781604114
 20
-2.444488102438934
 30
0.0
 11
107.2689317092932
 21
-2.538988934290512
 31
0.0
  0
LINE
  5
9A
330
1F
100
AcDbEntity
  8
0
  6
Continuous
 62
     1
370
    15
100
AcDbLine
 10
40.67649587316294
 20
-2.447027240520046
 30
0.0
 11
40.77149612543202
 21
-2.538930975375895
 31
0.0
  0
LINE
  5
9B
330
1F
100
AcDbEntity
  8
0
  6
Continuous
 62
     1
370
    15
100
AcDbLine
 10
46.04722730430364
 20
2.384507293793201
 30
0.0
 11
45.88575039849204
 21
2.540930192167911
 31
0.0
  0
LINE
  5
9C
330
1F
100
AcDbEntity
  8
0
  6
Continuous
 62
     1
370
    15
100
AcDbLine
 10
121.5888371250726
 20
-12.69892507127611
 30
0.0
 11
123.1250000000001
 21
-12.69892507127611
 31
0.0
  0
LINE
  5
9D
330
1F
100
AcDbEntity
  8
0
  6
Continuous
 62
     1
370
    15
100
AcDbLine
 10
41.79328811561151
 20
-12.69892507127611
 30
0.0
 11
44.86278718872245
 21
-12.69892507127611
 31
0.0
  0
LINE
  5
9E
330
1F
100
AcDbEntity
  8
0
  6
Continuous
 62
     1
370
    15
100
AcDbLine
 10
84.76201040392844
 20
12.7010749287239
 30
0.0
 11
81.69253820614355
 21
12.7010749287239
 31
0.0
  0
LINE
  5
9F
330
1F
100
AcDbEntity
  8
0
  6
Continuous
 62
     1
370
    15
100
AcDbLine
 10
81.69253820614352
 20
-12.69892507127611
 30
0.0
 11
84.76201040392836
 21
-12.69892507127611
 31
0.0
  0
LINE
  5
A0
330
1F
100
AcDbEntity
  8
0
  6
Continuous
 62
     1
370
    15
100
AcDbLine
 10
44.86278718872236
 20
12.7010749287239
 30
0.0
 11
41.7932881156115
 21
12.7010749287239
 31
0.0
  0
LINE
  5
A1
330
1F
100
AcDbEntity
  8
0
  6
Continuous
 62
     1
370
    15
100
AcDbLine
 10
123.1250000000001
 20
12.7010749287239
 30
0.0
 11
121.5888371250726
 21
12.7010749287239
 31
0.0
  0
LINE
  5
A2
330
1F
100
AcDbEntity
  8
0
  6
Continuous
 62
     1
370
    15
100
AcDbLine
 10
55.09244939511914
 20
-12.69892507127611
 30
0.0
 11
58.16288991784429
 21
-12.69892507127611
 31
0.0
  0
LINE
  5
A3
330
1F
100
AcDbEntity
  8
0
  6
Continuous
 62
     1
370
    15
100
AcDbLine
 10
98.0615269746982
 20
12.7010749287239
 30
0.0
 11
94.99202202253268
 21
12.7010749287239
 31
0.0
  0
LINE
  5
A4
330
1F
100
AcDbEntity
  8
0
  6
Continuous
 62
     1
370
    15
100
AcDbLine
 10
68.39242868422171
 20
-12.69892507127611
 30
0.0
 11
71.46285730435339
 21
-12.69892507127611
 31
0.0
  0
LINE
  5
A5
330
1F
100
AcDbEntity
  8
0
  6
Continuous
 62
     1
370
    15
100
AcDbLine
 10
31.56345163881202
 20
12.7010749287239
 30
0.0
 11
28.49364214532312
 21
12.7010749287239
 31
0.0
  0
LINE
  5
A6
330
1F
100
AcDbEntity
  8
0
  6
Continuous
 62
     1
370
    15
100
AcDbLine
 10
111.3614961085646
 20
12.7010749287239
 30
0.0
 11
108.2901718406458
 21
12.7010749287239
 31
0.0
  0
LINE
  5
A7
330
1F
100
AcDbEntity
  8
0
  6
Continuous
 62
     1
370
    15
100
AcDbLine
 10
94.99202202253257
 20
-12.69892507127611
 30
0.0
 11
98.06152697469814
 21
-12.69892507127611
 31
0.0
  0
LINE
  5
A8
330
1F
100
AcDbEntity
  8
0
  6
Continuous
 62
     1
370
    15
100
AcDbLine
 10
58.16288991784419
 20
12.7010749287239
 30
0.0
 11
55.09244939511905
 21
12.7010749287239
 31
0.0
  0
LINE
  5
A9
330
1F
100
AcDbEntity
  8
0
  6
Continuous
 62
     1
370
    15
100
AcDbLine
 10
108.2901718406457
 20
-12.69892507127611
 30
0.0
 11
111.3614961085645
 21
-12.69892507127611
 31
0.0
  0
LINE
  5
AA
330
1F
100
AcDbEntity
  8
0
  6
Continuous
 62
     1
370
    15
100
AcDbLine
 10
28.49364214532307
 20
-12.69892507127611
 30
0.0
 11
31.56345163881204
 21
-12.69892507127611
 31
0.0
  0
LINE
  5
AB
330
1F
100
AcDbEntity
  8
0
  6
Continuous
 62
     1
370
    15
100
AcDbLine
 10
71.46285730435339
 20
12.7010749287239
 30
0.0
 11
68.39242868422163
 21
12.7010749287239
 31
0.0
  0
LINE
  5
AC
330
1F
100
AcDbEntity
  8
외형선
  6
Continuous
370
    15
100
AcDbLine
 10
-39.43499999999996
 20
-12.69892507127611
 30
0.0
 11
20.52530478812544
 21
-12.69892507127611
 31
0.0
  0
LINE
  5
AD
330
1F
100
AcDbEntity
  8
외형선
  6
Continuous
370
    15
100
AcDbLine
 10
20.52530478812544
 20
12.7010749287239
 30
0.0
 11
-4.544924999999946
 21
12.7010749287239
 31
0.0
  0
LINE
  5
AE
330
1F
100
AcDbEntity
  8
외형선
  6
Continuous
370
    15
100
AcDbLine
 10
-41.33999999999997
 20
10.7960749287239
 30
0.0
 11
-41.97499999999997
 21
10.1610749287239
 31
0.0
  0
LINE
  5
AF
330
1F
100
AcDbEntity
  8
외형선
  6
Continuous
370
    15
100
AcDbLine
 10
-41.97499999999997
 20
-10.15892507127611
 30
0.0
 11
-39.43499999999996
 21
-12.69892507127611
 31
0.0
  0
LINE
  5
B0
330
1F
100
AcDbEntity
  8
0
  6
Continuous
 62
     1
370
    15
100
AcDbLine
 10
123.1250000000001
 20
7.592167759390708
 30
0.0
 11
123.1250000000001
 21
12.60839732520899
 31
0.0
  0
SPLINE
  5
B1
330
1F
100
AcDbEntity
  8
0
  6
Continuous
 62
     1
370
    15
100
AcDbSpline
210
0.0
220
0.0
230
1.0
 70
     8
 71
     3
 72
    29
 73
    25
 74
     0
 42
0.000000001
 43
0.00000001
 40
0.0
 40
0.0
 40
0.0
 40
0.0
 40
0.0396663926941291
 40
0.0871673436590242
 40
0.1346528215541657
 40
0.1821290242348438
 40
0.2296021814518794
 40
0.2770785334423312
 40
0.3245643094430831
 40
0.3720657037167504
 40
0.4195666950704717
 40
0.4670521999193836
 40
0.5145284160261775
 40
0.5620015730954608
 40
0.6094779113648011
 40
0.6569636601183104
 40
0.7044650146368937
 40
0.7519660464085398
 40
0.7994515782405713
 40
0.8469278078029825
 40
0.8944009647540643
 40
0.9418772893317908
 40
0.9893630108674026
 40
1.0
 40
1.0
 40
1.0
 40
1.0
 10
31.56345163881203
 20
12.66041027545915
 30
0.0
 10
32.15875671446396
 20
12.65280507104749
 30
0.0
 10
33.46694630738841
 20
12.63609254889657
 30
0.0
 10
35.48775983733491
 20
12.14959992644579
 30
0.0
 10
37.625309808149
 20
11.33786669918153
 30
0.0
 10
39.76226682111974
 20
10.19340684003014
 30
0.0
 10
41.89900689508426
 20
8.764315062240817
 30
0.0
 10
44.03597472619602
 20
7.08666536501338
 30
0.0
 10
46.17354183092436
 20
5.208798824681191
 30
0.0
 10
48.31196598266261
 20
3.183780561487795
 30
0.0
 10
50.45036931105651
 20
1.068818292335815
 30
0.0
 10
52.58792018224382
 20
-1.076420170121986
 30
0.0
 10
54.72487834421337
 20
-3.190964166967951
 30
0.0
 10
56.86161835691123
 20
-5.215254150262033
 30
0.0
 10
58.99858522429325
 20
-7.092206955162887
 30
0.0
 10
61.13615070436222
 20
-8.768888513500208
 30
0.0
 10
63.27457277633061
 20
-10.19765224160592
 30
0.0
 10
65.41297829445573
 20
-11.33804622578451
 30
0.0
 10
67.55053041177464
 20
-12.15851906794144
 30
0.0
 10
69.68749091766585
 20
-12.63331121104115
 30
0.0
 10
71.82422575610664
 20
-12.7584041675059
 30
0.0
 10
73.96121093114083
 20
-12.49565514029415
 30
0.0
 10
75.5455978090643
 20
-12.11461482309257
 30
0.0
 10
76.41786544023604
 20
-11.72541533617381
 30
0.0
 10
76.57749841686123
 20
-11.65418826047185
 30
0.0
  0
SPLINE
  5
B2
330
1F
100
AcDbEntity
  8
0
  6
Continuous
 62
     1
370
    15
100
AcDbSpline
210
0.0
220
0.0
230
1.0
 70
     8
 71
     3
 72
    13
 73
     9
 74
     0
 42
0.000000001
 43
0.00000001
 40
0.0
 40
0.0
 40
0.0
 40
0.0
 40
0.0915496844792318
 40
0.2732158751831089
 40
0.4548701528354468
 40
0.6365363954782681
 40
0.8182384399557111
 40
1.0
 40
1.0
 40
1.0
 40
1.0
 10
111.3614961085646
 20
12.65613392831938
 30
0.0
 10
111.720494315048
 20
12.66466169353058
 30
0.0
 10
112.7918689432783
 20
12.69011148998579
 30
0.0
 10
114.5753136161491
 20
12.34282451346211
 30
0.0
 10
116.712067109424
 20
11.64878318393672
 30
0.0
 10
118.8490264772658
 20
10.60278174205284
 30
0.0
 10
120.986586399275
 20
9.277477953780473
 30
0.0
 10
122.4121176582669
 20
8.179908670556989
 30
0.0
 10
123.1250000000001
 20
7.631034167873557
 30
0.0
  0
SPLINE
  5
B3
330
1F
100
AcDbEntity
  8
0
  6
Continuous
 62
     1
370
    15
100
AcDbSpline
210
0.0
220
0.0
230
1.0
 70
     8
 71
     3
 72
    11
 73
     7
 74
     0
 42
0.000000001
 43
0.00000001
 40
0.0
 40
0.0
 40
0.0
 40
0.0
 40
0.3215078194055188
 40
0.642910365066066
 40
0.9642495828712807
 40
1.0
 40
1.0
 40
1.0
 40
1.0
 10
123.1250000000001
 20
12.60839732520899
 30
0.0
 10
122.4121174727219
 20
12.66160460403909
 30
0.0
 10
120.9865858427009
 20
12.76800173963625
 30
0.0
 10
118.8490287025284
 20
12.44035412787978
 30
0.0
 10
117.345058340966
 20
12.06743496848063
 30
0.0
 10
116.553544254754
 20
11.70502530115143
 30
0.0
 10
116.4743009612583
 20
11.66874226319404
 30
0.0
  0
SPLINE
  5
B4
330
1F
100
AcDbEntity
  8
0
  6
Continuous
 62
     1
370
    15
100
AcDbSpline
210
0.0
220
0.0
230
1.0
 70
     8
 71
     3
 72
    29
 73
    25
 74
     0
 42
0.000000001
 43
0.00000001
 40
0.0
 40
0.0
 40
0.0
 40
0.0
 40
0.0292535587344564
 40
0.0767553413019052
 40
0.1242573662414158
 40
0.1717437978962489
 40
0.2192208324526718
 40
0.2666946993350793
 40
0.314171638874766
 40
0.3616578808231817
 40
0.4091596229430046
 40
0.456661687814591
 40
0.5041481466877294
 40
0.5516251949359695
 40
0.5990990619365811
 40
0.6465759880204494
 40
0.6940622029853424
 40
0.7415639046866362
 40
0.7890660093139009
 40
0.8365524954346897
 40
0.8840295574042472
 40
0.9315034245526133
 40
0.9789803372101644
 40
1.0
 40
1.0
 40
1.0
 40
1.0
 10
81.69253820614355
 20
-12.65640631511379
 30
0.0
 10
81.25361950549451
 20
-12.65993144586441
 30
0.0
 10
80.10198681089095
 20
-12.66918066632178
 30
0.0
 10
78.23717144339429
 20
-12.28034327662707
 30
0.0
 10
76.0987617573784
 20
-11.54453443488582
 30
0.0
 10
73.96119513940452
 20
-10.46703319771155
 30
0.0
 10
71.82422998681012
 20
-9.097932263513561
 30
0.0
 10
69.68748978401074
 20
-7.470667614618877
 30
0.0
 10
67.55053071560829
 20
-5.632522910230473
 30
0.0
 10
65.4129782130059
 20
-3.634867736775984
 30
0.0
 10
63.27457279816387
 20
-1.534558253939991
 30
0.0
 10
61.13615069849396
 20
0.6091468109763742
 30
0.0
 10
58.99858522594023
 20
2.735775335575488
 30
0.0
 10
56.86161835618989
 20
4.784875022752409
 30
0.0
 10
54.72487834545236
 20
6.698745284942232
 30
0.0
 10
52.58792017800878
 20
8.423405195087737
 30
0.0
 10
50.45036932676302
 20
9.910247417485515
 30
0.0
 10
48.31196592405205
 20
11.11685875884168
 30
0.0
 10
46.17354204962352
 20
12.00967776218155
 30
0.0
 10
44.03597391036956
 20
12.56175673983576
 30
0.0
 10
41.89900993906339
 20
12.76390781718969
 30
0.0
 10
39.76225546129416
 20
12.58639196686067
 30
0.0
 10
38.02241488754687
 20
12.21014592431685
 30
0.0
 10
36.99464927637479
 20
11.77714698261357
 30
0.0
 10
36.67925706249078
 20
11.64427184712669
 30
0.0
  0
SPLINE
  5
B5
330
1F
100
AcDbEntity
  8
0
  6
Continuous
 62
     1
370
    15
100
AcDbSpline
210
0.0
220
0.0
230
1.0
 70
     8
 71
     3
 72
    14
 73
    10
 74
     0
 42
0.000000001
 43
0.00000001
 40
0.0
 40
0.0
 40
0.0
 40
0.0
 40
0.1560394927466157
 40
0.3120839978966663
 40
0.4681343889453334
 40
0.6241915366857661
 40
0.78025629782701
 40
0.9213735998094678
 40
1.0
 40
1.0
 40
1.0
 40
1.0
 10
21.52500000000002
 20
-8.933777255742628
 30
0.0
 10
22.31319915440296
 20
-9.4640176906065
 30
0.0
 10
23.88962278226155
 20
-10.52451559306698
 30
0.0
 10
26.2543467331876
 20
-11.66897551624401
 30
0.0
 10
28.61920335053589
 20
-12.43090289612524
 30
0.0
 10
30.98420981444861
 20
-12.76201535374347
 30
0.0
 10
33.27385179917889
 20
-12.63924823890573
 30
0.0
 10
35.17233797394935
 20
-12.25540699168493
 30
0.0
 10
36.28215419470393
 20
-11.8037346700936
 30
0.0
 10
36.67925706249078
 20
-11.6421219896789
 30
0.0
  0
SPLINE
  5
B6
330
1F
100
AcDbEntity
  8
0
  6
Continuous
 62
     1
370
    15
100
AcDbSpline
210
0.0
220
0.0
230
1.0
 70
     8
 71
     3
 72
    29
 73
    25
 74
     0
 42
0.000000001
 43
0.00000001
 40
0.0
 40
0.0
 40
0.0
 40
0.0
 40
0.0080287643443299
 40
0.0555077217974911
 40
0.1029960767296607
 40
0.1505000255780614
 40
0.1980037320445825
 40
0.2454919242766182
 40
0.2929708001950601
 40
0.3404465897572545
 40
0.3879255335475431
 40
0.4354138612896526
 40
0.4829177700279559
 40
0.5304215169728396
 40
0.5779097362481921
 40
0.6253886256820005
 40
0.6728644151850901
 40
0.7203433453420074
 40
0.7678316459234048
 40
0.8153355143752077
 40
0.8628393018275516
 40
0.9103275481755695
 40
0.9578064511542459
 40
1.0
 40
1.0
 40
1.0
 40
1.0
 10
71.46285730435339
 20
12.67584027520295
 30
0.0
 10
71.58330343272895
 20
12.68383920559788
 30
0.0
 10
72.41602063536762
 20
12.73914066719244
 30
0.0
 10
73.96119697099401
 20
12.49424303760473
 30
0.0
 10
76.0987592369147
 20
11.92557329950807
 30
0.0
 10
78.23717969581301
 20
10.98690105526948
 30
0.0
 10
80.37558709256942
 20
9.746592207719852
 30
0.0
 10
82.51314122978542
 20
8.22840188661933
 30
0.0
 10
84.6501013050866
 20
6.478517257358237
 30
0.0
 10
86.78684130489853
 20
4.545483183525815
 30
0.0
 10
88.9238062267432
 20
2.484027923613072
 30
0.0
 10
91.06136844671659
 20
0.3521466113671759
 30
0.0
 10
93.19978640972131
 20
-1.7895467633269
 30
0.0
 10
95.33819601257673
 20
-3.880639461939916
 30
0.0
 10
97.47575173921507
 20
-5.862114175459247
 30
0.0
 10
99.61271278687595
 20
-7.677666782447127
 30
0.0
 10
101.7494527789581
 20
-9.276207424824172
 30
0.0
 10
103.8864167354355
 20
-10.61260221489593
 30
0.0
 10
106.0239773103239
 20
-11.64933479745432
 30
0.0
 10
108.1623932662942
 20
-12.35614159780046
 30
0.0
 10
110.3008046851659
 20
-12.71593139612407
 30
0.0
 10
112.4383630686513
 20
-12.70801188621036
 30
0.0
 10
114.4960759627171
 20
-12.38430668999371
 30
0.0
 10
115.8413225386199
 20
-11.89624153862192
 30
0.0
 10
116.4743009612583
 20
-11.66659240574625
 30
0.0
  0
SPLINE
  5
B7
330
1F
100
AcDbEntity
  8
외형선
  6
Continuous
370
    15
100
AcDbSpline
210
0.0
220
0.0
230
1.0
 70
    24
 71
     3
 72
    23
 73
    19
 74
     0
 42
0.000000001
 43
0.00000001
 40
0.0
 40
0.0
 40
0.0
 40
0.0
 40
0.0370933462616734
 40
0.1029009129729454
 40
0.1706169035769663
 40
0.2364244702882377
 40
0.3041404608922579
 40
0.3699480276035297
 40
0.437664018207549
 40
0.5034715849188209
 40
0.5711875755228407
 40
0.6369951422341122
 40
0.7047111328381314
 40
0.7705186995493892
 40
0.8382346901534244
 40
0.9040422568646954
 40
0.9717582474687151
 40
1.0
 40
1.0
 40
1.0
 40
1.0
 10
21.52500000000007
 20
0.3804292702650798
 30
0.0
 10
21.52500000000007
 20
0.3760420970336729
 30
0.0
 10
21.52500000000007
 20
0.3638716088901242
 30
0.0
 10
21.525
 20
0.1942877189735283
 30
0.0
 10
21.5250000000002
 20
-0.1197132784105526
 30
0.0
 10
21.52499999999994
 20
-0.5726856695393066
 30
0.0
 10
21.52500000000008
 20
-1.13610744417515
 30
0.0
 10
21.52500000000011
 20
-1.806197840317477
 30
0.0
 10
21.52500000000002
 20
-2.551387943288558
 30
0.0
 10
21.52500000000004
 20
-3.364142058774546
 30
0.0
 10
21.52500000000002
 20
-4.206790839352063
 30
0.0
 10
21.52500000000009
 20
-5.070650078793331
 30
0.0
 10
21.52500000000001
 20
-5.915753800977086
 30
0.0
 10
21.52500000000011
 20
-6.733257165301342
 30
0.0
 10
21.52499999999993
 20
-7.485811217302672
 30
0.0
 10
21.52500000000007
 20
-8.16377405252437
 30
0.0
 10
21.52500000000002
 20
-8.633659076645925
 30
0.0
 10
21.52500000000004
 20
-8.865533312410186
 30
0.0
 10
21.52500000000002
 20
-8.933777255742628
 30
0.0
  0
SPLINE
  5
B8
330
1F
100
AcDbEntity
  8
0
  6
Continuous
 62
     1
370
    15
100
AcDbSpline
210
0.0
220
0.0
230
1.0
 70
     8
 71
     3
 72
    29
 73
    25
 74
     0
 42
0.000000001
 43
0.00000001
 40
0.0
 40
0.0
 40
0.0
 40
0.0
 40
0.013381198849262
 40
0.060869617961366
 40
0.1083486801477826
 40
0.1558246152450988
 40
0.2033036638571043
 40
0.2507920558671105
 40
0.2982959890291111
 40
0.3458000031908194
 40
0.3932884494343711
 40
0.4407675252247003
 40
0.4882434603515685
 40
0.5357224954186639
 40
0.5832108603559207
 40
0.6307147530103373
 40
0.6782188074586705
 40
0.725707280863017
 40
0.7731863702867598
 40
0.8206623054727324
 40
0.8681413270244197
 40
0.915629664918277
 40
0.9631335170942079
 40
1.0
 40
1.0
 40
1.0
 40
1.0
 10
121.5888371250726
 20
-12.6625499703629
 30
0.0
 10
121.3880322954207
 20
-12.67318063778594
 30
0.0
 10
120.4745929688401
 20
-12.72153838749163
 30
0.0
 10
118.8490406792693
 20
-12.44617401786402
 30
0.0
 10
116.7120606558826
 20
-11.83407383628318
 30
0.0
 10
114.575325230262
 20
-10.86032880986702
 30
0.0
 10
112.438361993526
 20
-9.586945293884297
 30
0.0
 10
110.3008049733739
 20
-8.040472695112621
 30
0.0
 10
108.162393189057
 20
-6.267316136385634
 30
0.0
 10
106.0239773310129
 20
-4.316864885106081
 30
0.0
 10
103.8864167298908
 20
-2.244309558249984
 30
0.0
 10
101.7494527804551
 20
-0.1085285302190327
 30
0.0
 10
99.6127127864315
 20
2.030286145202709
 30
0.0
 10
97.47575173949579
 20
4.111821764421357
 30
0.0
 10
95.33819601189808
 20
6.077414150555636
 30
0.0
 10
93.19978641215593
 20
7.871173218256292
 30
0.0
 10
91.06136843765833
 20
9.442519276463386
 30
0.0
 10
88.92380626052682
 20
10.74703009925758
 30
0.0
 10
86.78684117884816
 20
11.74791288312242
 30
0.0
 10
84.65010177549381
 20
12.41609299644902
 30
0.0
 10
82.51313947392444
 20
12.73628905166352
 30
0.0
 10
80.3755936478554
 20
12.68610007344038
 30
0.0
 10
78.3967936127492
 20
12.34412656399921
 30
0.0
 10
77.13072157425802
 20
11.86548531768205
 30
0.0
 10
76.57749841686123
 20
11.65633811791964
 30
0.0
  0
SPLINE
  5
B9
330
1F
100
AcDbEntity
  8
0
  6
Continuous
 62
     1
370
    15
100
AcDbSpline
210
0.0
220
0.0
230
1.0
 70
     8
 71
     3
 72
    16
 73
    12
 74
     0
 42
0.000000001
 43
0.00000001
 40
0.0
 40
0.0
 40
0.0
 40
0.0
 40
0.100227334672884
 40
0.2056768794877875
 40
0.3111470255110436
 40
0.4166515388187549
 40
0.5333313253323753
 40
0.6500054197860148
 40
0.7666744626870357
 40
0.8833391050725985
 40
1.0
 40
1.0
 40
1.0
 40
1.0
 10
41.79328811561151
 20
-12.69048716294006
 30
0.0
 10
41.11629475060507
 20
-12.66259643499939
 30
0.0
 10
39.72703419406216
 20
-12.60536177034227
 30
0.0
 10
37.62531093920987
 20
-12.07288005555403
 30
0.0
 10
35.48775885938287
 20
-11.21916303949218
 30
0.0
 10
33.27386217286426
 20
-9.999182622725048
 30
0.0
 10
30.98420691778554
 20
-8.41898324153926
 30
0.0
 10
28.6192041263754
 20
-6.494994505871917
 30
0.0
 10
26.25434652630929
 20
-4.346832213843426
 30
0.0
 10
23.88962283397836
 20
-2.047582784811845
 30
0.0
 10
22.3131991716417
 20
-0.4695078951472288
 30
0.0
 10
21.52500000000002
 20
0.3195168768981813
 30
0.0
  0
LINE
  5
BA
330
1F
100
AcDbEntity
  8
0
  6
Continuous
 62
     1
370
    15
100
AcDbLine
 10
123.1250000000001
 20
-12.60624746776119
 30
0.0
 11
123.1250000000001
 21
-7.589949420680242
 31
0.0
  0
SPLINE
  5
BB
330
1F
100
AcDbEntity
  8
0
  6
Continuous
 62
     1
370
    15
100
AcDbSpline
210
0.0
220
0.0
230
1.0
 70
     8
 71
     3
 72
    20
 73
    16
 74
     0
 42
0.000000001
 43
0.00000001
 40
0.0
 40
0.0
 40
0.0
 40
0.0
 40
0.0831020930068026
 40
0.1662068554738112
 40
0.2493147525991403
 40
0.3324262481418804
 40
0.4155417983603388
 40
0.4906967668096297
 40
0.5658272541054802
 40
0.6409430663593325
 40
0.7160540601470421
 40
0.7911701086355616
 40
0.8663010675876059
 40
0.941456737430366
 40
0.9999999999999999
 40
0.9999999999999999
 40
0.9999999999999999
 40
0.9999999999999999
 10
21.52500000000002
 20
3.34990192421126
 30
0.0
 10
22.31319917151265
 20
2.578386336256752
 30
0.0
 10
23.88962283359119
 20
1.035330377215495
 30
0.0
 10
26.25434652785822
 20
-1.346018320641195
 30
0.0
 10
28.6192041205666
 20
-3.672546196380257
 30
0.0
 10
30.98420693947334
 20
-5.874307378664008
 30
0.0
 10
33.27386209519493
 20
-7.808731673673948
 30
0.0
 10
35.48775911848814
 20
-9.436151512665656
 30
0.0
 10
37.62530996939558
 20
-10.7415284347815
 30
0.0
 10
39.76226689470577
 20
-11.74332526127141
 30
0.0
 10
41.89900643953357
 20
-12.41250669509149
 30
0.0
 10
44.03597647510156
 20
-12.7337255357762
 30
0.0
 10
46.1735352885845
 20
-12.68463025906719
 30
0.0
 10
48.15441738760897
 20
-12.34308954814761
 30
0.0
 10
49.42254921516643
 20
-11.86416374217297
 30
0.0
 10
49.97783094564886
 20
-11.65445466892425
 30
0.0
  0
SPLINE
  5
BC
330
1F
100
AcDbEntity
  8
0
  6
Continuous
 62
     1
370
    15
100
AcDbSpline
210
0.0
220
0.0
230
1.0
 70
     8
 71
     3
 72
    25
 73
    21
 74
     0
 42
0.000000001
 43
0.00000001
 40
0.0
 40
0.0
 40
0.0
 40
0.0
 40
0.0527867334854753
 40
0.1084937989326431
 40
0.164211874574573
 40
0.2199482314061297
 40
0.2756843984053964
 40
0.3314023467832333
 40
0.3871093484539191
 40
0.4428127129745413
 40
0.4985197624256685
 40
0.5542378061999231
 40
0.6099741157633113
 40
0.6657103302899988
 40
0.7214283104322057
 40
0.777135327995091
 40
0.8328386924810404
 40
0.8885457259707399
 40
0.9442637379117536
 40
0.9999999999999999
 40
0.9999999999999999
 40
0.9999999999999999
 40
0.9999999999999999
 10
84.76201040392847
 20
12.69216975617677
 30
0.0
 10
85.43693973434598
 20
12.6646607319826
 30
0.0
 10
86.82413765763128
 20
12.60812079585305
 30
0.0
 10
88.9238053324297
 20
12.07699398350722
 30
0.0
 10
91.06136868645353
 20
11.22432099046578
 30
0.0
 10
93.19978634547998
 20
10.04664477892279
 30
0.0
 10
95.33819602976385
 20
8.587160447487825
 30
0.0
 10
97.47575173468661
 20
6.884361762892609
 30
0.0
 10
99.61271278780883
 20
4.987388290441189
 30
0.0
 10
101.7494527797546
 20
2.949533303901064
 30
0.0
 10
103.8864167313158
 20
0.8283158072826282
 30
0.0
 10
106.023977326012
 20
-1.316526658086809
 30
0.0
 10
108.1623932076421
 20
-3.424032176981785
 30
0.0
 10
110.3008049040472
 20
-5.434705115692122
 30
0.0
 10
112.4383622521352
 20
-7.291964155907541
 30
0.0
 10
114.575324265349
 20
-8.942418627266179
 30
0.0
 10
116.7120642568505
 20
-10.34195232595757
 30
0.0
 10
118.8490272381324
 20
-11.4424121463817
 30
0.0
 10
120.9865862089699
 20
-12.24514256988777
 30
0.0
 10
122.4121175948249
 20
-12.48586602933409
 30
0.0
 10
123.1250000000001
 20
-12.60624746776119
 30
0.0
  0
SPLINE
  5
BD
330
1F
100
AcDbEntity
  8
외형선
  6
Continuous
370
    15
100
AcDbSpline
210
0.0
220
0.0
230
1.0
 70
    24
 71
     3
 72
    18
 73
    14
 74
     0
 42
0.000000001
 43
0.00000001
 40
0.0
 40
0.0
 40
0.0
 40
0.0
 40
0.085933942773658
 40
0.1739112624391687
 40
0.268389097753767
 40
0.365606796692873
 40
0.4600846320074705
 40
0.5573023309465754
 40
0.6517801662611734
 40
0.748997865200277
 40
0.8434757005148751
 40
0.9406933994539795
 40
1.0
 40
1.0
 40
1.0
 40
1.0
 10
21.52500000000001
 20
11.15536052491467
 30
0.0
 10
21.525
 20
10.95228883433547
 30
0.0
 10
21.52499999999998
 20
10.5413167209378
 30
0.0
 10
21.52500000000015
 20
9.822263155483634
 30
0.0
 10
21.52499999999997
 20
9.027279166453715
 30
0.0
 10
21.5250000000002
 20
8.179506580206443
 30
0.0
 10
21.52499999999995
 20
7.316029298208774
 30
0.0
 10
21.52500000000008
 20
6.476155721410785
 30
0.0
 10
21.52500000000012
 20
5.669160966739248
 30
0.0
 10
21.52500000000001
 20
4.930614254405584
 30
0.0
 10
21.52500000000005
 20
4.274712204607393
 30
0.0
 10
21.52500000000002
 20
3.777065695464591
 30
0.0
 10
21.52500000000008
 20
3.551397680976327
 30
0.0
 10
21.52500000000007
 20
3.465892728484646
 30
0.0
  0
SPLINE
  5
BE
330
1F
100
AcDbEntity
  8
0
  6
Continuous
 62
     1
370
    15
100
AcDbSpline
210
0.0
220
0.0
230
1.0
 70
     8
 71
     3
 72
    23
 73
    19
 74
     0
 42
0.000000001
 43
0.00000001
 40
0.0
 40
0.0
 40
0.0
 40
0.0
 40
0.0643099715527496
 40
0.1285988856035172
 40
0.1928751324271472
 40
0.2571471458573275
 40
0.3214233743041792
 40
0.3857122516646449
 40
0.4500221683396108
 40
0.5143321946704327
 40
0.5786211454512356
 40
0.6428974106915823
 40
0.7071694241617695
 40
0.7714456342717808
 40
0.8357344749816759
 40
0.9000443368182488
 40
0.9643544176883332
 40
1.0
 40
1.0
 40
1.0
 40
1.0
 10
123.1250000000001
 20
-7.6288843104257
 30
0.0
 10
122.4121175948248
 20
-7.038380054488498
 30
0.0
 10
120.9865862089697
 20
-5.857564895903475
 30
0.0
 10
118.8490272381336
 20
-3.862787256916242
 30
0.0
 10
116.7120642568457
 20
-1.774521257213407
 30
0.0
 10
114.5753242653673
 20
0.3680028568095726
 30
0.0
 10
112.4383622520669
 20
2.499108394248587
 30
0.0
 10
110.3008049043021
 20
4.56015342550726
 30
0.0
 10
108.1623932066903
 20
6.492167447319937
 30
0.0
 10
106.0239773295637
 20
8.240744569642755
 30
0.0
 10
103.8864167180664
 20
9.75653169565566
 30
0.0
 10
101.74945282919
 20
10.99637695186784
 30
0.0
 10
99.61271260332045
 20
11.92580367018308
 30
0.0
 10
97.4757524233155
 20
12.51716787203902
 30
0.0
 10
95.33819345885338
 20
12.75907968255821
 30
0.0
 10
93.19979594369043
 20
12.62463111475449
 30
0.0
 10
91.37885505229865
 20
12.25645382574366
 30
0.0
 10
90.2710922333553
 20
11.80515685057663
 30
0.0
 10
89.87604857612253
 20
11.64421806068464
 30
0.0
  0
SPLINE
  5
BF
330
1F
100
AcDbEntity
  8
0
  6
Continuous
 62
     1
370
    15
100
AcDbSpline
210
0.0
220
0.0
230
1.0
 70
     8
 71
     3
 72
    23
 73
    19
 74
     0
 42
0.000000001
 43
0.00000001
 40
0.0
 40
0.0
 40
0.0
 40
0.0
 40
0.0109513542156373
 40
0.0746208023528609
 40
0.138302707445019
 40
0.2020053811934789
 40
0.2657085952901943
 40
0.3293908640189159
 40
0.3930604943871212
 40
0.4567258403056172
 40
0.5203952704373322
 40
0.584077139382303
 40
0.6477797589660769
 40
0.718229902001331
 40
0.7886766082250188
 40
0.8591202643693815
 40
0.9295612635244512
 40
1.0
 40
1.0
 40
1.0
 40
1.0
 10
55.09244939511913
 20
-12.67334674204887
 30
0.0
 10
54.96993670236159
 20
-12.68144224191322
 30
0.0
 10
54.1351545145184
 20
-12.73660370262667
 30
0.0
 10
52.58791911350685
 20
-12.49097581113156
 30
0.0
 10
50.45036959761851
 20
-11.92117282372124
 30
0.0
 10
48.31196590561623
 20
-10.98158811739316
 30
0.0
 10
46.17354185249487
 20
-9.740422460929974
 30
0.0
 10
44.03597471693654
 20
-8.22149070598856
 30
0.0
 10
41.89900691055579
 20
-6.470998560788544
 30
0.0
 10
39.76226676849335
 20
-4.537509353830155
 30
0.0
 10
37.62531000321379
 20
-2.475772715173584
 30
0.0
 10
35.4877591094529
 20
-0.343759389289357
 30
0.0
 10
33.27386209790328
 20
1.873415738423887
 30
0.0
 10
30.98420693871705
 20
4.109573852138212
 30
0.0
 10
28.61920412076912
 20
6.279148497844631
 30
0.0
 10
26.25434652780419
 20
8.224294672417617
 30
0.0
 10
23.88962283360465
 20
9.912801818985036
 30
0.0
 10
22.31319917151716
 20
10.74117872447835
 30
0.0
 10
21.52500000000002
 20
11.15536052491461
 30
0.0
  0
SPLINE
  5
C0
330
1F
100
AcDbEntity
  8
0
  6
Continuous
 62
     1
370
    15
100
AcDbSpline
210
0.0
220
0.0
230
1.0
 70
     8
 71
     3
 72
    29
 73
    25
 74
     0
 42
0.000000001
 43
0.00000001
 40
0.0
 40
0.0
 40
0.0
 40
0.0
 40
0.0291158492999203
 40
0.0766179750403066
 40
0.1241196978545424
 40
0.1716059339254945
 40
0.2190828811112926
 40
0.2665567692124746
 40
0.3140338385627002
 40
0.3615203185420056
 40
0.4090224045266956
 40
0.4565241677594787
 40
0.504010430813966
 40
0.5514873914555886
 40
0.598961279438567
 40
0.6464383350969682
 40
0.693924787857957
 40
0.7414268339105541
 40
0.7889286375909804
 40
0.8364149276583521
 40
0.8838919017852999
 40
0.9313657896796259
 40
0.9788428316757019
 40
1.0
 40
1.0
 40
1.0
 40
1.0
 10
44.86278718872238
 20
12.65843617982161
 30
0.0
 10
45.29964027862799
 20
12.66212481713166
 30
0.0
 10
46.44921344731321
 20
12.67183141776841
 30
0.0
 10
48.31197432803083
 20
12.28411585073542
 30
0.0
 10
50.45036707573378
 20
11.54934840919695
 30
0.0
 10
52.58792078095802
 20
10.47273913147819
 30
0.0
 10
54.72487818391406
 20
9.104450350188571
 30
0.0
 10
56.86161839949018
 20
7.477867155739914
 30
0.0
 10
58.99858521428084
 20
5.640261081061565
 30
0.0
 10
61.1361507018222
 20
3.642981447984589
 30
0.0
 10
63.27457279651505
 20
1.542894998360299
 30
0.0
 10
65.4129782162718
 20
-0.6007816931011577
 30
0.0
 10
67.55053070419831
 20
-2.727541118748923
 30
0.0
 10
69.68748982637612
 20
-4.77694828822978
 30
0.0
 10
71.82422982876157
 20
-6.691291194905155
 30
0.0
 10
73.9611957293293
 20
-8.416575475711179
 30
0.0
 10
76.09875955496668
 20
-9.904176107385155
 30
0.0
 10
78.23717966583729
 20
-11.11164756885441
 30
0.0
 10
80.37558689440361
 20
-12.00542122162543
 30
0.0
 10
82.51314205203322
 20
-12.55851460874332
 30
0.0
 10
84.65009821489697
 20
-12.76168903119754
 30
0.0
 10
86.78685284317628
 20
-12.5852904407642
 30
0.0
 10
88.52875960468393
 20
-12.20920551385777
 30
0.0
 10
89.55859249091192
 20
-11.77570040406628
 30
0.0
 10
89.87604857612247
 20
-11.64206820323685
 30
0.0
  0
SPLINE
  5
C1
330
1F
100
AcDbEntity
  8
0
  6
Continuous
 62
     1
370
    15
100
AcDbSpline
210
0.0
220
0.0
230
1.0
 70
     8
 71
     3
 72
    29
 73
    25
 74
     0
 42
0.000000001
 43
0.00000001
 40
0.0
 40
0.0
 40
0.0
 40
0.0
 40
0.0398083993205557
 40
0.0873094440379234
 40
0.1347949086984782
 40
0.1822709899729737
 40
0.2297439172095429
 40
0.2772199306162829
 40
0.3247052597749341
 40
0.3722061022327151
 40
0.4197071870577611
 40
0.4671926789067368
 40
0.5146687738432807
 40
0.5621417011685008
 40
0.609617701090189
 40
0.6571030032365021
 40
0.7046038052474575
 40
0.752104930003789
 40
0.7995904490705313
 40
0.8470665576986214
 40
0.8945394851420433
 40
0.9420154716081793
 40
0.9895007467715036
 40
1.0
 40
1.0
 40
1.0
 40
1.0
 10
94.99202202253257
 20
-12.67453813727839
 30
0.0
 10
94.3946163542676
 20
-12.66001860836124
 30
0.0
 10
93.08436129122649
 20
-12.62817377111367
 30
0.0
 10
91.06136214862126
 20
-12.14709673855784
 30
0.0
 10
88.92380791382567
 20
-11.33244273404327
 30
0.0
 10
86.78684085249056
 20
-10.18761792473825
 30
0.0
 10
84.65010142791036
 20
-8.757605506181378
 30
0.0
 10
82.5131411909063
 20
-7.079342303700855
 30
0.0
 10
80.37558712524564
 20
-5.200965752780842
 30
0.0
 10
78.23717960397164
 20
-3.175595516191524
 30
0.0
 10
76.0987595715453
 20
-1.060467720046851
 30
0.0
 10
73.96119572486009
 20
1.084776334929567
 30
0.0
 10
71.82422983006548
 20
3.199146306381811
 30
0.0
 10
69.68748982562906
 20
5.223089717798429
 30
0.0
 10
67.55053070588308
 20
7.099533385152002
 30
0.0
 10
65.41297821027786
 20
8.775557010437105
 30
0.0
 10
63.27457281881346
 20
10.20354651652075
 30
0.0
 10
61.13615061863683
 20
11.34304781125547
 30
0.0
 10
58.99858552458723
 20
12.1625581994936
 30
0.0
 10
56.86161724168817
 20
12.63632189268925
 30
0.0
 10
54.72488250471687
 20
12.76039679781018
 30
0.0
 10
52.58790465296757
 20
12.49650373238351
 30
0.0
 10
51.00559198914582
 20
12.11550232321999
 30
0.0
 10
50.13539706128596
 20
11.72695817888815
 30
0.0
 10
49.97783094564875
 20
11.65660452637203
 30
0.0
  0
LINE
  5
C2
330
1F
100
AcDbEntity
  8
0
  6
Continuous
 62
     1
370
    15
100
AcDbLine
 10
123.1250000000001
 20
-4.976288228611404
 30
0.0
 11
123.1250000000001
 21
4.978438086059431
 31
0.0
  0
SPLINE
  5
C3
330
1F
100
AcDbEntity
  8
0
  6
Continuous
 62
     1
370
    15
100
AcDbSpline
210
0.0
220
0.0
230
1.0
 70
     8
 71
     3
 72
    27
 73
    23
 74
     0
 42
0.000000001
 43
0.00000001
 40
0.0
 40
0.0
 40
0.0
 40
0.0
 40
0.0566290769904499
 40
0.113259973057436
 40
0.169893005205488
 40
0.2265284894585257
 40
0.2831667367291383
 40
0.3343803264299577
 40
0.3855772336974854
 40
0.4367641408067369
 40
0.4879477644211894
 40
0.5391348325101546
 40
0.5903320611830037
 40
0.6415461288412768
 40
0.692759762087683
 40
0.7439566984156675
 40
0.7951436200004098
 40
0.846327243455562
 40
0.8975142967509838
 40
0.9487114960469665
 40
0.999925520842928
 40
1.0
 40
1.0
 40
1.0
 40
1.0
 10
21.52500000000002
 20
12.28475410867771
 30
0.0
 10
22.31319917151713
 20
12.04349709263187
 30
0.0
 10
23.88962283360464
 20
11.56097531072331
 30
0.0
 10
26.25434652780438
 20
10.32381446588136
 30
0.0
 10
28.61920412076855
 20
8.760247896066339
 30
0.0
 10
30.98420693871926
 20
6.885735299081633
 30
0.0
 10
33.27386209789541
 20
4.84250573995951
 30
0.0
 10
35.48775910947944
 20
2.720140775665237
 30
0.0
 10
37.62531000311453
 20
0.5931516476590789
 30
0.0
 10
39.76226676886417
 20
-1.550311260996254
 30
0.0
 10
41.89900690917218
 20
-3.649883552345719
 30
0.0
 10
44.03597472210112
 20
-5.646348951930679
 30
0.0
 10
46.17354183321368
 20
-7.483436189100906
 30
0.0
 10
48.31196597760027
 20
-9.108874241381995
 30
0.0
 10
50.45036932901325
 20
-10.47691196907898
 30
0.0
 10
52.58792011550802
 20
-11.54864664278804
 30
0.0
 10
54.72487859314941
 20
-12.29463274880913
 30
0.0
 10
56.86161742792083
 20
-12.69031161079077
 30
0.0
 10
58.99858869188634
 20
-12.73804010705875
 30
0.0
 10
61.13613775850281
 20
-12.3859331906014
 30
0.0
 10
62.56275524478774
 20
-12.01659760862042
 30
0.0
 10
63.27664877995743
 20
-11.68316942956482
 30
0.0
 10
63.27768546819437
 20
-11.68268523821966
 30
0.0
  0
SPLINE
  5
C4
330
1F
100
AcDbEntity
  8
0
  6
Continuous
 62
     1
370
    15
100
AcDbSpline
210
0.0
220
0.0
230
1.0
 70
     8
 71
     3
 72
    19
 73
    15
 74
     0
 42
0.000000001
 43
0.00000001
 40
0.0
 40
0.0
 40
0.0
 40
0.0
 40
0.0618969953398502
 40
0.1471577078252752
 40
0.2324240605409274
 40
0.3177072413931061
 40
0.4030183802368537
 40
0.4883293736154778
 40
0.573612457071139
 40
0.6588787609779938
 40
0.7441394734103478
 40
0.8294058016951115
 40
0.9146889338226784
 40
1.0
 40
1.0
 40
1.0
 40
1.0
 10
98.0615269746982
 20
12.6653273286893
 30
0.0
 10
98.57860428967774
 20
12.66130301846589
 30
0.0
 10
99.80793556857182
 20
12.6517353768574
 30
0.0
 10
101.7494496946859
 20
12.2190074815213
 30
0.0
 10
103.8864175581532
 20
11.4441106405755
 30
0.0
 10
106.023977104362
 20
10.33322204637715
 30
0.0
 10
108.1623932670418
 20
8.933709954221335
 30
0.0
 10
110.3008048881368
 20
7.280860157837764
 30
0.0
 10
112.4383622563968
 20
5.422359023947132
 30
0.0
 10
114.5753242642072
 20
3.410996225075075
 30
0.0
 10
116.7120642571564
 20
1.302631184401891
 30
0.0
 10
118.8490272380507
 20
-0.83987187030224
 30
0.0
 10
120.9865862089904
 20
-2.96894800725836
 30
0.0
 10
122.4121175948317
 20
-4.307101782561743
 30
0.0
 10
123.1250000000001
 20
-4.976288228611406
 30
0.0
  0
SPLINE
  5
C5
330
1F
100
AcDbEntity
  8
0
  6
Continuous
 62
     1
370
    15
100
AcDbSpline
210
0.0
220
0.0
230
1.0
 70
     8
 71
     3
 72
    17
 73
    13
 74
     0
 42
0.000000001
 43
0.00000001
 40
0.0
 40
0.0
 40
0.0
 40
0.0
 40
0.107177998358887
 40
0.2143209026124839
 40
0.3214426958623502
 40
0.4285574338045365
 40
0.53567919642795
 40
0.6428220395340605
 40
0.7499999464344866
 40
0.8571780360856569
 40
0.9643210015529594
 40
0.9999999999999999
 40
0.9999999999999999
 40
0.9999999999999999
 40
0.9999999999999999
 10
123.1250000000001
 20
4.978438086059433
 30
0.0
 10
122.4121175946438
 20
5.620422659932315
 30
0.0
 10
120.9865862084269
 20
6.904181597797555
 30
0.0
 10
118.8490272403037
 20
8.597203595113582
 30
0.0
 10
116.7120642487099
 20
10.05723215429238
 30
0.0
 10
114.5753242957398
 20
11.23024817094867
 30
0.0
 10
112.4383621386942
 20
12.08715778386755
 30
0.0
 10
110.3008053275658
 20
12.60074226694976
 30
0.0
 10
108.1623916264825
 20
12.76436585490667
 30
0.0
 10
106.0239832261067
 20
12.54441626405648
 30
0.0
 10
104.3614880352019
 20
12.16389888219127
 30
0.0
 10
103.4118159844584
 20
11.75139858584599
 30
0.0
 10
103.1745741296693
 20
11.64835002784174
 30
0.0
  0
SPLINE
  5
C6
330
1F
100
AcDbEntity
  8
0
  6
Continuous
 62
     1
370
    15
100
AcDbSpline
210
0.0
220
0.0
230
1.0
 70
     8
 71
     3
 72
    29
 73
    25
 74
     0
 42
0.000000001
 43
0.00000001
 40
0.0
 40
0.0
 40
0.0
 40
0.0
 40
0.0187027929084459
 40
0.0661892133378355
 40
0.1136911339968908
 40
0.1611933774089228
 40
0.2086800147638504
 40
0.256157241458509
 40
0.3036312868935822
 40
0.3511083914234097
 40
0.398594784869175
 40
0.4460966651095495
 40
0.4935989482774092
 40
0.5410856128800896
 40
0.5885628532961171
 40
0.6360368988789453
 40
0.6835139899824053
 40
0.7310003564738959
 40
0.7785021963246875
 40
0.8310355369281313
 40
0.8835663147661239
 40
0.9360948182175908
 40
0.9886213404023421
 40
1.0
 40
1.0
 40
1.0
 40
1.0
 10
68.39242868422171
 20
-12.65601579404502
 30
0.0
 10
68.11183532995821
 20
-12.6668335732976
 30
0.0
 10
67.11881501061656
 20
-12.70511771098203
 30
0.0
 10
65.41297301623352
 20
-12.39526676668472
 30
0.0
 10
63.27457419084798
 20
-11.74078198668781
 30
0.0
 10
61.13615032547833
 20
-10.73190310004572
 30
0.0
 10
58.99858532577899
 20
-9.425649069285516
 30
0.0
 10
56.86161832972139
 20
-7.851529773397844
 30
0.0
 10
54.72487835150396
 20
-6.056004270709366
 30
0.0
 10
52.58792018027205
 20
-4.08915777454066
 30
0.0
 10
50.45036931165146
 20
-2.00651689256963
 30
0.0
 10
48.31196598225524
 20
0.1327831165601535
 30
0.0
 10
46.1735418319584
 20
2.268346339634258
 30
0.0
 10
44.03597472246864
 20
4.339938969985072
 30
0.0
 10
41.89900690895676
 20
6.288677694399382
 30
0.0
 10
39.76226676935821
 20
8.05968605849473
 30
0.0
 10
37.62531000135318
 20
9.60306827026018
 30
0.0
 10
35.48775911603263
 20
10.87510495956375
 30
0.0
 10
33.27386207234061
 20
11.87434964986114
 30
0.0
 10
30.98420704539815
 20
12.52832662155297
 30
0.0
 10
28.61920372399681
 20
12.77969752274506
 30
0.0
 10
26.25434800812751
 20
12.55558979894549
 30
0.0
 10
24.50707961466799
 20
12.16238018770776
 30
0.0
 10
23.54810252705692
 20
11.72808318038009
 30
0.0
 10
23.37735152475113
 20
11.65075427413444
 30
0.0
  0
LINE
  5
C7
330
1F
100
AcDbEntity
  8
0
  6
Continuous
 62
     1
370
    15
100
AcDbLine
 10
21.52500000000007
 20
-12.28260425122989
 30
0.0
 11
23.37735152475102
 21
-11.64860441668664
 31
0.0
  0
SPLINE
  5
C8
330
1F
100
AcDbEntity
  8
0
  6
Continuous
 62
     1
370
    15
100
AcDbSpline
210
0.0
220
0.0
230
1.0
 70
     8
 71
     3
 72
    29
 73
    25
 74
     0
 42
0.000000001
 43
0.00000001
 40
0.0
 40
0.0
 40
0.0
 40
0.0
 40
0.0185655107279295
 40
0.0660536427889216
 40
0.1135573813982401
 40
0.1610607972444229
 40
0.2085487123730498
 40
0.2560273247651758
 40
0.3035028643917582
 40
0.3509815718039686
 40
0.3984696766456969
 40
0.4459733753215332
 40
0.4934768316167665
 40
0.5409647737592178
 40
0.5884433996371381
 40
0.6359189391750649
 40
0.6833976329244748
 40
0.730885710576286
 40
0.7783893691422362
 40
0.8258928659156188
 40
0.8733808351012445
 40
0.9208594744944603
 40
0.9683350139732826
 40
1.0
 40
1.0
 40
1.0
 40
1.0
 10
58.16288991784418
 20
12.65827800463818
 30
0.0
 10
58.44141521207761
 20
12.66912264412616
 30
0.0
 10
59.43237153763123
 20
12.70770644359233
 30
0.0
 10
61.1361559880004
 20
12.39879205692095
 30
0.0
 10
63.27457137989131
 20
11.74539306487902
 30
0.0
 10
65.41297859569808
 20
10.73741107935534
 30
0.0
 10
67.55053060264363
 20
9.431996920414294
 30
0.0
 10
69.68748985329876
 20
7.858589467213623
 30
0.0
 10
71.82422982260938
 20
6.063637529805686
 30
0.0
 10
73.96119572701417
 20
4.097207249569985
 30
0.0
 10
76.09875957038653
 20
2.014811284993648
 30
0.0
 10
78.23717960645249
 20
-0.124401234591197
 30
0.0
 10
80.37558711648265
 20
-2.260072895369893
 30
0.0
 10
82.51314122346301
 20
-4.331931182796581
 30
0.0
 10
84.65010130647144
 20
-6.281104401714439
 30
0.0
 10
86.78684130568051
 20
-8.052707602525116
 30
0.0
 10
88.92380622222959
 20
-9.596803048643318
 30
0.0
 10
91.06136846399498
 20
-10.86974414520285
 30
0.0
 10
93.1997863451001
 20
-11.83562381550106
 30
0.0
 10
95.33819625374004
 20
-12.46605180754081
 30
0.0
 10
97.475750839576
 20
-12.74758567442531
 30
0.0
 10
99.61271614358633
 20
-12.65591626424551
 30
0.0
 10
101.5122091689314
 20
-12.29927731883762
 30
0.0
 10
102.699518669655
 20
-11.83283058700294
 30
0.0
 10
103.1745741296692
 20
-11.64620017039395
 30
0.0
  0
SPLINE
  5
C9
330
1F
100
AcDbEntity
  8
외형선
  6
Continuous
370
    15
100
AcDbSpline
210
0.0
220
0.0
230
1.0
 70
    24
 71
     3
 72
    10
 73
     6
 74
     0
 42
0.000000001
 43
0.00000001
 40
0.0
 40
0.0
 40
0.0
 40
0.0
 40
0.0969625055727108
 40
0.7342229963857518
 40
1.0
 40
1.0
 40
1.0
 40
1.0
 10
21.52500000000005
 20
-10.95075952356591
 30
0.0
 10
21.52500000000007
 20
-10.99148704793114
 30
0.0
 10
21.52500000000012
 20
-11.29988548295702
 30
0.0
 10
21.52500000000002
 20
-11.75433046776724
 30
0.0
 10
21.52500000000004
 20
-12.16247995135859
 30
0.0
 10
21.52500000000005
 20
-12.28260425122989
 30
0.0
  0
SPLINE
  5
CA
330
1F
100
AcDbEntity
  8
0
  6
Continuous
 62
     1
370
    15
100
AcDbSpline
210
0.0
220
0.0
230
1.0
 70
     8
 71
     3
 72
    29
 73
    25
 74
     0
 42
0.000000001
 43
0.00000001
 40
0.0
 40
0.0
 40
0.0
 40
0.0
 40
0.0028382600519513
 40
0.050341060952694
 40
0.0978282943328875
 40
0.1453061574991816
 40
0.1927808800822277
 40
0.240258702526328
 40
0.2877458546023032
 40
0.3352485339988576
 40
0.3827513751851962
 40
0.4302386357254908
 40
0.4777165125248503
 40
0.5251912351669994
 40
0.5726690440960368
 40
0.6201561691293032
 40
0.6676588080484056
 40
0.7151616893439392
 40
0.762648977073683
 40
0.8101268675356078
 40
0.857601590266411
 40
0.9050793857098867
 40
0.9525664837297931
 40
1.0
 40
1.0
 40
1.0
 40
1.0
 10
108.2901718406458
 20
-12.68883598297037
 30
0.0
 10
108.2475792335977
 20
-12.69216639415933
 30
0.0
 10
107.4921315338474
 20
-12.75123653910448
 30
0.0
 10
106.0239656018855
 20
-12.53159930903266
 30
0.0
 10
103.8864198715847
 20
-12.0064326949465
 30
0.0
 10
101.7494519387637
 20
-11.10209168453168
 30
0.0
 10
99.6127130120136
 20
-9.894732790930355
 30
0.0
 10
97.47575167887598
 20
-8.404849419659268
 30
0.0
 10
95.33819602874952
 20
-6.677986441623561
 30
0.0
 10
93.19978640539536
 20
-4.762224711756623
 30
0.0
 10
91.06136844784469
 20
-2.71190309409471
 30
0.0
 10
88.92380622655541
 20
-0.5847819450884014
 30
0.0
 10
86.78684130452206
 20
1.558646131138397
 30
0.0
 10
84.65010130678
 20
3.658002799042908
 30
0.0
 10
82.51314122338724
 20
5.654084494470856
 30
0.0
 10
80.37558711647705
 20
7.490620677483788
 30
0.0
 10
78.23717960655088
 20
9.115401666651769
 30
0.0
 10
76.0987595699985
 20
10.4825568052493
 30
0.0
 10
73.96119572846713
 20
11.55364797143025
 30
0.0
 10
71.82422981718665
 20
12.29768346949007
 30
0.0
 10
69.68748987353659
 20
12.69594895570262
 30
0.0
 10
67.55053052710299
 20
12.72913383939711
 30
0.0
 10
65.41401537221856
 20
12.42652441389805
 30
0.0
 10
63.98952739973646
 20
11.93197181172378
 30
0.0
 10
63.27768546819429
 20
11.68483509566746
 30
0.0
  0
SPLINE
  5
CB
330
1F
100
AcDbEntity
  8
0
  6
Continuous
 62
     1
370
    15
100
AcDbSpline
210
0.0
220
0.0
230
1.0
 70
     8
 71
     3
 72
    10
 73
     6
 74
     0
 42
0.000000001
 43
0.00000001
 40
0.0
 40
0.0
 40
0.0
 40
0.0
 40
0.3213362062580735
 40
0.660673553162929
 40
0.9999999999999999
 40
0.9999999999999999
 40
0.9999999999999999
 40
0.9999999999999999
 10
28.49364214532307
 20
-12.68788604240989
 30
0.0
 10
27.74719996736471
 20
-12.65299035410373
 30
0.0
 10
26.21250018458841
 20
-12.58124413337195
 30
0.0
 10
23.88962337839033
 20
-11.9536857303808
 30
0.0
 10
22.3131993531104
 20
-11.20773706274358
 30
0.0
 10
21.52500000000002
 20
-10.83476871929245
 30
0.0
  0
LINE
  5
CC
330
1F
100
AcDbEntity
  8
0
  6
Continuous
 62
     1
370
    15
100
AcDbLine
 10
123.1250000000001
 20
-12.69892507127611
 30
0.0
 11
123.1250000000001
 21
-12.60624746776119
 31
0.0
  0
LINE
  5
CD
330
1F
100
AcDbEntity
  8
외형선
  6
Continuous
370
    15
100
AcDbLine
 10
21.52500000000001
 20
0.3195168768981675
 30
0.0
 11
21.52500000000002
 21
3.349901924211261
 31
0.0
  0
LINE
  5
CE
330
1F
100
AcDbEntity
  8
0
  6
Continuous
 62
     1
370
    15
100
AcDbLine
 10
123.1250000000001
 20
12.60839732520899
 30
0.0
 11
123.1250000000001
 21
12.7010749287239
 31
0.0
  0
LINE
  5
CF
330
1F
100
AcDbEntity
  8
0
  6
Continuous
 62
     1
370
    15
100
AcDbLine
 10
123.1250000000001
 20
-7.628884310425701
 30
0.0
 11
123.1250000000001
 21
-4.976288228611404
 31
0.0
  0
LINE
  5
D0
330
1F
100
AcDbEntity
  8
외형선
  6
Continuous
370
    15
100
AcDbLine
 10
21.52500000000001
 20
11.15536052491467
 30
0.0
 11
21.52500000000002
 21
12.28475410867771
 31
0.0
  0
LINE
  5
D1
330
1F
100
AcDbEntity
  8
0
  6
Continuous
 62
     1
370
    15
100
AcDbLine
 10
123.1250000000001
 20
4.978438086059431
 30
0.0
 11
123.1250000000001
 21
7.631034167873559
 31
0.0
  0
LINE
  5
D2
330
1F
100
AcDbEntity
  8
외형선
  6
Continuous
370
    15
100
AcDbLine
 10
21.52500000000001
 20
-10.83476871929252
 30
0.0
 11
21.52500000000002
 21
-8.933777255742628
 31
0.0
  0
LINE
  5
D3
330
1F
100
AcDbEntity
  8
외형선
  6
Continuous
370
    15
100
AcDbLine
 10
20.52530478812544
 20
12.50056812463701
 30
0.0
 11
20.52530478812544
 21
12.7010749287239
 31
0.0
  0
SPLINE
  5
D4
330
1F
100
AcDbEntity
  8
외형선
  6
Continuous
370
    15
100
AcDbSpline
210
0.0
220
0.0
230
1.0
 70
     8
 71
     3
 72
     8
 73
     4
 74
     0
 42
0.000000001
 43
0.00000001
 40
0.0
 40
0.0
 40
0.0
 40
0.0
 40
1.0
 40
1.0
 40
1.0
 40
1.0
 10
21.52500000000005
 20
12.2847541086777
 30
0.0
 10
21.19081027453155
 20
12.36958026561774
 30
0.0
 10
20.85884803929728
 20
12.44149695807761
 30
0.0
 10
20.52530478812544
 20
12.50057907881955
 30
0.0
  0
SPLINE
  5
D5
330
1F
100
AcDbEntity
  8
외형선
  6
Continuous
370
    15
100
AcDbSpline
210
0.0
220
0.0
230
1.0
 70
     8
 71
     3
 72
     8
 73
     4
 74
     0
 42
0.000000001
 43
0.00000001
 40
0.0
 40
0.0
 40
0.0
 40
0.0
 40
1.0
 40
1.0
 40
1.0
 40
1.0
 10
21.52500000000004
 20
11.15536052491461
 30
0.0
 10
21.19081027453153
 20
11.31507172151866
 30
0.0
 10
20.85884803929723
 20
11.46287660277666
 30
0.0
 10
20.52530478812546
 20
11.59890080797534
 30
0.0
  0
SPLINE
  5
D6
330
1F
100
AcDbEntity
  8
외형선
  6
Continuous
370
    15
100
AcDbSpline
210
0.0
220
0.0
230
1.0
 70
     8
 71
     3
 72
     8
 73
     4
 74
     0
 42
0.000000001
 43
0.00000001
 40
0.0
 40
0.0
 40
0.0
 40
0.0
 40
1.0
 40
1.0
 40
1.0
 40
1.0
 10
21.52500000000005
 20
3.349901924211244
 30
0.0
 10
21.19081027453155
 20
3.672114304332017
 30
0.0
 10
20.85884803929728
 20
3.990142478073147
 30
0.0
 10
20.52530478812544
 20
4.304215331838583
 30
0.0
  0
SPLINE
  5
D7
330
1F
100
AcDbEntity
  8
외형선
  6
Continuous
370
    15
100
AcDbSpline
210
0.0
220
0.0
230
1.0
 70
     8
 71
     3
 72
     8
 73
     4
 74
     0
 42
0.000000001
 43
0.00000001
 40
0.0
 40
0.0
 40
0.0
 40
0.0
 40
1.0
 40
1.0
 40
1.0
 40
1.0
 10
21.52500000000004
 20
0.319516876898182
 30
0.0
 10
21.19081027453153
 20
0.6534462974244462
 30
0.0
 10
20.85884803929723
 20
0.986303721381053
 30
0.0
 10
20.52530478812546
 20
1.318322312339757
 30
0.0
  0
SPLINE
  5
D8
330
1F
100
AcDbEntity
  8
외형선
  6
Continuous
370
    15
100
AcDbSpline
210
0.0
220
0.0
230
1.0
 70
     8
 71
     3
 72
     8
 73
     4
 74
     0
 42
0.000000001
 43
0.00000001
 40
0.0
 40
0.0
 40
0.0
 40
0.0
 40
1.0
 40
1.0
 40
1.0
 40
1.0
 10
21.52500000000005
 20
-8.933777255742639
 30
0.0
 10
21.19081027453155
 20
-8.696391032561912
 30
0.0
 10
20.85884803929728
 20
-8.450279551280648
 30
0.0
 10
20.52530478812544
 20
-8.195288818257152
 30
0.0
  0
SPLINE
  5
D9
330
1F
100
AcDbEntity
  8
외형선
  6
Continuous
370
    15
100
AcDbSpline
210
0.0
220
0.0
230
1.0
 70
     8
 71
     3
 72
     8
 73
     4
 74
     0
 42
0.000000001
 43
0.00000001
 40
0.0
 40
0.0
 40
0.0
 40
0.0
 40
1.0
 40
1.0
 40
1.0
 40
1.0
 10
21.52500000000004
 20
-10.83476871929244
 30
0.0
 10
21.19081027453153
 20
-10.66055049537024
 30
0.0
 10
20.85884803929723
 20
-10.47549795267164
 30
0.0
 10
20.52530478812546
 20
-10.27950356691161
 30
0.0
  0
LINE
  5
DA
330
1F
100
AcDbEntity
  8
외형선
  6
Continuous
370
    15
100
AcDbLine
 10
20.52530478812544
 20
-12.69892507127611
 30
0.0
 11
20.52530478812544
 21
-10.27946825152902
 31
0.0
  0
SPLINE
  5
DB
330
1F
100
AcDbEntity
  8
외형선
  6
Continuous
370
    15
100
AcDbSpline
210
0.0
220
0.0
230
1.0
 70
     8
 71
     3
 72
     8
 73
     4
 74
     0
 42
0.000000001
 43
0.00000001
 40
0.0
 40
0.0
 40
0.0
 40
0.0
 40
1.0
 40
1.0
 40
1.0
 40
1.0
 10
21.52500000000005
 20
-12.28260425122989
 30
0.0
 10
21.19081027453155
 20
-12.36743040816994
 30
0.0
 10
20.85884803929728
 20
-12.4393471006298
 30
0.0
 10
20.52530478812544
 20
-12.49842922137175
 30
0.0
  0
LINE
  5
DC
330
1F
100
AcDbEntity
  8
외형선
  6
Continuous
370
    15
100
AcDbLine
 10
-39.43499999999996
 20
0.0010749287238949
 30
0.0
 11
-39.43499999999996
 21
10.7960749287239
 31
0.0
  0
LINE
  5
DD
330
1F
100
AcDbEntity
  8
외형선
  6
Continuous
370
    15
100
AcDbLine
 10
-39.43499999999996
 20
-12.69892507127611
 30
0.0
 11
-39.43499999999996
 21
0.0010749287238949
 31
0.0
  0
LINE
  5
DE
330
1F
100
AcDbEntity
  8
외형선
  6
Continuous
370
    15
100
AcDbLine
 10
20.52530478812544
 20
-8.19533609434339
 30
0.0
 11
20.52530478812544
 21
1.318382137126787
 31
0.0
  0
LINE
  5
DF
330
1F
100
AcDbEntity
  8
외형선
  6
Continuous
370
    15
100
AcDbLine
 10
20.52530478812544
 20
4.304157101569815
 30
0.0
 11
20.52530478812544
 21
11.59892531737979
 31
0.0
  0
LINE
  5
E0
330
1F
100
AcDbEntity
  8
외형선
  6
Continuous
370
    15
100
AcDbLine
 10
-41.97499999999997
 20
0.0010749287238949
 30
0.0
 11
-41.97499999999997
 21
10.1610749287239
 31
0.0
  0
LINE
  5
E1
330
1F
100
AcDbEntity
  8
외형선
  6
Continuous
370
    15
100
AcDbLine
 10
-41.97499999999997
 20
-10.15892507127611
 30
0.0
 11
-41.97499999999997
 21
0.0010749287238949
 31
0.0
  0
SPLINE
  5
E2
330
1F
100
AcDbEntity
  8
외형선
  6
Continuous
370
    15
100
AcDbSpline
210
0.0
220
0.0
230
1.0
 70
    24
 71
     3
 72
    21
 73
    17
 74
     0
 42
0.000000001
 43
0.00000001
 40
0.0
 40
0.0
 40
0.0
 40
0.0
 40
0.0940601427640726
 40
0.1634911279567328
 40
0.2349356164235648
 40
0.3043666016162153
 40
0.3758110900830418
 40
0.4452420752757019
 40
0.5166865637425512
 40
0.586117548935209
 40
0.6575620374020423
 40
0.7269930225947003
 40
0.7984375110615344
 40
0.8678684962541937
 40
0.9393129847210294
 40
1.0
 40
1.0
 40
1.0
 40
1.0
 10
21.52500000000005
 20
-8.933777255742639
 30
0.0
 10
21.52500000000009
 20
-8.704330429706554
 30
0.0
 10
21.52500000000013
 20
-8.305516231764889
 30
0.0
 10
21.52499999999991
 20
-7.555693689819918
 30
0.0
 10
21.52500000000008
 20
-6.812551249311372
 30
0.0
 10
21.52500000000007
 20
-5.999254677736104
 30
0.0
 10
21.52500000000005
 20
-5.156754228097427
 30
0.0
 10
21.52500000000001
 20
-4.292851101624991
 30
0.0
 10
21.52500000000009
 20
-3.447776713815026
 30
0.0
 10
21.52500000000004
 20
-2.630201279537515
 30
0.0
 10
21.52500000000007
 20
-1.877909649757458
 30
0.0
 10
21.52500000000008
 20
-1.198981545513305
 30
0.0
 10
21.52499999999998
 20
-0.6236230836696005
 30
0.0
 10
21.52500000000007
 20
-0.1623698674300645
 30
0.0
 10
21.52500000000012
 20
0.1663186141824749
 30
0.0
 10
21.52500000000005
 20
0.2712998002544966
 30
0.0
 10
21.52500000000004
 20
0.3195168768981843
 30
0.0
  0
SPLINE
  5
E3
330
1F
100
AcDbEntity
  8
외형선
  6
Continuous
370
    15
100
AcDbSpline
210
0.0
220
0.0
230
1.0
 70
    24
 71
     3
 72
    18
 73
    14
 74
     0
 42
0.000000001
 43
0.00000001
 40
0.0
 40
0.0
 40
0.0
 40
0.0
 40
0.0514190963302287
 40
0.1472322726456694
 40
0.2430454489610977
 40
0.338858625276526
 40
0.4346718015919551
 40
0.5304849779073841
 40
0.6262981542228152
 40
0.7221113305382463
 40
0.8179245068536737
 40
0.913737683169101
 40
1.0
 40
1.0
 40
1.0
 40
1.0
 10
21.52500000000004
 20
3.465892728484646
 30
0.0
 10
21.52500000000005
 20
3.538301870732782
 30
0.0
 10
21.52500000000007
 20
3.745636564151914
 30
0.0
 10
21.52500000000004
 20
4.220154230339485
 30
0.0
 10
21.52500000000007
 20
4.864394946061626
 30
0.0
 10
21.52500000000008
 20
5.598751791497204
 30
0.0
 10
21.52500000000005
 20
6.397627767321662
 30
0.0
 10
21.52499999999998
 20
7.238281713868674
 30
0.0
 10
21.52500000000004
 20
8.09738302595527
 30
0.0
 10
21.52500000000012
 20
8.95100228108107
 30
0.0
 10
21.52500000000005
 20
9.772032239307357
 30
0.0
 10
21.52499999999998
 20
10.52095043177594
 30
0.0
 10
21.52500000000005
 20
10.95141727717578
 30
0.0
 10
21.52500000000008
 20
11.15536052489905
 30
0.0
  0
SPLINE
  5
E4
330
1F
100
AcDbEntity
  8
외형선
  6
Continuous
370
    15
100
AcDbSpline
210
0.0
220
0.0
230
1.0
 70
    24
 71
     3
 72
    10
 73
     6
 74
     0
 42
0.000000001
 43
0.00000001
 40
0.0
 40
0.0
 40
0.0
 40
0.0
 40
0.4169140861970093
 40
0.8391717118506136
 40
0.9999999999999999
 40
0.9999999999999999
 40
0.9999999999999999
 40
0.9999999999999999
 10
21.52500000000005
 20
-12.28260425122989
 30
0.0
 10
21.52500000000001
 20
-12.09398625805719
 30
0.0
 10
21.52499999999998
 20
-11.71433277678393
 30
0.0
 10
21.52500000000008
 20
-11.26503137848161
 30
0.0
 10
21.52500000000005
 20
-11.01870257977719
 30
0.0
 10
21.52500000000004
 20
-10.95075952356591
 30
0.0
  0
LINE
  5
E5
330
1F
100
AcDbEntity
  8
중심선
100
AcDbLine
 10
-44.97499999999996
 20
0.0010749287238888
 30
0.0
 11
126.1250000000001
 21
0.0010749287239106
 31
0.0
  0
LINE
  5
E6
330
1F
100
AcDbEntity
  8
참조1
100
AcDbLine
 10
40.57500000000005
 20
0.0010749287238892
 30
0.0
 11
40.57500000000005
 21
-39.99892507127611
 31
0.0
  0
LINE
  5
E7
330
1F
100
AcDbEntity
  8
참조1
100
AcDbLine
 10
40.57500000000005
 20
-39.99892507127611
 30
0.0
 11
-9.508856814308633
 21
-39.9989250712761
 31
0.0
  0
CIRCLE
  5
E8
330
1F
100
AcDbEntity
  8
해칭선
100
AcDbCircle
 10
9.52500000000003
 20
0.0
 30
0.0
 40
3.000000000000001
  0
INSERT
  5
E9
330
1F
100
AcDbEntity
  8
0
  6
Continuous
 62
     7
100
AcDbBlockReference
 66
     1
  2
블럭10
 10
26.63472706787485
 20
-52.04609937292004
 30
0.0
  0
ATTRIB
  5
EA
330
E9
100
AcDbEntity
  8
FORMAT
 62
     2
100
AcDbText
 10
17.45343177913357
 20
-49.97073246008785
 30
0.0
 40
4.233333333333333
  1
E1162064 [ 6 FLUTE ]
 41
0.75
  7
SLDTEXTSTYLE0
 11
17.45343177913357
 21
-52.08739912675452
 31
0.0
100
AcDbAttribute
  2
AUTOATTR0
 70
     0
 74
     1
  0
SEQEND
  5
EB
330
E9
100
AcDbEntity
  8
0
  6
Continuous
 62
     7
  0
HATCH
  5
EC
330
1F
100
AcDbEntity
  8
중심선
100
AcDbHatch
 10
0.0
 20
0.0
 30
0.0
210
0.0
220
0.0
230
1.0
  2
SOLID
 70
     1
 71
     0
 91
        1
 92
        0
 93
        4
 72
     1
 10
32.34963637225569
 20
-35.7989250712761
 11
28.9033611284184
 21
-35.7989250712761
 72
     1
 10
28.9033611284184
 20
-35.7989250712761
 11
26.77513126921438
 21
-38.3352506518487
 72
     1
 10
26.77513126921438
 20
-38.3352506518487
 11
30.22143959816484
 21
-38.33521122254621
 72
     1
 10
30.22143959816484
 20
-38.33521122254621
 11
32.34963637225569
 21
-35.7989250712761
 97
        0
 75
     0
 76
     1
 98
        1
 10
0.0
 20
0.0
  0
HATCH
  5
ED
330
1F
100
AcDbEntity
  8
중심선
100
AcDbHatch
 10
0.0
 20
0.0
 30
0.0
210
0.0
220
0.0
230
1.0
  2
SOLID
 70
     1
 71
     0
 91
        1
 92
        0
 93
        4
 72
     1
 10
37.36240036329169
 20
-35.7989250712761
 11
33.91612511945441
 21
-35.79892507127608
 72
     1
 10
33.91612511945441
 20
-35.79892507127608
 11
29.38498711109697
 21
-41.19892507127612
 72
     1
 10
29.38498711109697
 20
-41.19892507127612
 11
32.83126235493425
 21
-41.19892507127612
 72
     1
 10
32.83126235493425
 20
-41.19892507127612
 11
37.36240036329169
 21
-35.7989250712761
 97
        0
 75
     0
 76
     1
 98
        1
 10
0.0
 20
0.0
  0
HATCH
  5
EE
330
1F
100
AcDbEntity
  8
중심선
100
AcDbHatch
 10
0.0
 20
0.0
 30
0.0
210
0.0
220
0.0
230
1.0
  2
SOLID
 70
     1
 71
     0
 91
        1
 92
        0
 93
        4
 72
     1
 10
42.37516435432753
 20
-35.7989250712761
 11
38.92888911049042
 21
-35.79892507127608
 72
     1
 10
38.92888911049042
 20
-35.79892507127608
 11
31.88045220860117
 21
-44.19892507127612
 72
     1
 10
31.88045220860117
 20
-44.19892507127612
 11
35.32672745243845
 21
-44.19892507127612
 72
     1
 10
35.32672745243845
 20
-44.19892507127612
 11
42.37516435432753
 21
-35.7989250712761
 97
        0
 75
     0
 76
     1
 98
        1
 10
0.0
 20
0.0
  0
HATCH
  5
EF
330
1F
100
AcDbEntity
  8
중심선
100
AcDbHatch
 10
0.0
 20
0.0
 30
0.0
210
0.0
220
0.0
230
1.0
  2
SOLID
 70
     1
 71
     0
 91
        1
 92
        0
 93
        6
 72
     3
 10
47.17505478533973
 20
-39.99892507132738
 11
3.960054785062284
 21
1.540850780301639E-10
 40
0.3939339440162633
 50
17.09539180608447
 51
320.0019657685075
 73
     0
 72
     1
 10
48.8580544410403
 20
-38.58681907591441
 11
51.16335631474134
 21
-36.65249236586651
 72
     3
 10
47.17505478528688
 20
-39.99892507127625
 11
6.600054785286829
 21
-1.249000902703301E-13
 40
0.6363583540795982
 50
39.99873849337403
 51
368.4976242363724
 73
     1
 72
     1
 10
53.60038727718747
 20
-39.03892507120613
 11
45.85512209212281
 21
-39.03892507120613
 72
     1
 10
45.85512209212281
 20
-39.03892507120613
 11
45.85509704767687
 21
-40.95892507120602
 72
     1
 10
45.85509704767687
 20
-40.95892507120602
 11
50.29647681714889
 21
-40.95892507120599
 97
        0
 75
     0
 76
     1
 98
        1
 10
0.0
 20
0.0
  0
DIMENSION
  5
F0
330
1F
100
AcDbEntity
  8
치수문자_일반주서
100
AcDbDimension
  2
_D
 10
-54.02249999999992
 20
-12.69892507127615
 30
0.0
 11
-54.02249999999996
 21
0.0010749287238801
 31
0.0
 70
   160
  1
%%c<>
 71
     2
 42
25.39999999999998
  3
SLDDIMSTYLE0
100
AcDbAlignedDimension
 13
-39.43499999999995
 23
12.70107492872388
 33
0.0
 14
-39.43499999999995
 24
-12.69892507127609
 34
0.0
 50
90.0000000000002
100
AcDbRotatedDimension
1001
ACAD
1000
DSTYLE
1002
{
1070
   171
1070
     6
1070
   273
1070
     7
1002
}
  0
DIMENSION
  5
105
330
1F
100
AcDbEntity
  8
치수문자_일반주서
100
AcDbDimension
  2
_D_1
 10
21.52500000000005
 20
35.14838386579974
 30
0.0
 11
72.32500000000006
 21
35.14838386579974
 31
0.0
 70
   160
  1
<>
 71
     2
 42
101.6
  3
SLDDIMSTYLE0
100
AcDbAlignedDimension
 13
123.1250000000001
 23
12.60839732520899
 33
0.0
 14
21.52500000000005
 24
12.2847541086777
 34
0.0
 50
0.000000000000004
100
AcDbRotatedDimension
1001
ACAD
1000
DSTYLE
1002
{
1070
   171
1070
     6
1070
   273
1070
     7
1002
}
  0
DIMENSION
  5
119
330
1F
100
AcDbEntity
  8
치수문자_일반주서
100
AcDbDimension
  2
_D_2
 10
-41.97499999999998
 20
47.14838386579975
 30
0.0
 11
40.57500000000005
 21
47.14838386579975
 31
0.0
 70
   160
  1
<>
 71
     2
 42
165.1
  3
SLDDIMSTYLE0
100
AcDbAlignedDimension
 13
123.1250000000001
 23
12.60839732520899
 33
0.0
 14
-41.97499999999997
 24
10.1610749287239
 34
0.0
 50
0.0000000000000049
100
AcDbRotatedDimension
1001
ACAD
1000
DSTYLE
1002
{
1070
   171
1070
     6
1070
   273
1070
     7
1002
}
  0
DIMENSION
  5
12C
330
1F
100
AcDbEntity
  8
치수문자_일반주서
100
AcDbDimension
  2
_D_3
 10
143.4920446236074
 20
-12.69892507127604
 30
0.0
 11
143.4920446236072
 21
30.46132492872397
 31
0.0
 70
   160
  1
%%c<>
 71
     2
 42
25.40000000000001
  3
SLDDIMSTYLE0
100
AcDbAlignedDimension
 13
123.1250000000001
 23
12.7010749287239
 33
0.0
 14
123.1250000000001
 24
-12.69892507127611
 34
0.0
 50
90.0000000000002
100
AcDbRotatedDimension
1001
ACAD
1000
DSTYLE
1002
{
1070
   171
1070
     6
1070
   273
1070
     7
1002
}
  0
LINE
  5
13F
330
1F
100
AcDbEntity
  8
참조1
100
AcDbLine
 10
88.46348381534564
 20
7.441074928723896
 30
0.0
 11
88.46348381534564
 21
-7.438925071276109
 31
0.0
  0
LINE
  5
140
330
1F
100
AcDbEntity
  8
참조1
100
AcDbLine
 10
101.1634838153456
 20
5.441074928723896
 30
0.0
 11
88.46348381534564
 21
5.441074928723896
 31
0.0
  0
SOLID
  5
141
330
1F
100
AcDbEntity
  8
참조1
100
AcDbTrace
 10
88.46348381534564
 20
5.441074928723896
 30
0.0
 11
94.81348381534563
 21
4.425074928723896
 31
0.0
 12
94.81348381534563
 22
6.457074928723896
 32
0.0
 13
94.81348381534563
 23
6.457074928723896
 33
0.0
  0
LINE
  5
142
330
1F
100
AcDbEntity
  8
참조1
100
AcDbLine
 10
101.1634838153456
 20
-5.438925071276109
 30
0.0
 11
88.46348381534564
 21
-5.438925071276109
 31
0.0
  0
SOLID
  5
143
330
1F
100
AcDbEntity
  8
참조1
100
AcDbTrace
 10
88.46348381534564
 20
-5.438925071276109
 30
0.0
 11
94.81348381534563
 21
-6.454925071276109
 31
0.0
 12
94.81348381534563
 22
-4.422925071276109
 32
0.0
 13
94.81348381534563
 23
-4.422925071276109
 33
0.0
  0
MTEXT
  5
144
330
1F
100
AcDbEntity
  8
참조1
100
AcDbMText
 10
97.8609739078159
 20
10.98929157337383
 30
0.0
 40
3.5
 41
0.0
 71
     1
 72
     1
  1
A
  7
SLDTEXTSTYLE0
 73
     1
 44
1.0
  0
MTEXT
  5
145
330
1F
100
AcDbEntity
  8
참조1
100
AcDbMText
 10
97.8609739078159
 20
0.1092915733738251
 30
0.0
 40
3.5
 41
0.0
 71
     1
 72
     1
  1
A
  7
SLDTEXTSTYLE0
 73
     1
 44
1.0
  0
INSERT
  5
14C
330
1F
100
AcDbEntity
  8
해칭선
100
AcDbBlockReference
  2
SW_DOWELSYMBOL_0
 10
9.52500000000003
 20
0.0
 30
0.0
  0
LINE
  5
330
330
1F
100
AcDbEntity
  8
외형선
  6
Continuous
370
    15
100
AcDbLine
 10
-19.55632499999987
 20
10.7960749287239
 30
0.0
 11
-6.449924999999979
 21
10.7960749287239
 31
0.0
  0
LINE
  5
331
330
1F
100
AcDbEntity
  8
외형선
  6
Continuous
370
    15
100
AcDbLine
 10
-19.55632499999987
 20
10.7960749287239
 30
0.0
 11
-21.46132499999985
 21
12.7010749287239
 31
0.0
  0
LINE
  5
332
330
1F
100
AcDbEntity
  8
외형선
  6
Continuous
370
    15
100
AcDbLine
 10
-6.449924999999979
 20
10.7960749287239
 30
0.0
 11
-4.544924999999949
 21
12.7010749287239
 31
0.0
  0
LINE
  5
334
330
1F
100
AcDbEntity
  8
외형선
  6
Continuous
370
    15
100
AcDbLine
 10
-41.97499999999997
 20
10.7960749287239
 30
0.0
 11
-29.27499999999995
 21
10.7960749287239
 31
0.0
  0
LINE
  5
335
330
1F
100
AcDbEntity
  8
외형선
  6
Continuous
370
    15
100
AcDbLine
 10
-29.27499999999995
 20
10.7960749287239
 30
0.0
 11
-27.36999999999998
 21
12.70107492872389
 31
0.0
  0
LINE
  5
337
330
1F
100
AcDbEntity
  8
외형선
  6
Continuous
370
    15
100
AcDbLine
 10
-21.46132499999984
 20
12.7010749287239
 30
0.0
 11
-27.36999999999997
 21
12.7010749287239
 31
0.0
  0
ENDSEC
  0
SECTION
  2
OBJECTS
  0
DICTIONARY
  5
C
330
0
100
AcDbDictionary
281
     1
  3
ACAD_GROUP
350
D
  3
ACAD_IMAGE_VARS
350
170
  3
ACAD_LAYOUT
350
1A
  3
ACAD_MLINESTYLE
350
17
  3
ACAD_PLOTSETTINGS
350
19
  3
ACAD_PLOTSTYLENAME
350
E
  3
ACAD_SCALELIST
350
47
  3
APPDATA
350
16E
  3
DWGPROPS
350
384
  0
DICTIONARY
  5
231
330
2
100
AcDbDictionary
280
     1
281
     1
  3
ACAD_LAYERSTATES
360
232
  0
DICTIONARY
  5
D
102
{ACAD_REACTORS
330
C
102
}
330
C
100
AcDbDictionary
281
     1
  0
RASTERVARIABLES
  5
170
102
{ACAD_REACTORS
330
C
102
}
330
C
100
AcDbRasterVariables
 90
        0
 70
     1
 71
     1
 72
     1
  0
DICTIONARY
  5
1A
102
{ACAD_REACTORS
330
C
102
}
330
C
100
AcDbDictionary
281
     1
  3
Layout1
350
1E
  3
Layout2
350
26
  3
Model
350
22
  0
DICTIONARY
  5
17
102
{ACAD_REACTORS
330
C
102
}
330
C
100
AcDbDictionary
281
     1
  3
Standard
350
18
  0
DICTIONARY
  5
19
102
{ACAD_REACTORS
330
C
102
}
330
C
100
AcDbDictionary
281
     1
  0
ACDBDICTIONARYWDFLT
  5
E
102
{ACAD_REACTORS
330
C
102
}
330
C
100
AcDbDictionary
281
     1
  3
Normal
350
F
100
AcDbDictionaryWithDefault
340
F
  0
DICTIONARY
  5
47
102
{ACAD_REACTORS
330
C
102
}
330
C
100
AcDbDictionary
281
     1
  3
A0
350
48
  3
A1
350
49
  3
A2
350
4A
  3
A3
350
4B
  3
A4
350
4C
  3
A5
350
4D
  3
A6
350
4E
  3
A7
350
4F
  3
A8
350
50
  3
A9
350
51
  3
B0
350
52
  3
B1
350
53
  3
B2
350
54
  3
B3
350
55
  3
B4
350
56
  3
B5
350
57
  3
B6
350
58
  3
B7
350
59
  3
B8
350
5A
  3
B9
350
5B
  3
C0
350
5C
  3
C1
350
5D
  3
C2
350
5E
  3
C3
350
5F
  3
C4
350
60
  3
C5
350
61
  3
C6
350
62
  3
C7
350
63
  3
C8
350
64
  3
C9
350
65
  3
D0
350
66
  3
D1
350
67
  3
D2
350
68
  0
DICTIONARY
  5
16E
102
{ACAD_REACTORS
330
C
102
}
330
C
100
AcDbDictionary
281
     1
  0
XRECORD
  5
384
102
{ACAD_REACTORS
330
C
102
}
330
C
100
AcDbXrecord
280
     1
  1
DWGPROPS COOKIE
  2

  3

  4

  6

  7

  8
12017012
  9

300
=
301
=
302
=
303
=
304
=
305
=
306
=
307
=
308
=
309
=
 40
0.0
 41
2458323.065685544
 42
2458323.303428843
  1

 90
        0
  0
DICTIONARY
  5
232
102
{ACAD_REACTORS
330
231
102
}
330
231
100
AcDbDictionary
281
     1
  0
LAYOUT
  5
1E
102
{ACAD_REACTORS
330
1A
102
}
330
1A
100
AcDbPlotSettings
  1

  2
none_device
  4

  6

 40
0.0
 41
0.0
 42
0.0
 43
0.0
 44
0.0
 45
0.0
 46
0.0
 47
0.0
 48
0.0
 49
0.0
140
0.0
141
0.0
142
1.0
143
1.0
 70
   688
 72
     1
 73
     0
 74
     5
  7

 75
    16
147
1.0
148
0.0
149
0.0
100
AcDbLayout
  1
Layout1
 70
     1
 71
     1
 10
0.0
 20
0.0
 11
420.0
 21
297.0
 12
0.0
 22
0.0
 32
0.0
 14
1.000000000000000E+20
 24
1.000000000000000E+20
 34
1.000000000000000E+20
 15
-1.000000000000000E+20
 25
-1.000000000000000E+20
 35
-1.000000000000000E+20
146
0.0
 13
0.0
 23
0.0
 33
0.0
 16
1.0
 26
0.0
 36
0.0
 17
0.0
 27
1.0
 37
0.0
 76
     0
330
1B
  0
LAYOUT
  5
26
102
{ACAD_REACTORS
330
1A
102
}
330
1A
100
AcDbPlotSettings
  1

  2
none_device
  4

  6

 40
0.0
 41
0.0
 42
0.0
 43
0.0
 44
0.0
 45
0.0
 46
0.0
 47
0.0
 48
0.0
 49
0.0
140
0.0
141
0.0
142
1.0
143
1.0
 70
   688
 72
     1
 73
     0
 74
     5
  7

 75
    16
147
1.0
148
0.0
149
0.0
100
AcDbLayout
  1
Layout2
 70
     1
 71
     2
 10
0.0
 20
0.0
 11
0.0
 21
0.0
 12
0.0
 22
0.0
 32
0.0
 14
0.0
 24
0.0
 34
0.0
 15
0.0
 25
0.0
 35
0.0
146
0.0
 13
0.0
 23
0.0
 33
0.0
 16
1.0
 26
0.0
 36
0.0
 17
0.0
 27
1.0
 37
0.0
 76
     0
330
23
  0
LAYOUT
  5
22
102
{ACAD_REACTORS
330
1A
102
}
330
1A
100
AcDbPlotSettings
  1

  2
none_device
  4
ANSI_A_(11.00_x_8.50_Inches)
  6

 40
6.35
 41
19.05
 42
6.35000508
 43
19.05000254
 44
279.4
 45
215.9
 46
52.96617225572761
 47
85.671160077828
 48
0.0
 49
0.0
140
0.0
141
0.0
142
0.0351811932893136
143
1.0
 70
  1696
 72
     0
 73
     0
 74
     0
  7

 75
     0
147
0.0235690232323232
148
0.0
149
0.0
100
AcDbLayout
  1
Model
 70
     1
 71
     0
 10
0.0
 20
0.0
 11
420.0
 21
297.0
 12
0.0
 22
0.0
 32
0.0
 14
1.000000000000000E+20
 24
1.000000000000000E+20
 34
1.000000000000000E+20
 15
-1.000000000000000E+20
 25
-1.000000000000000E+20
 35
-1.000000000000000E+20
146
0.0
 13
0.0
 23
0.0
 33
0.0
 16
1.0
 26
0.0
 36
0.0
 17
0.0
 27
1.0
 37
0.0
 76
     0
330
1F
331
29
  0
MLINESTYLE
  5
18
102
{ACAD_REACTORS
330
17
102
}
330
17
100
AcDbMlineStyle
  2
Standard
 70
     0
  3

 62
   256
 51
90.0
 52
90.0
 71
     2
 49
0.5
 62
   256
  6
BYLAYER
 49
-0.5
 62
   256
  6
BYLAYER
  0
ACDBPLACEHOLDER
  5
F
102
{ACAD_REACTORS
330
E
102
}
330
E
  0
SCALE
  5
48
102
{ACAD_REACTORS
330
47
102
}
330
47
100
AcDbScale
 70
     0
300
1:1
140
1.0
141
1.0
290
     1
  0
SCALE
  5
49
102
{ACAD_REACTORS
330
47
102
}
330
47
100
AcDbScale
 70
     0
300
1:2
140
1.0
141
2.0
290
     0
  0
SCALE
  5
4A
102
{ACAD_REACTORS
330
47
102
}
330
47
100
AcDbScale
 70
     0
300
1:4
140
1.0
141
4.0
290
     0
  0
SCALE
  5
4B
102
{ACAD_REACTORS
330
47
102
}
330
47
100
AcDbScale
 70
     0
300
1:5
140
1.0
141
5.0
290
     0
  0
SCALE
  5
4C
102
{ACAD_REACTORS
330
47
102
}
330
47
100
AcDbScale
 70
     0
300
1:8
140
1.0
141
8.0
290
     0
  0
SCALE
  5
4D
102
{ACAD_REACTORS
330
47
102
}
330
47
100
AcDbScale
 70
     0
300
1:10
140
1.0
141
10.0
290
     0
  0
SCALE
  5
4E
102
{ACAD_REACTORS
330
47
102
}
330
47
100
AcDbScale
 70
     0
300
1:16
140
1.0
141
16.0
290
     0
  0
SCALE
  5
4F
102
{ACAD_REACTORS
330
47
102
}
330
47
100
AcDbScale
 70
     0
300
1:20
140
1.0
141
20.0
290
     0
  0
SCALE
  5
50
102
{ACAD_REACTORS
330
47
102
}
330
47
100
AcDbScale
 70
     0
300
1:30
140
1.0
141
30.0
290
     0
  0
SCALE
  5
51
102
{ACAD_REACTORS
330
47
102
}
330
47
100
AcDbScale
 70
     0
300
1:40
140
1.0
141
40.0
290
     0
  0
SCALE
  5
52
102
{ACAD_REACTORS
330
47
102
}
330
47
100
AcDbScale
 70
     0
300
1:50
140
1.0
141
50.0
290
     0
  0
SCALE
  5
53
102
{ACAD_REACTORS
330
47
102
}
330
47
100
AcDbScale
 70
     0
300
1:100
140
1.0
141
100.0
290
     0
  0
SCALE
  5
54
102
{ACAD_REACTORS
330
47
102
}
330
47
100
AcDbScale
 70
     0
300
2:1
140
2.0
141
1.0
290
     0
  0
SCALE
  5
55
102
{ACAD_REACTORS
330
47
102
}
330
47
100
AcDbScale
 70
     0
300
4:1
140
4.0
141
1.0
290
     0
  0
SCALE
  5
56
102
{ACAD_REACTORS
330
47
102
}
330
47
100
AcDbScale
 70
     0
300
8:1
140
8.0
141
1.0
290
     0
  0
SCALE
  5
57
102
{ACAD_REACTORS
330
47
102
}
330
47
100
AcDbScale
 70
     0
300
10:1
140
10.0
141
1.0
290
     0
  0
SCALE
  5
58
102
{ACAD_REACTORS
330
47
102
}
330
47
100
AcDbScale
 70
     0
300
100:1
140
100.0
141
1.0
290
     0
  0
SCALE
  5
59
102
{ACAD_REACTORS
330
47
102
}
330
47
100
AcDbScale
 70
     0
300
1/128" = 1'-0"
140
0.0078125
141
12.0
290
     0
  0
SCALE
  5
5A
102
{ACAD_REACTORS
330
47
102
}
330
47
100
AcDbScale
 70
     0
300
1/64" = 1'-0"
140
0.015625
141
12.0
290
     0
  0
SCALE
  5
5B
102
{ACAD_REACTORS
330
47
102
}
330
47
100
AcDbScale
 70
     0
300
1/32" = 1'-0"
140
0.03125
141
12.0
290
     0
  0
SCALE
  5
5C
102
{ACAD_REACTORS
330
47
102
}
330
47
100
AcDbScale
 70
     0
300
1/16" = 1'-0"
140
0.0625
141
12.0
290
     0
  0
SCALE
  5
5D
102
{ACAD_REACTORS
330
47
102
}
330
47
100
AcDbScale
 70
     0
300
3/32" = 1'-0"
140
0.09375
141
12.0
290
     0
  0
SCALE
  5
5E
102
{ACAD_REACTORS
330
47
102
}
330
47
100
AcDbScale
 70
     0
300
1/8" = 1'-0"
140
0.125
141
12.0
290
     0
  0
SCALE
  5
5F
102
{ACAD_REACTORS
330
47
102
}
330
47
100
AcDbScale
 70
     0
300
3/16" = 1'-0"
140
0.1875
141
12.0
290
     0
  0
SCALE
  5
60
102
{ACAD_REACTORS
330
47
102
}
330
47
100
AcDbScale
 70
     0
300
1/4" = 1'-0"
140
0.25
141
12.0
290
     0
  0
SCALE
  5
61
102
{ACAD_REACTORS
330
47
102
}
330
47
100
AcDbScale
 70
     0
300
3/8" = 1'-0"
140
0.375
141
12.0
290
     0
  0
SCALE
  5
62
102
{ACAD_REACTORS
330
47
102
}
330
47
100
AcDbScale
 70
     0
300
1/2" = 1'-0"
140
0.5
141
12.0
290
     0
  0
SCALE
  5
63
102
{ACAD_REACTORS
330
47
102
}
330
47
100
AcDbScale
 70
     0
300
3/4" = 1'-0"
140
0.75
141
12.0
290
     0
  0
SCALE
  5
64
102
{ACAD_REACTORS
330
47
102
}
330
47
100
AcDbScale
 70
     0
300
1" = 1'-0"
140
1.0
141
12.0
290
     0
  0
SCALE
  5
65
102
{ACAD_REACTORS
330
47
102
}
330
47
100
AcDbScale
 70
     0
300
1-1/2" = 1'-0"
140
1.5
141
12.0
290
     0
  0
SCALE
  5
66
102
{ACAD_REACTORS
330
47
102
}
330
47
100
AcDbScale
 70
     0
300
3" = 1'-0"
140
3.0
141
12.0
290
     0
  0
SCALE
  5
67
102
{ACAD_REACTORS
330
47
102
}
330
47
100
AcDbScale
 70
     0
300
6" = 1'-0"
140
6.0
141
12.0
290
     0
  0
SCALE
  5
68
102
{ACAD_REACTORS
330
47
102
}
330
47
100
AcDbScale
 70
     0
300
1'-0" = 1'-0"
140
12.0
141
12.0
290
     0
  0
ENDSEC
  0
EOF
