  0
SECTION
  2
HEADER
  9
$ACADVER
  1
AC1015
  9
$ACADMAINTVER
 70
     6
  9
$DWGCODEPAGE
  3
ANSI_949
  9
$INSBASE
 10
0.0
 20
0.0
 30
0.0
  9
$EXTMIN
 10
1.000000000000000E+20
 20
1.000000000000000E+20
 30
1.000000000000000E+20
  9
$EXTMAX
 10
-1.000000000000000E+20
 20
-1.000000000000000E+20
 30
-1.000000000000000E+20
  9
$LIMMIN
 10
0.0
 20
0.0
  9
$LIMMAX
 10
420.0
 20
297.0
  9
$ORTHOMODE
 70
     1
  9
$REGENMODE
 70
     1
  9
$FILLMODE
 70
     1
  9
$QTEXTMODE
 70
     0
  9
$MIRRTEXT
 70
     1
  9
$LTSCALE
 40
1.0
  9
$ATTMODE
 70
     1
  9
$TEXTSIZE
 40
3.5
  9
$TRACEWID
 40
1.0
  9
$TEXTSTYLE
  7
Standard
  9
$CLAYER
  8
0
  9
$CELTYPE
  6
ByLayer
  9
$CECOLOR
 62
   256
  9
$CELTSCALE
 40
1.0
  9
$DISPSILH
 70
     0
  9
$DIMSCALE
 40
1.0
  9
$DIMASZ
 40
3.302
  9
$DIMEXO
 40
1.0
  9
$DIMDLI
 40
3.75
  9
$DIMRND
 40
0.0
  9
$DIMDLE
 40
0.0
  9
$DIMEXE
 40
1.0
  9
$DIMTP
 40
0.0
  9
$DIMTM
 40
0.0
  9
$DIMTXT
 40
3.5
  9
$DIMCEN
 40
2.5
  9
$DIMTSZ
 40
0.0
  9
$DIMTOL
 70
     0
  9
$DIMLIM
 70
     0
  9
$DIMTIH
 70
     1
  9
$DIMTOH
 70
     1
  9
$DIMSE1
 70
     0
  9
$DIMSE2
 70
     0
  9
$DIMTAD
 70
     1
  9
$DIMZIN
 70
     0
  9
$DIMBLK
  1

  9
$DIMASO
 70
     1
  9
$DIMSHO
 70
     1
  9
$DIMPOST
  1

  9
$DIMAPOST
  1

  9
$DIMALT
 70
     0
  9
$DIMALTD
 70
     3
  9
$DIMALTF
 40
0.0393700787401575
  9
$DIMLFAC
 40
1.0
  9
$DIMTOFL
 70
     1
  9
$DIMTVP
 40
0.0
  9
$DIMTIX
 70
     0
  9
$DIMSOXD
 70
     0
  9
$DIMSAH
 70
     0
  9
$DIMBLK1
  1

  9
$DIMBLK2
  1

  9
$DIMSTYLE
  2
ISO-25
  9
$DIMCLRD
 70
     0
  9
$DIMCLRE
 70
     0
  9
$DIMCLRT
 70
     0
  9
$DIMTFAC
 40
1.0
  9
$DIMGAP
 40
1.524
  9
$DIMJUST
 70
     0
  9
$DIMSD1
 70
     0
  9
$DIMSD2
 70
     0
  9
$DIMTOLJ
 70
     0
  9
$DIMTZIN
 70
     0
  9
$DIMALTZ
 70
     0
  9
$DIMALTTZ
 70
     0
  9
$DIMUPT
 70
     0
  9
$DIMDEC
 70
     2
  9
$DIMTDEC
 70
     2
  9
$DIMALTU
 70
     2
  9
$DIMALTTD
 70
     3
  9
$DIMTXSTY
  7
Standard
  9
$DIMAUNIT
 70
     0
  9
$DIMADEC
 70
     2
  9
$DIMALTRND
 40
0.0
  9
$DIMAZIN
 70
     0
  9
$DIMDSEP
 70
    44
  9
$DIMATFIT
 70
     3
  9
$DIMFRAC
 70
     0
  9
$DIMLDRBLK
  1

  9
$DIMLUNIT
 70
     2
  9
$DIMLWD
 70
    -2
  9
$DIMLWE
 70
    -2
  9
$DIMTMOVE
 70
     0
  9
$LUNITS
 70
     2
  9
$LUPREC
 70
     2
  9
$SKETCHINC
 40
1.0
  9
$FILLETRAD
 40
10.0
  9
$AUNITS
 70
     0
  9
$AUPREC
 70
     2
  9
$MENU
  1
.
  9
$ELEVATION
 40
0.0
  9
$PELEVATION
 40
0.0
  9
$THICKNESS
 40
0.0
  9
$LIMCHECK
 70
     0
  9
$CHAMFERA
 40
0.0
  9
$CHAMFERB
 40
0.0
  9
$CHAMFERC
 40
0.0
  9
$CHAMFERD
 40
0.0
  9
$SKPOLY
 70
     0
  9
$TDCREATE
 40
2458323.439838739
  9
$TDUCREATE
 40
2458323.064838739
  9
$TDUPDATE
 40
2458323.674154248
  9
$TDUUPDATE
 40
2458323.299154248
  9
$TDINDWG
 40
0.0004984259
  9
$TDUSRTIMER
 40
2458323.298656389
  9
$USRTIMER
 70
     1
  9
$ANGBASE
 50
0.0
  9
$ANGDIR
 70
     0
  9
$PDMODE
 70
     0
  9
$PDSIZE
 40
-1.0
  9
$PLINEWID
 40
0.0
  9
$SPLFRAME
 70
     0
  9
$SPLINETYPE
 70
     6
  9
$SPLINESEGS
 70
     8
  9
$HANDSEED
  5
222
  9
$SURFTAB1
 70
     6
  9
$SURFTAB2
 70
     6
  9
$SURFTYPE
 70
     6
  9
$SURFU
 70
     6
  9
$SURFV
 70
     6
  9
$UCSBASE
  2

  9
$UCSNAME
  2

  9
$UCSORG
 10
0.0
 20
0.0
 30
0.0
  9
$UCSXDIR
 10
1.0
 20
0.0
 30
0.0
  9
$UCSYDIR
 10
0.0
 20
1.0
 30
0.0
  9
$UCSORTHOREF
  2

  9
$UCSORTHOVIEW
 70
     0
  9
$UCSORGTOP
 10
0.0
 20
0.0
 30
0.0
  9
$UCSORGBOTTOM
 10
0.0
 20
0.0
 30
0.0
  9
$UCSORGLEFT
 10
0.0
 20
0.0
 30
0.0
  9
$UCSORGRIGHT
 10
0.0
 20
0.0
 30
0.0
  9
$UCSORGFRONT
 10
0.0
 20
0.0
 30
0.0
  9
$UCSORGBACK
 10
0.0
 20
0.0
 30
0.0
  9
$PUCSBASE
  2

  9
$PUCSNAME
  2

  9
$PUCSORG
 10
0.0
 20
0.0
 30
0.0
  9
$PUCSXDIR
 10
1.0
 20
0.0
 30
0.0
  9
$PUCSYDIR
 10
0.0
 20
1.0
 30
0.0
  9
$PUCSORTHOREF
  2

  9
$PUCSORTHOVIEW
 70
     0
  9
$PUCSORGTOP
 10
0.0
 20
0.0
 30
0.0
  9
$PUCSORGBOTTOM
 10
0.0
 20
0.0
 30
0.0
  9
$PUCSORGLEFT
 10
0.0
 20
0.0
 30
0.0
  9
$PUCSORGRIGHT
 10
0.0
 20
0.0
 30
0.0
  9
$PUCSORGFRONT
 10
0.0
 20
0.0
 30
0.0
  9
$PUCSORGBACK
 10
0.0
 20
0.0
 30
0.0
  9
$USERI1
 70
     0
  9
$USERI2
 70
     0
  9
$USERI3
 70
     0
  9
$USERI4
 70
     0
  9
$USERI5
 70
     0
  9
$USERR1
 40
0.0
  9
$USERR2
 40
0.0
  9
$USERR3
 40
0.0
  9
$USERR4
 40
0.0
  9
$USERR5
 40
0.0
  9
$WORLDVIEW
 70
     1
  9
$SHADEDGE
 70
     3
  9
$SHADEDIF
 70
    70
  9
$TILEMODE
 70
     1
  9
$MAXACTVP
 70
    64
  9
$PINSBASE
 10
0.0
 20
0.0
 30
0.0
  9
$PLIMCHECK
 70
     0
  9
$PEXTMIN
 10
1.000000000000000E+20
 20
1.000000000000000E+20
 30
1.000000000000000E+20
  9
$PEXTMAX
 10
-1.000000000000000E+20
 20
-1.000000000000000E+20
 30
-1.000000000000000E+20
  9
$PLIMMIN
 10
0.0
 20
0.0
  9
$PLIMMAX
 10
0.0
 20
0.0
  9
$UNITMODE
 70
     0
  9
$VISRETAIN
 70
     1
  9
$PLINEGEN
 70
     0
  9
$PSLTSCALE
 70
     1
  9
$TREEDEPTH
 70
  3020
  9
$CMLSTYLE
  2
Standard
  9
$CMLJUST
 70
     0
  9
$CMLSCALE
 40
20.0
  9
$PROXYGRAPHICS
 70
     1
  9
$MEASUREMENT
 70
     1
  9
$CELWEIGHT
370
    -1
  9
$ENDCAPS
280
     0
  9
$JOINSTYLE
280
     0
  9
$LWDISPLAY
290
     1
  9
$INSUNITS
 70
     4
  9
$HYPERLINKBASE
  1

  9
$STYLESHEET
  1

  9
$XEDIT
290
     1
  9
$CEPSNTYPE
380
     0
  9
$PSTYLEMODE
290
     1
  9
$FINGERPRINTGUID
  2
{108F3D06-2D00-4C53-95B3-0B7C21733819}
  9
$VERSIONGUID
  2
{FAEB1C32-E019-11D5-929B-00C0DF256EC4}
  9
$EXTNAMES
290
     1
  9
$PSVPSCALE
 40
0.0
  9
$OLESTARTUP
290
     0
  0
ENDSEC
  0
SECTION
  2
CLASSES
  0
CLASS
  1
ACDBDICTIONARYWDFLT
  2
AcDbDictionaryWithDefault
  3
ObjectDBX Classes
 90
        0
280
     0
281
     0
  0
CLASS
  1
VISUALSTYLE
  2
AcDbVisualStyle
  3
ObjectDBX Classes
 90
     4095
280
     0
281
     0
  0
CLASS
  1
MATERIAL
  2
AcDbMaterial
  3
ObjectDBX Classes
 90
     1153
280
     0
281
     0
  0
CLASS
  1
SCALE
  2
AcDbScale
  3
ObjectDBX Classes
 90
     1153
280
     0
281
     0
  0
CLASS
  1
SUN
  2
AcDbSun
  3
SCENEOE
 90
     1153
280
     0
281
     0
  0
CLASS
  1
ACDBPLACEHOLDER
  2
AcDbPlaceHolder
  3
ObjectDBX Classes
 90
        0
280
     0
281
     0
  0
CLASS
  1
LAYOUT
  2
AcDbLayout
  3
ObjectDBX Classes
 90
        0
280
     0
281
     0
  0
CLASS
  1
TABLESTYLE
  2
AcDbTableStyle
  3
ObjectDBX Classes
 90
     4095
280
     0
281
     0
  0
CLASS
  1
MLEADERSTYLE
  2
AcDbMLeaderStyle
  3
ACDB_MLEADERSTYLE_CLASS
 90
     4095
280
     0
281
     0
  0
CLASS
  1
RASTERVARIABLES
  2
AcDbRasterVariables
  3
ISM
 90
        0
280
     0
281
     0
  0
ENDSEC
  0
SECTION
  2
TABLES
  0
TABLE
  2
VPORT
  5
8
330
0
100
AcDbSymbolTable
 70
     1
  0
VPORT
  5
29
330
8
100
AcDbSymbolTableRecord
100
AcDbViewportTableRecord
  2
*Active
 70
     0
 10
0.0
 20
0.0
 11
1.0
 21
1.0
 12
22.60932257192357
 22
6.383303382422213
 13
0.0
 23
0.0
 14
10.0
 24
10.0
 15
10.0
 25
10.0
 16
0.0
 26
0.0
 36
1.0
 17
0.0
 27
0.0
 37
0.0
 40
155.3962466743747
 41
1.632093933463796
 42
50.0
 43
0.0
 44
0.0
 50
0.0
 51
0.0
 71
    16
 72
  2000
 73
     1
 74
     3
 75
     0
 76
     0
 77
     0
 78
     0
281
     0
 65
     1
110
0.0
120
0.0
130
0.0
111
1.0
121
0.0
131
0.0
112
0.0
122
1.0
132
0.0
 79
     0
146
0.0
  0
ENDTAB
  0
TABLE
  2
LTYPE
  5
5
330
0
100
AcDbSymbolTable
 70
     6
  0
LTYPE
  5
14
330
5
100
AcDbSymbolTableRecord
100
AcDbLinetypeTableRecord
  2
ByBlock
 70
     0
  3

 72
    65
 73
     0
 40
0.0
  0
LTYPE
  5
15
330
5
100
AcDbSymbolTableRecord
100
AcDbLinetypeTableRecord
  2
ByLayer
 70
     0
  3

 72
    65
 73
     0
 40
0.0
  0
LTYPE
  5
16
330
5
100
AcDbSymbolTableRecord
100
AcDbLinetypeTableRecord
  2
Continuous
 70
     0
  3
Solid line
 72
    65
 73
     0
 40
0.0
  0
LTYPE
  5
6A
330
5
100
AcDbSymbolTableRecord
100
AcDbLinetypeTableRecord
  2
HIDDEN
 70
     0
  3
Hidden __ __ __ __ __ __ __ __ __ __ __ __ __ __
 72
    65
 73
     2
 40
1.905
 49
1.27
 74
     0
 49
-0.635
 74
     0
  0
LTYPE
  5
6B
330
5
100
AcDbSymbolTableRecord
100
AcDbLinetypeTableRecord
  2
PHANTOM
 70
     0
  3
Phantom ______  __  __  ______  __  __  ______
 72
    65
 73
     6
 40
12.7
 49
6.35
 74
     0
 49
-1.27
 74
     0
 49
1.27
 74
     0
 49
-1.27
 74
     0
 49
1.27
 74
     0
 49
-1.27
 74
     0
  0
LTYPE
  5
6C
330
5
100
AcDbSymbolTableRecord
100
AcDbLinetypeTableRecord
  2
CENTER
 70
     0
  3
Center ____ _ ____ _ ____ _ ____ _ ____ _ ____
 72
    65
 73
     4
 40
10.16
 49
6.35
 74
     0
 49
-1.27
 74
     0
 49
1.27
 74
     0
 49
-1.27
 74
     0
  0
LTYPE
  5
6D
330
5
100
AcDbSymbolTableRecord
100
AcDbLinetypeTableRecord
  2
CENTERX2
 70
     0
  3
Center (2x) ________  __  ________  __  _____
 72
    65
 73
     4
 40
20.32
 49
12.7
 74
     0
 49
-2.54
 74
     0
 49
2.54
 74
     0
 49
-2.54
 74
     0
  0
LTYPE
  5
6E
330
5
100
AcDbSymbolTableRecord
100
AcDbLinetypeTableRecord
  2
DOT2
 70
     0
  3
Dot (.5x) ........................................
 72
    65
 73
     2
 40
0.635
 49
0.0
 74
     0
 49
-0.635
 74
     0
  0
ENDTAB
  0
TABLE
  2
LAYER
  5
2
102
{ACAD_XDICTIONARY
360
192
102
}
330
0
100
AcDbSymbolTable
 70
    18
  0
LAYER
  5
10
330
2
100
AcDbSymbolTableRecord
100
AcDbLayerTableRecord
  2
0
 70
     0
 62
     7
  6
Continuous
370
    -3
390
F
  0
LAYER
  5
6F
330
2
100
AcDbSymbolTableRecord
100
AcDbLayerTableRecord
  2
FORMAT
 70
     0
 62
     2
  6
Continuous
370
    -3
390
F
  0
LAYER
  5
70
330
2
100
AcDbSymbolTableRecord
100
AcDbLayerTableRecord
  2
외형선
 70
     0
 62
     4
  6
Continuous
370
    30
390
F
  0
LAYER
  5
71
330
2
100
AcDbSymbolTableRecord
100
AcDbLayerTableRecord
  2
숨은선
 70
     0
 62
     2
  6
HIDDEN
370
    15
390
F
  0
LAYER
  5
72
330
2
100
AcDbSymbolTableRecord
100
AcDbLayerTableRecord
  2
중심선
 70
     0
 62
     1
  6
CENTERX2
370
    -3
390
F
  0
LAYER
  5
73
330
2
100
AcDbSymbolTableRecord
100
AcDbLayerTableRecord
  2
파단선
 70
     0
 62
     4
  6
Continuous
370
    -3
390
F
  0
LAYER
  5
74
330
2
100
AcDbSymbolTableRecord
100
AcDbLayerTableRecord
  2
해칭선
 70
     0
 62
   100
  6
Continuous
370
    -3
390
F
  0
LAYER
  5
75
330
2
100
AcDbSymbolTableRecord
100
AcDbLayerTableRecord
  2
가는실선
 70
     0
 62
     4
  6
Continuous
370
    -3
390
F
  0
LAYER
  5
76
330
2
100
AcDbSymbolTableRecord
100
AcDbLayerTableRecord
  2
치수_보조선
 70
     0
 62
     4
  6
Continuous
370
    -3
390
F
  0
LAYER
  5
77
330
2
100
AcDbSymbolTableRecord
100
AcDbLayerTableRecord
  2
치수문자_일반주서
 70
     0
 62
     7
  6
Continuous
370
    15
390
F
  0
LAYER
  5
78
330
2
100
AcDbSymbolTableRecord
100
AcDbLayerTableRecord
  2
개별주서
 70
     0
 62
   100
  6
Continuous
370
    30
390
F
  0
LAYER
  5
79
330
2
100
AcDbSymbolTableRecord
100
AcDbLayerTableRecord
  2
중간선
 70
     0
 62
     2
  6
Continuous
370
    15
390
F
  0
LAYER
  5
7A
330
2
100
AcDbSymbolTableRecord
100
AcDbLayerTableRecord
  2
윤곽선
 70
     0
 62
     3
  6
Continuous
370
    40
390
F
  0
LAYER
  5
7B
330
2
100
AcDbSymbolTableRecord
100
AcDbLayerTableRecord
  2
중심마크
 70
     0
 62
   100
  6
Continuous
370
    30
390
F
  0
LAYER
  5
7C
330
2
100
AcDbSymbolTableRecord
100
AcDbLayerTableRecord
  2
가상선
 70
     0
 62
     4
  6
PHANTOM
370
    -3
390
F
  0
LAYER
  5
7D
330
2
100
AcDbSymbolTableRecord
100
AcDbLayerTableRecord
  2
특수지정선
 70
     0
 62
     5
  6
CENTERX2
370
    60
390
F
  0
LAYER
  5
7E
330
2
100
AcDbSymbolTableRecord
100
AcDbLayerTableRecord
  2
참조1
 70
     0
 62
    -4
  6
Continuous
370
    -3
390
F
  0
LAYER
  5
199
330
2
100
AcDbSymbolTableRecord
100
AcDbLayerTableRecord
  2
Defpoints
 70
     0
 62
     7
  6
Continuous
290
     0
370
    -3
390
F
  0
ENDTAB
  0
TABLE
  2
STYLE
  5
3
330
0
100
AcDbSymbolTable
 70
     2
  0
STYLE
  5
11
330
3
100
AcDbSymbolTableRecord
100
AcDbTextStyleTableRecord
  2
Standard
 70
     0
 40
0.0
 41
1.0
 50
0.0
 71
     0
 42
3.5
  3
txt
  4

  0
STYLE
  5
94
330
3
100
AcDbSymbolTableRecord
100
AcDbTextStyleTableRecord
  2
SLDTEXTSTYLE0
 70
     0
 40
0.0
 41
0.75
 50
0.0
 71
     0
 42
3.5
  3
TXT
  4

  0
ENDTAB
  0
TABLE
  2
VIEW
  5
6
330
0
100
AcDbSymbolTable
 70
     0
  0
ENDTAB
  0
TABLE
  2
UCS
  5
7
330
0
100
AcDbSymbolTable
 70
     0
  0
ENDTAB
  0
TABLE
  2
APPID
  5
9
330
0
100
AcDbSymbolTable
 70
     1
  0
APPID
  5
12
330
9
100
AcDbSymbolTableRecord
100
AcDbRegAppTableRecord
  2
ACAD
 70
     0
  0
ENDTAB
  0
TABLE
  2
DIMSTYLE
  5
A
330
0
100
AcDbSymbolTable
 70
     3
100
AcDbDimStyleTable
  0
DIMSTYLE
105
27
330
A
100
AcDbSymbolTableRecord
100
AcDbDimStyleTableRecord
  2
ISO-25
 70
     0
 41
2.5
 42
0.625
 43
3.75
 44
1.25
 73
     0
 74
     0
 77
     1
 78
     8
140
2.5
141
2.5
143
0.03937007874016
147
0.625
171
     3
172
     1
178
     0
271
     2
272
     2
274
     3
278
    44
283
     0
284
     8
340
11
  0
DIMSTYLE
105
EC
102
{ACAD_REACTORS
330
EB
330
100
330
114
330
127
102
}
330
A
100
AcDbSymbolTableRecord
100
AcDbDimStyleTableRecord
  2
SLDDIMSTYLE0
 70
     0
 41
3.302
 44
0.0
 45
0.000000001
 73
     0
 74
     0
 77
     1
 78
     4
 79
     1
140
3.5
143
0.0393700787401575
147
0.875
148
0.000000001
170
     1
172
     1
173
     1
178
     0
271
     2
272
     2
276
     2
284
    12
289
     0
340
94
  0
DIMSTYLE
105
101
330
A
100
AcDbSymbolTableRecord
100
AcDbDimStyleTableRecord
  2
SLDDIMSTYLE1
 70
     0
 41
3.302
 44
0.0
 45
0.000000001
 73
     0
 74
     0
 77
     1
 78
     4
 79
     1
140
3.5
143
0.0393700787401575
147
0.875
148
0.000000001
170
     1
173
     1
178
     0
271
     2
272
     2
276
     2
284
    12
340
94
  0
ENDTAB
  0
TABLE
  2
BLOCK_RECORD
  5
1
330
0
100
AcDbSymbolTable
 70
    10
  0
BLOCK_RECORD
  5
1F
330
1
100
AcDbSymbolTableRecord
100
AcDbBlockTableRecord
  2
*Model_Space
340
22
  0
BLOCK_RECORD
  5
1B
330
1
100
AcDbSymbolTableRecord
100
AcDbBlockTableRecord
  2
*Paper_Space
340
1E
  0
BLOCK_RECORD
  5
23
330
1
100
AcDbSymbolTableRecord
100
AcDbBlockTableRecord
  2
*Paper_Space0
340
26
  0
BLOCK_RECORD
  5
7F
330
1
100
AcDbSymbolTableRecord
100
AcDbBlockTableRecord
  2
블럭10
340
0
102
{BLKREFS
331
E4
102
}
  0
BLOCK_RECORD
  5
ED
330
1
100
AcDbSymbolTableRecord
100
AcDbBlockTableRecord
  2
_D
340
0
  0
BLOCK_RECORD
  5
102
330
1
100
AcDbSymbolTableRecord
100
AcDbBlockTableRecord
  2
_D_1
340
0
  0
BLOCK_RECORD
  5
115
330
1
100
AcDbSymbolTableRecord
100
AcDbBlockTableRecord
  2
_D_2
340
0
  0
BLOCK_RECORD
  5
128
330
1
100
AcDbSymbolTableRecord
100
AcDbBlockTableRecord
  2
_D_3
340
0
  0
BLOCK_RECORD
  5
141
330
1
100
AcDbSymbolTableRecord
100
AcDbBlockTableRecord
  2
SW_DOWELSYMBOL_0
340
0
102
{BLKREFS
331
147
102
}
  0
ENDTAB
  0
ENDSEC
  0
SECTION
  2
BLOCKS
  0
BLOCK
  5
20
330
1F
100
AcDbEntity
  8
0
100
AcDbBlockBegin
  2
*Model_Space
 70
     0
 10
0.0
 20
0.0
 30
0.0
  3
*Model_Space
  1
*Model_Space
  0
ENDBLK
  5
21
330
1F
100
AcDbEntity
  8
0
100
AcDbBlockEnd
  0
BLOCK
  5
1C
330
1B
100
AcDbEntity
 67
     1
  8
0
100
AcDbBlockBegin
  2
*Paper_Space
 70
     0
 10
0.0
 20
0.0
 30
0.0
  3
*Paper_Space
  1
*Paper_Space
  0
ENDBLK
  5
1D
330
1B
100
AcDbEntity
 67
     1
  8
0
100
AcDbBlockEnd
  0
BLOCK
  5
24
330
23
100
AcDbEntity
  8
0
100
AcDbBlockBegin
  2
*Paper_Space0
 70
     0
 10
0.0
 20
0.0
 30
0.0
  3
*Paper_Space0
  1
*Paper_Space0
  0
ENDBLK
  5
25
330
23
100
AcDbEntity
  8
0
100
AcDbBlockEnd
  0
BLOCK
  5
80
330
7F
100
AcDbEntity
  8
0
100
AcDbBlockBegin
  2
블럭10
 70
     2
 10
0.0
 20
0.0
 30
0.0
  3
블럭10
  1
블럭10
  0
ELLIPSE
  5
82
330
7F
100
AcDbEntity
  8
중심선
100
AcDbEllipse
 10
20.54032771741204
 20
12.0471743016438
 30
0.0
 11
6.600054785286829
 21
-1.261213355974178E-13
 31
0.0
210
0.0
220
0.0
230
1.0
 40
0.636358354079598
 41
0.9219305317359503
 42
6.513795318482858
  0
ELLIPSE
  5
83
330
7F
100
AcDbEntity
  8
중심선
100
AcDbEllipse
 10
20.54032771746488
 20
12.04717430159265
 30
0.0
 11
3.960054785062283
 21
1.540847449632565E-10
 31
0.0
210
0.0
220
0.0
230
1.0
 40
0.3939339440162632
 41
1.131841032648279
 42
5.62031148352944
  0
LINE
  5
84
330
7F
100
AcDbEntity
  8
중심선
100
AcDbLine
 10
2.268634060543552
 20
16.24717430164393
 30
0.0
 11
5.714909304380834
 21
16.24717430164393
 31
0.0
  0
LINE
  5
85
330
7F
100
AcDbEntity
  8
중심선
100
AcDbLine
 10
5.245725140726316
 20
7.84717430164391
 30
0.0
 11
8.692000384563599
 21
7.84717430164391
 31
0.0
  0
LINE
  5
86
330
7F
100
AcDbEntity
  8
중심선
100
AcDbLine
 10
15.74043728645272
 20
16.24717430164393
 30
0.0
 11
8.692000384563599
 21
7.84717430164391
 31
0.0
  0
LINE
  5
87
330
7F
100
AcDbEntity
  8
중심선
100
AcDbLine
 10
0.1404042013395286
 20
13.71084872107135
 30
0.0
 11
3.58671253028996
 21
13.71088815037384
 31
0.0
  0
LINE
  5
88
330
7F
100
AcDbEntity
  8
중심선
100
AcDbLine
 10
2.750260043222114
 20
10.84717430164391
 30
0.0
 11
6.196535287059397
 21
10.84717430164391
 31
0.0
  0
LINE
  5
89
330
7F
100
AcDbEntity
  8
중심선
100
AcDbLine
 10
12.29416204261559
 20
16.24717430164393
 30
0.0
 11
5.245725140726316
 21
7.84717430164391
 31
0.0
  0
LINE
  5
8A
330
7F
100
AcDbEntity
  8
중심선
100
AcDbLine
 10
10.72767329541681
 20
16.24717430164393
 30
0.0
 11
6.196535287059397
 21
10.84717430164391
 31
0.0
  0
LINE
  5
8B
330
7F
100
AcDbEntity
  8
중심선
100
AcDbLine
 10
7.28139805157953
 20
16.24717430164393
 30
0.0
 11
2.750260043222114
 21
10.84717430164391
 31
0.0
  0
LINE
  5
8C
330
7F
100
AcDbEntity
  8
중심선
100
AcDbLine
 10
5.714909304380834
 20
16.24717430164393
 30
0.0
 11
3.58671253028996
 21
13.71088815037384
 31
0.0
  0
LINE
  5
8D
330
7F
100
AcDbEntity
  8
중심선
100
AcDbLine
 10
2.268634060543552
 20
16.24717430164393
 30
0.0
 11
0.1404042013395286
 21
13.71084872107135
 31
0.0
  0
LINE
  5
8E
330
7F
100
AcDbEntity
  8
중심선
100
AcDbLine
 10
7.28139805157953
 20
16.24717430164393
 30
0.0
 11
10.72767329541681
 21
16.24717430164393
 31
0.0
  0
LINE
  5
8F
330
7F
100
AcDbEntity
  8
중심선
100
AcDbLine
 10
12.29416204261559
 20
16.24717430164393
 30
0.0
 11
15.74043728645272
 21
16.24717430164393
 31
0.0
  0
LINE
  5
90
330
7F
100
AcDbEntity
  8
중심선
100
AcDbLine
 10
19.22036997980202
 20
11.08717430171403
 30
0.0
 11
23.66174974927406
 21
11.08717430171406
 31
0.0
  0
LINE
  5
91
330
7F
100
AcDbEntity
  8
중심선
100
AcDbLine
 10
19.22039502424796
 20
13.00717430171391
 30
0.0
 11
19.22036997980202
 21
11.08717430171403
 31
0.0
  0
LINE
  5
92
330
7F
100
AcDbEntity
  8
중심선
100
AcDbLine
 10
19.22039502424796
 20
13.00717430171391
 30
0.0
 11
26.96566020931264
 21
13.00717430171391
 31
0.0
  0
LINE
  5
93
330
7F
100
AcDbEntity
  8
중심선
100
AcDbLine
 10
22.22332737316547
 20
13.45928029700563
 30
0.0
 11
24.52862924686651
 21
15.39360700705356
 31
0.0
  0
ATTDEF
  5
95
330
7F
100
AcDbEntity
  8
FORMAT
 62
     2
100
AcDbText
 10
4.408487351596664
 20
2.075366912832191
 30
0.0
 40
4.233333333333333
  1
E1162032
 41
0.75
  7
SLDTEXTSTYLE0
 11
4.408487351596664
 21
-0.0412997538344756
 31
0.0
100
AcDbAttributeDefinition
  3

  2
AUTOATTR0
 70
     0
 74
     1
  0
ENDBLK
  5
81
330
7F
100
AcDbEntity
  8
0
100
AcDbBlockEnd
  0
BLOCK
  5
EE
330
ED
100
AcDbEntity
  8
0
100
AcDbBlockBegin
  2
_D
 70
     0
 10
0.0
 20
0.0
 30
0.0
  3
_D
  1
_D
  0
LINE
  5
F0
330
ED
100
AcDbEntity
  8
치수문자_일반주서
 62
     0
370
    -2
100
AcDbLine
 10
-37.59250000000003
 20
6.351074928723889
 30
0.0
 11
-52.11750000000006
 21
6.351074928723834
 31
0.0
  0
LINE
  5
F1
330
ED
100
AcDbEntity
  8
치수문자_일반주서
 62
     0
370
    -2
100
AcDbLine
 10
-37.59250000000003
 20
-6.3489250712761
 30
0.0
 11
-52.11750000000002
 21
-6.348925071276155
 31
0.0
  0
LINE
  5
F2
330
ED
100
AcDbEntity
  8
치수문자_일반주서
 62
     0
370
    -2
100
AcDbLine
 10
-52.11750000000005
 20
3.049074928723835
 30
0.0
 11
-52.11750000000004
 21
-3.046925071276156
 31
0.0
  0
SOLID
  5
F3
330
ED
100
AcDbEntity
  8
치수문자_일반주서
 62
     0
100
AcDbTrace
 10
-51.56716666666672
 20
3.049074928723837
 30
0.0
 11
-52.66783333333338
 21
3.049074928723833
 31
0.0
 12
-52.11750000000006
 22
6.351074928723834
 32
0.0
 13
-52.11750000000006
 23
6.351074928723834
 33
0.0
  0
SOLID
  5
F4
330
ED
100
AcDbEntity
  8
치수문자_일반주서
 62
     0
100
AcDbTrace
 10
-52.66783333333337
 20
-3.046925071276157
 30
0.0
 11
-51.5671666666667
 21
-3.046925071276154
 31
0.0
 12
-52.11750000000002
 22
-6.348925071276155
 32
0.0
 13
-52.11750000000002
 23
-6.348925071276155
 33
0.0
  0
MTEXT
  5
F5
330
ED
100
AcDbEntity
  8
치수문자_일반주서
 62
     0
100
AcDbMText
 10
-56.49250000000004
 20
0.0010749287238751
 30
0.0
 40
3.5
 41
0.0
 71
     2
 72
     1
  1
\A1;%%c12.70 [1/2]
  7
SLDTEXTSTYLE0
 11
-3.356894814614650E-15
 21
1.0
 31
0.0
 73
     1
 44
1.0
  0
POINT
  5
F6
330
ED
100
AcDbEntity
  8
Defpoints
 62
     0
100
AcDbPoint
 10
-37.53000000000003
 20
6.351074928723889
 30
0.0
  0
POINT
  5
F7
330
ED
100
AcDbEntity
  8
Defpoints
 62
     0
100
AcDbPoint
 10
-37.53000000000003
 20
-6.3489250712761
 30
0.0
  0
POINT
  5
F8
330
ED
100
AcDbEntity
  8
Defpoints
 62
     0
100
AcDbPoint
 10
-52.11750000000002
 20
-6.348925071276154
 30
0.0
  0
ENDBLK
  5
EF
330
ED
100
AcDbEntity
  8
0
100
AcDbBlockEnd
  0
BLOCK
  5
103
330
102
100
AcDbEntity
  8
0
100
AcDbBlockBegin
  2
_D_1
 70
     0
 10
0.0
 20
0.0
 30
0.0
  3
_D_1
  1
_D_1
  0
LINE
  5
105
330
102
100
AcDbEntity
  8
치수문자_일반주서
 62
     0
370
    -2
100
AcDbLine
 10
62.79999999999998
 20
6.413574928723898
 30
0.0
 11
62.79999999999998
 21
28.8447226675572
 31
0.0
  0
LINE
  5
106
330
102
100
AcDbEntity
  8
치수문자_일반주서
 62
     0
370
    -2
100
AcDbLine
 10
11.99999999999997
 20
6.205440426774607
 30
0.0
 11
11.99999999999997
 21
28.8447226675572
 31
0.0
  0
LINE
  5
107
330
102
100
AcDbEntity
  8
치수문자_일반주서
 62
     0
370
    -2
100
AcDbLine
 10
59.49799999999998
 20
28.8447226675572
 30
0.0
 11
15.30199999999997
 21
28.8447226675572
 31
0.0
  0
SOLID
  5
108
330
102
100
AcDbEntity
  8
치수문자_일반주서
 62
     0
100
AcDbTrace
 10
59.49799999999998
 20
28.29438933422387
 30
0.0
 11
59.49799999999998
 21
29.39505600089053
 31
0.0
 12
62.79999999999998
 22
28.8447226675572
 32
0.0
 13
62.79999999999998
 23
28.8447226675572
 33
0.0
  0
SOLID
  5
109
330
102
100
AcDbEntity
  8
치수문자_일반주서
 62
     0
100
AcDbTrace
 10
15.30199999999997
 20
29.39505600089053
 30
0.0
 11
15.30199999999997
 21
28.29438933422387
 31
0.0
 12
11.99999999999997
 22
28.8447226675572
 32
0.0
 13
11.99999999999997
 23
28.8447226675572
 33
0.0
  0
MTEXT
  5
10A
330
102
100
AcDbEntity
  8
치수문자_일반주서
 62
     0
100
AcDbMText
 10
37.39999999999996
 20
33.2197226675572
 30
0.0
 40
3.5
 41
0.0
 71
     2
 72
     1
  1
\A1;50.80 [2]
  7
SLDTEXTSTYLE0
 73
     1
 44
1.0
  0
POINT
  5
10B
330
102
100
AcDbEntity
  8
Defpoints
 62
     0
100
AcDbPoint
 10
62.79999999999998
 20
6.351074928723898
 30
0.0
  0
POINT
  5
10C
330
102
100
AcDbEntity
  8
Defpoints
 62
     0
100
AcDbPoint
 10
11.99999999999997
 20
6.142940426774607
 30
0.0
  0
POINT
  5
10D
330
102
100
AcDbEntity
  8
Defpoints
 62
     0
100
AcDbPoint
 10
11.99999999999997
 20
28.8447226675572
 30
0.0
  0
ENDBLK
  5
104
330
102
100
AcDbEntity
  8
0
100
AcDbBlockEnd
  0
BLOCK
  5
116
330
115
100
AcDbEntity
  8
0
100
AcDbBlockBegin
  2
_D_2
 70
     0
 10
0.0
 20
0.0
 30
0.0
  3
_D_2
  1
_D_2
  0
LINE
  5
118
330
115
100
AcDbEntity
  8
치수문자_일반주서
 62
     0
370
    -2
100
AcDbLine
 10
62.79999999999998
 20
6.413574928723898
 30
0.0
 11
62.79999999999997
 21
40.84472266755721
 31
0.0
  0
LINE
  5
119
330
115
100
AcDbEntity
  8
치수문자_일반주서
 62
     0
370
    -2
100
AcDbLine
 10
-38.80000000000003
 20
5.1435749287239
 30
0.0
 11
-38.80000000000003
 21
40.84472266755721
 31
0.0
  0
LINE
  5
11A
330
115
100
AcDbEntity
  8
치수문자_일반주서
 62
     0
370
    -2
100
AcDbLine
 10
59.49799999999997
 20
40.84472266755721
 30
0.0
 11
-35.49800000000003
 21
40.84472266755721
 31
0.0
  0
SOLID
  5
11B
330
115
100
AcDbEntity
  8
치수문자_일반주서
 62
     0
100
AcDbTrace
 10
59.49799999999997
 20
40.29438933422387
 30
0.0
 11
59.49799999999997
 21
41.39505600089054
 31
0.0
 12
62.79999999999997
 22
40.84472266755721
 32
0.0
 13
62.79999999999997
 23
40.84472266755721
 33
0.0
  0
SOLID
  5
11C
330
115
100
AcDbEntity
  8
치수문자_일반주서
 62
     0
100
AcDbTrace
 10
-35.49800000000003
 20
41.39505600089054
 30
0.0
 11
-35.49800000000003
 21
40.29438933422387
 31
0.0
 12
-38.80000000000003
 22
40.84472266755721
 32
0.0
 13
-38.80000000000003
 23
40.84472266755721
 33
0.0
  0
MTEXT
  5
11D
330
115
100
AcDbEntity
  8
치수문자_일반주서
 62
     0
100
AcDbMText
 10
11.99999999999998
 20
45.21972266755721
 30
0.0
 40
3.5
 41
0.0
 71
     2
 72
     1
  1
\A1;101.60 [4]
  7
SLDTEXTSTYLE0
 73
     1
 44
1.0
  0
POINT
  5
11E
330
115
100
AcDbEntity
  8
Defpoints
 62
     0
100
AcDbPoint
 10
62.79999999999998
 20
6.351074928723898
 30
0.0
  0
POINT
  5
11F
330
115
100
AcDbEntity
  8
Defpoints
 62
     0
100
AcDbPoint
 10
-38.80000000000003
 20
5.0810749287239
 30
0.0
  0
POINT
  5
120
330
115
100
AcDbEntity
  8
Defpoints
 62
     0
100
AcDbPoint
 10
-38.80000000000003
 20
40.84472266755721
 30
0.0
  0
ENDBLK
  5
117
330
115
100
AcDbEntity
  8
0
100
AcDbBlockEnd
  0
BLOCK
  5
129
330
128
100
AcDbEntity
  8
0
100
AcDbBlockBegin
  2
_D_3
 70
     0
 10
0.0
 20
0.0
 30
0.0
  3
_D_3
  1
_D_3
  0
LINE
  5
12B
330
128
100
AcDbEntity
  8
치수문자_일반주서
 62
     0
370
    -2
100
AcDbLine
 10
62.86249999999998
 20
6.351074928723898
 30
0.0
 11
81.18080630899337
 21
6.351074928723968
 31
0.0
  0
LINE
  5
12C
330
128
100
AcDbEntity
  8
치수문자_일반주서
 62
     0
370
    -2
100
AcDbLine
 10
62.86249999999998
 20
-6.348925071276108
 30
0.0
 11
81.18080630899341
 21
-6.348925071276035
 31
0.0
  0
LINE
  5
12D
330
128
100
AcDbEntity
  8
치수문자_일반주서
 62
     0
370
    -2
100
AcDbLine
 10
81.18080630899337
 20
6.351074928723968
 30
0.0
 11
81.18080630899325
 21
40.08007492872396
 31
0.0
  0
LINE
  5
12E
330
128
100
AcDbEntity
  8
치수문자_일반주서
 62
     0
370
    -2
100
AcDbLine
 10
81.18080630899337
 20
6.351074928723968
 30
0.0
 11
81.18080630899341
 21
-6.348925071276035
 31
0.0
  0
LINE
  5
12F
330
128
100
AcDbEntity
  8
치수문자_일반주서
 62
     0
370
    -2
100
AcDbLine
 10
81.18080630899335
 20
9.653074928723967
 30
0.0
 11
81.18080630899334
 21
12.95507492872397
 31
0.0
  0
LINE
  5
130
330
128
100
AcDbEntity
  8
치수문자_일반주서
 62
     0
370
    -2
100
AcDbLine
 10
81.18080630899343
 20
-9.650925071276035
 30
0.0
 11
81.18080630899344
 21
-12.95292507127603
 31
0.0
  0
SOLID
  5
131
330
128
100
AcDbEntity
  8
치수문자_일반주서
 62
     0
100
AcDbTrace
 10
80.63047297566003
 20
9.653074928723965
 30
0.0
 11
81.73113964232668
 21
9.653074928723969
 31
0.0
 12
81.18080630899337
 22
6.351074928723968
 32
0.0
 13
81.18080630899337
 23
6.351074928723968
 33
0.0
  0
SOLID
  5
132
330
128
100
AcDbEntity
  8
치수문자_일반주서
 62
     0
100
AcDbTrace
 10
81.73113964232675
 20
-9.650925071276033
 30
0.0
 11
80.6304729756601
 21
-9.650925071276037
 31
0.0
 12
81.18080630899341
 22
-6.348925071276035
 32
0.0
 13
81.18080630899341
 23
-6.348925071276035
 33
0.0
  0
MTEXT
  5
133
330
128
100
AcDbEntity
  8
치수문자_일반주서
 62
     0
100
AcDbMText
 10
76.8058063089933
 20
26.73632492872395
 30
0.0
 40
3.5
 41
0.0
 71
     2
 72
     1
  1
\A1;%%c12.70 [1/2]
  7
SLDTEXTSTYLE0
 11
-3.356894814614645E-15
 21
1.0
 31
0.0
 73
     1
 44
1.0
  0
POINT
  5
134
330
128
100
AcDbEntity
  8
Defpoints
 62
     0
100
AcDbPoint
 10
62.79999999999998
 20
6.351074928723898
 30
0.0
  0
POINT
  5
19A
330
128
100
AcDbEntity
  8
Defpoints
 62
     0
100
AcDbPoint
 10
62.79999999999998
 20
-6.348925071276108
 30
0.0
  0
POINT
  5
19B
330
128
100
AcDbEntity
  8
Defpoints
 62
     0
100
AcDbPoint
 10
81.18080630899341
 20
-6.34892507127604
 30
0.0
  0
ENDBLK
  5
12A
330
128
100
AcDbEntity
  8
0
100
AcDbBlockEnd
  0
BLOCK
  5
142
330
141
100
AcDbEntity
  8
0
100
AcDbBlockBegin
  2
SW_DOWELSYMBOL_0
 70
     0
 10
0.0
 20
0.0
 30
0.0
  3
SW_DOWELSYMBOL_0
  1
SW_DOWELSYMBOL_0
  0
CIRCLE
  5
144
330
141
100
AcDbEntity
  8
해칭선
 62
     0
100
AcDbCircle
 10
0.0
 20
0.0
 30
0.0
 40
3.000000000000001
  0
HATCH
  5
145
330
141
100
AcDbEntity
  8
0
  6
Continuous
 62
     0
370
     0
100
AcDbHatch
 10
0.0
 20
0.0
 30
0.0
210
0.0
220
0.0
230
1.0
  2
SOLID
 70
     1
 71
     0
 91
        1
 92
        0
 93
        3
 72
     2
 10
0.0
 20
0.0
 40
3.000000000000001
 50
0.0
 51
90.0
 73
     1
 72
     1
 10
0.0
 20
3.000000000000001
 11
0.0
 21
0.0
 72
     1
 10
0.0
 20
0.0
 11
3.000000000000001
 21
0.0
 97
        0
 75
     0
 76
     1
 98
        1
 10
0.0
 20
0.0
  0
HATCH
  5
146
330
141
100
AcDbEntity
  8
0
  6
Continuous
 62
     0
370
     0
100
AcDbHatch
 10
0.0
 20
0.0
 30
0.0
210
0.0
220
0.0
230
1.0
  2
SOLID
 70
     1
 71
     0
 91
        1
 92
        0
 93
        3
 72
     2
 10
0.0
 20
0.0
 40
3.000000000000001
 50
180.0
 51
270.0000000000008
 73
     1
 72
     1
 10
0.0
 20
-3.000000000000001
 11
0.0
 21
0.0
 72
     1
 10
0.0
 20
0.0
 11
-3.000000000000001
 21
0.0
 97
        0
 75
     0
 76
     1
 98
        1
 10
0.0
 20
0.0
  0
ENDBLK
  5
143
330
141
100
AcDbEntity
  8
0
100
AcDbBlockEnd
  0
ENDSEC
  0
SECTION
  2
ENTITIES
  0
LINE
  5
96
330
1F
100
AcDbEntity
  8
0
  6
Continuous
 62
     1
370
    15
100
AcDbLine
 10
48.16474708055389
 20
-1.214230913143255
 30
0.0
 11
48.22100864071544
 21
-1.268875564107203
 31
0.0
  0
LINE
  5
97
330
1F
100
AcDbEntity
  8
0
  6
Continuous
 62
     1
370
    15
100
AcDbLine
 10
62.03165077521057
 20
-6.348925071276108
 30
0.0
 11
62.79999999999998
 21
-6.348925071276108
 31
0.0
  0
LINE
  5
98
330
1F
100
AcDbEntity
  8
0
  6
Continuous
 62
     1
370
    15
100
AcDbLine
 10
22.13466703116094
 20
-6.348925071276108
 30
0.0
 11
23.67044755051349
 21
-6.348925071276108
 31
0.0
  0
LINE
  5
99
330
1F
100
AcDbEntity
  8
0
  6
Continuous
 62
     1
370
    15
100
AcDbLine
 10
43.61732446258811
 20
6.351074928723898
 30
0.0
 11
42.08343611786415
 21
6.351074928723898
 31
0.0
  0
LINE
  5
9A
330
1F
100
AcDbEntity
  8
0
  6
Continuous
 62
     1
370
    15
100
AcDbLine
 10
35.43459938635978
 20
-6.348925071276108
 30
0.0
 11
36.9681855126218
 21
-6.348925071276108
 31
0.0
  0
LINE
  5
9B
330
1F
100
AcDbEntity
  8
0
  6
Continuous
 62
     1
370
    15
100
AcDbLine
 10
17.02006086550644
 20
6.351074928723898
 30
0.0
 11
15.48379097642934
 21
6.351074928723898
 31
0.0
  0
LINE
  5
9C
330
1F
100
AcDbEntity
  8
0
  6
Continuous
 62
     1
370
    15
100
AcDbLine
 10
56.91776837071617
 20
6.351074928723898
 30
0.0
 11
55.38156201085196
 21
6.351074928723898
 31
0.0
  0
LINE
  5
9D
330
1F
100
AcDbEntity
  8
0
  6
Continuous
 62
     1
370
    15
100
AcDbLine
 10
42.08343611786415
 20
-6.348925071276108
 30
0.0
 11
43.61732446258807
 21
-6.348925071276108
 31
0.0
  0
LINE
  5
9E
330
1F
100
AcDbEntity
  8
0
  6
Continuous
 62
     1
370
    15
100
AcDbLine
 10
23.67044755051345
 20
6.351074928723898
 30
0.0
 11
22.13466703116094
 21
6.351074928723898
 31
0.0
  0
LINE
  5
9F
330
1F
100
AcDbEntity
  8
0
  6
Continuous
 62
     1
370
    15
100
AcDbLine
 10
62.79999999999998
 20
6.351074928723898
 30
0.0
 11
62.03165077521054
 21
6.351074928723898
 31
0.0
  0
LINE
  5
A0
330
1F
100
AcDbEntity
  8
0
  6
Continuous
 62
     1
370
    15
100
AcDbLine
 10
28.78500689916179
 20
-6.348925071276108
 30
0.0
 11
30.31954700987362
 21
-6.348925071276108
 31
0.0
  0
LINE
  5
A1
330
1F
100
AcDbEntity
  8
0
  6
Continuous
 62
     1
370
    15
100
AcDbLine
 10
50.26726289294859
 20
6.351074928723898
 30
0.0
 11
48.73219432829984
 21
6.351074928723898
 31
0.0
  0
LINE
  5
A2
330
1F
100
AcDbEntity
  8
0
  6
Continuous
 62
     1
370
    15
100
AcDbLine
 10
55.38156201085193
 20
-6.348925071276108
 30
0.0
 11
56.91776837071617
 21
-6.348925071276108
 31
0.0
  0
LINE
  5
A3
330
1F
100
AcDbEntity
  8
0
  6
Continuous
 62
     1
370
    15
100
AcDbLine
 10
15.48379097642931
 20
-6.348925071276108
 30
0.0
 11
17.02006086550645
 21
-6.348925071276108
 31
0.0
  0
LINE
  5
A4
330
1F
100
AcDbEntity
  8
0
  6
Continuous
 62
     1
370
    15
100
AcDbLine
 10
36.9681855126218
 20
6.351074928723898
 30
0.0
 11
35.43459938635972
 21
6.351074928723898
 31
0.0
  0
LINE
  5
A5
330
1F
100
AcDbEntity
  8
0
  6
Continuous
 62
     1
370
    15
100
AcDbLine
 10
48.73219432829979
 20
-6.348925071276108
 30
0.0
 11
50.26726289294856
 21
-6.348925071276108
 31
0.0
  0
LINE
  5
A6
330
1F
100
AcDbEntity
  8
0
  6
Continuous
 62
     1
370
    15
100
AcDbLine
 10
30.31954700987358
 20
6.351074928723898
 30
0.0
 11
28.78500689916174
 21
6.351074928723898
 31
0.0
  0
LINE
  5
A7
330
1F
100
AcDbEntity
  8
외형선
  6
Continuous
370
    15
100
AcDbLine
 10
-37.53000000000002
 20
-6.348925071276105
 30
0.0
 11
11.00037522306452
 21
-6.348925071276105
 31
0.0
  0
LINE
  5
A8
330
1F
100
AcDbEntity
  8
외형선
  6
Continuous
370
    15
100
AcDbLine
 10
11.00037522306452
 20
6.351074928723895
 30
0.0
 11
-9.066125000000005
 21
6.351074928723895
 31
0.0
  0
LINE
  5
A9
330
1F
100
AcDbEntity
  8
외형선
  6
Continuous
370
    15
100
AcDbLine
 10
-37.53000000000002
 20
6.351074928723896
 30
0.0
 11
-38.80000000000003
 21
5.0810749287239
 31
0.0
  0
LINE
  5
AA
330
1F
100
AcDbEntity
  8
외형선
  6
Continuous
370
    15
100
AcDbLine
 10
-38.80000000000003
 20
-5.078925071276109
 30
0.0
 11
-37.53000000000002
 21
-6.348925071276105
 31
0.0
  0
LINE
  5
AB
330
1F
100
AcDbEntity
  8
0
  6
Continuous
 62
     1
370
    15
100
AcDbLine
 10
62.79999999999998
 20
3.811353000759351
 30
0.0
 11
62.79999999999998
 21
6.30473612696644
 31
0.0
  0
SPLINE
  5
AC
330
1F
100
AcDbEntity
  8
0
  6
Continuous
 62
     1
370
    15
100
AcDbSpline
210
0.0
220
0.0
230
1.0
 70
     8
 71
     3
 72
    26
 73
    22
 74
     0
 42
0.000000001
 43
0.00000001
 40
0.0
 40
0.0
 40
0.0
 40
0.0
 40
0.0202273509854716
 40
0.0777314444747642
 40
0.1352320244456582
 40
0.1927839053619784
 40
0.250385435239188
 40
0.307913319051497
 40
0.3654088927428268
 40
0.4229270426097237
 40
0.4805196100295101
 40
0.5380862862611357
 40
0.5955919835215465
 40
0.6530914428829583
 40
0.7106394948854311
 40
0.7682424451582066
 40
0.8257733557676499
 40
0.8832692390885001
 40
0.9407849769736241
 40
0.9983739571556824
 40
1.0
 40
1.0
 40
1.0
 40
1.0
 10
17.02006086550645
 20
6.328146563051308
 30
0.0
 10
17.17188753297332
 20
6.333539213630684
 30
0.0
 10
17.7553404122191
 20
6.354262565857261
 30
0.0
 10
18.76922572862833
 20
6.145211037429164
 30
0.0
 10
20.0633117449914
 20
5.676616552107761
 30
0.0
 10
21.35863630508886
 20
4.95850256618276
 30
0.0
 10
22.65524036236729
 20
4.039306468182564
 30
0.0
 10
23.94996260662432
 20
2.950971831506054
 30
0.0
 10
25.24385450980853
 20
1.740965271271825
 30
0.0
 10
26.53832219150017
 20
0.4583940111729417
 30
0.0
 10
27.83469571155547
 20
-0.8422999129220714
 30
0.0
 10
29.13041800613136
 20
-2.108508191968649
 30
0.0
 10
30.42455573009815
 20
-3.287418996669102
 30
0.0
 10
31.71853490831675
 20
-4.329965271846398
 30
0.0
 10
33.01378225363069
 20
-5.192933608168106
 30
0.0
 10
34.31041727405103
 20
-5.840715210405638
 30
0.0
 10
35.60521631100747
 20
-6.244846154200968
 30
0.0
 10
36.899129011138
 20
-6.397346550314363
 30
0.0
 10
38.19347842152744
 20
-6.256954556673688
 30
0.0
 10
39.06991806648708
 20
-6.056635118160777
 30
0.0
 10
39.51427899286968
 20
-5.843453382955634
 30
0.0
 10
39.52648113124118
 20
-5.837599418583872
 30
0.0
  0
SPLINE
  5
AD
330
1F
100
AcDbEntity
  8
0
  6
Continuous
 62
     1
370
    15
100
AcDbSpline
210
0.0
220
0.0
230
1.0
 70
     8
 71
     3
 72
    12
 73
     8
 74
     0
 42
0.000000001
 43
0.00000001
 40
0.0
 40
0.0
 40
0.0
 40
0.0
 40
0.1194902622669287
 40
0.3396401612650715
 40
0.5596352602745759
 40
0.7796854923741122
 40
1.0
 40
1.0
 40
1.0
 40
1.0
 10
56.91776837071617
 20
6.318288175115787
 30
0.0
 10
57.1522107064994
 20
6.323509163066923
 30
0.0
 10
57.81859164183373
 20
6.338349344651983
 30
0.0
 10
58.91572680479989
 20
6.07416069166686
 30
0.0
 10
60.20964559660592
 20
5.555260464827285
 30
0.0
 10
61.50393226290471
 20
4.804631263707043
 30
0.0
 10
62.36780460943387
 20
4.145711932239209
 30
0.0
 10
62.80000000000001
 20
3.816054548298726
 30
0.0
  0
SPLINE
  5
AE
330
1F
100
AcDbEntity
  8
0
  6
Continuous
 62
     1
370
    15
100
AcDbSpline
210
0.0
220
0.0
230
1.0
 70
     8
 71
     3
 72
    10
 73
     6
 74
     0
 42
0.000000001
 43
0.00000001
 40
0.0
 40
0.0
 40
0.0
 40
0.0
 40
0.3898237108758428
 40
0.7791798135697042
 40
1.0
 40
1.0
 40
1.0
 40
1.0
 10
62.03165077521054
 20
6.351074928723898
 30
0.0
 10
61.74138869018966
 20
6.34716863173634
 30
0.0
 10
61.50392764052157
 20
6.378567760881354
 30
0.0
 10
60.39624098618538
 20
6.188169801475206
 30
0.0
 10
59.72033002976079
 20
5.912915345355061
 30
0.0
 10
59.47572074869185
 20
5.81330193624756
 30
0.0
  0
SPLINE
  5
AF
330
1F
100
AcDbEntity
  8
0
  6
Continuous
 62
     1
370
    15
100
AcDbSpline
210
0.0
220
0.0
230
1.0
 70
     8
 71
     3
 72
    26
 73
    22
 74
     0
 42
0.000000001
 43
0.00000001
 40
0.0
 40
0.0
 40
0.0
 40
0.0
 40
0.0001578173082662
 40
0.0576636381627465
 40
0.1152331354323749
 40
0.1728204982759253
 40
0.23033462087949
 40
0.2878288894763809
 40
0.3453581843781529
 40
0.4029595169200811
 40
0.4605059527334811
 40
0.5180037972705016
 40
0.5755078795313366
 40
0.6330729390508428
 40
0.6906638890313767
 40
0.7481804235489763
 40
0.8056743825250413
 40
0.8632006507146834
 40
0.9208005629009373
 40
0.9783508275206513
 40
1.0
 40
1.0
 40
1.0
 40
1.0
 10
42.08343611786415
 20
-6.348565103073578
 30
0.0
 10
42.08225253534059
 20
-6.348685059363857
 30
0.0
 10
41.64979252747629
 20
-6.392514954791276
 30
0.0
 10
40.78565012475368
 20
-6.239536138140486
 30
0.0
 10
39.48980202425788
 20
-5.872474064063212
 30
0.0
 10
38.19352221899113
 20
-5.229828023832821
 30
0.0
 10
36.89911728673673
 20
-4.378625619985532
 30
0.0
 10
35.60521945409138
 20
-3.343797450638172
 30
0.0
 10
34.31041643047637
 20
-2.170583761706856
 30
0.0
 10
33.01378247943302
 20
-0.9081683059044341
 30
0.0
 10
31.71853484833693
 20
0.3927531292455401
 30
0.0
 10
30.42455574451661
 20
1.677266089330567
 30
0.0
 10
29.13041800841982
 20
2.89240562370237
 30
0.0
 10
27.83469568793174
 20
3.987537803433649
 30
0.0
 10
26.53832228369456
 20
4.917079523706402
 30
0.0
 10
25.2438541652138
 20
5.643689075882226
 30
0.0
 10
23.94996389275553
 20
6.135086295459793
 30
0.0
 10
22.65523555670362
 20
6.376452792219621
 30
0.0
 10
21.35865425879325
 20
6.33797085832123
 30
0.0
 10
20.33223058535424
 20
6.1453829129345
 30
0.0
 10
19.7382738310424
 20
5.885612089853787
 30
0.0
 10
19.57591570464199
 20
5.814603714542452
 30
0.0
  0
LINE
  5
B0
330
1F
100
AcDbEntity
  8
0
  6
Continuous
 62
     1
370
    15
100
AcDbLine
 10
11.99999999999998
 20
-6.140790569326815
 30
0.0
 11
12.92610405070994
 21
-5.829661025704823
 31
0.0
  0
SPLINE
  5
B1
330
1F
100
AcDbEntity
  8
0
  6
Continuous
 62
     1
370
    15
100
AcDbSpline
210
0.0
220
0.0
230
1.0
 70
     8
 71
     3
 72
    26
 73
    22
 74
     0
 42
0.000000001
 43
0.00000001
 40
0.0
 40
0.0
 40
0.0
 40
0.0
 40
0.0046689058851455
 40
0.06216699340965
 40
0.1197136724158801
 40
0.1773152483826357
 40
0.2348447864047997
 40
0.2923392979740609
 40
0.3498536636339005
 40
0.407441269843241
 40
0.4650110104031584
 40
0.5225170742788297
 40
0.5800141763094261
 40
0.6375571598660836
 40
0.6951596827745438
 40
0.7526923814989793
 40
0.8101873379057957
 40
0.8676994261545626
 40
0.9252829723921644
 40
0.9828572832821866
 40
1.0
 40
1.0
 40
1.0
 40
1.0
 10
30.31954700987358
 20
6.341255939959326
 30
0.0
 10
30.35456464559933
 20
6.344478802780772
 30
0.0
 10
30.82082830199697
 20
6.387391574361494
 30
0.0
 10
31.71851314662275
 20
6.222764827010384
 30
0.0
 10
33.01378829919104
 20
5.832413263234872
 30
0.0
 10
34.31041488641958
 20
5.172675492377965
 30
0.0
 10
35.60521981579804
 20
4.305579218759733
 30
0.0
 10
36.89911738197708
 20
3.258285207957535
 30
0.0
 10
38.19352147557637
 20
2.076204817162021
 30
0.0
 10
39.48980490633987
 20
0.8086569732895394
 30
0.0
 10
40.78563935004806
 20
-0.492621613430572
 30
0.0
 10
42.0798227068972
 20
-1.773729286962603
 30
0.0
 10
43.37377813582282
 20
-2.981103299396116
 30
0.0
 10
44.66893065944325
 20
-4.065070058799171
 30
0.0
 10
45.96558817082683
 20
-4.979742359783258
 30
0.0
 10
47.26047435886878
 20
-5.689001930427311
 30
0.0
 10
48.55437927618252
 20
-6.160914025633991
 30
0.0
 10
49.84873268643502
 20
-6.382211171872362
 30
0.0
 10
51.14487713085492
 20
-6.321182035853487
 30
0.0
 10
52.13797018751327
 20
-6.12431267312803
 30
0.0
 10
52.69833915933975
 20
-5.873172101930813
 30
0.0
 10
52.8269075305535
 20
-5.815551612917511
 30
0.0
  0
SPLINE
  5
B2
330
1F
100
AcDbEntity
  8
외형선
  6
Continuous
370
    15
100
AcDbSpline
210
0.0
220
0.0
230
1.0
 70
    24
 71
     3
 72
    10
 73
     6
 74
     0
 42
0.000000001
 43
0.00000001
 40
0.0
 40
0.0
 40
0.0
 40
0.0
 40
0.0787093709598101
 40
0.7288483358707201
 40
1.0
 40
1.0
 40
1.0
 40
1.0
 10
11.99999999999998
 20
-5.487391667011753
 30
0.0
 10
11.99999999999998
 20
-5.503605027687128
 30
0.0
 10
11.99999999999991
 20
-5.653740657066654
 30
0.0
 10
12.00000000000002
 20
-5.876679943970791
 30
0.0
 10
11.99999999999998
 20
-6.080733964500121
 30
0.0
 10
11.99999999999997
 20
-6.14079056932681
 30
0.0
  0
SPLINE
  5
B3
330
1F
100
AcDbEntity
  8
0
  6
Continuous
 62
     1
370
    15
100
AcDbSpline
210
0.0
220
0.0
230
1.0
 70
     8
 71
     3
 72
    26
 73
    22
 74
     0
 42
0.000000001
 43
0.00000001
 40
0.0
 40
0.0
 40
0.0
 40
0.0
 40
0.0156749471955224
 40
0.0731725286725345
 40
0.1306817960427182
 40
0.188257438554757
 40
0.2458423166279749
 40
0.3033557350596255
 40
0.3608520212530865
 40
0.4183860506370989
 40
0.4759899058200832
 40
0.5335342202741941
 40
0.5910326521410605
 40
0.6485400460602786
 40
0.7061111181365053
 40
0.7637000562753646
 40
0.8212157521707604
 40
0.8787115935163784
 40
0.9362424621250178
 40
0.9938453703443944
 40
1.0
 40
1.0
 40
1.0
 40
1.0
 10
55.38156201085193
 20
-6.322787572847639
 30
0.0
 10
55.26395933212377
 20
-6.3304910528793
 30
0.0
 10
54.71497595923808
 20
-6.366451819219625
 30
0.0
 10
53.73512633795537
 20
-6.166313562773015
 30
0.0
 10
52.4408459811064
 20
-5.721935727517641
 30
0.0
 10
51.14490911074656
 20
-5.020232667053131
 30
0.0
 10
49.84872412864362
 20
-4.116037465667521
 30
0.0
 10
48.55438156718695
 20
-3.039250158357756
 30
0.0
 10
47.26047374475587
 20
-1.837096416232565
 30
0.0
 10
45.96558833524848
 20
-0.5582787994802505
 30
0.0
 10
44.66893061692083
 20
0.7426720087793803
 30
0.0
 10
43.3737781415856
 20
2.013841922829538
 30
0.0
 10
42.07982272629477
 20
3.201320966416945
 30
0.0
 10
40.78563926663715
 20
4.256329108338152
 30
0.0
 10
39.48980522100277
 20
5.134594210898952
 30
0.0
 10
38.19352030071906
 20
5.800459913655859
 30
0.0
 10
36.89912175991189
 20
6.224518658960466
 30
0.0
 10
35.60520347846257
 20
6.396990299875782
 30
0.0
 10
34.31047593273043
 20
6.280086988121694
 30
0.0
 10
33.39954699570483
 20
6.078876329443558
 30
0.0
 10
32.92120756055652
 20
5.853276103456967
 30
0.0
 10
32.87503259566402
 20
5.831498508407876
 30
0.0
  0
SPLINE
  5
B4
330
1F
100
AcDbEntity
  8
0
  6
Continuous
 62
     1
370
    15
100
AcDbSpline
210
0.0
220
0.0
230
1.0
 70
     8
 71
     3
 72
    11
 73
     7
 74
     0
 42
0.000000001
 43
0.00000001
 40
0.0
 40
0.0
 40
0.0
 40
0.0
 40
0.0573220278349992
 40
0.3711907991209378
 40
0.6858836004507533
 40
1.0
 40
1.0
 40
1.0
 40
1.0
 10
15.48379097642932
 20
-6.334870483182153
 30
0.0
 10
15.41722407755587
 20
-6.339303983460455
 30
0.0
 10
14.98616779219622
 20
-6.368013269809201
 30
0.0
 10
14.1908907312702
 20
-6.23552861460694
 30
0.0
 10
13.09440420876769
 20
-5.944146794198405
 30
0.0
 10
12.3645784031672
 20
-5.592470597533318
 30
0.0
 10
11.99999999999998
 20
-5.416793682263663
 30
0.0
  0
SPLINE
  5
B5
330
1F
100
AcDbEntity
  8
0
  6
Continuous
 62
     1
370
    15
100
AcDbSpline
210
0.0
220
0.0
230
1.0
 70
     8
 71
     3
 72
    14
 73
    10
 74
     0
 42
0.000000001
 43
0.00000001
 40
0.0
 40
0.0
 40
0.0
 40
0.0
 40
0.1444575324579451
 40
0.289180143654358
 40
0.4335237955000965
 40
0.5780115307840509
 40
0.7227143188058193
 40
0.8935148117231512
 40
1.0
 40
1.0
 40
1.0
 40
1.0
 10
12.0
 20
-4.466278656901545
 30
0.0
 10
12.36458429178473
 20
-4.712810581316781
 30
0.0
 10
13.09442188542583
 20
-5.206326814805944
 30
0.0
 10
14.19081995056457
 20
-5.755286360857532
 30
0.0
 10
15.28425990035282
 20
-6.143950691816797
 30
0.0
 10
16.37890942748463
 20
-6.349279181155011
 30
0.0
 10
17.54171585616126
 20
-6.359858569209364
 30
0.0
 10
18.60687715682438
 20
-6.200278092521761
 30
0.0
 10
19.30703585882641
 20
-5.920063735834812
 30
0.0
 10
19.57591570464199
 20
-5.81245385709466
 30
0.0
  0
SPLINE
  5
B6
330
1F
100
AcDbEntity
  8
0
  6
Continuous
 62
     1
370
    15
100
AcDbSpline
210
0.0
220
0.0
230
1.0
 70
     8
 71
     3
 72
    25
 73
    21
 74
     0
 42
0.000000001
 43
0.00000001
 40
0.0
 40
0.0
 40
0.0
 40
0.0
 40
0.0544386691704385
 40
0.1120260243472854
 40
0.1695955139525882
 40
0.2271013271512205
 40
0.2845981785438438
 40
0.3421409112625242
 40
0.3997431830734668
 40
0.4572756310047582
 40
0.5147703367829546
 40
0.5722821743284214
 40
0.6298654695512277
 40
0.6874395294667125
 40
0.7449472160648154
 40
0.8024432170909586
 40
0.8599823878787444
 40
0.9175851331686536
 40
0.9751208756536774
 40
1.0
 40
1.0
 40
1.0
 40
1.0
 10
36.9681855126218
 20
6.344413597517074
 30
0.0
 10
37.37645243423294
 20
6.324286220072466
 30
0.0
 10
38.21660008658291
 20
6.282867314907882
 30
0.0
 10
39.48980751602619
 20
5.894423876585445
 30
0.0
 10
40.78563865245719
 20
5.276182779858744
 30
0.0
 10
42.07982289100005
 20
4.43333043456026
 30
0.0
 10
43.37377809649799
 20
3.408426251558434
 30
0.0
 10
44.66893063245912
 20
2.241632184535977
 30
0.0
 10
45.96558831824621
 20
0.9829972187979213
 30
0.0
 10
47.26047379714807
 20
-0.3173637777639559
 30
0.0
 10
48.55438137470245
 20
-1.604152776143437
 30
0.0
 10
49.84872484685152
 20
-2.824699611956308
 30
0.0
 10
51.14490642706578
 20
-3.927572947971477
 30
0.0
 10
52.4408559895956
 20
-4.867743213705698
 30
0.0
 10
53.73508903683103
 20
-5.606608502617892
 30
0.0
 10
55.02902419833825
 20
-6.111911034717398
 30
0.0
 10
56.32408666186291
 20
-6.367645398118889
 30
0.0
 10
57.62074841549631
 20
-6.34521113715098
 30
0.0
 10
58.67108091580125
 20
-6.156562841533298
 30
0.0
 10
59.28914241157563
 20
-5.891245262232339
 30
0.0
 10
59.47572074869185
 20
-5.811152078799769
 30
0.0
  0
SPLINE
  5
B7
330
1F
100
AcDbEntity
  8
외형선
  6
Continuous
370
    15
100
AcDbSpline
210
0.0
220
0.0
230
1.0
 70
    24
 71
     3
 72
    23
 73
    19
 74
     0
 42
0.000000001
 43
0.00000001
 40
0.0
 40
0.0
 40
0.0
 40
0.0
 40
0.0371101926003994
 40
0.1029165827832002
 40
0.1706313627393439
 40
0.236437752922145
 40
0.3041525328782892
 40
0.3699589230610881
 40
0.4376737030172297
 40
0.5034800932000306
 40
0.571194873156174
 40
0.6370012633389743
 40
0.7047160432951171
 40
0.7705224334779041
 40
0.8382372134340631
 40
0.9040436036168633
 40
0.9717583835730067
 40
1.0
 40
1.0
 40
1.0
 40
1.0
 10
11.99999999999999
 20
0.190851485966485
 30
0.0
 10
11.99999999999999
 20
0.1886561981927353
 30
0.0
 10
12.00000000000002
 20
0.1825680725305251
 30
0.0
 10
11.99999999999998
 20
0.0977657936449834
 30
0.0
 10
12.00000000000005
 20
-0.059241928354689
 30
0.0
 10
11.99999999999992
 20
-0.2857333762208659
 30
0.0
 10
11.99999999999998
 20
-0.5674492255767594
 30
0.0
 10
11.99999999999992
 20
-0.9024985277845454
 30
0.0
 10
11.99999999999996
 20
-1.275096773580825
 30
0.0
 10
12.0
 20
-1.681476045803949
 30
0.0
 10
11.99999999999991
 20
-2.102801578140473
 30
0.0
 10
12.00000000000004
 20
-2.534731252963457
 30
0.0
 10
11.99999999999995
 20
-2.957282080673637
 30
0.0
 10
12.0
 20
-3.366031650303603
 30
0.0
 10
11.99999999999998
 20
-3.742305586684384
 30
0.0
 10
11.99999999999991
 20
-4.081282953729938
 30
0.0
 10
12.0
 20
-4.316222134029478
 30
0.0
 10
12.0
 20
-4.43215702592344
 30
0.0
 10
12.0
 20
-4.466278656901545
 30
0.0
  0
SPLINE
  5
B8
330
1F
100
AcDbEntity
  8
0
  6
Continuous
 62
     1
370
    15
100
AcDbSpline
210
0.0
220
0.0
230
1.0
 70
     8
 71
     3
 72
    25
 73
    21
 74
     0
 42
0.000000001
 43
0.00000001
 40
0.0
 40
0.0
 40
0.0
 40
0.0
 40
0.0234545791776068
 40
0.080968489987854
 40
0.138467990817287
 40
0.1960079512847527
 40
0.2536149194691228
 40
0.3111583084906819
 40
0.3686585245857957
 40
0.4261704271095447
 40
0.4837487078165489
 40
0.5413362245079184
 40
0.5988522782833415
 40
0.6563511990355526
 40
0.7138878647077598
 40
0.7714943593784528
 40
0.8290413105920345
 40
0.8865423771159686
 40
0.944052406102908
 40
1.0
 40
1.0
 40
1.0
 40
1.0
 10
62.03165077521057
 20
-6.348925071276108
 30
0.0
 10
61.80976622097245
 20
-6.335021684121739
 30
0.0
 10
61.24793890749282
 20
-6.351966118274413
 30
0.0
 10
60.20966983421574
 20
-6.121452436267728
 30
0.0
 10
58.91571946291693
 20
-5.640584327658271
 30
0.0
 10
57.62075629208226
 20
-4.90953178705083
 30
0.0
 10
56.32408455284537
 20
-3.979971977824948
 30
0.0
 10
55.02902476269703
 20
-2.883529371354519
 30
0.0
 10
53.73508888566776
 20
-1.668056262395311
 30
0.0
 10
52.44085603001831
 20
-0.3831047102761655
 30
0.0
 10
51.14490641673818
 20
0.9173570281931491
 30
0.0
 10
49.84872484770756
 20
2.179699102096169
 30
0.0
 10
48.55438138158095
 20
3.352331909069612
 30
0.0
 10
47.26047376877785
 20
4.385752273419764
 30
0.0
 10
45.96558842498311
 20
5.237742441202482
 30
0.0
 10
44.66893023356142
 20
5.871793626871023
 30
0.0
 10
43.37377958298014
 20
6.264311054150355
 30
0.0
 10
42.07981734774381
 20
6.392107792237989
 30
0.0
 10
40.79785307658187
 20
6.274741697466385
 30
0.0
 10
39.94636313158109
 20
5.983409428919318
 30
0.0
 10
39.52648113124118
 20
5.839749276031661
 30
0.0
  0
SPLINE
  5
B9
330
1F
100
AcDbEntity
  8
0
  6
Continuous
 62
     1
370
    15
100
AcDbSpline
210
0.0
220
0.0
230
1.0
 70
     8
 71
     3
 72
    16
 73
    12
 74
     0
 42
0.000000001
 43
0.00000001
 40
0.0
 40
0.0
 40
0.0
 40
0.0
 40
0.0765418704412137
 40
0.2043366682551769
 40
0.3320175515654977
 40
0.4597062366950845
 40
0.5678845470822079
 40
0.6759020862627848
 40
0.7838119101524966
 40
0.8920050401403278
 40
0.9999999999999999
 40
0.9999999999999999
 40
0.9999999999999999
 40
0.9999999999999999
 10
22.13466703116094
 20
-6.317187599389761
 30
0.0
 10
21.87590837472328
 20
-6.320492142680496
 30
0.0
 10
21.18512460586749
 20
-6.329313972644167
 30
0.0
 10
20.06330020993435
 20
-6.049136680696916
 30
0.0
 10
18.76923717468932
 20
-5.518167037933798
 30
0.0
 10
17.5417058258445
 20
-4.785818335682167
 30
0.0
 10
16.37891192059201
 20
-3.934880218451092
 30
0.0
 10
15.28425923377239
 20
-3.014568644529582
 30
0.0
 10
14.19082012877635
 20
-2.003832907379534
 30
0.0
 10
13.09442184091946
 20
-0.9361993273967707
 30
0.0
 10
12.36458427695834
 20
-0.204911064866223
 30
0.0
 10
11.99999999999998
 20
0.1603978964810198
 30
0.0
  0
SPLINE
  5
BA
330
1F
100
AcDbEntity
  8
0
  6
Continuous
 62
     1
370
    15
100
AcDbSpline
210
0.0
220
0.0
230
1.0
 70
     8
 71
     3
 72
    26
 73
    22
 74
     0
 42
0.000000001
 43
0.00000001
 40
0.0
 40
0.0
 40
0.0
 40
0.0
 40
0.0124296618552934
 40
0.0699245814969597
 40
0.1274420770573744
 40
0.1850339893241303
 40
0.2426000106972546
 40
0.3001050537928396
 40
0.3576038590603857
 40
0.4151512564162201
 40
0.4727535514178534
 40
0.5302838075756526
 40
0.5877790368433171
 40
0.6452941204493967
 40
0.7028824455192318
 40
0.7604529047166289
 40
0.8179596864349098
 40
0.8754575061962458
 40
0.9330012080563779
 40
0.9906044500115363
 40
1.0
 40
1.0
 40
1.0
 40
1.0
 10
23.67044755051344
 20
6.328750105019898
 30
0.0
 10
23.76369128503316
 20
6.335629295843777
 30
0.0
 10
24.28824530664781
 20
6.374329024363951
 30
0.0
 10
25.24381780545253
 20
6.185626907615688
 30
0.0
 10
26.53833204209082
 20
5.756818607852672
 30
0.0
 10
27.83469307294802
 20
5.067516249028342
 30
0.0
 10
29.13041870820824
 20
4.174017843792726
 30
0.0
 10
30.42455555688309
 20
3.105780345907272
 30
0.0
 10
31.71853489954552
 20
1.909386481493118
 30
0.0
 10
33.01378246237022
 20
0.633582278031804
 30
0.0
 10
34.31041644744758
 20
-0.6675135986151839
 30
0.0
 10
35.60521940334337
 20
-1.941925643779479
 30
0.0
 10
36.89911747269297
 20
-3.135402372716657
 30
0.0
 10
38.193521525234
 20
-4.199193497341167
 30
0.0
 10
39.48980461645896
 20
-5.088227284749573
 30
0.0
 10
40.78564045887075
 20
-5.767030478889486
 30
0.0
 10
42.07981856659098
 20
-6.205251373916441
 30
0.0
 10
43.37379359276451
 20
-6.392087669693396
 30
0.0
 10
44.66887289585998
 20
-6.291810134525438
 30
0.0
 10
45.60426021120934
 20
-6.09095946402344
 30
0.0
 10
46.10684995867225
 20
-5.857149015646131
 30
0.0
 10
46.17733043987184
 20
-5.82436069675521
 30
0.0
  0
SPLINE
  5
BB
330
1F
100
AcDbEntity
  8
0
  6
Continuous
 62
     1
370
    15
100
AcDbSpline
210
0.0
220
0.0
230
1.0
 70
     8
 71
     3
 72
    26
 73
    22
 74
     0
 42
0.000000001
 43
0.00000001
 40
0.0
 40
0.0
 40
0.0
 40
0.0
 40
0.007907449689668
 40
0.0654026185480019
 40
0.1229355298634174
 40
0.1805382656208679
 40
0.2380814618065103
 40
0.2955787762965525
 40
0.3530850526647851
 40
0.4106550059525578
 40
0.468242824955769
 40
0.5257574031388456
 40
0.5832521271579811
 40
0.6407818777594475
 40
0.6983836665716929
 40
0.7559305582205634
 40
0.8134288582081544
 40
0.8709333959689699
 40
0.9284989114714682
 40
0.986090317640077
 40
1.0
 40
1.0
 40
1.0
 40
1.0
 10
48.7321943282998
 20
-6.333307125560987
 30
0.0
 10
48.67288279248339
 20
-6.33833158690306
 30
0.0
 10
48.18231631343696
 20
-6.379888971579716
 30
0.0
 10
47.26050351887294
 20
-6.205802863294109
 30
0.0
 10
45.96558034440636
 20
-5.799177055942252
 30
0.0
 10
44.66893275527873
 20
-5.127122117078498
 30
0.0
 10
43.37377757485567
 20
-4.248865300361915
 30
0.0
 10
42.07982285769172
 20
-3.192748440225115
 30
0.0
 10
40.78563930767091
 20
-2.004595658371015
 30
0.0
 10
39.48980492487946
 20
-0.7334343576954307
 30
0.0
 10
38.19352144384283
 20
0.5678082990436678
 30
0.0
 10
36.89911749021682
 20
1.846297204150357
 30
0.0
 10
35.60521941455863
 20
3.04794866622349
 30
0.0
 10
34.31041638497574
 20
4.123644712102365
 30
0.0
 10
33.01378270126352
 20
5.027628044340214
 30
0.0
 10
31.71853400781129
 20
5.724269642647911
 30
0.0
 10
30.42455888239459
 20
6.182148607647498
 30
0.0
 10
29.13040628968747
 20
6.389050635522763
 30
0.0
 10
27.83473948299596
 20
6.311719934321565
 30
0.0
 10
26.86559911181926
 20
6.11267089174108
 30
0.0
 10
26.32931389472555
 20
5.86836880850379
 30
0.0
 10
26.22498601416303
 20
5.820842757535457
 30
0.0
  0
LINE
  5
BC
330
1F
100
AcDbEntity
  8
0
  6
Continuous
 62
     1
370
    15
100
AcDbLine
 10
62.79999999999998
 20
-2.487606649943754
 30
0.0
 11
62.79999999999998
 21
2.489756507391663
 31
0.0
  0
SPLINE
  5
BD
330
1F
100
AcDbEntity
  8
0
  6
Continuous
 62
     1
370
    15
100
AcDbSpline
210
0.0
220
0.0
230
1.0
 70
     8
 71
     3
 72
    24
 73
    20
 74
     0
 42
0.000000001
 43
0.00000001
 40
0.0
 40
0.0
 40
0.0
 40
0.0
 40
0.0524324340376648
 40
0.1049610812892272
 40
0.1573521811189341
 40
0.2097955776011011
 40
0.2623170298156219
 40
0.3243109281337715
 40
0.3863010386050196
 40
0.4483464554971048
 40
0.5104453978418356
 40
0.572464943983932
 40
0.6344496572953011
 40
0.6964587094849587
 40
0.7585479896014815
 40
0.8206093569975565
 40
0.8826049843060718
 40
0.944593886672886
 40
1.0
 40
1.0
 40
1.0
 40
1.0
 10
12.0
 20
6.14294042677461
 30
0.0
 10
12.36458427776777
 20
6.032621557650136
 30
0.0
 10
13.09442184334918
 20
5.811781384912937
 30
0.0
 10
14.19082011904752
 20
5.260698809013935
 30
0.0
 10
15.28425927016195
 20
4.565136324467675
 30
0.0
 10
16.37891178449
 20
3.731323454013041
 30
0.0
 10
17.54170637341279
 20
2.731753605771178
 30
0.0
 10
18.76923471699807
 20
1.571017911574038
 30
0.0
 10
20.06330933469271
 20
0.2831730741301512
 30
0.0
 10
21.35863695033852
 20
-1.016647883602676
 30
0.0
 10
22.65524019518022
 20
-2.273449195293993
 30
0.0
 10
23.94996263078015
 20
-3.436946476812165
 30
0.0
 10
25.24385458014117
 20
-4.457534150914277
 30
0.0
 10
26.53832188569193
 20
-5.293673385644496
 30
0.0
 10
27.83469686582165
 20
-5.909476002911184
 30
0.0
 10
29.13041369953279
 20
-6.282187895189939
 30
0.0
 10
30.42457178387151
 20
-6.388448107367381
 30
0.0
 10
31.67232399186221
 20
-6.257108032073875
 30
0.0
 10
32.48940196015111
 20
-5.966503337859389
 30
0.0
 10
32.87503259566405
 20
-5.829348650960087
 30
0.0
  0
SPLINE
  5
BE
330
1F
100
AcDbEntity
  8
0
  6
Continuous
 62
     1
370
    15
100
AcDbSpline
210
0.0
220
0.0
230
1.0
 70
     8
 71
     3
 72
    17
 73
    13
 74
     0
 42
0.000000001
 43
0.00000001
 40
0.0
 40
0.0
 40
0.0
 40
0.0
 40
0.0700051498776429
 40
0.1734032403786219
 40
0.2766821300748012
 40
0.3799400334825579
 40
0.483275466092316
 40
0.5867250730738967
 40
0.6900543487449263
 40
0.7933109676908214
 40
0.8965934638335012
 40
1.0
 40
1.0
 40
1.0
 40
1.0
 10
50.26726289294859
 20
6.322207356052751
 30
0.0
 10
50.55981860095348
 20
6.321960669507948
 30
0.0
 10
51.28448111289696
 20
6.321349625230474
 30
0.0
 10
52.44087212637647
 20
6.018762461910116
 30
0.0
 10
53.73508460662352
 20
5.467489621608961
 30
0.0
 10
55.02902579525063
 20
4.679730444059377
 30
0.0
 10
56.32408470487277
 20
3.700438388466543
 30
0.0
 10
57.62075464844728
 20
2.568087770219881
 30
0.0
 10
58.91572587437375
 20
1.328107755367946
 30
0.0
 10
60.20964584470534
 20
0.0353602317226303
 30
0.0
 10
61.50393220078646
 20
-1.266455334920791
 30
0.0
 10
62.36780458871949
 20
-2.080393389069329
 30
0.0
 10
62.80000000000001
 20
-2.487606649943756
 30
0.0
  0
SPLINE
  5
BF
330
1F
100
AcDbEntity
  8
0
  6
Continuous
 62
     1
370
    15
100
AcDbSpline
210
0.0
220
0.0
230
1.0
 70
     8
 71
     3
 72
    15
 73
    11
 74
     0
 42
0.000000001
 43
0.00000001
 40
0.0
 40
0.0
 40
0.0
 40
0.0
 40
0.129938717767658
 40
0.2597215691631865
 40
0.3894719037576093
 40
0.5193135374328346
 40
0.6493063771805183
 40
0.7791557475497037
 40
0.9089076961748584
 40
1.0
 40
1.0
 40
1.0
 40
1.0
 10
62.8
 20
2.489756507391664
 30
0.0
 10
62.36780459580971
 20
2.876985397329905
 30
0.0
 10
61.50393222204856
 20
3.650978681609576
 30
0.0
 10
60.2096457597848
 20
4.63365993792987
 30
0.0
 10
58.91572619284405
 20
5.431690691385387
 30
0.0
 10
57.62075345796078
 20
6.00212181071589
 30
0.0
 10
56.32408915152281
 20
6.326449948418195
 30
0.0
 10
55.02900922641016
 20
6.379834508419871
 30
0.0
 10
53.86369548706702
 20
6.219506254155851
 30
0.0
 10
53.12967231280493
 20
5.935037264157694
 30
0.0
 10
52.82690753055357
 20
5.8177014703653
 30
0.0
  0
SPLINE
  5
C0
330
1F
100
AcDbEntity
  8
0
  6
Continuous
 62
     1
370
    15
100
AcDbSpline
210
0.0
220
0.0
230
1.0
 70
     8
 71
     3
 72
    26
 73
    22
 74
     0
 42
0.000000001
 43
0.00000001
 40
0.0
 40
0.0
 40
0.0
 40
0.0
 40
0.0499342338284784
 40
0.1075309835107644
 40
0.1650728408321989
 40
0.2225661107432582
 40
0.2800656178818482
 40
0.3376260974276552
 40
0.3952124653746009
 40
0.4527244237792328
 40
0.5102138084384785
 40
0.5677354997407255
 40
0.625330829180343
 40
0.6828765150034651
 40
0.7403709054033821
 40
0.7978688089434894
 40
0.8465812383138611
 40
0.8952212728019716
 40
0.9438128033572732
 40
0.9925319059577054
 40
1.0
 40
1.0
 40
1.0
 40
1.0
 10
35.43459938635978
 20
-6.333836202583956
 30
0.0
 10
35.0600397609997
 20
-6.320735869820087
 30
0.0
 10
34.25344352810784
 20
-6.29252492998158
 30
0.0
 10
33.01377435110263
 20
-5.930489627887506
 30
0.0
 10
31.71853702295344
 20
-5.331356939655886
 30
0.0
 10
30.42455516357426
 20
-4.504371590899379
 30
0.0
 10
29.1304181583508
 20
-3.492396984079095
 30
0.0
 10
27.83469566984781
 20
-2.335252065723035
 30
0.0
 10
26.53832220594613
 20
-1.081866094339992
 30
0.0
 10
25.24385449370611
 20
0.2172413501435582
 30
0.0
 10
23.94996265659723
 20
1.507000231200157
 30
0.0
 10
22.65524017835968
 20
2.734719541699218
 30
0.0
 10
21.3586369918021
 20
3.848242279281631
 30
0.0
 10
20.06330918587331
 20
4.803058513832594
 30
0.0
 10
18.76923527034827
 20
5.558574238222564
 30
0.0
 10
17.54170444184326
 20
6.057312149518746
 30
0.0
 10
16.37891777498569
 20
6.318502124815834
 30
0.0
 10
15.2842368361415
 20
6.382205303799562
 30
0.0
 10
14.19090388106425
 20
6.240170024712139
 30
0.0
 10
13.40345407213621
 20
6.04912523893298
 30
0.0
 10
12.98210717021096
 20
5.857306392296371
 30
0.0
 10
12.92610405070999
 20
5.831810883152615
 30
0.0
  0
LINE
  5
C1
330
1F
100
AcDbEntity
  8
0
  6
Continuous
 62
     1
370
    15
100
AcDbLine
 10
62.79999999999998
 20
-6.302586269518647
 30
0.0
 11
62.79999999999998
 21
-3.800292868389018
 31
0.0
  0
SPLINE
  5
C2
330
1F
100
AcDbEntity
  8
0
  6
Continuous
 62
     1
370
    15
100
AcDbSpline
210
0.0
220
0.0
230
1.0
 70
     8
 71
     3
 72
    19
 73
    15
 74
     0
 42
0.000000001
 43
0.00000001
 40
0.0
 40
0.0
 40
0.0
 40
0.0
 40
0.0769410199975998
 40
0.1540232263229068
 40
0.2309035911901575
 40
0.3078606978272037
 40
0.3849323459264993
 40
0.4759041624704246
 40
0.5668704206074299
 40
0.657917837143997
 40
0.7490437986308027
 40
0.8400532516066695
 40
0.931011589779748
 40
1.0
 40
1.0
 40
1.0
 40
1.0
 10
12.0
 20
1.675586841149208
 30
0.0
 10
12.36458427773453
 20
1.318728122994814
 30
0.0
 10
13.0944218432494
 20
0.6043558529974675
 30
0.0
 10
14.19082011944701
 20
-0.4955672273407527
 30
0.0
 10
15.28425926866763
 20
-1.580245579718428
 30
0.0
 10
16.37891179007891
 20
-2.61769810336061
 30
0.0
 10
17.54170635092741
 20
-3.634541042572073
 30
0.0
 10
18.76923481792073
 20
-4.581954530640469
 30
0.0
 10
20.06330895999369
 20
-5.390087536488336
 30
0.0
 10
21.35863835008188
 20
-5.974355293636205
 30
0.0
 10
22.65523496937898
 20
-6.312846509507461
 30
0.0
 10
23.94998210071637
 20
-6.381909692331572
 30
0.0
 10
25.13947836529071
 20
-6.229364037190068
 30
0.0
 10
25.89787397322038
 20
-5.942446494964106
 30
0.0
 10
26.22498601416307
 20
-5.818692900087671
 30
0.0
  0
SPLINE
  5
C3
330
1F
100
AcDbEntity
  8
0
  6
Continuous
 62
     1
370
    15
100
AcDbSpline
210
0.0
220
0.0
230
1.0
 70
     8
 71
     3
 72
    22
 73
    18
 74
     0
 42
0.000000001
 43
0.00000001
 40
0.0
 40
0.0
 40
0.0
 40
0.0
 40
0.0548069588183112
 40
0.1223935022046696
 40
0.1898981190537043
 40
0.257358451856512
 40
0.3248388858965716
 40
0.3924031634597759
 40
0.4599566049486498
 40
0.5274321685526087
 40
0.5948940211102595
 40
0.6624065260966515
 40
0.7299936250306596
 40
0.7975021074824175
 40
0.8649631208580408
 40
0.9324410406744934
 40
1.0
 40
1.0
 40
1.0
 40
1.0
 10
43.61732446258811
 20
6.330932052095171
 30
0.0
 10
43.96772415729011
 20
6.322242304952213
 30
0.0
 10
44.75022781614477
 20
6.302836583324321
 30
0.0
 10
45.96560082995511
 20
5.959030081065682
 30
0.0
 10
47.26047044900617
 20
5.373795553749294
 30
0.0
 10
48.55438227128172
 20
4.558284275998748
 30
0.0
 10
49.84872460835889
 20
3.555709011242329
 30
0.0
 10
51.14490648310991
 20
2.405760137224553
 30
0.0
 10
52.4408560040023
 20
1.156185226252689
 30
0.0
 10
53.73508892339907
 20
-0.1417088490643348
 30
0.0
 10
55.02902463774605
 20
-1.433431430273697
 30
0.0
 10
56.32408501551718
 20
-2.666059191017588
 30
0.0
 10
57.6207545652795
 20
-3.786919534524966
 30
0.0
 10
58.9157258966222
 20
-4.752978465487691
 30
0.0
 10
60.20964583877274
 20
-5.516691971033674
 30
0.0
 10
61.50393220227186
 20
-6.070545806334582
 30
0.0
 10
62.36780458921479
 20
-6.225208509280785
 30
0.0
 10
62.8
 20
-6.302586269518647
 30
0.0
  0
SPLINE
  5
C4
330
1F
100
AcDbEntity
  8
외형선
  6
Continuous
370
    15
100
AcDbSpline
210
0.0
220
0.0
230
1.0
 70
    24
 71
     3
 72
    20
 73
    16
 74
     0
 42
0.000000001
 43
0.00000001
 40
0.0
 40
0.0
 40
0.0
 40
0.0
 40
0.1336512583445356
 40
0.2064708941262309
 40
0.2814023042787485
 40
0.3542219400604441
 40
0.429153350212962
 40
0.5019729859946552
 40
0.5769043961471703
 40
0.6497240319288657
 40
0.7246554420813826
 40
0.7974750778630774
 40
0.8724064880155935
 40
0.945226123797273
 40
1.0
 40
1.0
 40
1.0
 40
1.0
 10
11.99999999999996
 20
5.578266507468643
 30
0.0
 10
12.0
 20
5.365612321807523
 30
0.0
 10
12.00000000000005
 20
5.037093904570097
 30
0.0
 10
11.99999999999996
 20
4.513406454663232
 30
0.0
 10
12.00000000000007
 20
4.090547692137491
 30
0.0
 10
11.99999999999993
 20
3.658527001548235
 30
0.0
 10
11.99999999999999
 20
3.238705532560192
 30
0.0
 10
11.99999999999993
 20
2.835041826149112
 30
0.0
 10
11.99999999999996
 20
2.466340460977538
 30
0.0
 10
12.0
 20
2.136314271499353
 30
0.0
 10
11.99999999999989
 20
1.860479190972203
 30
0.0
 10
12.00000000000006
 20
1.64082473283314
 30
0.0
 10
11.99999999999996
 20
1.490694144723769
 30
0.0
 10
12.0
 20
1.408002246790978
 30
0.0
 10
11.99999999999998
 20
1.409229628572892
 30
0.0
 10
11.99999999999997
 20
1.409756524155045
 30
0.0
  0
SPLINE
  5
C5
330
1F
100
AcDbEntity
  8
0
  6
Continuous
 62
     1
370
    15
100
AcDbSpline
210
0.0
220
0.0
230
1.0
 70
     8
 71
     3
 72
    20
 73
    16
 74
     0
 42
0.000000001
 43
0.00000001
 40
0.0
 40
0.0
 40
0.0
 40
0.0
 40
0.0779602082886951
 40
0.155826900379561
 40
0.2336740831461037
 40
0.311576043237513
 40
0.3895687234553473
 40
0.4674753253831775
 40
0.545323476530617
 40
0.6231874496509906
 40
0.7011412905874156
 40
0.7791076358995749
 40
0.8569772292991359
 40
0.9348236267131648
 40
1.0
 40
1.0
 40
1.0
 40
1.0
 10
62.80000000000001
 20
-3.813904690850903
 30
0.0
 10
62.36780458920262
 20
-3.453431363638426
 30
0.0
 10
61.50393220223522
 20
-2.732917110507922
 30
0.0
 10
60.20964583891915
 20
-1.495791282540798
 30
0.0
 10
58.91572589607329
 20
-0.2082111693846148
 30
0.0
 10
57.62075456733127
 20
1.091413522436786
 30
0.0
 10
56.32408500785351
 20
2.344047734069789
 30
0.0
 10
55.02902466630194
 20
3.50074356812895
 30
0.0
 10
53.73508881690319
 20
4.512003295250609
 30
0.0
 10
52.44085640174511
 20
5.336581946042898
 30
0.0
 10
51.14490499671253
 20
5.939272437125275
 30
0.0
 10
49.84873015353478
 20
6.297706426200407
 30
0.0
 10
48.55436160776039
 20
6.3884769236985
 30
0.0
 10
47.33100056661112
 20
6.247848987245002
 30
0.0
 10
46.538484829799
 20
5.958409804440348
 30
0.0
 10
46.17733043987188
 20
5.826510554202998
 30
0.0
  0
SPLINE
  5
C6
330
1F
100
AcDbEntity
  8
0
  6
Continuous
 62
     1
370
    15
100
AcDbSpline
210
0.0
220
0.0
230
1.0
 70
     8
 71
     3
 72
    21
 73
    17
 74
     0
 42
0.000000001
 43
0.00000001
 40
0.0
 40
0.0
 40
0.0
 40
0.0
 40
0.0565945240280848
 40
0.1338149077929343
 40
0.2109355121548089
 40
0.2880258462748906
 40
0.365159501956301
 40
0.4423919026259822
 40
0.5195577337366877
 40
0.5966547802998255
 40
0.6737565378048651
 40
0.7390774223163484
 40
0.8043012289812835
 40
0.8694599943449676
 40
0.9347898273177725
 40
0.9999999999999999
 40
0.9999999999999999
 40
0.9999999999999999
 40
0.9999999999999999
 10
28.78500689916179
 20
-6.323119443761114
 30
0.0
 10
28.46829800051547
 20
-6.319709373229262
 30
0.0
 10
27.71945572650802
 20
-6.311646432836642
 30
0.0
 10
26.5383056676096
 20
-5.992268320315321
 30
0.0
 10
25.2438589213965
 20
-5.426698574894202
 30
0.0
 10
23.94996146705651
 20
-4.627304514191605
 30
0.0
 10
22.65524050752783
 20
-3.638155463133462
 30
0.0
 10
21.35863686667548
 20
-2.498381742002107
 30
0.0
 10
20.06330935708857
 20
-1.254423141938388
 30
0.0
 10
18.76923471096592
 20
0.0413402646831318
 30
0.0
 10
17.54170637475671
 20
1.269795861904927
 30
0.0
 10
16.37891178415594
 20
2.383237083303374
 30
0.0
 10
15.28425927025123
 20
3.364353678878058
 30
0.0
 10
14.19082011902364
 20
4.243406102544934
 30
0.0
 10
13.0944218433551
 20
5.006366311425504
 30
0.0
 10
12.36458427776973
 20
5.387749641237633
 30
0.0
 10
11.99999999999998
 20
5.578266507468618
 30
0.0
  0
LINE
  5
C7
330
1F
100
AcDbEntity
  8
0
  6
Continuous
 62
     1
370
    15
100
AcDbLine
 10
62.79999999999998
 20
-6.348925071276106
 30
0.0
 11
62.79999999999998
 21
-6.302586269518647
 31
0.0
  0
LINE
  5
C8
330
1F
100
AcDbEntity
  8
외형선
  6
Continuous
370
    15
100
AcDbLine
 10
11.99999999999996
 20
0.1603978964810041
 30
0.0
 11
12.0
 21
1.675586841149208
 31
0.0
  0
LINE
  5
C9
330
1F
100
AcDbEntity
  8
0
  6
Continuous
 62
     1
370
    15
100
AcDbLine
 10
62.79999999999998
 20
2.489756507391663
 30
0.0
 11
62.79999999999998
 21
3.816054548298727
 31
0.0
  0
LINE
  5
CA
330
1F
100
AcDbEntity
  8
0
  6
Continuous
 62
     1
370
    15
100
AcDbLine
 10
62.79999999999998
 20
6.30473612696644
 30
0.0
 11
62.79999999999998
 21
6.351074928723896
 31
0.0
  0
LINE
  5
CB
330
1F
100
AcDbEntity
  8
0
  6
Continuous
 62
     1
370
    15
100
AcDbLine
 10
62.79999999999998
 20
-3.813904690850903
 30
0.0
 11
62.79999999999998
 21
-2.487606649943754
 31
0.0
  0
LINE
  5
CC
330
1F
100
AcDbEntity
  8
외형선
  6
Continuous
370
    15
100
AcDbLine
 10
11.99999999999996
 20
5.578266507468643
 30
0.0
 11
12.0
 21
6.14294042677461
 31
0.0
  0
LINE
  5
CD
330
1F
100
AcDbEntity
  8
외형선
  6
Continuous
370
    15
100
AcDbLine
 10
11.99999999999996
 20
-5.416793682263702
 30
0.0
 11
12.0
 21
-4.466278656901545
 31
0.0
  0
LINE
  5
CE
330
1F
100
AcDbEntity
  8
외형선
  6
Continuous
370
    15
100
AcDbLine
 10
11.00037522306452
 20
6.319894775679332
 30
0.0
 11
11.00037522306452
 21
6.351074928723895
 31
0.0
  0
SPLINE
  5
CF
330
1F
100
AcDbEntity
  8
외형선
  6
Continuous
370
    15
100
AcDbSpline
210
0.0
220
0.0
230
1.0
 70
     8
 71
     3
 72
    10
 73
     6
 74
     0
 42
0.000000001
 43
0.00000001
 40
0.0
 40
0.0
 40
0.0
 40
0.0
 40
0.5
 40
0.5
 40
1.0
 40
1.0
 40
1.0
 40
1.0
 10
11.99999999999998
 20
6.142940426774604
 30
0.0
 10
11.83242289909375
 20
6.185376484460806
 30
0.0
 10
11.66499660490421
 20
6.221408755226756
 30
0.0
 10
11.33200016256539
 20
6.280413017769502
 30
0.0
 10
11.16698442266641
 20
6.303385571721837
 30
0.0
 10
11.00037522306453
 20
6.319894547667934
 30
0.0
  0
SPLINE
  5
D0
330
1F
100
AcDbEntity
  8
외형선
  6
Continuous
370
    15
100
AcDbSpline
210
0.0
220
0.0
230
1.0
 70
     8
 71
     3
 72
    10
 73
     6
 74
     0
 42
0.000000001
 43
0.00000001
 40
0.0
 40
0.0
 40
0.0
 40
0.0
 40
0.5
 40
0.5
 40
1.0
 40
1.0
 40
1.0
 40
1.0
 10
11.99999999999996
 20
5.578266507468616
 30
0.0
 10
11.83242289909374
 20
5.658167902668709
 30
0.0
 10
11.66499660490421
 20
5.732241698123933
 30
0.0
 10
11.33200016256539
 20
5.868120331254283
 30
0.0
 10
11.16698442266641
 20
5.929880774768768
 30
0.0
 10
11.00037522306453
 20
5.985647360146091
 30
0.0
  0
LINE
  5
D1
330
1F
100
AcDbEntity
  8
외형선
  6
Continuous
370
    15
100
AcDbLine
 10
11.00037522306452
 20
2.616185480264109
 30
0.0
 11
11.00037522306452
 21
5.985645971768109
 31
0.0
  0
SPLINE
  5
D2
330
1F
100
AcDbEntity
  8
외형선
  6
Continuous
370
    15
100
AcDbSpline
210
0.0
220
0.0
230
1.0
 70
     8
 71
     3
 72
    10
 73
     6
 74
     0
 42
0.000000001
 43
0.00000001
 40
0.0
 40
0.0
 40
0.0
 40
0.0
 40
0.5
 40
0.5
 40
1.0
 40
1.0
 40
1.0
 40
1.0
 10
11.99999999999998
 20
1.675586841149206
 30
0.0
 10
11.83242289909375
 20
1.83678947478242
 30
0.0
 10
11.66499660490421
 20
1.996200727458898
 30
0.0
 10
11.33200016256539
 20
2.309981525546027
 30
0.0
 10
11.16698442266641
 20
2.464188794302467
 30
0.0
 10
11.00037522306453
 20
2.616183381008593
 30
0.0
  0
SPLINE
  5
D3
330
1F
100
AcDbEntity
  8
외형선
  6
Continuous
370
    15
100
AcDbSpline
210
0.0
220
0.0
230
1.0
 70
     8
 71
     3
 72
    10
 73
     6
 74
     0
 42
0.000000001
 43
0.00000001
 40
0.0
 40
0.0
 40
0.0
 40
0.0
 40
0.5
 40
0.5
 40
1.0
 40
1.0
 40
1.0
 40
1.0
 10
11.99999999999996
 20
0.1603978964810203
 30
0.0
 10
11.83242289909374
 20
0.3274632238685633
 30
0.0
 10
11.66499660490421
 20
0.4943120132586851
 30
0.0
 10
11.33200016256539
 20
0.8260281966055626
 30
0.0
 10
11.16698442266641
 20
0.9907154468917053
 30
0.0
 10
11.00037522306453
 20
1.154735404977317
 30
0.0
  0
LINE
  5
D4
330
1F
100
AcDbEntity
  8
외형선
  6
Continuous
370
    15
100
AcDbLine
 10
11.00037522306452
 20
-3.702634366691374
 30
0.0
 11
11.00037522306452
 21
1.154731321501512
 31
0.0
  0
SPLINE
  5
D5
330
1F
100
AcDbEntity
  8
외형선
  6
Continuous
370
    15
100
AcDbSpline
210
0.0
220
0.0
230
1.0
 70
     8
 71
     3
 72
    10
 73
     6
 74
     0
 42
0.000000001
 43
0.00000001
 40
0.0
 40
0.0
 40
0.0
 40
0.0
 40
0.5
 40
0.5
 40
1.0
 40
1.0
 40
1.0
 40
1.0
 10
11.99999999999998
 20
-4.466278656901542
 30
0.0
 10
11.83242289909375
 20
-4.347512080954532
 30
0.0
 10
11.66499660490421
 20
-4.224133099044002
 30
0.0
 10
11.33200016256539
 20
-3.969356563499622
 30
0.0
 10
11.16698442266641
 20
-3.838121848695522
 30
0.0
 10
11.00037522306453
 20
-3.702636237935491
 30
0.0
  0
SPLINE
  5
D6
330
1F
100
AcDbEntity
  8
외형선
  6
Continuous
370
    15
100
AcDbSpline
210
0.0
220
0.0
230
1.0
 70
     8
 71
     3
 72
    10
 73
     6
 74
     0
 42
0.000000001
 43
0.00000001
 40
0.0
 40
0.0
 40
0.0
 40
0.0
 40
0.5
 40
0.5
 40
1.0
 40
1.0
 40
1.0
 40
1.0
 10
11.99999999999996
 20
-5.416793682263659
 30
0.0
 10
11.83242289909374
 20
-5.329629750076211
 30
0.0
 10
11.66499660490421
 20
-5.236854756141311
 30
0.0
 10
11.33200016256539
 20
-5.041017205924787
 30
0.0
 10
11.16698442266641
 20
-4.938090399153129
 30
0.0
 10
11.00037522306453
 20
-4.829837026444841
 30
0.0
  0
LINE
  5
D7
330
1F
100
AcDbEntity
  8
외형선
  6
Continuous
370
    15
100
AcDbLine
 10
11.00037522306452
 20
-6.348925071276105
 30
0.0
 11
11.00037522306452
 21
-4.829839721542664
 31
0.0
  0
SPLINE
  5
D8
330
1F
100
AcDbEntity
  8
외형선
  6
Continuous
370
    15
100
AcDbSpline
210
0.0
220
0.0
230
1.0
 70
     8
 71
     3
 72
    10
 73
     6
 74
     0
 42
0.000000001
 43
0.00000001
 40
0.0
 40
0.0
 40
0.0
 40
0.0
 40
0.5
 40
0.5
 40
1.0
 40
1.0
 40
1.0
 40
1.0
 10
11.99999999999998
 20
-6.140790569326804
 30
0.0
 10
11.83242289909375
 20
-6.183226627013006
 30
0.0
 10
11.66499660490421
 20
-6.219258897778959
 30
0.0
 10
11.33200016256539
 20
-6.278263160321708
 30
0.0
 10
11.16698442266641
 20
-6.301235714274044
 30
0.0
 10
11.00037522306453
 20
-6.31774469022014
 30
0.0
  0
LINE
  5
D9
330
1F
100
AcDbEntity
  8
외형선
  6
Continuous
370
    15
100
AcDbLine
 10
-37.53000000000002
 20
0.0010749287238949
 30
0.0
 11
-37.53000000000002
 21
6.351074928723895
 31
0.0
  0
LINE
  5
DA
330
1F
100
AcDbEntity
  8
외형선
  6
Continuous
370
    15
100
AcDbLine
 10
-37.53000000000002
 20
-6.348925071276105
 30
0.0
 11
-37.53000000000002
 21
0.0010749287238949
 31
0.0
  0
LINE
  5
DB
330
1F
100
AcDbEntity
  8
외형선
  6
Continuous
370
    15
100
AcDbLine
 10
-38.80000000000003
 20
0.0010749287238949
 30
0.0
 11
-38.80000000000003
 21
5.0810749287239
 31
0.0
  0
LINE
  5
DC
330
1F
100
AcDbEntity
  8
외형선
  6
Continuous
370
    15
100
AcDbLine
 10
-38.80000000000003
 20
-5.078925071276109
 30
0.0
 11
-38.80000000000003
 21
0.0010749287238949
 31
0.0
  0
SPLINE
  5
DD
330
1F
100
AcDbEntity
  8
외형선
  6
Continuous
370
    15
100
AcDbSpline
210
0.0
220
0.0
230
1.0
 70
    24
 71
     3
 72
    21
 73
    17
 74
     0
 42
0.000000001
 43
0.00000001
 40
0.0
 40
0.0
 40
0.0
 40
0.0
 40
0.0940718339979383
 40
0.1635018812912929
 40
0.2349454046596772
 40
0.3043754519530218
 40
0.3758189753213986
 40
0.4452490226147541
 40
0.5166925459831548
 40
0.5861225932765058
 40
0.6575661166448893
 40
0.7269961639382432
 40
0.7984396873066294
 40
0.8678697345999643
 40
0.9393132579683304
 40
0.9999999999999999
 40
0.9999999999999999
 40
0.9999999999999999
 40
0.9999999999999999
 10
11.99999999999998
 20
-4.466278656901537
 30
0.0
 10
11.99999999999998
 20
-4.351540468235116
 30
0.0
 10
11.99999999999998
 20
-4.15211935666918
 30
0.0
 10
11.99999999999996
 20
-3.777182580165345
 30
0.0
 10
11.99999999999993
 20
-3.405608234000778
 30
0.0
 10
12.00000000000004
 20
-2.998957715619964
 30
0.0
 10
11.99999999999988
 20
-2.577706353678432
 30
0.0
 10
12.00000000000005
 20
-2.145754733982423
 30
0.0
 10
11.99999999999998
 20
-1.72321857402884
 30
0.0
 10
12.0
 20
-1.314432968527715
 30
0.0
 10
12.0
 20
-0.9382902463092139
 30
0.0
 10
11.99999999999991
 20
-0.5988302335840381
 30
0.0
 10
12.00000000000002
 20
-0.3111558103392987
 30
0.0
 10
11.99999999999996
 20
-0.0805346966221383
 30
0.0
 10
11.99999999999997
 20
0.0838041952661939
 30
0.0
 10
11.99999999999998
 20
0.1362909867805293
 30
0.0
 10
11.99999999999998
 20
0.1603978964810197
 30
0.0
  0
SPLINE
  5
DE
330
1F
100
AcDbEntity
  8
외형선
  6
Continuous
370
    15
100
AcDbSpline
210
0.0
220
0.0
230
1.0
 70
    24
 71
     3
 72
    21
 73
    17
 74
     0
 42
0.000000001
 43
0.00000001
 40
0.0
 40
0.0
 40
0.0
 40
0.0
 40
0.0495919521670351
 40
0.1232662337986624
 40
0.1969405154302899
 40
0.2706147970619356
 40
0.3442890786935811
 40
0.4179633603252155
 40
0.4916376419568498
 40
0.5653119235884869
 40
0.6389862052201241
 40
0.7126604868517409
 40
0.7863347684833577
 40
0.8600090501150144
 40
0.9336833317466714
 40
0.9999999999999999
 40
0.9999999999999999
 40
0.9999999999999999
 40
0.9999999999999999
 10
11.99999999999997
 20
1.410789634651329
 30
0.0
 10
11.99999999999996
 20
1.408897010372915
 30
0.0
 10
11.99999999999994
 20
1.404192685243502
 30
0.0
 10
11.99999999999996
 20
1.480334002215682
 30
0.0
 10
11.99999999999992
 20
1.623932951306748
 30
0.0
 10
11.99999999999996
 20
1.83745557364084
 30
0.0
 10
12.0
 20
2.108756014888918
 30
0.0
 10
11.99999999999998
 20
2.433372715765915
 30
0.0
 10
11.99999999999998
 20
2.799886791307333
 30
0.0
 10
11.99999999999998
 20
3.199506103976496
 30
0.0
 10
12.0
 20
3.619786507978535
 30
0.0
 10
11.99999999999998
 20
4.049350278955513
 30
0.0
 10
11.99999999999997
 20
4.476155637703357
 30
0.0
 10
11.99999999999998
 20
4.886669703013615
 30
0.0
 10
12.00000000000002
 20
5.261101671288295
 30
0.0
 10
12.0
 20
5.476315278449874
 30
0.0
 10
11.99999999999999
 20
5.578266507450478
 30
0.0
  0
SPLINE
  5
DF
330
1F
100
AcDbEntity
  8
외형선
  6
Continuous
370
    15
100
AcDbSpline
210
0.0
220
0.0
230
1.0
 70
    24
 71
     3
 72
    10
 73
     6
 74
     0
 42
0.000000001
 43
0.00000001
 40
0.0
 40
0.0
 40
0.0
 40
0.0
 40
0.4253300611042858
 40
0.8561130500115125
 40
1.0
 40
1.0
 40
1.0
 40
1.0
 10
11.99999999999997
 20
-6.140790569326807
 30
0.0
 10
11.99999999999999
 20
-6.046481602306554
 30
0.0
 10
12.00000000000002
 20
-5.856654583756485
 30
0.0
 10
11.99999999999996
 20
-5.6362649139383
 30
0.0
 10
11.99999999999998
 20
-5.517202692090654
 30
0.0
 10
11.99999999999998
 20
-5.487391667011754
 30
0.0
  0
LINE
  5
E0
330
1F
100
AcDbEntity
  8
중심선
 48
0.8
100
AcDbLine
 10
-41.80000000000002
 20
0.0010749287238888
 30
0.0
 11
65.79999999999998
 21
0.001074928723902
 31
0.0
  0
LINE
  5
E1
330
1F
100
AcDbEntity
  8
참조1
100
AcDbLine
 10
8.825000000000042
 20
0.0010749287238892
 30
0.0
 11
8.825000000000042
 21
-39.99892507127613
 31
0.0
  0
LINE
  5
E2
330
1F
100
AcDbEntity
  8
참조1
100
AcDbLine
 10
8.825000000000042
 20
-39.99892507127613
 30
0.0
 11
-9.508856814308633
 21
-39.9989250712761
 31
0.0
  0
CIRCLE
  5
E3
330
1F
100
AcDbEntity
  8
해칭선
100
AcDbCircle
 10
0.0
 20
0.0
 30
0.0
 40
3.000000000000001
  0
INSERT
  5
E4
330
1F
100
AcDbEntity
  8
0
  6
Continuous
 62
     7
100
AcDbBlockReference
 66
     1
  2
블럭10
 10
-1.940272932125231
 20
-52.04609937292005
 30
0.0
  0
ATTRIB
  5
E5
330
E4
100
AcDbEntity
  8
FORMAT
 62
     2
100
AcDbText
 10
-11.12156822086651
 20
-49.97073246008787
 30
0.0
 40
4.233333333333333
  1
E1162032 [ 6 FLUTE ]
 41
0.75
  7
SLDTEXTSTYLE0
 11
-11.12156822086651
 21
-52.08739912675453
 31
0.0
100
AcDbAttribute
  2
AUTOATTR0
 70
     0
 74
     1
  0
SEQEND
  5
E6
330
E4
100
AcDbEntity
  8
0
  6
Continuous
 62
     7
  0
HATCH
  5
E7
330
1F
100
AcDbEntity
  8
중심선
100
AcDbHatch
 10
0.0
 20
0.0
 30
0.0
210
0.0
220
0.0
230
1.0
  2
SOLID
 70
     1
 71
     0
 91
        1
 92
        0
 93
        4
 72
     1
 10
3.774636372255627
 20
-35.7989250712761
 11
0.3283611284183445
 21
-35.7989250712761
 72
     1
 10
0.3283611284183445
 20
-35.7989250712761
 11
-1.799868730785678
 21
-38.3352506518487
 72
     1
 10
-1.799868730785678
 20
-38.3352506518487
 11
1.646439598164753
 21
-38.33521122254621
 72
     1
 10
1.646439598164753
 20
-38.33521122254621
 11
3.774636372255627
 21
-35.7989250712761
 97
        0
 75
     0
 76
     1
 98
        1
 10
3.174999999999942
 20
0.0
  0
HATCH
  5
E8
330
1F
100
AcDbEntity
  8
중심선
100
AcDbHatch
 10
0.0
 20
0.0
 30
0.0
210
0.0
220
0.0
230
1.0
  2
SOLID
 70
     1
 71
     0
 91
        1
 92
        0
 93
        4
 72
     1
 10
8.787400363291606
 20
-35.79892507127613
 11
5.341125119454324
 21
-35.79892507127608
 72
     1
 10
5.341125119454324
 20
-35.79892507127608
 11
0.8099871110969081
 21
-41.19892507127612
 72
     1
 10
0.8099871110969077
 20
-41.19892507127612
 11
4.25626235493419
 21
-41.19892507127612
 72
     1
 10
4.25626235493419
 20
-41.19892507127612
 11
8.787400363291606
 21
-35.79892507127613
 97
        0
 75
     0
 76
     1
 98
        1
 10
3.174999999999942
 20
0.0
  0
HATCH
  5
E9
330
1F
100
AcDbEntity
  8
중심선
100
AcDbHatch
 10
0.0
 20
0.0
 30
0.0
210
0.0
220
0.0
230
1.0
  2
SOLID
 70
     1
 71
     0
 91
        1
 92
        0
 93
        4
 72
     1
 10
13.8001643543275
 20
-35.7989250712761
 11
10.35388911049039
 21
-35.7989250712761
 72
     1
 10
10.35388911049039
 20
-35.7989250712761
 11
3.305452208601109
 21
-44.19892507127612
 72
     1
 10
3.305452208601109
 20
-44.19892507127612
 11
6.751727452438391
 21
-44.19892507127612
 72
     1
 10
6.751727452438391
 20
-44.19892507127612
 11
13.8001643543275
 21
-35.7989250712761
 97
        0
 75
     0
 76
     1
 98
        1
 10
3.174999999999942
 20
0.0
  0
HATCH
  5
EA
330
1F
100
AcDbEntity
  8
중심선
100
AcDbHatch
 10
0.0
 20
0.0
 30
0.0
210
0.0
220
0.0
230
1.0
  2
SOLID
 70
     1
 71
     0
 91
        1
 92
        0
 93
        6
 72
     3
 10
18.60005478533967
 20
-39.99892507132738
 11
3.960054785062283
 21
1.540882976769353E-10
 40
0.3939339440162628
 50
17.09539180608437
 51
320.0019657685075
 73
     0
 72
     1
 10
20.28305444104027
 20
-38.58681907591438
 11
22.58835631474133
 21
-36.65249236586649
 72
     3
 10
18.60005478528683
 20
-39.99892507127625
 11
6.600054785286829
 21
-1.278976924368180E-13
 40
0.636358354079598
 50
39.99873849337386
 51
368.4976242363725
 73
     1
 72
     1
 10
25.02538727718743
 20
-39.03892507120613
 11
17.28012209212275
 21
-39.03892507120613
 72
     1
 10
17.28012209212275
 20
-39.03892507120613
 11
17.28009704767681
 21
-40.95892507120602
 72
     1
 10
17.28009704767681
 20
-40.95892507120602
 11
21.72147681714885
 21
-40.95892507120599
 97
        0
 75
     0
 76
     1
 98
        1
 10
3.174999999999942
 20
0.0
  0
DIMENSION
  5
EB
330
1F
100
AcDbEntity
  8
치수문자_일반주서
100
AcDbDimension
  2
_D
 10
-52.11750000000002
 20
-6.348925071276155
 30
0.0
 11
-52.11750000000004
 21
0.0010749287238896
 31
0.0
 70
   160
  1
%%c<>
 71
     2
 42
12.69999999999999
 52
-270.0
  3
SLDDIMSTYLE0
100
AcDbAlignedDimension
 13
-37.53000000000003
 23
6.351074928723889
 33
0.0
 14
-37.53000000000003
 24
-6.3489250712761
 34
0.0
 50
90.0000000000002
100
AcDbRotatedDimension
1001
ACAD
1000
DSTYLE
1002
{
1070
   171
1070
     6
1070
   273
1070
     7
1002
}
  0
DIMENSION
  5
100
330
1F
100
AcDbEntity
  8
치수문자_일반주서
100
AcDbDimension
  2
_D_1
 10
11.99999999999997
 20
28.8447226675572
 30
0.0
 11
37.39999999999996
 21
28.8447226675572
 31
0.0
 70
   160
  1
<>
 71
     2
 42
50.8
  3
SLDDIMSTYLE0
100
AcDbAlignedDimension
 13
62.79999999999998
 23
6.351074928723898
 33
0.0
 14
11.99999999999997
 24
6.142940426774607
 34
0.0
100
AcDbRotatedDimension
1001
ACAD
1000
DSTYLE
1002
{
1070
   171
1070
     6
1070
   273
1070
     7
1002
}
  0
DIMENSION
  5
114
330
1F
100
AcDbEntity
  8
치수문자_일반주서
100
AcDbDimension
  2
_D_2
 10
-38.80000000000003
 20
40.84472266755721
 30
0.0
 11
11.99999999999998
 21
40.84472266755721
 31
0.0
 70
   160
  1
<>
 71
     2
 42
101.6
  3
SLDDIMSTYLE0
100
AcDbAlignedDimension
 13
62.79999999999998
 23
6.351074928723898
 33
0.0
 14
-38.80000000000003
 24
5.0810749287239
 34
0.0
100
AcDbRotatedDimension
1001
ACAD
1000
DSTYLE
1002
{
1070
   171
1070
     6
1070
   273
1070
     7
1002
}
  0
DIMENSION
  5
127
330
1F
100
AcDbEntity
  8
치수문자_일반주서
100
AcDbDimension
  2
_D_3
 10
81.18080630899341
 20
-6.348925071276035
 30
0.0
 11
81.1808063089933
 21
26.73632492872396
 31
0.0
 70
   160
  1
%%c<>
 71
     2
 42
12.70000000000001
 52
-270.0
  3
SLDDIMSTYLE0
100
AcDbAlignedDimension
 13
62.79999999999998
 23
6.351074928723898
 33
0.0
 14
62.79999999999998
 24
-6.348925071276108
 34
0.0
 50
90.0000000000002
100
AcDbRotatedDimension
1001
ACAD
1000
DSTYLE
1002
{
1070
   171
1070
     6
1070
   273
1070
     7
1002
}
  0
LINE
  5
13A
330
1F
100
AcDbEntity
  8
참조1
100
AcDbLine
 10
88.46348381534564
 20
7.441074928723896
 30
0.0
 11
88.46348381534564
 21
-7.438925071276109
 31
0.0
  0
LINE
  5
13B
330
1F
100
AcDbEntity
  8
참조1
100
AcDbLine
 10
101.1634838153456
 20
5.441074928723896
 30
0.0
 11
88.46348381534564
 21
5.441074928723896
 31
0.0
  0
SOLID
  5
13C
330
1F
100
AcDbEntity
  8
참조1
100
AcDbTrace
 10
88.46348381534564
 20
5.441074928723896
 30
0.0
 11
94.81348381534563
 21
4.425074928723896
 31
0.0
 12
94.81348381534563
 22
6.457074928723896
 32
0.0
 13
94.81348381534563
 23
6.457074928723896
 33
0.0
  0
LINE
  5
13D
330
1F
100
AcDbEntity
  8
참조1
100
AcDbLine
 10
101.1634838153456
 20
-5.438925071276109
 30
0.0
 11
88.46348381534564
 21
-5.438925071276109
 31
0.0
  0
SOLID
  5
13E
330
1F
100
AcDbEntity
  8
참조1
100
AcDbTrace
 10
88.46348381534564
 20
-5.438925071276109
 30
0.0
 11
94.81348381534563
 21
-6.454925071276109
 31
0.0
 12
94.81348381534563
 22
-4.422925071276109
 32
0.0
 13
94.81348381534563
 23
-4.422925071276109
 33
0.0
  0
MTEXT
  5
13F
330
1F
100
AcDbEntity
  8
참조1
100
AcDbMText
 10
97.8609739078159
 20
10.98929157337383
 30
0.0
 40
3.5
 41
0.0
 71
     1
 72
     1
  1
A
  7
SLDTEXTSTYLE0
 73
     1
 44
1.0
  0
MTEXT
  5
140
330
1F
100
AcDbEntity
  8
참조1
100
AcDbMText
 10
97.8609739078159
 20
0.1092915733738251
 30
0.0
 40
3.5
 41
0.0
 71
     1
 72
     1
  1
A
  7
SLDTEXTSTYLE0
 73
     1
 44
1.0
  0
INSERT
  5
147
330
1F
100
AcDbEntity
  8
해칭선
100
AcDbBlockReference
  2
SW_DOWELSYMBOL_0
 10
0.0
 20
0.0
 30
0.0
  0
LINE
  5
219
330
1F
100
AcDbEntity
  8
외형선
  6
Continuous
370
    15
100
AcDbLine
 10
-21.766125
 20
4.827074928723889
 30
0.0
 11
-10.59012500000013
 21
4.827074928723889
 31
0.0
  0
LINE
  5
21A
330
1F
100
AcDbEntity
  8
외형선
  6
Continuous
370
    15
100
AcDbLine
 10
-21.766125
 20
4.827074928723889
 30
0.0
 11
-23.290125
 21
6.351074928723889
 31
0.0
  0
LINE
  5
21B
330
1F
100
AcDbEntity
  8
외형선
  6
Continuous
370
    15
100
AcDbLine
 10
-10.59012500000001
 20
4.827074928723889
 30
0.0
 11
-9.066125000000012
 21
6.351074928723889
 31
0.0
  0
LINE
  5
21E
330
1F
100
AcDbEntity
  8
외형선
  6
Continuous
370
    15
100
AcDbLine
 10
-23.29012500000001
 20
6.351074928723895
 30
0.0
 11
-37.53000000000002
 21
6.351074928723895
 31
0.0
  0
ENDSEC
  0
SECTION
  2
OBJECTS
  0
DICTIONARY
  5
C
330
0
100
AcDbDictionary
281
     1
  3
ACAD_GROUP
350
D
  3
ACAD_IMAGE_VARS
350
16B
  3
ACAD_LAYOUT
350
1A
  3
ACAD_MLINESTYLE
350
17
  3
ACAD_PLOTSETTINGS
350
19
  3
ACAD_PLOTSTYLENAME
350
E
  3
ACAD_SCALELIST
350
47
  3
APPDATA
350
169
  3
DWGPROPS
350
221
  0
DICTIONARY
  5
192
330
2
100
AcDbDictionary
280
     1
281
     1
  3
ACAD_LAYERSTATES
360
193
  0
DICTIONARY
  5
D
102
{ACAD_REACTORS
330
C
102
}
330
C
100
AcDbDictionary
281
     1
  0
RASTERVARIABLES
  5
16B
102
{ACAD_REACTORS
330
C
102
}
330
C
100
AcDbRasterVariables
 90
        0
 70
     1
 71
     1
 72
     1
  0
DICTIONARY
  5
1A
102
{ACAD_REACTORS
330
C
102
}
330
C
100
AcDbDictionary
281
     1
  3
Layout1
350
1E
  3
Layout2
350
26
  3
Model
350
22
  0
DICTIONARY
  5
17
102
{ACAD_REACTORS
330
C
102
}
330
C
100
AcDbDictionary
281
     1
  3
Standard
350
18
  0
DICTIONARY
  5
19
102
{ACAD_REACTORS
330
C
102
}
330
C
100
AcDbDictionary
281
     1
  0
ACDBDICTIONARYWDFLT
  5
E
102
{ACAD_REACTORS
330
C
102
}
330
C
100
AcDbDictionary
281
     1
  3
Normal
350
F
100
AcDbDictionaryWithDefault
340
F
  0
DICTIONARY
  5
47
102
{ACAD_REACTORS
330
C
102
}
330
C
100
AcDbDictionary
281
     1
  3
A0
350
48
  3
A1
350
49
  3
A2
350
4A
  3
A3
350
4B
  3
A4
350
4C
  3
A5
350
4D
  3
A6
350
4E
  3
A7
350
4F
  3
A8
350
50
  3
A9
350
51
  3
B0
350
52
  3
B1
350
53
  3
B2
350
54
  3
B3
350
55
  3
B4
350
56
  3
B5
350
57
  3
B6
350
58
  3
B7
350
59
  3
B8
350
5A
  3
B9
350
5B
  3
C0
350
5C
  3
C1
350
5D
  3
C2
350
5E
  3
C3
350
5F
  3
C4
350
60
  3
C5
350
61
  3
C6
350
62
  3
C7
350
63
  3
C8
350
64
  3
C9
350
65
  3
D0
350
66
  3
D1
350
67
  3
D2
350
68
  0
DICTIONARY
  5
169
102
{ACAD_REACTORS
330
C
102
}
330
C
100
AcDbDictionary
281
     1
  0
XRECORD
  5
221
102
{ACAD_REACTORS
330
C
102
}
330
C
100
AcDbXrecord
280
     1
  1
DWGPROPS COOKIE
  2

  3

  4

  6

  7

  8
12017012
  9

300
=
301
=
302
=
303
=
304
=
305
=
306
=
307
=
308
=
309
=
 40
0.0
 41
2458323.064838739
 42
2458323.299154248
  1

 90
        0
  0
DICTIONARY
  5
193
102
{ACAD_REACTORS
330
192
102
}
330
192
100
AcDbDictionary
281
     1
  0
LAYOUT
  5
1E
102
{ACAD_REACTORS
330
1A
102
}
330
1A
100
AcDbPlotSettings
  1

  2
none_device
  4

  6

 40
0.0
 41
0.0
 42
0.0
 43
0.0
 44
0.0
 45
0.0
 46
0.0
 47
0.0
 48
0.0
 49
0.0
140
0.0
141
0.0
142
1.0
143
1.0
 70
   688
 72
     1
 73
     0
 74
     5
  7

 75
    16
147
1.0
148
0.0
149
0.0
100
AcDbLayout
  1
Layout1
 70
     1
 71
     1
 10
0.0
 20
0.0
 11
420.0
 21
297.0
 12
0.0
 22
0.0
 32
0.0
 14
1.000000000000000E+20
 24
1.000000000000000E+20
 34
1.000000000000000E+20
 15
-1.000000000000000E+20
 25
-1.000000000000000E+20
 35
-1.000000000000000E+20
146
0.0
 13
0.0
 23
0.0
 33
0.0
 16
1.0
 26
0.0
 36
0.0
 17
0.0
 27
1.0
 37
0.0
 76
     0
330
1B
  0
LAYOUT
  5
26
102
{ACAD_REACTORS
330
1A
102
}
330
1A
100
AcDbPlotSettings
  1

  2
none_device
  4

  6

 40
0.0
 41
0.0
 42
0.0
 43
0.0
 44
0.0
 45
0.0
 46
0.0
 47
0.0
 48
0.0
 49
0.0
140
0.0
141
0.0
142
1.0
143
1.0
 70
   688
 72
     1
 73
     0
 74
     5
  7

 75
    16
147
1.0
148
0.0
149
0.0
100
AcDbLayout
  1
Layout2
 70
     1
 71
     2
 10
0.0
 20
0.0
 11
0.0
 21
0.0
 12
0.0
 22
0.0
 32
0.0
 14
0.0
 24
0.0
 34
0.0
 15
0.0
 25
0.0
 35
0.0
146
0.0
 13
0.0
 23
0.0
 33
0.0
 16
1.0
 26
0.0
 36
0.0
 17
0.0
 27
1.0
 37
0.0
 76
     0
330
23
  0
LAYOUT
  5
22
102
{ACAD_REACTORS
330
1A
102
}
330
1A
100
AcDbPlotSettings
  1

  2
none_device
  4
ANSI_A_(11.00_x_8.50_Inches)
  6

 40
6.35
 41
19.05
 42
6.35000508
 43
19.05000254
 44
279.4
 45
215.9
 46
53.85974687339649
 47
88.48932810346699
 48
0.0
 49
0.0
140
0.0
141
0.0
142
0.0350374396758379
143
1.0
 70
  1696
 72
     0
 73
     0
 74
     0
  7

 75
     0
147
0.0235690232323232
148
0.0
149
0.0
100
AcDbLayout
  1
Model
 70
     1
 71
     0
 10
0.0
 20
0.0
 11
420.0
 21
297.0
 12
0.0
 22
0.0
 32
0.0
 14
1.000000000000000E+20
 24
1.000000000000000E+20
 34
1.000000000000000E+20
 15
-1.000000000000000E+20
 25
-1.000000000000000E+20
 35
-1.000000000000000E+20
146
0.0
 13
0.0
 23
0.0
 33
0.0
 16
1.0
 26
0.0
 36
0.0
 17
0.0
 27
1.0
 37
0.0
 76
     0
330
1F
331
29
  0
MLINESTYLE
  5
18
102
{ACAD_REACTORS
330
17
102
}
330
17
100
AcDbMlineStyle
  2
Standard
 70
     0
  3

 62
   256
 51
90.0
 52
90.0
 71
     2
 49
0.5
 62
   256
  6
BYLAYER
 49
-0.5
 62
   256
  6
BYLAYER
  0
ACDBPLACEHOLDER
  5
F
102
{ACAD_REACTORS
330
E
102
}
330
E
  0
SCALE
  5
48
102
{ACAD_REACTORS
330
47
102
}
330
47
100
AcDbScale
 70
     0
300
1:1
140
1.0
141
1.0
290
     1
  0
SCALE
  5
49
102
{ACAD_REACTORS
330
47
102
}
330
47
100
AcDbScale
 70
     0
300
1:2
140
1.0
141
2.0
290
     0
  0
SCALE
  5
4A
102
{ACAD_REACTORS
330
47
102
}
330
47
100
AcDbScale
 70
     0
300
1:4
140
1.0
141
4.0
290
     0
  0
SCALE
  5
4B
102
{ACAD_REACTORS
330
47
102
}
330
47
100
AcDbScale
 70
     0
300
1:5
140
1.0
141
5.0
290
     0
  0
SCALE
  5
4C
102
{ACAD_REACTORS
330
47
102
}
330
47
100
AcDbScale
 70
     0
300
1:8
140
1.0
141
8.0
290
     0
  0
SCALE
  5
4D
102
{ACAD_REACTORS
330
47
102
}
330
47
100
AcDbScale
 70
     0
300
1:10
140
1.0
141
10.0
290
     0
  0
SCALE
  5
4E
102
{ACAD_REACTORS
330
47
102
}
330
47
100
AcDbScale
 70
     0
300
1:16
140
1.0
141
16.0
290
     0
  0
SCALE
  5
4F
102
{ACAD_REACTORS
330
47
102
}
330
47
100
AcDbScale
 70
     0
300
1:20
140
1.0
141
20.0
290
     0
  0
SCALE
  5
50
102
{ACAD_REACTORS
330
47
102
}
330
47
100
AcDbScale
 70
     0
300
1:30
140
1.0
141
30.0
290
     0
  0
SCALE
  5
51
102
{ACAD_REACTORS
330
47
102
}
330
47
100
AcDbScale
 70
     0
300
1:40
140
1.0
141
40.0
290
     0
  0
SCALE
  5
52
102
{ACAD_REACTORS
330
47
102
}
330
47
100
AcDbScale
 70
     0
300
1:50
140
1.0
141
50.0
290
     0
  0
SCALE
  5
53
102
{ACAD_REACTORS
330
47
102
}
330
47
100
AcDbScale
 70
     0
300
1:100
140
1.0
141
100.0
290
     0
  0
SCALE
  5
54
102
{ACAD_REACTORS
330
47
102
}
330
47
100
AcDbScale
 70
     0
300
2:1
140
2.0
141
1.0
290
     0
  0
SCALE
  5
55
102
{ACAD_REACTORS
330
47
102
}
330
47
100
AcDbScale
 70
     0
300
4:1
140
4.0
141
1.0
290
     0
  0
SCALE
  5
56
102
{ACAD_REACTORS
330
47
102
}
330
47
100
AcDbScale
 70
     0
300
8:1
140
8.0
141
1.0
290
     0
  0
SCALE
  5
57
102
{ACAD_REACTORS
330
47
102
}
330
47
100
AcDbScale
 70
     0
300
10:1
140
10.0
141
1.0
290
     0
  0
SCALE
  5
58
102
{ACAD_REACTORS
330
47
102
}
330
47
100
AcDbScale
 70
     0
300
100:1
140
100.0
141
1.0
290
     0
  0
SCALE
  5
59
102
{ACAD_REACTORS
330
47
102
}
330
47
100
AcDbScale
 70
     0
300
1/128" = 1'-0"
140
0.0078125
141
12.0
290
     0
  0
SCALE
  5
5A
102
{ACAD_REACTORS
330
47
102
}
330
47
100
AcDbScale
 70
     0
300
1/64" = 1'-0"
140
0.015625
141
12.0
290
     0
  0
SCALE
  5
5B
102
{ACAD_REACTORS
330
47
102
}
330
47
100
AcDbScale
 70
     0
300
1/32" = 1'-0"
140
0.03125
141
12.0
290
     0
  0
SCALE
  5
5C
102
{ACAD_REACTORS
330
47
102
}
330
47
100
AcDbScale
 70
     0
300
1/16" = 1'-0"
140
0.0625
141
12.0
290
     0
  0
SCALE
  5
5D
102
{ACAD_REACTORS
330
47
102
}
330
47
100
AcDbScale
 70
     0
300
3/32" = 1'-0"
140
0.09375
141
12.0
290
     0
  0
SCALE
  5
5E
102
{ACAD_REACTORS
330
47
102
}
330
47
100
AcDbScale
 70
     0
300
1/8" = 1'-0"
140
0.125
141
12.0
290
     0
  0
SCALE
  5
5F
102
{ACAD_REACTORS
330
47
102
}
330
47
100
AcDbScale
 70
     0
300
3/16" = 1'-0"
140
0.1875
141
12.0
290
     0
  0
SCALE
  5
60
102
{ACAD_REACTORS
330
47
102
}
330
47
100
AcDbScale
 70
     0
300
1/4" = 1'-0"
140
0.25
141
12.0
290
     0
  0
SCALE
  5
61
102
{ACAD_REACTORS
330
47
102
}
330
47
100
AcDbScale
 70
     0
300
3/8" = 1'-0"
140
0.375
141
12.0
290
     0
  0
SCALE
  5
62
102
{ACAD_REACTORS
330
47
102
}
330
47
100
AcDbScale
 70
     0
300
1/2" = 1'-0"
140
0.5
141
12.0
290
     0
  0
SCALE
  5
63
102
{ACAD_REACTORS
330
47
102
}
330
47
100
AcDbScale
 70
     0
300
3/4" = 1'-0"
140
0.75
141
12.0
290
     0
  0
SCALE
  5
64
102
{ACAD_REACTORS
330
47
102
}
330
47
100
AcDbScale
 70
     0
300
1" = 1'-0"
140
1.0
141
12.0
290
     0
  0
SCALE
  5
65
102
{ACAD_REACTORS
330
47
102
}
330
47
100
AcDbScale
 70
     0
300
1-1/2" = 1'-0"
140
1.5
141
12.0
290
     0
  0
SCALE
  5
66
102
{ACAD_REACTORS
330
47
102
}
330
47
100
AcDbScale
 70
     0
300
3" = 1'-0"
140
3.0
141
12.0
290
     0
  0
SCALE
  5
67
102
{ACAD_REACTORS
330
47
102
}
330
47
100
AcDbScale
 70
     0
300
6" = 1'-0"
140
6.0
141
12.0
290
     0
  0
SCALE
  5
68
102
{ACAD_REACTORS
330
47
102
}
330
47
100
AcDbScale
 70
     0
300
1'-0" = 1'-0"
140
12.0
141
12.0
290
     0
  0
ENDSEC
  0
EOF
