  0
SECTION
  2
HEADER
  9
$ACADVER
  1
AC1015
  9
$ACADMAINTVER
 70
     6
  9
$DWGCODEPAGE
  3
ANSI_949
  9
$INSBASE
 10
0.0
 20
0.0
 30
0.0
  9
$EXTMIN
 10
1.000000000000000E+20
 20
1.000000000000000E+20
 30
1.000000000000000E+20
  9
$EXTMAX
 10
-1.000000000000000E+20
 20
-1.000000000000000E+20
 30
-1.000000000000000E+20
  9
$LIMMIN
 10
0.0
 20
0.0
  9
$LIMMAX
 10
420.0
 20
297.0
  9
$ORTHOMODE
 70
     1
  9
$REGENMODE
 70
     1
  9
$FILLMODE
 70
     1
  9
$QTEXTMODE
 70
     0
  9
$MIRRTEXT
 70
     1
  9
$LTSCALE
 40
1.0
  9
$ATTMODE
 70
     1
  9
$TEXTSIZE
 40
3.5
  9
$TRACEWID
 40
1.0
  9
$TEXTSTYLE
  7
Standard
  9
$CLAYER
  8
0
  9
$CELTYPE
  6
ByLayer
  9
$CECOLOR
 62
   256
  9
$CELTSCALE
 40
1.0
  9
$DISPSILH
 70
     0
  9
$DIMSCALE
 40
1.0
  9
$DIMASZ
 40
3.302
  9
$DIMEXO
 40
1.0
  9
$DIMDLI
 40
3.75
  9
$DIMRND
 40
0.0
  9
$DIMDLE
 40
0.0
  9
$DIMEXE
 40
1.0
  9
$DIMTP
 40
0.0
  9
$DIMTM
 40
0.0
  9
$DIMTXT
 40
3.5
  9
$DIMCEN
 40
2.5
  9
$DIMTSZ
 40
0.0
  9
$DIMTOL
 70
     0
  9
$DIMLIM
 70
     0
  9
$DIMTIH
 70
     1
  9
$DIMTOH
 70
     1
  9
$DIMSE1
 70
     0
  9
$DIMSE2
 70
     0
  9
$DIMTAD
 70
     1
  9
$DIMZIN
 70
     0
  9
$DIMBLK
  1

  9
$DIMASO
 70
     1
  9
$DIMSHO
 70
     1
  9
$DIMPOST
  1

  9
$DIMAPOST
  1

  9
$DIMALT
 70
     0
  9
$DIMALTD
 70
     3
  9
$DIMALTF
 40
0.0393700787401575
  9
$DIMLFAC
 40
1.0
  9
$DIMTOFL
 70
     1
  9
$DIMTVP
 40
0.0
  9
$DIMTIX
 70
     0
  9
$DIMSOXD
 70
     0
  9
$DIMSAH
 70
     0
  9
$DIMBLK1
  1

  9
$DIMBLK2
  1

  9
$DIMSTYLE
  2
ISO-25
  9
$DIMCLRD
 70
     0
  9
$DIMCLRE
 70
     0
  9
$DIMCLRT
 70
     0
  9
$DIMTFAC
 40
1.0
  9
$DIMGAP
 40
1.524
  9
$DIMJUST
 70
     0
  9
$DIMSD1
 70
     0
  9
$DIMSD2
 70
     0
  9
$DIMTOLJ
 70
     0
  9
$DIMTZIN
 70
     0
  9
$DIMALTZ
 70
     0
  9
$DIMALTTZ
 70
     0
  9
$DIMUPT
 70
     0
  9
$DIMDEC
 70
     2
  9
$DIMTDEC
 70
     2
  9
$DIMALTU
 70
     2
  9
$DIMALTTD
 70
     3
  9
$DIMTXSTY
  7
Standard
  9
$DIMAUNIT
 70
     0
  9
$DIMADEC
 70
     2
  9
$DIMALTRND
 40
0.0
  9
$DIMAZIN
 70
     0
  9
$DIMDSEP
 70
    44
  9
$DIMATFIT
 70
     3
  9
$DIMFRAC
 70
     0
  9
$DIMLDRBLK
  1

  9
$DIMLUNIT
 70
     2
  9
$DIMLWD
 70
    -2
  9
$DIMLWE
 70
    -2
  9
$DIMTMOVE
 70
     0
  9
$LUNITS
 70
     2
  9
$LUPREC
 70
     2
  9
$SKETCHINC
 40
1.0
  9
$FILLETRAD
 40
10.0
  9
$AUNITS
 70
     0
  9
$AUPREC
 70
     2
  9
$MENU
  1
.
  9
$ELEVATION
 40
0.0
  9
$PELEVATION
 40
0.0
  9
$THICKNESS
 40
0.0
  9
$LIMCHECK
 70
     0
  9
$CHAMFERA
 40
0.0
  9
$CHAMFERB
 40
0.0
  9
$CHAMFERC
 40
0.0
  9
$CHAMFERD
 40
0.0
  9
$SKPOLY
 70
     0
  9
$TDCREATE
 40
2458319.744736215
  9
$TDUCREATE
 40
2458319.369736215
  9
$TDUPDATE
 40
2458323.667872477
  9
$TDUUPDATE
 40
2458323.292872477
  9
$TDINDWG
 40
0.0001249074
  9
$TDUSRTIMER
 40
2458323.29274809
  9
$USRTIMER
 70
     1
  9
$ANGBASE
 50
0.0
  9
$ANGDIR
 70
     0
  9
$PDMODE
 70
     0
  9
$PDSIZE
 40
-1.0
  9
$PLINEWID
 40
0.0
  9
$SPLFRAME
 70
     0
  9
$SPLINETYPE
 70
     6
  9
$SPLINESEGS
 70
     8
  9
$HANDSEED
  5
380
  9
$SURFTAB1
 70
     6
  9
$SURFTAB2
 70
     6
  9
$SURFTYPE
 70
     6
  9
$SURFU
 70
     6
  9
$SURFV
 70
     6
  9
$UCSBASE
  2

  9
$UCSNAME
  2

  9
$UCSORG
 10
0.0
 20
0.0
 30
0.0
  9
$UCSXDIR
 10
1.0
 20
0.0
 30
0.0
  9
$UCSYDIR
 10
0.0
 20
1.0
 30
0.0
  9
$UCSORTHOREF
  2

  9
$UCSORTHOVIEW
 70
     0
  9
$UCSORGTOP
 10
0.0
 20
0.0
 30
0.0
  9
$UCSORGBOTTOM
 10
0.0
 20
0.0
 30
0.0
  9
$UCSORGLEFT
 10
0.0
 20
0.0
 30
0.0
  9
$UCSORGRIGHT
 10
0.0
 20
0.0
 30
0.0
  9
$UCSORGFRONT
 10
0.0
 20
0.0
 30
0.0
  9
$UCSORGBACK
 10
0.0
 20
0.0
 30
0.0
  9
$PUCSBASE
  2

  9
$PUCSNAME
  2

  9
$PUCSORG
 10
0.0
 20
0.0
 30
0.0
  9
$PUCSXDIR
 10
1.0
 20
0.0
 30
0.0
  9
$PUCSYDIR
 10
0.0
 20
1.0
 30
0.0
  9
$PUCSORTHOREF
  2

  9
$PUCSORTHOVIEW
 70
     0
  9
$PUCSORGTOP
 10
0.0
 20
0.0
 30
0.0
  9
$PUCSORGBOTTOM
 10
0.0
 20
0.0
 30
0.0
  9
$PUCSORGLEFT
 10
0.0
 20
0.0
 30
0.0
  9
$PUCSORGRIGHT
 10
0.0
 20
0.0
 30
0.0
  9
$PUCSORGFRONT
 10
0.0
 20
0.0
 30
0.0
  9
$PUCSORGBACK
 10
0.0
 20
0.0
 30
0.0
  9
$USERI1
 70
     0
  9
$USERI2
 70
     0
  9
$USERI3
 70
     0
  9
$USERI4
 70
     0
  9
$USERI5
 70
     0
  9
$USERR1
 40
0.0
  9
$USERR2
 40
0.0
  9
$USERR3
 40
0.0
  9
$USERR4
 40
0.0
  9
$USERR5
 40
0.0
  9
$WORLDVIEW
 70
     1
  9
$SHADEDGE
 70
     3
  9
$SHADEDIF
 70
    70
  9
$TILEMODE
 70
     1
  9
$MAXACTVP
 70
    64
  9
$PINSBASE
 10
0.0
 20
0.0
 30
0.0
  9
$PLIMCHECK
 70
     0
  9
$PEXTMIN
 10
1.000000000000000E+20
 20
1.000000000000000E+20
 30
1.000000000000000E+20
  9
$PEXTMAX
 10
-1.000000000000000E+20
 20
-1.000000000000000E+20
 30
-1.000000000000000E+20
  9
$PLIMMIN
 10
0.0
 20
0.0
  9
$PLIMMAX
 10
0.0
 20
0.0
  9
$UNITMODE
 70
     0
  9
$VISRETAIN
 70
     1
  9
$PLINEGEN
 70
     0
  9
$PSLTSCALE
 70
     1
  9
$TREEDEPTH
 70
  3020
  9
$CMLSTYLE
  2
Standard
  9
$CMLJUST
 70
     0
  9
$CMLSCALE
 40
20.0
  9
$PROXYGRAPHICS
 70
     1
  9
$MEASUREMENT
 70
     1
  9
$CELWEIGHT
370
    -1
  9
$ENDCAPS
280
     0
  9
$JOINSTYLE
280
     0
  9
$LWDISPLAY
290
     1
  9
$INSUNITS
 70
     4
  9
$HYPERLINKBASE
  1

  9
$STYLESHEET
  1

  9
$XEDIT
290
     1
  9
$CEPSNTYPE
380
     0
  9
$PSTYLEMODE
290
     1
  9
$FINGERPRINTGUID
  2
{18A053DC-FDCA-4FEB-98F2-9E7828F6FC7A}
  9
$VERSIONGUID
  2
{FAEB1C32-E019-11D5-929B-00C0DF256EC4}
  9
$EXTNAMES
290
     1
  9
$PSVPSCALE
 40
0.0
  9
$OLESTARTUP
290
     0
  0
ENDSEC
  0
SECTION
  2
CLASSES
  0
CLASS
  1
ACDBDICTIONARYWDFLT
  2
AcDbDictionaryWithDefault
  3
ObjectDBX Classes
 90
        0
280
     0
281
     0
  0
CLASS
  1
VISUALSTYLE
  2
AcDbVisualStyle
  3
ObjectDBX Classes
 90
     4095
280
     0
281
     0
  0
CLASS
  1
MATERIAL
  2
AcDbMaterial
  3
ObjectDBX Classes
 90
     1153
280
     0
281
     0
  0
CLASS
  1
SCALE
  2
AcDbScale
  3
ObjectDBX Classes
 90
     1153
280
     0
281
     0
  0
CLASS
  1
SUN
  2
AcDbSun
  3
SCENEOE
 90
     1153
280
     0
281
     0
  0
CLASS
  1
ACDBPLACEHOLDER
  2
AcDbPlaceHolder
  3
ObjectDBX Classes
 90
        0
280
     0
281
     0
  0
CLASS
  1
LAYOUT
  2
AcDbLayout
  3
ObjectDBX Classes
 90
        0
280
     0
281
     0
  0
CLASS
  1
TABLESTYLE
  2
AcDbTableStyle
  3
ObjectDBX Classes
 90
     4095
280
     0
281
     0
  0
CLASS
  1
MLEADERSTYLE
  2
AcDbMLeaderStyle
  3
ACDB_MLEADERSTYLE_CLASS
 90
     4095
280
     0
281
     0
  0
CLASS
  1
RASTERVARIABLES
  2
AcDbRasterVariables
  3
ISM
 90
        0
280
     0
281
     0
  0
ENDSEC
  0
SECTION
  2
TABLES
  0
TABLE
  2
VPORT
  5
8
330
0
100
AcDbSymbolTable
 70
     1
  0
VPORT
  5
29
330
8
100
AcDbSymbolTableRecord
100
AcDbViewportTableRecord
  2
*Active
 70
     0
 10
0.0
 20
0.0
 11
1.0
 21
1.0
 12
-29.88916976275856
 22
21.98327785427315
 13
0.0
 23
0.0
 14
10.0
 24
10.0
 15
10.0
 25
10.0
 16
0.0
 26
0.0
 36
1.0
 17
0.0
 27
0.0
 37
0.0
 40
287.8389244817694
 41
1.632093933463797
 42
50.0
 43
0.0
 44
0.0
 50
0.0
 51
0.0
 71
    16
 72
  2000
 73
     1
 74
     3
 75
     0
 76
     0
 77
     0
 78
     0
281
     0
 65
     1
110
0.0
120
0.0
130
0.0
111
1.0
121
0.0
131
0.0
112
0.0
122
1.0
132
0.0
 79
     0
146
0.0
  0
ENDTAB
  0
TABLE
  2
LTYPE
  5
5
330
0
100
AcDbSymbolTable
 70
     6
  0
LTYPE
  5
14
330
5
100
AcDbSymbolTableRecord
100
AcDbLinetypeTableRecord
  2
ByBlock
 70
     0
  3

 72
    65
 73
     0
 40
0.0
  0
LTYPE
  5
15
330
5
100
AcDbSymbolTableRecord
100
AcDbLinetypeTableRecord
  2
ByLayer
 70
     0
  3

 72
    65
 73
     0
 40
0.0
  0
LTYPE
  5
16
330
5
100
AcDbSymbolTableRecord
100
AcDbLinetypeTableRecord
  2
Continuous
 70
     0
  3
Solid line
 72
    65
 73
     0
 40
0.0
  0
LTYPE
  5
6A
330
5
100
AcDbSymbolTableRecord
100
AcDbLinetypeTableRecord
  2
HIDDEN
 70
     0
  3
Hidden __ __ __ __ __ __ __ __ __ __ __ __ __ __
 72
    65
 73
     2
 40
1.905
 49
1.27
 74
     0
 49
-0.635
 74
     0
  0
LTYPE
  5
6B
330
5
100
AcDbSymbolTableRecord
100
AcDbLinetypeTableRecord
  2
PHANTOM
 70
     0
  3
Phantom ______  __  __  ______  __  __  ______
 72
    65
 73
     6
 40
12.7
 49
6.35
 74
     0
 49
-1.27
 74
     0
 49
1.27
 74
     0
 49
-1.27
 74
     0
 49
1.27
 74
     0
 49
-1.27
 74
     0
  0
LTYPE
  5
6C
330
5
100
AcDbSymbolTableRecord
100
AcDbLinetypeTableRecord
  2
CENTER
 70
     0
  3
Center ____ _ ____ _ ____ _ ____ _ ____ _ ____
 72
    65
 73
     4
 40
10.16
 49
6.35
 74
     0
 49
-1.27
 74
     0
 49
1.27
 74
     0
 49
-1.27
 74
     0
  0
LTYPE
  5
6D
330
5
100
AcDbSymbolTableRecord
100
AcDbLinetypeTableRecord
  2
CENTERX2
 70
     0
  3
Center (2x) ________  __  ________  __  _____
 72
    65
 73
     4
 40
20.32
 49
12.7
 74
     0
 49
-2.54
 74
     0
 49
2.54
 74
     0
 49
-2.54
 74
     0
  0
LTYPE
  5
6E
330
5
100
AcDbSymbolTableRecord
100
AcDbLinetypeTableRecord
  2
DOT2
 70
     0
  3
Dot (.5x) ........................................
 72
    65
 73
     2
 40
0.635
 49
0.0
 74
     0
 49
-0.635
 74
     0
  0
ENDTAB
  0
TABLE
  2
LAYER
  5
2
102
{ACAD_XDICTIONARY
360
1E9
102
}
330
0
100
AcDbSymbolTable
 70
    18
  0
LAYER
  5
10
330
2
100
AcDbSymbolTableRecord
100
AcDbLayerTableRecord
  2
0
 70
     0
 62
     7
  6
Continuous
370
    -3
390
F
  0
LAYER
  5
6F
330
2
100
AcDbSymbolTableRecord
100
AcDbLayerTableRecord
  2
FORMAT
 70
     0
 62
     2
  6
Continuous
370
    -3
390
F
  0
LAYER
  5
70
330
2
100
AcDbSymbolTableRecord
100
AcDbLayerTableRecord
  2
외형선
 70
     0
 62
     4
  6
Continuous
370
    30
390
F
  0
LAYER
  5
71
330
2
100
AcDbSymbolTableRecord
100
AcDbLayerTableRecord
  2
숨은선
 70
     0
 62
     2
  6
HIDDEN
370
    15
390
F
  0
LAYER
  5
72
330
2
100
AcDbSymbolTableRecord
100
AcDbLayerTableRecord
  2
중심선
 70
     0
 62
     1
  6
CENTERX2
370
    -3
390
F
  0
LAYER
  5
73
330
2
100
AcDbSymbolTableRecord
100
AcDbLayerTableRecord
  2
파단선
 70
     0
 62
     4
  6
Continuous
370
    -3
390
F
  0
LAYER
  5
74
330
2
100
AcDbSymbolTableRecord
100
AcDbLayerTableRecord
  2
해칭선
 70
     0
 62
   100
  6
Continuous
370
    -3
390
F
  0
LAYER
  5
75
330
2
100
AcDbSymbolTableRecord
100
AcDbLayerTableRecord
  2
가는실선
 70
     0
 62
     4
  6
Continuous
370
    -3
390
F
  0
LAYER
  5
76
330
2
100
AcDbSymbolTableRecord
100
AcDbLayerTableRecord
  2
치수_보조선
 70
     0
 62
     4
  6
Continuous
370
    -3
390
F
  0
LAYER
  5
77
330
2
100
AcDbSymbolTableRecord
100
AcDbLayerTableRecord
  2
치수문자_일반주서
 70
     0
 62
     7
  6
Continuous
370
    15
390
F
  0
LAYER
  5
78
330
2
100
AcDbSymbolTableRecord
100
AcDbLayerTableRecord
  2
개별주서
 70
     0
 62
   100
  6
Continuous
370
    30
390
F
  0
LAYER
  5
79
330
2
100
AcDbSymbolTableRecord
100
AcDbLayerTableRecord
  2
중간선
 70
     0
 62
     2
  6
Continuous
370
    15
390
F
  0
LAYER
  5
7A
330
2
100
AcDbSymbolTableRecord
100
AcDbLayerTableRecord
  2
윤곽선
 70
     0
 62
     3
  6
Continuous
370
    40
390
F
  0
LAYER
  5
7B
330
2
100
AcDbSymbolTableRecord
100
AcDbLayerTableRecord
  2
중심마크
 70
     0
 62
   100
  6
Continuous
370
    30
390
F
  0
LAYER
  5
7C
330
2
100
AcDbSymbolTableRecord
100
AcDbLayerTableRecord
  2
가상선
 70
     0
 62
     4
  6
PHANTOM
370
    -3
390
F
  0
LAYER
  5
7D
330
2
100
AcDbSymbolTableRecord
100
AcDbLayerTableRecord
  2
특수지정선
 70
     0
 62
     5
  6
CENTERX2
370
    60
390
F
  0
LAYER
  5
7E
330
2
100
AcDbSymbolTableRecord
100
AcDbLayerTableRecord
  2
참조1
 70
     0
 62
    -4
  6
Continuous
370
    -3
390
F
  0
LAYER
  5
148
330
2
100
AcDbSymbolTableRecord
100
AcDbLayerTableRecord
  2
Defpoints
 70
     0
 62
     7
  6
Continuous
290
     0
370
    -3
390
F
  0
ENDTAB
  0
TABLE
  2
STYLE
  5
3
330
0
100
AcDbSymbolTable
 70
     2
  0
STYLE
  5
11
330
3
100
AcDbSymbolTableRecord
100
AcDbTextStyleTableRecord
  2
Standard
 70
     0
 40
0.0
 41
1.0
 50
0.0
 71
     0
 42
3.5
  3
txt
  4

  0
STYLE
  5
94
330
3
100
AcDbSymbolTableRecord
100
AcDbTextStyleTableRecord
  2
SLDTEXTSTYLE0
 70
     0
 40
0.0
 41
0.75
 50
0.0
 71
     0
 42
3.5
  3
TXT
  4

  0
ENDTAB
  0
TABLE
  2
VIEW
  5
6
330
0
100
AcDbSymbolTable
 70
     0
  0
ENDTAB
  0
TABLE
  2
UCS
  5
7
330
0
100
AcDbSymbolTable
 70
     0
  0
ENDTAB
  0
TABLE
  2
APPID
  5
9
330
0
100
AcDbSymbolTable
 70
     1
  0
APPID
  5
12
330
9
100
AcDbSymbolTableRecord
100
AcDbRegAppTableRecord
  2
ACAD
 70
     0
  0
ENDTAB
  0
TABLE
  2
DIMSTYLE
  5
A
330
0
100
AcDbSymbolTable
 70
     4
100
AcDbDimStyleTable
  0
DIMSTYLE
105
27
330
A
100
AcDbSymbolTableRecord
100
AcDbDimStyleTableRecord
  2
ISO-25
 70
     0
 41
2.5
 42
0.625
 43
3.75
 44
1.25
 73
     0
 74
     0
 77
     1
 78
     8
140
2.5
141
2.5
143
0.03937007874016
147
0.625
171
     3
172
     1
178
     0
271
     2
272
     2
274
     3
278
    44
283
     0
284
     8
340
11
  0
DIMSTYLE
105
C5
102
{ACAD_REACTORS
330
C4
330
D9
330
18E
330
19C
330
1A9
330
1B6
330
101
330
2DD
330
2EA
330
2F7
330
EC
102
}
330
A
100
AcDbSymbolTableRecord
100
AcDbDimStyleTableRecord
  2
SLDDIMSTYLE0
 70
     0
 41
3.302
 44
0.0
 45
0.000000001
 73
     0
 74
     0
 77
     1
 78
    12
 79
     3
140
3.5
143
0.0393700787401575
147
0.875
148
0.000000001
170
     1
173
     1
178
     0
271
     2
272
     2
276
     2
284
    12
340
94
  0
DIMSTYLE
105
ED
330
A
100
AcDbSymbolTableRecord
100
AcDbDimStyleTableRecord
  2
SLDDIMSTYLE1
 70
     0
 41
3.302
 44
0.0
 45
0.000000001
 73
     0
 74
     0
 77
     1
 78
     4
 79
     1
140
3.5
143
0.0393700787401575
147
0.875
148
0.000000001
170
     1
172
     1
173
     1
178
     0
271
     2
272
     2
276
     2
284
    12
289
     0
340
94
  0
DIMSTYLE
105
102
330
A
100
AcDbSymbolTableRecord
100
AcDbDimStyleTableRecord
  2
SLDDIMSTYLE2
 70
     0
 41
3.302
 44
0.0
 45
0.000000001
 73
     0
 74
     0
 77
     1
 78
     4
 79
     1
140
3.5
143
0.0393700787401575
147
0.875
148
0.000000001
170
     1
173
     1
178
     0
271
     2
272
     2
276
     2
284
    12
340
94
  0
ENDTAB
  0
TABLE
  2
BLOCK_RECORD
  5
1
330
0
100
AcDbSymbolTable
 70
    23
  0
BLOCK_RECORD
  5
1F
330
1
100
AcDbSymbolTableRecord
100
AcDbBlockTableRecord
  2
*Model_Space
340
22
  0
BLOCK_RECORD
  5
1B
330
1
100
AcDbSymbolTableRecord
100
AcDbBlockTableRecord
  2
*Paper_Space
340
1E
  0
BLOCK_RECORD
  5
23
330
1
100
AcDbSymbolTableRecord
100
AcDbBlockTableRecord
  2
*Paper_Space0
340
26
  0
BLOCK_RECORD
  5
7F
330
1
100
AcDbSymbolTableRecord
100
AcDbBlockTableRecord
  2
블럭10
340
0
102
{BLKREFS
331
BD
102
}
  0
BLOCK_RECORD
  5
C6
330
1
100
AcDbSymbolTableRecord
100
AcDbBlockTableRecord
  2
_D
340
0
  0
BLOCK_RECORD
  5
DA
330
1
100
AcDbSymbolTableRecord
100
AcDbBlockTableRecord
  2
_D_1
340
0
  0
BLOCK_RECORD
  5
EE
330
1
100
AcDbSymbolTableRecord
100
AcDbBlockTableRecord
  2
_D_2
340
0
  0
BLOCK_RECORD
  5
103
330
1
100
AcDbSymbolTableRecord
100
AcDbBlockTableRecord
  2
_D_3
340
0
  0
BLOCK_RECORD
  5
11C
330
1
100
AcDbSymbolTableRecord
100
AcDbBlockTableRecord
  2
SW_DOWELSYMBOL_0
340
0
102
{BLKREFS
331
122
331
1C4
331
0
331
305
331
0
102
}
  0
BLOCK_RECORD
  5
1ED
330
1
100
AcDbSymbolTableRecord
100
AcDbBlockTableRecord
  2
*D8
340
0
  0
BLOCK_RECORD
  5
1FA
330
1
100
AcDbSymbolTableRecord
100
AcDbBlockTableRecord
  2
*D9
340
0
  0
BLOCK_RECORD
  5
206
330
1
100
AcDbSymbolTableRecord
100
AcDbBlockTableRecord
  2
*D10
340
0
  0
BLOCK_RECORD
  5
212
330
1
100
AcDbSymbolTableRecord
100
AcDbBlockTableRecord
  2
*D11
340
0
  0
BLOCK_RECORD
  5
261
330
1
100
AcDbSymbolTableRecord
100
AcDbBlockTableRecord
  2
*D12
340
0
  0
BLOCK_RECORD
  5
26E
330
1
100
AcDbSymbolTableRecord
100
AcDbBlockTableRecord
  2
*D13
340
0
  0
BLOCK_RECORD
  5
27A
330
1
100
AcDbSymbolTableRecord
100
AcDbBlockTableRecord
  2
*D14
340
0
  0
BLOCK_RECORD
  5
286
330
1
100
AcDbSymbolTableRecord
100
AcDbBlockTableRecord
  2
*D15
340
0
  0
BLOCK_RECORD
  5
30E
330
1
100
AcDbSymbolTableRecord
100
AcDbBlockTableRecord
  2
*D17
340
0
  0
BLOCK_RECORD
  5
31A
330
1
100
AcDbSymbolTableRecord
100
AcDbBlockTableRecord
  2
*D18
340
0
  0
BLOCK_RECORD
  5
326
330
1
100
AcDbSymbolTableRecord
100
AcDbBlockTableRecord
  2
*D19
340
0
  0
BLOCK_RECORD
  5
358
330
1
100
AcDbSymbolTableRecord
100
AcDbBlockTableRecord
  2
*D20
340
0
  0
BLOCK_RECORD
  5
364
330
1
100
AcDbSymbolTableRecord
100
AcDbBlockTableRecord
  2
*D21
340
0
  0
BLOCK_RECORD
  5
370
330
1
100
AcDbSymbolTableRecord
100
AcDbBlockTableRecord
  2
*D22
340
0
  0
ENDTAB
  0
ENDSEC
  0
SECTION
  2
BLOCKS
  0
BLOCK
  5
20
330
1F
100
AcDbEntity
  8
0
100
AcDbBlockBegin
  2
*Model_Space
 70
     0
 10
0.0
 20
0.0
 30
0.0
  3
*Model_Space
  1
*Model_Space
  0
ENDBLK
  5
21
330
1F
100
AcDbEntity
  8
0
100
AcDbBlockEnd
  0
BLOCK
  5
1C
330
1B
100
AcDbEntity
 67
     1
  8
0
100
AcDbBlockBegin
  2
*Paper_Space
 70
     0
 10
0.0
 20
0.0
 30
0.0
  3
*Paper_Space
  1
*Paper_Space
  0
ENDBLK
  5
1D
330
1B
100
AcDbEntity
 67
     1
  8
0
100
AcDbBlockEnd
  0
BLOCK
  5
24
330
23
100
AcDbEntity
  8
0
100
AcDbBlockBegin
  2
*Paper_Space0
 70
     0
 10
0.0
 20
0.0
 30
0.0
  3
*Paper_Space0
  1
*Paper_Space0
  0
ENDBLK
  5
25
330
23
100
AcDbEntity
  8
0
100
AcDbBlockEnd
  0
BLOCK
  5
80
330
7F
100
AcDbEntity
  8
0
100
AcDbBlockBegin
  2
블럭10
 70
     2
 10
0.0
 20
0.0
 30
0.0
  3
블럭10
  1
블럭10
  0
ELLIPSE
  5
82
330
7F
100
AcDbEntity
  8
중심선
100
AcDbEllipse
 10
20.54032771741204
 20
12.0471743016438
 30
0.0
 11
6.600054785286829
 21
-1.261213355974178E-13
 31
0.0
210
0.0
220
0.0
230
1.0
 40
0.636358354079598
 41
0.9219305317359503
 42
6.513795318482858
  0
ELLIPSE
  5
83
330
7F
100
AcDbEntity
  8
중심선
100
AcDbEllipse
 10
20.54032771746488
 20
12.04717430159265
 30
0.0
 11
3.960054785062283
 21
1.540847449632565E-10
 31
0.0
210
0.0
220
0.0
230
1.0
 40
0.3939339440162632
 41
1.131841032648279
 42
5.62031148352944
  0
LINE
  5
84
330
7F
100
AcDbEntity
  8
중심선
100
AcDbLine
 10
2.268634060543552
 20
16.24717430164393
 30
0.0
 11
5.714909304380834
 21
16.24717430164393
 31
0.0
  0
LINE
  5
85
330
7F
100
AcDbEntity
  8
중심선
100
AcDbLine
 10
5.245725140726316
 20
7.84717430164391
 30
0.0
 11
8.692000384563599
 21
7.84717430164391
 31
0.0
  0
LINE
  5
86
330
7F
100
AcDbEntity
  8
중심선
100
AcDbLine
 10
15.74043728645272
 20
16.24717430164393
 30
0.0
 11
8.692000384563599
 21
7.84717430164391
 31
0.0
  0
LINE
  5
87
330
7F
100
AcDbEntity
  8
중심선
100
AcDbLine
 10
0.1404042013395286
 20
13.71084872107135
 30
0.0
 11
3.58671253028996
 21
13.71088815037384
 31
0.0
  0
LINE
  5
88
330
7F
100
AcDbEntity
  8
중심선
100
AcDbLine
 10
2.750260043222114
 20
10.84717430164391
 30
0.0
 11
6.196535287059397
 21
10.84717430164391
 31
0.0
  0
LINE
  5
89
330
7F
100
AcDbEntity
  8
중심선
100
AcDbLine
 10
12.29416204261559
 20
16.24717430164393
 30
0.0
 11
5.245725140726316
 21
7.84717430164391
 31
0.0
  0
LINE
  5
8A
330
7F
100
AcDbEntity
  8
중심선
100
AcDbLine
 10
10.72767329541681
 20
16.24717430164393
 30
0.0
 11
6.196535287059397
 21
10.84717430164391
 31
0.0
  0
LINE
  5
8B
330
7F
100
AcDbEntity
  8
중심선
100
AcDbLine
 10
7.28139805157953
 20
16.24717430164393
 30
0.0
 11
2.750260043222114
 21
10.84717430164391
 31
0.0
  0
LINE
  5
8C
330
7F
100
AcDbEntity
  8
중심선
100
AcDbLine
 10
5.714909304380834
 20
16.24717430164393
 30
0.0
 11
3.58671253028996
 21
13.71088815037384
 31
0.0
  0
LINE
  5
8D
330
7F
100
AcDbEntity
  8
중심선
100
AcDbLine
 10
2.268634060543552
 20
16.24717430164393
 30
0.0
 11
0.1404042013395286
 21
13.71084872107135
 31
0.0
  0
LINE
  5
8E
330
7F
100
AcDbEntity
  8
중심선
100
AcDbLine
 10
7.28139805157953
 20
16.24717430164393
 30
0.0
 11
10.72767329541681
 21
16.24717430164393
 31
0.0
  0
LINE
  5
8F
330
7F
100
AcDbEntity
  8
중심선
100
AcDbLine
 10
12.29416204261559
 20
16.24717430164393
 30
0.0
 11
15.74043728645272
 21
16.24717430164393
 31
0.0
  0
LINE
  5
90
330
7F
100
AcDbEntity
  8
중심선
100
AcDbLine
 10
19.22036997980202
 20
11.08717430171403
 30
0.0
 11
23.66174974927406
 21
11.08717430171406
 31
0.0
  0
LINE
  5
91
330
7F
100
AcDbEntity
  8
중심선
100
AcDbLine
 10
19.22039502424796
 20
13.00717430171391
 30
0.0
 11
19.22036997980202
 21
11.08717430171403
 31
0.0
  0
LINE
  5
92
330
7F
100
AcDbEntity
  8
중심선
100
AcDbLine
 10
19.22039502424796
 20
13.00717430171391
 30
0.0
 11
26.96566020931264
 21
13.00717430171391
 31
0.0
  0
LINE
  5
93
330
7F
100
AcDbEntity
  8
중심선
100
AcDbLine
 10
22.22332737316547
 20
13.45928029700563
 30
0.0
 11
24.52862924686651
 21
15.39360700705356
 31
0.0
  0
ATTDEF
  5
95
330
7F
100
AcDbEntity
  8
FORMAT
 62
     2
100
AcDbText
 10
4.408487351596664
 20
2.075366912832191
 30
0.0
 40
4.233333333333333
  1
E1112064
 41
0.75
  7
SLDTEXTSTYLE0
 11
4.408487351596664
 21
-0.0412997538344756
 31
0.0
100
AcDbAttributeDefinition
  3

  2
AUTOATTR0
 70
     0
 74
     1
  0
ENDBLK
  5
81
330
7F
100
AcDbEntity
  8
0
100
AcDbBlockEnd
  0
BLOCK
  5
C7
330
C6
100
AcDbEntity
  8
0
100
AcDbBlockBegin
  2
_D
 70
     0
 10
0.0
 20
0.0
 30
0.0
  3
_D
  1
_D
  0
LINE
  5
C9
330
C6
100
AcDbEntity
  8
0
  6
Continuous
 62
     0
370
    -2
100
AcDbLine
 10
74.61249999999993
 20
12.76250000000004
 30
0.0
 11
74.61249999999993
 21
20.44296761636901
 31
0.0
  0
LINE
  5
CA
330
C6
100
AcDbEntity
  8
0
  6
Continuous
 62
     0
370
    -2
100
AcDbLine
 10
33.33749999999999
 20
9.750795749068898
 30
0.0
 11
33.33749999999999
 21
20.44296761636901
 31
0.0
  0
LINE
  5
CB
330
C6
100
AcDbEntity
  8
0
  6
Continuous
 62
     0
370
    -2
100
AcDbLine
 10
71.31049999999993
 20
20.44296761636901
 30
0.0
 11
36.63949999999999
 21
20.44296761636901
 31
0.0
  0
SOLID
  5
CC
330
C6
100
AcDbEntity
  8
0
 62
     0
100
AcDbTrace
 10
71.31049999999993
 20
19.89263428303567
 30
0.0
 11
71.31049999999993
 21
20.99330094970234
 31
0.0
 12
74.61249999999993
 22
20.44296761636901
 32
0.0
 13
74.61249999999993
 23
20.44296761636901
 33
0.0
  0
SOLID
  5
CD
330
C6
100
AcDbEntity
  8
0
 62
     0
100
AcDbTrace
 10
36.63949999999999
 20
20.99330094970234
 30
0.0
 11
36.63949999999999
 21
19.89263428303567
 31
0.0
 12
33.33749999999999
 22
20.44296761636901
 32
0.0
 13
33.33749999999999
 23
20.44296761636901
 33
0.0
  0
MTEXT
  5
CE
330
C6
100
AcDbEntity
  8
0
 62
     0
370
    15
100
AcDbMText
 10
53.02387267291151
 20
24.81796761636901
 30
0.0
 40
3.5
 41
0.0
 71
     2
 72
     1
  1
\A1;41.28 [1 5/8]
  7
SLDTEXTSTYLE0
 73
     1
 44
1.0
  0
POINT
  5
CF
330
C6
100
AcDbEntity
  8
Defpoints
 62
     0
100
AcDbPoint
 10
74.61249999999993
 20
12.70000000000004
 30
0.0
  0
POINT
  5
D0
330
C6
100
AcDbEntity
  8
Defpoints
 62
     0
100
AcDbPoint
 10
33.33749999999999
 20
9.688295749068898
 30
0.0
  0
POINT
  5
D1
330
C6
100
AcDbEntity
  8
Defpoints
 62
     0
100
AcDbPoint
 10
33.33749999999999
 20
20.44296761636901
 30
0.0
  0
ENDBLK
  5
C8
330
C6
100
AcDbEntity
  8
0
100
AcDbBlockEnd
  0
BLOCK
  5
DB
330
DA
100
AcDbEntity
  8
0
100
AcDbBlockBegin
  2
_D_1
 70
     0
 10
0.0
 20
0.0
 30
0.0
  3
_D_1
  1
_D_1
  0
LINE
  5
DD
330
DA
100
AcDbEntity
  8
0
  6
Continuous
 62
     0
370
    -2
100
AcDbLine
 10
74.61249999999993
 20
12.76250000000004
 30
0.0
 11
74.61249999999991
 21
29.28797898817497
 31
0.0
  0
LINE
  5
DE
330
DA
100
AcDbEntity
  8
0
  6
Continuous
 62
     0
370
    -2
100
AcDbLine
 10
-74.6125
 20
12.76249999999999
 30
0.0
 11
-74.61250000000001
 21
29.28797898817497
 31
0.0
  0
LINE
  5
DF
330
DA
100
AcDbEntity
  8
0
  6
Continuous
 62
     0
370
    -2
100
AcDbLine
 10
71.3104999999999
 20
29.28797898817497
 30
0.0
 11
-71.31050000000002
 21
29.28797898817497
 31
0.0
  0
SOLID
  5
E0
330
DA
100
AcDbEntity
  8
0
 62
     0
100
AcDbTrace
 10
71.3104999999999
 20
28.73764565484164
 30
0.0
 11
71.3104999999999
 21
29.83831232150831
 31
0.0
 12
74.61249999999991
 22
29.28797898817497
 32
0.0
 13
74.61249999999991
 23
29.28797898817497
 33
0.0
  0
SOLID
  5
E1
330
DA
100
AcDbEntity
  8
0
 62
     0
100
AcDbTrace
 10
-71.31050000000002
 20
29.83831232150831
 30
0.0
 11
-71.31050000000002
 21
28.73764565484164
 31
0.0
 12
-74.61250000000001
 22
29.28797898817497
 32
0.0
 13
-74.61250000000001
 23
29.28797898817497
 33
0.0
  0
MTEXT
  5
E2
330
DA
100
AcDbEntity
  8
0
 62
     0
370
    15
100
AcDbMText
 10
0.6531018235201316
 20
33.66297898817497
 30
0.0
 40
3.5
 41
0.0
 71
     2
 72
     1
  1
\A1;149.23 [5 7/8]
  7
SLDTEXTSTYLE0
 73
     1
 44
1.0
  0
POINT
  5
E3
330
DA
100
AcDbEntity
  8
Defpoints
 62
     0
100
AcDbPoint
 10
74.61249999999993
 20
12.70000000000004
 30
0.0
  0
POINT
  5
E4
330
DA
100
AcDbEntity
  8
Defpoints
 62
     0
100
AcDbPoint
 10
-74.6125
 20
12.69999999999999
 30
0.0
  0
POINT
  5
E5
330
DA
100
AcDbEntity
  8
Defpoints
 62
     0
100
AcDbPoint
 10
-74.6125
 20
29.28797898817497
 30
0.0
  0
ENDBLK
  5
DC
330
DA
100
AcDbEntity
  8
0
100
AcDbBlockEnd
  0
BLOCK
  5
EF
330
EE
100
AcDbEntity
  8
0
100
AcDbBlockBegin
  2
_D_2
 70
     0
 10
0.0
 20
0.0
 30
0.0
  3
_D_2
  1
_D_2
  0
LINE
  5
F1
330
EE
100
AcDbEntity
  8
0
  6
Continuous
 62
     0
370
    -2
100
AcDbLine
 10
-30.3503477266229
 20
12.69999999999999
 30
0.0
 11
-87.04250000000003
 21
12.69999999999978
 31
0.0
  0
LINE
  5
F2
330
EE
100
AcDbEntity
  8
0
  6
Continuous
 62
     0
370
    -2
100
AcDbLine
 10
-30.35034772662289
 20
-12.70000000000001
 30
0.0
 11
-87.04249999999995
 21
-12.70000000000022
 31
0.0
  0
LINE
  5
F3
330
EE
100
AcDbEntity
  8
0
  6
Continuous
 62
     0
370
    -2
100
AcDbLine
 10
-87.04250000000002
 20
9.397999999999778
 30
0.0
 11
-87.04249999999996
 21
-9.398000000000222
 31
0.0
  0
SOLID
  5
F4
330
EE
100
AcDbEntity
  8
0
 62
     0
100
AcDbTrace
 10
-86.49216666666669
 20
9.39799999999978
 30
0.0
 11
-87.59283333333335
 21
9.397999999999776
 31
0.0
 12
-87.04250000000003
 22
12.69999999999978
 32
0.0
 13
-87.04250000000003
 23
12.69999999999978
 33
0.0
  0
SOLID
  5
F5
330
EE
100
AcDbEntity
  8
0
 62
     0
100
AcDbTrace
 10
-87.59283333333329
 20
-9.398000000000224
 30
0.0
 11
-86.49216666666663
 21
-9.39800000000022
 31
0.0
 12
-87.04249999999995
 22
-12.70000000000022
 32
0.0
 13
-87.04249999999995
 23
-12.70000000000022
 33
0.0
  0
MTEXT
  5
F6
330
EE
100
AcDbEntity
  8
0
 62
     0
370
    15
100
AcDbMText
 10
-91.41749999999999
 20
-0.0000000000000266
 30
0.0
 40
3.5
 41
0.0
 71
     2
 72
     1
  1
\A1;%%c25.4 [1]
  7
SLDTEXTSTYLE0
 11
-3.356894814614647E-15
 21
1.0
 31
0.0
 73
     1
 44
1.0
  0
POINT
  5
F7
330
EE
100
AcDbEntity
  8
Defpoints
 62
     0
100
AcDbPoint
 10
-30.2878477266229
 20
12.69999999999999
 30
0.0
  0
POINT
  5
F8
330
EE
100
AcDbEntity
  8
Defpoints
 62
     0
100
AcDbPoint
 10
-30.28784772662289
 20
-12.70000000000001
 30
0.0
  0
POINT
  5
F9
330
EE
100
AcDbEntity
  8
Defpoints
 62
     0
100
AcDbPoint
 10
-87.04249999999995
 20
-12.70000000000022
 30
0.0
  0
ENDBLK
  5
F0
330
EE
100
AcDbEntity
  8
0
100
AcDbBlockEnd
  0
BLOCK
  5
104
330
103
100
AcDbEntity
  8
0
100
AcDbBlockBegin
  2
_D_3
 70
     0
 10
0.0
 20
0.0
 30
0.0
  3
_D_3
  1
_D_3
  0
LINE
  5
106
330
103
100
AcDbEntity
  8
0
  6
Continuous
 62
     0
370
    -2
100
AcDbLine
 10
74.67499999999997
 20
12.70000000000004
 30
0.0
 11
86.70852980102448
 21
12.70000000000009
 31
0.0
  0
LINE
  5
107
330
103
100
AcDbEntity
  8
0
  6
Continuous
 62
     0
370
    -2
100
AcDbLine
 10
74.67499999999998
 20
-12.69999999999996
 30
0.0
 11
86.70852980102457
 21
-12.69999999999992
 31
0.0
  0
LINE
  5
108
330
103
100
AcDbEntity
  8
0
  6
Continuous
 62
     0
370
    -2
100
AcDbLine
 10
86.70852980102448
 20
12.70000000000009
 30
0.0
 11
86.70852980102438
 21
42.77481863734753
 31
0.0
  0
LINE
  5
109
330
103
100
AcDbEntity
  8
0
  6
Continuous
 62
     0
370
    -2
100
AcDbLine
 10
86.7085298010245
 20
9.398000000000089
 30
0.0
 11
86.70852980102455
 21
-9.397999999999918
 31
0.0
  0
SOLID
  5
10A
330
103
100
AcDbEntity
  8
0
 62
     0
100
AcDbTrace
 10
87.25886313435782
 20
9.39800000000009
 30
0.0
 11
86.15819646769117
 21
9.398000000000087
 31
0.0
 12
86.70852980102448
 22
12.70000000000009
 32
0.0
 13
86.70852980102448
 23
12.70000000000009
 33
0.0
  0
SOLID
  5
10B
330
103
100
AcDbEntity
  8
0
 62
     0
100
AcDbTrace
 10
86.15819646769123
 20
-9.39799999999992
 30
0.0
 11
87.25886313435788
 21
-9.397999999999916
 31
0.0
 12
86.70852980102457
 22
-12.69999999999992
 32
0.0
 13
86.70852980102457
 23
-12.69999999999992
 33
0.0
  0
MTEXT
  5
10C
330
103
100
AcDbEntity
  8
0
 62
     0
370
    15
100
AcDbMText
 10
82.33352980102441
 20
32.71231863734751
 30
0.0
 40
3.5
 41
0.0
 71
     2
 72
     1
  1
\A1;%%c25.4 [1]
  7
SLDTEXTSTYLE0
 11
-3.356894814614646E-15
 21
1.0
 31
0.0
 73
     1
 44
1.0
  0
POINT
  5
10D
330
103
100
AcDbEntity
  8
Defpoints
 62
     0
100
AcDbPoint
 10
74.61249999999997
 20
12.70000000000004
 30
0.0
  0
POINT
  5
10E
330
103
100
AcDbEntity
  8
Defpoints
 62
     0
100
AcDbPoint
 10
74.61249999999998
 20
-12.69999999999996
 30
0.0
  0
POINT
  5
10F
330
103
100
AcDbEntity
  8
Defpoints
 62
     0
100
AcDbPoint
 10
86.70852980102455
 20
-12.69999999999992
 30
0.0
  0
ENDBLK
  5
105
330
103
100
AcDbEntity
  8
0
100
AcDbBlockEnd
  0
BLOCK
  5
11D
330
11C
100
AcDbEntity
  8
0
100
AcDbBlockBegin
  2
SW_DOWELSYMBOL_0
 70
     0
 10
0.0
 20
0.0
 30
0.0
  3
SW_DOWELSYMBOL_0
  1
SW_DOWELSYMBOL_0
  0
CIRCLE
  5
11F
330
11C
100
AcDbEntity
  8
해칭선
 62
     0
100
AcDbCircle
 10
0.0
 20
0.0
 30
0.0
 40
3.000000000000001
  0
HATCH
  5
120
330
11C
100
AcDbEntity
  8
0
  6
Continuous
 62
     0
370
     0
100
AcDbHatch
 10
0.0
 20
0.0
 30
0.0
210
0.0
220
0.0
230
1.0
  2
SOLID
 70
     1
 71
     0
 91
        1
 92
        0
 93
        3
 72
     2
 10
0.0
 20
0.0
 40
3.000000000000001
 50
0.0
 51
90.0
 73
     1
 72
     1
 10
0.0
 20
3.000000000000001
 11
0.0
 21
0.0
 72
     1
 10
0.0
 20
0.0
 11
3.000000000000001
 21
0.0
 97
        0
 75
     0
 76
     1
 98
        1
 10
0.0
 20
0.0
  0
HATCH
  5
121
330
11C
100
AcDbEntity
  8
0
  6
Continuous
 62
     0
370
     0
100
AcDbHatch
 10
0.0
 20
0.0
 30
0.0
210
0.0
220
0.0
230
1.0
  2
SOLID
 70
     1
 71
     0
 91
        1
 92
        0
 93
        3
 72
     2
 10
0.0
 20
0.0
 40
3.000000000000001
 50
180.0
 51
270.0000000000008
 73
     1
 72
     1
 10
0.0
 20
-3.000000000000001
 11
0.0
 21
0.0
 72
     1
 10
0.0
 20
0.0
 11
-3.000000000000001
 21
0.0
 97
        0
 75
     0
 76
     1
 98
        1
 10
0.0
 20
0.0
  0
ENDBLK
  5
11E
330
11C
100
AcDbEntity
  8
0
100
AcDbBlockEnd
  0
BLOCK
  5
1EE
330
1ED
100
AcDbEntity
  8
0
100
AcDbBlockBegin
  2
*D8
 70
     1
 10
0.0
 20
0.0
 30
0.0
  3
*D8
  1
*D8
  0
LINE
  5
1F0
330
1ED
100
AcDbEntity
  8
0
  6
Continuous
 62
     0
370
    -2
100
AcDbLine
 10
143.805
 20
22.49375000000007
 30
0.0
 11
143.805
 21
28.50528742084737
 31
0.0
  0
LINE
  5
1F1
330
1ED
100
AcDbEntity
  8
0
  6
Continuous
 62
     0
370
    -2
100
AcDbLine
 10
110.4675000000001
 20
21.04496671807741
 30
0.0
 11
110.4675000000001
 21
28.50528742084737
 31
0.0
  0
LINE
  5
1F2
330
1ED
100
AcDbEntity
  8
0
  6
Continuous
 62
     0
370
    -2
100
AcDbLine
 10
110.4675000000001
 20
28.50528742084737
 30
0.0
 11
74.79050000000007
 21
28.50528742084737
 31
0.0
  0
LINE
  5
1F3
330
1ED
100
AcDbEntity
  8
0
  6
Continuous
 62
     0
370
    -2
100
AcDbLine
 10
140.503
 20
28.50528742084737
 30
0.0
 11
113.7695000000001
 21
28.50528742084737
 31
0.0
  0
SOLID
  5
1F4
330
1ED
100
AcDbEntity
  8
0
 62
     0
100
AcDbTrace
 10
140.503
 20
27.95495408751403
 30
0.0
 11
140.503
 21
29.0556207541807
 31
0.0
 12
143.805
 22
28.50528742084737
 32
0.0
 13
143.805
 23
28.50528742084737
 33
0.0
  0
SOLID
  5
1F5
330
1ED
100
AcDbEntity
  8
0
 62
     0
100
AcDbTrace
 10
113.7695000000001
 20
29.0556207541807
 30
0.0
 11
113.7695000000001
 21
27.95495408751403
 31
0.0
 12
110.4675000000001
 22
28.50528742084737
 32
0.0
 13
110.4675000000001
 23
28.50528742084737
 33
0.0
  0
MTEXT
  5
1F6
330
1ED
100
AcDbEntity
  8
0
 62
     0
370
    15
100
AcDbMText
 10
90.97800000000007
 20
32.88028742084737
 30
0.0
 40
3.5
 41
0.0
 71
     2
 72
     1
  1
\A1;33.34 [1 5/16]
  7
SLDTEXTSTYLE0
 73
     1
 44
1.0
  0
POINT
  5
1F7
330
1ED
100
AcDbEntity
  8
Defpoints
 62
     0
100
AcDbPoint
 10
143.805
 20
22.43125000000007
 30
0.0
  0
POINT
  5
1F8
330
1ED
100
AcDbEntity
  8
Defpoints
 62
     0
100
AcDbPoint
 10
110.4675000000001
 20
20.98246671807741
 30
0.0
  0
POINT
  5
1F9
330
1ED
100
AcDbEntity
  8
Defpoints
 62
     0
100
AcDbPoint
 10
110.4675000000001
 20
28.50528742084737
 30
0.0
  0
ENDBLK
  5
1EF
330
1ED
100
AcDbEntity
  8
0
100
AcDbBlockEnd
  0
BLOCK
  5
1FB
330
1FA
100
AcDbEntity
  8
0
100
AcDbBlockBegin
  2
*D9
 70
     1
 10
0.0
 20
0.0
 30
0.0
  3
*D9
  1
*D9
  0
LINE
  5
1FD
330
1FA
100
AcDbEntity
  8
0
  6
Continuous
 62
     0
370
    -2
100
AcDbLine
 10
143.805
 20
22.49375000000007
 30
0.0
 11
143.805
 21
42.19422898817501
 31
0.0
  0
LINE
  5
1FE
330
1FA
100
AcDbEntity
  8
0
  6
Continuous
 62
     0
370
    -2
100
AcDbLine
 10
16.80500000000008
 20
22.49375000000001
 30
0.0
 11
16.80500000000008
 21
42.19422898817501
 31
0.0
  0
LINE
  5
1FF
330
1FA
100
AcDbEntity
  8
0
  6
Continuous
 62
     0
370
    -2
100
AcDbLine
 10
140.503
 20
42.19422898817501
 30
0.0
 11
20.10700000000008
 21
42.19422898817501
 31
0.0
  0
SOLID
  5
200
330
1FA
100
AcDbEntity
  8
0
 62
     0
100
AcDbTrace
 10
140.503
 20
41.64389565484168
 30
0.0
 11
140.503
 21
42.74456232150835
 31
0.0
 12
143.805
 22
42.19422898817501
 32
0.0
 13
143.805
 23
42.19422898817501
 33
0.0
  0
SOLID
  5
201
330
1FA
100
AcDbEntity
  8
0
 62
     0
100
AcDbTrace
 10
20.10700000000008
 20
42.74456232150835
 30
0.0
 11
20.10700000000008
 21
41.64389565484168
 31
0.0
 12
16.80500000000008
 22
42.19422898817501
 32
0.0
 13
16.80500000000008
 23
42.19422898817501
 33
0.0
  0
MTEXT
  5
202
330
1FA
100
AcDbEntity
  8
0
 62
     0
370
    15
100
AcDbMText
 10
80.86083133916614
 20
46.56922898817501
 30
0.0
 40
3.5
 41
0.0
 71
     2
 72
     1
  1
\A1;127 [5]
  7
SLDTEXTSTYLE0
 73
     1
 44
1.0
  0
POINT
  5
203
330
1FA
100
AcDbEntity
  8
Defpoints
 62
     0
100
AcDbPoint
 10
143.805
 20
22.43125000000007
 30
0.0
  0
POINT
  5
204
330
1FA
100
AcDbEntity
  8
Defpoints
 62
     0
100
AcDbPoint
 10
16.80500000000008
 20
22.43125000000001
 30
0.0
  0
POINT
  5
205
330
1FA
100
AcDbEntity
  8
Defpoints
 62
     0
100
AcDbPoint
 10
16.80500000000008
 20
42.19422898817501
 30
0.0
  0
ENDBLK
  5
1FC
330
1FA
100
AcDbEntity
  8
0
100
AcDbBlockEnd
  0
BLOCK
  5
207
330
206
100
AcDbEntity
  8
0
100
AcDbBlockBegin
  2
*D10
 70
     1
 10
0.0
 20
0.0
 30
0.0
  3
*D10
  1
*D10
  0
LINE
  5
209
330
206
100
AcDbEntity
  8
0
  6
Continuous
 62
     0
370
    -2
100
AcDbLine
 10
53.13020247495805
 20
22.43125000000003
 30
0.0
 11
4.375000000000024
 21
22.43124999999985
 31
0.0
  0
LINE
  5
20A
330
206
100
AcDbEntity
  8
0
  6
Continuous
 62
     0
370
    -2
100
AcDbLine
 10
53.13020247495805
 20
3.381250000000031
 30
0.0
 11
4.375000000000091
 21
3.38124999999985
 31
0.0
  0
LINE
  5
20B
330
206
100
AcDbEntity
  8
0
  6
Continuous
 62
     0
370
    -2
100
AcDbLine
 10
4.375000000000036
 20
19.12924999999985
 30
0.0
 11
4.375000000000079
 21
6.68324999999985
 31
0.0
  0
SOLID
  5
20C
330
206
100
AcDbEntity
  8
0
 62
     0
100
AcDbTrace
 10
4.925333333333369
 20
19.12924999999986
 30
0.0
 11
3.824666666666702
 21
19.12924999999985
 31
0.0
 12
4.375000000000024
 22
22.43124999999985
 32
0.0
 13
4.375000000000024
 23
22.43124999999985
 33
0.0
  0
SOLID
  5
20D
330
206
100
AcDbEntity
  8
0
 62
     0
100
AcDbTrace
 10
3.824666666666746
 20
6.683249999999848
 30
0.0
 11
4.925333333333413
 21
6.683249999999852
 31
0.0
 12
4.375000000000091
 22
3.38124999999985
 32
0.0
 13
4.375000000000091
 23
3.38124999999985
 33
0.0
  0
MTEXT
  5
20E
330
206
100
AcDbEntity
  8
0
 62
     0
370
    15
100
AcDbMText
 10
0.0000000000000568
 20
12.90625000000001
 30
0.0
 40
3.5
 41
0.0
 71
     2
 72
     1
  1
\A1;%%c19.05 [3/4]
  7
SLDTEXTSTYLE0
 11
-3.496765431890256E-15
 21
1.0
 31
0.0
 73
     1
 44
1.0
  0
POINT
  5
20F
330
206
100
AcDbEntity
  8
Defpoints
 62
     0
100
AcDbPoint
 10
53.19270247495805
 20
22.43125000000003
 30
0.0
  0
POINT
  5
210
330
206
100
AcDbEntity
  8
Defpoints
 62
     0
100
AcDbPoint
 10
53.19270247495805
 20
3.381250000000032
 30
0.0
  0
POINT
  5
211
330
206
100
AcDbEntity
  8
Defpoints
 62
     0
100
AcDbPoint
 10
4.375000000000099
 20
3.381249999999849
 30
0.0
  0
ENDBLK
  5
208
330
206
100
AcDbEntity
  8
0
100
AcDbBlockEnd
  0
BLOCK
  5
213
330
212
100
AcDbEntity
  8
0
100
AcDbBlockBegin
  2
*D11
 70
     1
 10
0.0
 20
0.0
 30
0.0
  3
*D11
  1
*D11
  0
LINE
  5
215
330
212
100
AcDbEntity
  8
0
  6
Continuous
 62
     0
370
    -2
100
AcDbLine
 10
143.8675000000001
 20
22.43125000000007
 30
0.0
 11
161.8806685298624
 21
22.43125000000014
 31
0.0
  0
LINE
  5
216
330
212
100
AcDbEntity
  8
0
  6
Continuous
 62
     0
370
    -2
100
AcDbLine
 10
143.8675000000001
 20
3.381250000000076
 30
0.0
 11
161.8806685298624
 21
3.381250000000144
 31
0.0
  0
LINE
  5
217
330
212
100
AcDbEntity
  8
0
  6
Continuous
 62
     0
370
    -2
100
AcDbLine
 10
161.8806685298624
 20
22.43125000000014
 30
0.0
 11
161.8806685298623
 21
53.29575000000014
 31
0.0
  0
LINE
  5
218
330
212
100
AcDbEntity
  8
0
  6
Continuous
 62
     0
370
    -2
100
AcDbLine
 10
161.8806685298624
 20
19.12925000000014
 30
0.0
 11
161.8806685298624
 21
6.683250000000143
 31
0.0
  0
SOLID
  5
219
330
212
100
AcDbEntity
  8
0
 62
     0
100
AcDbTrace
 10
162.4310018631957
 20
19.12925000000014
 30
0.0
 11
161.330335196529
 21
19.12925000000014
 31
0.0
 12
161.8806685298624
 22
22.43125000000014
 32
0.0
 13
161.8806685298624
 23
22.43125000000014
 33
0.0
  0
SOLID
  5
21A
330
212
100
AcDbEntity
  8
0
 62
     0
100
AcDbTrace
 10
161.3303351965291
 20
6.683250000000141
 30
0.0
 11
162.4310018631957
 21
6.683250000000145
 31
0.0
 12
161.8806685298624
 22
3.381250000000144
 32
0.0
 13
161.8806685298624
 23
3.381250000000144
 33
0.0
  0
MTEXT
  5
21B
330
212
100
AcDbEntity
  8
0
 62
     0
370
    15
100
AcDbMText
 10
157.5056685298623
 20
39.51450000000013
 30
0.0
 40
3.5
 41
0.0
 71
     2
 72
     1
  1
\A1;%%c19.05 [3/4]
  7
SLDTEXTSTYLE0
 11
-2.983906501879687E-15
 21
1.0
 31
0.0
 73
     1
 44
1.0
  0
POINT
  5
21C
330
212
100
AcDbEntity
  8
Defpoints
 62
     0
100
AcDbPoint
 10
143.8050000000001
 20
22.43125000000007
 30
0.0
  0
POINT
  5
21D
330
212
100
AcDbEntity
  8
Defpoints
 62
     0
100
AcDbPoint
 10
143.8050000000001
 20
3.381250000000076
 30
0.0
  0
POINT
  5
21E
330
212
100
AcDbEntity
  8
Defpoints
 62
     0
100
AcDbPoint
 10
161.8806685298624
 20
3.381250000000144
 30
0.0
  0
ENDBLK
  5
214
330
212
100
AcDbEntity
  8
0
100
AcDbBlockEnd
  0
BLOCK
  5
262
330
261
100
AcDbEntity
  8
0
100
AcDbBlockBegin
  2
*D12
 70
     1
 10
0.0
 20
0.0
 30
0.0
  3
*D12
  1
*D12
  0
LINE
  5
264
330
261
100
AcDbEntity
  8
0
  6
Continuous
 62
     0
370
    -2
100
AcDbLine
 10
236.0476700067726
 20
-25.091782520762
 30
0.0
 11
236.0476700067726
 21
-19.08024509991471
 31
0.0
  0
LINE
  5
265
330
261
100
AcDbEntity
  8
0
  6
Continuous
 62
     0
370
    -2
100
AcDbLine
 10
202.7101700067727
 20
-26.54056580268466
 30
0.0
 11
202.7101700067727
 21
-19.08024509991471
 31
0.0
  0
LINE
  5
266
330
261
100
AcDbEntity
  8
0
  6
Continuous
 62
     0
370
    -2
100
AcDbLine
 10
202.7101700067727
 20
-19.08024509991471
 30
0.0
 11
167.0331700067727
 21
-19.08024509991471
 31
0.0
  0
LINE
  5
267
330
261
100
AcDbEntity
  8
0
  6
Continuous
 62
     0
370
    -2
100
AcDbLine
 10
232.7456700067727
 20
-19.08024509991471
 30
0.0
 11
206.0121700067727
 21
-19.08024509991471
 31
0.0
  0
SOLID
  5
268
330
261
100
AcDbEntity
  8
0
 62
     0
100
AcDbTrace
 10
232.7456700067727
 20
-19.63057843324804
 30
0.0
 11
232.7456700067727
 21
-18.52991176658137
 31
0.0
 12
236.0476700067726
 22
-19.08024509991471
 32
0.0
 13
236.0476700067726
 23
-19.08024509991471
 33
0.0
  0
SOLID
  5
269
330
261
100
AcDbEntity
  8
0
 62
     0
100
AcDbTrace
 10
206.0121700067727
 20
-18.52991176658137
 30
0.0
 11
206.0121700067727
 21
-19.63057843324804
 31
0.0
 12
202.7101700067727
 22
-19.08024509991471
 32
0.0
 13
202.7101700067727
 23
-19.08024509991471
 33
0.0
  0
MTEXT
  5
26A
330
261
100
AcDbEntity
  8
0
 62
     0
370
    15
100
AcDbMText
 10
183.2206700067727
 20
-14.70524509991471
 30
0.0
 40
3.5
 41
0.0
 71
     2
 72
     1
  1
\A1;33.34 [1 5/16]
  7
SLDTEXTSTYLE0
 73
     1
 44
1.0
  0
POINT
  5
26B
330
261
100
AcDbEntity
  8
Defpoints
 62
     0
100
AcDbPoint
 10
236.0476700067726
 20
-25.154282520762
 30
0.0
  0
POINT
  5
26C
330
261
100
AcDbEntity
  8
Defpoints
 62
     0
100
AcDbPoint
 10
202.7101700067727
 20
-26.60306580268466
 30
0.0
  0
POINT
  5
26D
330
261
100
AcDbEntity
  8
Defpoints
 62
     0
100
AcDbPoint
 10
202.7101700067727
 20
-19.08024509991471
 30
0.0
  0
ENDBLK
  5
263
330
261
100
AcDbEntity
  8
0
100
AcDbBlockEnd
  0
BLOCK
  5
26F
330
26E
100
AcDbEntity
  8
0
100
AcDbBlockBegin
  2
*D13
 70
     1
 10
0.0
 20
0.0
 30
0.0
  3
*D13
  1
*D13
  0
LINE
  5
271
330
26E
100
AcDbEntity
  8
0
  6
Continuous
 62
     0
370
    -2
100
AcDbLine
 10
236.0476700067726
 20
-25.091782520762
 30
0.0
 11
236.0476700067726
 21
-5.39130353258706
 31
0.0
  0
LINE
  5
272
330
26E
100
AcDbEntity
  8
0
  6
Continuous
 62
     0
370
    -2
100
AcDbLine
 10
109.0476700067727
 20
-25.09178252076206
 30
0.0
 11
109.0476700067727
 21
-5.39130353258706
 31
0.0
  0
LINE
  5
273
330
26E
100
AcDbEntity
  8
0
  6
Continuous
 62
     0
370
    -2
100
AcDbLine
 10
232.7456700067727
 20
-5.39130353258706
 30
0.0
 11
112.3496700067727
 21
-5.39130353258706
 31
0.0
  0
SOLID
  5
274
330
26E
100
AcDbEntity
  8
0
 62
     0
100
AcDbTrace
 10
232.7456700067727
 20
-5.941636865920393
 30
0.0
 11
232.7456700067727
 21
-4.840970199253726
 31
0.0
 12
236.0476700067726
 22
-5.39130353258706
 32
0.0
 13
236.0476700067726
 23
-5.39130353258706
 33
0.0
  0
SOLID
  5
275
330
26E
100
AcDbEntity
  8
0
 62
     0
100
AcDbTrace
 10
112.3496700067727
 20
-4.840970199253726
 30
0.0
 11
112.3496700067727
 21
-5.941636865920393
 31
0.0
 12
109.0476700067727
 22
-5.39130353258706
 32
0.0
 13
109.0476700067727
 23
-5.39130353258706
 33
0.0
  0
MTEXT
  5
276
330
26E
100
AcDbEntity
  8
0
 62
     0
370
    15
100
AcDbMText
 10
173.1035013459388
 20
-1.01630353258706
 30
0.0
 40
3.5
 41
0.0
 71
     2
 72
     1
  1
\A1;127 [5]
  7
SLDTEXTSTYLE0
 73
     1
 44
1.0
  0
POINT
  5
277
330
26E
100
AcDbEntity
  8
Defpoints
 62
     0
100
AcDbPoint
 10
236.0476700067726
 20
-25.154282520762
 30
0.0
  0
POINT
  5
278
330
26E
100
AcDbEntity
  8
Defpoints
 62
     0
100
AcDbPoint
 10
109.0476700067727
 20
-25.15428252076206
 30
0.0
  0
POINT
  5
279
330
26E
100
AcDbEntity
  8
Defpoints
 62
     0
100
AcDbPoint
 10
109.0476700067727
 20
-5.39130353258706
 30
0.0
  0
ENDBLK
  5
270
330
26E
100
AcDbEntity
  8
0
100
AcDbBlockEnd
  0
BLOCK
  5
27B
330
27A
100
AcDbEntity
  8
0
100
AcDbBlockBegin
  2
*D14
 70
     1
 10
0.0
 20
0.0
 30
0.0
  3
*D14
  1
*D14
  0
LINE
  5
27D
330
27A
100
AcDbEntity
  8
0
  6
Continuous
 62
     0
370
    -2
100
AcDbLine
 10
145.3728724817307
 20
-25.15428252076204
 30
0.0
 11
96.61767000677267
 21
-25.15428252076222
 31
0.0
  0
LINE
  5
27E
330
27A
100
AcDbEntity
  8
0
  6
Continuous
 62
     0
370
    -2
100
AcDbLine
 10
145.3728724817307
 20
-44.20428252076204
 30
0.0
 11
96.61767000677274
 21
-44.20428252076222
 31
0.0
  0
LINE
  5
27F
330
27A
100
AcDbEntity
  8
0
  6
Continuous
 62
     0
370
    -2
100
AcDbLine
 10
96.61767000677268
 20
-28.45628252076222
 30
0.0
 11
96.61767000677273
 21
-40.90228252076222
 31
0.0
  0
SOLID
  5
280
330
27A
100
AcDbEntity
  8
0
 62
     0
100
AcDbTrace
 10
97.16800334010601
 20
-28.45628252076222
 30
0.0
 11
96.06733667343936
 21
-28.45628252076222
 31
0.0
 12
96.61767000677267
 22
-25.15428252076222
 32
0.0
 13
96.61767000677267
 23
-25.15428252076222
 33
0.0
  0
SOLID
  5
281
330
27A
100
AcDbEntity
  8
0
 62
     0
100
AcDbTrace
 10
96.0673366734394
 20
-40.90228252076222
 30
0.0
 11
97.16800334010605
 21
-40.90228252076222
 31
0.0
 12
96.61767000677274
 22
-44.20428252076222
 32
0.0
 13
96.61767000677274
 23
-44.20428252076222
 33
0.0
  0
MTEXT
  5
282
330
27A
100
AcDbEntity
  8
0
 62
     0
370
    15
100
AcDbMText
 10
92.2426700067727
 20
-34.67928252076207
 30
0.0
 40
3.5
 41
0.0
 71
     2
 72
     1
  1
\A1;%%c19.05 [3/4]
  7
SLDTEXTSTYLE0
 11
-3.729883127349606E-15
 21
1.0
 31
0.0
 73
     1
 44
1.0
  0
POINT
  5
283
330
27A
100
AcDbEntity
  8
Defpoints
 62
     0
100
AcDbPoint
 10
145.4353724817307
 20
-25.15428252076204
 30
0.0
  0
POINT
  5
284
330
27A
100
AcDbEntity
  8
Defpoints
 62
     0
100
AcDbPoint
 10
145.4353724817307
 20
-44.20428252076204
 30
0.0
  0
POINT
  5
285
330
27A
100
AcDbEntity
  8
Defpoints
 62
     0
100
AcDbPoint
 10
96.61767000677273
 20
-44.20428252076223
 30
0.0
  0
ENDBLK
  5
27C
330
27A
100
AcDbEntity
  8
0
100
AcDbBlockEnd
  0
BLOCK
  5
287
330
286
100
AcDbEntity
  8
0
100
AcDbBlockBegin
  2
*D15
 70
     1
 10
0.0
 20
0.0
 30
0.0
  3
*D15
  1
*D15
  0
LINE
  5
289
330
286
100
AcDbEntity
  8
0
  6
Continuous
 62
     0
370
    -2
100
AcDbLine
 10
236.1101700067727
 20
-25.154282520762
 30
0.0
 11
254.123338536635
 21
-25.15428252076194
 31
0.0
  0
LINE
  5
28A
330
286
100
AcDbEntity
  8
0
  6
Continuous
 62
     0
370
    -2
100
AcDbLine
 10
236.1101700067727
 20
-44.20428252076199
 30
0.0
 11
254.1233385366351
 21
-44.20428252076193
 31
0.0
  0
LINE
  5
28B
330
286
100
AcDbEntity
  8
0
  6
Continuous
 62
     0
370
    -2
100
AcDbLine
 10
254.123338536635
 20
-25.15428252076194
 30
0.0
 11
254.1233385366349
 21
5.710217479238068
 31
0.0
  0
LINE
  5
28C
330
286
100
AcDbEntity
  8
0
  6
Continuous
 62
     0
370
    -2
100
AcDbLine
 10
254.123338536635
 20
-28.45628252076193
 30
0.0
 11
254.1233385366351
 21
-40.90228252076193
 31
0.0
  0
SOLID
  5
28D
330
286
100
AcDbEntity
  8
0
 62
     0
100
AcDbTrace
 10
254.6736718699683
 20
-28.45628252076193
 30
0.0
 11
253.5730052033017
 21
-28.45628252076193
 31
0.0
 12
254.123338536635
 22
-25.15428252076194
 32
0.0
 13
254.123338536635
 23
-25.15428252076194
 33
0.0
  0
SOLID
  5
28E
330
286
100
AcDbEntity
  8
0
 62
     0
100
AcDbTrace
 10
253.5730052033017
 20
-40.90228252076193
 30
0.0
 11
254.6736718699684
 21
-40.90228252076193
 31
0.0
 12
254.1233385366351
 22
-44.20428252076193
 32
0.0
 13
254.1233385366351
 23
-44.20428252076193
 33
0.0
  0
MTEXT
  5
28F
330
286
100
AcDbEntity
  8
0
 62
     0
370
    15
100
AcDbMText
 10
249.7483385366349
 20
-8.071032520761944
 30
0.0
 40
3.5
 41
0.0
 71
     2
 72
     1
  1
\A1;%%c19.05 [3/4]
  7
SLDTEXTSTYLE0
 11
-2.983906501879688E-15
 21
1.0
 31
0.0
 73
     1
 44
1.0
  0
POINT
  5
290
330
286
100
AcDbEntity
  8
Defpoints
 62
     0
100
AcDbPoint
 10
236.0476700067727
 20
-25.154282520762
 30
0.0
  0
POINT
  5
291
330
286
100
AcDbEntity
  8
Defpoints
 62
     0
100
AcDbPoint
 10
236.0476700067727
 20
-44.20428252076199
 30
0.0
  0
POINT
  5
292
330
286
100
AcDbEntity
  8
Defpoints
 62
     0
100
AcDbPoint
 10
254.1233385366351
 20
-44.20428252076192
 30
0.0
  0
ENDBLK
  5
288
330
286
100
AcDbEntity
  8
0
100
AcDbBlockEnd
  0
BLOCK
  5
30F
330
30E
100
AcDbEntity
  8
0
100
AcDbBlockBegin
  2
*D17
 70
     1
 10
0.0
 20
0.0
 30
0.0
  3
*D17
  1
*D17
  0
LINE
  5
311
330
30E
100
AcDbEntity
  8
0
  6
Continuous
 62
     0
370
    -2
100
AcDbLine
 10
152.2249999999999
 20
25.48777812200997
 30
0.0
 11
152.2249999999999
 21
33.16824573837894
 31
0.0
  0
LINE
  5
312
330
30E
100
AcDbEntity
  8
0
  6
Continuous
 62
     0
370
    -2
100
AcDbLine
 10
110.95
 20
22.47607387107882
 30
0.0
 11
110.95
 21
33.16824573837894
 31
0.0
  0
LINE
  5
313
330
30E
100
AcDbEntity
  8
0
  6
Continuous
 62
     0
370
    -2
100
AcDbLine
 10
148.9229999999999
 20
33.16824573837894
 30
0.0
 11
114.252
 21
33.16824573837894
 31
0.0
  0
SOLID
  5
314
330
30E
100
AcDbEntity
  8
0
 62
     0
100
AcDbTrace
 10
148.9229999999999
 20
32.6179124050456
 30
0.0
 11
148.9229999999999
 21
33.71857907171227
 31
0.0
 12
152.2249999999999
 22
33.16824573837894
 32
0.0
 13
152.2249999999999
 23
33.16824573837894
 33
0.0
  0
SOLID
  5
315
330
30E
100
AcDbEntity
  8
0
 62
     0
100
AcDbTrace
 10
114.252
 20
33.71857907171227
 30
0.0
 11
114.252
 21
32.6179124050456
 31
0.0
 12
110.95
 22
33.16824573837894
 32
0.0
 13
110.95
 23
33.16824573837894
 33
0.0
  0
MTEXT
  5
316
330
30E
100
AcDbEntity
  8
0
 62
     0
370
    15
100
AcDbMText
 10
130.6363726729115
 20
37.54324573837894
 30
0.0
 40
3.5
 41
0.0
 71
     2
 72
     1
  1
\A1;41.28 [1 5/8]
  7
SLDTEXTSTYLE0
 73
     1
 44
1.0
  0
POINT
  5
317
330
30E
100
AcDbEntity
  8
Defpoints
 62
     0
100
AcDbPoint
 10
152.2249999999999
 20
25.42527812200997
 30
0.0
  0
POINT
  5
318
330
30E
100
AcDbEntity
  8
Defpoints
 62
     0
100
AcDbPoint
 10
110.95
 20
22.41357387107882
 30
0.0
  0
POINT
  5
319
330
30E
100
AcDbEntity
  8
Defpoints
 62
     0
100
AcDbPoint
 10
110.95
 20
33.16824573837894
 30
0.0
  0
ENDBLK
  5
310
330
30E
100
AcDbEntity
  8
0
100
AcDbBlockEnd
  0
BLOCK
  5
31B
330
31A
100
AcDbEntity
  8
0
100
AcDbBlockBegin
  2
*D18
 70
     1
 10
0.0
 20
0.0
 30
0.0
  3
*D18
  1
*D18
  0
LINE
  5
31D
330
31A
100
AcDbEntity
  8
0
  6
Continuous
 62
     0
370
    -2
100
AcDbLine
 10
152.2249999999999
 20
25.48777812200997
 30
0.0
 11
152.2249999999999
 21
42.0132571101849
 31
0.0
  0
LINE
  5
31E
330
31A
100
AcDbEntity
  8
0
  6
Continuous
 62
     0
370
    -2
100
AcDbLine
 10
3.0
 20
24.48777812200991
 30
0.0
 11
3.0
 21
42.0132571101849
 31
0.0
  0
LINE
  5
31F
330
31A
100
AcDbEntity
  8
0
  6
Continuous
 62
     0
370
    -2
100
AcDbLine
 10
148.9229999999999
 20
42.0132571101849
 30
0.0
 11
6.302
 21
42.0132571101849
 31
0.0
  0
SOLID
  5
320
330
31A
100
AcDbEntity
  8
0
 62
     0
100
AcDbTrace
 10
148.9229999999999
 20
41.46292377685157
 30
0.0
 11
148.9229999999999
 21
42.56359044351824
 31
0.0
 12
152.2249999999999
 22
42.0132571101849
 32
0.0
 13
152.2249999999999
 23
42.0132571101849
 33
0.0
  0
SOLID
  5
321
330
31A
100
AcDbEntity
  8
0
 62
     0
100
AcDbTrace
 10
6.302
 20
42.56359044351824
 30
0.0
 11
6.302
 21
41.46292377685157
 31
0.0
 12
3.0
 22
42.0132571101849
 32
0.0
 13
3.0
 23
42.0132571101849
 33
0.0
  0
MTEXT
  5
322
330
31A
100
AcDbEntity
  8
0
 62
     0
370
    15
100
AcDbMText
 10
78.26560182352013
 20
46.3882571101849
 30
0.0
 40
3.5
 41
0.0
 71
     2
 72
     1
  1
\A1;149.23 [5 7/8]
  7
SLDTEXTSTYLE0
 73
     1
 44
1.0
  0
POINT
  5
323
330
31A
100
AcDbEntity
  8
Defpoints
 62
     0
100
AcDbPoint
 10
152.2249999999999
 20
25.42527812200997
 30
0.0
  0
POINT
  5
324
330
31A
100
AcDbEntity
  8
Defpoints
 62
     0
100
AcDbPoint
 10
3.0
 20
24.42527812200991
 30
0.0
  0
POINT
  5
325
330
31A
100
AcDbEntity
  8
Defpoints
 62
     0
100
AcDbPoint
 10
3.0
 20
42.0132571101849
 30
0.0
  0
ENDBLK
  5
31C
330
31A
100
AcDbEntity
  8
0
100
AcDbBlockEnd
  0
BLOCK
  5
327
330
326
100
AcDbEntity
  8
0
100
AcDbBlockBegin
  2
*D19
 70
     1
 10
0.0
 20
0.0
 30
0.0
  3
*D19
  1
*D19
  0
LINE
  5
329
330
326
100
AcDbEntity
  8
0
  6
Continuous
 62
     0
370
    -2
100
AcDbLine
 10
152.2875
 20
25.42527812200997
 30
0.0
 11
164.3210298010245
 21
25.42527812201002
 31
0.0
  0
LINE
  5
32A
330
326
100
AcDbEntity
  8
0
  6
Continuous
 62
     0
370
    -2
100
AcDbLine
 10
152.2875
 20
0.0252781220099669
 30
0.0
 11
164.3210298010245
 21
0.0252781220100076
 31
0.0
  0
LINE
  5
32B
330
326
100
AcDbEntity
  8
0
  6
Continuous
 62
     0
370
    -2
100
AcDbLine
 10
164.3210298010245
 20
25.42527812201002
 30
0.0
 11
164.3210298010244
 21
55.50009675935746
 31
0.0
  0
LINE
  5
32C
330
326
100
AcDbEntity
  8
0
  6
Continuous
 62
     0
370
    -2
100
AcDbLine
 10
164.3210298010245
 20
22.12327812201002
 30
0.0
 11
164.3210298010245
 21
3.327278122010007
 31
0.0
  0
SOLID
  5
32D
330
326
100
AcDbEntity
  8
0
 62
     0
100
AcDbTrace
 10
164.8713631343578
 20
22.12327812201002
 30
0.0
 11
163.7706964676911
 21
22.12327812201001
 31
0.0
 12
164.3210298010245
 22
25.42527812201002
 32
0.0
 13
164.3210298010245
 23
25.42527812201002
 33
0.0
  0
SOLID
  5
32E
330
326
100
AcDbEntity
  8
0
 62
     0
100
AcDbTrace
 10
163.7706964676912
 20
3.327278122010005
 30
0.0
 11
164.8713631343579
 21
3.327278122010009
 31
0.0
 12
164.3210298010245
 22
0.0252781220100076
 32
0.0
 13
164.3210298010245
 23
0.0252781220100076
 33
0.0
  0
MTEXT
  5
32F
330
326
100
AcDbEntity
  8
0
 62
     0
370
    15
100
AcDbMText
 10
159.9460298010244
 20
45.43759675935745
 30
0.0
 40
3.5
 41
0.0
 71
     2
 72
     1
  1
\A1;%%c25.4 [1]
  7
SLDTEXTSTYLE0
 11
-3.356894814614646E-15
 21
1.0
 31
0.0
 73
     1
 44
1.0
  0
POINT
  5
330
330
326
100
AcDbEntity
  8
Defpoints
 62
     0
100
AcDbPoint
 10
152.225
 20
25.42527812200997
 30
0.0
  0
POINT
  5
331
330
326
100
AcDbEntity
  8
Defpoints
 62
     0
100
AcDbPoint
 10
152.225
 20
0.0252781220099667
 30
0.0
  0
POINT
  5
332
330
326
100
AcDbEntity
  8
Defpoints
 62
     0
100
AcDbPoint
 10
164.3210298010246
 20
0.0252781220100119
 30
0.0
  0
ENDBLK
  5
328
330
326
100
AcDbEntity
  8
0
100
AcDbBlockEnd
  0
BLOCK
  5
359
330
358
100
AcDbEntity
  8
0
100
AcDbBlockBegin
  2
*D20
 70
     1
 10
0.0
 20
0.0
 30
0.0
  3
*D20
  1
*D20
  0
LINE
  5
35B
330
358
100
AcDbEntity
  8
0
  6
Continuous
 62
     0
370
    -2
100
AcDbLine
 10
228.5994687745279
 20
34.47303625969546
 30
0.0
 11
228.5994687745279
 21
42.15350387606443
 31
0.0
  0
LINE
  5
35C
330
358
100
AcDbEntity
  8
0
  6
Continuous
 62
     0
370
    -2
100
AcDbLine
 10
187.324468774528
 20
31.46133200876432
 30
0.0
 11
187.324468774528
 21
42.15350387606443
 31
0.0
  0
LINE
  5
35D
330
358
100
AcDbEntity
  8
0
  6
Continuous
 62
     0
370
    -2
100
AcDbLine
 10
225.2974687745279
 20
42.15350387606443
 30
0.0
 11
190.626468774528
 21
42.15350387606443
 31
0.0
  0
SOLID
  5
35E
330
358
100
AcDbEntity
  8
0
 62
     0
100
AcDbTrace
 10
225.2974687745279
 20
41.60317054273109
 30
0.0
 11
225.2974687745279
 21
42.70383720939776
 31
0.0
 12
228.5994687745279
 22
42.15350387606443
 32
0.0
 13
228.5994687745279
 23
42.15350387606443
 33
0.0
  0
SOLID
  5
35F
330
358
100
AcDbEntity
  8
0
 62
     0
100
AcDbTrace
 10
190.626468774528
 20
42.70383720939776
 30
0.0
 11
190.626468774528
 21
41.60317054273109
 31
0.0
 12
187.324468774528
 22
42.15350387606443
 32
0.0
 13
187.324468774528
 23
42.15350387606443
 33
0.0
  0
MTEXT
  5
360
330
358
100
AcDbEntity
  8
0
 62
     0
370
    15
100
AcDbMText
 10
207.0108414474395
 20
46.52850387606443
 30
0.0
 40
3.5
 41
0.0
 71
     2
 72
     1
  1
\A1;41.28 [1 5/8]
  7
SLDTEXTSTYLE0
 73
     1
 44
1.0
  0
POINT
  5
361
330
358
100
AcDbEntity
  8
Defpoints
 62
     0
100
AcDbPoint
 10
228.5994687745279
 20
34.41053625969546
 30
0.0
  0
POINT
  5
362
330
358
100
AcDbEntity
  8
Defpoints
 62
     0
100
AcDbPoint
 10
187.324468774528
 20
31.39883200876432
 30
0.0
  0
POINT
  5
363
330
358
100
AcDbEntity
  8
Defpoints
 62
     0
100
AcDbPoint
 10
187.324468774528
 20
42.15350387606443
 30
0.0
  0
ENDBLK
  5
35A
330
358
100
AcDbEntity
  8
0
100
AcDbBlockEnd
  0
BLOCK
  5
365
330
364
100
AcDbEntity
  8
0
100
AcDbBlockBegin
  2
*D21
 70
     1
 10
0.0
 20
0.0
 30
0.0
  3
*D21
  1
*D21
  0
LINE
  5
367
330
364
100
AcDbEntity
  8
0
  6
Continuous
 62
     0
370
    -2
100
AcDbLine
 10
228.5994687745279
 20
34.47303625969546
 30
0.0
 11
228.5994687745279
 21
50.99851524787039
 31
0.0
  0
LINE
  5
368
330
364
100
AcDbEntity
  8
0
  6
Continuous
 62
     0
370
    -2
100
AcDbLine
 10
79.374468774528
 20
33.47303625969541
 30
0.0
 11
79.374468774528
 21
50.99851524787039
 31
0.0
  0
LINE
  5
369
330
364
100
AcDbEntity
  8
0
  6
Continuous
 62
     0
370
    -2
100
AcDbLine
 10
225.2974687745279
 20
50.99851524787039
 30
0.0
 11
82.67646877452799
 21
50.99851524787039
 31
0.0
  0
SOLID
  5
36A
330
364
100
AcDbEntity
  8
0
 62
     0
100
AcDbTrace
 10
225.2974687745279
 20
50.44818191453706
 30
0.0
 11
225.2974687745279
 21
51.54884858120373
 31
0.0
 12
228.5994687745279
 22
50.99851524787039
 32
0.0
 13
228.5994687745279
 23
50.99851524787039
 33
0.0
  0
SOLID
  5
36B
330
364
100
AcDbEntity
  8
0
 62
     0
100
AcDbTrace
 10
82.67646877452799
 20
51.54884858120373
 30
0.0
 11
82.67646877452799
 21
50.44818191453706
 31
0.0
 12
79.374468774528
 22
50.99851524787039
 32
0.0
 13
79.374468774528
 23
50.99851524787039
 33
0.0
  0
MTEXT
  5
36C
330
364
100
AcDbEntity
  8
0
 62
     0
370
    15
100
AcDbMText
 10
154.6400705980481
 20
55.37351524787039
 30
0.0
 40
3.5
 41
0.0
 71
     2
 72
     1
  1
\A1;149.23 [5 7/8]
  7
SLDTEXTSTYLE0
 73
     1
 44
1.0
  0
POINT
  5
36D
330
364
100
AcDbEntity
  8
Defpoints
 62
     0
100
AcDbPoint
 10
228.5994687745279
 20
34.41053625969546
 30
0.0
  0
POINT
  5
36E
330
364
100
AcDbEntity
  8
Defpoints
 62
     0
100
AcDbPoint
 10
79.374468774528
 20
33.41053625969541
 30
0.0
  0
POINT
  5
36F
330
364
100
AcDbEntity
  8
Defpoints
 62
     0
100
AcDbPoint
 10
79.374468774528
 20
50.99851524787039
 30
0.0
  0
ENDBLK
  5
366
330
364
100
AcDbEntity
  8
0
100
AcDbBlockEnd
  0
BLOCK
  5
371
330
370
100
AcDbEntity
  8
0
100
AcDbBlockBegin
  2
*D22
 70
     1
 10
0.0
 20
0.0
 30
0.0
  3
*D22
  1
*D22
  0
LINE
  5
373
330
370
100
AcDbEntity
  8
0
  6
Continuous
 62
     0
370
    -2
100
AcDbLine
 10
228.661968774528
 20
34.41053625969546
 30
0.0
 11
240.6954985755524
 21
34.4105362596955
 31
0.0
  0
LINE
  5
374
330
370
100
AcDbEntity
  8
0
  6
Continuous
 62
     0
370
    -2
100
AcDbLine
 10
228.661968774528
 20
9.010536259695458
 30
0.0
 11
240.6954985755525
 21
9.010536259695499
 31
0.0
  0
LINE
  5
375
330
370
100
AcDbEntity
  8
0
  6
Continuous
 62
     0
370
    -2
100
AcDbLine
 10
240.6954985755524
 20
34.4105362596955
 30
0.0
 11
240.6954985755524
 21
64.48535489704295
 31
0.0
  0
LINE
  5
376
330
370
100
AcDbEntity
  8
0
  6
Continuous
 62
     0
370
    -2
100
AcDbLine
 10
240.6954985755524
 20
31.10853625969551
 30
0.0
 11
240.6954985755525
 21
12.3125362596955
 31
0.0
  0
SOLID
  5
377
330
370
100
AcDbEntity
  8
0
 62
     0
100
AcDbTrace
 10
241.2458319088858
 20
31.10853625969551
 30
0.0
 11
240.1451652422191
 21
31.1085362596955
 31
0.0
 12
240.6954985755524
 22
34.4105362596955
 32
0.0
 13
240.6954985755524
 23
34.4105362596955
 33
0.0
  0
SOLID
  5
378
330
370
100
AcDbEntity
  8
0
 62
     0
100
AcDbTrace
 10
240.1451652422192
 20
12.3125362596955
 30
0.0
 11
241.2458319088859
 21
12.3125362596955
 31
0.0
 12
240.6954985755525
 22
9.010536259695499
 32
0.0
 13
240.6954985755525
 23
9.010536259695499
 33
0.0
  0
MTEXT
  5
379
330
370
100
AcDbEntity
  8
0
 62
     0
370
    15
100
AcDbMText
 10
236.3204985755524
 20
54.42285489704294
 30
0.0
 40
3.5
 41
0.0
 71
     2
 72
     1
  1
\A1;%%c25.4 [1]
  7
SLDTEXTSTYLE0
 11
-3.356894814614646E-15
 21
1.0
 31
0.0
 73
     1
 44
1.0
  0
POINT
  5
37A
330
370
100
AcDbEntity
  8
Defpoints
 62
     0
100
AcDbPoint
 10
228.599468774528
 20
34.41053625969546
 30
0.0
  0
POINT
  5
37B
330
370
100
AcDbEntity
  8
Defpoints
 62
     0
100
AcDbPoint
 10
228.599468774528
 20
9.010536259695458
 30
0.0
  0
POINT
  5
37C
330
370
100
AcDbEntity
  8
Defpoints
 62
     0
100
AcDbPoint
 10
240.6954985755525
 20
9.010536259695503
 30
0.0
  0
ENDBLK
  5
372
330
370
100
AcDbEntity
  8
0
100
AcDbBlockEnd
  0
ENDSEC
  0
SECTION
  2
ENTITIES
  0
LINE
  5
98
330
1F
100
AcDbEntity
  8
외형선
  6
Continuous
370
    15
100
AcDbLine
 10
30.28784772662292
 20
12.7
 30
0.0
 11
-30.2878477266229
 21
12.69999999999999
 31
0.0
  0
LINE
  5
9A
330
1F
100
AcDbEntity
  8
0
  6
Continuous
 62
     1
370
    15
100
AcDbLine
 10
59.37234163018599
 20
-12.7
 30
0.0
 11
61.91249999999999
 21
-12.7
 31
0.0
  0
ARC
  5
9B
330
1F
100
AcDbEntity
  8
0
  6
Continuous
 62
     1
370
    15
100
AcDbCircle
 10
61.91249999999999
 20
-0.0000000000000026
 30
0.0
 40
12.7
100
AcDbArc
 50
270.0000000000008
 51
0.0
  0
ARC
  5
9C
330
1F
100
AcDbEntity
  8
0
  6
Continuous
 62
     1
370
    15
100
AcDbCircle
 10
61.91249999999999
 20
-0.0000000000000026
 30
0.0
 40
12.7
100
AcDbArc
 50
0.0
 51
90.0
  0
LINE
  5
9D
330
1F
100
AcDbEntity
  8
0
  6
Continuous
 62
     1
370
    15
100
AcDbLine
 10
61.91249999999999
 20
12.7
 30
0.0
 11
59.372341630186
 21
12.7
 31
0.0
  0
LINE
  5
A0
330
1F
100
AcDbEntity
  8
외형선
  6
Continuous
370
    15
100
AcDbLine
 10
30.28784772662292
 20
10.73015996304699
 30
0.0
 11
30.28784772662292
 21
12.7
 31
0.0
  0
SPLINE
  5
A1
330
1F
100
AcDbEntity
  8
외형선
  6
Continuous
370
    15
100
AcDbSpline
210
0.0
220
0.0
230
1.0
 70
     8
 71
     3
 72
    10
 73
     6
 74
     0
 42
0.000000001
 43
0.00000001
 40
0.0
 40
0.0
 40
0.0
 40
0.0
 40
0.5
 40
0.5
 40
1.0
 40
1.0
 40
1.0
 40
1.0
 10
33.33749999999998
 20
9.688295749087906
 30
0.0
 10
32.82854060361667
 20
9.878131141575881
 30
0.0
 10
32.31891737340326
 20
10.06027237727344
 30
0.0
 10
31.30201537488782
 20
10.40786992520351
 30
0.0
 10
30.79602421704883
 20
10.57320262875092
 30
0.0
 10
30.28784772662291
 20
10.73018060798396
 30
0.0
  0
LINE
  5
A2
330
1F
100
AcDbEntity
  8
외형선
  6
Continuous
370
    15
100
AcDbLine
 10
33.33749999999998
 20
9.68829574908791
 30
0.0
 11
33.33749999999998
 21
-4.795563057075811
 31
0.0
  0
SPLINE
  5
A3
330
1F
100
AcDbEntity
  8
외형선
  6
Continuous
370
    15
100
AcDbSpline
210
0.0
220
0.0
230
1.0
 70
     8
 71
     3
 72
    10
 73
     6
 74
     0
 42
0.000000001
 43
0.00000001
 40
0.0
 40
0.0
 40
0.0
 40
0.0
 40
0.5000000000000001
 40
0.5000000000000001
 40
1.0
 40
1.0
 40
1.0
 40
1.0
 10
33.33749999999998
 20
-4.795563057075811
 30
0.0
 10
32.82850019873538
 20
-4.523672319061609
 30
0.0
 10
32.31883645837596
 20
-4.247813871332191
 30
0.0
 10
31.30185410283309
 20
-3.690156791911602
 30
0.0
 10
30.79582293794851
 20
-3.408602693590932
 30
0.0
 10
30.28760567014808
 20
-3.124142671188299
 30
0.0
  0
LINE
  5
A4
330
1F
100
AcDbEntity
  8
외형선
  6
Continuous
370
    15
100
AcDbLine
 10
30.28784772662292
 20
-12.7
 30
0.0
 11
30.28784772662292
 21
-3.123493000763569
 31
0.0
  0
SPLINE
  5
A5
330
1F
100
AcDbEntity
  8
외형선
  6
Continuous
370
    15
100
AcDbSpline
210
0.0
220
0.0
230
1.0
 70
     8
 71
     3
 72
    10
 73
     6
 74
     0
 42
0.000000001
 43
0.00000001
 40
0.0
 40
0.0
 40
0.0
 40
0.0
 40
0.5
 40
0.5
 40
1.0
 40
1.0
 40
1.0
 40
1.0
 10
33.33749999999998
 20
-9.688295749087908
 30
0.0
 10
32.82854060361668
 20
-9.87813114157588
 30
0.0
 10
32.31891737340327
 20
-10.06027237727344
 30
0.0
 10
31.30201537488782
 20
-10.40786992520351
 30
0.0
 10
30.79602421704883
 20
-10.57320262875092
 30
0.0
 10
30.28784772662292
 20
-10.73018060798396
 30
0.0
  0
SPLINE
  5
A6
330
1F
100
AcDbEntity
  8
외형선
  6
Continuous
370
    15
100
AcDbSpline
210
0.0
220
0.0
230
1.0
 70
     8
 71
     3
 72
    10
 73
     6
 74
     0
 42
0.000000001
 43
0.00000001
 40
0.0
 40
0.0
 40
0.0
 40
0.0
 40
0.5
 40
0.5
 40
1.0
 40
1.0
 40
1.0
 40
1.0
 10
33.33749999999995
 20
-8.247803697397224
 30
0.0
 10
32.82854060361665
 20
-8.187644534076943
 30
0.0
 10
32.31891737340324
 20
-8.120839075480028
 30
0.0
 10
31.30201537488781
 20
-7.974430025129928
 30
0.0
 10
30.79602421704883
 20
-7.894906545541359
 30
0.0
 10
30.28784772662292
 20
-7.80901616419639
 30
0.0
  0
SPLINE
  5
A7
330
1F
100
AcDbEntity
  8
외형선
  6
Continuous
370
    15
100
AcDbSpline
210
0.0
220
0.0
230
1.0
 70
    24
 71
     3
 72
    14
 73
    10
 74
     0
 42
0.000000001
 43
0.00000001
 40
0.0
 40
0.0
 40
0.0
 40
0.0
 40
0.0134265433310351
 40
0.1765943479483396
 40
0.3397621525656446
 40
0.50292995718295
 40
0.6660977618002544
 40
0.8292655664175589
 40
1.0
 40
1.0
 40
1.0
 40
1.0
 10
33.33749999999999
 20
-4.39528675797555
 30
0.0
 10
33.33749999999999
 20
-4.393130033561879
 30
0.0
 10
33.33749999999999
 20
-4.364763436728555
 30
0.0
 10
33.33749999999999
 20
-4.513089873274212
 30
0.0
 10
33.33749999999999
 20
-4.859710532233595
 30
0.0
 10
33.33749999999999
 20
-5.43000755899194
 30
0.0
 10
33.33749999999999
 20
-6.189062698123968
 30
0.0
 10
33.33749999999999
 20
-7.12029633483188
 30
0.0
 10
33.33749999999999
 20
-7.866332548604625
 30
0.0
 10
33.33749999999999
 20
-8.247803697397226
 30
0.0
  0
SPLINE
  5
A8
330
1F
100
AcDbEntity
  8
외형선
  6
Continuous
370
    15
100
AcDbSpline
210
0.0
220
0.0
230
1.0
 70
    24
 71
     3
 72
    10
 73
     6
 74
     0
 42
0.000000001
 43
0.00000001
 40
0.0
 40
0.0
 40
0.0
 40
0.0
 40
0.6200140635183383
 40
0.8098023382797036
 40
1.0
 40
1.0
 40
1.0
 40
1.0
 10
33.33749999999999
 20
-8.352569060277832
 30
0.0
 10
33.3375
 20
-8.601273685991076
 30
0.0
 10
33.33750000000001
 20
-8.92610758782338
 30
0.0
 10
33.33749999999997
 20
-9.403004278474285
 30
0.0
 10
33.33749999999998
 20
-9.593130313256825
 30
0.0
 10
33.33749999999998
 20
-9.688295749069043
 30
0.0
  0
SPLINE
  5
A9
330
1F
100
AcDbEntity
  8
0
  6
Continuous
 62
     1
370
    15
100
AcDbSpline
210
0.0
220
0.0
230
1.0
 70
     8
 71
     3
 72
    34
 73
    30
 74
     0
 42
0.000000001
 43
0.00000001
 40
0.0
 40
0.0
 40
0.0
 40
0.0
 40
0.1249999999999998
 40
0.1249999999999998
 40
0.2499999999999996
 40
0.2499999999999996
 40
0.3124999999999996
 40
0.3124999999999996
 40
0.3749999999999996
 40
0.3749999999999996
 40
0.4374999999999997
 40
0.4374999999999997
 40
0.4999999999999997
 40
0.4999999999999997
 40
0.5624999999999997
 40
0.5624999999999997
 40
0.6249999999999997
 40
0.6249999999999997
 40
0.6874999999999997
 40
0.6874999999999997
 40
0.7499999999999997
 40
0.7499999999999997
 40
0.8124999999999998
 40
0.8124999999999998
 40
0.8749999999999998
 40
0.8749999999999998
 40
0.9374999999999999
 40
0.9374999999999999
 40
1.0
 40
1.0
 40
1.0
 40
1.0
 10
61.91249999999998
 20
-5.309731008042698
 30
0.0
 10
60.71980628647336
 20
-4.684912505744117
 30
0.0
 10
59.53331404436327
 20
-4.037821166531761
 30
0.0
 10
57.14795679060095
 20
-2.711646202899753
 30
0.0
 10
55.96141739923189
 20
-2.034853294024776
 30
0.0
 10
54.17244566888367
 20
-1.008992465119164
 30
0.0
 10
53.57585935537146
 20
-0.6655014528704021
 30
0.0
 10
52.38804426552009
 20
0.0211573423619964
 30
0.0
 10
51.79320227163593
 20
0.3650206781217946
 30
0.0
 10
50.60060097670285
 20
1.051750646917195
 30
0.0
 10
50.00392994353244
 20
1.394405209097802
 30
0.0
 10
48.81573222651378
 20
2.074920601472072
 30
0.0
 10
48.2213002192145
 20
2.413339209985716
 30
0.0
 10
47.02876116618656
 20
3.084821092718916
 30
0.0
 10
46.43201328782588
 20
3.417622241924844
 30
0.0
 10
45.24344846722566
 20
4.074082798667611
 30
0.0
 10
44.64938647305893
 20
4.398163813808202
 30
0.0
 10
43.45692537580792
 20
5.03672875901061
 30
0.0
 10
42.86010853011375
 20
5.350918153931556
 30
0.0
 10
41.67119214557545
 20
5.966042147363162
 30
0.0
 10
41.07746017489022
 20
6.267272640420415
 30
0.0
 10
39.88509274386355
 20
6.856119008865171
 30
0.0
 10
39.28821481173451
 20
7.143427572874681
 30
0.0
 10
38.09896241828531
 20
7.701018220906724
 30
0.0
 10
37.50552046698056
 20
7.971488053288351
 30
0.0
 10
36.31326240851148
 20
8.495123785102884
 30
0.0
 10
35.71633127354086
 20
8.747989478752201
 30
0.0
 10
34.52675844091621
 20
9.233361688313169
 30
0.0
 10
33.93356649219086
 20
9.46597051588056
 30
0.0
 10
33.33749999999998
 20
9.6882957490879
 30
0.0
  0
SPLINE
  5
AA
330
1F
100
AcDbEntity
  8
0
  6
Continuous
 62
     1
370
    15
100
AcDbSpline
210
0.0
220
0.0
230
1.0
 70
     8
 71
     3
 72
    15
 73
    11
 74
     0
 42
0.000000001
 43
0.00000001
 40
0.0
 40
0.0
 40
0.0
 40
0.0
 40
0.1344729697173712
 40
0.2690278040590012
 40
0.4035780385731363
 40
0.5380459269137529
 40
0.6750775951676897
 40
0.8121448950103273
 40
0.949129747473434
 40
1.0
 40
1.0
 40
1.0
 40
1.0
 10
71.21262206012545
 20
1.331241570938382
 30
0.0
 10
69.64962141339362
 20
1.932818623478654
 30
0.0
 10
66.52266859442318
 20
3.136338957396653
 30
0.0
 10
61.83139958136336
 20
4.782396398084503
 30
0.0
 10
57.14018299957259
 20
6.216722883093129
 30
0.0
 10
52.42071662944706
 20
7.374326808931734
 30
0.0
 10
47.67152520091588
 20
8.204583492684083
 30
0.0
 10
42.89286926528943
 20
8.628256046030764
 30
0.0
 10
39.11625476583352
 20
8.719481046650673
 30
0.0
 10
36.93266253497542
 20
8.529879987238033
 30
0.0
 10
36.34135633541856
 20
8.478536938710523
 30
0.0
  0
SPLINE
  5
AB
330
1F
100
AcDbEntity
  8
0
  6
Continuous
 62
     1
370
    15
100
AcDbSpline
210
0.0
220
0.0
230
1.0
 70
     8
 71
     3
 72
    38
 73
    34
 74
     0
 42
0.000000001
 43
0.00000001
 40
0.0
 40
0.0
 40
0.0
 40
0.0
 40
0.1249999999999969
 40
0.1249999999999969
 40
0.1874999999999956
 40
0.1874999999999956
 40
0.2499999999999942
 40
0.2499999999999942
 40
0.3749999999999925
 40
0.3749999999999925
 40
0.4374999999999916
 40
0.4374999999999916
 40
0.4687499999999916
 40
0.4687499999999916
 40
0.4999999999999916
 40
0.4999999999999916
 40
0.5624999999999923
 40
0.5624999999999923
 40
0.6249999999999931
 40
0.6249999999999931
 40
0.6874999999999939
 40
0.6874999999999939
 40
0.7187499999999946
 40
0.7187499999999946
 40
0.7499999999999952
 40
0.7499999999999952
 40
0.8124999999999964
 40
0.8124999999999964
 40
0.8749999999999977
 40
0.8749999999999977
 40
0.9374999999999989
 40
0.9374999999999989
 40
1.0
 40
1.0
 40
1.0
 40
1.0
 10
61.91249999999999
 20
-5.309731008042712
 30
0.0
 10
62.61798047883179
 20
-5.679312277052009
 30
0.0
 10
63.31192989171514
 20
-6.010852599255804
 30
0.0
 10
64.35006783607014
 20
-6.43045570034639
 30
0.0
 10
64.69582165612178
 20
-6.556993596241678
 30
0.0
 10
65.38952633629756
 20
-6.778168403061482
 30
0.0
 10
65.73904438538744
 20
-6.87301661458789
 30
0.0
 10
66.77320956807318
 20
-7.094052025625871
 30
0.0
 10
67.44860089883062
 20
-7.162382986337603
 30
0.0
 10
68.46485873733246
 20
-7.086917579283678
 30
0.0
 10
68.79748698830832
 20
-7.031918134901144
 30
0.0
 10
69.28737612501985
 20
-6.896724318653678
 30
0.0
 10
69.44928247050802
 20
-6.842817445033341
 30
0.0
 10
69.77069443298694
 20
-6.714962321781063
 30
0.0
 10
69.93085680725824
 20
-6.640571580318567
 30
0.0
 10
70.39799025838349
 20
-6.388232278850189
 30
0.0
 10
70.69460856129346
 20
-6.181048203336474
 30
0.0
 10
71.25628817782014
 20
-5.667254173390891
 30
0.0
 10
71.50881811678846
 20
-5.371596614885523
 30
0.0
 10
71.949081191597
 20
-4.693938260860517
 30
0.0
 10
72.12594072123463
 20
-4.327764497880443
 30
0.0
 10
72.32216030325884
 20
-3.747138664387422
 30
0.0
 10
72.37524994419361
 20
-3.550034942210849
 30
0.0
 10
72.45605518728159
 20
-3.158373756510854
 30
0.0
 10
72.48426843261203
 20
-2.962349317570023
 30
0.0
 10
72.53430786269149
 20
-2.373298487997479
 30
0.0
 10
72.52063890958962
 20
-1.993914271789713
 30
0.0
 10
72.41925568774361
 20
-1.259420121252206
 30
0.0
 10
72.33021806009404
 20
-0.9017149169414425
 30
0.0
 10
72.09691004135223
 20
-0.2239114095377223
 30
0.0
 10
71.95222601641206
 20
0.100000016541848
 30
0.0
 10
71.61598731412452
 20
0.7287961903258069
 30
0.0
 10
71.42368192236964
 20
1.034406987497767
 30
0.0
 10
71.21262206021561
 20
1.331241570903321
 30
0.0
  0
SPLINE
  5
AC
330
1F
100
AcDbEntity
  8
0
  6
Continuous
 62
     1
370
    15
100
AcDbSpline
210
0.0
220
0.0
230
1.0
 70
     8
 71
     3
 72
    16
 73
    12
 74
     0
 42
0.000000001
 43
0.00000001
 40
0.0
 40
0.0
 40
0.0
 40
0.0
 40
0.1229093706670877
 40
0.2458165664314926
 40
0.3687298692121256
 40
0.4916575495180412
 40
0.6146078510195631
 40
0.7353870780265118
 40
0.8561360445810225
 40
0.976860367835626
 40
0.9999999999999999
 40
0.9999999999999999
 40
0.9999999999999999
 40
0.9999999999999999
 10
33.33749999999976
 20
-4.795563057075694
 30
0.0
 10
34.40411117382666
 20
-5.356069613061137
 30
0.0
 10
36.53731464761029
 20
-6.477072806771067
 30
0.0
 10
39.73713762773512
 20
-7.994663076710081
 30
0.0
 10
42.93715468522861
 20
-9.350501787270462
 30
0.0
 10
46.1376217447194
 20
-10.50731249861168
 30
0.0
 10
49.31967842991278
 20
-11.43540184456336
 30
0.0
 10
52.48301216111943
 20
-12.12708417323349
 30
0.0
 10
55.62676897065093
 20
-12.54460594421962
 30
0.0
 10
57.92310395035211
 20
-12.72527812200993
 30
0.0
 10
59.17153859765612
 20
-12.68621343389832
 30
0.0
 10
59.37234163018599
 20
-12.67993011914526
 30
0.0
  0
SPLINE
  5
AD
330
1F
100
AcDbEntity
  8
0
  6
Continuous
 62
     1
370
    15
100
AcDbSpline
210
0.0
220
0.0
230
1.0
 70
     8
 71
     3
 72
    14
 73
    10
 74
     0
 42
0.000000001
 43
0.00000001
 40
0.0
 40
0.0
 40
0.0
 40
0.0
 40
0.2500000000000001
 40
0.2500000000000001
 40
0.5000000000000001
 40
0.5000000000000001
 40
0.75
 40
0.75
 40
1.0
 40
1.0
 40
1.0
 40
1.0
 10
71.21262206021554
 20
1.331241570903333
 30
0.0
 10
71.35871988132524
 20
1.419150631659074
 30
0.0
 10
71.48885432612664
 20
1.528199772717968
 30
0.0
 10
71.71710300557854
 20
1.789780259213697
 30
0.0
 10
71.81596477313963
 20
1.944798386022492
 30
0.0
 10
71.97186337027043
 20
2.284456852826636
 30
0.0
 10
72.030185494037
 20
2.469538249506606
 30
0.0
 10
72.10997993448925
 20
2.867135131467827
 30
0.0
 10
72.13051078085883
 20
3.076371141862444
 30
0.0
 10
72.13405694983841
 20
3.289175456173586
 30
0.0
  0
ARC
  5
AE
330
1F
100
AcDbEntity
  8
0
  6
Continuous
 62
     1
370
    15
100
AcDbCircle
 10
68.53638734995056
 20
-2.207677449638743
 30
0.0
 40
6.56952193223345
100
AcDbArc
 50
23.84124834803068
 51
56.795403474565
  0
ARC
  5
AF
330
1F
100
AcDbEntity
  8
0
  6
Continuous
 62
     1
370
    15
100
AcDbCircle
 10
63.19062951394692
 20
0.2356730630344728
 30
0.0
 40
11.35667564124312
100
AcDbArc
 50
1.070009839932937
 51
71.15610913917955
  0
SPLINE
  5
B0
330
1F
100
AcDbEntity
  8
0
  6
Continuous
 62
     1
370
    15
100
AcDbSpline
210
0.0
220
0.0
230
1.0
 70
     8
 71
     3
 72
    12
 73
     8
 74
     0
 42
0.000000001
 43
0.00000001
 40
0.0
 40
0.0
 40
0.0
 40
0.0
 40
0.2499999999999999
 40
0.2499999999999999
 40
0.4999999999999998
 40
0.4999999999999998
 40
1.0
 40
1.0
 40
1.0
 40
1.0
 10
66.8587309447845
 20
10.98365489747632
 30
0.0
 10
66.46582419883396
 20
11.2232495926771
 30
0.0
 10
66.06570949798368
 20
11.43752799818268
 30
0.0
 10
65.25883016331471
 20
11.81366299315221
 30
0.0
 10
64.85098071687588
 20
11.97617427803667
 30
0.0
 10
63.61340955706464
 20
12.38699851259736
 30
0.0
 10
62.76420968827297
 20
12.5588317507304
 30
0.0
 10
61.91249999999998
 20
12.6154232202385
 30
0.0
  0
SPLINE
  5
B1
330
1F
100
AcDbEntity
  8
0
  6
Continuous
 62
     1
370
    15
100
AcDbSpline
210
0.0
220
0.0
230
1.0
 70
     8
 71
     3
 72
     9
 73
     5
 74
     0
 42
0.000000001
 43
0.00000001
 40
0.0
 40
0.0
 40
0.0
 40
0.0
 40
0.3933613862642754
 40
1.0
 40
1.0
 40
1.0
 40
1.0
 10
41.21324264553787
 20
-8.590240517243004
 30
0.0
 10
40.18058748434355
 20
-8.615636365122816
 30
0.0
 10
37.55538023916534
 20
-8.680197475507843
 30
0.0
 10
34.93009773748435
 20
-8.411068018258442
 30
0.0
 10
33.33749999999994
 20
-8.247803697397222
 30
0.0
  0
SPLINE
  5
B2
330
1F
100
AcDbEntity
  8
외형선
  6
Continuous
370
    15
100
AcDbSpline
210
0.0
220
0.0
230
1.0
 70
    24
 71
     3
 72
    14
 73
    10
 74
     0
 42
0.000000001
 43
0.00000001
 40
0.0
 40
0.0
 40
0.0
 40
0.0
 40
0.0094687817665804
 40
0.1732911542331471
 40
0.3371135266997141
 40
0.5009358991662812
 40
0.6647582716328477
 40
0.8285806440994143
 40
1.0
 40
1.0
 40
1.0
 40
1.0
 10
33.33749999999999
 20
-4.393542722702288
 30
0.0
 10
33.33749999999999
 20
-4.39206763555541
 30
0.0
 10
33.33749999999999
 20
-4.36507160157994
 30
0.0
 10
33.33749999999999
 20
-4.513729334515827
 30
0.0
 10
33.33749999999999
 20
-4.859539194661148
 30
0.0
 10
33.33749999999999
 20
-5.430053448040117
 30
0.0
 10
33.33749999999999
 20
-6.189050479503702
 30
0.0
 10
33.33749999999999
 20
-7.120299555285456
 30
0.0
 10
33.33749999999999
 20
-7.866333638185203
 30
0.0
 10
33.33749999999999
 20
-8.247803697397226
 30
0.0
  0
SPLINE
  5
B3
330
1F
100
AcDbEntity
  8
0
  6
Continuous
 62
     1
370
    15
100
AcDbSpline
210
0.0
220
0.0
230
1.0
 70
     8
 71
     3
 72
    10
 73
     6
 74
     0
 42
0.000000001
 43
0.00000001
 40
0.0
 40
0.0
 40
0.0
 40
0.0
 40
0.5
 40
0.5
 40
1.0
 40
1.0
 40
1.0
 40
1.0
 10
64.28128049780861
 20
5.685156578351116
 30
0.0
 10
65.57857992575656
 20
5.324602280872224
 30
0.0
 10
66.8822145600139
 20
4.942680601078066
 30
0.0
 10
69.5002665092585
 20
4.142469418519548
 30
0.0
 10
70.81468768966248
 20
3.724166878478585
 30
0.0
 10
72.13405694983847
 20
3.289175456173685
 30
0.0
  0
SPLINE
  5
B4
330
1F
100
AcDbEntity
  8
0
  6
Continuous
 62
     1
370
    15
100
AcDbSpline
210
0.0
220
0.0
230
1.0
 70
     8
 71
     3
 72
    14
 73
    10
 74
     0
 42
0.000000001
 43
0.00000001
 40
0.0
 40
0.0
 40
0.0
 40
0.0
 40
0.0832808434460379
 40
0.2378961655381322
 40
0.3925399399969839
 40
0.5444529919576242
 40
0.6963279830877928
 40
0.8481719784996414
 40
0.9999999999999999
 40
0.9999999999999999
 40
0.9999999999999999
 40
0.9999999999999999
 10
41.21324264553787
 20
8.590240517242998
 30
0.0
 10
41.7878407937071
 20
8.837780235954893
 30
0.0
 10
43.42921101185749
 20
9.54489062849198
 30
0.0
 10
46.13762337003922
 20
10.50158846868153
 30
0.0
 10
49.3196781688253
 20
11.43766908489328
 30
0.0
 10
52.48301162476217
 20
12.12369362792681
 30
0.0
 10
55.62677137782607
 20
12.55593092692553
 30
0.0
 10
58.76983346311158
 20
12.74999866361212
 30
0.0
 10
60.86498122438356
 20
12.66028012822288
 30
0.0
 10
61.91249999999994
 20
12.61542322023851
 30
0.0
  0
SPLINE
  5
B5
330
1F
100
AcDbEntity
  8
0
  6
Continuous
 62
     1
370
    15
100
AcDbSpline
210
0.0
220
0.0
230
1.0
 70
     8
 71
     3
 72
    20
 73
    16
 74
     0
 42
0.000000001
 43
0.00000001
 40
0.0
 40
0.0
 40
0.0
 40
0.0
 40
0.2499999999999993
 40
0.2499999999999993
 40
0.3749999999999994
 40
0.3749999999999994
 40
0.4999999999999996
 40
0.4999999999999996
 40
0.6249999999999997
 40
0.6249999999999997
 40
0.7499999999999998
 40
0.7499999999999998
 40
0.8749999999999999
 40
0.8749999999999999
 40
1.0
 40
1.0
 40
1.0
 40
1.0
 10
66.85873094478453
 20
10.98365489747632
 30
0.0
 10
66.94882651365546
 20
10.45051589719088
 30
0.0
 10
66.98932232005905
 20
9.908061737066307
 30
0.0
 10
66.93025367528853
 20
9.083532602291173
 30
0.0
 10
66.89060399865649
 20
8.813273910186842
 30
0.0
 10
66.76441265241326
 20
8.283526468748148
 30
0.0
 10
66.6762775693844
 20
8.021006917553315
 30
0.0
 10
66.45227848460006
 20
7.528235453564981
 30
0.0
 10
66.31705482911542
 20
7.297394701451233
 30
0.0
 10
65.99938932699047
 20
6.867318530378376
 30
0.0
 10
65.81576761805617
 20
6.668043805523755
 30
0.0
 10
65.4208372016015
 20
6.317648351925556
 30
0.0
 10
65.20713092021003
 20
6.163287245380569
 30
0.0
 10
64.7547368187623
 20
5.893362849079657
 30
0.0
 10
64.52100359600543
 20
5.78048371828251
 30
0.0
 10
64.2812804978162
 20
5.685156578341108
 30
0.0
  0
SPLINE
  5
B6
330
1F
100
AcDbEntity
  8
0
  6
Continuous
 62
     1
370
    15
100
AcDbSpline
210
0.0
220
0.0
230
1.0
 70
     8
 71
     3
 72
     9
 73
     5
 74
     0
 42
0.000000001
 43
0.00000001
 40
0.0
 40
0.0
 40
0.0
 40
0.0
 40
0.0195133809133631
 40
1.0
 40
1.0
 40
1.0
 40
1.0
 10
36.34135633541855
 20
-8.478536938710526
 30
0.0
 10
36.32181769040419
 20
-8.48740407231765
 30
0.0
 10
35.32052298390973
 20
-8.941817054183424
 30
0.0
 10
34.31924230632339
 20
-9.318733862259998
 30
0.0
 10
33.33749999999999
 20
-9.688295749087926
 30
0.0
  0
SPLINE
  5
B7
330
1F
100
AcDbEntity
  8
외형선
  6
Continuous
370
    15
100
AcDbSpline
210
0.0
220
0.0
230
1.0
 70
    24
 71
     3
 72
     9
 73
     5
 74
     0
 42
0.000000001
 43
0.00000001
 40
0.0
 40
0.0
 40
0.0
 40
0.0
 40
0.6200744885240844
 40
1.0
 40
1.0
 40
1.0
 40
1.0
 10
33.33749999999999
 20
-8.352579060277833
 30
0.0
 10
33.33749999999999
 20
-8.600710232220036
 30
0.0
 10
33.33749999999999
 20
-9.000873723114191
 30
0.0
 10
33.33749999999999
 20
-9.499032515192388
 30
0.0
 10
33.33749999999999
 20
-9.688295749068919
 30
0.0
  0
LINE
  5
B8
330
1F
100
AcDbEntity
  8
중심선
100
AcDbLine
 10
-77.6125
 20
-0.0000000000000095
 30
0.0
 11
77.6125
 21
0.0000000000000095
 31
0.0
  0
LINE
  5
B9
330
1F
100
AcDbEntity
  8
참조1
100
AcDbLine
 10
-24.41286934298442
 20
0.0010749287238892
 30
0.0
 11
-24.41286934298441
 21
-39.99892507127611
 31
0.0
  0
LINE
  5
BA
330
1F
100
AcDbEntity
  8
참조1
100
AcDbLine
 10
50.19963065701558
 20
0.0010749287238892
 30
0.0
 11
50.19963065701558
 21
0.6320484065631995
 31
0.0
  0
LINE
  5
BB
330
1F
100
AcDbEntity
  8
참조1
100
AcDbLine
 10
-24.41286934298441
 20
-39.99892507127611
 30
0.0
 11
-29.25297615729311
 21
-39.9989250712761
 31
0.0
  0
CIRCLE
  5
BC
330
1F
100
AcDbEntity
  8
해칭선
100
AcDbCircle
 10
0.0
 20
0.0
 30
0.0
 40
3.000000000000001
  0
INSERT
  5
BD
330
1F
100
AcDbEntity
  8
0
  6
Continuous
 62
     7
100
AcDbBlockReference
 66
     1
  2
블럭10
 10
-13.9402729321252
 20
-52.04717430164394
 30
0.0
  0
ATTRIB
  5
BE
330
BD
100
AcDbEntity
  8
FORMAT
 62
     2
100
AcDbText
 10
-23.12156822086649
 20
-49.97180738881175
 30
0.0
 40
4.233333333333333
  1
E1112064 [ 2 FLUTE ]
 41
0.75
  7
SLDTEXTSTYLE0
 11
-23.12156822086649
 21
-52.08847405547842
 31
0.0
100
AcDbAttribute
  2
AUTOATTR0
 70
     0
 74
     1
  0
SEQEND
  5
BF
330
BD
100
AcDbEntity
  8
0
  6
Continuous
 62
     7
  0
HATCH
  5
C0
330
1F
100
AcDbEntity
  8
중심선
100
AcDbHatch
 10
0.0
 20
0.0
 30
0.0
210
0.0
220
0.0
230
1.0
  2
SOLID
 70
     1
 71
     0
 91
        1
 92
        0
 93
        4
 72
     1
 10
-8.225363627744372
 20
-35.8
 11
-11.67163887158165
 21
-35.8
 72
     1
 10
-11.67163887158165
 20
-35.8
 11
-13.79986873078568
 21
-38.33632558057258
 72
     1
 10
-13.79986873078568
 20
-38.33632558057258
 11
-10.35356040183525
 21
-38.33628615127009
 72
     1
 10
-10.35356040183525
 20
-38.33628615127009
 11
-8.225363627744372
 21
-35.8
 97
        0
 75
     0
 76
     1
 98
        1
 10
24.41286934298442
 20
-0.0010749287238992
  0
HATCH
  5
C1
330
1F
100
AcDbEntity
  8
중심선
100
AcDbHatch
 10
0.0
 20
0.0
 30
0.0
210
0.0
220
0.0
230
1.0
  2
SOLID
 70
     1
 71
     0
 91
        1
 92
        0
 93
        4
 72
     1
 10
-3.21259963670839
 20
-35.8
 11
-6.658874880545675
 21
-35.8
 72
     1
 10
-6.658874880545675
 20
-35.8
 11
-11.19001288890309
 21
-41.20000000000002
 72
     1
 10
-11.19001288890309
 20
-41.20000000000002
 11
-7.743737645065806
 21
-41.20000000000002
 72
     1
 10
-7.743737645065806
 20
-41.20000000000002
 11
-3.21259963670839
 21
-35.8
 97
        0
 75
     0
 76
     1
 98
        1
 10
24.41286934298442
 20
-0.0010749287238992
  0
HATCH
  5
C2
330
1F
100
AcDbEntity
  8
중심선
100
AcDbHatch
 10
0.0
 20
0.0
 30
0.0
210
0.0
220
0.0
230
1.0
  2
SOLID
 70
     1
 71
     0
 91
        1
 92
        0
 93
        4
 72
     1
 10
1.800164354327503
 20
-35.79999999999998
 11
-1.646110889509639
 21
-35.8
 72
     1
 10
-1.646110889509639
 20
-35.8
 11
-8.69454779139889
 21
-44.20000000000002
 72
     1
 10
-8.69454779139889
 20
-44.20000000000002
 11
-5.248272547561605
 21
-44.20000000000002
 72
     1
 10
-5.248272547561605
 20
-44.20000000000002
 11
1.800164354327503
 21
-35.79999999999998
 97
        0
 75
     0
 76
     1
 98
        1
 10
24.41286934298442
 20
-0.0010749287238992
  0
HATCH
  5
C3
330
1F
100
AcDbEntity
  8
중심선
100
AcDbHatch
 10
0.0
 20
0.0
 30
0.0
210
0.0
220
0.0
230
1.0
  2
SOLID
 70
     1
 71
     0
 91
        1
 92
        0
 93
        6
 72
     3
 10
6.600054785339676
 20
-40.00000000005128
 11
3.960054785062283
 21
1.540882976769353E-10
 40
0.3939339440162628
 50
17.09539180608437
 51
320.0019657685079
 73
     0
 72
     1
 10
8.28305444104027
 20
-38.58789400463831
 11
10.58835631474131
 21
-36.65356729459039
 72
     3
 10
6.600054785286829
 20
-40.00000000000016
 11
6.600054785286829
 21
-1.278976924368180E-13
 40
0.636358354079598
 50
39.9987384933741
 51
368.4976242363725
 73
     1
 72
     1
 10
13.02538727718744
 20
-39.03999999993003
 11
5.280122092122753
 21
-39.03999999993003
 72
     1
 10
5.280122092122753
 20
-39.03999999993003
 11
5.280097047676819
 21
-40.95999999992992
 72
     1
 10
5.280097047676819
 20
-40.95999999992992
 11
9.721476817148854
 21
-40.95999999992989
 97
        0
 75
     0
 76
     1
 98
        1
 10
24.41286934298442
 20
-0.0010749287238992
  0
DIMENSION
  5
C4
330
1F
100
AcDbEntity
  8
0
  6
Continuous
370
    15
100
AcDbDimension
  2
_D
 10
33.33749999999999
 20
20.44296761636901
 30
0.0
 11
53.02387267291151
 21
20.44296761636901
 31
0.0
 70
   160
  1
<>
 71
     2
 42
41.27499999999993
  3
SLDDIMSTYLE0
100
AcDbAlignedDimension
 13
74.61249999999993
 23
12.70000000000004
 33
0.0
 14
33.33749999999999
 24
9.688295749068898
 34
0.0
 50
0.0000000000000049
100
AcDbRotatedDimension
1001
ACAD
1000
DSTYLE
1002
{
1070
   171
1070
     6
1070
   273
1070
     7
1002
}
  0
DIMENSION
  5
D9
330
1F
100
AcDbEntity
  8
0
  6
Continuous
370
    15
100
AcDbDimension
  2
_D_1
 10
-74.61250000000001
 20
29.28797898817497
 30
0.0
 11
0.6531018235201316
 21
29.28797898817497
 31
0.0
 70
   160
  1
<>
 71
     2
 42
149.2249999999999
  3
SLDDIMSTYLE0
100
AcDbAlignedDimension
 13
74.61249999999993
 23
12.70000000000004
 33
0.0
 14
-74.6125
 24
12.69999999999999
 34
0.0
 50
0.0000000000000041
100
AcDbRotatedDimension
1001
ACAD
1000
DSTYLE
1002
{
1070
   171
1070
     6
1070
   273
1070
     7
1002
}
  0
DIMENSION
  5
EC
330
1F
100
AcDbEntity
  8
0
  6
Continuous
370
    15
100
AcDbDimension
  2
_D_2
 10
-87.04249999999995
 20
-12.70000000000022
 30
0.0
 11
-87.04249999999999
 21
-0.0000000000000121
 31
0.0
 70
   160
  1
%%c<>
 71
     2
 42
25.4
 52
-270.0
  3
SLDDIMSTYLE0
100
AcDbAlignedDimension
 13
-30.2878477266229
 23
12.69999999999999
 33
0.0
 14
-30.28784772662289
 24
-12.70000000000001
 34
0.0
 50
90.0000000000002
100
AcDbRotatedDimension
1001
ACAD
1000
DSTYLE
1002
{
1070
   171
1070
     6
1070
   273
1070
     7
1002
}
  0
DIMENSION
  5
101
330
1F
100
AcDbEntity
  8
0
  6
Continuous
370
    15
100
AcDbDimension
  2
_D_3
 10
86.70852980102457
 20
-12.69999999999992
 30
0.0
 11
86.70852980102441
 21
32.71231863734753
 31
0.0
 70
   160
  1
%%c<>
 71
     2
 42
25.40000000000001
 52
-270.0
  3
SLDDIMSTYLE0
100
AcDbAlignedDimension
 13
74.61249999999997
 23
12.70000000000004
 33
0.0
 14
74.61249999999998
 24
-12.69999999999996
 34
0.0
 50
90.0000000000002
100
AcDbRotatedDimension
1001
ACAD
1000
DSTYLE
1002
{
1070
   171
1070
     6
1070
   273
1070
     7
1002
}
  0
LINE
  5
115
330
1F
100
AcDbEntity
  8
참조1
100
AcDbLine
 10
68.71936447236115
 20
7.441074928723896
 30
0.0
 11
68.71936447236115
 21
-7.438925071276109
 31
0.0
  0
LINE
  5
116
330
1F
100
AcDbEntity
  8
참조1
100
AcDbLine
 10
81.41936447236115
 20
5.441074928723896
 30
0.0
 11
68.71936447236115
 21
5.441074928723896
 31
0.0
  0
SOLID
  5
117
330
1F
100
AcDbEntity
  8
참조1
100
AcDbTrace
 10
68.71936447236115
 20
5.441074928723896
 30
0.0
 11
75.06936447236114
 21
4.425074928723896
 31
0.0
 12
75.06936447236114
 22
6.457074928723896
 32
0.0
 13
75.06936447236114
 23
6.457074928723896
 33
0.0
  0
LINE
  5
118
330
1F
100
AcDbEntity
  8
참조1
100
AcDbLine
 10
81.41936447236115
 20
-5.438925071276109
 30
0.0
 11
68.71936447236115
 21
-5.438925071276109
 31
0.0
  0
SOLID
  5
119
330
1F
100
AcDbEntity
  8
참조1
100
AcDbTrace
 10
68.71936447236115
 20
-5.438925071276109
 30
0.0
 11
75.06936447236114
 21
-6.454925071276109
 31
0.0
 12
75.06936447236114
 22
-4.422925071276109
 32
0.0
 13
75.06936447236114
 23
-4.422925071276109
 33
0.0
  0
MTEXT
  5
11A
330
1F
100
AcDbEntity
  8
참조1
100
AcDbMText
 10
78.11685456483143
 20
10.98929157337383
 30
0.0
 40
3.5
 41
0.0
 71
     1
 72
     1
  1
A
  7
SLDTEXTSTYLE0
 73
     1
 44
1.0
  0
MTEXT
  5
11B
330
1F
100
AcDbEntity
  8
참조1
100
AcDbMText
 10
78.11685456483143
 20
0.1092915733738251
 30
0.0
 40
3.5
 41
0.0
 71
     1
 72
     1
  1
A
  7
SLDTEXTSTYLE0
 73
     1
 44
1.0
  0
INSERT
  5
122
330
1F
100
AcDbEntity
  8
해칭선
100
AcDbBlockReference
  2
SW_DOWELSYMBOL_0
 10
0.0
 20
0.0
 30
0.0
  0
LINE
  5
336
330
1F
100
AcDbEntity
  8
0
  6
Continuous
 62
     1
370
    15
100
AcDbLine
 10
-59.372341630186
 20
12.70000000000001
 30
0.0
 11
-61.91249999999998
 21
12.70000000000001
 31
0.0
  0
ARC
  5
337
330
1F
100
AcDbEntity
  8
0
  6
Continuous
 62
     1
370
    15
100
AcDbCircle
 10
-61.91249999999998
 20
0.0000000000000066
 30
0.0
 40
12.7
100
AcDbArc
 50
90.00000000000078
 51
180.0
  0
ARC
  5
338
330
1F
100
AcDbEntity
  8
0
  6
Continuous
 62
     1
370
    15
100
AcDbCircle
 10
-61.91249999999998
 20
0.0000000000000066
 30
0.0
 40
12.7
100
AcDbArc
 50
180.0
 51
270.0
  0
LINE
  5
339
330
1F
100
AcDbEntity
  8
0
  6
Continuous
 62
     1
370
    15
100
AcDbLine
 10
-61.91249999999998
 20
-12.69999999999999
 30
0.0
 11
-59.372341630186
 21
-12.69999999999999
 31
0.0
  0
LINE
  5
33A
330
1F
100
AcDbEntity
  8
외형선
  6
Continuous
370
    15
100
AcDbLine
 10
-30.2878477266229
 20
-10.73015996304699
 30
0.0
 11
-30.2878477266229
 21
-12.7
 31
0.0
  0
SPLINE
  5
33B
330
1F
100
AcDbEntity
  8
외형선
  6
Continuous
370
    15
100
AcDbSpline
210
0.0
220
0.0
230
1.0
 70
     8
 71
     3
 72
    10
 73
     6
 74
     0
 42
0.000000001
 43
0.00000001
 40
0.0
 40
0.0
 40
0.0
 40
0.0
 40
0.5
 40
0.5
 40
1.0
 40
1.0
 40
1.0
 40
1.0
 10
-33.33749999999999
 20
-9.688295749087906
 30
0.0
 10
-32.82854060361667
 20
-9.878131141575881
 30
0.0
 10
-32.31891737340327
 20
-10.06027237727344
 30
0.0
 10
-31.3020153748878
 20
-10.40786992520351
 30
0.0
 10
-30.79602421704881
 20
-10.57320262875092
 30
0.0
 10
-30.2878477266229
 20
-10.73018060798396
 30
0.0
  0
LINE
  5
33C
330
1F
100
AcDbEntity
  8
외형선
  6
Continuous
370
    15
100
AcDbLine
 10
-33.33749999999999
 20
-9.68829574908791
 30
0.0
 11
-33.33749999999999
 21
4.795563057075809
 31
0.0
  0
SPLINE
  5
33D
330
1F
100
AcDbEntity
  8
외형선
  6
Continuous
370
    15
100
AcDbSpline
210
0.0
220
0.0
230
1.0
 70
     8
 71
     3
 72
    10
 73
     6
 74
     0
 42
0.000000001
 43
0.00000001
 40
0.0
 40
0.0
 40
0.0
 40
0.0
 40
0.5000000000000001
 40
0.5000000000000001
 40
1.0
 40
1.0
 40
1.0
 40
1.0
 10
-33.33749999999999
 20
4.795563057075809
 30
0.0
 10
-32.82850019873537
 20
4.523672319061606
 30
0.0
 10
-32.31883645837594
 20
4.24781387133219
 30
0.0
 10
-31.3018541028331
 20
3.690156791911601
 30
0.0
 10
-30.7958229379485
 20
3.408602693590932
 30
0.0
 10
-30.2876056701481
 20
3.124142671188298
 30
0.0
  0
LINE
  5
33E
330
1F
100
AcDbEntity
  8
외형선
  6
Continuous
370
    15
100
AcDbLine
 10
-30.28784772662293
 20
12.7
 30
0.0
 11
-30.2878477266229
 21
3.12349300076357
 31
0.0
  0
SPLINE
  5
33F
330
1F
100
AcDbEntity
  8
외형선
  6
Continuous
370
    15
100
AcDbSpline
210
0.0
220
0.0
230
1.0
 70
     8
 71
     3
 72
    10
 73
     6
 74
     0
 42
0.000000001
 43
0.00000001
 40
0.0
 40
0.0
 40
0.0
 40
0.0
 40
0.5
 40
0.5
 40
1.0
 40
1.0
 40
1.0
 40
1.0
 10
-33.33749999999999
 20
9.68829574908791
 30
0.0
 10
-32.82854060361667
 20
9.878131141575881
 30
0.0
 10
-32.31891737340327
 20
10.06027237727344
 30
0.0
 10
-31.3020153748878
 20
10.40786992520351
 30
0.0
 10
-30.79602421704884
 20
10.57320262875092
 30
0.0
 10
-30.2878477266229
 20
10.73018060798396
 30
0.0
  0
SPLINE
  5
340
330
1F
100
AcDbEntity
  8
외형선
  6
Continuous
370
    15
100
AcDbSpline
210
0.0
220
0.0
230
1.0
 70
     8
 71
     3
 72
    10
 73
     6
 74
     0
 42
0.000000001
 43
0.00000001
 40
0.0
 40
0.0
 40
0.0
 40
0.0
 40
0.5
 40
0.5
 40
1.0
 40
1.0
 40
1.0
 40
1.0
 10
-33.33749999999993
 20
8.247803697397227
 30
0.0
 10
-32.82854060361664
 20
8.187644534076945
 30
0.0
 10
-32.31891737340324
 20
8.120839075480031
 30
0.0
 10
-31.3020153748878
 20
7.974430025129929
 30
0.0
 10
-30.79602421704881
 20
7.894906545541356
 30
0.0
 10
-30.2878477266229
 20
7.809016164196389
 30
0.0
  0
SPLINE
  5
341
330
1F
100
AcDbEntity
  8
외형선
  6
Continuous
370
    15
100
AcDbSpline
210
0.0
220
0.0
230
1.0
 70
    24
 71
     3
 72
    14
 73
    10
 74
     0
 42
0.000000001
 43
0.00000001
 40
0.0
 40
0.0
 40
0.0
 40
0.0
 40
0.0134265433310351
 40
0.1765943479483396
 40
0.3397621525656446
 40
0.50292995718295
 40
0.6660977618002544
 40
0.8292655664175589
 40
1.0
 40
1.0
 40
1.0
 40
1.0
 10
-33.33749999999999
 20
4.39528675797555
 30
0.0
 10
-33.33749999999999
 20
4.393130033561877
 30
0.0
 10
-33.33749999999999
 20
4.364763436728555
 30
0.0
 10
-33.33749999999999
 20
4.51308987327421
 30
0.0
 10
-33.33749999999999
 20
4.859710532233595
 30
0.0
 10
-33.33749999999999
 20
5.430007558991938
 30
0.0
 10
-33.33749999999999
 20
6.189062698123968
 30
0.0
 10
-33.33749999999999
 20
7.12029633483188
 30
0.0
 10
-33.33749999999999
 20
7.866332548604627
 30
0.0
 10
-33.33749999999999
 20
8.247803697397227
 30
0.0
  0
SPLINE
  5
342
330
1F
100
AcDbEntity
  8
외형선
  6
Continuous
370
    15
100
AcDbSpline
210
0.0
220
0.0
230
1.0
 70
    24
 71
     3
 72
    10
 73
     6
 74
     0
 42
0.000000001
 43
0.00000001
 40
0.0
 40
0.0
 40
0.0
 40
0.0
 40
0.6200140635183383
 40
0.8098023382797036
 40
1.0
 40
1.0
 40
1.0
 40
1.0
 10
-33.33749999999999
 20
8.352569060277833
 30
0.0
 10
-33.33749999999999
 20
8.601273685991078
 30
0.0
 10
-33.33750000000002
 20
8.926107587823381
 30
0.0
 10
-33.33749999999996
 20
9.403004278474288
 30
0.0
 10
-33.33749999999999
 20
9.593130313256825
 30
0.0
 10
-33.33749999999999
 20
9.688295749069045
 30
0.0
  0
SPLINE
  5
343
330
1F
100
AcDbEntity
  8
0
  6
Continuous
 62
     1
370
    15
100
AcDbSpline
210
0.0
220
0.0
230
1.0
 70
     8
 71
     3
 72
    34
 73
    30
 74
     0
 42
0.000000001
 43
0.00000001
 40
0.0
 40
0.0
 40
0.0
 40
0.0
 40
0.1249999999999998
 40
0.1249999999999998
 40
0.2499999999999996
 40
0.2499999999999996
 40
0.3124999999999996
 40
0.3124999999999996
 40
0.3749999999999996
 40
0.3749999999999996
 40
0.4374999999999997
 40
0.4374999999999997
 40
0.4999999999999997
 40
0.4999999999999997
 40
0.5624999999999997
 40
0.5624999999999997
 40
0.6249999999999997
 40
0.6249999999999997
 40
0.6874999999999997
 40
0.6874999999999997
 40
0.7499999999999997
 40
0.7499999999999997
 40
0.8124999999999998
 40
0.8124999999999998
 40
0.8749999999999998
 40
0.8749999999999998
 40
0.9374999999999999
 40
0.9374999999999999
 40
1.0
 40
1.0
 40
1.0
 40
1.0
 10
-61.91249999999998
 20
5.309731008042699
 30
0.0
 10
-60.71980628647337
 20
4.684912505744118
 30
0.0
 10
-59.53331404436325
 20
4.037821166531763
 30
0.0
 10
-57.14795679060096
 20
2.711646202899757
 30
0.0
 10
-55.96141739923191
 20
2.034853294024777
 30
0.0
 10
-54.17244566888367
 20
1.008992465119167
 30
0.0
 10
-53.57585935537146
 20
0.6655014528704046
 30
0.0
 10
-52.38804426552009
 20
-0.0211573423619958
 30
0.0
 10
-51.79320227163593
 20
-0.3650206781217916
 30
0.0
 10
-50.60060097670286
 20
-1.051750646917192
 30
0.0
 10
-50.00392994353244
 20
-1.394405209097798
 30
0.0
 10
-48.81573222651379
 20
-2.07492060147207
 30
0.0
 10
-48.22130021921448
 20
-2.413339209985715
 30
0.0
 10
-47.02876116618656
 20
-3.084821092718912
 30
0.0
 10
-46.43201328782588
 20
-3.417622241924843
 30
0.0
 10
-45.24344846722566
 20
-4.074082798667608
 30
0.0
 10
-44.64938647305893
 20
-4.398163813808201
 30
0.0
 10
-43.45692537580793
 20
-5.036728759010608
 30
0.0
 10
-42.86010853011375
 20
-5.350918153931553
 30
0.0
 10
-41.67119214557546
 20
-5.966042147363159
 30
0.0
 10
-41.07746017489022
 20
-6.267272640420413
 30
0.0
 10
-39.88509274386355
 20
-6.856119008865169
 30
0.0
 10
-39.28821481173451
 20
-7.143427572874679
 30
0.0
 10
-38.0989624182853
 20
-7.701018220906723
 30
0.0
 10
-37.50552046698057
 20
-7.971488053288348
 30
0.0
 10
-36.31326240851148
 20
-8.49512378510288
 30
0.0
 10
-35.71633127354086
 20
-8.747989478752196
 30
0.0
 10
-34.5267584409162
 20
-9.23336168831317
 30
0.0
 10
-33.93356649219085
 20
-9.46597051588056
 30
0.0
 10
-33.33749999999999
 20
-9.6882957490879
 30
0.0
  0
SPLINE
  5
344
330
1F
100
AcDbEntity
  8
0
  6
Continuous
 62
     1
370
    15
100
AcDbSpline
210
0.0
220
0.0
230
1.0
 70
     8
 71
     3
 72
    15
 73
    11
 74
     0
 42
0.000000001
 43
0.00000001
 40
0.0
 40
0.0
 40
0.0
 40
0.0
 40
0.1344729697173712
 40
0.2690278040590012
 40
0.4035780385731363
 40
0.5380459269137529
 40
0.6750775951676897
 40
0.8121448950103273
 40
0.949129747473434
 40
1.0
 40
1.0
 40
1.0
 40
1.0
 10
-71.21262206012547
 20
-1.331241570938375
 30
0.0
 10
-69.64962141339363
 20
-1.93281862347865
 30
0.0
 10
-66.52266859442317
 20
-3.136338957396646
 30
0.0
 10
-61.83139958136336
 20
-4.782396398084502
 30
0.0
 10
-57.14018299957259
 20
-6.216722883093127
 30
0.0
 10
-52.42071662944706
 20
-7.374326808931731
 30
0.0
 10
-47.67152520091589
 20
-8.20458349268408
 30
0.0
 10
-42.89286926528943
 20
-8.62825604603076
 30
0.0
 10
-39.11625476583352
 20
-8.719481046650671
 30
0.0
 10
-36.93266253497542
 20
-8.52987998723803
 30
0.0
 10
-36.34135633541855
 20
-8.47853693871052
 30
0.0
  0
SPLINE
  5
345
330
1F
100
AcDbEntity
  8
0
  6
Continuous
 62
     1
370
    15
100
AcDbSpline
210
0.0
220
0.0
230
1.0
 70
     8
 71
     3
 72
    38
 73
    34
 74
     0
 42
0.000000001
 43
0.00000001
 40
0.0
 40
0.0
 40
0.0
 40
0.0
 40
0.1249999999999969
 40
0.1249999999999969
 40
0.1874999999999956
 40
0.1874999999999956
 40
0.2499999999999942
 40
0.2499999999999942
 40
0.3749999999999925
 40
0.3749999999999925
 40
0.4374999999999916
 40
0.4374999999999916
 40
0.4687499999999916
 40
0.4687499999999916
 40
0.4999999999999916
 40
0.4999999999999916
 40
0.5624999999999923
 40
0.5624999999999923
 40
0.6249999999999931
 40
0.6249999999999931
 40
0.6874999999999939
 40
0.6874999999999939
 40
0.7187499999999946
 40
0.7187499999999946
 40
0.7499999999999952
 40
0.7499999999999952
 40
0.8124999999999964
 40
0.8124999999999964
 40
0.8749999999999977
 40
0.8749999999999977
 40
0.9374999999999989
 40
0.9374999999999989
 40
1.0
 40
1.0
 40
1.0
 40
1.0
 10
-61.91249999999998
 20
5.309731008042713
 30
0.0
 10
-62.6179804788318
 20
5.679312277052012
 30
0.0
 10
-63.31192989171514
 20
6.010852599255808
 30
0.0
 10
-64.35006783607012
 20
6.430455700346395
 30
0.0
 10
-64.6958216561218
 20
6.556993596241681
 30
0.0
 10
-65.38952633629758
 20
6.778168403061488
 30
0.0
 10
-65.73904438538743
 20
6.873016614587892
 30
0.0
 10
-66.77320956807317
 20
7.094052025625873
 30
0.0
 10
-67.4486008988306
 20
7.162382986337607
 30
0.0
 10
-68.46485873733245
 20
7.086917579283681
 30
0.0
 10
-68.79748698830834
 20
7.03191813490115
 30
0.0
 10
-69.28737612501983
 20
6.896724318653681
 30
0.0
 10
-69.44928247050804
 20
6.842817445033343
 30
0.0
 10
-69.77069443298696
 20
6.714962321781068
 30
0.0
 10
-69.93085680725825
 20
6.640571580318571
 30
0.0
 10
-70.3979902583835
 20
6.388232278850192
 30
0.0
 10
-70.69460856129346
 20
6.181048203336476
 30
0.0
 10
-71.25628817782014
 20
5.667254173390897
 30
0.0
 10
-71.50881811678845
 20
5.371596614885529
 30
0.0
 10
-71.94908119159699
 20
4.693938260860523
 30
0.0
 10
-72.12594072123461
 20
4.327764497880447
 30
0.0
 10
-72.32216030325885
 20
3.747138664387428
 30
0.0
 10
-72.37524994419361
 20
3.550034942210853
 30
0.0
 10
-72.45605518728159
 20
3.158373756510858
 30
0.0
 10
-72.48426843261201
 20
2.96234931757003
 30
0.0
 10
-72.5343078626915
 20
2.373298487997484
 30
0.0
 10
-72.52063890958961
 20
1.993914271789719
 30
0.0
 10
-72.41925568774361
 20
1.259420121252212
 30
0.0
 10
-72.33021806009405
 20
0.9017149169414469
 30
0.0
 10
-72.09691004135222
 20
0.2239114095377306
 30
0.0
 10
-71.95222601641207
 20
-0.1000000165418418
 30
0.0
 10
-71.61598731412452
 20
-0.7287961903257991
 30
0.0
 10
-71.42368192236962
 20
-1.034406987497761
 30
0.0
 10
-71.21262206021562
 20
-1.331241570903313
 30
0.0
  0
SPLINE
  5
346
330
1F
100
AcDbEntity
  8
0
  6
Continuous
 62
     1
370
    15
100
AcDbSpline
210
0.0
220
0.0
230
1.0
 70
     8
 71
     3
 72
    16
 73
    12
 74
     0
 42
0.000000001
 43
0.00000001
 40
0.0
 40
0.0
 40
0.0
 40
0.0
 40
0.1229093706670877
 40
0.2458165664314926
 40
0.3687298692121256
 40
0.4916575495180412
 40
0.6146078510195631
 40
0.7353870780265118
 40
0.8561360445810225
 40
0.976860367835626
 40
0.9999999999999999
 40
0.9999999999999999
 40
0.9999999999999999
 40
0.9999999999999999
 10
-33.33749999999976
 20
4.795563057075692
 30
0.0
 10
-34.40411117382668
 20
5.356069613061133
 30
0.0
 10
-36.5373146476103
 20
6.477072806771065
 30
0.0
 10
-39.73713762773512
 20
7.994663076710078
 30
0.0
 10
-42.93715468522861
 20
9.350501787270463
 30
0.0
 10
-46.1376217447194
 20
10.50731249861168
 30
0.0
 10
-49.31967842991277
 20
11.43540184456336
 30
0.0
 10
-52.48301216111942
 20
12.1270841732335
 30
0.0
 10
-55.62676897065093
 20
12.54460594421962
 30
0.0
 10
-57.92310395035211
 20
12.72527812200994
 30
0.0
 10
-59.17153859765612
 20
12.68621343389833
 30
0.0
 10
-59.372341630186
 20
12.67993011914526
 30
0.0
  0
SPLINE
  5
347
330
1F
100
AcDbEntity
  8
0
  6
Continuous
 62
     1
370
    15
100
AcDbSpline
210
0.0
220
0.0
230
1.0
 70
     8
 71
     3
 72
    14
 73
    10
 74
     0
 42
0.000000001
 43
0.00000001
 40
0.0
 40
0.0
 40
0.0
 40
0.0
 40
0.2500000000000001
 40
0.2500000000000001
 40
0.5000000000000001
 40
0.5000000000000001
 40
0.75
 40
0.75
 40
1.0
 40
1.0
 40
1.0
 40
1.0
 10
-71.21262206021554
 20
-1.331241570903327
 30
0.0
 10
-71.35871988132523
 20
-1.419150631659069
 30
0.0
 10
-71.48885432612663
 20
-1.528199772717962
 30
0.0
 10
-71.71710300557852
 20
-1.78978025921369
 30
0.0
 10
-71.81596477313964
 20
-1.944798386022488
 30
0.0
 10
-71.97186337027044
 20
-2.28445685282663
 30
0.0
 10
-72.03018549403699
 20
-2.469538249506603
 30
0.0
 10
-72.10997993448923
 20
-2.86713513146782
 30
0.0
 10
-72.13051078085884
 20
-3.076371141862435
 30
0.0
 10
-72.13405694983841
 20
-3.289175456173581
 30
0.0
  0
ARC
  5
348
330
1F
100
AcDbEntity
  8
0
  6
Continuous
 62
     1
370
    15
100
AcDbCircle
 10
-68.53638734995054
 20
2.207677449638747
 30
0.0
 40
6.56952193223345
100
AcDbArc
 50
203.8412483480305
 51
236.795403474565
  0
ARC
  5
349
330
1F
100
AcDbEntity
  8
0
  6
Continuous
 62
     1
370
    15
100
AcDbCircle
 10
-63.19062951394692
 20
-0.235673063034469
 30
0.0
 40
11.35667564124312
100
AcDbArc
 50
181.0700098399329
 51
251.1561091391795
  0
SPLINE
  5
34A
330
1F
100
AcDbEntity
  8
0
  6
Continuous
 62
     1
370
    15
100
AcDbSpline
210
0.0
220
0.0
230
1.0
 70
     8
 71
     3
 72
    12
 73
     8
 74
     0
 42
0.000000001
 43
0.00000001
 40
0.0
 40
0.0
 40
0.0
 40
0.0
 40
0.2499999999999999
 40
0.2499999999999999
 40
0.4999999999999998
 40
0.4999999999999998
 40
1.0
 40
1.0
 40
1.0
 40
1.0
 10
-66.85873094478451
 20
-10.98365489747631
 30
0.0
 10
-66.46582419883397
 20
-11.22324959267709
 30
0.0
 10
-66.06570949798369
 20
-11.43752799818268
 30
0.0
 10
-65.25883016331473
 20
-11.8136629931522
 30
0.0
 10
-64.8509807168759
 20
-11.97617427803666
 30
0.0
 10
-63.61340955706463
 20
-12.38699851259735
 30
0.0
 10
-62.76420968827297
 20
-12.55883175073039
 30
0.0
 10
-61.91249999999998
 20
-12.61542322023849
 30
0.0
  0
SPLINE
  5
34B
330
1F
100
AcDbEntity
  8
0
  6
Continuous
 62
     1
370
    15
100
AcDbSpline
210
0.0
220
0.0
230
1.0
 70
     8
 71
     3
 72
     9
 73
     5
 74
     0
 42
0.000000001
 43
0.00000001
 40
0.0
 40
0.0
 40
0.0
 40
0.0
 40
0.3933613862642754
 40
1.0
 40
1.0
 40
1.0
 40
1.0
 10
-41.21324264553787
 20
8.590240517243007
 30
0.0
 10
-40.18058748434355
 20
8.615636365122818
 30
0.0
 10
-37.55538023916536
 20
8.680197475507843
 30
0.0
 10
-34.93009773748436
 20
8.411068018258444
 30
0.0
 10
-33.33749999999993
 20
8.247803697397224
 30
0.0
  0
SPLINE
  5
34C
330
1F
100
AcDbEntity
  8
외형선
  6
Continuous
370
    15
100
AcDbSpline
210
0.0
220
0.0
230
1.0
 70
    24
 71
     3
 72
    14
 73
    10
 74
     0
 42
0.000000001
 43
0.00000001
 40
0.0
 40
0.0
 40
0.0
 40
0.0
 40
0.0094687817665804
 40
0.1732911542331471
 40
0.3371135266997141
 40
0.5009358991662812
 40
0.6647582716328477
 40
0.8285806440994143
 40
1.0
 40
1.0
 40
1.0
 40
1.0
 10
-33.33749999999999
 20
4.393542722702288
 30
0.0
 10
-33.33749999999999
 20
4.392067635555409
 30
0.0
 10
-33.33749999999999
 20
4.365071601579937
 30
0.0
 10
-33.33749999999999
 20
4.513729334515825
 30
0.0
 10
-33.33749999999999
 20
4.859539194661148
 30
0.0
 10
-33.33749999999999
 20
5.430053448040115
 30
0.0
 10
-33.33749999999999
 20
6.189050479503702
 30
0.0
 10
-33.33749999999999
 20
7.120299555285459
 30
0.0
 10
-33.33749999999999
 20
7.866333638185206
 30
0.0
 10
-33.33749999999999
 20
8.247803697397227
 30
0.0
  0
SPLINE
  5
34D
330
1F
100
AcDbEntity
  8
0
  6
Continuous
 62
     1
370
    15
100
AcDbSpline
210
0.0
220
0.0
230
1.0
 70
     8
 71
     3
 72
    10
 73
     6
 74
     0
 42
0.000000001
 43
0.00000001
 40
0.0
 40
0.0
 40
0.0
 40
0.0
 40
0.5
 40
0.5
 40
1.0
 40
1.0
 40
1.0
 40
1.0
 10
-64.2812804978086
 20
-5.685156578351109
 30
0.0
 10
-65.57857992575656
 20
-5.324602280872218
 30
0.0
 10
-66.8822145600139
 20
-4.94268060107806
 30
0.0
 10
-69.50026650925851
 20
-4.142469418519544
 30
0.0
 10
-70.81468768966248
 20
-3.724166878478578
 30
0.0
 10
-72.13405694983847
 20
-3.289175456173677
 30
0.0
  0
SPLINE
  5
34E
330
1F
100
AcDbEntity
  8
0
  6
Continuous
 62
     1
370
    15
100
AcDbSpline
210
0.0
220
0.0
230
1.0
 70
     8
 71
     3
 72
    14
 73
    10
 74
     0
 42
0.000000001
 43
0.00000001
 40
0.0
 40
0.0
 40
0.0
 40
0.0
 40
0.0832808434460379
 40
0.2378961655381322
 40
0.3925399399969839
 40
0.5444529919576242
 40
0.6963279830877928
 40
0.8481719784996414
 40
0.9999999999999999
 40
0.9999999999999999
 40
0.9999999999999999
 40
0.9999999999999999
 10
-41.21324264553787
 20
-8.590240517242997
 30
0.0
 10
-41.7878407937071
 20
-8.837780235954888
 30
0.0
 10
-43.4292110118575
 20
-9.544890628491977
 30
0.0
 10
-46.13762337003921
 20
-10.50158846868154
 30
0.0
 10
-49.31967816882529
 20
-11.43766908489327
 30
0.0
 10
-52.48301162476217
 20
-12.1236936279268
 30
0.0
 10
-55.62677137782607
 20
-12.55593092692552
 30
0.0
 10
-58.7698334631116
 20
-12.74999866361211
 30
0.0
 10
-60.86498122438356
 20
-12.66028012822287
 30
0.0
 10
-61.91249999999992
 20
-12.6154232202385
 30
0.0
  0
SPLINE
  5
34F
330
1F
100
AcDbEntity
  8
0
  6
Continuous
 62
     1
370
    15
100
AcDbSpline
210
0.0
220
0.0
230
1.0
 70
     8
 71
     3
 72
    20
 73
    16
 74
     0
 42
0.000000001
 43
0.00000001
 40
0.0
 40
0.0
 40
0.0
 40
0.0
 40
0.2499999999999993
 40
0.2499999999999993
 40
0.3749999999999994
 40
0.3749999999999994
 40
0.4999999999999996
 40
0.4999999999999996
 40
0.6249999999999997
 40
0.6249999999999997
 40
0.7499999999999998
 40
0.7499999999999998
 40
0.8749999999999999
 40
0.8749999999999999
 40
1.0
 40
1.0
 40
1.0
 40
1.0
 10
-66.85873094478454
 20
-10.98365489747631
 30
0.0
 10
-66.94882651365545
 20
-10.45051589719087
 30
0.0
 10
-66.98932232005906
 20
-9.908061737066301
 30
0.0
 10
-66.93025367528854
 20
-9.083532602291168
 30
0.0
 10
-66.89060399865649
 20
-8.813273910186833
 30
0.0
 10
-66.76441265241327
 20
-8.28352646874814
 30
0.0
 10
-66.6762775693844
 20
-8.021006917553308
 30
0.0
 10
-66.45227848460006
 20
-7.528235453564975
 30
0.0
 10
-66.31705482911543
 20
-7.297394701451229
 30
0.0
 10
-65.99938932699048
 20
-6.867318530378371
 30
0.0
 10
-65.81576761805617
 20
-6.668043805523749
 30
0.0
 10
-65.42083720160151
 20
-6.317648351925553
 30
0.0
 10
-65.20713092021002
 20
-6.163287245380563
 30
0.0
 10
-64.75473681876231
 20
-5.893362849079652
 30
0.0
 10
-64.52100359600543
 20
-5.780483718282505
 30
0.0
 10
-64.28128049781618
 20
-5.685156578341105
 30
0.0
  0
SPLINE
  5
350
330
1F
100
AcDbEntity
  8
0
  6
Continuous
 62
     1
370
    15
100
AcDbSpline
210
0.0
220
0.0
230
1.0
 70
     8
 71
     3
 72
     9
 73
     5
 74
     0
 42
0.000000001
 43
0.00000001
 40
0.0
 40
0.0
 40
0.0
 40
0.0
 40
0.0195133809133631
 40
1.0
 40
1.0
 40
1.0
 40
1.0
 10
-36.34135633541855
 20
8.47853693871053
 30
0.0
 10
-36.32181769040419
 20
8.487404072317652
 30
0.0
 10
-35.32052298390973
 20
8.941817054183428
 30
0.0
 10
-34.31924230632337
 20
9.31873386226
 30
0.0
 10
-33.33749999999999
 20
9.688295749087928
 30
0.0
  0
SPLINE
  5
351
330
1F
100
AcDbEntity
  8
외형선
  6
Continuous
370
    15
100
AcDbSpline
210
0.0
220
0.0
230
1.0
 70
    24
 71
     3
 72
     9
 73
     5
 74
     0
 42
0.000000001
 43
0.00000001
 40
0.0
 40
0.0
 40
0.0
 40
0.0
 40
0.6200744885240844
 40
1.0
 40
1.0
 40
1.0
 40
1.0
 10
-33.33749999999999
 20
8.352579060277836
 30
0.0
 10
-33.33749999999999
 20
8.600710232220038
 30
0.0
 10
-33.33749999999999
 20
9.000873723114193
 30
0.0
 10
-33.33749999999999
 20
9.49903251519239
 30
0.0
 10
-33.33749999999999
 20
9.68829574906892
 30
0.0
  0
LINE
  5
37E
330
1F
100
AcDbEntity
  8
외형선
  6
Continuous
370
    15
100
AcDbLine
 10
-30.28784772662289
 20
-12.70000000000001
 30
0.0
 11
30.28784772662293
 21
-12.7
 31
0.0
  0
ENDSEC
  0
SECTION
  2
OBJECTS
  0
DICTIONARY
  5
C
330
0
100
AcDbDictionary
281
     1
  3
ACAD_GROUP
350
D
  3
ACAD_IMAGE_VARS
350
146
  3
ACAD_LAYOUT
350
1A
  3
ACAD_MLINESTYLE
350
17
  3
ACAD_PLOTSETTINGS
350
19
  3
ACAD_PLOTSTYLENAME
350
E
  3
ACAD_SCALELIST
350
47
  3
APPDATA
350
144
  3
DWGPROPS
350
37F
  0
DICTIONARY
  5
1E9
330
2
100
AcDbDictionary
280
     1
281
     1
  3
ACAD_LAYERSTATES
360
1EA
  0
DICTIONARY
  5
D
102
{ACAD_REACTORS
330
C
102
}
330
C
100
AcDbDictionary
281
     1
  0
RASTERVARIABLES
  5
146
102
{ACAD_REACTORS
330
C
102
}
330
C
100
AcDbRasterVariables
 90
        0
 70
     1
 71
     1
 72
     1
  0
DICTIONARY
  5
1A
102
{ACAD_REACTORS
330
C
102
}
330
C
100
AcDbDictionary
281
     1
  3
Layout1
350
1E
  3
Layout2
350
26
  3
Model
350
22
  0
DICTIONARY
  5
17
102
{ACAD_REACTORS
330
C
102
}
330
C
100
AcDbDictionary
281
     1
  3
Standard
350
18
  0
DICTIONARY
  5
19
102
{ACAD_REACTORS
330
C
102
}
330
C
100
AcDbDictionary
281
     1
  0
ACDBDICTIONARYWDFLT
  5
E
102
{ACAD_REACTORS
330
C
102
}
330
C
100
AcDbDictionary
281
     1
  3
Normal
350
F
100
AcDbDictionaryWithDefault
340
F
  0
DICTIONARY
  5
47
102
{ACAD_REACTORS
330
C
102
}
330
C
100
AcDbDictionary
281
     1
  3
A0
350
48
  3
A1
350
49
  3
A2
350
4A
  3
A3
350
4B
  3
A4
350
4C
  3
A5
350
4D
  3
A6
350
4E
  3
A7
350
4F
  3
A8
350
50
  3
A9
350
51
  3
B0
350
52
  3
B1
350
53
  3
B2
350
54
  3
B3
350
55
  3
B4
350
56
  3
B5
350
57
  3
B6
350
58
  3
B7
350
59
  3
B8
350
5A
  3
B9
350
5B
  3
C0
350
5C
  3
C1
350
5D
  3
C2
350
5E
  3
C3
350
5F
  3
C4
350
60
  3
C5
350
61
  3
C6
350
62
  3
C7
350
63
  3
C8
350
64
  3
C9
350
65
  3
D0
350
66
  3
D1
350
67
  3
D2
350
68
  0
DICTIONARY
  5
144
102
{ACAD_REACTORS
330
C
102
}
330
C
100
AcDbDictionary
281
     1
  0
XRECORD
  5
37F
102
{ACAD_REACTORS
330
C
102
}
330
C
100
AcDbXrecord
280
     1
  1
DWGPROPS COOKIE
  2

  3

  4

  6

  7

  8
12017012
  9

300
=
301
=
302
=
303
=
304
=
305
=
306
=
307
=
308
=
309
=
 40
0.0
 41
2458319.369736215
 42
2458323.292872477
  1

 90
        0
  0
DICTIONARY
  5
1EA
102
{ACAD_REACTORS
330
1E9
102
}
330
1E9
100
AcDbDictionary
281
     1
  0
LAYOUT
  5
1E
102
{ACAD_REACTORS
330
1A
102
}
330
1A
100
AcDbPlotSettings
  1

  2
none_device
  4

  6

 40
0.0
 41
0.0
 42
0.0
 43
0.0
 44
0.0
 45
0.0
 46
0.0
 47
0.0
 48
0.0
 49
0.0
140
0.0
141
0.0
142
1.0
143
1.0
 70
   688
 72
     1
 73
     0
 74
     5
  7

 75
    16
147
1.0
148
0.0
149
0.0
100
AcDbLayout
  1
Layout1
 70
     1
 71
     1
 10
0.0
 20
0.0
 11
420.0
 21
297.0
 12
0.0
 22
0.0
 32
0.0
 14
1.000000000000000E+20
 24
1.000000000000000E+20
 34
1.000000000000000E+20
 15
-1.000000000000000E+20
 25
-1.000000000000000E+20
 35
-1.000000000000000E+20
146
0.0
 13
0.0
 23
0.0
 33
0.0
 16
1.0
 26
0.0
 36
0.0
 17
0.0
 27
1.0
 37
0.0
 76
     0
330
1B
  0
LAYOUT
  5
26
102
{ACAD_REACTORS
330
1A
102
}
330
1A
100
AcDbPlotSettings
  1

  2
none_device
  4

  6

 40
0.0
 41
0.0
 42
0.0
 43
0.0
 44
0.0
 45
0.0
 46
0.0
 47
0.0
 48
0.0
 49
0.0
140
0.0
141
0.0
142
1.0
143
1.0
 70
   688
 72
     1
 73
     0
 74
     5
  7

 75
    16
147
1.0
148
0.0
149
0.0
100
AcDbLayout
  1
Layout2
 70
     1
 71
     2
 10
0.0
 20
0.0
 11
0.0
 21
0.0
 12
0.0
 22
0.0
 32
0.0
 14
0.0
 24
0.0
 34
0.0
 15
0.0
 25
0.0
 35
0.0
146
0.0
 13
0.0
 23
0.0
 33
0.0
 16
1.0
 26
0.0
 36
0.0
 17
0.0
 27
1.0
 37
0.0
 76
     0
330
23
  0
LAYOUT
  5
22
102
{ACAD_REACTORS
330
1A
102
}
330
1A
100
AcDbPlotSettings
  1

  2
none_device
  4
ANSI_A_(11.00_x_8.50_Inches)
  6

 40
6.35
 41
19.05
 42
6.35000508
 43
19.05000254
 44
279.4
 45
215.9
 46
152.7962003130095
 47
30.33884004369637
 48
0.0
 49
0.0
140
0.0
141
0.0
142
0.0375027879290781
143
1.0
 70
  1696
 72
     0
 73
     0
 74
     0
  7

 75
     0
147
0.0235690232323232
148
0.0
149
0.0
100
AcDbLayout
  1
Model
 70
     1
 71
     0
 10
0.0
 20
0.0
 11
420.0
 21
297.0
 12
0.0
 22
0.0
 32
0.0
 14
1.000000000000000E+20
 24
1.000000000000000E+20
 34
1.000000000000000E+20
 15
-1.000000000000000E+20
 25
-1.000000000000000E+20
 35
-1.000000000000000E+20
146
0.0
 13
0.0
 23
0.0
 33
0.0
 16
1.0
 26
0.0
 36
0.0
 17
0.0
 27
1.0
 37
0.0
 76
     0
330
1F
331
29
  0
MLINESTYLE
  5
18
102
{ACAD_REACTORS
330
17
102
}
330
17
100
AcDbMlineStyle
  2
Standard
 70
     0
  3

 62
   256
 51
90.0
 52
90.0
 71
     2
 49
0.5
 62
   256
  6
BYLAYER
 49
-0.5
 62
   256
  6
BYLAYER
  0
ACDBPLACEHOLDER
  5
F
102
{ACAD_REACTORS
330
E
102
}
330
E
  0
SCALE
  5
48
102
{ACAD_REACTORS
330
47
102
}
330
47
100
AcDbScale
 70
     0
300
1:1
140
1.0
141
1.0
290
     1
  0
SCALE
  5
49
102
{ACAD_REACTORS
330
47
102
}
330
47
100
AcDbScale
 70
     0
300
1:2
140
1.0
141
2.0
290
     0
  0
SCALE
  5
4A
102
{ACAD_REACTORS
330
47
102
}
330
47
100
AcDbScale
 70
     0
300
1:4
140
1.0
141
4.0
290
     0
  0
SCALE
  5
4B
102
{ACAD_REACTORS
330
47
102
}
330
47
100
AcDbScale
 70
     0
300
1:5
140
1.0
141
5.0
290
     0
  0
SCALE
  5
4C
102
{ACAD_REACTORS
330
47
102
}
330
47
100
AcDbScale
 70
     0
300
1:8
140
1.0
141
8.0
290
     0
  0
SCALE
  5
4D
102
{ACAD_REACTORS
330
47
102
}
330
47
100
AcDbScale
 70
     0
300
1:10
140
1.0
141
10.0
290
     0
  0
SCALE
  5
4E
102
{ACAD_REACTORS
330
47
102
}
330
47
100
AcDbScale
 70
     0
300
1:16
140
1.0
141
16.0
290
     0
  0
SCALE
  5
4F
102
{ACAD_REACTORS
330
47
102
}
330
47
100
AcDbScale
 70
     0
300
1:20
140
1.0
141
20.0
290
     0
  0
SCALE
  5
50
102
{ACAD_REACTORS
330
47
102
}
330
47
100
AcDbScale
 70
     0
300
1:30
140
1.0
141
30.0
290
     0
  0
SCALE
  5
51
102
{ACAD_REACTORS
330
47
102
}
330
47
100
AcDbScale
 70
     0
300
1:40
140
1.0
141
40.0
290
     0
  0
SCALE
  5
52
102
{ACAD_REACTORS
330
47
102
}
330
47
100
AcDbScale
 70
     0
300
1:50
140
1.0
141
50.0
290
     0
  0
SCALE
  5
53
102
{ACAD_REACTORS
330
47
102
}
330
47
100
AcDbScale
 70
     0
300
1:100
140
1.0
141
100.0
290
     0
  0
SCALE
  5
54
102
{ACAD_REACTORS
330
47
102
}
330
47
100
AcDbScale
 70
     0
300
2:1
140
2.0
141
1.0
290
     0
  0
SCALE
  5
55
102
{ACAD_REACTORS
330
47
102
}
330
47
100
AcDbScale
 70
     0
300
4:1
140
4.0
141
1.0
290
     0
  0
SCALE
  5
56
102
{ACAD_REACTORS
330
47
102
}
330
47
100
AcDbScale
 70
     0
300
8:1
140
8.0
141
1.0
290
     0
  0
SCALE
  5
57
102
{ACAD_REACTORS
330
47
102
}
330
47
100
AcDbScale
 70
     0
300
10:1
140
10.0
141
1.0
290
     0
  0
SCALE
  5
58
102
{ACAD_REACTORS
330
47
102
}
330
47
100
AcDbScale
 70
     0
300
100:1
140
100.0
141
1.0
290
     0
  0
SCALE
  5
59
102
{ACAD_REACTORS
330
47
102
}
330
47
100
AcDbScale
 70
     0
300
1/128" = 1'-0"
140
0.0078125
141
12.0
290
     0
  0
SCALE
  5
5A
102
{ACAD_REACTORS
330
47
102
}
330
47
100
AcDbScale
 70
     0
300
1/64" = 1'-0"
140
0.015625
141
12.0
290
     0
  0
SCALE
  5
5B
102
{ACAD_REACTORS
330
47
102
}
330
47
100
AcDbScale
 70
     0
300
1/32" = 1'-0"
140
0.03125
141
12.0
290
     0
  0
SCALE
  5
5C
102
{ACAD_REACTORS
330
47
102
}
330
47
100
AcDbScale
 70
     0
300
1/16" = 1'-0"
140
0.0625
141
12.0
290
     0
  0
SCALE
  5
5D
102
{ACAD_REACTORS
330
47
102
}
330
47
100
AcDbScale
 70
     0
300
3/32" = 1'-0"
140
0.09375
141
12.0
290
     0
  0
SCALE
  5
5E
102
{ACAD_REACTORS
330
47
102
}
330
47
100
AcDbScale
 70
     0
300
1/8" = 1'-0"
140
0.125
141
12.0
290
     0
  0
SCALE
  5
5F
102
{ACAD_REACTORS
330
47
102
}
330
47
100
AcDbScale
 70
     0
300
3/16" = 1'-0"
140
0.1875
141
12.0
290
     0
  0
SCALE
  5
60
102
{ACAD_REACTORS
330
47
102
}
330
47
100
AcDbScale
 70
     0
300
1/4" = 1'-0"
140
0.25
141
12.0
290
     0
  0
SCALE
  5
61
102
{ACAD_REACTORS
330
47
102
}
330
47
100
AcDbScale
 70
     0
300
3/8" = 1'-0"
140
0.375
141
12.0
290
     0
  0
SCALE
  5
62
102
{ACAD_REACTORS
330
47
102
}
330
47
100
AcDbScale
 70
     0
300
1/2" = 1'-0"
140
0.5
141
12.0
290
     0
  0
SCALE
  5
63
102
{ACAD_REACTORS
330
47
102
}
330
47
100
AcDbScale
 70
     0
300
3/4" = 1'-0"
140
0.75
141
12.0
290
     0
  0
SCALE
  5
64
102
{ACAD_REACTORS
330
47
102
}
330
47
100
AcDbScale
 70
     0
300
1" = 1'-0"
140
1.0
141
12.0
290
     0
  0
SCALE
  5
65
102
{ACAD_REACTORS
330
47
102
}
330
47
100
AcDbScale
 70
     0
300
1-1/2" = 1'-0"
140
1.5
141
12.0
290
     0
  0
SCALE
  5
66
102
{ACAD_REACTORS
330
47
102
}
330
47
100
AcDbScale
 70
     0
300
3" = 1'-0"
140
3.0
141
12.0
290
     0
  0
SCALE
  5
67
102
{ACAD_REACTORS
330
47
102
}
330
47
100
AcDbScale
 70
     0
300
6" = 1'-0"
140
6.0
141
12.0
290
     0
  0
SCALE
  5
68
102
{ACAD_REACTORS
330
47
102
}
330
47
100
AcDbScale
 70
     0
300
1'-0" = 1'-0"
140
12.0
141
12.0
290
     0
  0
ENDSEC
  0
EOF
