  0
SECTION
  2
HEADER
  9
$ACADVER
  1
AC1015
  9
$ACADMAINTVER
 70
     6
  9
$DWGCODEPAGE
  3
ANSI_949
  9
$INSBASE
 10
0.0
 20
0.0
 30
0.0
  9
$EXTMIN
 10
1.000000000000000E+20
 20
1.000000000000000E+20
 30
1.000000000000000E+20
  9
$EXTMAX
 10
-1.000000000000000E+20
 20
-1.000000000000000E+20
 30
-1.000000000000000E+20
  9
$LIMMIN
 10
0.0
 20
0.0
  9
$LIMMAX
 10
420.0
 20
297.0
  9
$ORTHOMODE
 70
     1
  9
$REGENMODE
 70
     1
  9
$FILLMODE
 70
     1
  9
$QTEXTMODE
 70
     0
  9
$MIRRTEXT
 70
     1
  9
$LTSCALE
 40
1.0
  9
$ATTMODE
 70
     1
  9
$TEXTSIZE
 40
3.5
  9
$TRACEWID
 40
1.0
  9
$TEXTSTYLE
  7
Standard
  9
$CLAYER
  8
0
  9
$CELTYPE
  6
ByLayer
  9
$CECOLOR
 62
   256
  9
$CELTSCALE
 40
1.0
  9
$DISPSILH
 70
     0
  9
$DIMSCALE
 40
1.0
  9
$DIMASZ
 40
3.302
  9
$DIMEXO
 40
1.0
  9
$DIMDLI
 40
3.75
  9
$DIMRND
 40
0.0
  9
$DIMDLE
 40
0.0
  9
$DIMEXE
 40
1.0
  9
$DIMTP
 40
0.0
  9
$DIMTM
 40
0.0
  9
$DIMTXT
 40
3.5
  9
$DIMCEN
 40
2.5
  9
$DIMTSZ
 40
0.0
  9
$DIMTOL
 70
     0
  9
$DIMLIM
 70
     0
  9
$DIMTIH
 70
     1
  9
$DIMTOH
 70
     1
  9
$DIMSE1
 70
     0
  9
$DIMSE2
 70
     0
  9
$DIMTAD
 70
     1
  9
$DIMZIN
 70
     0
  9
$DIMBLK
  1

  9
$DIMASO
 70
     1
  9
$DIMSHO
 70
     1
  9
$DIMPOST
  1

  9
$DIMAPOST
  1

  9
$DIMALT
 70
     0
  9
$DIMALTD
 70
     3
  9
$DIMALTF
 40
0.0393700787401575
  9
$DIMLFAC
 40
1.0
  9
$DIMTOFL
 70
     1
  9
$DIMTVP
 40
0.0
  9
$DIMTIX
 70
     0
  9
$DIMSOXD
 70
     0
  9
$DIMSAH
 70
     0
  9
$DIMBLK1
  1

  9
$DIMBLK2
  1

  9
$DIMSTYLE
  2
ISO-25
  9
$DIMCLRD
 70
     0
  9
$DIMCLRE
 70
     0
  9
$DIMCLRT
 70
     0
  9
$DIMTFAC
 40
1.0
  9
$DIMGAP
 40
1.524
  9
$DIMJUST
 70
     0
  9
$DIMSD1
 70
     0
  9
$DIMSD2
 70
     0
  9
$DIMTOLJ
 70
     0
  9
$DIMTZIN
 70
     0
  9
$DIMALTZ
 70
     0
  9
$DIMALTTZ
 70
     0
  9
$DIMUPT
 70
     0
  9
$DIMDEC
 70
     2
  9
$DIMTDEC
 70
     2
  9
$DIMALTU
 70
     2
  9
$DIMALTTD
 70
     3
  9
$DIMTXSTY
  7
Standard
  9
$DIMAUNIT
 70
     0
  9
$DIMADEC
 70
     2
  9
$DIMALTRND
 40
0.0
  9
$DIMAZIN
 70
     0
  9
$DIMDSEP
 70
    44
  9
$DIMATFIT
 70
     3
  9
$DIMFRAC
 70
     0
  9
$DIMLDRBLK
  1

  9
$DIMLUNIT
 70
     2
  9
$DIMLWD
 70
    -2
  9
$DIMLWE
 70
    -2
  9
$DIMTMOVE
 70
     0
  9
$LUNITS
 70
     2
  9
$LUPREC
 70
     2
  9
$SKETCHINC
 40
1.0
  9
$FILLETRAD
 40
10.0
  9
$AUNITS
 70
     0
  9
$AUPREC
 70
     2
  9
$MENU
  1
.
  9
$ELEVATION
 40
0.0
  9
$PELEVATION
 40
0.0
  9
$THICKNESS
 40
0.0
  9
$LIMCHECK
 70
     0
  9
$CHAMFERA
 40
0.0
  9
$CHAMFERB
 40
0.0
  9
$CHAMFERC
 40
0.0
  9
$CHAMFERD
 40
0.0
  9
$SKPOLY
 70
     0
  9
$TDCREATE
 40
2458319.744524247
  9
$TDUCREATE
 40
2458319.369524247
  9
$TDUPDATE
 40
2458323.66579353
  9
$TDUUPDATE
 40
2458323.29079353
  9
$TDINDWG
 40
0.0001989815
  9
$TDUSRTIMER
 40
2458323.290594826
  9
$USRTIMER
 70
     1
  9
$ANGBASE
 50
0.0
  9
$ANGDIR
 70
     0
  9
$PDMODE
 70
     0
  9
$PDSIZE
 40
-1.0
  9
$PLINEWID
 40
0.0
  9
$SPLFRAME
 70
     0
  9
$SPLINETYPE
 70
     6
  9
$SPLINESEGS
 70
     8
  9
$HANDSEED
  5
3D9
  9
$SURFTAB1
 70
     6
  9
$SURFTAB2
 70
     6
  9
$SURFTYPE
 70
     6
  9
$SURFU
 70
     6
  9
$SURFV
 70
     6
  9
$UCSBASE
  2

  9
$UCSNAME
  2

  9
$UCSORG
 10
0.0
 20
0.0
 30
0.0
  9
$UCSXDIR
 10
1.0
 20
0.0
 30
0.0
  9
$UCSYDIR
 10
0.0
 20
1.0
 30
0.0
  9
$UCSORTHOREF
  2

  9
$UCSORTHOVIEW
 70
     0
  9
$UCSORGTOP
 10
0.0
 20
0.0
 30
0.0
  9
$UCSORGBOTTOM
 10
0.0
 20
0.0
 30
0.0
  9
$UCSORGLEFT
 10
0.0
 20
0.0
 30
0.0
  9
$UCSORGRIGHT
 10
0.0
 20
0.0
 30
0.0
  9
$UCSORGFRONT
 10
0.0
 20
0.0
 30
0.0
  9
$UCSORGBACK
 10
0.0
 20
0.0
 30
0.0
  9
$PUCSBASE
  2

  9
$PUCSNAME
  2

  9
$PUCSORG
 10
0.0
 20
0.0
 30
0.0
  9
$PUCSXDIR
 10
1.0
 20
0.0
 30
0.0
  9
$PUCSYDIR
 10
0.0
 20
1.0
 30
0.0
  9
$PUCSORTHOREF
  2

  9
$PUCSORTHOVIEW
 70
     0
  9
$PUCSORGTOP
 10
0.0
 20
0.0
 30
0.0
  9
$PUCSORGBOTTOM
 10
0.0
 20
0.0
 30
0.0
  9
$PUCSORGLEFT
 10
0.0
 20
0.0
 30
0.0
  9
$PUCSORGRIGHT
 10
0.0
 20
0.0
 30
0.0
  9
$PUCSORGFRONT
 10
0.0
 20
0.0
 30
0.0
  9
$PUCSORGBACK
 10
0.0
 20
0.0
 30
0.0
  9
$USERI1
 70
     0
  9
$USERI2
 70
     0
  9
$USERI3
 70
     0
  9
$USERI4
 70
     0
  9
$USERI5
 70
     0
  9
$USERR1
 40
0.0
  9
$USERR2
 40
0.0
  9
$USERR3
 40
0.0
  9
$USERR4
 40
0.0
  9
$USERR5
 40
0.0
  9
$WORLDVIEW
 70
     1
  9
$SHADEDGE
 70
     3
  9
$SHADEDIF
 70
    70
  9
$TILEMODE
 70
     1
  9
$MAXACTVP
 70
    64
  9
$PINSBASE
 10
0.0
 20
0.0
 30
0.0
  9
$PLIMCHECK
 70
     0
  9
$PEXTMIN
 10
1.000000000000000E+20
 20
1.000000000000000E+20
 30
1.000000000000000E+20
  9
$PEXTMAX
 10
-1.000000000000000E+20
 20
-1.000000000000000E+20
 30
-1.000000000000000E+20
  9
$PLIMMIN
 10
0.0
 20
0.0
  9
$PLIMMAX
 10
0.0
 20
0.0
  9
$UNITMODE
 70
     0
  9
$VISRETAIN
 70
     1
  9
$PLINEGEN
 70
     0
  9
$PSLTSCALE
 70
     1
  9
$TREEDEPTH
 70
  3020
  9
$CMLSTYLE
  2
Standard
  9
$CMLJUST
 70
     0
  9
$CMLSCALE
 40
20.0
  9
$PROXYGRAPHICS
 70
     1
  9
$MEASUREMENT
 70
     1
  9
$CELWEIGHT
370
    -1
  9
$ENDCAPS
280
     0
  9
$JOINSTYLE
280
     0
  9
$LWDISPLAY
290
     1
  9
$INSUNITS
 70
     4
  9
$HYPERLINKBASE
  1

  9
$STYLESHEET
  1

  9
$XEDIT
290
     1
  9
$CEPSNTYPE
380
     0
  9
$PSTYLEMODE
290
     1
  9
$FINGERPRINTGUID
  2
{F1A353B2-9B01-43EF-8469-A0AF31AD0C93}
  9
$VERSIONGUID
  2
{FAEB1C32-E019-11D5-929B-00C0DF256EC4}
  9
$EXTNAMES
290
     1
  9
$PSVPSCALE
 40
0.0
  9
$OLESTARTUP
290
     0
  0
ENDSEC
  0
SECTION
  2
CLASSES
  0
CLASS
  1
ACDBDICTIONARYWDFLT
  2
AcDbDictionaryWithDefault
  3
ObjectDBX Classes
 90
        0
280
     0
281
     0
  0
CLASS
  1
VISUALSTYLE
  2
AcDbVisualStyle
  3
ObjectDBX Classes
 90
     4095
280
     0
281
     0
  0
CLASS
  1
MATERIAL
  2
AcDbMaterial
  3
ObjectDBX Classes
 90
     1153
280
     0
281
     0
  0
CLASS
  1
SCALE
  2
AcDbScale
  3
ObjectDBX Classes
 90
     1153
280
     0
281
     0
  0
CLASS
  1
SUN
  2
AcDbSun
  3
SCENEOE
 90
     1153
280
     0
281
     0
  0
CLASS
  1
ACDBPLACEHOLDER
  2
AcDbPlaceHolder
  3
ObjectDBX Classes
 90
        0
280
     0
281
     0
  0
CLASS
  1
LAYOUT
  2
AcDbLayout
  3
ObjectDBX Classes
 90
        0
280
     0
281
     0
  0
CLASS
  1
TABLESTYLE
  2
AcDbTableStyle
  3
ObjectDBX Classes
 90
     4095
280
     0
281
     0
  0
CLASS
  1
MLEADERSTYLE
  2
AcDbMLeaderStyle
  3
ACDB_MLEADERSTYLE_CLASS
 90
     4095
280
     0
281
     0
  0
CLASS
  1
RASTERVARIABLES
  2
AcDbRasterVariables
  3
ISM
 90
        0
280
     0
281
     0
  0
ENDSEC
  0
SECTION
  2
TABLES
  0
TABLE
  2
VPORT
  5
8
330
0
100
AcDbSymbolTable
 70
     1
  0
VPORT
  5
29
330
8
100
AcDbSymbolTableRecord
100
AcDbViewportTableRecord
  2
*Active
 70
     0
 10
0.0
 20
0.0
 11
1.0
 21
1.0
 12
7.799813052616464
 22
-2.711995131039679
 13
0.0
 23
0.0
 14
10.0
 24
10.0
 15
10.0
 25
10.0
 16
0.0
 26
0.0
 36
1.0
 17
0.0
 27
0.0
 37
0.0
 40
150.5141581229025
 41
1.632093933463796
 42
50.0
 43
0.0
 44
0.0
 50
0.0
 51
0.0
 71
    16
 72
  2000
 73
     1
 74
     3
 75
     0
 76
     0
 77
     0
 78
     0
281
     0
 65
     1
110
0.0
120
0.0
130
0.0
111
1.0
121
0.0
131
0.0
112
0.0
122
1.0
132
0.0
 79
     0
146
0.0
  0
ENDTAB
  0
TABLE
  2
LTYPE
  5
5
330
0
100
AcDbSymbolTable
 70
     6
  0
LTYPE
  5
14
330
5
100
AcDbSymbolTableRecord
100
AcDbLinetypeTableRecord
  2
ByBlock
 70
     0
  3

 72
    65
 73
     0
 40
0.0
  0
LTYPE
  5
15
330
5
100
AcDbSymbolTableRecord
100
AcDbLinetypeTableRecord
  2
ByLayer
 70
     0
  3

 72
    65
 73
     0
 40
0.0
  0
LTYPE
  5
16
330
5
100
AcDbSymbolTableRecord
100
AcDbLinetypeTableRecord
  2
Continuous
 70
     0
  3
Solid line
 72
    65
 73
     0
 40
0.0
  0
LTYPE
  5
6A
330
5
100
AcDbSymbolTableRecord
100
AcDbLinetypeTableRecord
  2
HIDDEN
 70
     0
  3
Hidden __ __ __ __ __ __ __ __ __ __ __ __ __ __
 72
    65
 73
     2
 40
1.905
 49
1.27
 74
     0
 49
-0.635
 74
     0
  0
LTYPE
  5
6B
330
5
100
AcDbSymbolTableRecord
100
AcDbLinetypeTableRecord
  2
PHANTOM
 70
     0
  3
Phantom ______  __  __  ______  __  __  ______
 72
    65
 73
     6
 40
12.7
 49
6.35
 74
     0
 49
-1.27
 74
     0
 49
1.27
 74
     0
 49
-1.27
 74
     0
 49
1.27
 74
     0
 49
-1.27
 74
     0
  0
LTYPE
  5
6C
330
5
100
AcDbSymbolTableRecord
100
AcDbLinetypeTableRecord
  2
CENTER
 70
     0
  3
Center ____ _ ____ _ ____ _ ____ _ ____ _ ____
 72
    65
 73
     4
 40
10.16
 49
6.35
 74
     0
 49
-1.27
 74
     0
 49
1.27
 74
     0
 49
-1.27
 74
     0
  0
LTYPE
  5
6D
330
5
100
AcDbSymbolTableRecord
100
AcDbLinetypeTableRecord
  2
CENTERX2
 70
     0
  3
Center (2x) ________  __  ________  __  _____
 72
    65
 73
     4
 40
20.32
 49
12.7
 74
     0
 49
-2.54
 74
     0
 49
2.54
 74
     0
 49
-2.54
 74
     0
  0
LTYPE
  5
6E
330
5
100
AcDbSymbolTableRecord
100
AcDbLinetypeTableRecord
  2
DOT2
 70
     0
  3
Dot (.5x) ........................................
 72
    65
 73
     2
 40
0.635
 49
0.0
 74
     0
 49
-0.635
 74
     0
  0
ENDTAB
  0
TABLE
  2
LAYER
  5
2
102
{ACAD_XDICTIONARY
360
1EC
102
}
330
0
100
AcDbSymbolTable
 70
    18
  0
LAYER
  5
10
330
2
100
AcDbSymbolTableRecord
100
AcDbLayerTableRecord
  2
0
 70
     0
 62
     7
  6
Continuous
370
    -3
390
F
  0
LAYER
  5
6F
330
2
100
AcDbSymbolTableRecord
100
AcDbLayerTableRecord
  2
FORMAT
 70
     0
 62
     2
  6
Continuous
370
    -3
390
F
  0
LAYER
  5
70
330
2
100
AcDbSymbolTableRecord
100
AcDbLayerTableRecord
  2
외형선
 70
     0
 62
     4
  6
Continuous
370
    30
390
F
  0
LAYER
  5
71
330
2
100
AcDbSymbolTableRecord
100
AcDbLayerTableRecord
  2
숨은선
 70
     0
 62
     2
  6
HIDDEN
370
    15
390
F
  0
LAYER
  5
72
330
2
100
AcDbSymbolTableRecord
100
AcDbLayerTableRecord
  2
중심선
 70
     0
 62
     1
  6
CENTERX2
370
    -3
390
F
  0
LAYER
  5
73
330
2
100
AcDbSymbolTableRecord
100
AcDbLayerTableRecord
  2
파단선
 70
     0
 62
     4
  6
Continuous
370
    -3
390
F
  0
LAYER
  5
74
330
2
100
AcDbSymbolTableRecord
100
AcDbLayerTableRecord
  2
해칭선
 70
     0
 62
   100
  6
Continuous
370
    -3
390
F
  0
LAYER
  5
75
330
2
100
AcDbSymbolTableRecord
100
AcDbLayerTableRecord
  2
가는실선
 70
     0
 62
     4
  6
Continuous
370
    -3
390
F
  0
LAYER
  5
76
330
2
100
AcDbSymbolTableRecord
100
AcDbLayerTableRecord
  2
치수_보조선
 70
     0
 62
     4
  6
Continuous
370
    -3
390
F
  0
LAYER
  5
77
330
2
100
AcDbSymbolTableRecord
100
AcDbLayerTableRecord
  2
치수문자_일반주서
 70
     0
 62
     7
  6
Continuous
370
    15
390
F
  0
LAYER
  5
78
330
2
100
AcDbSymbolTableRecord
100
AcDbLayerTableRecord
  2
개별주서
 70
     0
 62
   100
  6
Continuous
370
    30
390
F
  0
LAYER
  5
79
330
2
100
AcDbSymbolTableRecord
100
AcDbLayerTableRecord
  2
중간선
 70
     0
 62
     2
  6
Continuous
370
    15
390
F
  0
LAYER
  5
7A
330
2
100
AcDbSymbolTableRecord
100
AcDbLayerTableRecord
  2
윤곽선
 70
     0
 62
     3
  6
Continuous
370
    40
390
F
  0
LAYER
  5
7B
330
2
100
AcDbSymbolTableRecord
100
AcDbLayerTableRecord
  2
중심마크
 70
     0
 62
   100
  6
Continuous
370
    30
390
F
  0
LAYER
  5
7C
330
2
100
AcDbSymbolTableRecord
100
AcDbLayerTableRecord
  2
가상선
 70
     0
 62
     4
  6
PHANTOM
370
    -3
390
F
  0
LAYER
  5
7D
330
2
100
AcDbSymbolTableRecord
100
AcDbLayerTableRecord
  2
특수지정선
 70
     0
 62
     5
  6
CENTERX2
370
    60
390
F
  0
LAYER
  5
7E
330
2
100
AcDbSymbolTableRecord
100
AcDbLayerTableRecord
  2
참조1
 70
     0
 62
    -4
  6
Continuous
370
    -3
390
F
  0
LAYER
  5
147
330
2
100
AcDbSymbolTableRecord
100
AcDbLayerTableRecord
  2
Defpoints
 70
     0
 62
     7
  6
Continuous
290
     0
370
    -3
390
F
  0
ENDTAB
  0
TABLE
  2
STYLE
  5
3
330
0
100
AcDbSymbolTable
 70
     2
  0
STYLE
  5
11
330
3
100
AcDbSymbolTableRecord
100
AcDbTextStyleTableRecord
  2
Standard
 70
     0
 40
0.0
 41
1.0
 50
0.0
 71
     0
 42
3.5
  3
txt
  4

  0
STYLE
  5
94
330
3
100
AcDbSymbolTableRecord
100
AcDbTextStyleTableRecord
  2
SLDTEXTSTYLE0
 70
     0
 40
0.0
 41
0.75
 50
0.0
 71
     0
 42
3.5
  3
TXT
  4

  0
ENDTAB
  0
TABLE
  2
VIEW
  5
6
330
0
100
AcDbSymbolTable
 70
     0
  0
ENDTAB
  0
TABLE
  2
UCS
  5
7
330
0
100
AcDbSymbolTable
 70
     0
  0
ENDTAB
  0
TABLE
  2
APPID
  5
9
330
0
100
AcDbSymbolTable
 70
     1
  0
APPID
  5
12
330
9
100
AcDbSymbolTableRecord
100
AcDbRegAppTableRecord
  2
ACAD
 70
     0
  0
ENDTAB
  0
TABLE
  2
DIMSTYLE
  5
A
330
0
100
AcDbSymbolTable
 70
     3
100
AcDbDimStyleTable
  0
DIMSTYLE
105
27
330
A
100
AcDbSymbolTableRecord
100
AcDbDimStyleTableRecord
  2
ISO-25
 70
     0
 41
2.5
 42
0.625
 43
3.75
 44
1.25
 73
     0
 74
     0
 77
     1
 78
     8
140
2.5
141
2.5
143
0.03937007874016
147
0.625
171
     3
172
     1
178
     0
271
     2
272
     2
274
     3
278
    44
283
     0
284
     8
340
11
  0
DIMSTYLE
105
C5
102
{ACAD_REACTORS
330
C4
330
D9
330
101
330
18D
330
19B
330
1A8
330
1B5
330
EC
330
2E4
330
2F2
330
2FF
330
30C
102
}
330
A
100
AcDbSymbolTableRecord
100
AcDbDimStyleTableRecord
  2
SLDDIMSTYLE0
 70
     0
 41
3.302
 44
0.0
 45
0.000000001
 73
     0
 74
     0
 77
     1
 78
    12
 79
     3
140
3.5
143
0.0393700787401575
147
0.875
148
0.000000001
170
     1
173
     1
178
     0
271
     2
272
     2
276
     2
284
    12
340
94
  0
DIMSTYLE
105
ED
330
A
100
AcDbSymbolTableRecord
100
AcDbDimStyleTableRecord
  2
SLDDIMSTYLE1
 70
     0
 41
3.302
 44
0.0
 45
0.000000001
 73
     0
 74
     0
 77
     1
 78
    12
 79
     3
140
3.5
143
0.0393700787401575
147
0.875
148
0.000000001
170
     1
172
     1
173
     1
178
     0
271
     2
272
     2
276
     2
284
    12
289
     0
340
94
  0
ENDTAB
  0
TABLE
  2
BLOCK_RECORD
  5
1
330
0
100
AcDbSymbolTable
 70
    26
  0
BLOCK_RECORD
  5
1F
330
1
100
AcDbSymbolTableRecord
100
AcDbBlockTableRecord
  2
*Model_Space
340
22
  0
BLOCK_RECORD
  5
1B
330
1
100
AcDbSymbolTableRecord
100
AcDbBlockTableRecord
  2
*Paper_Space
340
1E
  0
BLOCK_RECORD
  5
23
330
1
100
AcDbSymbolTableRecord
100
AcDbBlockTableRecord
  2
*Paper_Space0
340
26
  0
BLOCK_RECORD
  5
7F
330
1
100
AcDbSymbolTableRecord
100
AcDbBlockTableRecord
  2
블럭10
340
0
102
{BLKREFS
331
BD
102
}
  0
BLOCK_RECORD
  5
C6
330
1
100
AcDbSymbolTableRecord
100
AcDbBlockTableRecord
  2
_D
340
0
  0
BLOCK_RECORD
  5
DA
330
1
100
AcDbSymbolTableRecord
100
AcDbBlockTableRecord
  2
_D_1
340
0
  0
BLOCK_RECORD
  5
EE
330
1
100
AcDbSymbolTableRecord
100
AcDbBlockTableRecord
  2
_D_2
340
0
  0
BLOCK_RECORD
  5
102
330
1
100
AcDbSymbolTableRecord
100
AcDbBlockTableRecord
  2
_D_3
340
0
  0
BLOCK_RECORD
  5
11B
330
1
100
AcDbSymbolTableRecord
100
AcDbBlockTableRecord
  2
SW_DOWELSYMBOL_0
340
0
102
{BLKREFS
331
121
331
1C3
331
0
331
31A
331
0
102
}
  0
BLOCK_RECORD
  5
1F0
330
1
100
AcDbSymbolTableRecord
100
AcDbBlockTableRecord
  2
*D8
340
0
  0
BLOCK_RECORD
  5
1FD
330
1
100
AcDbSymbolTableRecord
100
AcDbBlockTableRecord
  2
*D9
340
0
  0
BLOCK_RECORD
  5
209
330
1
100
AcDbSymbolTableRecord
100
AcDbBlockTableRecord
  2
*D10
340
0
  0
BLOCK_RECORD
  5
215
330
1
100
AcDbSymbolTableRecord
100
AcDbBlockTableRecord
  2
*D11
340
0
  0
BLOCK_RECORD
  5
268
330
1
100
AcDbSymbolTableRecord
100
AcDbBlockTableRecord
  2
*D12
340
0
  0
BLOCK_RECORD
  5
275
330
1
100
AcDbSymbolTableRecord
100
AcDbBlockTableRecord
  2
*D13
340
0
  0
BLOCK_RECORD
  5
281
330
1
100
AcDbSymbolTableRecord
100
AcDbBlockTableRecord
  2
*D14
340
0
  0
BLOCK_RECORD
  5
28D
330
1
100
AcDbSymbolTableRecord
100
AcDbBlockTableRecord
  2
*D15
340
0
  0
BLOCK_RECORD
  5
323
330
1
100
AcDbSymbolTableRecord
100
AcDbBlockTableRecord
  2
*D17
340
0
  0
BLOCK_RECORD
  5
330
330
1
100
AcDbSymbolTableRecord
100
AcDbBlockTableRecord
  2
*D18
340
0
  0
BLOCK_RECORD
  5
33C
330
1
100
AcDbSymbolTableRecord
100
AcDbBlockTableRecord
  2
*D19
340
0
  0
BLOCK_RECORD
  5
348
330
1
100
AcDbSymbolTableRecord
100
AcDbBlockTableRecord
  2
*D20
340
0
  0
BLOCK_RECORD
  5
37B
330
1
100
AcDbSymbolTableRecord
100
AcDbBlockTableRecord
  2
*D21
340
0
  0
BLOCK_RECORD
  5
388
330
1
100
AcDbSymbolTableRecord
100
AcDbBlockTableRecord
  2
*D22
340
0
  0
BLOCK_RECORD
  5
394
330
1
100
AcDbSymbolTableRecord
100
AcDbBlockTableRecord
  2
*D23
340
0
  0
BLOCK_RECORD
  5
3A0
330
1
100
AcDbSymbolTableRecord
100
AcDbBlockTableRecord
  2
*D24
340
0
  0
ENDTAB
  0
ENDSEC
  0
SECTION
  2
BLOCKS
  0
BLOCK
  5
20
330
1F
100
AcDbEntity
  8
0
100
AcDbBlockBegin
  2
*Model_Space
 70
     0
 10
0.0
 20
0.0
 30
0.0
  3
*Model_Space
  1
*Model_Space
  0
ENDBLK
  5
21
330
1F
100
AcDbEntity
  8
0
100
AcDbBlockEnd
  0
BLOCK
  5
1C
330
1B
100
AcDbEntity
 67
     1
  8
0
100
AcDbBlockBegin
  2
*Paper_Space
 70
     0
 10
0.0
 20
0.0
 30
0.0
  3
*Paper_Space
  1
*Paper_Space
  0
ENDBLK
  5
1D
330
1B
100
AcDbEntity
 67
     1
  8
0
100
AcDbBlockEnd
  0
BLOCK
  5
24
330
23
100
AcDbEntity
  8
0
100
AcDbBlockBegin
  2
*Paper_Space0
 70
     0
 10
0.0
 20
0.0
 30
0.0
  3
*Paper_Space0
  1
*Paper_Space0
  0
ENDBLK
  5
25
330
23
100
AcDbEntity
  8
0
100
AcDbBlockEnd
  0
BLOCK
  5
80
330
7F
100
AcDbEntity
  8
0
100
AcDbBlockBegin
  2
블럭10
 70
     2
 10
0.0
 20
0.0
 30
0.0
  3
블럭10
  1
블럭10
  0
ELLIPSE
  5
82
330
7F
100
AcDbEntity
  8
중심선
100
AcDbEllipse
 10
20.54032771741204
 20
12.0471743016438
 30
0.0
 11
6.600054785286829
 21
-1.261213355974178E-13
 31
0.0
210
0.0
220
0.0
230
1.0
 40
0.636358354079598
 41
0.9219305317359503
 42
6.513795318482858
  0
ELLIPSE
  5
83
330
7F
100
AcDbEntity
  8
중심선
100
AcDbEllipse
 10
20.54032771746488
 20
12.04717430159265
 30
0.0
 11
3.960054785062283
 21
1.540847449632565E-10
 31
0.0
210
0.0
220
0.0
230
1.0
 40
0.3939339440162632
 41
1.131841032648279
 42
5.62031148352944
  0
LINE
  5
84
330
7F
100
AcDbEntity
  8
중심선
100
AcDbLine
 10
2.268634060543552
 20
16.24717430164393
 30
0.0
 11
5.714909304380834
 21
16.24717430164393
 31
0.0
  0
LINE
  5
85
330
7F
100
AcDbEntity
  8
중심선
100
AcDbLine
 10
5.245725140726316
 20
7.84717430164391
 30
0.0
 11
8.692000384563599
 21
7.84717430164391
 31
0.0
  0
LINE
  5
86
330
7F
100
AcDbEntity
  8
중심선
100
AcDbLine
 10
15.74043728645272
 20
16.24717430164393
 30
0.0
 11
8.692000384563599
 21
7.84717430164391
 31
0.0
  0
LINE
  5
87
330
7F
100
AcDbEntity
  8
중심선
100
AcDbLine
 10
0.1404042013395286
 20
13.71084872107135
 30
0.0
 11
3.58671253028996
 21
13.71088815037384
 31
0.0
  0
LINE
  5
88
330
7F
100
AcDbEntity
  8
중심선
100
AcDbLine
 10
2.750260043222114
 20
10.84717430164391
 30
0.0
 11
6.196535287059397
 21
10.84717430164391
 31
0.0
  0
LINE
  5
89
330
7F
100
AcDbEntity
  8
중심선
100
AcDbLine
 10
12.29416204261559
 20
16.24717430164393
 30
0.0
 11
5.245725140726316
 21
7.84717430164391
 31
0.0
  0
LINE
  5
8A
330
7F
100
AcDbEntity
  8
중심선
100
AcDbLine
 10
10.72767329541681
 20
16.24717430164393
 30
0.0
 11
6.196535287059397
 21
10.84717430164391
 31
0.0
  0
LINE
  5
8B
330
7F
100
AcDbEntity
  8
중심선
100
AcDbLine
 10
7.28139805157953
 20
16.24717430164393
 30
0.0
 11
2.750260043222114
 21
10.84717430164391
 31
0.0
  0
LINE
  5
8C
330
7F
100
AcDbEntity
  8
중심선
100
AcDbLine
 10
5.714909304380834
 20
16.24717430164393
 30
0.0
 11
3.58671253028996
 21
13.71088815037384
 31
0.0
  0
LINE
  5
8D
330
7F
100
AcDbEntity
  8
중심선
100
AcDbLine
 10
2.268634060543552
 20
16.24717430164393
 30
0.0
 11
0.1404042013395286
 21
13.71084872107135
 31
0.0
  0
LINE
  5
8E
330
7F
100
AcDbEntity
  8
중심선
100
AcDbLine
 10
7.28139805157953
 20
16.24717430164393
 30
0.0
 11
10.72767329541681
 21
16.24717430164393
 31
0.0
  0
LINE
  5
8F
330
7F
100
AcDbEntity
  8
중심선
100
AcDbLine
 10
12.29416204261559
 20
16.24717430164393
 30
0.0
 11
15.74043728645272
 21
16.24717430164393
 31
0.0
  0
LINE
  5
90
330
7F
100
AcDbEntity
  8
중심선
100
AcDbLine
 10
19.22036997980202
 20
11.08717430171403
 30
0.0
 11
23.66174974927406
 21
11.08717430171406
 31
0.0
  0
LINE
  5
91
330
7F
100
AcDbEntity
  8
중심선
100
AcDbLine
 10
19.22039502424796
 20
13.00717430171391
 30
0.0
 11
19.22036997980202
 21
11.08717430171403
 31
0.0
  0
LINE
  5
92
330
7F
100
AcDbEntity
  8
중심선
100
AcDbLine
 10
19.22039502424796
 20
13.00717430171391
 30
0.0
 11
26.96566020931264
 21
13.00717430171391
 31
0.0
  0
LINE
  5
93
330
7F
100
AcDbEntity
  8
중심선
100
AcDbLine
 10
22.22332737316547
 20
13.45928029700563
 30
0.0
 11
24.52862924686651
 21
15.39360700705356
 31
0.0
  0
ATTDEF
  5
95
330
7F
100
AcDbEntity
  8
FORMAT
 62
     2
100
AcDbText
 10
4.408487351596664
 20
2.075366912832191
 30
0.0
 40
4.233333333333333
  1
E1112048
 41
0.75
  7
SLDTEXTSTYLE0
 11
4.408487351596664
 21
-0.0412997538344756
 31
0.0
100
AcDbAttributeDefinition
  3

  2
AUTOATTR0
 70
     0
 74
     1
  0
ENDBLK
  5
81
330
7F
100
AcDbEntity
  8
0
100
AcDbBlockEnd
  0
BLOCK
  5
C7
330
C6
100
AcDbEntity
  8
0
100
AcDbBlockBegin
  2
_D
 70
     0
 10
0.0
 20
0.0
 30
0.0
  3
_D
  1
_D
  0
LINE
  5
C9
330
C6
100
AcDbEntity
  8
0
  6
Continuous
 62
     0
370
    -2
100
AcDbLine
 10
63.49999999999996
 20
9.587500000000029
 30
0.0
 11
63.49999999999996
 21
15.59903742084733
 31
0.0
  0
LINE
  5
CA
330
C6
100
AcDbEntity
  8
0
  6
Continuous
 62
     0
370
    -2
100
AcDbLine
 10
30.16249999999999
 20
8.138716718077367
 30
0.0
 11
30.16249999999999
 21
15.59903742084733
 31
0.0
  0
LINE
  5
CB
330
C6
100
AcDbEntity
  8
0
  6
Continuous
 62
     0
370
    -2
100
AcDbLine
 10
30.16249999999999
 20
15.59903742084733
 30
0.0
 11
-5.514500000000005
 21
15.59903742084733
 31
0.0
  0
LINE
  5
CC
330
C6
100
AcDbEntity
  8
0
  6
Continuous
 62
     0
370
    -2
100
AcDbLine
 10
60.19799999999996
 20
15.59903742084733
 30
0.0
 11
33.46449999999999
 21
15.59903742084733
 31
0.0
  0
SOLID
  5
CD
330
C6
100
AcDbEntity
  8
0
 62
     0
100
AcDbTrace
 10
60.19799999999996
 20
15.048704087514
 30
0.0
 11
60.19799999999996
 21
16.14937075418066
 31
0.0
 12
63.49999999999996
 22
15.59903742084733
 32
0.0
 13
63.49999999999996
 23
15.59903742084733
 33
0.0
  0
SOLID
  5
CE
330
C6
100
AcDbEntity
  8
0
 62
     0
100
AcDbTrace
 10
33.46449999999999
 20
16.14937075418066
 30
0.0
 11
33.46449999999999
 21
15.048704087514
 31
0.0
 12
30.16249999999999
 22
15.59903742084733
 32
0.0
 13
30.16249999999999
 23
15.59903742084733
 33
0.0
  0
MTEXT
  5
CF
330
C6
100
AcDbEntity
  8
0
 62
     0
370
    15
100
AcDbMText
 10
10.67299999999999
 20
19.97403742084733
 30
0.0
 40
3.5
 41
0.0
 71
     2
 72
     1
  1
\A1;33.34 [1 5/16]
  7
SLDTEXTSTYLE0
 73
     1
 44
1.0
  0
POINT
  5
D0
330
C6
100
AcDbEntity
  8
Defpoints
 62
     0
100
AcDbPoint
 10
63.49999999999996
 20
9.525000000000029
 30
0.0
  0
POINT
  5
D1
330
C6
100
AcDbEntity
  8
Defpoints
 62
     0
100
AcDbPoint
 10
30.16249999999999
 20
8.076216718077367
 30
0.0
  0
POINT
  5
D2
330
C6
100
AcDbEntity
  8
Defpoints
 62
     0
100
AcDbPoint
 10
30.16249999999999
 20
15.59903742084733
 30
0.0
  0
ENDBLK
  5
C8
330
C6
100
AcDbEntity
  8
0
100
AcDbBlockEnd
  0
BLOCK
  5
DB
330
DA
100
AcDbEntity
  8
0
100
AcDbBlockBegin
  2
_D_1
 70
     0
 10
0.0
 20
0.0
 30
0.0
  3
_D_1
  1
_D_1
  0
LINE
  5
DD
330
DA
100
AcDbEntity
  8
0
  6
Continuous
 62
     0
370
    -2
100
AcDbLine
 10
63.49999999999996
 20
9.587500000000029
 30
0.0
 11
63.49999999999996
 21
29.28797898817497
 31
0.0
  0
LINE
  5
DE
330
DA
100
AcDbEntity
  8
0
  6
Continuous
 62
     0
370
    -2
100
AcDbLine
 10
-63.49999999999999
 20
9.587499999999972
 30
0.0
 11
-63.49999999999999
 21
29.28797898817497
 31
0.0
  0
LINE
  5
DF
330
DA
100
AcDbEntity
  8
0
  6
Continuous
 62
     0
370
    -2
100
AcDbLine
 10
60.19799999999996
 20
29.28797898817497
 30
0.0
 11
-60.19799999999999
 21
29.28797898817497
 31
0.0
  0
SOLID
  5
E0
330
DA
100
AcDbEntity
  8
0
 62
     0
100
AcDbTrace
 10
60.19799999999996
 20
28.73764565484164
 30
0.0
 11
60.19799999999996
 21
29.83831232150831
 31
0.0
 12
63.49999999999996
 22
29.28797898817497
 32
0.0
 13
63.49999999999996
 23
29.28797898817497
 33
0.0
  0
SOLID
  5
E1
330
DA
100
AcDbEntity
  8
0
 62
     0
100
AcDbTrace
 10
-60.19799999999999
 20
29.83831232150831
 30
0.0
 11
-60.19799999999999
 21
28.73764565484164
 31
0.0
 12
-63.49999999999999
 22
29.28797898817497
 32
0.0
 13
-63.49999999999999
 23
29.28797898817497
 33
0.0
  0
MTEXT
  5
E2
330
DA
100
AcDbEntity
  8
0
 62
     0
370
    15
100
AcDbMText
 10
0.5558313391660761
 20
33.66297898817497
 30
0.0
 40
3.5
 41
0.0
 71
     2
 72
     1
  1
\A1;127 [5]
  7
SLDTEXTSTYLE0
 73
     1
 44
1.0
  0
POINT
  5
E3
330
DA
100
AcDbEntity
  8
Defpoints
 62
     0
100
AcDbPoint
 10
63.49999999999996
 20
9.525000000000029
 30
0.0
  0
POINT
  5
E4
330
DA
100
AcDbEntity
  8
Defpoints
 62
     0
100
AcDbPoint
 10
-63.49999999999999
 20
9.524999999999972
 30
0.0
  0
POINT
  5
E5
330
DA
100
AcDbEntity
  8
Defpoints
 62
     0
100
AcDbPoint
 10
-63.49999999999999
 20
29.28797898817497
 30
0.0
  0
ENDBLK
  5
DC
330
DA
100
AcDbEntity
  8
0
100
AcDbBlockEnd
  0
BLOCK
  5
EF
330
EE
100
AcDbEntity
  8
0
100
AcDbBlockBegin
  2
_D_2
 70
     0
 10
0.0
 20
0.0
 30
0.0
  3
_D_2
  1
_D_2
  0
LINE
  5
F1
330
EE
100
AcDbEntity
  8
0
  6
Continuous
 62
     0
370
    -2
100
AcDbLine
 10
-27.17479752504201
 20
9.524999999999991
 30
0.0
 11
-75.93000000000004
 21
9.524999999999809
 31
0.0
  0
LINE
  5
F2
330
EE
100
AcDbEntity
  8
0
  6
Continuous
 62
     0
370
    -2
100
AcDbLine
 10
-27.17479752504201
 20
-9.52500000000001
 30
0.0
 11
-75.92999999999996
 21
-9.525000000000192
 31
0.0
  0
LINE
  5
F3
330
EE
100
AcDbEntity
  8
0
  6
Continuous
 62
     0
370
    -2
100
AcDbLine
 10
-75.93000000000002
 20
6.222999999999809
 30
0.0
 11
-75.92999999999998
 21
-6.223000000000193
 31
0.0
  0
SOLID
  5
F4
330
EE
100
AcDbEntity
  8
0
 62
     0
100
AcDbTrace
 10
-75.3796666666667
 20
6.222999999999811
 30
0.0
 11
-76.48033333333335
 21
6.222999999999807
 31
0.0
 12
-75.93000000000004
 22
9.524999999999809
 32
0.0
 13
-75.93000000000004
 23
9.524999999999809
 33
0.0
  0
SOLID
  5
F5
330
EE
100
AcDbEntity
  8
0
 62
     0
100
AcDbTrace
 10
-76.4803333333333
 20
-6.223000000000194
 30
0.0
 11
-75.37966666666665
 21
-6.223000000000191
 31
0.0
 12
-75.92999999999996
 22
-9.525000000000192
 32
0.0
 13
-75.92999999999996
 23
-9.525000000000192
 33
0.0
  0
MTEXT
  5
F6
330
EE
100
AcDbEntity
  8
0
 62
     0
370
    15
100
AcDbMText
 10
-80.305
 20
-0.0000000000000374
 30
0.0
 40
3.5
 41
0.0
 71
     2
 72
     1
  1
\A1;%%c19.05 [3/4]
  7
SLDTEXTSTYLE0
 11
-3.729883127349607E-15
 21
1.0
 31
0.0
 73
     1
 44
1.0
  0
POINT
  5
F7
330
EE
100
AcDbEntity
  8
Defpoints
 62
     0
100
AcDbPoint
 10
-27.11229752504201
 20
9.524999999999991
 30
0.0
  0
POINT
  5
F8
330
EE
100
AcDbEntity
  8
Defpoints
 62
     0
100
AcDbPoint
 10
-27.11229752504201
 20
-9.52500000000001
 30
0.0
  0
POINT
  5
F9
330
EE
100
AcDbEntity
  8
Defpoints
 62
     0
100
AcDbPoint
 10
-75.92999999999996
 20
-9.525000000000192
 30
0.0
  0
ENDBLK
  5
F0
330
EE
100
AcDbEntity
  8
0
100
AcDbBlockEnd
  0
BLOCK
  5
103
330
102
100
AcDbEntity
  8
0
100
AcDbBlockBegin
  2
_D_3
 70
     0
 10
0.0
 20
0.0
 30
0.0
  3
_D_3
  1
_D_3
  0
LINE
  5
105
330
102
100
AcDbEntity
  8
0
  6
Continuous
 62
     0
370
    -2
100
AcDbLine
 10
63.56249999999999
 20
9.525000000000029
 30
0.0
 11
81.5756685298623
 21
9.525000000000095
 31
0.0
  0
LINE
  5
106
330
102
100
AcDbEntity
  8
0
  6
Continuous
 62
     0
370
    -2
100
AcDbLine
 10
63.56249999999999
 20
-9.524999999999965
 30
0.0
 11
81.57566852986237
 21
-9.524999999999899
 31
0.0
  0
LINE
  5
107
330
102
100
AcDbEntity
  8
0
  6
Continuous
 62
     0
370
    -2
100
AcDbLine
 10
81.5756685298623
 20
9.525000000000095
 30
0.0
 11
81.57566852986218
 21
40.3895000000001
 31
0.0
  0
LINE
  5
108
330
102
100
AcDbEntity
  8
0
  6
Continuous
 62
     0
370
    -2
100
AcDbLine
 10
81.57566852986231
 20
6.223000000000095
 30
0.0
 11
81.57566852986236
 21
-6.2229999999999
 31
0.0
  0
SOLID
  5
109
330
102
100
AcDbEntity
  8
0
 62
     0
100
AcDbTrace
 10
82.12600186319564
 20
6.223000000000097
 30
0.0
 11
81.02533519652899
 21
6.223000000000093
 31
0.0
 12
81.5756685298623
 22
9.525000000000095
 32
0.0
 13
81.5756685298623
 23
9.525000000000095
 33
0.0
  0
SOLID
  5
10A
330
102
100
AcDbEntity
  8
0
 62
     0
100
AcDbTrace
 10
81.02533519652903
 20
-6.222999999999901
 30
0.0
 11
82.12600186319568
 21
-6.222999999999898
 31
0.0
 12
81.57566852986237
 22
-9.524999999999899
 32
0.0
 13
81.57566852986237
 23
-9.524999999999899
 33
0.0
  0
MTEXT
  5
10B
330
102
100
AcDbEntity
  8
0
 62
     0
370
    15
100
AcDbMText
 10
77.20066852986224
 20
26.60825000000008
 30
0.0
 40
3.5
 41
0.0
 71
     2
 72
     1
  1
\A1;%%c19.05 [3/4]
  7
SLDTEXTSTYLE0
 11
-3.729883127349609E-15
 21
1.0
 31
0.0
 73
     1
 44
1.0
  0
POINT
  5
10C
330
102
100
AcDbEntity
  8
Defpoints
 62
     0
100
AcDbPoint
 10
63.49999999999999
 20
9.525000000000029
 30
0.0
  0
POINT
  5
10D
330
102
100
AcDbEntity
  8
Defpoints
 62
     0
100
AcDbPoint
 10
63.49999999999999
 20
-9.524999999999965
 30
0.0
  0
POINT
  5
10E
330
102
100
AcDbEntity
  8
Defpoints
 62
     0
100
AcDbPoint
 10
81.57566852986236
 20
-9.524999999999897
 30
0.0
  0
ENDBLK
  5
104
330
102
100
AcDbEntity
  8
0
100
AcDbBlockEnd
  0
BLOCK
  5
11C
330
11B
100
AcDbEntity
  8
0
100
AcDbBlockBegin
  2
SW_DOWELSYMBOL_0
 70
     0
 10
0.0
 20
0.0
 30
0.0
  3
SW_DOWELSYMBOL_0
  1
SW_DOWELSYMBOL_0
  0
CIRCLE
  5
11E
330
11B
100
AcDbEntity
  8
해칭선
 62
     0
100
AcDbCircle
 10
0.0
 20
0.0
 30
0.0
 40
3.000000000000001
  0
HATCH
  5
11F
330
11B
100
AcDbEntity
  8
0
  6
Continuous
 62
     0
370
     0
100
AcDbHatch
 10
0.0
 20
0.0
 30
0.0
210
0.0
220
0.0
230
1.0
  2
SOLID
 70
     1
 71
     0
 91
        1
 92
        0
 93
        3
 72
     2
 10
0.0
 20
0.0
 40
3.000000000000001
 50
0.0
 51
90.0
 73
     1
 72
     1
 10
0.0
 20
3.000000000000001
 11
0.0
 21
0.0
 72
     1
 10
0.0
 20
0.0
 11
3.000000000000001
 21
0.0
 97
        0
 75
     0
 76
     1
 98
        1
 10
0.0
 20
0.0
  0
HATCH
  5
120
330
11B
100
AcDbEntity
  8
0
  6
Continuous
 62
     0
370
     0
100
AcDbHatch
 10
0.0
 20
0.0
 30
0.0
210
0.0
220
0.0
230
1.0
  2
SOLID
 70
     1
 71
     0
 91
        1
 92
        0
 93
        3
 72
     2
 10
0.0
 20
0.0
 40
3.000000000000001
 50
180.0
 51
270.0000000000008
 73
     1
 72
     1
 10
0.0
 20
-3.000000000000001
 11
0.0
 21
0.0
 72
     1
 10
0.0
 20
0.0
 11
-3.000000000000001
 21
0.0
 97
        0
 75
     0
 76
     1
 98
        1
 10
0.0
 20
0.0
  0
ENDBLK
  5
11D
330
11B
100
AcDbEntity
  8
0
100
AcDbBlockEnd
  0
BLOCK
  5
1F1
330
1F0
100
AcDbEntity
  8
0
100
AcDbBlockBegin
  2
*D8
 70
     1
 10
0.0
 20
0.0
 30
0.0
  3
*D8
  1
*D8
  0
LINE
  5
1F3
330
1F0
100
AcDbEntity
  8
0
  6
Continuous
 62
     0
370
    -2
100
AcDbLine
 10
131.105
 20
21.12500000000006
 30
0.0
 11
131.105
 21
26.12392507127614
 31
0.0
  0
LINE
  5
1F4
330
1F0
100
AcDbEntity
  8
0
  6
Continuous
 62
     0
370
    -2
100
AcDbLine
 10
102.53
 20
20.14929666884688
 30
0.0
 11
102.53
 21
26.12392507127614
 31
0.0
  0
LINE
  5
1F5
330
1F0
100
AcDbEntity
  8
0
  6
Continuous
 62
     0
370
    -2
100
AcDbLine
 10
102.53
 20
26.12392507127614
 30
0.0
 11
69.47800000000004
 21
26.12392507127614
 31
0.0
  0
LINE
  5
1F6
330
1F0
100
AcDbEntity
  8
0
  6
Continuous
 62
     0
370
    -2
100
AcDbLine
 10
127.803
 20
26.12392507127614
 30
0.0
 11
105.8320000000001
 21
26.12392507127614
 31
0.0
  0
SOLID
  5
1F7
330
1F0
100
AcDbEntity
  8
0
 62
     0
100
AcDbTrace
 10
127.803
 20
25.57359173794281
 30
0.0
 11
127.803
 21
26.67425840460947
 31
0.0
 12
131.105
 22
26.12392507127614
 32
0.0
 13
131.105
 23
26.12392507127614
 33
0.0
  0
SOLID
  5
1F8
330
1F0
100
AcDbEntity
  8
0
 62
     0
100
AcDbTrace
 10
105.8320000000001
 20
26.67425840460947
 30
0.0
 11
105.8320000000001
 21
25.57359173794281
 31
0.0
 12
102.53
 22
26.12392507127614
 32
0.0
 13
102.53
 23
26.12392507127614
 33
0.0
  0
MTEXT
  5
1F9
330
1F0
100
AcDbEntity
  8
0
 62
     0
370
    15
100
AcDbMText
 10
84.35300000000004
 20
30.49892507127614
 30
0.0
 40
3.5
 41
0.0
 71
     2
 72
     1
  1
\A1;28.58 [1 1/8]
  7
SLDTEXTSTYLE0
 73
     1
 44
1.0
  0
POINT
  5
1FA
330
1F0
100
AcDbEntity
  8
Defpoints
 62
     0
100
AcDbPoint
 10
131.105
 20
21.06250000000006
 30
0.0
  0
POINT
  5
1FB
330
1F0
100
AcDbEntity
  8
Defpoints
 62
     0
100
AcDbPoint
 10
102.53
 20
20.08679666884688
 30
0.0
  0
POINT
  5
1FC
330
1F0
100
AcDbEntity
  8
Defpoints
 62
     0
100
AcDbPoint
 10
102.53
 20
26.12392507127614
 30
0.0
  0
ENDBLK
  5
1F2
330
1F0
100
AcDbEntity
  8
0
100
AcDbBlockEnd
  0
BLOCK
  5
1FE
330
1FD
100
AcDbEntity
  8
0
100
AcDbBlockBegin
  2
*D9
 70
     1
 10
0.0
 20
0.0
 30
0.0
  3
*D9
  1
*D9
  0
LINE
  5
200
330
1FD
100
AcDbEntity
  8
0
  6
Continuous
 62
     0
370
    -2
100
AcDbLine
 10
131.105
 20
21.12500000000006
 30
0.0
 11
131.105
 21
42.41297898817501
 31
0.0
  0
LINE
  5
201
330
1FD
100
AcDbEntity
  8
0
  6
Continuous
 62
     0
370
    -2
100
AcDbLine
 10
16.80500000000005
 20
21.12500000000001
 30
0.0
 11
16.80500000000005
 21
42.41297898817501
 31
0.0
  0
LINE
  5
202
330
1FD
100
AcDbEntity
  8
0
  6
Continuous
 62
     0
370
    -2
100
AcDbLine
 10
127.803
 20
42.41297898817501
 30
0.0
 11
20.10700000000005
 21
42.41297898817501
 31
0.0
  0
SOLID
  5
203
330
1FD
100
AcDbEntity
  8
0
 62
     0
100
AcDbTrace
 10
127.803
 20
41.86264565484167
 30
0.0
 11
127.803
 21
42.96331232150834
 31
0.0
 12
131.105
 22
42.41297898817501
 32
0.0
 13
131.105
 23
42.41297898817501
 33
0.0
  0
SOLID
  5
204
330
1FD
100
AcDbEntity
  8
0
 62
     0
100
AcDbTrace
 10
20.10700000000005
 20
42.96331232150834
 30
0.0
 11
20.10700000000005
 21
41.86264565484167
 31
0.0
 12
16.80500000000005
 22
42.41297898817501
 32
0.0
 13
16.80500000000005
 23
42.41297898817501
 33
0.0
  0
MTEXT
  5
205
330
1FD
100
AcDbEntity
  8
0
 62
     0
370
    15
100
AcDbMText
 10
74.45524820524952
 20
46.78797898817501
 30
0.0
 40
3.5
 41
0.0
 71
     2
 72
     1
  1
\A1;114.3 [4 1/2]
  7
SLDTEXTSTYLE0
 73
     1
 44
1.0
  0
POINT
  5
206
330
1FD
100
AcDbEntity
  8
Defpoints
 62
     0
100
AcDbPoint
 10
131.105
 20
21.06250000000006
 30
0.0
  0
POINT
  5
207
330
1FD
100
AcDbEntity
  8
Defpoints
 62
     0
100
AcDbPoint
 10
16.80500000000005
 20
21.06250000000001
 30
0.0
  0
POINT
  5
208
330
1FD
100
AcDbEntity
  8
Defpoints
 62
     0
100
AcDbPoint
 10
16.80500000000005
 20
42.41297898817501
 30
0.0
  0
ENDBLK
  5
1FF
330
1FD
100
AcDbEntity
  8
0
100
AcDbBlockEnd
  0
BLOCK
  5
20A
330
209
100
AcDbEntity
  8
0
100
AcDbBlockBegin
  2
*D10
 70
     1
 10
0.0
 20
0.0
 30
0.0
  3
*D10
  1
*D10
  0
LINE
  5
20C
330
209
100
AcDbEntity
  8
0
  6
Continuous
 62
     0
370
    -2
100
AcDbLine
 10
48.36783524527799
 20
21.06250000000002
 30
0.0
 11
4.375000000000029
 21
21.06249999999986
 31
0.0
  0
LINE
  5
20D
330
209
100
AcDbEntity
  8
0
  6
Continuous
 62
     0
370
    -2
100
AcDbLine
 10
48.36783524527799
 20
5.18750000000002
 30
0.0
 11
4.375000000000084
 21
5.187499999999853
 31
0.0
  0
LINE
  5
20E
330
209
100
AcDbEntity
  8
0
  6
Continuous
 62
     0
370
    -2
100
AcDbLine
 10
4.375000000000041
 20
17.76049999999986
 30
0.0
 11
4.375000000000073
 21
8.489499999999854
 31
0.0
  0
SOLID
  5
20F
330
209
100
AcDbEntity
  8
0
 62
     0
100
AcDbTrace
 10
4.925333333333374
 20
17.76049999999986
 30
0.0
 11
3.824666666666708
 21
17.76049999999985
 31
0.0
 12
4.375000000000029
 22
21.06249999999986
 32
0.0
 13
4.375000000000029
 23
21.06249999999986
 33
0.0
  0
SOLID
  5
210
330
209
100
AcDbEntity
  8
0
 62
     0
100
AcDbTrace
 10
3.82466666666674
 20
8.489499999999852
 30
0.0
 11
4.925333333333406
 21
8.489499999999856
 31
0.0
 12
4.375000000000084
 22
5.187499999999853
 32
0.0
 13
4.375000000000084
 23
5.187499999999853
 33
0.0
  0
MTEXT
  5
211
330
209
100
AcDbEntity
  8
0
 62
     0
370
    15
100
AcDbMText
 10
0.0000000000000568
 20
13.125
 30
0.0
 40
3.5
 41
0.0
 71
     2
 72
     1
  1
\A1;%%c15.88 [5/8]
  7
SLDTEXTSTYLE0
 11
-3.468791308435135E-15
 21
1.0
 31
0.0
 73
     1
 44
1.0
  0
POINT
  5
212
330
209
100
AcDbEntity
  8
Defpoints
 62
     0
100
AcDbPoint
 10
48.43033524527799
 20
21.06250000000002
 30
0.0
  0
POINT
  5
213
330
209
100
AcDbEntity
  8
Defpoints
 62
     0
100
AcDbPoint
 10
48.43033524527799
 20
5.18750000000002
 30
0.0
  0
POINT
  5
214
330
209
100
AcDbEntity
  8
Defpoints
 62
     0
100
AcDbPoint
 10
4.375000000000085
 20
5.187499999999856
 30
0.0
  0
ENDBLK
  5
20B
330
209
100
AcDbEntity
  8
0
100
AcDbBlockEnd
  0
BLOCK
  5
216
330
215
100
AcDbEntity
  8
0
100
AcDbBlockBegin
  2
*D11
 70
     1
 10
0.0
 20
0.0
 30
0.0
  3
*D11
  1
*D11
  0
LINE
  5
218
330
215
100
AcDbEntity
  8
0
  6
Continuous
 62
     0
370
    -2
100
AcDbLine
 10
131.1675
 20
21.06250000000006
 30
0.0
 11
147.9892876951804
 21
21.06250000000012
 31
0.0
  0
LINE
  5
219
330
215
100
AcDbEntity
  8
0
  6
Continuous
 62
     0
370
    -2
100
AcDbLine
 10
131.1675
 20
5.187500000000054
 30
0.0
 11
147.9892876951805
 21
5.187500000000121
 31
0.0
  0
LINE
  5
21A
330
215
100
AcDbEntity
  8
0
  6
Continuous
 62
     0
370
    -2
100
AcDbLine
 10
147.9892876951804
 20
21.06250000000012
 30
0.0
 11
147.9892876951803
 21
52.36450000000012
 31
0.0
  0
LINE
  5
21B
330
215
100
AcDbEntity
  8
0
  6
Continuous
 62
     0
370
    -2
100
AcDbLine
 10
147.9892876951804
 20
17.76050000000012
 30
0.0
 11
147.9892876951805
 21
8.48950000000012
 31
0.0
  0
SOLID
  5
21C
330
215
100
AcDbEntity
  8
0
 62
     0
100
AcDbTrace
 10
148.5396210285137
 20
17.76050000000012
 30
0.0
 11
147.4389543618471
 21
17.76050000000012
 31
0.0
 12
147.9892876951804
 22
21.06250000000012
 32
0.0
 13
147.9892876951804
 23
21.06250000000012
 33
0.0
  0
SOLID
  5
21D
330
215
100
AcDbEntity
  8
0
 62
     0
100
AcDbTrace
 10
147.4389543618471
 20
8.489500000000119
 30
0.0
 11
148.5396210285138
 21
8.489500000000122
 31
0.0
 12
147.9892876951805
 22
5.187500000000121
 32
0.0
 13
147.9892876951805
 23
5.187500000000121
 33
0.0
  0
MTEXT
  5
21E
330
215
100
AcDbEntity
  8
0
 62
     0
370
    15
100
AcDbMText
 10
143.6142876951803
 20
38.36450000000011
 30
0.0
 40
3.5
 41
0.0
 71
     2
 72
     1
  1
\A1;%%c15.88 [5/8]
  7
SLDTEXTSTYLE0
 11
-3.580687802255622E-15
 21
1.0
 31
0.0
 73
     1
 44
1.0
  0
POINT
  5
21F
330
215
100
AcDbEntity
  8
Defpoints
 62
     0
100
AcDbPoint
 10
131.105
 20
21.06250000000006
 30
0.0
  0
POINT
  5
220
330
215
100
AcDbEntity
  8
Defpoints
 62
     0
100
AcDbPoint
 10
131.105
 20
5.187500000000054
 30
0.0
  0
POINT
  5
221
330
215
100
AcDbEntity
  8
Defpoints
 62
     0
100
AcDbPoint
 10
147.9892876951805
 20
5.187500000000117
 30
0.0
  0
ENDBLK
  5
217
330
215
100
AcDbEntity
  8
0
100
AcDbBlockEnd
  0
BLOCK
  5
269
330
268
100
AcDbEntity
  8
0
100
AcDbBlockBegin
  2
*D12
 70
     1
 10
0.0
 20
0.0
 30
0.0
  3
*D12
  1
*D12
  0
LINE
  5
26B
330
268
100
AcDbEntity
  8
0
  6
Continuous
 62
     0
370
    -2
100
AcDbLine
 10
215.6795550461028
 20
-29.86145283182421
 30
0.0
 11
215.6795550461028
 21
-24.86252776054813
 31
0.0
  0
LINE
  5
26C
330
268
100
AcDbEntity
  8
0
  6
Continuous
 62
     0
370
    -2
100
AcDbLine
 10
187.1045550461029
 20
-30.83715616297738
 30
0.0
 11
187.1045550461029
 21
-24.86252776054813
 31
0.0
  0
LINE
  5
26D
330
268
100
AcDbEntity
  8
0
  6
Continuous
 62
     0
370
    -2
100
AcDbLine
 10
187.1045550461029
 20
-24.86252776054813
 30
0.0
 11
154.0525550461029
 21
-24.86252776054813
 31
0.0
  0
LINE
  5
26E
330
268
100
AcDbEntity
  8
0
  6
Continuous
 62
     0
370
    -2
100
AcDbLine
 10
212.3775550461029
 20
-24.86252776054813
 30
0.0
 11
190.4065550461029
 21
-24.86252776054813
 31
0.0
  0
SOLID
  5
26F
330
268
100
AcDbEntity
  8
0
 62
     0
100
AcDbTrace
 10
212.3775550461029
 20
-25.41286109388146
 30
0.0
 11
212.3775550461029
 21
-24.31219442721479
 31
0.0
 12
215.6795550461028
 22
-24.86252776054813
 32
0.0
 13
215.6795550461028
 23
-24.86252776054813
 33
0.0
  0
SOLID
  5
270
330
268
100
AcDbEntity
  8
0
 62
     0
100
AcDbTrace
 10
190.4065550461029
 20
-24.31219442721479
 30
0.0
 11
190.4065550461029
 21
-25.41286109388146
 31
0.0
 12
187.1045550461029
 22
-24.86252776054813
 32
0.0
 13
187.1045550461029
 23
-24.86252776054813
 33
0.0
  0
MTEXT
  5
271
330
268
100
AcDbEntity
  8
0
 62
     0
370
    15
100
AcDbMText
 10
168.9275550461029
 20
-20.48752776054813
 30
0.0
 40
3.5
 41
0.0
 71
     2
 72
     1
  1
\A1;28.58 [1 1/8]
  7
SLDTEXTSTYLE0
 73
     1
 44
1.0
  0
POINT
  5
272
330
268
100
AcDbEntity
  8
Defpoints
 62
     0
100
AcDbPoint
 10
215.6795550461028
 20
-29.92395283182421
 30
0.0
  0
POINT
  5
273
330
268
100
AcDbEntity
  8
Defpoints
 62
     0
100
AcDbPoint
 10
187.1045550461029
 20
-30.89965616297738
 30
0.0
  0
POINT
  5
274
330
268
100
AcDbEntity
  8
Defpoints
 62
     0
100
AcDbPoint
 10
187.1045550461029
 20
-24.86252776054813
 30
0.0
  0
ENDBLK
  5
26A
330
268
100
AcDbEntity
  8
0
100
AcDbBlockEnd
  0
BLOCK
  5
276
330
275
100
AcDbEntity
  8
0
100
AcDbBlockBegin
  2
*D13
 70
     1
 10
0.0
 20
0.0
 30
0.0
  3
*D13
  1
*D13
  0
LINE
  5
278
330
275
100
AcDbEntity
  8
0
  6
Continuous
 62
     0
370
    -2
100
AcDbLine
 10
215.6795550461028
 20
-29.86145283182421
 30
0.0
 11
215.6795550461028
 21
-8.57347384364926
 31
0.0
  0
LINE
  5
279
330
275
100
AcDbEntity
  8
0
  6
Continuous
 62
     0
370
    -2
100
AcDbLine
 10
101.3795550461029
 20
-29.86145283182426
 30
0.0
 11
101.3795550461029
 21
-8.57347384364926
 31
0.0
  0
LINE
  5
27A
330
275
100
AcDbEntity
  8
0
  6
Continuous
 62
     0
370
    -2
100
AcDbLine
 10
212.3775550461029
 20
-8.57347384364926
 30
0.0
 11
104.6815550461029
 21
-8.57347384364926
 31
0.0
  0
SOLID
  5
27B
330
275
100
AcDbEntity
  8
0
 62
     0
100
AcDbTrace
 10
212.3775550461029
 20
-9.123807176982593
 30
0.0
 11
212.3775550461029
 21
-8.023140510315928
 31
0.0
 12
215.6795550461028
 22
-8.57347384364926
 32
0.0
 13
215.6795550461028
 23
-8.57347384364926
 33
0.0
  0
SOLID
  5
27C
330
275
100
AcDbEntity
  8
0
 62
     0
100
AcDbTrace
 10
104.6815550461029
 20
-8.023140510315928
 30
0.0
 11
104.6815550461029
 21
-9.123807176982593
 31
0.0
 12
101.3795550461029
 22
-8.57347384364926
 32
0.0
 13
101.3795550461029
 23
-8.57347384364926
 33
0.0
  0
MTEXT
  5
27D
330
275
100
AcDbEntity
  8
0
 62
     0
370
    15
100
AcDbMText
 10
159.0298032513523
 20
-4.198473843649261
 30
0.0
 40
3.5
 41
0.0
 71
     2
 72
     1
  1
\A1;114.3 [4 1/2]
  7
SLDTEXTSTYLE0
 73
     1
 44
1.0
  0
POINT
  5
27E
330
275
100
AcDbEntity
  8
Defpoints
 62
     0
100
AcDbPoint
 10
215.6795550461028
 20
-29.92395283182421
 30
0.0
  0
POINT
  5
27F
330
275
100
AcDbEntity
  8
Defpoints
 62
     0
100
AcDbPoint
 10
101.3795550461029
 20
-29.92395283182426
 30
0.0
  0
POINT
  5
280
330
275
100
AcDbEntity
  8
Defpoints
 62
     0
100
AcDbPoint
 10
101.3795550461029
 20
-8.57347384364926
 30
0.0
  0
ENDBLK
  5
277
330
275
100
AcDbEntity
  8
0
100
AcDbBlockEnd
  0
BLOCK
  5
282
330
281
100
AcDbEntity
  8
0
100
AcDbBlockBegin
  2
*D14
 70
     1
 10
0.0
 20
0.0
 30
0.0
  3
*D14
  1
*D14
  0
LINE
  5
284
330
281
100
AcDbEntity
  8
0
  6
Continuous
 62
     0
370
    -2
100
AcDbLine
 10
132.9423902913808
 20
-29.92395283182424
 30
0.0
 11
88.94955504610287
 21
-29.92395283182441
 31
0.0
  0
LINE
  5
285
330
281
100
AcDbEntity
  8
0
  6
Continuous
 62
     0
370
    -2
100
AcDbLine
 10
132.9423902913808
 20
-45.79895283182424
 30
0.0
 11
88.94955504610293
 21
-45.79895283182441
 31
0.0
  0
LINE
  5
286
330
281
100
AcDbEntity
  8
0
  6
Continuous
 62
     0
370
    -2
100
AcDbLine
 10
88.94955504610289
 20
-33.22595283182441
 30
0.0
 11
88.94955504610292
 21
-42.49695283182441
 31
0.0
  0
SOLID
  5
287
330
281
100
AcDbEntity
  8
0
 62
     0
100
AcDbTrace
 10
89.49988837943621
 20
-33.22595283182441
 30
0.0
 11
88.39922171276956
 21
-33.22595283182441
 31
0.0
 12
88.94955504610287
 22
-29.92395283182441
 32
0.0
 13
88.94955504610287
 23
-29.92395283182441
 33
0.0
  0
SOLID
  5
288
330
281
100
AcDbEntity
  8
0
 62
     0
100
AcDbTrace
 10
88.39922171276959
 20
-42.49695283182441
 30
0.0
 11
89.49988837943624
 21
-42.49695283182441
 31
0.0
 12
88.94955504610293
 22
-45.79895283182441
 32
0.0
 13
88.94955504610293
 23
-45.79895283182441
 33
0.0
  0
MTEXT
  5
289
330
281
100
AcDbEntity
  8
0
 62
     0
370
    15
100
AcDbMText
 10
84.5745550461029
 20
-37.86145283182427
 30
0.0
 40
3.5
 41
0.0
 71
     2
 72
     1
  1
\A1;%%c15.88 [5/8]
  7
SLDTEXTSTYLE0
 11
-3.580687802255623E-15
 21
1.0
 31
0.0
 73
     1
 44
1.0
  0
POINT
  5
28A
330
281
100
AcDbEntity
  8
Defpoints
 62
     0
100
AcDbPoint
 10
133.0048902913808
 20
-29.92395283182424
 30
0.0
  0
POINT
  5
28B
330
281
100
AcDbEntity
  8
Defpoints
 62
     0
100
AcDbPoint
 10
133.0048902913808
 20
-45.79895283182424
 30
0.0
  0
POINT
  5
28C
330
281
100
AcDbEntity
  8
Defpoints
 62
     0
100
AcDbPoint
 10
88.94955504610293
 20
-45.79895283182441
 30
0.0
  0
ENDBLK
  5
283
330
281
100
AcDbEntity
  8
0
100
AcDbBlockEnd
  0
BLOCK
  5
28E
330
28D
100
AcDbEntity
  8
0
100
AcDbBlockBegin
  2
*D15
 70
     1
 10
0.0
 20
0.0
 30
0.0
  3
*D15
  1
*D15
  0
LINE
  5
290
330
28D
100
AcDbEntity
  8
0
  6
Continuous
 62
     0
370
    -2
100
AcDbLine
 10
215.7420550461028
 20
-29.92395283182421
 30
0.0
 11
232.5638427412832
 21
-29.92395283182415
 31
0.0
  0
LINE
  5
291
330
28D
100
AcDbEntity
  8
0
  6
Continuous
 62
     0
370
    -2
100
AcDbLine
 10
215.7420550461028
 20
-45.79895283182421
 30
0.0
 11
232.5638427412833
 21
-45.79895283182415
 31
0.0
  0
LINE
  5
292
330
28D
100
AcDbEntity
  8
0
  6
Continuous
 62
     0
370
    -2
100
AcDbLine
 10
232.5638427412832
 20
-29.92395283182415
 30
0.0
 11
232.5638427412831
 21
1.378047168175854
 31
0.0
  0
LINE
  5
293
330
28D
100
AcDbEntity
  8
0
  6
Continuous
 62
     0
370
    -2
100
AcDbLine
 10
232.5638427412832
 20
-33.22595283182415
 30
0.0
 11
232.5638427412833
 21
-42.49695283182415
 31
0.0
  0
SOLID
  5
294
330
28D
100
AcDbEntity
  8
0
 62
     0
100
AcDbTrace
 10
233.1141760746166
 20
-33.22595283182415
 30
0.0
 11
232.0135094079499
 21
-33.22595283182415
 31
0.0
 12
232.5638427412832
 22
-29.92395283182415
 32
0.0
 13
232.5638427412832
 23
-29.92395283182415
 33
0.0
  0
SOLID
  5
295
330
28D
100
AcDbEntity
  8
0
 62
     0
100
AcDbTrace
 10
232.01350940795
 20
-42.49695283182415
 30
0.0
 11
233.1141760746166
 21
-42.49695283182415
 31
0.0
 12
232.5638427412833
 22
-45.79895283182415
 32
0.0
 13
232.5638427412833
 23
-45.79895283182415
 33
0.0
  0
MTEXT
  5
296
330
28D
100
AcDbEntity
  8
0
 62
     0
370
    15
100
AcDbMText
 10
228.1888427412832
 20
-12.62195283182416
 30
0.0
 40
3.5
 41
0.0
 71
     2
 72
     1
  1
\A1;%%c15.88 [5/8]
  7
SLDTEXTSTYLE0
 11
-3.580687802255623E-15
 21
1.0
 31
0.0
 73
     1
 44
1.0
  0
POINT
  5
297
330
28D
100
AcDbEntity
  8
Defpoints
 62
     0
100
AcDbPoint
 10
215.6795550461028
 20
-29.92395283182421
 30
0.0
  0
POINT
  5
298
330
28D
100
AcDbEntity
  8
Defpoints
 62
     0
100
AcDbPoint
 10
215.6795550461028
 20
-45.79895283182421
 30
0.0
  0
POINT
  5
299
330
28D
100
AcDbEntity
  8
Defpoints
 62
     0
100
AcDbPoint
 10
232.5638427412833
 20
-45.79895283182415
 30
0.0
  0
ENDBLK
  5
28F
330
28D
100
AcDbEntity
  8
0
100
AcDbBlockEnd
  0
BLOCK
  5
324
330
323
100
AcDbEntity
  8
0
100
AcDbBlockBegin
  2
*D17
 70
     1
 10
0.0
 20
0.0
 30
0.0
  3
*D17
  1
*D17
  0
LINE
  5
326
330
323
100
AcDbEntity
  8
0
  6
Continuous
 62
     0
370
    -2
100
AcDbLine
 10
143.805
 20
22.49375000000006
 30
0.0
 11
143.805
 21
28.50528742084736
 31
0.0
  0
LINE
  5
327
330
323
100
AcDbEntity
  8
0
  6
Continuous
 62
     0
370
    -2
100
AcDbLine
 10
110.4675000000001
 20
21.0449667180774
 30
0.0
 11
110.4675000000001
 21
28.50528742084736
 31
0.0
  0
LINE
  5
328
330
323
100
AcDbEntity
  8
0
  6
Continuous
 62
     0
370
    -2
100
AcDbLine
 10
110.4675000000001
 20
28.50528742084736
 30
0.0
 11
74.79050000000007
 21
28.50528742084736
 31
0.0
  0
LINE
  5
329
330
323
100
AcDbEntity
  8
0
  6
Continuous
 62
     0
370
    -2
100
AcDbLine
 10
140.503
 20
28.50528742084736
 30
0.0
 11
113.7695000000001
 21
28.50528742084736
 31
0.0
  0
SOLID
  5
32A
330
323
100
AcDbEntity
  8
0
 62
     0
100
AcDbTrace
 10
140.503
 20
27.95495408751403
 30
0.0
 11
140.503
 21
29.05562075418069
 31
0.0
 12
143.805
 22
28.50528742084736
 32
0.0
 13
143.805
 23
28.50528742084736
 33
0.0
  0
SOLID
  5
32B
330
323
100
AcDbEntity
  8
0
 62
     0
100
AcDbTrace
 10
113.7695000000001
 20
29.05562075418069
 30
0.0
 11
113.7695000000001
 21
27.95495408751403
 31
0.0
 12
110.4675000000001
 22
28.50528742084736
 32
0.0
 13
110.4675000000001
 23
28.50528742084736
 33
0.0
  0
MTEXT
  5
32C
330
323
100
AcDbEntity
  8
0
 62
     0
370
    15
100
AcDbMText
 10
90.97800000000007
 20
32.88028742084736
 30
0.0
 40
3.5
 41
0.0
 71
     2
 72
     1
  1
\A1;33.34 [1 5/16]
  7
SLDTEXTSTYLE0
 73
     1
 44
1.0
  0
POINT
  5
32D
330
323
100
AcDbEntity
  8
Defpoints
 62
     0
100
AcDbPoint
 10
143.805
 20
22.43125000000006
 30
0.0
  0
POINT
  5
32E
330
323
100
AcDbEntity
  8
Defpoints
 62
     0
100
AcDbPoint
 10
110.4675000000001
 20
20.9824667180774
 30
0.0
  0
POINT
  5
32F
330
323
100
AcDbEntity
  8
Defpoints
 62
     0
100
AcDbPoint
 10
110.4675000000001
 20
28.50528742084736
 30
0.0
  0
ENDBLK
  5
325
330
323
100
AcDbEntity
  8
0
100
AcDbBlockEnd
  0
BLOCK
  5
331
330
330
100
AcDbEntity
  8
0
100
AcDbBlockBegin
  2
*D18
 70
     1
 10
0.0
 20
0.0
 30
0.0
  3
*D18
  1
*D18
  0
LINE
  5
333
330
330
100
AcDbEntity
  8
0
  6
Continuous
 62
     0
370
    -2
100
AcDbLine
 10
143.805
 20
22.49375000000006
 30
0.0
 11
143.805
 21
42.19422898817501
 31
0.0
  0
LINE
  5
334
330
330
100
AcDbEntity
  8
0
  6
Continuous
 62
     0
370
    -2
100
AcDbLine
 10
16.80500000000008
 20
21.49375
 30
0.0
 11
16.80500000000008
 21
42.19422898817501
 31
0.0
  0
LINE
  5
335
330
330
100
AcDbEntity
  8
0
  6
Continuous
 62
     0
370
    -2
100
AcDbLine
 10
140.503
 20
42.19422898817501
 30
0.0
 11
20.10700000000008
 21
42.19422898817501
 31
0.0
  0
SOLID
  5
336
330
330
100
AcDbEntity
  8
0
 62
     0
100
AcDbTrace
 10
140.503
 20
41.64389565484167
 30
0.0
 11
140.503
 21
42.74456232150834
 31
0.0
 12
143.805
 22
42.19422898817501
 32
0.0
 13
143.805
 23
42.19422898817501
 33
0.0
  0
SOLID
  5
337
330
330
100
AcDbEntity
  8
0
 62
     0
100
AcDbTrace
 10
20.10700000000008
 20
42.74456232150834
 30
0.0
 11
20.10700000000008
 21
41.64389565484167
 31
0.0
 12
16.80500000000008
 22
42.19422898817501
 32
0.0
 13
16.80500000000008
 23
42.19422898817501
 33
0.0
  0
MTEXT
  5
338
330
330
100
AcDbEntity
  8
0
 62
     0
370
    15
100
AcDbMText
 10
80.86083133916614
 20
46.56922898817501
 30
0.0
 40
3.5
 41
0.0
 71
     2
 72
     1
  1
\A1;127 [5]
  7
SLDTEXTSTYLE0
 73
     1
 44
1.0
  0
POINT
  5
339
330
330
100
AcDbEntity
  8
Defpoints
 62
     0
100
AcDbPoint
 10
143.805
 20
22.43125000000006
 30
0.0
  0
POINT
  5
33A
330
330
100
AcDbEntity
  8
Defpoints
 62
     0
100
AcDbPoint
 10
16.80500000000008
 20
21.43125
 30
0.0
  0
POINT
  5
33B
330
330
100
AcDbEntity
  8
Defpoints
 62
     0
100
AcDbPoint
 10
16.80500000000008
 20
42.19422898817501
 30
0.0
  0
ENDBLK
  5
332
330
330
100
AcDbEntity
  8
0
100
AcDbBlockEnd
  0
BLOCK
  5
33D
330
33C
100
AcDbEntity
  8
0
100
AcDbBlockBegin
  2
*D19
 70
     1
 10
0.0
 20
0.0
 30
0.0
  3
*D19
  1
*D19
  0
LINE
  5
33F
330
33C
100
AcDbEntity
  8
0
  6
Continuous
 62
     0
370
    -2
100
AcDbLine
 10
17.74250000000005
 20
22.43125000000001
 30
0.0
 11
4.375000000000024
 21
22.43124999999996
 31
0.0
  0
LINE
  5
340
330
33C
100
AcDbEntity
  8
0
  6
Continuous
 62
     0
370
    -2
100
AcDbLine
 10
17.74250000000005
 20
3.381250000000022
 30
0.0
 11
4.375000000000091
 21
3.381249999999973
 31
0.0
  0
LINE
  5
341
330
33C
100
AcDbEntity
  8
0
  6
Continuous
 62
     0
370
    -2
100
AcDbLine
 10
4.375000000000036
 20
19.12924999999996
 30
0.0
 11
4.375000000000079
 21
6.683249999999973
 31
0.0
  0
SOLID
  5
342
330
33C
100
AcDbEntity
  8
0
 62
     0
100
AcDbTrace
 10
4.925333333333369
 20
19.12924999999996
 30
0.0
 11
3.824666666666702
 21
19.12924999999995
 31
0.0
 12
4.375000000000024
 22
22.43124999999996
 32
0.0
 13
4.375000000000024
 23
22.43124999999996
 33
0.0
  0
SOLID
  5
343
330
33C
100
AcDbEntity
  8
0
 62
     0
100
AcDbTrace
 10
3.824666666666746
 20
6.683249999999971
 30
0.0
 11
4.925333333333413
 21
6.683249999999974
 31
0.0
 12
4.375000000000091
 22
3.381249999999973
 32
0.0
 13
4.375000000000091
 23
3.381249999999973
 33
0.0
  0
MTEXT
  5
344
330
33C
100
AcDbEntity
  8
0
 62
     0
370
    15
100
AcDbMText
 10
0.0000000000000568
 20
12.90624999999999
 30
0.0
 40
3.5
 41
0.0
 71
     2
 72
     1
  1
\A1;%%c19.05 [3/4]
  7
SLDTEXTSTYLE0
 11
-3.496765431890260E-15
 21
1.0
 31
0.0
 73
     1
 44
1.0
  0
POINT
  5
345
330
33C
100
AcDbEntity
  8
Defpoints
 62
     0
100
AcDbPoint
 10
17.80500000000005
 20
22.43125000000001
 30
0.0
  0
POINT
  5
346
330
33C
100
AcDbEntity
  8
Defpoints
 62
     0
100
AcDbPoint
 10
17.80500000000005
 20
3.381250000000023
 30
0.0
  0
POINT
  5
347
330
33C
100
AcDbEntity
  8
Defpoints
 62
     0
100
AcDbPoint
 10
4.375000000000099
 20
3.381249999999973
 30
0.0
  0
ENDBLK
  5
33E
330
33C
100
AcDbEntity
  8
0
100
AcDbBlockEnd
  0
BLOCK
  5
349
330
348
100
AcDbEntity
  8
0
100
AcDbBlockBegin
  2
*D20
 70
     1
 10
0.0
 20
0.0
 30
0.0
  3
*D20
  1
*D20
  0
LINE
  5
34B
330
348
100
AcDbEntity
  8
0
  6
Continuous
 62
     0
370
    -2
100
AcDbLine
 10
143.8675000000001
 20
22.43125000000006
 30
0.0
 11
161.8806685298624
 21
22.43125000000013
 31
0.0
  0
LINE
  5
34C
330
348
100
AcDbEntity
  8
0
  6
Continuous
 62
     0
370
    -2
100
AcDbLine
 10
143.8675000000001
 20
3.381250000000065
 30
0.0
 11
161.8806685298624
 21
3.381250000000129
 31
0.0
  0
LINE
  5
34D
330
348
100
AcDbEntity
  8
0
  6
Continuous
 62
     0
370
    -2
100
AcDbLine
 10
161.8806685298624
 20
22.43125000000013
 30
0.0
 11
161.8806685298623
 21
53.29575000000013
 31
0.0
  0
LINE
  5
34E
330
348
100
AcDbEntity
  8
0
  6
Continuous
 62
     0
370
    -2
100
AcDbLine
 10
161.8806685298624
 20
19.12925000000013
 30
0.0
 11
161.8806685298624
 21
6.683250000000129
 31
0.0
  0
SOLID
  5
34F
330
348
100
AcDbEntity
  8
0
 62
     0
100
AcDbTrace
 10
162.4310018631957
 20
19.12925000000013
 30
0.0
 11
161.330335196529
 21
19.12925000000013
 31
0.0
 12
161.8806685298624
 22
22.43125000000013
 32
0.0
 13
161.8806685298624
 23
22.43125000000013
 33
0.0
  0
SOLID
  5
350
330
348
100
AcDbEntity
  8
0
 62
     0
100
AcDbTrace
 10
161.3303351965291
 20
6.683250000000127
 30
0.0
 11
162.4310018631957
 21
6.683250000000131
 31
0.0
 12
161.8806685298624
 22
3.381250000000129
 32
0.0
 13
161.8806685298624
 23
3.381250000000129
 33
0.0
  0
MTEXT
  5
351
330
348
100
AcDbEntity
  8
0
 62
     0
370
    15
100
AcDbMText
 10
157.5056685298623
 20
39.51450000000011
 30
0.0
 40
3.5
 41
0.0
 71
     2
 72
     1
  1
\A1;%%c19.05 [3/4]
  7
SLDTEXTSTYLE0
 11
-2.983906501879687E-15
 21
1.0
 31
0.0
 73
     1
 44
1.0
  0
POINT
  5
352
330
348
100
AcDbEntity
  8
Defpoints
 62
     0
100
AcDbPoint
 10
143.8050000000001
 20
22.43125000000006
 30
0.0
  0
POINT
  5
353
330
348
100
AcDbEntity
  8
Defpoints
 62
     0
100
AcDbPoint
 10
143.8050000000001
 20
3.381250000000065
 30
0.0
  0
POINT
  5
354
330
348
100
AcDbEntity
  8
Defpoints
 62
     0
100
AcDbPoint
 10
161.8806685298624
 20
3.381250000000133
 30
0.0
  0
ENDBLK
  5
34A
330
348
100
AcDbEntity
  8
0
100
AcDbBlockEnd
  0
BLOCK
  5
37C
330
37B
100
AcDbEntity
  8
0
100
AcDbBlockBegin
  2
*D21
 70
     1
 10
0.0
 20
0.0
 30
0.0
  3
*D21
  1
*D21
  0
LINE
  5
37E
330
37B
100
AcDbEntity
  8
0
  6
Continuous
 62
     0
370
    -2
100
AcDbLine
 10
266.1432876570352
 20
-1.66844344798081
 30
0.0
 11
266.1432876570352
 21
4.343093972866491
 31
0.0
  0
LINE
  5
37F
330
37B
100
AcDbEntity
  8
0
  6
Continuous
 62
     0
370
    -2
100
AcDbLine
 10
232.8057876570353
 20
-3.117226729903471
 30
0.0
 11
232.8057876570353
 21
4.343093972866491
 31
0.0
  0
LINE
  5
380
330
37B
100
AcDbEntity
  8
0
  6
Continuous
 62
     0
370
    -2
100
AcDbLine
 10
232.8057876570353
 20
4.343093972866491
 30
0.0
 11
197.1287876570353
 21
4.343093972866491
 31
0.0
  0
LINE
  5
381
330
37B
100
AcDbEntity
  8
0
  6
Continuous
 62
     0
370
    -2
100
AcDbLine
 10
262.8412876570352
 20
4.343093972866491
 30
0.0
 11
236.1077876570353
 21
4.343093972866491
 31
0.0
  0
SOLID
  5
382
330
37B
100
AcDbEntity
  8
0
 62
     0
100
AcDbTrace
 10
262.8412876570352
 20
3.792760639533158
 30
0.0
 11
262.8412876570352
 21
4.893427306199825
 31
0.0
 12
266.1432876570352
 22
4.343093972866491
 32
0.0
 13
266.1432876570352
 23
4.343093972866491
 33
0.0
  0
SOLID
  5
383
330
37B
100
AcDbEntity
  8
0
 62
     0
100
AcDbTrace
 10
236.1077876570353
 20
4.893427306199825
 30
0.0
 11
236.1077876570353
 21
3.792760639533158
 31
0.0
 12
232.8057876570353
 22
4.343093972866491
 32
0.0
 13
232.8057876570353
 23
4.343093972866491
 33
0.0
  0
MTEXT
  5
384
330
37B
100
AcDbEntity
  8
0
 62
     0
370
    15
100
AcDbMText
 10
213.3162876570353
 20
8.718093972866491
 30
0.0
 40
3.5
 41
0.0
 71
     2
 72
     1
  1
\A1;33.34 [1 5/16]
  7
SLDTEXTSTYLE0
 73
     1
 44
1.0
  0
POINT
  5
385
330
37B
100
AcDbEntity
  8
Defpoints
 62
     0
100
AcDbPoint
 10
266.1432876570352
 20
-1.73094344798081
 30
0.0
  0
POINT
  5
386
330
37B
100
AcDbEntity
  8
Defpoints
 62
     0
100
AcDbPoint
 10
232.8057876570353
 20
-3.179726729903471
 30
0.0
  0
POINT
  5
387
330
37B
100
AcDbEntity
  8
Defpoints
 62
     0
100
AcDbPoint
 10
232.8057876570353
 20
4.343093972866491
 30
0.0
  0
ENDBLK
  5
37D
330
37B
100
AcDbEntity
  8
0
100
AcDbBlockEnd
  0
BLOCK
  5
389
330
388
100
AcDbEntity
  8
0
100
AcDbBlockBegin
  2
*D22
 70
     1
 10
0.0
 20
0.0
 30
0.0
  3
*D22
  1
*D22
  0
LINE
  5
38B
330
388
100
AcDbEntity
  8
0
  6
Continuous
 62
     0
370
    -2
100
AcDbLine
 10
266.1432876570352
 20
-1.66844344798081
 30
0.0
 11
266.1432876570352
 21
18.03203554019414
 31
0.0
  0
LINE
  5
38C
330
388
100
AcDbEntity
  8
0
  6
Continuous
 62
     0
370
    -2
100
AcDbLine
 10
139.1432876570353
 20
-2.668443447980867
 30
0.0
 11
139.1432876570353
 21
18.03203554019414
 31
0.0
  0
LINE
  5
38D
330
388
100
AcDbEntity
  8
0
  6
Continuous
 62
     0
370
    -2
100
AcDbLine
 10
262.8412876570352
 20
18.03203554019414
 30
0.0
 11
142.4452876570353
 21
18.03203554019414
 31
0.0
  0
SOLID
  5
38E
330
388
100
AcDbEntity
  8
0
 62
     0
100
AcDbTrace
 10
262.8412876570352
 20
17.4817022068608
 30
0.0
 11
262.8412876570352
 21
18.58236887352747
 31
0.0
 12
266.1432876570352
 22
18.03203554019414
 32
0.0
 13
266.1432876570352
 23
18.03203554019414
 33
0.0
  0
SOLID
  5
38F
330
388
100
AcDbEntity
  8
0
 62
     0
100
AcDbTrace
 10
142.4452876570353
 20
18.58236887352747
 30
0.0
 11
142.4452876570353
 21
17.4817022068608
 31
0.0
 12
139.1432876570353
 22
18.03203554019414
 32
0.0
 13
139.1432876570353
 23
18.03203554019414
 33
0.0
  0
MTEXT
  5
390
330
388
100
AcDbEntity
  8
0
 62
     0
370
    15
100
AcDbMText
 10
203.1991189962014
 20
22.40703554019414
 30
0.0
 40
3.5
 41
0.0
 71
     2
 72
     1
  1
\A1;127 [5]
  7
SLDTEXTSTYLE0
 73
     1
 44
1.0
  0
POINT
  5
391
330
388
100
AcDbEntity
  8
Defpoints
 62
     0
100
AcDbPoint
 10
266.1432876570352
 20
-1.73094344798081
 30
0.0
  0
POINT
  5
392
330
388
100
AcDbEntity
  8
Defpoints
 62
     0
100
AcDbPoint
 10
139.1432876570353
 20
-2.730943447980867
 30
0.0
  0
POINT
  5
393
330
388
100
AcDbEntity
  8
Defpoints
 62
     0
100
AcDbPoint
 10
139.1432876570353
 20
18.03203554019414
 30
0.0
  0
ENDBLK
  5
38A
330
388
100
AcDbEntity
  8
0
100
AcDbBlockEnd
  0
BLOCK
  5
395
330
394
100
AcDbEntity
  8
0
100
AcDbBlockBegin
  2
*D23
 70
     1
 10
0.0
 20
0.0
 30
0.0
  3
*D23
  1
*D23
  0
LINE
  5
397
330
394
100
AcDbEntity
  8
0
  6
Continuous
 62
     0
370
    -2
100
AcDbLine
 10
140.0807876570353
 20
-1.730943447980863
 30
0.0
 11
126.7132876570353
 21
-1.730943447980913
 31
0.0
  0
LINE
  5
398
330
394
100
AcDbEntity
  8
0
  6
Continuous
 62
     0
370
    -2
100
AcDbLine
 10
140.0807876570353
 20
-20.78094344798085
 30
0.0
 11
126.7132876570353
 21
-20.7809434479809
 31
0.0
  0
LINE
  5
399
330
394
100
AcDbEntity
  8
0
  6
Continuous
 62
     0
370
    -2
100
AcDbLine
 10
126.7132876570353
 20
-5.032943447980912
 30
0.0
 11
126.7132876570353
 21
-17.4789434479809
 31
0.0
  0
SOLID
  5
39A
330
394
100
AcDbEntity
  8
0
 62
     0
100
AcDbTrace
 10
127.2636209903686
 20
-5.032943447980911
 30
0.0
 11
126.162954323702
 21
-5.032943447980914
 31
0.0
 12
126.7132876570353
 22
-1.730943447980913
 32
0.0
 13
126.7132876570353
 23
-1.730943447980913
 33
0.0
  0
SOLID
  5
39B
330
394
100
AcDbEntity
  8
0
 62
     0
100
AcDbTrace
 10
126.162954323702
 20
-17.4789434479809
 30
0.0
 11
127.2636209903687
 21
-17.47894344798089
 31
0.0
 12
126.7132876570353
 22
-20.7809434479809
 32
0.0
 13
126.7132876570353
 23
-20.7809434479809
 33
0.0
  0
MTEXT
  5
39C
330
394
100
AcDbEntity
  8
0
 62
     0
370
    15
100
AcDbMText
 10
122.3382876570353
 20
-11.25594344798088
 30
0.0
 40
3.5
 41
0.0
 71
     2
 72
     1
  1
\A1;%%c19.05 [3/4]
  7
SLDTEXTSTYLE0
 11
-3.729883127349610E-15
 21
1.0
 31
0.0
 73
     1
 44
1.0
  0
POINT
  5
39D
330
394
100
AcDbEntity
  8
Defpoints
 62
     0
100
AcDbPoint
 10
140.1432876570353
 20
-1.730943447980863
 30
0.0
  0
POINT
  5
39E
330
394
100
AcDbEntity
  8
Defpoints
 62
     0
100
AcDbPoint
 10
140.1432876570353
 20
-20.78094344798085
 30
0.0
  0
POINT
  5
39F
330
394
100
AcDbEntity
  8
Defpoints
 62
     0
100
AcDbPoint
 10
126.7132876570353
 20
-20.7809434479809
 30
0.0
  0
ENDBLK
  5
396
330
394
100
AcDbEntity
  8
0
100
AcDbBlockEnd
  0
BLOCK
  5
3A1
330
3A0
100
AcDbEntity
  8
0
100
AcDbBlockBegin
  2
*D24
 70
     1
 10
0.0
 20
0.0
 30
0.0
  3
*D24
  1
*D24
  0
LINE
  5
3A3
330
3A0
100
AcDbEntity
  8
0
  6
Continuous
 62
     0
370
    -2
100
AcDbLine
 10
266.2057876570353
 20
-1.730943447980809
 30
0.0
 11
284.2189561868976
 21
-1.730943447980742
 31
0.0
  0
LINE
  5
3A4
330
3A0
100
AcDbEntity
  8
0
  6
Continuous
 62
     0
370
    -2
100
AcDbLine
 10
266.2057876570353
 20
-20.7809434479808
 30
0.0
 11
284.2189561868977
 21
-20.78094344798074
 31
0.0
  0
LINE
  5
3A5
330
3A0
100
AcDbEntity
  8
0
  6
Continuous
 62
     0
370
    -2
100
AcDbLine
 10
284.2189561868976
 20
-1.730943447980742
 30
0.0
 11
284.2189561868975
 21
29.13355655201926
 31
0.0
  0
LINE
  5
3A6
330
3A0
100
AcDbEntity
  8
0
  6
Continuous
 62
     0
370
    -2
100
AcDbLine
 10
284.2189561868976
 20
-5.032943447980742
 30
0.0
 11
284.2189561868977
 21
-17.47894344798074
 31
0.0
  0
SOLID
  5
3A7
330
3A0
100
AcDbEntity
  8
0
 62
     0
100
AcDbTrace
 10
284.769289520231
 20
-5.03294344798074
 30
0.0
 11
283.6686228535643
 21
-5.032943447980744
 31
0.0
 12
284.2189561868976
 22
-1.730943447980742
 32
0.0
 13
284.2189561868976
 23
-1.730943447980742
 33
0.0
  0
SOLID
  5
3A8
330
3A0
100
AcDbEntity
  8
0
 62
     0
100
AcDbTrace
 10
283.6686228535643
 20
-17.47894344798074
 30
0.0
 11
284.769289520231
 21
-17.47894344798074
 31
0.0
 12
284.2189561868977
 22
-20.78094344798074
 32
0.0
 13
284.2189561868977
 23
-20.78094344798074
 33
0.0
  0
MTEXT
  5
3A9
330
3A0
100
AcDbEntity
  8
0
 62
     0
370
    15
100
AcDbMText
 10
279.8439561868976
 20
15.35230655201924
 30
0.0
 40
3.5
 41
0.0
 71
     2
 72
     1
  1
\A1;%%c19.05 [3/4]
  7
SLDTEXTSTYLE0
 11
-2.983906501879687E-15
 21
1.0
 31
0.0
 73
     1
 44
1.0
  0
POINT
  5
3AA
330
3A0
100
AcDbEntity
  8
Defpoints
 62
     0
100
AcDbPoint
 10
266.1432876570353
 20
-1.73094344798081
 30
0.0
  0
POINT
  5
3AB
330
3A0
100
AcDbEntity
  8
Defpoints
 62
     0
100
AcDbPoint
 10
266.1432876570353
 20
-20.7809434479808
 30
0.0
  0
POINT
  5
3AC
330
3A0
100
AcDbEntity
  8
Defpoints
 62
     0
100
AcDbPoint
 10
284.2189561868977
 20
-20.78094344798074
 30
0.0
  0
ENDBLK
  5
3A2
330
3A0
100
AcDbEntity
  8
0
100
AcDbBlockEnd
  0
ENDSEC
  0
SECTION
  2
ENTITIES
  0
LINE
  5
96
330
1F
100
AcDbEntity
  8
외형선
  6
Continuous
370
    15
100
AcDbLine
 10
27.11229752504199
 20
9.524999999999999
 30
0.0
 11
-27.11229752504201
 21
9.524999999999991
 31
0.0
  0
LINE
  5
9A
330
1F
100
AcDbEntity
  8
0
  6
Continuous
 62
     1
370
    15
100
AcDbLine
 10
52.06920006916607
 20
-9.525
 30
0.0
 11
53.97499999999999
 21
-9.525
 31
0.0
  0
ARC
  5
9B
330
1F
100
AcDbEntity
  8
0
  6
Continuous
 62
     1
370
    15
100
AcDbCircle
 10
53.97499999999999
 20
-0.0000000000000012
 30
0.0
 40
9.524999999999999
100
AcDbArc
 50
270.0000000000008
 51
0.0
  0
ARC
  5
9C
330
1F
100
AcDbEntity
  8
0
  6
Continuous
 62
     1
370
    15
100
AcDbCircle
 10
53.97499999999999
 20
-0.0000000000000012
 30
0.0
 40
9.524999999999999
100
AcDbArc
 50
0.0
 51
90.0
  0
LINE
  5
9D
330
1F
100
AcDbEntity
  8
0
  6
Continuous
 62
     1
370
    15
100
AcDbLine
 10
53.97499999999999
 20
9.524999999999997
 30
0.0
 11
52.06920006916606
 21
9.524999999999997
 31
0.0
  0
SPLINE
  5
9E
330
1F
100
AcDbEntity
  8
외형선
  6
Continuous
370
    15
100
AcDbSpline
210
0.0
220
0.0
230
1.0
 70
    24
 71
     3
 72
    14
 73
    10
 74
     0
 42
0.000000001
 43
0.00000001
 40
0.0
 40
0.0
 40
0.0
 40
0.0
 40
0.0015121072143999
 40
0.1836379554513661
 40
0.3606309935918743
 40
0.5427568418288177
 40
0.7197498799693252
 40
0.9018757282062682
 40
1.0
 40
1.0
 40
1.0
 40
1.0
 10
30.16249999999998
 20
-2.379773074482701
 30
0.0
 10
30.16249999999998
 20
-2.380239045161217
 30
0.0
 10
30.16249999999997
 20
-2.436828883426768
 30
0.0
 10
30.16249999999999
 20
-2.694130464146601
 30
0.0
 10
30.16249999999998
 20
-3.15812730148193
 30
0.0
 10
30.16249999999998
 20
-3.772796301614568
 30
0.0
 10
30.16249999999998
 20
-4.508311606086296
 30
0.0
 10
30.16249999999998
 20
-5.212307032989774
 30
0.0
 10
30.16249999999998
 20
-5.677931464258125
 30
0.0
 10
30.16249999999998
 20
-5.840961040276066
 30
0.0
  0
SPLINE
  5
9F
330
1F
100
AcDbEntity
  8
외형선
  6
Continuous
370
    15
100
AcDbSpline
210
0.0
220
0.0
230
1.0
 70
     8
 71
     3
 72
    10
 73
     6
 74
     0
 42
0.000000001
 43
0.00000001
 40
0.0
 40
0.0
 40
0.0
 40
0.0
 40
0.5
 40
0.5
 40
1.0
 40
1.0
 40
1.0
 40
1.0
 10
30.16249999999999
 20
-5.840961040276062
 30
0.0
 10
29.65550559767276
 20
-5.754118394691743
 30
0.0
 10
29.1479061984284
 20
-5.658935222512081
 30
0.0
 10
28.12910896125076
 20
-5.452474654807992
 30
0.0
 10
27.61928665338974
 20
-5.341275833120489
 30
0.0
 10
27.112297525042
 20
-5.22285599363267
 30
0.0
  0
SPLINE
  5
A0
330
1F
100
AcDbEntity
  8
외형선
  6
Continuous
370
    15
100
AcDbSpline
210
0.0
220
0.0
230
1.0
 70
     8
 71
     3
 72
    10
 73
     6
 74
     0
 42
0.000000001
 43
0.00000001
 40
0.0
 40
0.0
 40
0.0
 40
0.0
 40
0.5
 40
0.5
 40
1.0
 40
1.0
 40
1.0
 40
1.0
 10
27.11243840926295
 20
-0.5525766432895156
 30
0.0
 10
27.61940458072195
 20
-0.8453102878592611
 30
0.0
 10
28.12920336992673
 20
-1.137801104827314
 30
0.0
 10
29.1479533434538
 20
-1.718542717383742
 30
0.0
 10
29.65552907860838
 20
-2.00653314012361
 30
0.0
 10
30.16249999999998
 20
-2.291152071884149
 30
0.0
  0
LINE
  5
A1
330
1F
100
AcDbEntity
  8
외형선
  6
Continuous
370
    15
100
AcDbLine
 10
27.11229752504199
 20
8.866707321576913
 30
0.0
 11
27.11229752504199
 21
9.524999999999999
 31
0.0
  0
SPLINE
  5
A2
330
1F
100
AcDbEntity
  8
외형선
  6
Continuous
370
    15
100
AcDbSpline
210
0.0
220
0.0
230
1.0
 70
     8
 71
     3
 72
    10
 73
     6
 74
     0
 42
0.000000001
 43
0.00000001
 40
0.0
 40
0.0
 40
0.0
 40
0.0
 40
0.5000000000000001
 40
0.5000000000000001
 40
1.0
 40
1.0
 40
1.0
 40
1.0
 10
30.16249999999998
 20
8.076216718100126
 30
0.0
 10
29.65550559767276
 20
8.231682291719633
 30
0.0
 10
29.1479061984284
 20
8.375725727103855
 30
0.0
 10
28.12910896125076
 20
8.639852607153511
 30
0.0
 10
27.61928665338974
 20
8.759792245970464
 30
0.0
 10
27.11229752504199
 20
8.866899543219402
 30
0.0
  0
LINE
  5
A3
330
1F
100
AcDbEntity
  8
외형선
  6
Continuous
370
    15
100
AcDbLine
 10
30.16249999999998
 20
8.076216718100127
 30
0.0
 11
30.16249999999998
 21
-2.291152071884149
 31
0.0
  0
LINE
  5
A4
330
1F
100
AcDbEntity
  8
외형선
  6
Continuous
370
    15
100
AcDbLine
 10
27.112297525042
 20
-9.525000000000002
 30
0.0
 11
27.11229752504199
 21
-0.552076806252525
 31
0.0
  0
SPLINE
  5
A5
330
1F
100
AcDbEntity
  8
외형선
  6
Continuous
370
    15
100
AcDbSpline
210
0.0
220
0.0
230
1.0
 70
     8
 71
     3
 72
    10
 73
     6
 74
     0
 42
0.000000001
 43
0.00000001
 40
0.0
 40
0.0
 40
0.0
 40
0.0
 40
0.5
 40
0.5
 40
1.0
 40
1.0
 40
1.0
 40
1.0
 10
30.16249999999998
 20
-8.07621671810013
 30
0.0
 10
29.65550559767276
 20
-8.231682291719636
 30
0.0
 10
29.1479061984284
 20
-8.375725727103859
 30
0.0
 10
28.12910896125077
 20
-8.639852607153513
 30
0.0
 10
27.61928665338974
 20
-8.75979224597047
 30
0.0
 10
27.112297525042
 20
-8.866899543219407
 30
0.0
  0
SPLINE
  5
A8
330
1F
100
AcDbEntity
  8
외형선
  6
Continuous
370
    15
100
AcDbSpline
210
0.0
220
0.0
230
1.0
 70
    24
 71
     3
 72
    12
 73
     8
 74
     0
 42
0.000000001
 43
0.00000001
 40
0.0
 40
0.0
 40
0.0
 40
0.0
 40
0.1853792945405376
 40
0.5000975586516005
 40
0.823942673742413
 40
0.9118763096465465
 40
1.0
 40
1.0
 40
1.0
 40
1.0
 10
30.16249999999998
 20
-5.929592042874594
 30
0.0
 10
30.16249999999998
 20
-6.018601206936991
 30
0.0
 10
30.16249999999998
 20
-6.258721149973509
 30
0.0
 10
30.16249999999998
 20
-6.82347439403432
 30
0.0
 10
30.16249999999998
 20
-7.40065416429877
 30
0.0
 10
30.16249999999998
 20
-7.83646138331996
 30
0.0
 10
30.16249999999998
 20
-7.996240779034635
 30
0.0
 10
30.16249999999998
 20
-8.076216718077477
 30
0.0
  0
SPLINE
  5
A9
330
1F
100
AcDbEntity
  8
0
  6
Continuous
 62
     1
370
    15
100
AcDbSpline
210
0.0
220
0.0
230
1.0
 70
     8
 71
     3
 72
    28
 73
    24
 74
     0
 42
0.000000001
 43
0.00000001
 40
0.0
 40
0.0
 40
0.0
 40
0.0
 40
0.0625000000000001
 40
0.0625000000000001
 40
0.1250000000000001
 40
0.1250000000000001
 40
0.1875000000000002
 40
0.1875000000000002
 40
0.2500000000000002
 40
0.2500000000000002
 40
0.3125000000000003
 40
0.3125000000000003
 40
0.3750000000000003
 40
0.3750000000000003
 40
0.5000000000000003
 40
0.5000000000000003
 40
0.6250000000000003
 40
0.6250000000000003
 40
0.7500000000000003
 40
0.7500000000000003
 40
0.8750000000000002
 40
0.8750000000000002
 40
1.0
 40
1.0
 40
1.0
 40
1.0
 10
53.97499999999999
 20
-3.981939013997666
 30
0.0
 10
53.47967640022309
 20
-3.721895871743138
 30
0.0
 10
52.98202156359743
 20
-3.456039697351994
 30
0.0
 10
51.98811036359689
 20
-2.915909126602507
 30
0.0
 10
51.4936231781069
 20
-2.641969195009111
 30
0.0
 10
50.50344337306036
 20
-2.087465180630668
 30
0.0
 10
50.00587574036168
 20
-1.806542119937149
 30
0.0
 10
49.01184243646986
 20
-1.240756227115563
 30
0.0
 10
48.51687338974378
 20
-0.9561844459764394
 30
0.0
 10
47.52718938313004
 20
-0.3852753610857443
 30
0.0
 10
47.02972339477686
 20
-0.0984070195094
 30
0.0
 10
46.03559676195151
 20
0.4746656730440274
 30
0.0
 10
45.5400721862612
 20
0.7606493701829006
 30
0.0
 10
44.05633240846352
 20
1.613810962495814
 30
0.0
 10
43.057521219704
 20
2.178712274102138
 30
0.0
 10
41.08030643750062
 20
3.27506345294118
 30
0.0
 10
40.08032070367763
 20
3.81044088557862
 30
0.0
 10
38.10426734906663
 20
4.830017694886672
 30
0.0
 10
37.10398618761901
 20
5.318327567887553
 30
0.0
 10
35.12732591113334
 20
6.228340609094027
 30
0.0
 10
34.12795413868043
 20
6.653547889764178
 30
0.0
 10
32.15016160621468
 20
7.424500426060765
 30
0.0
 10
31.15193411349082
 20
7.772815060593707
 30
0.0
 10
30.16249999999983
 20
8.076216718100179
 30
0.0
  0
SPLINE
  5
AA
330
1F
100
AcDbEntity
  8
0
  6
Continuous
 62
     1
370
    15
100
AcDbSpline
210
0.0
220
0.0
230
1.0
 70
     8
 71
     3
 72
    16
 73
    12
 74
     0
 42
0.000000001
 43
0.00000001
 40
0.0
 40
0.0
 40
0.0
 40
0.0
 40
0.1249552387499323
 40
0.2498983468669572
 40
0.3656424700160932
 40
0.4813865170198761
 40
0.5971304887307293
 40
0.7128743860014437
 40
0.8286182096851749
 40
0.9443619606354385
 40
0.9999999999999999
 40
0.9999999999999999
 40
0.9999999999999999
 40
0.9999999999999999
 10
60.95009154516259
 20
0.9982487087137076
 30
0.0
 10
59.85885710103548
 20
1.41839657540122
 30
0.0
 10
57.67649414963186
 20
2.258651520894213
 30
0.0
 10
54.483370673133
 20
3.39153550030117
 30
0.0
 10
51.37073387993458
 20
4.375277770655747
 30
0.0
 10
48.33841980006017
 20
5.185883909693179
 30
0.0
 10
45.30611098887749
 20
5.821116173301504
 30
0.0
 10
42.27380344437001
 20
6.26331806063537
 30
0.0
 10
39.24149841051025
 20
6.482943458859535
 30
0.0
 10
36.7340857383936
 20
6.519746658008278
 30
0.0
 10
35.23744253027303
 20
6.402347695553019
 30
0.0
 10
34.75156655958122
 20
6.364234847726855
 30
0.0
  0
SPLINE
  5
AB
330
1F
100
AcDbEntity
  8
0
  6
Continuous
 62
     1
370
    15
100
AcDbSpline
210
0.0
220
0.0
230
1.0
 70
     8
 71
     3
 72
    36
 73
    32
 74
     0
 42
0.000000001
 43
0.00000001
 40
0.0
 40
0.0
 40
0.0
 40
0.0
 40
0.1249999999999989
 40
0.1249999999999989
 40
0.1874999999999988
 40
0.1874999999999988
 40
0.2499999999999987
 40
0.2499999999999987
 40
0.3749999999999985
 40
0.3749999999999985
 40
0.4374999999999987
 40
0.4374999999999987
 40
0.4999999999999989
 40
0.4999999999999989
 40
0.5624999999999991
 40
0.5624999999999991
 40
0.6249999999999993
 40
0.6249999999999993
 40
0.6874999999999997
 40
0.6874999999999997
 40
0.7187499999999997
 40
0.7187499999999997
 40
0.7499999999999998
 40
0.7499999999999998
 40
0.8124999999999999
 40
0.8124999999999999
 40
0.8749999999999999
 40
0.8749999999999999
 40
0.9375
 40
0.9375
 40
1.0
 40
1.0
 40
1.0
 40
1.0
 10
53.97499999999998
 20
-3.98193901399766
 30
0.0
 10
54.50381481035818
 20
-4.259564923641811
 30
0.0
 10
55.02404862497029
 20
-4.508572546999805
 30
0.0
 10
55.8030962035205
 20
-4.82252940274095
 30
0.0
 10
56.06249006254458
 20
-4.9173058795626
 30
0.0
 10
56.58278951255917
 20
-5.083170212301926
 30
0.0
 10
56.84484683541919
 20
-5.154412152924867
 30
0.0
 10
57.62006443198638
 20
-5.32086926009947
 30
0.0
 10
58.12665702264681
 20
-5.371940172815117
 30
0.0
 10
58.88900638060888
 20
-5.315032061259568
 30
0.0
 10
59.13844220512866
 20
-5.273763076788641
 30
0.0
 10
59.62832121630903
 20
-5.138647218030051
 30
0.0
 10
59.87165540113855
 20
-5.043523336247945
 30
0.0
 10
60.33880138976936
 20
-4.791454684488417
 30
0.0
 10
60.56129141101608
 20
-4.636276723551219
 30
0.0
 10
60.9826066914823
 20
-4.250819983618034
 30
0.0
 10
61.17198949057655
 20
-4.02909474690026
 30
0.0
 10
61.50224364900944
 20
-3.520822081901157
 30
0.0
 10
61.63490789637763
 20
-3.24621219539129
 30
0.0
 10
61.78212356933609
 20
-2.810739792934064
 30
0.0
 10
61.8219613421962
 20
-2.662899472048026
 30
0.0
 10
61.88260089279751
 20
-2.369137069178587
 30
0.0
 10
61.90377755434849
 20
-2.222110835302508
 30
0.0
 10
61.94135447370498
 20
-1.780300209146928
 30
0.0
 10
61.93112833053237
 20
-1.495718463828865
 30
0.0
 10
61.85512748589861
 20
-0.944803096813869
 30
0.0
 10
61.78835990279627
 20
-0.6764981659363475
 30
0.0
 10
61.61338411852208
 20
-0.1681062041425521
 30
0.0
 10
61.50486724875889
 20
0.0748388859096277
 30
0.0
 10
61.25266527021914
 20
0.5464405454986695
 30
0.0
 10
61.10841641220429
 20
0.7756423134383987
 30
0.0
 10
60.95009154516169
 20
0.9982487087140587
 30
0.0
  0
SPLINE
  5
AC
330
1F
100
AcDbEntity
  8
0
  6
Continuous
 62
     1
370
    15
100
AcDbSpline
210
0.0
220
0.0
230
1.0
 70
     8
 71
     3
 72
    17
 73
    13
 74
     0
 42
0.000000001
 43
0.00000001
 40
0.0
 40
0.0
 40
0.0
 40
0.0
 40
0.0766873271039843
 40
0.1535742255416395
 40
0.2788170434957878
 40
0.4049313385474003
 40
0.5299323121477207
 40
0.6558011910998343
 40
0.7622381853485183
 40
0.8692094779650091
 40
0.9778144513919778
 40
1.0
 40
1.0
 40
1.0
 40
1.0
 10
30.16249999999998
 20
-2.291152071884149
 30
0.0
 10
30.72255538355202
 20
-2.602420176719566
 30
0.0
 10
31.84412364049237
 20
-3.225766431454652
 30
0.0
 10
33.8790324726577
 20
-4.311241879589979
 30
0.0
 10
36.27662424461845
 20
-5.509624228320633
 30
0.0
 10
39.02509899173619
 20
-6.730312498155327
 30
0.0
 10
41.77819503081648
 20
-7.766785168520116
 30
0.0
 10
44.38762458798622
 20
-8.543716682564206
 30
0.0
 10
46.86476981564042
 20
-9.087942313137303
 30
0.0
 10
49.21586161517047
 20
-9.40443477290246
 30
0.0
 10
50.95199115231927
 20
-9.543519688688892
 30
0.0
 10
51.90717542945714
 20
-9.513854971074121
 30
0.0
 10
52.06920006916607
 20
-9.508823046555849
 30
0.0
  0
SPLINE
  5
AD
330
1F
100
AcDbEntity
  8
0
  6
Continuous
 62
     1
370
    15
100
AcDbSpline
210
0.0
220
0.0
230
1.0
 70
     8
 71
     3
 72
    10
 73
     6
 74
     0
 42
0.000000001
 43
0.00000001
 40
0.0
 40
0.0
 40
0.0
 40
0.0
 40
0.2726751486462007
 40
0.6363378390358573
 40
1.0
 40
1.0
 40
1.0
 40
1.0
 10
38.47611025107799
 20
-6.45631356651415
 30
0.0
 10
37.72047162868918
 20
-6.468318295382224
 30
0.0
 10
35.95704929097249
 20
-6.496333548198803
 30
0.0
 10
33.18584631284612
 20
-6.296933162197412
 30
0.0
 10
31.17028161523353
 20
-5.992951673826336
 30
0.0
 10
30.16249999999999
 20
-5.840961040276063
 30
0.0
  0
SPLINE
  5
AE
330
1F
100
AcDbEntity
  8
외형선
  6
Continuous
370
    15
100
AcDbSpline
210
0.0
220
0.0
230
1.0
 70
    24
 71
     3
 72
    14
 73
    10
 74
     0
 42
0.000000001
 43
0.00000001
 40
0.0
 40
0.0
 40
0.0
 40
0.0
 40
0.0058523100748525
 40
0.1850910733495886
 40
0.3643298366243253
 40
0.543568599899062
 40
0.7228073631737971
 40
0.9020461264485319
 40
1.0
 40
1.0
 40
1.0
 40
1.0
 10
30.16249999999999
 20
-2.379783074482701
 30
0.0
 10
30.16249999999999
 20
-2.381590299237436
 30
0.0
 10
30.16249999999999
 20
-2.438747415890438
 30
0.0
 10
30.16249999999999
 20
-2.697204273905101
 30
0.0
 10
30.16249999999999
 20
-3.161884813277938
 30
0.0
 10
30.16249999999998
 20
-3.778771009037247
 30
0.0
 10
30.16249999999998
 20
-4.51282881606641
 30
0.0
 10
30.16249999999997
 20
-5.216496653798851
 30
0.0
 10
30.16249999999999
 20
-5.677908195965176
 30
0.0
 10
30.16249999999999
 20
-5.840961040276067
 30
0.0
  0
SPLINE
  5
AF
330
1F
100
AcDbEntity
  8
0
  6
Continuous
 62
     1
370
    15
100
AcDbSpline
210
0.0
220
0.0
230
1.0
 70
     8
 71
     3
 72
    14
 73
    10
 74
     0
 42
0.000000001
 43
0.00000001
 40
0.0
 40
0.0
 40
0.0
 40
0.0
 40
0.25
 40
0.25
 40
0.5
 40
0.5
 40
0.75
 40
0.75
 40
1.0
 40
1.0
 40
1.0
 40
1.0
 10
60.95009154516165
 20
0.9982487087140717
 30
0.0
 10
61.05965868096979
 20
1.064220425145661
 30
0.0
 10
61.15725650162598
 20
1.146035737765206
 30
0.0
 10
61.32843935778219
 20
1.342262785143806
 30
0.0
 10
61.40258521965947
 20
1.458539011425377
 30
0.0
 10
61.51951228700304
 20
1.713304293363381
 30
0.0
 10
61.56325634175059
 20
1.852122996262842
 30
0.0
 10
61.62310653695917
 20
2.150333216197386
 30
0.0
 10
61.63850717782507
 20
2.307270450472501
 30
0.0
 10
61.64116752623433
 20
2.46688173631201
 30
0.0
  0
ARC
  5
B0
330
1F
100
AcDbEntity
  8
0
  6
Continuous
 62
     1
370
    15
100
AcDbCircle
 10
58.94291525613635
 20
-1.655758261512027
 30
0.0
 40
4.927141754074884
100
AcDbArc
 50
23.84124899694191
 51
56.79540481974124
  0
ARC
  5
B1
330
1F
100
AcDbEntity
  8
0
  6
Continuous
 62
     1
370
    15
100
AcDbCircle
 10
54.93366011717155
 20
0.1767834421175598
 30
0.0
 40
8.517443225330894
100
AcDbArc
 50
1.069825094914098
 51
71.16137986161887
  0
SPLINE
  5
B2
330
1F
100
AcDbEntity
  8
0
  6
Continuous
 62
     1
370
    15
100
AcDbSpline
210
0.0
220
0.0
230
1.0
 70
     8
 71
     3
 72
    10
 73
     6
 74
     0
 42
0.000000001
 43
0.00000001
 40
0.0
 40
0.0
 40
0.0
 40
0.0
 40
0.5
 40
0.5
 40
1.0
 40
1.0
 40
1.0
 40
1.0
 10
57.68397413055615
 20
8.23796275562469
 30
0.0
 10
57.09477673653305
 20
8.597278505942432
 30
0.0
 10
56.48818162236
 20
8.879676306941532
 30
0.0
 10
55.25029059568794
 20
9.2903031660478
 30
0.0
 10
54.61338576703542
 20
9.419120671323354
 30
0.0
 10
53.97499999999999
 20
9.461612970561195
 30
0.0
  0
SPLINE
  5
B3
330
1F
100
AcDbEntity
  8
0
  6
Continuous
 62
     1
370
    15
100
AcDbSpline
210
0.0
220
0.0
230
1.0
 70
     8
 71
     3
 72
     8
 73
     4
 74
     0
 42
0.000000001
 43
0.00000001
 40
0.0
 40
0.0
 40
0.0
 40
0.0
 40
1.0
 40
1.0
 40
1.0
 40
1.0
 10
55.75159962186724
 20
4.263860163215447
 30
0.0
 10
57.68791908104313
 20
3.725677110612936
 30
0.0
 10
59.6620439498265
 20
3.119389417257394
 30
0.0
 10
61.64116752623435
 20
2.466881736312085
 30
0.0
  0
SPLINE
  5
B4
330
1F
100
AcDbEntity
  8
0
  6
Continuous
 62
     1
370
    15
100
AcDbSpline
210
0.0
220
0.0
230
1.0
 70
     8
 71
     3
 72
    14
 73
    10
 74
     0
 42
0.000000001
 43
0.00000001
 40
0.0
 40
0.0
 40
0.0
 40
0.0
 40
0.035942680241949
 40
0.2126266283589598
 40
0.3905373264742304
 40
0.5409818216482811
 40
0.6921815265009256
 40
0.8456903747725729
 40
1.0
 40
1.0
 40
1.0
 40
1.0
 10
38.47611025107798
 20
6.45631356651415
 30
0.0
 10
38.66181978582351
 20
6.539329445390844
 30
0.0
 10
39.76042434066596
 20
7.030427669201264
 30
0.0
 10
41.77818522455217
 20
7.757043711970459
 30
0.0
 10
44.38762581056629
 20
8.546544511508829
 30
0.0
 10
46.86477244454191
 20
9.085236566244507
 30
0.0
 10
49.21584964544596
 20
9.412837125140635
 30
0.0
 10
51.58720608108908
 20
9.562947971259234
 30
0.0
 10
53.17768950154111
 20
9.49544983532494
 30
0.0
 10
53.97499999999998
 20
9.461612970561196
 30
0.0
  0
SPLINE
  5
B5
330
1F
100
AcDbEntity
  8
0
  6
Continuous
 62
     1
370
    15
100
AcDbSpline
210
0.0
220
0.0
230
1.0
 70
     8
 71
     3
 72
    20
 73
    16
 74
     0
 42
0.000000001
 43
0.00000001
 40
0.0
 40
0.0
 40
0.0
 40
0.0
 40
0.2500000000000002
 40
0.2500000000000002
 40
0.3750000000000002
 40
0.3750000000000002
 40
0.5000000000000002
 40
0.5000000000000002
 40
0.6250000000000002
 40
0.6250000000000002
 40
0.7500000000000001
 40
0.7500000000000001
 40
0.8750000000000001
 40
0.8750000000000001
 40
1.0
 40
1.0
 40
1.0
 40
1.0
 10
57.68397413055616
 20
8.237962755624695
 30
0.0
 10
57.75155336950145
 20
7.838094965975499
 30
0.0
 10
57.78197026424692
 20
7.43121451383432
 30
0.0
 10
57.7377412118691
 20
6.812844371093427
 30
0.0
 10
57.70803213689683
 20
6.610151234058743
 30
0.0
 10
57.61347848495126
 20
6.212818072211356
 30
0.0
 10
57.54744329400259
 20
6.015909748118979
 30
0.0
 10
57.37964062743723
 20
5.646246833992921
 30
0.0
 10
57.27833876514946
 20
5.473048426030332
 30
0.0
 10
57.04022168827836
 20
5.150393909598083
 30
0.0
 10
56.90252862647326
 20
5.00089787322984
 30
0.0
 10
56.60634257938736
 20
4.738091465843948
 30
0.0
 10
56.4460459671191
 20
4.622340953183448
 30
0.0
 10
56.10671748659814
 20
4.419959364312242
 30
0.0
 10
55.93140059086142
 20
4.335337828641067
 30
0.0
 10
55.75159962186722
 20
4.263860163215444
 30
0.0
  0
SPLINE
  5
B6
330
1F
100
AcDbEntity
  8
0
  6
Continuous
 62
     1
370
    15
100
AcDbSpline
210
0.0
220
0.0
230
1.0
 70
     8
 71
     3
 72
     9
 73
     5
 74
     0
 42
0.000000001
 43
0.00000001
 40
0.0
 40
0.0
 40
0.0
 40
0.0
 40
0.4289526608987886
 40
1.0
 40
1.0
 40
1.0
 40
1.0
 10
34.75156655958122
 20
-6.364234847726856
 30
0.0
 10
34.09543454950246
 20
-6.644572568066733
 30
0.0
 10
32.56582051539445
 20
-7.29811256418771
 30
0.0
 10
31.03606361018907
 20
-7.793389908508614
 30
0.0
 10
30.16249999999983
 20
-8.076216718100182
 30
0.0
  0
SPLINE
  5
B7
330
1F
100
AcDbEntity
  8
외형선
  6
Continuous
370
    15
100
AcDbSpline
210
0.0
220
0.0
230
1.0
 70
    24
 71
     3
 72
    11
 73
     7
 74
     0
 42
0.000000001
 43
0.00000001
 40
0.0
 40
0.0
 40
0.0
 40
0.0
 40
0.1853880994320804
 40
0.5001213115997152
 40
0.823981808241752
 40
1.0
 40
1.0
 40
1.0
 40
1.0
 10
30.16249999999999
 20
-5.929592042874593
 30
0.0
 10
30.16249999999998
 20
-6.01856904249743
 30
0.0
 10
30.16249999999998
 20
-6.258602215553843
 30
0.0
 10
30.1625
 20
-6.82436948232074
 30
0.0
 10
30.16249999999997
 20
-7.467883959054531
 30
0.0
 10
30.16249999999999
 20
-7.91779368732541
 30
0.0
 10
30.16249999999999
 20
-8.076216718077367
 30
0.0
  0
LINE
  5
B8
330
1F
100
AcDbEntity
  8
중심선
100
AcDbLine
 10
-66.49999999999999
 20
-0.0000000000000081
 30
0.0
 11
66.49999999999999
 21
0.0000000000000081
 31
0.0
  0
LINE
  5
B9
330
1F
100
AcDbEntity
  8
참조1
100
AcDbLine
 10
-21.23786934298442
 20
0.0010749287238892
 30
0.0
 11
-21.23786934298442
 21
-39.99892507127611
 31
0.0
  0
LINE
  5
BA
330
1F
100
AcDbEntity
  8
참조1
100
AcDbLine
 10
42.26213065701557
 20
0.0010749287238892
 30
0.0
 11
42.26213065701557
 21
0.6320484065631995
 31
0.0
  0
LINE
  5
BB
330
1F
100
AcDbEntity
  8
참조1
100
AcDbLine
 10
-21.23786934298442
 20
-39.99892507127611
 30
0.0
 11
-29.25297615729311
 21
-39.9989250712761
 31
0.0
  0
CIRCLE
  5
BC
330
1F
100
AcDbEntity
  8
해칭선
100
AcDbCircle
 10
0.0
 20
0.0
 30
0.0
 40
3.000000000000001
  0
INSERT
  5
BD
330
1F
100
AcDbEntity
  8
0
  6
Continuous
 62
     7
100
AcDbBlockReference
 66
     1
  2
블럭10
 10
-13.9402729321252
 20
-52.04717430164393
 30
0.0
  0
ATTRIB
  5
BE
330
BD
100
AcDbEntity
  8
FORMAT
 62
     2
100
AcDbText
 10
-23.12156822086649
 20
-49.97180738881175
 30
0.0
 40
4.233333333333333
  1
E1112048 [ 2 FLUTE ]
 41
0.75
  7
SLDTEXTSTYLE0
 11
-23.12156822086649
 21
-52.08847405547841
 31
0.0
100
AcDbAttribute
  2
AUTOATTR0
 70
     0
 74
     1
  0
SEQEND
  5
BF
330
BD
100
AcDbEntity
  8
0
  6
Continuous
 62
     7
  0
HATCH
  5
C0
330
1F
100
AcDbEntity
  8
중심선
100
AcDbHatch
 10
0.0
 20
0.0
 30
0.0
210
0.0
220
0.0
230
1.0
  2
SOLID
 70
     1
 71
     0
 91
        1
 92
        0
 93
        4
 72
     1
 10
-8.225363627744358
 20
-35.8
 11
-11.67163887158164
 21
-35.8
 72
     1
 10
-11.67163887158164
 20
-35.8
 11
-13.79986873078566
 21
-38.3363255805726
 72
     1
 10
-13.79986873078566
 20
-38.3363255805726
 11
-10.35356040183523
 21
-38.33628615127011
 72
     1
 10
-10.35356040183523
 20
-38.33628615127011
 11
-8.225363627744358
 21
-35.8
 97
        0
 75
     0
 76
     1
 98
        1
 10
21.23786934298442
 20
-0.0010749287238978
  0
HATCH
  5
C1
330
1F
100
AcDbEntity
  8
중심선
100
AcDbHatch
 10
0.0
 20
0.0
 30
0.0
210
0.0
220
0.0
230
1.0
  2
SOLID
 70
     1
 71
     0
 91
        1
 92
        0
 93
        4
 72
     1
 10
-3.212599636708376
 20
-35.8
 11
-6.658874880545632
 21
-35.8
 72
     1
 10
-6.658874880545632
 20
-35.8
 11
-11.19001288890308
 21
-41.20000000000002
 72
     1
 10
-11.19001288890308
 20
-41.20000000000002
 11
-7.743737645065792
 21
-41.20000000000002
 72
     1
 10
-7.743737645065792
 20
-41.20000000000002
 11
-3.212599636708376
 21
-35.8
 97
        0
 75
     0
 76
     1
 98
        1
 10
21.23786934298442
 20
-0.0010749287238978
  0
HATCH
  5
C2
330
1F
100
AcDbEntity
  8
중심선
100
AcDbHatch
 10
0.0
 20
0.0
 30
0.0
210
0.0
220
0.0
230
1.0
  2
SOLID
 70
     1
 71
     0
 91
        1
 92
        0
 93
        4
 72
     1
 10
1.800164354327492
 20
-35.8
 11
-1.646110889509625
 21
-35.8
 72
     1
 10
-1.646110889509625
 20
-35.8
 11
-8.694547791398875
 21
-44.20000000000002
 72
     1
 10
-8.694547791398875
 20
-44.20000000000002
 11
-5.248272547561591
 21
-44.20000000000002
 72
     1
 10
-5.248272547561591
 20
-44.20000000000002
 11
1.800164354327492
 21
-35.8
 97
        0
 75
     0
 76
     1
 98
        1
 10
21.23786934298442
 20
-0.0010749287238978
  0
HATCH
  5
C3
330
1F
100
AcDbEntity
  8
중심선
100
AcDbHatch
 10
0.0
 20
0.0
 30
0.0
210
0.0
220
0.0
230
1.0
  2
SOLID
 70
     1
 71
     0
 91
        1
 92
        0
 93
        6
 72
     3
 10
6.60005478533969
 20
-40.00000000005127
 11
3.960054785062283
 21
1.540882976769353E-10
 40
0.3939339440162628
 50
17.09539180608437
 51
320.0019657685079
 73
     0
 72
     1
 10
8.283054441040285
 20
-38.5878940046383
 11
10.58835631474132
 21
-36.65356729459035
 72
     3
 10
6.600054785286844
 20
-40.00000000000015
 11
6.600054785286829
 21
-1.278976924368180E-13
 40
0.636358354079598
 50
39.9987384933743
 51
368.4976242363725
 73
     1
 72
     1
 10
13.02538727718745
 20
-39.03999999993002
 11
5.280122092122765
 21
-39.03999999993002
 72
     1
 10
5.280122092122765
 20
-39.03999999993002
 11
5.280097047676833
 21
-40.95999999992991
 72
     1
 10
5.280097047676833
 20
-40.95999999992991
 11
9.721476817148869
 21
-40.95999999992988
 97
        0
 75
     0
 76
     1
 98
        1
 10
21.23786934298442
 20
-0.0010749287238978
  0
DIMENSION
  5
C4
330
1F
100
AcDbEntity
  8
0
  6
Continuous
370
    15
100
AcDbDimension
  2
_D
 10
30.16249999999999
 20
15.59903742084733
 30
0.0
 11
10.67299999999999
 21
15.59903742084733
 31
0.0
 70
   160
  1
<>
 71
     2
 42
33.33749999999996
  3
SLDDIMSTYLE0
100
AcDbAlignedDimension
 13
63.49999999999996
 23
9.525000000000029
 33
0.0
 14
30.16249999999999
 24
8.076216718077367
 34
0.0
 50
0.0000000000000061
100
AcDbRotatedDimension
1001
ACAD
1000
DSTYLE
1002
{
1070
   171
1070
     6
1070
   273
1070
     7
1002
}
  0
DIMENSION
  5
D9
330
1F
100
AcDbEntity
  8
0
  6
Continuous
370
    15
100
AcDbDimension
  2
_D_1
 10
-63.49999999999999
 20
29.28797898817497
 30
0.0
 11
0.5558313391660761
 21
29.28797898817497
 31
0.0
 70
   160
  1
<>
 71
     2
 42
126.9999999999999
  3
SLDDIMSTYLE0
100
AcDbAlignedDimension
 13
63.49999999999996
 23
9.525000000000029
 33
0.0
 14
-63.49999999999999
 24
9.524999999999972
 34
0.0
 50
0.0000000000000048
100
AcDbRotatedDimension
1001
ACAD
1000
DSTYLE
1002
{
1070
   171
1070
     6
1070
   273
1070
     7
1002
}
  0
DIMENSION
  5
EC
330
1F
100
AcDbEntity
  8
0
  6
Continuous
370
    15
100
AcDbDimension
  2
_D_2
 10
-75.92999999999996
 20
-9.525000000000192
 30
0.0
 11
-75.93
 21
-0.0000000000000211
 31
0.0
 70
   160
  1
%%c<>
 71
     2
 42
19.05
 52
-270.0
  3
SLDDIMSTYLE0
100
AcDbAlignedDimension
 13
-27.11229752504201
 23
9.524999999999991
 33
0.0
 14
-27.11229752504201
 24
-9.52500000000001
 34
0.0
 50
90.0000000000002
100
AcDbRotatedDimension
1001
ACAD
1000
DSTYLE
1002
{
1070
   171
1070
     6
1070
   273
1070
     7
1002
}
  0
DIMENSION
  5
101
330
1F
100
AcDbEntity
  8
0
  6
Continuous
370
    15
100
AcDbDimension
  2
_D_3
 10
81.57566852986237
 20
-9.524999999999899
 30
0.0
 11
81.57566852986224
 21
26.6082500000001
 31
0.0
 70
   160
  1
%%c<>
 71
     2
 42
19.04999999999999
 52
-270.0
  3
SLDDIMSTYLE0
100
AcDbAlignedDimension
 13
63.49999999999999
 23
9.525000000000029
 33
0.0
 14
63.49999999999999
 24
-9.524999999999965
 34
0.0
 50
90.0000000000002
100
AcDbRotatedDimension
1001
ACAD
1000
DSTYLE
1002
{
1070
   171
1070
     6
1070
   273
1070
     7
1002
}
  0
LINE
  5
114
330
1F
100
AcDbEntity
  8
참조1
100
AcDbLine
 10
68.71936447236115
 20
7.441074928723896
 30
0.0
 11
68.71936447236115
 21
-7.438925071276109
 31
0.0
  0
LINE
  5
115
330
1F
100
AcDbEntity
  8
참조1
100
AcDbLine
 10
81.41936447236115
 20
5.441074928723896
 30
0.0
 11
68.71936447236115
 21
5.441074928723896
 31
0.0
  0
SOLID
  5
116
330
1F
100
AcDbEntity
  8
참조1
100
AcDbTrace
 10
68.71936447236115
 20
5.441074928723896
 30
0.0
 11
75.06936447236114
 21
4.425074928723896
 31
0.0
 12
75.06936447236114
 22
6.457074928723896
 32
0.0
 13
75.06936447236114
 23
6.457074928723896
 33
0.0
  0
LINE
  5
117
330
1F
100
AcDbEntity
  8
참조1
100
AcDbLine
 10
81.41936447236115
 20
-5.438925071276109
 30
0.0
 11
68.71936447236115
 21
-5.438925071276109
 31
0.0
  0
SOLID
  5
118
330
1F
100
AcDbEntity
  8
참조1
100
AcDbTrace
 10
68.71936447236115
 20
-5.438925071276109
 30
0.0
 11
75.06936447236114
 21
-6.454925071276109
 31
0.0
 12
75.06936447236114
 22
-4.422925071276109
 32
0.0
 13
75.06936447236114
 23
-4.422925071276109
 33
0.0
  0
MTEXT
  5
119
330
1F
100
AcDbEntity
  8
참조1
100
AcDbMText
 10
78.11685456483143
 20
10.98929157337383
 30
0.0
 40
3.5
 41
0.0
 71
     1
 72
     1
  1
A
  7
SLDTEXTSTYLE0
 73
     1
 44
1.0
  0
MTEXT
  5
11A
330
1F
100
AcDbEntity
  8
참조1
100
AcDbMText
 10
78.11685456483143
 20
0.1092915733738251
 30
0.0
 40
3.5
 41
0.0
 71
     1
 72
     1
  1
A
  7
SLDTEXTSTYLE0
 73
     1
 44
1.0
  0
INSERT
  5
121
330
1F
100
AcDbEntity
  8
해칭선
100
AcDbBlockReference
  2
SW_DOWELSYMBOL_0
 10
0.0
 20
0.0
 30
0.0
  0
LINE
  5
358
330
1F
100
AcDbEntity
  8
0
  6
Continuous
 62
     1
370
    15
100
AcDbLine
 10
-52.06920006916607
 20
9.525000000000007
 30
0.0
 11
-53.97499999999999
 21
9.525000000000007
 31
0.0
  0
ARC
  5
359
330
1F
100
AcDbEntity
  8
0
  6
Continuous
 62
     1
370
    15
100
AcDbCircle
 10
-53.97499999999999
 20
0.0000000000000098
 30
0.0
 40
9.524999999999999
100
AcDbArc
 50
90.00000000000104
 51
180.0
  0
ARC
  5
35A
330
1F
100
AcDbEntity
  8
0
  6
Continuous
 62
     1
370
    15
100
AcDbCircle
 10
-53.97499999999999
 20
0.0000000000000098
 30
0.0
 40
9.524999999999999
100
AcDbArc
 50
180.0
 51
270.0
  0
LINE
  5
35B
330
1F
100
AcDbEntity
  8
0
  6
Continuous
 62
     1
370
    15
100
AcDbLine
 10
-53.97499999999999
 20
-9.52499999999999
 30
0.0
 11
-52.06920006916607
 21
-9.52499999999999
 31
0.0
  0
SPLINE
  5
35C
330
1F
100
AcDbEntity
  8
외형선
  6
Continuous
370
    15
100
AcDbSpline
210
0.0
220
0.0
230
1.0
 70
    24
 71
     3
 72
    14
 73
    10
 74
     0
 42
0.000000001
 43
0.00000001
 40
0.0
 40
0.0
 40
0.0
 40
0.0
 40
0.0015121072143999
 40
0.1836379554513661
 40
0.3606309935918743
 40
0.5427568418288177
 40
0.7197498799693252
 40
0.9018757282062682
 40
1.0
 40
1.0
 40
1.0
 40
1.0
 10
-30.16249999999999
 20
2.379773074482705
 30
0.0
 10
-30.16249999999999
 20
2.380239045161223
 30
0.0
 10
-30.16249999999997
 20
2.436828883426773
 30
0.0
 10
-30.16249999999999
 20
2.694130464146606
 30
0.0
 10
-30.16249999999999
 20
3.158127301481936
 30
0.0
 10
-30.16249999999999
 20
3.772796301614572
 30
0.0
 10
-30.16249999999999
 20
4.508311606086301
 30
0.0
 10
-30.16249999999999
 20
5.21230703298978
 30
0.0
 10
-30.16249999999999
 20
5.677931464258129
 30
0.0
 10
-30.16249999999999
 20
5.84096104027607
 30
0.0
  0
SPLINE
  5
35D
330
1F
100
AcDbEntity
  8
외형선
  6
Continuous
370
    15
100
AcDbSpline
210
0.0
220
0.0
230
1.0
 70
     8
 71
     3
 72
    10
 73
     6
 74
     0
 42
0.000000001
 43
0.00000001
 40
0.0
 40
0.0
 40
0.0
 40
0.0
 40
0.5
 40
0.5
 40
1.0
 40
1.0
 40
1.0
 40
1.0
 10
-30.16249999999999
 20
5.840961040276066
 30
0.0
 10
-29.65550559767277
 20
5.75411839469175
 30
0.0
 10
-29.14790619842839
 20
5.658935222512087
 30
0.0
 10
-28.12910896125075
 20
5.452474654807999
 30
0.0
 10
-27.61928665338974
 20
5.341275833120494
 30
0.0
 10
-27.11229752504201
 20
5.222855993632677
 30
0.0
  0
SPLINE
  5
35E
330
1F
100
AcDbEntity
  8
외형선
  6
Continuous
370
    15
100
AcDbSpline
210
0.0
220
0.0
230
1.0
 70
     8
 71
     3
 72
    10
 73
     6
 74
     0
 42
0.000000001
 43
0.00000001
 40
0.0
 40
0.0
 40
0.0
 40
0.0
 40
0.5
 40
0.5
 40
1.0
 40
1.0
 40
1.0
 40
1.0
 10
-27.11243840926295
 20
0.5525766432895205
 30
0.0
 10
-27.61940458072195
 20
0.8453102878592658
 30
0.0
 10
-28.12920336992673
 20
1.137801104827319
 30
0.0
 10
-29.14795334345379
 20
1.718542717383747
 30
0.0
 10
-29.6555290786084
 20
2.006533140123614
 30
0.0
 10
-30.16249999999999
 20
2.291152071884155
 30
0.0
  0
LINE
  5
35F
330
1F
100
AcDbEntity
  8
외형선
  6
Continuous
370
    15
100
AcDbLine
 10
-27.11229752504201
 20
-8.866707321576909
 30
0.0
 11
-27.11229752504201
 21
-9.524999999999993
 31
0.0
  0
SPLINE
  5
360
330
1F
100
AcDbEntity
  8
외형선
  6
Continuous
370
    15
100
AcDbSpline
210
0.0
220
0.0
230
1.0
 70
     8
 71
     3
 72
    10
 73
     6
 74
     0
 42
0.000000001
 43
0.00000001
 40
0.0
 40
0.0
 40
0.0
 40
0.0
 40
0.5000000000000001
 40
0.5000000000000001
 40
1.0
 40
1.0
 40
1.0
 40
1.0
 10
-30.16249999999999
 20
-8.076216718100122
 30
0.0
 10
-29.65550559767277
 20
-8.23168229171963
 30
0.0
 10
-29.14790619842839
 20
-8.37572572710385
 30
0.0
 10
-28.12910896125075
 20
-8.63985260715351
 30
0.0
 10
-27.61928665338974
 20
-8.759792245970461
 30
0.0
 10
-27.11229752504201
 20
-8.866899543219398
 30
0.0
  0
LINE
  5
361
330
1F
100
AcDbEntity
  8
외형선
  6
Continuous
370
    15
100
AcDbLine
 10
-30.16249999999999
 20
-8.076216718100122
 30
0.0
 11
-30.16249999999999
 21
2.291152071884155
 31
0.0
  0
LINE
  5
362
330
1F
100
AcDbEntity
  8
외형선
  6
Continuous
370
    15
100
AcDbLine
 10
-27.11229752504201
 20
9.525000000000004
 30
0.0
 11
-27.11229752504201
 21
0.5520768062525301
 31
0.0
  0
SPLINE
  5
363
330
1F
100
AcDbEntity
  8
외형선
  6
Continuous
370
    15
100
AcDbSpline
210
0.0
220
0.0
230
1.0
 70
     8
 71
     3
 72
    10
 73
     6
 74
     0
 42
0.000000001
 43
0.00000001
 40
0.0
 40
0.0
 40
0.0
 40
0.0
 40
0.5
 40
0.5
 40
1.0
 40
1.0
 40
1.0
 40
1.0
 10
-30.16249999999999
 20
8.076216718100133
 30
0.0
 10
-29.65550559767277
 20
8.231682291719641
 30
0.0
 10
-29.14790619842839
 20
8.37572572710386
 30
0.0
 10
-28.12910896125075
 20
8.639852607153516
 30
0.0
 10
-27.61928665338974
 20
8.759792245970472
 30
0.0
 10
-27.11229752504201
 20
8.866899543219409
 30
0.0
  0
SPLINE
  5
364
330
1F
100
AcDbEntity
  8
외형선
  6
Continuous
370
    15
100
AcDbSpline
210
0.0
220
0.0
230
1.0
 70
    24
 71
     3
 72
    12
 73
     8
 74
     0
 42
0.000000001
 43
0.00000001
 40
0.0
 40
0.0
 40
0.0
 40
0.0
 40
0.1853792945405376
 40
0.5000975586516005
 40
0.823942673742413
 40
0.9118763096465465
 40
1.0
 40
1.0
 40
1.0
 40
1.0
 10
-30.16249999999999
 20
5.929592042874599
 30
0.0
 10
-30.16249999999999
 20
6.018601206936999
 30
0.0
 10
-30.16249999999999
 20
6.258721149973513
 30
0.0
 10
-30.16249999999999
 20
6.823474394034327
 30
0.0
 10
-30.16249999999999
 20
7.400654164298774
 30
0.0
 10
-30.16249999999999
 20
7.836461383319963
 30
0.0
 10
-30.16249999999999
 20
7.996240779034642
 30
0.0
 10
-30.16249999999999
 20
8.07621671807748
 30
0.0
  0
SPLINE
  5
365
330
1F
100
AcDbEntity
  8
0
  6
Continuous
 62
     1
370
    15
100
AcDbSpline
210
0.0
220
0.0
230
1.0
 70
     8
 71
     3
 72
    28
 73
    24
 74
     0
 42
0.000000001
 43
0.00000001
 40
0.0
 40
0.0
 40
0.0
 40
0.0
 40
0.0625000000000001
 40
0.0625000000000001
 40
0.1250000000000001
 40
0.1250000000000001
 40
0.1875000000000002
 40
0.1875000000000002
 40
0.2500000000000002
 40
0.2500000000000002
 40
0.3125000000000003
 40
0.3125000000000003
 40
0.3750000000000003
 40
0.3750000000000003
 40
0.5000000000000003
 40
0.5000000000000003
 40
0.6250000000000003
 40
0.6250000000000003
 40
0.7500000000000003
 40
0.7500000000000003
 40
0.8750000000000002
 40
0.8750000000000002
 40
1.0
 40
1.0
 40
1.0
 40
1.0
 10
-53.97499999999999
 20
3.981939013997674
 30
0.0
 10
-53.4796764002231
 20
3.721895871743146
 30
0.0
 10
-52.98202156359741
 20
3.456039697352003
 30
0.0
 10
-51.98811036359689
 20
2.915909126602515
 30
0.0
 10
-51.4936231781069
 20
2.64196919500912
 30
0.0
 10
-50.50344337306035
 20
2.087465180630676
 30
0.0
 10
-50.00587574036169
 20
1.806542119937157
 30
0.0
 10
-49.01184243646986
 20
1.240756227115569
 30
0.0
 10
-48.51687338974378
 20
0.9561844459764464
 30
0.0
 10
-47.52718938313004
 20
0.3852753610857507
 30
0.0
 10
-47.02972339477685
 20
0.0984070195094064
 30
0.0
 10
-46.0355967619515
 20
-0.4746656730440195
 30
0.0
 10
-45.5400721862612
 20
-0.760649370182894
 30
0.0
 10
-44.05633240846353
 20
-1.613810962495807
 30
0.0
 10
-43.057521219704
 20
-2.178712274102131
 30
0.0
 10
-41.08030643750064
 20
-3.275063452941171
 30
0.0
 10
-40.08032070367764
 20
-3.810440885578616
 30
0.0
 10
-38.10426734906665
 20
-4.830017694886664
 30
0.0
 10
-37.10398618761903
 20
-5.318327567887548
 30
0.0
 10
-35.12732591113334
 20
-6.22834060909402
 30
0.0
 10
-34.12795413868042
 20
-6.653547889764174
 30
0.0
 10
-32.15016160621468
 20
-7.424500426060761
 30
0.0
 10
-31.15193411349082
 20
-7.772815060593701
 30
0.0
 10
-30.16249999999982
 20
-8.076216718100175
 30
0.0
  0
SPLINE
  5
366
330
1F
100
AcDbEntity
  8
0
  6
Continuous
 62
     1
370
    15
100
AcDbSpline
210
0.0
220
0.0
230
1.0
 70
     8
 71
     3
 72
    16
 73
    12
 74
     0
 42
0.000000001
 43
0.00000001
 40
0.0
 40
0.0
 40
0.0
 40
0.0
 40
0.1249552387499323
 40
0.2498983468669572
 40
0.3656424700160932
 40
0.4813865170198761
 40
0.5971304887307293
 40
0.7128743860014437
 40
0.8286182096851749
 40
0.9443619606354385
 40
0.9999999999999999
 40
0.9999999999999999
 40
0.9999999999999999
 40
0.9999999999999999
 10
-60.95009154516256
 20
-0.9982487087136986
 30
0.0
 10
-59.85885710103551
 20
-1.418396575401212
 30
0.0
 10
-57.67649414963185
 20
-2.258651520894204
 30
0.0
 10
-54.48337067313301
 20
-3.391535500301161
 30
0.0
 10
-51.37073387993456
 20
-4.37527777065574
 30
0.0
 10
-48.33841980006017
 20
-5.185883909693172
 30
0.0
 10
-45.30611098887749
 20
-5.821116173301498
 30
0.0
 10
-42.27380344437
 20
-6.263318060635364
 30
0.0
 10
-39.24149841051025
 20
-6.482943458859531
 30
0.0
 10
-36.73408573839359
 20
-6.519746658008274
 30
0.0
 10
-35.23744253027303
 20
-6.402347695553012
 30
0.0
 10
-34.75156655958122
 20
-6.364234847726849
 30
0.0
  0
SPLINE
  5
367
330
1F
100
AcDbEntity
  8
0
  6
Continuous
 62
     1
370
    15
100
AcDbSpline
210
0.0
220
0.0
230
1.0
 70
     8
 71
     3
 72
    36
 73
    32
 74
     0
 42
0.000000001
 43
0.00000001
 40
0.0
 40
0.0
 40
0.0
 40
0.0
 40
0.1249999999999989
 40
0.1249999999999989
 40
0.1874999999999988
 40
0.1874999999999988
 40
0.2499999999999987
 40
0.2499999999999987
 40
0.3749999999999985
 40
0.3749999999999985
 40
0.4374999999999987
 40
0.4374999999999987
 40
0.4999999999999989
 40
0.4999999999999989
 40
0.5624999999999991
 40
0.5624999999999991
 40
0.6249999999999993
 40
0.6249999999999993
 40
0.6874999999999997
 40
0.6874999999999997
 40
0.7187499999999997
 40
0.7187499999999997
 40
0.7499999999999998
 40
0.7499999999999998
 40
0.8124999999999999
 40
0.8124999999999999
 40
0.8749999999999999
 40
0.8749999999999999
 40
0.9375
 40
0.9375
 40
1.0
 40
1.0
 40
1.0
 40
1.0
 10
-53.97499999999994
 20
3.981939013997668
 30
0.0
 10
-54.50381481035814
 20
4.259564923641821
 30
0.0
 10
-55.02404862497033
 20
4.508572546999814
 30
0.0
 10
-55.80309620352048
 20
4.822529402740957
 30
0.0
 10
-56.06249006254458
 20
4.917305879562607
 30
0.0
 10
-56.58278951255917
 20
5.083170212301936
 30
0.0
 10
-56.84484683541919
 20
5.154412152924876
 30
0.0
 10
-57.62006443198638
 20
5.320869260099481
 30
0.0
 10
-58.12665702264681
 20
5.371940172815125
 30
0.0
 10
-58.88900638060889
 20
5.315032061259575
 30
0.0
 10
-59.13844220512865
 20
5.27376307678865
 30
0.0
 10
-59.62832121630905
 20
5.138647218030061
 30
0.0
 10
-59.87165540113855
 20
5.043523336247953
 30
0.0
 10
-60.33880138976932
 20
4.791454684488424
 30
0.0
 10
-60.56129141101607
 20
4.636276723551227
 30
0.0
 10
-60.98260669148229
 20
4.250819983618043
 30
0.0
 10
-61.17198949057652
 20
4.029094746900269
 30
0.0
 10
-61.50224364900944
 20
3.520822081901167
 30
0.0
 10
-61.63490789637765
 20
3.246212195391299
 30
0.0
 10
-61.78212356933605
 20
2.810739792934073
 30
0.0
 10
-61.8219613421962
 20
2.662899472048035
 30
0.0
 10
-61.88260089279751
 20
2.369137069178596
 30
0.0
 10
-61.90377755434852
 20
2.222110835302517
 30
0.0
 10
-61.94135447370499
 20
1.780300209146936
 30
0.0
 10
-61.9311283305324
 20
1.495718463828873
 30
0.0
 10
-61.85512748589863
 20
0.9448030968138772
 30
0.0
 10
-61.78835990279632
 20
0.6764981659363558
 30
0.0
 10
-61.61338411852208
 20
0.1681062041425614
 30
0.0
 10
-61.50486724875887
 20
-0.0748388859096183
 30
0.0
 10
-61.25266527021918
 20
-0.546440545498661
 30
0.0
 10
-61.10841641220432
 20
-0.7756423134383903
 30
0.0
 10
-60.95009154516165
 20
-0.9982487087140504
 30
0.0
  0
SPLINE
  5
368
330
1F
100
AcDbEntity
  8
0
  6
Continuous
 62
     1
370
    15
100
AcDbSpline
210
0.0
220
0.0
230
1.0
 70
     8
 71
     3
 72
    17
 73
    13
 74
     0
 42
0.000000001
 43
0.00000001
 40
0.0
 40
0.0
 40
0.0
 40
0.0
 40
0.0766873271039843
 40
0.1535742255416395
 40
0.2788170434957878
 40
0.4049313385474003
 40
0.5299323121477207
 40
0.6558011910998343
 40
0.7622381853485183
 40
0.8692094779650091
 40
0.9778144513919778
 40
1.0
 40
1.0
 40
1.0
 40
1.0
 10
-30.16249999999999
 20
2.291152071884155
 30
0.0
 10
-30.72255538355202
 20
2.602420176719572
 30
0.0
 10
-31.84412364049237
 20
3.225766431454658
 30
0.0
 10
-33.87903247265771
 20
4.311241879589985
 30
0.0
 10
-36.27662424461843
 20
5.509624228320638
 30
0.0
 10
-39.0250989917362
 20
6.730312498155334
 30
0.0
 10
-41.77819503081648
 20
7.766785168520122
 30
0.0
 10
-44.38762458798621
 20
8.543716682564211
 30
0.0
 10
-46.86476981564041
 20
9.08794231313731
 30
0.0
 10
-49.21586161517047
 20
9.404434772902468
 30
0.0
 10
-50.95199115231927
 20
9.543519688688898
 30
0.0
 10
-51.90717542945714
 20
9.513854971074126
 30
0.0
 10
-52.06920006916607
 20
9.508823046555856
 30
0.0
  0
SPLINE
  5
369
330
1F
100
AcDbEntity
  8
0
  6
Continuous
 62
     1
370
    15
100
AcDbSpline
210
0.0
220
0.0
230
1.0
 70
     8
 71
     3
 72
    10
 73
     6
 74
     0
 42
0.000000001
 43
0.00000001
 40
0.0
 40
0.0
 40
0.0
 40
0.0
 40
0.2726751486462007
 40
0.6363378390358573
 40
1.0
 40
1.0
 40
1.0
 40
1.0
 10
-38.47611025107798
 20
6.456313566514154
 30
0.0
 10
-37.72047162868918
 20
6.468318295382232
 30
0.0
 10
-35.95704929097249
 20
6.496333548198808
 30
0.0
 10
-33.18584631284611
 20
6.296933162197418
 30
0.0
 10
-31.17028161523353
 20
5.992951673826339
 30
0.0
 10
-30.16249999999999
 20
5.84096104027607
 30
0.0
  0
SPLINE
  5
36A
330
1F
100
AcDbEntity
  8
외형선
  6
Continuous
370
    15
100
AcDbSpline
210
0.0
220
0.0
230
1.0
 70
    24
 71
     3
 72
    14
 73
    10
 74
     0
 42
0.000000001
 43
0.00000001
 40
0.0
 40
0.0
 40
0.0
 40
0.0
 40
0.0058523100748525
 40
0.1850910733495886
 40
0.3643298366243253
 40
0.543568599899062
 40
0.7228073631737971
 40
0.9020461264485319
 40
1.0
 40
1.0
 40
1.0
 40
1.0
 10
-30.16249999999999
 20
2.379783074482707
 30
0.0
 10
-30.16249999999999
 20
2.381590299237442
 30
0.0
 10
-30.16249999999999
 20
2.438747415890444
 30
0.0
 10
-30.16249999999999
 20
2.697204273905107
 30
0.0
 10
-30.16249999999999
 20
3.161884813277942
 30
0.0
 10
-30.16249999999999
 20
3.778771009037253
 30
0.0
 10
-30.16249999999999
 20
4.512828816066416
 30
0.0
 10
-30.16249999999997
 20
5.216496653798855
 30
0.0
 10
-30.16249999999999
 20
5.67790819596518
 30
0.0
 10
-30.16249999999999
 20
5.840961040276073
 30
0.0
  0
SPLINE
  5
36B
330
1F
100
AcDbEntity
  8
0
  6
Continuous
 62
     1
370
    15
100
AcDbSpline
210
0.0
220
0.0
230
1.0
 70
     8
 71
     3
 72
    14
 73
    10
 74
     0
 42
0.000000001
 43
0.00000001
 40
0.0
 40
0.0
 40
0.0
 40
0.0
 40
0.25
 40
0.25
 40
0.5
 40
0.5
 40
0.75
 40
0.75
 40
1.0
 40
1.0
 40
1.0
 40
1.0
 10
-60.95009154516165
 20
-0.9982487087140628
 30
0.0
 10
-61.05965868096976
 20
-1.064220425145652
 30
0.0
 10
-61.15725650162599
 20
-1.146035737765197
 30
0.0
 10
-61.32843935778217
 20
-1.342262785143796
 30
0.0
 10
-61.40258521965947
 20
-1.458539011425368
 30
0.0
 10
-61.51951228700304
 20
-1.713304293363373
 30
0.0
 10
-61.56325634175059
 20
-1.852122996262833
 30
0.0
 10
-61.62310653695917
 20
-2.150333216197377
 30
0.0
 10
-61.63850717782506
 20
-2.307270450472493
 30
0.0
 10
-61.64116752623434
 20
-2.466881736312001
 30
0.0
  0
ARC
  5
36C
330
1F
100
AcDbEntity
  8
0
  6
Continuous
 62
     1
370
    15
100
AcDbCircle
 10
-58.94291525613633
 20
1.655758261512035
 30
0.0
 40
4.927141754074884
100
AcDbArc
 50
203.8412489969419
 51
236.795404819741
  0
ARC
  5
36D
330
1F
100
AcDbEntity
  8
0
  6
Continuous
 62
     1
370
    15
100
AcDbCircle
 10
-54.93366011717151
 20
-0.1767834421175509
 30
0.0
 40
8.517443225330894
100
AcDbArc
 50
181.0698250949141
 51
251.1613798616186
  0
SPLINE
  5
36E
330
1F
100
AcDbEntity
  8
0
  6
Continuous
 62
     1
370
    15
100
AcDbSpline
210
0.0
220
0.0
230
1.0
 70
     8
 71
     3
 72
    10
 73
     6
 74
     0
 42
0.000000001
 43
0.00000001
 40
0.0
 40
0.0
 40
0.0
 40
0.0
 40
0.5
 40
0.5
 40
1.0
 40
1.0
 40
1.0
 40
1.0
 10
-57.68397413055615
 20
-8.237962755624684
 30
0.0
 10
-57.09477673653308
 20
-8.597278505942425
 30
0.0
 10
-56.48818162236003
 20
-8.879676306941525
 30
0.0
 10
-55.25029059568797
 20
-9.29030316604779
 30
0.0
 10
-54.61338576703545
 20
-9.419120671323347
 30
0.0
 10
-53.97499999999999
 20
-9.46161297056119
 30
0.0
  0
SPLINE
  5
36F
330
1F
100
AcDbEntity
  8
0
  6
Continuous
 62
     1
370
    15
100
AcDbSpline
210
0.0
220
0.0
230
1.0
 70
     8
 71
     3
 72
     8
 73
     4
 74
     0
 42
0.000000001
 43
0.00000001
 40
0.0
 40
0.0
 40
0.0
 40
0.0
 40
1.0
 40
1.0
 40
1.0
 40
1.0
 10
-55.7515996218672
 20
-4.263860163215438
 30
0.0
 10
-57.68791908104313
 20
-3.725677110612925
 30
0.0
 10
-59.66204394982654
 20
-3.119389417257385
 30
0.0
 10
-61.64116752623434
 20
-2.466881736312076
 30
0.0
  0
SPLINE
  5
370
330
1F
100
AcDbEntity
  8
0
  6
Continuous
 62
     1
370
    15
100
AcDbSpline
210
0.0
220
0.0
230
1.0
 70
     8
 71
     3
 72
    14
 73
    10
 74
     0
 42
0.000000001
 43
0.00000001
 40
0.0033516282382851
 40
0.0033516282382851
 40
0.0033516282382851
 40
0.0033516282382851
 40
0.035942680241949
 40
0.2126266283589598
 40
0.3905373264742304
 40
0.5409818216482811
 40
0.6921815265009256
 40
0.8456903747725729
 40
1.0
 40
1.0
 40
1.0
 40
1.0
 10
-38.52806207867656
 20
-6.479534861072863
 30
0.0
 10
-38.69645432777508
 20
-6.554788055776259
 30
0.0
 10
-39.77774095523286
 20
-7.036663556739392
 30
0.0
 10
-41.77818522455217
 20
-7.757043711970455
 30
0.0
 10
-44.38762581056628
 20
-8.546544511508822
 30
0.0
 10
-46.8647724445419
 20
-9.085236566244502
 30
0.0
 10
-49.21584964544596
 20
-9.412837125140628
 30
0.0
 10
-51.58720608108908
 20
-9.562947971259225
 30
0.0
 10
-53.17768950154112
 20
-9.495449835324932
 30
0.0
 10
-53.97499999999994
 20
-9.46161297056119
 30
0.0
  0
SPLINE
  5
371
330
1F
100
AcDbEntity
  8
0
  6
Continuous
 62
     1
370
    15
100
AcDbSpline
210
0.0
220
0.0
230
1.0
 70
     8
 71
     3
 72
    20
 73
    16
 74
     0
 42
0.000000001
 43
0.00000001
 40
0.0
 40
0.0
 40
0.0
 40
0.0
 40
0.2500000000000002
 40
0.2500000000000002
 40
0.3750000000000002
 40
0.3750000000000002
 40
0.5000000000000002
 40
0.5000000000000002
 40
0.6250000000000002
 40
0.6250000000000002
 40
0.7500000000000001
 40
0.7500000000000001
 40
0.8750000000000001
 40
0.8750000000000001
 40
1.0
 40
1.0
 40
1.0
 40
1.0
 10
-57.68397413055615
 20
-8.237962755624688
 30
0.0
 10
-57.75155336950141
 20
-7.838094965975491
 30
0.0
 10
-57.78197026424689
 20
-7.43121451383431
 30
0.0
 10
-57.73774121186912
 20
-6.812844371093417
 30
0.0
 10
-57.70803213689683
 20
-6.610151234058734
 30
0.0
 10
-57.61347848495123
 20
-6.212818072211346
 30
0.0
 10
-57.54744329400259
 20
-6.015909748118969
 30
0.0
 10
-57.37964062743723
 20
-5.646246833992913
 30
0.0
 10
-57.27833876514947
 20
-5.473048426030322
 30
0.0
 10
-57.04022168827836
 20
-5.150393909598074
 30
0.0
 10
-56.90252862647324
 20
-5.000897873229829
 30
0.0
 10
-56.60634257938736
 20
-4.738091465843941
 30
0.0
 10
-56.44604596711909
 20
-4.62234095318344
 30
0.0
 10
-56.10671748659811
 20
-4.419959364312231
 30
0.0
 10
-55.93140059086139
 20
-4.335337828641056
 30
0.0
 10
-55.7515996218672
 20
-4.263860163215434
 30
0.0
  0
SPLINE
  5
372
330
1F
100
AcDbEntity
  8
0
  6
Continuous
 62
     1
370
    15
100
AcDbSpline
210
0.0
220
0.0
230
1.0
 70
     8
 71
     3
 72
     9
 73
     5
 74
     0
 42
0.000000001
 43
0.00000001
 40
0.0
 40
0.0
 40
0.0
 40
0.0
 40
0.4289526608987886
 40
1.0
 40
1.0
 40
1.0
 40
1.0
 10
-34.75156655958122
 20
6.364234847726862
 30
0.0
 10
-34.09543454950247
 20
6.644572568066738
 30
0.0
 10
-32.56582051539445
 20
7.298112564187718
 30
0.0
 10
-31.03606361018907
 20
7.793389908508622
 30
0.0
 10
-30.16249999999982
 20
8.076216718100186
 30
0.0
  0
SPLINE
  5
373
330
1F
100
AcDbEntity
  8
외형선
  6
Continuous
370
    15
100
AcDbSpline
210
0.0
220
0.0
230
1.0
 70
    24
 71
     3
 72
    11
 73
     7
 74
     0
 42
0.000000001
 43
0.00000001
 40
0.0
 40
0.0
 40
0.0
 40
0.0
 40
0.1853880994320804
 40
0.5001213115997152
 40
0.823981808241752
 40
1.0
 40
1.0
 40
1.0
 40
1.0
 10
-30.16249999999999
 20
5.929592042874599
 30
0.0
 10
-30.16249999999999
 20
6.018569042497435
 30
0.0
 10
-30.16249999999999
 20
6.258602215553849
 30
0.0
 10
-30.16249999999999
 20
6.824369482320747
 30
0.0
 10
-30.16249999999997
 20
7.467883959054539
 30
0.0
 10
-30.16249999999999
 20
7.917793687325417
 30
0.0
 10
-30.16249999999999
 20
8.07621671807737
 30
0.0
  0
LINE
  5
3AE
330
1F
100
AcDbEntity
  8
외형선
  6
Continuous
370
    15
100
AcDbLine
 10
-27.11229752504201
 20
-9.52500000000001
 30
0.0
 11
27.112297525042
 21
-9.525000000000002
 31
0.0
  0
ENDSEC
  0
SECTION
  2
OBJECTS
  0
DICTIONARY
  5
C
330
0
100
AcDbDictionary
281
     1
  3
ACAD_GROUP
350
D
  3
ACAD_IMAGE_VARS
350
145
  3
ACAD_LAYOUT
350
1A
  3
ACAD_MLINESTYLE
350
17
  3
ACAD_PLOTSETTINGS
350
19
  3
ACAD_PLOTSTYLENAME
350
E
  3
ACAD_SCALELIST
350
47
  3
APPDATA
350
143
  3
DWGPROPS
350
3D8
  0
DICTIONARY
  5
1EC
330
2
100
AcDbDictionary
280
     1
281
     1
  3
ACAD_LAYERSTATES
360
1ED
  0
DICTIONARY
  5
D
102
{ACAD_REACTORS
330
C
102
}
330
C
100
AcDbDictionary
281
     1
  0
RASTERVARIABLES
  5
145
102
{ACAD_REACTORS
330
C
102
}
330
C
100
AcDbRasterVariables
 90
        0
 70
     1
 71
     1
 72
     1
  0
DICTIONARY
  5
1A
102
{ACAD_REACTORS
330
C
102
}
330
C
100
AcDbDictionary
281
     1
  3
Layout1
350
1E
  3
Layout2
350
26
  3
Model
350
22
  0
DICTIONARY
  5
17
102
{ACAD_REACTORS
330
C
102
}
330
C
100
AcDbDictionary
281
     1
  3
Standard
350
18
  0
DICTIONARY
  5
19
102
{ACAD_REACTORS
330
C
102
}
330
C
100
AcDbDictionary
281
     1
  0
ACDBDICTIONARYWDFLT
  5
E
102
{ACAD_REACTORS
330
C
102
}
330
C
100
AcDbDictionary
281
     1
  3
Normal
350
F
100
AcDbDictionaryWithDefault
340
F
  0
DICTIONARY
  5
47
102
{ACAD_REACTORS
330
C
102
}
330
C
100
AcDbDictionary
281
     1
  3
A0
350
48
  3
A1
350
49
  3
A2
350
4A
  3
A3
350
4B
  3
A4
350
4C
  3
A5
350
4D
  3
A6
350
4E
  3
A7
350
4F
  3
A8
350
50
  3
A9
350
51
  3
B0
350
52
  3
B1
350
53
  3
B2
350
54
  3
B3
350
55
  3
B4
350
56
  3
B5
350
57
  3
B6
350
58
  3
B7
350
59
  3
B8
350
5A
  3
B9
350
5B
  3
C0
350
5C
  3
C1
350
5D
  3
C2
350
5E
  3
C3
350
5F
  3
C4
350
60
  3
C5
350
61
  3
C6
350
62
  3
C7
350
63
  3
C8
350
64
  3
C9
350
65
  3
D0
350
66
  3
D1
350
67
  3
D2
350
68
  0
DICTIONARY
  5
143
102
{ACAD_REACTORS
330
C
102
}
330
C
100
AcDbDictionary
281
     1
  0
XRECORD
  5
3D8
102
{ACAD_REACTORS
330
C
102
}
330
C
100
AcDbXrecord
280
     1
  1
DWGPROPS COOKIE
  2

  3

  4

  6

  7

  8
12017012
  9

300
=
301
=
302
=
303
=
304
=
305
=
306
=
307
=
308
=
309
=
 40
0.0
 41
2458319.369524247
 42
2458323.29079353
  1

 90
        0
  0
DICTIONARY
  5
1ED
102
{ACAD_REACTORS
330
1EC
102
}
330
1EC
100
AcDbDictionary
281
     1
  0
LAYOUT
  5
1E
102
{ACAD_REACTORS
330
1A
102
}
330
1A
100
AcDbPlotSettings
  1

  2
none_device
  4

  6

 40
0.0
 41
0.0
 42
0.0
 43
0.0
 44
0.0
 45
0.0
 46
0.0
 47
0.0
 48
0.0
 49
0.0
140
0.0
141
0.0
142
1.0
143
1.0
 70
   688
 72
     1
 73
     0
 74
     5
  7

 75
    16
147
1.0
148
0.0
149
0.0
100
AcDbLayout
  1
Layout1
 70
     1
 71
     1
 10
0.0
 20
0.0
 11
420.0
 21
297.0
 12
0.0
 22
0.0
 32
0.0
 14
1.000000000000000E+20
 24
1.000000000000000E+20
 34
1.000000000000000E+20
 15
-1.000000000000000E+20
 25
-1.000000000000000E+20
 35
-1.000000000000000E+20
146
0.0
 13
0.0
 23
0.0
 33
0.0
 16
1.0
 26
0.0
 36
0.0
 17
0.0
 27
1.0
 37
0.0
 76
     0
330
1B
  0
LAYOUT
  5
26
102
{ACAD_REACTORS
330
1A
102
}
330
1A
100
AcDbPlotSettings
  1

  2
none_device
  4

  6

 40
0.0
 41
0.0
 42
0.0
 43
0.0
 44
0.0
 45
0.0
 46
0.0
 47
0.0
 48
0.0
 49
0.0
140
0.0
141
0.0
142
1.0
143
1.0
 70
   688
 72
     1
 73
     0
 74
     5
  7

 75
    16
147
1.0
148
0.0
149
0.0
100
AcDbLayout
  1
Layout2
 70
     1
 71
     2
 10
0.0
 20
0.0
 11
0.0
 21
0.0
 12
0.0
 22
0.0
 32
0.0
 14
0.0
 24
0.0
 34
0.0
 15
0.0
 25
0.0
 35
0.0
146
0.0
 13
0.0
 23
0.0
 33
0.0
 16
1.0
 26
0.0
 36
0.0
 17
0.0
 27
1.0
 37
0.0
 76
     0
330
23
  0
LAYOUT
  5
22
102
{ACAD_REACTORS
330
1A
102
}
330
1A
100
AcDbPlotSettings
  1

  2
none_device
  4
ANSI_A_(11.00_x_8.50_Inches)
  6

 40
6.35
 41
19.05
 42
6.35000508
 43
19.05000254
 44
279.4
 45
215.9
 46
148.8430984876831
 47
41.23725264321991
 48
0.0
 49
0.0
140
0.0
141
0.0
142
0.0459632811870901
143
1.0
 70
  1696
 72
     0
 73
     0
 74
     0
  7

 75
     0
147
0.0235690232323232
148
0.0
149
0.0
100
AcDbLayout
  1
Model
 70
     1
 71
     0
 10
0.0
 20
0.0
 11
420.0
 21
297.0
 12
0.0
 22
0.0
 32
0.0
 14
1.000000000000000E+20
 24
1.000000000000000E+20
 34
1.000000000000000E+20
 15
-1.000000000000000E+20
 25
-1.000000000000000E+20
 35
-1.000000000000000E+20
146
0.0
 13
0.0
 23
0.0
 33
0.0
 16
1.0
 26
0.0
 36
0.0
 17
0.0
 27
1.0
 37
0.0
 76
     0
330
1F
331
29
  0
MLINESTYLE
  5
18
102
{ACAD_REACTORS
330
17
102
}
330
17
100
AcDbMlineStyle
  2
Standard
 70
     0
  3

 62
   256
 51
90.0
 52
90.0
 71
     2
 49
0.5
 62
   256
  6
BYLAYER
 49
-0.5
 62
   256
  6
BYLAYER
  0
ACDBPLACEHOLDER
  5
F
102
{ACAD_REACTORS
330
E
102
}
330
E
  0
SCALE
  5
48
102
{ACAD_REACTORS
330
47
102
}
330
47
100
AcDbScale
 70
     0
300
1:1
140
1.0
141
1.0
290
     1
  0
SCALE
  5
49
102
{ACAD_REACTORS
330
47
102
}
330
47
100
AcDbScale
 70
     0
300
1:2
140
1.0
141
2.0
290
     0
  0
SCALE
  5
4A
102
{ACAD_REACTORS
330
47
102
}
330
47
100
AcDbScale
 70
     0
300
1:4
140
1.0
141
4.0
290
     0
  0
SCALE
  5
4B
102
{ACAD_REACTORS
330
47
102
}
330
47
100
AcDbScale
 70
     0
300
1:5
140
1.0
141
5.0
290
     0
  0
SCALE
  5
4C
102
{ACAD_REACTORS
330
47
102
}
330
47
100
AcDbScale
 70
     0
300
1:8
140
1.0
141
8.0
290
     0
  0
SCALE
  5
4D
102
{ACAD_REACTORS
330
47
102
}
330
47
100
AcDbScale
 70
     0
300
1:10
140
1.0
141
10.0
290
     0
  0
SCALE
  5
4E
102
{ACAD_REACTORS
330
47
102
}
330
47
100
AcDbScale
 70
     0
300
1:16
140
1.0
141
16.0
290
     0
  0
SCALE
  5
4F
102
{ACAD_REACTORS
330
47
102
}
330
47
100
AcDbScale
 70
     0
300
1:20
140
1.0
141
20.0
290
     0
  0
SCALE
  5
50
102
{ACAD_REACTORS
330
47
102
}
330
47
100
AcDbScale
 70
     0
300
1:30
140
1.0
141
30.0
290
     0
  0
SCALE
  5
51
102
{ACAD_REACTORS
330
47
102
}
330
47
100
AcDbScale
 70
     0
300
1:40
140
1.0
141
40.0
290
     0
  0
SCALE
  5
52
102
{ACAD_REACTORS
330
47
102
}
330
47
100
AcDbScale
 70
     0
300
1:50
140
1.0
141
50.0
290
     0
  0
SCALE
  5
53
102
{ACAD_REACTORS
330
47
102
}
330
47
100
AcDbScale
 70
     0
300
1:100
140
1.0
141
100.0
290
     0
  0
SCALE
  5
54
102
{ACAD_REACTORS
330
47
102
}
330
47
100
AcDbScale
 70
     0
300
2:1
140
2.0
141
1.0
290
     0
  0
SCALE
  5
55
102
{ACAD_REACTORS
330
47
102
}
330
47
100
AcDbScale
 70
     0
300
4:1
140
4.0
141
1.0
290
     0
  0
SCALE
  5
56
102
{ACAD_REACTORS
330
47
102
}
330
47
100
AcDbScale
 70
     0
300
8:1
140
8.0
141
1.0
290
     0
  0
SCALE
  5
57
102
{ACAD_REACTORS
330
47
102
}
330
47
100
AcDbScale
 70
     0
300
10:1
140
10.0
141
1.0
290
     0
  0
SCALE
  5
58
102
{ACAD_REACTORS
330
47
102
}
330
47
100
AcDbScale
 70
     0
300
100:1
140
100.0
141
1.0
290
     0
  0
SCALE
  5
59
102
{ACAD_REACTORS
330
47
102
}
330
47
100
AcDbScale
 70
     0
300
1/128" = 1'-0"
140
0.0078125
141
12.0
290
     0
  0
SCALE
  5
5A
102
{ACAD_REACTORS
330
47
102
}
330
47
100
AcDbScale
 70
     0
300
1/64" = 1'-0"
140
0.015625
141
12.0
290
     0
  0
SCALE
  5
5B
102
{ACAD_REACTORS
330
47
102
}
330
47
100
AcDbScale
 70
     0
300
1/32" = 1'-0"
140
0.03125
141
12.0
290
     0
  0
SCALE
  5
5C
102
{ACAD_REACTORS
330
47
102
}
330
47
100
AcDbScale
 70
     0
300
1/16" = 1'-0"
140
0.0625
141
12.0
290
     0
  0
SCALE
  5
5D
102
{ACAD_REACTORS
330
47
102
}
330
47
100
AcDbScale
 70
     0
300
3/32" = 1'-0"
140
0.09375
141
12.0
290
     0
  0
SCALE
  5
5E
102
{ACAD_REACTORS
330
47
102
}
330
47
100
AcDbScale
 70
     0
300
1/8" = 1'-0"
140
0.125
141
12.0
290
     0
  0
SCALE
  5
5F
102
{ACAD_REACTORS
330
47
102
}
330
47
100
AcDbScale
 70
     0
300
3/16" = 1'-0"
140
0.1875
141
12.0
290
     0
  0
SCALE
  5
60
102
{ACAD_REACTORS
330
47
102
}
330
47
100
AcDbScale
 70
     0
300
1/4" = 1'-0"
140
0.25
141
12.0
290
     0
  0
SCALE
  5
61
102
{ACAD_REACTORS
330
47
102
}
330
47
100
AcDbScale
 70
     0
300
3/8" = 1'-0"
140
0.375
141
12.0
290
     0
  0
SCALE
  5
62
102
{ACAD_REACTORS
330
47
102
}
330
47
100
AcDbScale
 70
     0
300
1/2" = 1'-0"
140
0.5
141
12.0
290
     0
  0
SCALE
  5
63
102
{ACAD_REACTORS
330
47
102
}
330
47
100
AcDbScale
 70
     0
300
3/4" = 1'-0"
140
0.75
141
12.0
290
     0
  0
SCALE
  5
64
102
{ACAD_REACTORS
330
47
102
}
330
47
100
AcDbScale
 70
     0
300
1" = 1'-0"
140
1.0
141
12.0
290
     0
  0
SCALE
  5
65
102
{ACAD_REACTORS
330
47
102
}
330
47
100
AcDbScale
 70
     0
300
1-1/2" = 1'-0"
140
1.5
141
12.0
290
     0
  0
SCALE
  5
66
102
{ACAD_REACTORS
330
47
102
}
330
47
100
AcDbScale
 70
     0
300
3" = 1'-0"
140
3.0
141
12.0
290
     0
  0
SCALE
  5
67
102
{ACAD_REACTORS
330
47
102
}
330
47
100
AcDbScale
 70
     0
300
6" = 1'-0"
140
6.0
141
12.0
290
     0
  0
SCALE
  5
68
102
{ACAD_REACTORS
330
47
102
}
330
47
100
AcDbScale
 70
     0
300
1'-0" = 1'-0"
140
12.0
141
12.0
290
     0
  0
ENDSEC
  0
EOF
