  0
SECTION
  2
HEADER
  9
$ACADVER
  1
AC1015
  9
$ACADMAINTVER
 70
     6
  9
$DWGCODEPAGE
  3
ANSI_949
  9
$INSBASE
 10
0.0
 20
0.0
 30
0.0
  9
$EXTMIN
 10
1.000000000000000E+20
 20
1.000000000000000E+20
 30
1.000000000000000E+20
  9
$EXTMAX
 10
-1.000000000000000E+20
 20
-1.000000000000000E+20
 30
-1.000000000000000E+20
  9
$LIMMIN
 10
0.0
 20
0.0
  9
$LIMMAX
 10
420.0
 20
297.0
  9
$ORTHOMODE
 70
     1
  9
$REGENMODE
 70
     1
  9
$FILLMODE
 70
     1
  9
$QTEXTMODE
 70
     0
  9
$MIRRTEXT
 70
     1
  9
$LTSCALE
 40
1.0
  9
$ATTMODE
 70
     1
  9
$TEXTSIZE
 40
3.5
  9
$TRACEWID
 40
1.0
  9
$TEXTSTYLE
  7
Standard
  9
$CLAYER
  8
0
  9
$CELTYPE
  6
ByLayer
  9
$CECOLOR
 62
   256
  9
$CELTSCALE
 40
1.0
  9
$DISPSILH
 70
     0
  9
$DIMSCALE
 40
1.0
  9
$DIMASZ
 40
3.302
  9
$DIMEXO
 40
1.0
  9
$DIMDLI
 40
3.75
  9
$DIMRND
 40
0.0
  9
$DIMDLE
 40
0.0
  9
$DIMEXE
 40
1.0
  9
$DIMTP
 40
0.0
  9
$DIMTM
 40
0.0
  9
$DIMTXT
 40
3.5
  9
$DIMCEN
 40
2.5
  9
$DIMTSZ
 40
0.0
  9
$DIMTOL
 70
     0
  9
$DIMLIM
 70
     0
  9
$DIMTIH
 70
     1
  9
$DIMTOH
 70
     1
  9
$DIMSE1
 70
     0
  9
$DIMSE2
 70
     0
  9
$DIMTAD
 70
     1
  9
$DIMZIN
 70
     0
  9
$DIMBLK
  1

  9
$DIMASO
 70
     1
  9
$DIMSHO
 70
     1
  9
$DIMPOST
  1

  9
$DIMAPOST
  1

  9
$DIMALT
 70
     0
  9
$DIMALTD
 70
     3
  9
$DIMALTF
 40
0.0393700787401575
  9
$DIMLFAC
 40
1.0
  9
$DIMTOFL
 70
     1
  9
$DIMTVP
 40
0.0
  9
$DIMTIX
 70
     0
  9
$DIMSOXD
 70
     0
  9
$DIMSAH
 70
     0
  9
$DIMBLK1
  1

  9
$DIMBLK2
  1

  9
$DIMSTYLE
  2
ISO-25
  9
$DIMCLRD
 70
     0
  9
$DIMCLRE
 70
     0
  9
$DIMCLRT
 70
     0
  9
$DIMTFAC
 40
1.0
  9
$DIMGAP
 40
1.524
  9
$DIMJUST
 70
     0
  9
$DIMSD1
 70
     0
  9
$DIMSD2
 70
     0
  9
$DIMTOLJ
 70
     0
  9
$DIMTZIN
 70
     0
  9
$DIMALTZ
 70
     0
  9
$DIMALTTZ
 70
     0
  9
$DIMUPT
 70
     0
  9
$DIMDEC
 70
     2
  9
$DIMTDEC
 70
     2
  9
$DIMALTU
 70
     2
  9
$DIMALTTD
 70
     3
  9
$DIMTXSTY
  7
Standard
  9
$DIMAUNIT
 70
     0
  9
$DIMADEC
 70
     2
  9
$DIMALTRND
 40
0.0
  9
$DIMAZIN
 70
     0
  9
$DIMDSEP
 70
    44
  9
$DIMATFIT
 70
     3
  9
$DIMFRAC
 70
     0
  9
$DIMLDRBLK
  1

  9
$DIMLUNIT
 70
     2
  9
$DIMLWD
 70
    -2
  9
$DIMLWE
 70
    -2
  9
$DIMTMOVE
 70
     0
  9
$LUNITS
 70
     2
  9
$LUPREC
 70
     2
  9
$SKETCHINC
 40
1.0
  9
$FILLETRAD
 40
10.0
  9
$AUNITS
 70
     0
  9
$AUPREC
 70
     2
  9
$MENU
  1
.
  9
$ELEVATION
 40
0.0
  9
$PELEVATION
 40
0.0
  9
$THICKNESS
 40
0.0
  9
$LIMCHECK
 70
     0
  9
$CHAMFERA
 40
0.0
  9
$CHAMFERB
 40
0.0
  9
$CHAMFERC
 40
0.0
  9
$CHAMFERD
 40
0.0
  9
$SKPOLY
 70
     0
  9
$TDCREATE
 40
2458319.743677257
  9
$TDUCREATE
 40
2458319.368677257
  9
$TDUPDATE
 40
2458323.610325394
  9
$TDUUPDATE
 40
2458323.235325394
  9
$TDINDWG
 40
0.003404294
  9
$TDUSRTIMER
 40
2458323.233377963
  9
$USRTIMER
 70
     1
  9
$ANGBASE
 50
0.0
  9
$ANGDIR
 70
     0
  9
$PDMODE
 70
     0
  9
$PDSIZE
 40
-1.0
  9
$PLINEWID
 40
0.0
  9
$SPLFRAME
 70
     0
  9
$SPLINETYPE
 70
     6
  9
$SPLINESEGS
 70
     8
  9
$HANDSEED
  5
333
  9
$SURFTAB1
 70
     6
  9
$SURFTAB2
 70
     6
  9
$SURFTYPE
 70
     6
  9
$SURFU
 70
     6
  9
$SURFV
 70
     6
  9
$UCSBASE
  2

  9
$UCSNAME
  2

  9
$UCSORG
 10
0.0
 20
0.0
 30
0.0
  9
$UCSXDIR
 10
1.0
 20
0.0
 30
0.0
  9
$UCSYDIR
 10
0.0
 20
1.0
 30
0.0
  9
$UCSORTHOREF
  2

  9
$UCSORTHOVIEW
 70
     0
  9
$UCSORGTOP
 10
0.0
 20
0.0
 30
0.0
  9
$UCSORGBOTTOM
 10
0.0
 20
0.0
 30
0.0
  9
$UCSORGLEFT
 10
0.0
 20
0.0
 30
0.0
  9
$UCSORGRIGHT
 10
0.0
 20
0.0
 30
0.0
  9
$UCSORGFRONT
 10
0.0
 20
0.0
 30
0.0
  9
$UCSORGBACK
 10
0.0
 20
0.0
 30
0.0
  9
$PUCSBASE
  2

  9
$PUCSNAME
  2

  9
$PUCSORG
 10
0.0
 20
0.0
 30
0.0
  9
$PUCSXDIR
 10
1.0
 20
0.0
 30
0.0
  9
$PUCSYDIR
 10
0.0
 20
1.0
 30
0.0
  9
$PUCSORTHOREF
  2

  9
$PUCSORTHOVIEW
 70
     0
  9
$PUCSORGTOP
 10
0.0
 20
0.0
 30
0.0
  9
$PUCSORGBOTTOM
 10
0.0
 20
0.0
 30
0.0
  9
$PUCSORGLEFT
 10
0.0
 20
0.0
 30
0.0
  9
$PUCSORGRIGHT
 10
0.0
 20
0.0
 30
0.0
  9
$PUCSORGFRONT
 10
0.0
 20
0.0
 30
0.0
  9
$PUCSORGBACK
 10
0.0
 20
0.0
 30
0.0
  9
$USERI1
 70
     0
  9
$USERI2
 70
     0
  9
$USERI3
 70
     0
  9
$USERI4
 70
     0
  9
$USERI5
 70
     0
  9
$USERR1
 40
0.0
  9
$USERR2
 40
0.0
  9
$USERR3
 40
0.0
  9
$USERR4
 40
0.0
  9
$USERR5
 40
0.0
  9
$WORLDVIEW
 70
     1
  9
$SHADEDGE
 70
     3
  9
$SHADEDIF
 70
    70
  9
$TILEMODE
 70
     1
  9
$MAXACTVP
 70
    64
  9
$PINSBASE
 10
0.0
 20
0.0
 30
0.0
  9
$PLIMCHECK
 70
     0
  9
$PEXTMIN
 10
1.000000000000000E+20
 20
1.000000000000000E+20
 30
1.000000000000000E+20
  9
$PEXTMAX
 10
-1.000000000000000E+20
 20
-1.000000000000000E+20
 30
-1.000000000000000E+20
  9
$PLIMMIN
 10
0.0
 20
0.0
  9
$PLIMMAX
 10
0.0
 20
0.0
  9
$UNITMODE
 70
     0
  9
$VISRETAIN
 70
     1
  9
$PLINEGEN
 70
     0
  9
$PSLTSCALE
 70
     1
  9
$TREEDEPTH
 70
  3020
  9
$CMLSTYLE
  2
Standard
  9
$CMLJUST
 70
     0
  9
$CMLSCALE
 40
20.0
  9
$PROXYGRAPHICS
 70
     1
  9
$MEASUREMENT
 70
     1
  9
$CELWEIGHT
370
    -1
  9
$ENDCAPS
280
     0
  9
$JOINSTYLE
280
     0
  9
$LWDISPLAY
290
     1
  9
$INSUNITS
 70
     4
  9
$HYPERLINKBASE
  1

  9
$STYLESHEET
  1

  9
$XEDIT
290
     1
  9
$CEPSNTYPE
380
     0
  9
$PSTYLEMODE
290
     1
  9
$FINGERPRINTGUID
  2
{F7007414-EA2C-4131-8E1D-D80C6BEFFE2D}
  9
$VERSIONGUID
  2
{FAEB1C32-E019-11D5-929B-00C0DF256EC4}
  9
$EXTNAMES
290
     1
  9
$PSVPSCALE
 40
0.0
  9
$OLESTARTUP
290
     0
  0
ENDSEC
  0
SECTION
  2
CLASSES
  0
CLASS
  1
ACDBDICTIONARYWDFLT
  2
AcDbDictionaryWithDefault
  3
ObjectDBX Classes
 90
        0
280
     0
281
     0
  0
CLASS
  1
VISUALSTYLE
  2
AcDbVisualStyle
  3
ObjectDBX Classes
 90
     4095
280
     0
281
     0
  0
CLASS
  1
MATERIAL
  2
AcDbMaterial
  3
ObjectDBX Classes
 90
     1153
280
     0
281
     0
  0
CLASS
  1
SCALE
  2
AcDbScale
  3
ObjectDBX Classes
 90
     1153
280
     0
281
     0
  0
CLASS
  1
SUN
  2
AcDbSun
  3
SCENEOE
 90
     1153
280
     0
281
     0
  0
CLASS
  1
ACDBPLACEHOLDER
  2
AcDbPlaceHolder
  3
ObjectDBX Classes
 90
        0
280
     0
281
     0
  0
CLASS
  1
LAYOUT
  2
AcDbLayout
  3
ObjectDBX Classes
 90
        0
280
     0
281
     0
  0
CLASS
  1
TABLESTYLE
  2
AcDbTableStyle
  3
ObjectDBX Classes
 90
     4095
280
     0
281
     0
  0
CLASS
  1
MLEADERSTYLE
  2
AcDbMLeaderStyle
  3
ACDB_MLEADERSTYLE_CLASS
 90
     4095
280
     0
281
     0
  0
CLASS
  1
RASTERVARIABLES
  2
AcDbRasterVariables
  3
ISM
 90
        0
280
     0
281
     0
  0
CLASS
  1
DIMASSOC
  2
AcDbDimAssoc
  3
"AcDbDimAssoc|Product Desc:     AcDim ARX App For Dimension|Company:          Autodesk, Inc.|WEB Address:      www.autodesk.com"
 90
        0
280
     0
281
     0
  0
ENDSEC
  0
SECTION
  2
TABLES
  0
TABLE
  2
VPORT
  5
8
330
0
100
AcDbSymbolTable
 70
     1
  0
VPORT
  5
29
330
8
100
AcDbSymbolTableRecord
100
AcDbViewportTableRecord
  2
*Active
 70
     0
 10
0.0
 20
0.0
 11
1.0
 21
1.0
 12
-8.75972211754311
 22
-11.14123644937931
 13
0.0
 23
0.0
 14
10.0
 24
10.0
 15
10.0
 25
10.0
 16
0.0
 26
0.0
 36
1.0
 17
0.0
 27
0.0
 37
0.0
 40
123.631118403481
 41
1.632093933463796
 42
50.0
 43
0.0
 44
0.0
 50
0.0
 51
0.0
 71
    16
 72
  2000
 73
     1
 74
     3
 75
     0
 76
     0
 77
     0
 78
     0
281
     0
 65
     1
110
0.0
120
0.0
130
0.0
111
1.0
121
0.0
131
0.0
112
0.0
122
1.0
132
0.0
 79
     0
146
0.0
  0
ENDTAB
  0
TABLE
  2
LTYPE
  5
5
330
0
100
AcDbSymbolTable
 70
     6
  0
LTYPE
  5
14
330
5
100
AcDbSymbolTableRecord
100
AcDbLinetypeTableRecord
  2
ByBlock
 70
     0
  3

 72
    65
 73
     0
 40
0.0
  0
LTYPE
  5
15
330
5
100
AcDbSymbolTableRecord
100
AcDbLinetypeTableRecord
  2
ByLayer
 70
     0
  3

 72
    65
 73
     0
 40
0.0
  0
LTYPE
  5
16
330
5
100
AcDbSymbolTableRecord
100
AcDbLinetypeTableRecord
  2
Continuous
 70
     0
  3
Solid line
 72
    65
 73
     0
 40
0.0
  0
LTYPE
  5
6A
330
5
100
AcDbSymbolTableRecord
100
AcDbLinetypeTableRecord
  2
HIDDEN
 70
     0
  3
Hidden __ __ __ __ __ __ __ __ __ __ __ __ __ __
 72
    65
 73
     2
 40
1.905
 49
1.27
 74
     0
 49
-0.635
 74
     0
  0
LTYPE
  5
6B
330
5
100
AcDbSymbolTableRecord
100
AcDbLinetypeTableRecord
  2
PHANTOM
 70
     0
  3
Phantom ______  __  __  ______  __  __  ______
 72
    65
 73
     6
 40
12.7
 49
6.35
 74
     0
 49
-1.27
 74
     0
 49
1.27
 74
     0
 49
-1.27
 74
     0
 49
1.27
 74
     0
 49
-1.27
 74
     0
  0
LTYPE
  5
6C
330
5
100
AcDbSymbolTableRecord
100
AcDbLinetypeTableRecord
  2
CENTER
 70
     0
  3
Center ____ _ ____ _ ____ _ ____ _ ____ _ ____
 72
    65
 73
     4
 40
10.16
 49
6.35
 74
     0
 49
-1.27
 74
     0
 49
1.27
 74
     0
 49
-1.27
 74
     0
  0
LTYPE
  5
6D
330
5
100
AcDbSymbolTableRecord
100
AcDbLinetypeTableRecord
  2
CENTERX2
 70
     0
  3
Center (2x) ________  __  ________  __  _____
 72
    65
 73
     4
 40
20.32
 49
12.7
 74
     0
 49
-2.54
 74
     0
 49
2.54
 74
     0
 49
-2.54
 74
     0
  0
LTYPE
  5
6E
330
5
100
AcDbSymbolTableRecord
100
AcDbLinetypeTableRecord
  2
DOT2
 70
     0
  3
Dot (.5x) ........................................
 72
    65
 73
     2
 40
0.635
 49
0.0
 74
     0
 49
-0.635
 74
     0
  0
ENDTAB
  0
TABLE
  2
LAYER
  5
2
102
{ACAD_XDICTIONARY
360
170
102
}
330
0
100
AcDbSymbolTable
 70
    18
  0
LAYER
  5
10
330
2
100
AcDbSymbolTableRecord
100
AcDbLayerTableRecord
  2
0
 70
     0
 62
     7
  6
Continuous
370
    -3
390
F
  0
LAYER
  5
6F
330
2
100
AcDbSymbolTableRecord
100
AcDbLayerTableRecord
  2
FORMAT
 70
     0
 62
     2
  6
Continuous
370
    -3
390
F
  0
LAYER
  5
70
330
2
100
AcDbSymbolTableRecord
100
AcDbLayerTableRecord
  2
외형선
 70
     0
 62
     4
  6
Continuous
370
    30
390
F
  0
LAYER
  5
71
330
2
100
AcDbSymbolTableRecord
100
AcDbLayerTableRecord
  2
숨은선
 70
     0
 62
     2
  6
HIDDEN
370
    15
390
F
  0
LAYER
  5
72
330
2
100
AcDbSymbolTableRecord
100
AcDbLayerTableRecord
  2
중심선
 70
     0
 62
     1
  6
CENTERX2
370
    -3
390
F
  0
LAYER
  5
73
330
2
100
AcDbSymbolTableRecord
100
AcDbLayerTableRecord
  2
파단선
 70
     0
 62
     4
  6
Continuous
370
    -3
390
F
  0
LAYER
  5
74
330
2
100
AcDbSymbolTableRecord
100
AcDbLayerTableRecord
  2
해칭선
 70
     0
 62
   100
  6
Continuous
370
    -3
390
F
  0
LAYER
  5
75
330
2
100
AcDbSymbolTableRecord
100
AcDbLayerTableRecord
  2
가는실선
 70
     0
 62
     4
  6
Continuous
370
    -3
390
F
  0
LAYER
  5
76
330
2
100
AcDbSymbolTableRecord
100
AcDbLayerTableRecord
  2
치수_보조선
 70
     0
 62
     4
  6
Continuous
370
    -3
390
F
  0
LAYER
  5
77
330
2
100
AcDbSymbolTableRecord
100
AcDbLayerTableRecord
  2
치수문자_일반주서
 70
     0
 62
     7
  6
Continuous
370
    15
390
F
  0
LAYER
  5
78
330
2
100
AcDbSymbolTableRecord
100
AcDbLayerTableRecord
  2
개별주서
 70
     0
 62
   100
  6
Continuous
370
    30
390
F
  0
LAYER
  5
79
330
2
100
AcDbSymbolTableRecord
100
AcDbLayerTableRecord
  2
중간선
 70
     0
 62
     2
  6
Continuous
370
    15
390
F
  0
LAYER
  5
7A
330
2
100
AcDbSymbolTableRecord
100
AcDbLayerTableRecord
  2
윤곽선
 70
     0
 62
     3
  6
Continuous
370
    40
390
F
  0
LAYER
  5
7B
330
2
100
AcDbSymbolTableRecord
100
AcDbLayerTableRecord
  2
중심마크
 70
     0
 62
   100
  6
Continuous
370
    30
390
F
  0
LAYER
  5
7C
330
2
100
AcDbSymbolTableRecord
100
AcDbLayerTableRecord
  2
가상선
 70
     0
 62
     4
  6
PHANTOM
370
    -3
390
F
  0
LAYER
  5
7D
330
2
100
AcDbSymbolTableRecord
100
AcDbLayerTableRecord
  2
특수지정선
 70
     0
 62
     5
  6
CENTERX2
370
    60
390
F
  0
LAYER
  5
7E
330
2
100
AcDbSymbolTableRecord
100
AcDbLayerTableRecord
  2
참조1
 70
     0
 62
    -4
  6
Continuous
370
    -3
390
F
  0
LAYER
  5
144
330
2
100
AcDbSymbolTableRecord
100
AcDbLayerTableRecord
  2
Defpoints
 70
     0
 62
     7
  6
Continuous
290
     0
370
    -3
390
F
  0
ENDTAB
  0
TABLE
  2
STYLE
  5
3
330
0
100
AcDbSymbolTable
 70
     2
  0
STYLE
  5
11
330
3
100
AcDbSymbolTableRecord
100
AcDbTextStyleTableRecord
  2
Standard
 70
     0
 40
0.0
 41
1.0
 50
0.0
 71
     0
 42
3.5
  3
txt
  4

  0
STYLE
  5
94
330
3
100
AcDbSymbolTableRecord
100
AcDbTextStyleTableRecord
  2
SLDTEXTSTYLE0
 70
     0
 40
0.0
 41
0.75
 50
0.0
 71
     0
 42
3.5
  3
TXT
  4

  0
ENDTAB
  0
TABLE
  2
VIEW
  5
6
330
0
100
AcDbSymbolTable
 70
     0
  0
ENDTAB
  0
TABLE
  2
UCS
  5
7
330
0
100
AcDbSymbolTable
 70
     0
  0
ENDTAB
  0
TABLE
  2
APPID
  5
9
330
0
100
AcDbSymbolTable
 70
     1
  0
APPID
  5
12
330
9
100
AcDbSymbolTableRecord
100
AcDbRegAppTableRecord
  2
ACAD
 70
     0
  0
ENDTAB
  0
TABLE
  2
DIMSTYLE
  5
A
330
0
100
AcDbSymbolTable
 70
     3
100
AcDbDimStyleTable
  0
DIMSTYLE
105
27
330
A
100
AcDbSymbolTableRecord
100
AcDbDimStyleTableRecord
  2
ISO-25
 70
     0
 41
2.5
 42
0.625
 43
3.75
 44
1.25
 73
     0
 74
     0
 77
     1
 78
     8
140
2.5
141
2.5
143
0.03937007874016
147
0.625
171
     3
172
     1
178
     0
271
     2
272
     2
274
     3
278
    44
283
     0
284
     8
340
11
  0
DIMSTYLE
105
C3
102
{ACAD_REACTORS
330
C2
330
D7
330
FF
330
1AA
330
269
330
277
330
284
330
29A
102
}
330
A
100
AcDbSymbolTableRecord
100
AcDbDimStyleTableRecord
  2
SLDDIMSTYLE0
 70
     0
 41
3.302
 44
0.0
 45
0.000000001
 73
     0
 74
     0
 77
     1
 78
    12
 79
     3
140
3.5
143
0.0393700787401575
147
0.875
148
0.000000001
170
     1
173
     1
178
     0
271
     2
272
     2
276
     2
284
    12
340
94
  0
DIMSTYLE
105
EB
330
A
100
AcDbSymbolTableRecord
100
AcDbDimStyleTableRecord
  2
SLDDIMSTYLE1
 70
     0
 41
3.302
 44
0.0
 45
0.000000001
 73
     0
 74
     0
 77
     1
 78
    12
 79
     3
140
3.5
143
0.0393700787401575
147
0.875
148
0.000000001
170
     1
172
     1
173
     1
178
     0
271
     2
272
     2
276
     2
284
    12
289
     0
340
94
  0
ENDTAB
  0
TABLE
  2
BLOCK_RECORD
  5
1
330
0
100
AcDbSymbolTable
 70
    18
  0
BLOCK_RECORD
  5
1F
330
1
100
AcDbSymbolTableRecord
100
AcDbBlockTableRecord
  2
*Model_Space
340
22
  0
BLOCK_RECORD
  5
1B
330
1
100
AcDbSymbolTableRecord
100
AcDbBlockTableRecord
  2
*Paper_Space
340
1E
  0
BLOCK_RECORD
  5
23
330
1
100
AcDbSymbolTableRecord
100
AcDbBlockTableRecord
  2
*Paper_Space0
340
26
  0
BLOCK_RECORD
  5
7F
330
1
100
AcDbSymbolTableRecord
100
AcDbBlockTableRecord
  2
블럭10
340
0
102
{BLKREFS
331
BB
102
}
  0
BLOCK_RECORD
  5
C4
330
1
100
AcDbSymbolTableRecord
100
AcDbBlockTableRecord
  2
_D
340
0
  0
BLOCK_RECORD
  5
D8
330
1
100
AcDbSymbolTableRecord
100
AcDbBlockTableRecord
  2
_D_1
340
0
  0
BLOCK_RECORD
  5
EC
330
1
100
AcDbSymbolTableRecord
100
AcDbBlockTableRecord
  2
_D_2
340
0
  0
BLOCK_RECORD
  5
100
330
1
100
AcDbSymbolTableRecord
100
AcDbBlockTableRecord
  2
_D_3
340
0
  0
BLOCK_RECORD
  5
119
330
1
100
AcDbSymbolTableRecord
100
AcDbBlockTableRecord
  2
SW_DOWELSYMBOL_0
340
0
102
{BLKREFS
331
11F
331
292
331
2F5
102
}
  0
BLOCK_RECORD
  5
1AD
330
1
100
AcDbSymbolTableRecord
100
AcDbBlockTableRecord
  2
*D7
340
0
  0
BLOCK_RECORD
  5
29B
330
1
100
AcDbSymbolTableRecord
100
AcDbBlockTableRecord
  2
*D10
340
0
  0
BLOCK_RECORD
  5
2AE
330
1
100
AcDbSymbolTableRecord
100
AcDbBlockTableRecord
  2
*D11
340
0
  0
BLOCK_RECORD
  5
2BB
330
1
100
AcDbSymbolTableRecord
100
AcDbBlockTableRecord
  2
*D12
340
0
  0
BLOCK_RECORD
  5
2C7
330
1
100
AcDbSymbolTableRecord
100
AcDbBlockTableRecord
  2
*D13
340
0
  0
BLOCK_RECORD
  5
2FD
330
1
100
AcDbSymbolTableRecord
100
AcDbBlockTableRecord
  2
*D14
340
0
  0
BLOCK_RECORD
  5
30A
330
1
100
AcDbSymbolTableRecord
100
AcDbBlockTableRecord
  2
*D15
340
0
  0
BLOCK_RECORD
  5
316
330
1
100
AcDbSymbolTableRecord
100
AcDbBlockTableRecord
  2
*D16
340
0
  0
BLOCK_RECORD
  5
323
330
1
100
AcDbSymbolTableRecord
100
AcDbBlockTableRecord
  2
*D17
340
0
  0
ENDTAB
  0
ENDSEC
  0
SECTION
  2
BLOCKS
  0
BLOCK
  5
20
330
1F
100
AcDbEntity
  8
0
100
AcDbBlockBegin
  2
*Model_Space
 70
     0
 10
0.0
 20
0.0
 30
0.0
  3
*Model_Space
  1
*Model_Space
  0
ENDBLK
  5
21
330
1F
100
AcDbEntity
  8
0
100
AcDbBlockEnd
  0
BLOCK
  5
1C
330
1B
100
AcDbEntity
 67
     1
  8
0
100
AcDbBlockBegin
  2
*Paper_Space
 70
     0
 10
0.0
 20
0.0
 30
0.0
  3
*Paper_Space
  1
*Paper_Space
  0
ENDBLK
  5
1D
330
1B
100
AcDbEntity
 67
     1
  8
0
100
AcDbBlockEnd
  0
BLOCK
  5
24
330
23
100
AcDbEntity
  8
0
100
AcDbBlockBegin
  2
*Paper_Space0
 70
     0
 10
0.0
 20
0.0
 30
0.0
  3
*Paper_Space0
  1
*Paper_Space0
  0
ENDBLK
  5
25
330
23
100
AcDbEntity
  8
0
100
AcDbBlockEnd
  0
BLOCK
  5
80
330
7F
100
AcDbEntity
  8
0
100
AcDbBlockBegin
  2
블럭10
 70
     2
 10
0.0
 20
0.0
 30
0.0
  3
블럭10
  1
블럭10
  0
ELLIPSE
  5
82
330
7F
100
AcDbEntity
  8
중심선
100
AcDbEllipse
 10
20.54032771741204
 20
12.0471743016438
 30
0.0
 11
6.600054785286829
 21
-1.261213355974178E-13
 31
0.0
210
0.0
220
0.0
230
1.0
 40
0.636358354079598
 41
0.9219305317359503
 42
6.513795318482858
  0
ELLIPSE
  5
83
330
7F
100
AcDbEntity
  8
중심선
100
AcDbEllipse
 10
20.54032771746488
 20
12.04717430159265
 30
0.0
 11
3.960054785062283
 21
1.540847449632565E-10
 31
0.0
210
0.0
220
0.0
230
1.0
 40
0.3939339440162632
 41
1.131841032648279
 42
5.62031148352944
  0
LINE
  5
84
330
7F
100
AcDbEntity
  8
중심선
100
AcDbLine
 10
2.268634060543552
 20
16.24717430164393
 30
0.0
 11
5.714909304380834
 21
16.24717430164393
 31
0.0
  0
LINE
  5
85
330
7F
100
AcDbEntity
  8
중심선
100
AcDbLine
 10
5.245725140726316
 20
7.84717430164391
 30
0.0
 11
8.692000384563599
 21
7.84717430164391
 31
0.0
  0
LINE
  5
86
330
7F
100
AcDbEntity
  8
중심선
100
AcDbLine
 10
15.74043728645272
 20
16.24717430164393
 30
0.0
 11
8.692000384563599
 21
7.84717430164391
 31
0.0
  0
LINE
  5
87
330
7F
100
AcDbEntity
  8
중심선
100
AcDbLine
 10
0.1404042013395286
 20
13.71084872107135
 30
0.0
 11
3.58671253028996
 21
13.71088815037384
 31
0.0
  0
LINE
  5
88
330
7F
100
AcDbEntity
  8
중심선
100
AcDbLine
 10
2.750260043222114
 20
10.84717430164391
 30
0.0
 11
6.196535287059397
 21
10.84717430164391
 31
0.0
  0
LINE
  5
89
330
7F
100
AcDbEntity
  8
중심선
100
AcDbLine
 10
12.29416204261559
 20
16.24717430164393
 30
0.0
 11
5.245725140726316
 21
7.84717430164391
 31
0.0
  0
LINE
  5
8A
330
7F
100
AcDbEntity
  8
중심선
100
AcDbLine
 10
10.72767329541681
 20
16.24717430164393
 30
0.0
 11
6.196535287059397
 21
10.84717430164391
 31
0.0
  0
LINE
  5
8B
330
7F
100
AcDbEntity
  8
중심선
100
AcDbLine
 10
7.28139805157953
 20
16.24717430164393
 30
0.0
 11
2.750260043222114
 21
10.84717430164391
 31
0.0
  0
LINE
  5
8C
330
7F
100
AcDbEntity
  8
중심선
100
AcDbLine
 10
5.714909304380834
 20
16.24717430164393
 30
0.0
 11
3.58671253028996
 21
13.71088815037384
 31
0.0
  0
LINE
  5
8D
330
7F
100
AcDbEntity
  8
중심선
100
AcDbLine
 10
2.268634060543552
 20
16.24717430164393
 30
0.0
 11
0.1404042013395286
 21
13.71084872107135
 31
0.0
  0
LINE
  5
8E
330
7F
100
AcDbEntity
  8
중심선
100
AcDbLine
 10
7.28139805157953
 20
16.24717430164393
 30
0.0
 11
10.72767329541681
 21
16.24717430164393
 31
0.0
  0
LINE
  5
8F
330
7F
100
AcDbEntity
  8
중심선
100
AcDbLine
 10
12.29416204261559
 20
16.24717430164393
 30
0.0
 11
15.74043728645272
 21
16.24717430164393
 31
0.0
  0
LINE
  5
90
330
7F
100
AcDbEntity
  8
중심선
100
AcDbLine
 10
19.22036997980202
 20
11.08717430171403
 30
0.0
 11
23.66174974927406
 21
11.08717430171406
 31
0.0
  0
LINE
  5
91
330
7F
100
AcDbEntity
  8
중심선
100
AcDbLine
 10
19.22039502424796
 20
13.00717430171391
 30
0.0
 11
19.22036997980202
 21
11.08717430171403
 31
0.0
  0
LINE
  5
92
330
7F
100
AcDbEntity
  8
중심선
100
AcDbLine
 10
19.22039502424796
 20
13.00717430171391
 30
0.0
 11
26.96566020931264
 21
13.00717430171391
 31
0.0
  0
LINE
  5
93
330
7F
100
AcDbEntity
  8
중심선
100
AcDbLine
 10
22.22332737316547
 20
13.45928029700563
 30
0.0
 11
24.52862924686651
 21
15.39360700705356
 31
0.0
  0
ATTDEF
  5
95
330
7F
100
AcDbEntity
  8
FORMAT
 62
     2
100
AcDbText
 10
4.408487351596664
 20
2.075366912832191
 30
0.0
 40
4.233333333333333
  1
E1112024
 41
0.75
  7
SLDTEXTSTYLE0
 11
4.408487351596664
 21
-0.0412997538344756
 31
0.0
100
AcDbAttributeDefinition
  3

  2
AUTOATTR0
 70
     0
 74
     1
  0
ENDBLK
  5
81
330
7F
100
AcDbEntity
  8
0
100
AcDbBlockEnd
  0
BLOCK
  5
C5
330
C4
100
AcDbEntity
  8
0
100
AcDbBlockBegin
  2
_D
 70
     0
 10
0.0
 20
0.0
 30
0.0
  3
_D
  1
_D
  0
LINE
  5
C7
330
C4
100
AcDbEntity
  8
0
  6
Continuous
 62
     0
370
    -2
100
AcDbLine
 10
39.68749999999999
 20
4.825000000000005
 30
0.0
 11
39.68749999999999
 21
15.586851049091
 31
0.0
  0
LINE
  5
C8
330
C4
100
AcDbEntity
  8
0
  6
Continuous
 62
     0
370
    -2
100
AcDbLine
 10
25.4
 20
3.263681030340421
 30
0.0
 11
25.39999999999999
 21
15.586851049091
 31
0.0
  0
LINE
  5
C9
330
C4
100
AcDbEntity
  8
0
  6
Continuous
 62
     0
370
    -2
100
AcDbLine
 10
25.39999999999999
 20
15.586851049091
 30
0.0
 11
-12.45241307768972
 21
15.586851049091
 31
0.0
  0
LINE
  5
CA
330
C4
100
AcDbEntity
  8
0
  6
Continuous
 62
     0
370
    -2
100
AcDbLine
 10
36.38549999999999
 20
15.586851049091
 30
0.0
 11
28.70199999999999
 21
15.586851049091
 31
0.0
  0
SOLID
  5
CB
330
C4
100
AcDbEntity
  8
0
 62
     0
100
AcDbTrace
 10
36.38549999999999
 20
15.03651771575767
 30
0.0
 11
36.38549999999999
 21
16.13718438242434
 31
0.0
 12
39.68749999999999
 22
15.586851049091
 32
0.0
 13
39.68749999999999
 23
15.586851049091
 33
0.0
  0
SOLID
  5
CC
330
C4
100
AcDbEntity
  8
0
 62
     0
100
AcDbTrace
 10
28.70199999999999
 20
16.13718438242434
 30
0.0
 11
28.70199999999999
 21
15.03651771575767
 31
0.0
 12
25.39999999999999
 22
15.586851049091
 32
0.0
 13
25.39999999999999
 23
15.586851049091
 33
0.0
  0
MTEXT
  5
CD
330
C4
100
AcDbEntity
  8
0
 62
     0
370
    15
100
AcDbMText
 10
1.110086922310275
 20
19.961851049091
 30
0.0
 40
3.5
 41
0.0
 71
     2
 72
     1
  1
\A1;14.29 [9/16]
  7
SLDTEXTSTYLE0
 73
     1
 44
1.0
  0
POINT
  5
CE
330
C4
100
AcDbEntity
  8
Defpoints
 62
     0
100
AcDbPoint
 10
39.68749999999999
 20
4.762500000000005
 30
0.0
  0
POINT
  5
CF
330
C4
100
AcDbEntity
  8
Defpoints
 62
     0
100
AcDbPoint
 10
25.4
 20
3.201181030340421
 30
0.0
  0
POINT
  5
D0
330
C4
100
AcDbEntity
  8
Defpoints
 62
     0
100
AcDbPoint
 10
25.4
 20
15.586851049091
 30
0.0
  0
ENDBLK
  5
C6
330
C4
100
AcDbEntity
  8
0
100
AcDbBlockEnd
  0
BLOCK
  5
D9
330
D8
100
AcDbEntity
  8
0
100
AcDbBlockBegin
  2
_D_1
 70
     0
 10
0.0
 20
0.0
 30
0.0
  3
_D_1
  1
_D_1
  0
LINE
  5
DB
330
D8
100
AcDbEntity
  8
0
  6
Continuous
 62
     0
370
    -2
100
AcDbLine
 10
39.68749999999999
 20
4.825000000000005
 30
0.0
 11
39.68749999999999
 21
29.28797898817498
 31
0.0
  0
LINE
  5
DC
330
D8
100
AcDbEntity
  8
0
  6
Continuous
 62
     0
370
    -2
100
AcDbLine
 10
-39.68749999999999
 20
4.824999999999997
 30
0.0
 11
-39.68749999999999
 21
29.28797898817498
 31
0.0
  0
LINE
  5
DD
330
D8
100
AcDbEntity
  8
0
  6
Continuous
 62
     0
370
    -2
100
AcDbLine
 10
36.38549999999999
 20
29.28797898817498
 30
0.0
 11
-36.38549999999999
 21
29.28797898817498
 31
0.0
  0
SOLID
  5
DE
330
D8
100
AcDbEntity
  8
0
 62
     0
100
AcDbTrace
 10
36.38549999999999
 20
28.73764565484165
 30
0.0
 11
36.38549999999999
 21
29.83831232150832
 31
0.0
 12
39.68749999999999
 22
29.28797898817498
 32
0.0
 13
39.68749999999999
 23
29.28797898817498
 33
0.0
  0
SOLID
  5
DF
330
D8
100
AcDbEntity
  8
0
 62
     0
100
AcDbTrace
 10
-36.38549999999999
 20
29.83831232150832
 30
0.0
 11
-36.38549999999999
 21
28.73764565484165
 31
0.0
 12
-39.68749999999999
 22
29.28797898817498
 32
0.0
 13
-39.68749999999999
 23
29.28797898817498
 33
0.0
  0
MTEXT
  5
E0
330
D8
100
AcDbEntity
  8
0
 62
     0
370
    15
100
AcDbMText
 10
0.3473945869787851
 20
33.66297898817498
 30
0.0
 40
3.5
 41
0.0
 71
     2
 72
     1
  1
\A1;79.38 [3 1/8]
  7
SLDTEXTSTYLE0
 73
     1
 44
1.0
  0
POINT
  5
E1
330
D8
100
AcDbEntity
  8
Defpoints
 62
     0
100
AcDbPoint
 10
39.68749999999999
 20
4.762500000000005
 30
0.0
  0
POINT
  5
E2
330
D8
100
AcDbEntity
  8
Defpoints
 62
     0
100
AcDbPoint
 10
-39.68749999999999
 20
4.762499999999997
 30
0.0
  0
POINT
  5
E3
330
D8
100
AcDbEntity
  8
Defpoints
 62
     0
100
AcDbPoint
 10
-39.68749999999999
 20
29.28797898817498
 30
0.0
  0
ENDBLK
  5
DA
330
D8
100
AcDbEntity
  8
0
100
AcDbBlockEnd
  0
BLOCK
  5
ED
330
EC
100
AcDbEntity
  8
0
100
AcDbBlockBegin
  2
_D_2
 70
     0
 10
0.0
 20
0.0
 30
0.0
  3
_D_2
  1
_D_2
  0
SOLID
  5
EF
330
EC
100
AcDbEntity
  8
치수문자_일반주서
100
AcDbTrace
 10
-68.59286934298441
 20
4.763574928723899
 30
0.0
 11
-68.08486934298442
 21
8.065574928723898
 31
0.0
 12
-69.10086934298441
 22
8.065574928723898
 32
0.0
 13
-69.10086934298441
 23
8.065574928723898
 33
0.0
  0
SOLID
  5
F0
330
EC
100
AcDbEntity
  8
치수문자_일반주서
100
AcDbTrace
 10
-68.59286934298441
 20
-4.761425071276107
 30
0.0
 11
-69.10086934298441
 21
-8.063425071276107
 31
0.0
 12
-68.08486934298442
 22
-8.063425071276107
 32
0.0
 13
-68.08486934298442
 23
-8.063425071276107
 33
0.0
  0
LINE
  5
F1
330
EC
100
AcDbEntity
  8
치수문자_일반주서
100
AcDbLine
 10
-79.38575105902714
 20
-5.4132915023448
 30
0.0
 11
-79.38575105902714
 21
-6.124228987909301
 31
0.0
  0
LINE
  5
F2
330
EC
100
AcDbEntity
  8
치수문자_일반주서
100
AcDbLine
 10
-79.38575105902714
 20
-6.124228987909301
 30
0.0
 11
-73.82950106796784
 21
-6.124228987909262
 31
0.0
  0
LINE
  5
F3
330
EC
100
AcDbEntity
  8
치수문자_일반주서
100
AcDbLine
 10
-73.82950106796784
 20
-6.124228987909262
 30
0.0
 11
-73.82950106796784
 21
-5.413291502344761
 31
0.0
  0
LINE
  5
F4
330
EC
100
AcDbEntity
  8
치수문자_일반주서
100
AcDbLine
 10
-79.38575105902723
 20
5.415441359792458
 30
0.0
 11
-79.38575105902723
 21
6.126378845356958
 31
0.0
  0
LINE
  5
F5
330
EC
100
AcDbEntity
  8
치수문자_일반주서
100
AcDbLine
 10
-79.38575105902723
 20
6.126378845356958
 30
0.0
 11
-73.82950106796793
 21
6.126378845356997
 31
0.0
  0
LINE
  5
F6
330
EC
100
AcDbEntity
  8
치수문자_일반주서
100
AcDbLine
 10
-73.82950106796793
 20
6.126378845356997
 30
0.0
 11
-73.82950106796793
 21
5.415441359792497
 31
0.0
  0
LINE
  5
F7
330
EC
100
AcDbEntity
  8
치수문자_일반주서
100
AcDbLine
 10
-56.16286934298443
 20
4.7635749287239
 30
0.0
 11
-69.59286934298441
 21
4.763574928723899
 31
0.0
  0
LINE
  5
F8
330
EC
100
AcDbEntity
  8
치수문자_일반주서
100
AcDbLine
 10
-56.16286934298443
 20
-4.761425071276106
 30
0.0
 11
-69.59286934298441
 21
-4.761425071276107
 31
0.0
  0
LINE
  5
F9
330
EC
100
AcDbEntity
  8
치수문자_일반주서
100
AcDbLine
 10
-68.59286934298441
 20
4.763574928723899
 30
0.0
 11
-68.59286934298441
 21
11.1135749287239
 31
0.0
  0
LINE
  5
FA
330
EC
100
AcDbEntity
  8
치수문자_일반주서
100
AcDbLine
 10
-68.59286934298441
 20
4.763574928723899
 30
0.0
 11
-68.59286934298441
 21
-4.761425071276107
 31
0.0
  0
LINE
  5
FB
330
EC
100
AcDbEntity
  8
치수문자_일반주서
100
AcDbLine
 10
-68.59286934298441
 20
-4.761425071276107
 30
0.0
 11
-68.59286934298441
 21
-11.11142507127611
 31
0.0
  0
MTEXT
  5
FC
330
EC
100
AcDbEntity
  8
치수문자_일반주서
100
AcDbMText
 10
-78.34123798254676
 20
-4.524619601733423
 30
0.0
 40
3.5
 41
0.0
 71
     1
 72
     1
  1
0.38
  7
SLDTEXTSTYLE0
 11
-7.044195017643634E-15
 21
1.0
 31
0.0
 73
     1
 44
1.0
  0
MTEXT
  5
FD
330
EC
100
AcDbEntity
  8
치수문자_일반주서
100
AcDbMText
 10
-73.10460643218626
 20
-7.163838766581714
 30
0.0
 40
3.5
 41
0.0
 71
     1
 72
     1
  1
%%c
  7
SLDTEXTSTYLE0
 11
-7.044195017643634E-15
 21
1.0
 31
0.0
 73
     1
 44
1.0
  0
MTEXT
  5
FE
330
EC
100
AcDbEntity
  8
치수문자_일반주서
100
AcDbMText
 10
-73.1046064321863
 20
-1.885401368207632
 30
0.0
 40
3.5
 41
0.0
 71
     1
 72
     1
  1
9.53
  7
SLDTEXTSTYLE0
 11
-7.044195017643634E-15
 21
1.0
 31
0.0
 73
     1
 44
1.0
  0
ENDBLK
  5
EE
330
EC
100
AcDbEntity
  8
0
100
AcDbBlockEnd
  0
BLOCK
  5
101
330
100
100
AcDbEntity
  8
0
100
AcDbBlockBegin
  2
_D_3
 70
     0
 10
0.0
 20
0.0
 30
0.0
  3
_D_3
  1
_D_3
  0
LINE
  5
103
330
100
100
AcDbEntity
  8
0
  6
Continuous
 62
     0
370
    -2
100
AcDbLine
 10
39.74999999999999
 20
4.762500000000005
 30
0.0
 11
61.111099376446
 21
4.762500000000081
 31
0.0
  0
LINE
  5
104
330
100
100
AcDbEntity
  8
0
  6
Continuous
 62
     0
370
    -2
100
AcDbLine
 10
39.74999999999999
 20
-4.762499999999994
 30
0.0
 11
61.11109937644603
 21
-4.762499999999918
 31
0.0
  0
LINE
  5
105
330
100
100
AcDbEntity
  8
0
  6
Continuous
 62
     0
370
    -2
100
AcDbLine
 10
61.111099376446
 20
4.762500000000081
 30
0.0
 11
61.11109937644589
 21
34.53325000000009
 31
0.0
  0
LINE
  5
106
330
100
100
AcDbEntity
  8
0
  6
Continuous
 62
     0
370
    -2
100
AcDbLine
 10
61.11109937644601
 20
1.460500000000081
 30
0.0
 11
61.11109937644602
 21
-1.460499999999918
 31
0.0
  0
SOLID
  5
107
330
100
100
AcDbEntity
  8
0
 62
     0
100
AcDbTrace
 10
61.66143270977935
 20
1.460500000000083
 30
0.0
 11
60.56076604311268
 21
1.460500000000079
 31
0.0
 12
61.111099376446
 22
4.762500000000081
 32
0.0
 13
61.111099376446
 23
4.762500000000081
 33
0.0
  0
SOLID
  5
108
330
100
100
AcDbEntity
  8
0
 62
     0
100
AcDbTrace
 10
60.56076604311269
 20
-1.46049999999992
 30
0.0
 11
61.66143270977935
 21
-1.460499999999916
 31
0.0
 12
61.11109937644603
 22
-4.762499999999918
 32
0.0
 13
61.11109937644603
 23
-4.762499999999918
 33
0.0
  0
MTEXT
  5
109
330
100
100
AcDbEntity
  8
0
 62
     0
370
    15
100
AcDbMText
 10
56.73609937644594
 20
21.40825000000008
 30
0.0
 40
3.5
 41
0.0
 71
     2
 72
     1
  1
\A1;%%c9.53 [3/8]
  7
SLDTEXTSTYLE0
 11
-3.729883127349608E-15
 21
1.0
 31
0.0
 73
     1
 44
1.0
  0
POINT
  5
10A
330
100
100
AcDbEntity
  8
Defpoints
 62
     0
100
AcDbPoint
 10
39.68749999999999
 20
4.762500000000005
 30
0.0
  0
POINT
  5
10B
330
100
100
AcDbEntity
  8
Defpoints
 62
     0
100
AcDbPoint
 10
39.68749999999999
 20
-4.762499999999994
 30
0.0
  0
POINT
  5
10C
330
100
100
AcDbEntity
  8
Defpoints
 62
     0
100
AcDbPoint
 10
61.11109937644603
 20
-4.762499999999914
 30
0.0
  0
ENDBLK
  5
102
330
100
100
AcDbEntity
  8
0
100
AcDbBlockEnd
  0
BLOCK
  5
11A
330
119
100
AcDbEntity
  8
0
100
AcDbBlockBegin
  2
SW_DOWELSYMBOL_0
 70
     0
 10
0.0
 20
0.0
 30
0.0
  3
SW_DOWELSYMBOL_0
  1
SW_DOWELSYMBOL_0
  0
CIRCLE
  5
11C
330
119
100
AcDbEntity
  8
해칭선
 62
     0
100
AcDbCircle
 10
0.0
 20
0.0
 30
0.0
 40
3.000000000000001
  0
HATCH
  5
11D
330
119
100
AcDbEntity
  8
0
  6
Continuous
 62
     0
370
     0
100
AcDbHatch
 10
0.0
 20
0.0
 30
0.0
210
0.0
220
0.0
230
1.0
  2
SOLID
 70
     1
 71
     0
 91
        1
 92
        0
 93
        3
 72
     2
 10
0.0
 20
0.0
 40
3.000000000000001
 50
0.0
 51
90.0
 73
     1
 72
     1
 10
0.0
 20
3.000000000000001
 11
0.0
 21
0.0
 72
     1
 10
0.0
 20
0.0
 11
3.000000000000001
 21
0.0
 97
        0
 75
     0
 76
     1
 98
        1
 10
0.0
 20
0.0
  0
HATCH
  5
11E
330
119
100
AcDbEntity
  8
0
  6
Continuous
 62
     0
370
     0
100
AcDbHatch
 10
0.0
 20
0.0
 30
0.0
210
0.0
220
0.0
230
1.0
  2
SOLID
 70
     1
 71
     0
 91
        1
 92
        0
 93
        3
 72
     2
 10
0.0
 20
0.0
 40
3.000000000000001
 50
180.0
 51
270.0000000000007
 73
     1
 72
     1
 10
0.0
 20
-3.000000000000001
 11
0.0
 21
0.0
 72
     1
 10
0.0
 20
0.0
 11
-3.000000000000001
 21
0.0
 97
        0
 75
     0
 76
     1
 98
        1
 10
0.0
 20
0.0
  0
ENDBLK
  5
11B
330
119
100
AcDbEntity
  8
0
100
AcDbBlockEnd
  0
BLOCK
  5
1AE
330
1AD
100
AcDbEntity
  8
0
100
AcDbBlockBegin
  2
*D7
 70
     1
 10
0.0
 20
0.0
 30
0.0
  3
*D7
  1
*D9
  0
LINE
  5
1B0
330
1AD
100
AcDbEntity
  8
0
  6
Continuous
 62
     0
370
    -2
100
AcDbLine
 10
-23.94243244403312
 20
4.76249999999999
 30
0.0
 11
-57.34831885679485
 21
4.762499999999991
 31
0.0
  0
LINE
  5
1B1
330
1AD
100
AcDbEntity
  8
0
  6
Continuous
 62
     0
370
    -2
100
AcDbLine
 10
-23.94243244403312
 20
-4.762500000000004
 30
0.0
 11
-57.34831885679485
 21
-4.762500000000003
 31
0.0
  0
LINE
  5
1B2
330
1AD
100
AcDbEntity
  8
0
  6
Continuous
 62
     0
370
    -2
100
AcDbLine
 10
-57.34831885679485
 20
1.460499999999991
 30
0.0
 11
-57.34831885679485
 21
-1.460500000000003
 31
0.0
  0
SOLID
  5
1B3
330
1AD
100
AcDbEntity
  8
0
 62
     0
100
AcDbTrace
 10
-56.79798552346152
 20
1.460499999999991
 30
0.0
 11
-57.89865219012819
 21
1.460499999999991
 31
0.0
 12
-57.34831885679485
 22
4.762499999999991
 32
0.0
 13
-57.34831885679485
 23
4.762499999999991
 33
0.0
  0
SOLID
  5
1B4
330
1AD
100
AcDbEntity
  8
0
 62
     0
100
AcDbTrace
 10
-57.89865219012819
 20
-1.460500000000003
 30
0.0
 11
-56.79798552346152
 21
-1.460500000000003
 31
0.0
 12
-57.34831885679485
 22
-4.762500000000003
 32
0.0
 13
-57.34831885679485
 23
-4.762500000000003
 33
0.0
  0
MTEXT
  5
1B5
330
1AD
100
AcDbEntity
  8
0
 62
     0
370
    15
100
AcDbMText
 10
-59.97331885679485
 20
-1.014074235396776
 30
0.0
 40
3.5
 41
0.0
 71
     5
 72
     1
  1
\A1;9.53 [3/8]
  7
SLDTEXTSTYLE0
 11
0.0
 21
1.0
 31
0.0
 73
     1
 44
1.0
  0
POINT
  5
1B6
330
1AD
100
AcDbEntity
  8
Defpoints
 62
     0
100
AcDbPoint
 10
-23.87993244403312
 20
4.76249999999999
 30
0.0
  0
POINT
  5
1B7
330
1AD
100
AcDbEntity
  8
Defpoints
 62
     0
100
AcDbPoint
 10
-23.87993244403312
 20
-4.762500000000004
 30
0.0
  0
POINT
  5
1B8
330
1AD
100
AcDbEntity
  8
Defpoints
 62
     0
100
AcDbPoint
 10
-57.34831885679485
 20
-4.762500000000002
 30
0.0
  0
ENDBLK
  5
1AF
330
1AD
100
AcDbEntity
  8
0
100
AcDbBlockEnd
  0
BLOCK
  5
29C
330
29B
100
AcDbEntity
  8
0
100
AcDbBlockBegin
  2
*D10
 70
     1
 10
0.0
 20
0.0
 30
0.0
  3
*D10
  1
*D9
  0
LINE
  5
29D
330
29B
100
AcDbEntity
  8
0
  6
Continuous
 62
     0
370
    -2
100
AcDbLine
 10
22.97331885679485
 20
16.71407423539677
 30
0.0
 11
4.375000000000001
 21
16.71407423539677
 31
0.0
  0
LINE
  5
29E
330
29B
100
AcDbEntity
  8
0
  6
Continuous
 62
     0
370
    -2
100
AcDbLine
 10
22.97331885679485
 20
7.189074235396766
 30
0.0
 11
4.375
 21
7.189074235396769
 31
0.0
  0
LINE
  5
29F
330
29B
100
AcDbEntity
  8
0
  6
Continuous
 62
     0
370
    -2
100
AcDbLine
 10
4.375000000000001
 20
13.41207423539677
 30
0.0
 11
4.375
 21
10.49107423539677
 31
0.0
  0
SOLID
  5
2A0
330
29B
100
AcDbEntity
  8
0
 62
     0
100
AcDbTrace
 10
4.925333333333334
 20
13.41207423539677
 30
0.0
 11
3.824666666666667
 21
13.41207423539677
 31
0.0
 12
4.375000000000001
 22
16.71407423539677
 32
0.0
 13
4.375000000000001
 23
16.71407423539677
 33
0.0
  0
SOLID
  5
2A1
330
29B
100
AcDbEntity
  8
0
 62
     0
100
AcDbTrace
 10
3.824666666666666
 20
10.49107423539677
 30
0.0
 11
4.925333333333334
 21
10.49107423539677
 31
0.0
 12
4.375
 22
7.189074235396769
 32
0.0
 13
4.375
 23
7.189074235396769
 33
0.0
  0
MTEXT
  5
2A2
330
29B
100
AcDbEntity
  8
0
 62
     0
370
    15
100
AcDbMText
 10
1.75
 20
10.9375
 30
0.0
 40
3.5
 41
0.0
 71
     5
 72
     1
  1
\A1;9.53 [3/8]
  7
SLDTEXTSTYLE0
 11
9.324707818374013E-17
 21
1.0
 31
0.0
 73
     1
 44
1.0
  0
POINT
  5
2A3
330
29B
100
AcDbEntity
  8
Defpoints
 62
     0
100
AcDbPoint
 10
23.03581885679485
 20
16.71407423539677
 30
0.0
  0
POINT
  5
2A4
330
29B
100
AcDbEntity
  8
Defpoints
 62
     0
100
AcDbPoint
 10
23.03581885679485
 20
7.189074235396766
 30
0.0
  0
POINT
  5
2A5
330
29B
100
AcDbEntity
  8
Defpoints
 62
     0
100
AcDbPoint
 10
4.375
 20
7.189074235396767
 30
0.0
  0
ENDBLK
  5
2A6
330
29B
100
AcDbEntity
  8
0
100
AcDbBlockEnd
  0
BLOCK
  5
2AF
330
2AE
100
AcDbEntity
  8
0
100
AcDbBlockBegin
  2
*D11
 70
     1
 10
0.0
 20
0.0
 30
0.0
  3
*D11
  1
*D11
  0
LINE
  5
2B1
330
2AE
100
AcDbEntity
  8
0
  6
Continuous
 62
     0
370
    -2
100
AcDbLine
 10
101.4108188567948
 20
16.77657423539678
 30
0.0
 11
101.4108188567948
 21
27.53842528448778
 31
0.0
  0
LINE
  5
2B2
330
2AE
100
AcDbEntity
  8
0
  6
Continuous
 62
     0
370
    -2
100
AcDbLine
 10
87.12331885679485
 20
15.21525526573719
 30
0.0
 11
87.12331885679485
 21
27.53842528448778
 31
0.0
  0
LINE
  5
2B3
330
2AE
100
AcDbEntity
  8
0
  6
Continuous
 62
     0
370
    -2
100
AcDbLine
 10
87.12331885679485
 20
27.53842528448778
 30
0.0
 11
49.27090577910512
 21
27.53842528448778
 31
0.0
  0
LINE
  5
2B4
330
2AE
100
AcDbEntity
  8
0
  6
Continuous
 62
     0
370
    -2
100
AcDbLine
 10
98.10881885679483
 20
27.53842528448778
 30
0.0
 11
90.42531885679486
 21
27.53842528448778
 31
0.0
  0
SOLID
  5
2B5
330
2AE
100
AcDbEntity
  8
0
 62
     0
100
AcDbTrace
 10
98.10881885679483
 20
26.98809195115444
 30
0.0
 11
98.10881885679483
 21
28.08875861782111
 31
0.0
 12
101.4108188567948
 22
27.53842528448778
 32
0.0
 13
101.4108188567948
 23
27.53842528448778
 33
0.0
  0
SOLID
  5
2B6
330
2AE
100
AcDbEntity
  8
0
 62
     0
100
AcDbTrace
 10
90.42531885679486
 20
28.08875861782111
 30
0.0
 11
90.42531885679486
 21
26.98809195115444
 31
0.0
 12
87.12331885679485
 22
27.53842528448778
 32
0.0
 13
87.12331885679485
 23
27.53842528448778
 33
0.0
  0
MTEXT
  5
2B7
330
2AE
100
AcDbEntity
  8
0
 62
     0
370
    15
100
AcDbMText
 10
62.83340577910513
 20
31.91342528448778
 30
0.0
 40
3.5
 41
0.0
 71
     2
 72
     1
  1
\A1;14.29 [9/16]
  7
SLDTEXTSTYLE0
 73
     1
 44
1.0
  0
POINT
  5
2B8
330
2AE
100
AcDbEntity
  8
Defpoints
 62
     0
100
AcDbPoint
 10
101.4108188567948
 20
16.71407423539678
 30
0.0
  0
POINT
  5
2B9
330
2AE
100
AcDbEntity
  8
Defpoints
 62
     0
100
AcDbPoint
 10
87.12331885679485
 20
15.15275526573719
 30
0.0
  0
POINT
  5
2BA
330
2AE
100
AcDbEntity
  8
Defpoints
 62
     0
100
AcDbPoint
 10
87.12331885679485
 20
27.53842528448778
 30
0.0
  0
ENDBLK
  5
2B0
330
2AE
100
AcDbEntity
  8
0
100
AcDbBlockEnd
  0
BLOCK
  5
2BC
330
2BB
100
AcDbEntity
  8
0
100
AcDbBlockBegin
  2
*D12
 70
     1
 10
0.0
 20
0.0
 30
0.0
  3
*D12
  1
*D12
  0
LINE
  5
2BE
330
2BB
100
AcDbEntity
  8
0
  6
Continuous
 62
     0
370
    -2
100
AcDbLine
 10
101.4108188567948
 20
16.77657423539678
 30
0.0
 11
101.4108188567948
 21
41.23955322357176
 31
0.0
  0
LINE
  5
2BF
330
2BB
100
AcDbEntity
  8
0
  6
Continuous
 62
     0
370
    -2
100
AcDbLine
 10
22.03581885679486
 20
15.77657423539678
 30
0.0
 11
22.03581885679486
 21
41.23955322357176
 31
0.0
  0
LINE
  5
2C0
330
2BB
100
AcDbEntity
  8
0
  6
Continuous
 62
     0
370
    -2
100
AcDbLine
 10
98.10881885679483
 20
41.23955322357176
 30
0.0
 11
25.33781885679486
 21
41.23955322357176
 31
0.0
  0
SOLID
  5
2C1
330
2BB
100
AcDbEntity
  8
0
 62
     0
100
AcDbTrace
 10
98.10881885679483
 20
40.68921989023843
 30
0.0
 11
98.10881885679483
 21
41.7898865569051
 31
0.0
 12
101.4108188567948
 22
41.23955322357176
 32
0.0
 13
101.4108188567948
 23
41.23955322357176
 33
0.0
  0
SOLID
  5
2C2
330
2BB
100
AcDbEntity
  8
0
 62
     0
100
AcDbTrace
 10
25.33781885679486
 20
41.7898865569051
 30
0.0
 11
25.33781885679486
 21
40.68921989023843
 31
0.0
 12
22.03581885679486
 22
41.23955322357176
 32
0.0
 13
22.03581885679486
 23
41.23955322357176
 33
0.0
  0
MTEXT
  5
2C3
330
2BB
100
AcDbEntity
  8
0
 62
     0
370
    15
100
AcDbMText
 10
62.07071344377364
 20
45.61455322357176
 30
0.0
 40
3.5
 41
0.0
 71
     2
 72
     1
  1
\A1;79.38 [3 1/8]
  7
SLDTEXTSTYLE0
 73
     1
 44
1.0
  0
POINT
  5
2C4
330
2BB
100
AcDbEntity
  8
Defpoints
 62
     0
100
AcDbPoint
 10
101.4108188567948
 20
16.71407423539678
 30
0.0
  0
POINT
  5
2C5
330
2BB
100
AcDbEntity
  8
Defpoints
 62
     0
100
AcDbPoint
 10
22.03581885679486
 20
15.71407423539678
 30
0.0
  0
POINT
  5
2C6
330
2BB
100
AcDbEntity
  8
Defpoints
 62
     0
100
AcDbPoint
 10
22.03581885679486
 20
41.23955322357176
 30
0.0
  0
ENDBLK
  5
2BD
330
2BB
100
AcDbEntity
  8
0
100
AcDbBlockEnd
  0
BLOCK
  5
2C8
330
2C7
100
AcDbEntity
  8
0
100
AcDbBlockBegin
  2
*D13
 70
     1
 10
0.0
 20
0.0
 30
0.0
  3
*D13
  1
*D13
  0
LINE
  5
2CA
330
2C7
100
AcDbEntity
  8
0
  6
Continuous
 62
     0
370
    -2
100
AcDbLine
 10
101.4733188567948
 20
16.71407423539678
 30
0.0
 11
122.8344182332408
 21
16.71407423539686
 31
0.0
  0
LINE
  5
2CB
330
2C7
100
AcDbEntity
  8
0
  6
Continuous
 62
     0
370
    -2
100
AcDbLine
 10
101.4733188567948
 20
7.189074235396781
 30
0.0
 11
122.8344182332409
 21
7.189074235396859
 31
0.0
  0
LINE
  5
2CC
330
2C7
100
AcDbEntity
  8
0
  6
Continuous
 62
     0
370
    -2
100
AcDbLine
 10
122.8344182332408
 20
16.71407423539686
 30
0.0
 11
122.8344182332408
 21
46.48482423539687
 31
0.0
  0
LINE
  5
2CD
330
2C7
100
AcDbEntity
  8
0
  6
Continuous
 62
     0
370
    -2
100
AcDbLine
 10
122.8344182332409
 20
13.41207423539686
 30
0.0
 11
122.8344182332409
 21
10.49107423539686
 31
0.0
  0
SOLID
  5
2CE
330
2C7
100
AcDbEntity
  8
0
 62
     0
100
AcDbTrace
 10
123.3847515665742
 20
13.41207423539686
 30
0.0
 11
122.2840848999075
 21
13.41207423539686
 31
0.0
 12
122.8344182332408
 22
16.71407423539686
 32
0.0
 13
122.8344182332408
 23
16.71407423539686
 33
0.0
  0
SOLID
  5
2CF
330
2C7
100
AcDbEntity
  8
0
 62
     0
100
AcDbTrace
 10
122.2840848999075
 20
10.49107423539686
 30
0.0
 11
123.3847515665742
 21
10.49107423539686
 31
0.0
 12
122.8344182332409
 22
7.189074235396859
 32
0.0
 13
122.8344182332409
 23
7.189074235396859
 33
0.0
  0
MTEXT
  5
2D0
330
2C7
100
AcDbEntity
  8
0
 62
     0
370
    15
100
AcDbMText
 10
118.4594182332408
 20
33.35982423539686
 30
0.0
 40
3.5
 41
0.0
 71
     2
 72
     1
  1
\A1;%%c9.53 [3/8]
  7
SLDTEXTSTYLE0
 11
-2.983906501879687E-15
 21
1.0
 31
0.0
 73
     1
 44
1.0
  0
POINT
  5
2D1
330
2C7
100
AcDbEntity
  8
Defpoints
 62
     0
100
AcDbPoint
 10
101.4108188567948
 20
16.71407423539678
 30
0.0
  0
POINT
  5
2D2
330
2C7
100
AcDbEntity
  8
Defpoints
 62
     0
100
AcDbPoint
 10
101.4108188567948
 20
7.189074235396781
 30
0.0
  0
POINT
  5
2D3
330
2C7
100
AcDbEntity
  8
Defpoints
 62
     0
100
AcDbPoint
 10
122.8344182332409
 20
7.189074235396861
 30
0.0
  0
ENDBLK
  5
2C9
330
2C7
100
AcDbEntity
  8
0
100
AcDbBlockEnd
  0
BLOCK
  5
2FE
330
2FD
100
AcDbEntity
  8
0
100
AcDbBlockBegin
  2
*D14
 70
     1
 10
0.0
 20
0.0
 30
0.0
  3
*D14
  1
*D14
  0
LINE
  5
300
330
2FD
100
AcDbEntity
  8
0
  6
Continuous
 62
     0
370
    -2
100
AcDbLine
 10
188.7449125532239
 20
-56.65287177030325
 30
0.0
 11
188.7449125532239
 21
-45.89102072121225
 31
0.0
  0
LINE
  5
301
330
2FD
100
AcDbEntity
  8
0
  6
Continuous
 62
     0
370
    -2
100
AcDbLine
 10
174.4574125532239
 20
-58.21419073996283
 30
0.0
 11
174.4574125532239
 21
-45.89102072121225
 31
0.0
  0
LINE
  5
302
330
2FD
100
AcDbEntity
  8
0
  6
Continuous
 62
     0
370
    -2
100
AcDbLine
 10
174.4574125532239
 20
-45.89102072121225
 30
0.0
 11
136.6049994755342
 21
-45.89102072121225
 31
0.0
  0
LINE
  5
303
330
2FD
100
AcDbEntity
  8
0
  6
Continuous
 62
     0
370
    -2
100
AcDbLine
 10
185.4429125532239
 20
-45.89102072121225
 30
0.0
 11
177.7594125532239
 21
-45.89102072121225
 31
0.0
  0
SOLID
  5
304
330
2FD
100
AcDbEntity
  8
0
 62
     0
100
AcDbTrace
 10
185.4429125532239
 20
-46.44135405454558
 30
0.0
 11
185.4429125532239
 21
-45.34068738787892
 31
0.0
 12
188.7449125532239
 22
-45.89102072121225
 32
0.0
 13
188.7449125532239
 23
-45.89102072121225
 33
0.0
  0
SOLID
  5
305
330
2FD
100
AcDbEntity
  8
0
 62
     0
100
AcDbTrace
 10
177.7594125532239
 20
-45.34068738787892
 30
0.0
 11
177.7594125532239
 21
-46.44135405454558
 31
0.0
 12
174.4574125532239
 22
-45.89102072121225
 32
0.0
 13
174.4574125532239
 23
-45.89102072121225
 33
0.0
  0
MTEXT
  5
306
330
2FD
100
AcDbEntity
  8
0
 62
     0
370
    15
100
AcDbMText
 10
150.1674994755342
 20
-41.51602072121225
 30
0.0
 40
3.5
 41
0.0
 71
     2
 72
     1
  1
\A1;14.29 [9/16]
  7
SLDTEXTSTYLE0
 73
     1
 44
1.0
  0
POINT
  5
307
330
2FD
100
AcDbEntity
  8
Defpoints
 62
     0
100
AcDbPoint
 10
188.7449125532239
 20
-56.71537177030325
 30
0.0
  0
POINT
  5
308
330
2FD
100
AcDbEntity
  8
Defpoints
 62
     0
100
AcDbPoint
 10
174.4574125532239
 20
-58.27669073996283
 30
0.0
  0
POINT
  5
309
330
2FD
100
AcDbEntity
  8
Defpoints
 62
     0
100
AcDbPoint
 10
174.4574125532239
 20
-45.89102072121225
 30
0.0
  0
ENDBLK
  5
2FF
330
2FD
100
AcDbEntity
  8
0
100
AcDbBlockEnd
  0
BLOCK
  5
30B
330
30A
100
AcDbEntity
  8
0
100
AcDbBlockBegin
  2
*D15
 70
     1
 10
0.0
 20
0.0
 30
0.0
  3
*D15
  1
*D15
  0
LINE
  5
30D
330
30A
100
AcDbEntity
  8
0
  6
Continuous
 62
     0
370
    -2
100
AcDbLine
 10
188.7449125532239
 20
-56.65287177030325
 30
0.0
 11
188.7449125532239
 21
-32.18989278212827
 31
0.0
  0
LINE
  5
30E
330
30A
100
AcDbEntity
  8
0
  6
Continuous
 62
     0
370
    -2
100
AcDbLine
 10
109.3699125532239
 20
-57.65287177030325
 30
0.0
 11
109.3699125532239
 21
-32.18989278212827
 31
0.0
  0
LINE
  5
30F
330
30A
100
AcDbEntity
  8
0
  6
Continuous
 62
     0
370
    -2
100
AcDbLine
 10
185.4429125532239
 20
-32.18989278212827
 30
0.0
 11
112.6719125532239
 21
-32.18989278212827
 31
0.0
  0
SOLID
  5
310
330
30A
100
AcDbEntity
  8
0
 62
     0
100
AcDbTrace
 10
185.4429125532239
 20
-32.7402261154616
 30
0.0
 11
185.4429125532239
 21
-31.63955944879493
 31
0.0
 12
188.7449125532239
 22
-32.18989278212827
 32
0.0
 13
188.7449125532239
 23
-32.18989278212827
 33
0.0
  0
SOLID
  5
311
330
30A
100
AcDbEntity
  8
0
 62
     0
100
AcDbTrace
 10
112.6719125532239
 20
-31.63955944879493
 30
0.0
 11
112.6719125532239
 21
-32.7402261154616
 31
0.0
 12
109.3699125532239
 22
-32.18989278212827
 32
0.0
 13
109.3699125532239
 23
-32.18989278212827
 33
0.0
  0
MTEXT
  5
312
330
30A
100
AcDbEntity
  8
0
 62
     0
370
    15
100
AcDbMText
 10
149.4048071402026
 20
-27.81489278212827
 30
0.0
 40
3.5
 41
0.0
 71
     2
 72
     1
  1
\A1;79.38 [3 1/8]
  7
SLDTEXTSTYLE0
 73
     1
 44
1.0
  0
POINT
  5
313
330
30A
100
AcDbEntity
  8
Defpoints
 62
     0
100
AcDbPoint
 10
188.7449125532239
 20
-56.71537177030325
 30
0.0
  0
POINT
  5
314
330
30A
100
AcDbEntity
  8
Defpoints
 62
     0
100
AcDbPoint
 10
109.3699125532239
 20
-57.71537177030325
 30
0.0
  0
POINT
  5
315
330
30A
100
AcDbEntity
  8
Defpoints
 62
     0
100
AcDbPoint
 10
109.3699125532239
 20
-32.18989278212827
 30
0.0
  0
ENDBLK
  5
30C
330
30A
100
AcDbEntity
  8
0
100
AcDbBlockEnd
  0
BLOCK
  5
317
330
316
100
AcDbEntity
  8
0
100
AcDbBlockBegin
  2
*D16
 70
     1
 10
0.0
 20
0.0
 30
0.0
  3
*D16
  1
*D16
  0
LINE
  5
319
330
316
100
AcDbEntity
  8
0
  6
Continuous
 62
     0
370
    -2
100
AcDbLine
 10
188.8074125532239
 20
-56.71537177030325
 30
0.0
 11
210.1685119296699
 21
-56.71537177030317
 31
0.0
  0
LINE
  5
31A
330
316
100
AcDbEntity
  8
0
  6
Continuous
 62
     0
370
    -2
100
AcDbLine
 10
188.8074125532239
 20
-66.24037177030326
 30
0.0
 11
210.1685119296699
 21
-66.24037177030317
 31
0.0
  0
LINE
  5
31B
330
316
100
AcDbEntity
  8
0
  6
Continuous
 62
     0
370
    -2
100
AcDbLine
 10
210.1685119296699
 20
-56.71537177030317
 30
0.0
 11
210.1685119296698
 21
-26.94462177030316
 31
0.0
  0
LINE
  5
31C
330
316
100
AcDbEntity
  8
0
  6
Continuous
 62
     0
370
    -2
100
AcDbLine
 10
210.1685119296699
 20
-60.01737177030317
 30
0.0
 11
210.1685119296699
 21
-62.93837177030317
 31
0.0
  0
SOLID
  5
31D
330
316
100
AcDbEntity
  8
0
 62
     0
100
AcDbTrace
 10
210.7188452630032
 20
-60.01737177030317
 30
0.0
 11
209.6181785963365
 21
-60.01737177030317
 31
0.0
 12
210.1685119296699
 22
-56.71537177030317
 32
0.0
 13
210.1685119296699
 23
-56.71537177030317
 33
0.0
  0
SOLID
  5
31E
330
316
100
AcDbEntity
  8
0
 62
     0
100
AcDbTrace
 10
209.6181785963366
 20
-62.93837177030317
 30
0.0
 11
210.7188452630032
 21
-62.93837177030317
 31
0.0
 12
210.1685119296699
 22
-66.24037177030317
 32
0.0
 13
210.1685119296699
 23
-66.24037177030317
 33
0.0
  0
MTEXT
  5
31F
330
316
100
AcDbEntity
  8
0
 62
     0
370
    15
100
AcDbMText
 10
205.7935119296698
 20
-40.06962177030317
 30
0.0
 40
3.5
 41
0.0
 71
     2
 72
     1
  1
\A1;%%c9.53 [3/8]
  7
SLDTEXTSTYLE0
 11
-2.983906501879686E-15
 21
1.0
 31
0.0
 73
     1
 44
1.0
  0
POINT
  5
320
330
316
100
AcDbEntity
  8
Defpoints
 62
     0
100
AcDbPoint
 10
188.7449125532239
 20
-56.71537177030325
 30
0.0
  0
POINT
  5
321
330
316
100
AcDbEntity
  8
Defpoints
 62
     0
100
AcDbPoint
 10
188.7449125532239
 20
-66.24037177030326
 30
0.0
  0
POINT
  5
322
330
316
100
AcDbEntity
  8
Defpoints
 62
     0
100
AcDbPoint
 10
210.1685119296699
 20
-66.24037177030317
 30
0.0
  0
ENDBLK
  5
318
330
316
100
AcDbEntity
  8
0
100
AcDbBlockEnd
  0
BLOCK
  5
324
330
323
100
AcDbEntity
  8
0
100
AcDbBlockBegin
  2
*D17
 70
     1
 10
0.0
 20
0.0
 30
0.0
  3
*D17
  1
*D17
  0
LINE
  5
326
330
323
100
AcDbEntity
  8
0
  6
Continuous
 62
     0
370
    -2
100
AcDbLine
 10
110.3074125532239
 20
-56.71537177030326
 30
0.0
 11
91.70909369642902
 21
-56.71537177030326
 31
0.0
  0
LINE
  5
327
330
323
100
AcDbEntity
  8
0
  6
Continuous
 62
     0
370
    -2
100
AcDbLine
 10
110.3074125532239
 20
-66.24037177030327
 30
0.0
 11
91.70909369642902
 21
-66.24037177030327
 31
0.0
  0
LINE
  5
328
330
323
100
AcDbEntity
  8
0
  6
Continuous
 62
     0
370
    -2
100
AcDbLine
 10
91.70909369642902
 20
-60.01737177030326
 30
0.0
 11
91.70909369642902
 21
-62.93837177030327
 31
0.0
  0
SOLID
  5
329
330
323
100
AcDbEntity
  8
0
 62
     0
100
AcDbTrace
 10
92.25942702976235
 20
-60.01737177030326
 30
0.0
 11
91.1587603630957
 21
-60.01737177030326
 31
0.0
 12
91.70909369642902
 22
-56.71537177030326
 32
0.0
 13
91.70909369642902
 23
-56.71537177030326
 33
0.0
  0
SOLID
  5
32A
330
323
100
AcDbEntity
  8
0
 62
     0
100
AcDbTrace
 10
91.1587603630957
 20
-62.93837177030327
 30
0.0
 11
92.25942702976235
 21
-62.93837177030327
 31
0.0
 12
91.70909369642902
 22
-66.24037177030327
 32
0.0
 13
91.70909369642902
 23
-66.24037177030327
 33
0.0
  0
MTEXT
  5
32B
330
323
100
AcDbEntity
  8
0
 62
     0
370
    15
100
AcDbMText
 10
89.08409369642902
 20
-62.49194600570003
 30
0.0
 40
3.5
 41
0.0
 71
     5
 72
     1
  1
\A1;9.53 [3/8]
  7
SLDTEXTSTYLE0
 11
0.0
 21
1.0
 31
0.0
 73
     1
 44
1.0
  0
POINT
  5
32C
330
323
100
AcDbEntity
  8
Defpoints
 62
     0
100
AcDbPoint
 10
110.3699125532239
 20
-56.71537177030326
 30
0.0
  0
POINT
  5
32D
330
323
100
AcDbEntity
  8
Defpoints
 62
     0
100
AcDbPoint
 10
110.3699125532239
 20
-66.24037177030327
 30
0.0
  0
POINT
  5
32E
330
323
100
AcDbEntity
  8
Defpoints
 62
     0
100
AcDbPoint
 10
91.70909369642902
 20
-66.24037177030327
 30
0.0
  0
ENDBLK
  5
325
330
323
100
AcDbEntity
  8
0
100
AcDbBlockEnd
  0
ENDSEC
  0
SECTION
  2
ENTITIES
  0
LINE
  5
96
330
1F
100
AcDbEntity
  8
외형선
  6
Continuous
370
    15
100
AcDbLine
 10
23.87993244403312
 20
4.762500000000003
 30
0.0
 11
4.838700000000014
 21
4.7625
 31
0.0
  0
LINE
  5
9A
330
1F
100
AcDbEntity
  8
0
  6
Continuous
 62
     1
370
    15
100
AcDbLine
 10
33.97229453601378
 20
-4.762499999999998
 30
0.0
 11
34.92499999999998
 21
-4.762499999999998
 31
0.0
  0
ARC
  5
9B
330
1F
100
AcDbEntity
  8
0
  6
Continuous
 62
     1
370
    15
100
AcDbCircle
 10
34.92499999999998
 20
0.0000000000000026
 30
0.0
 40
4.762500000000003
100
AcDbArc
 50
270.0000000000009
 51
0.0
  0
ARC
  5
9C
330
1F
100
AcDbEntity
  8
0
  6
Continuous
 62
     1
370
    15
100
AcDbCircle
 10
34.92499999999998
 20
0.0000000000000026
 30
0.0
 40
4.762500000000003
100
AcDbArc
 50
0.0
 51
90.0
  0
LINE
  5
9D
330
1F
100
AcDbEntity
  8
0
  6
Continuous
 62
     1
370
    15
100
AcDbLine
 10
34.92499999999998
 20
4.762500000000003
 30
0.0
 11
33.97256856643425
 21
4.762500000000003
 31
0.0
  0
LINE
  5
9E
330
1F
100
AcDbEntity
  8
외형선
  6
Continuous
370
    15
100
AcDbLine
 10
23.87993244403312
 20
3.752863443037944
 30
0.0
 11
23.87993244403312
 21
4.762500000000003
 31
0.0
  0
SPLINE
  5
9F
330
1F
100
AcDbEntity
  8
외형선
  6
Continuous
370
    15
100
AcDbSpline
210
0.0
220
0.0
230
1.0
 70
     8
 71
     3
 72
    10
 73
     6
 74
     0
 42
0.000000001
 43
0.00000001
 40
0.0
 40
0.0
 40
0.0
 40
0.0
 40
0.5
 40
0.5
 40
1.0
 40
1.0
 40
1.0
 40
1.0
 10
25.39999999999998
 20
3.152028774326498
 30
0.0
 10
25.14617972147081
 20
3.261784983539609
 30
0.0
 10
24.89452323303117
 20
3.366770882629367
 30
0.0
 10
24.38861196448452
 20
3.567299759821921
 30
0.0
 10
24.1341946585622
 20
3.662842683904881
 30
0.0
 10
23.87993244403312
 20
3.75302979107758
 30
0.0
  0
SPLINE
  5
A0
330
1F
100
AcDbEntity
  8
외형선
  6
Continuous
370
    15
100
AcDbSpline
210
0.0
220
0.0
230
1.0
 70
     8
 71
     3
 72
    10
 73
     6
 74
     0
 42
0.000000001
 43
0.00000001
 40
0.0
 40
0.0
 40
0.0
 40
0.0
 40
0.5
 40
0.5
 40
1.0
 40
1.0
 40
1.0
 40
1.0
 10
23.87997949883259
 20
-1.621051542027172
 30
0.0
 10
24.1342338902382
 20
-1.758796159236891
 30
0.0
 10
24.38864326313316
 20
-1.894262519177582
 30
0.0
 10
24.89453874737083
 20
-2.158941316028396
 30
0.0
 10
25.14618755030601
 20
-2.288195341989561
 30
0.0
 10
25.39999999999998
 20
-2.414393733319831
 30
0.0
  0
LINE
  5
A1
330
1F
100
AcDbEntity
  8
외형선
  6
Continuous
370
    15
100
AcDbLine
 10
23.87993244403312
 20
-4.762499999999998
 30
0.0
 11
23.87993244403312
 21
-1.620819960050593
 31
0.0
  0
SPLINE
  5
A2
330
1F
100
AcDbEntity
  8
외형선
  6
Continuous
370
    15
100
AcDbSpline
210
0.0
220
0.0
230
1.0
 70
     8
 71
     3
 72
     9
 73
     5
 74
     0
 42
0.000000001
 43
0.00000001
 40
0.0
 40
0.0
 40
0.0
 40
0.0
 40
0.5293010049464
 40
1.0
 40
1.0
 40
1.0
 40
1.0
 10
25.30390086514867
 20
-3.191721122704931
 30
0.0
 10
25.05279526962775
 20
-3.298099230814557
 30
0.0
 10
24.57838544766578
 20
-3.499077704528956
 30
0.0
 10
24.10347317399064
 20
-3.671752118125984
 30
0.0
 10
23.87993244403312
 20
-3.753029791077575
 30
0.0
  0
LINE
  5
A4
330
1F
100
AcDbEntity
  8
외형선
  6
Continuous
370
    15
100
AcDbLine
 10
25.39999999999998
 20
3.152028774326499
 30
0.0
 11
25.39999999999998
 21
-2.41439373331983
 31
0.0
  0
SPLINE
  5
A6
330
1F
100
AcDbEntity
  8
외형선
  6
Continuous
370
    15
100
AcDbSpline
210
0.0
220
0.0
230
1.0
 70
     8
 71
     3
 72
    10
 73
     6
 74
     0
 42
0.000000001
 43
0.00000001
 40
0.0
 40
0.0
 40
0.0
 40
0.0
 40
0.5
 40
0.5
 40
1.0
 40
1.0
 40
1.0
 40
1.0
 10
25.39999999999998
 20
-3.20118103034041
 30
0.0
 10
25.14617972147081
 20
-3.18518098792122
 30
0.0
 10
24.89452323303117
 20
-3.164698843616431
 30
0.0
 10
24.38861196448452
 20
-3.114788143204761
 30
0.0
 10
24.1341946585622
 20
-3.085334362593394
 30
0.0
 10
23.87993244403312
 20
-3.051547022694204
 30
0.0
  0
SPLINE
  5
A7
330
1F
100
AcDbEntity
  8
외형선
  6
Continuous
370
    15
100
AcDbSpline
210
0.0
220
0.0
230
1.0
 70
    24
 71
     3
 72
    10
 73
     6
 74
     0
 42
0.000000001
 43
0.00000001
 40
0.0
 40
0.0
 40
0.0
 40
0.0
 40
0.1737688036427862
 40
0.5868844018213931
 40
1.0
 40
1.0
 40
1.0
 40
1.0
 10
25.39999999999998
 20
-2.469358498773375
 30
0.0
 10
25.39999999999998
 20
-2.499507372997275
 30
0.0
 10
25.39999999999998
 20
-2.601331772104347
 30
0.0
 10
25.39999999999998
 20
-2.844442869690223
 30
0.0
 10
25.39999999999998
 20
-3.082268310123683
 30
0.0
 10
25.39999999999998
 20
-3.201181030340413
 30
0.0
  0
LINE
  5
A8
330
1F
100
AcDbEntity
  8
외형선
  6
Continuous
370
    15
100
AcDbLine
 10
25.39999999999998
 20
3.201181030340415
 30
0.0
 11
25.30390086514867
 21
3.191721122704936
 31
0.0
  0
SPLINE
  5
A9
330
1F
100
AcDbEntity
  8
0
  6
Continuous
 62
     1
370
    15
100
AcDbSpline
210
0.0
220
0.0
230
1.0
 70
     8
 71
     3
 72
    22
 73
    18
 74
     0
 42
0.000000001
 43
0.00000001
 40
0.0
 40
0.0
 40
0.0
 40
0.0
 40
0.125
 40
0.125
 40
0.2500000000000001
 40
0.2500000000000001
 40
0.3750000000000001
 40
0.3750000000000001
 40
0.5000000000000001
 40
0.5000000000000001
 40
0.6250000000000001
 40
0.6250000000000001
 40
0.7500000000000002
 40
0.7500000000000002
 40
0.8750000000000002
 40
0.8750000000000002
 40
1.0
 40
1.0
 40
1.0
 40
1.0
 10
34.9250000000003
 20
-1.991301044327202
 30
0.0
 10
34.52697854127105
 20
-1.782964675316553
 30
0.0
 10
34.13287521864265
 20
-1.56840044315834
 30
0.0
 10
33.3391026631674
 20
-1.128901899957037
 30
0.0
 10
32.93946964512594
 20
-0.9039435849898405
 30
0.0
 10
32.14714067174947
 20
-0.4506194153834537
 30
0.0
 10
31.75185899215322
 20
-0.2217762295345879
 30
0.0
 10
30.95565721909112
 20
0.2369466742593948
 30
0.0
 10
30.5604607013447
 20
0.4657208390991832
 30
0.0
 10
29.76803887856089
 20
0.9188530288678802
 30
0.0
 10
29.36840119194154
 20
1.1436545152691
 30
0.0
 10
28.57470328994172
 20
1.582723837495791
 30
0.0
 10
28.18054840110685
 20
1.797039899503392
 30
0.0
 10
27.38448705119532
 20
2.213102823078439
 30
0.0
 10
26.98765267178062
 20
2.413933712459144
 30
0.0
 10
26.19687613865658
 20
2.797047259279181
 30
0.0
 10
25.79738534134563
 20
2.980192588046599
 30
0.0
 10
25.39999999999987
 20
3.152028774326549
 30
0.0
  0
SPLINE
  5
AA
330
1F
100
AcDbEntity
  8
0
  6
Continuous
 62
     1
370
    15
100
AcDbSpline
210
0.0
220
0.0
230
1.0
 70
     8
 71
     3
 72
    32
 73
    28
 74
     0
 42
0.000000001
 43
0.00000001
 40
0.0
 40
0.0
 40
0.0
 40
0.0
 40
0.0625000000000002
 40
0.0625000000000002
 40
0.1250000000000003
 40
0.1250000000000003
 40
0.2500000000000007
 40
0.2500000000000007
 40
0.3125000000000007
 40
0.3125000000000007
 40
0.3750000000000007
 40
0.3750000000000007
 40
0.4375000000000006
 40
0.4375000000000006
 40
0.5000000000000006
 40
0.5000000000000006
 40
0.5625000000000004
 40
0.5625000000000004
 40
0.6250000000000004
 40
0.6250000000000004
 40
0.7500000000000003
 40
0.7500000000000003
 40
0.8750000000000002
 40
0.8750000000000002
 40
0.9375000000000001
 40
0.9375000000000001
 40
1.0
 40
1.0
 40
1.0
 40
1.0
 10
38.41254577258601
 20
0.499035462786483
 30
0.0
 10
38.140962432729
 20
0.6044151025050677
 30
0.0
 10
37.87170128279381
 20
0.7086862133299328
 30
0.0
 10
37.33065149910587
 20
0.9149270516358321
 30
0.0
 10
37.0584489520182
 20
1.016943707718478
 30
0.0
 10
36.24274391845633
 20
1.317431468034665
 30
0.0
 10
35.70452223951794
 20
1.509826017876397
 30
0.0
 10
34.88876966074167
 20
1.782902333166015
 30
0.0
 10
34.61660889467866
 20
1.871201098155256
 30
0.0
 10
34.0757559167554
 20
2.041092800248551
 30
0.0
 10
33.80634574652213
 20
2.122774727335778
 30
0.0
 10
33.26308409390765
 20
2.279438098635751
 30
0.0
 10
32.99066039963151
 20
2.354266240513456
 30
0.0
 10
32.44819499647397
 20
2.495836477996375
 30
0.0
 10
32.17942293915647
 20
2.562489548241385
 30
0.0
 10
31.63733765834619
 20
2.687666239996247
 30
0.0
 10
31.36495545798471
 20
2.746094785414484
 30
0.0
 10
30.82147765542372
 20
2.853758809532233
 30
0.0
 10
30.5515896328587
 20
2.902929144950589
 30
0.0
 10
29.7411242012471
 20
3.036204650081266
 30
0.0
 10
29.19328695947667
 20
3.10622027659232
 30
0.0
 10
28.11419074231402
 20
3.204594624740221
 30
0.0
 10
27.56805184762987
 20
3.23343819816616
 30
0.0
 10
26.75575481627264
 20
3.244946232770663
 30
0.0
 10
26.48679137888452
 20
3.243541283090615
 30
0.0
 10
25.94390282831805
 20
3.230222042021034
 30
0.0
 10
25.67145901162727
 20
3.218292963737842
 30
0.0
 10
25.39999999999998
 20
3.201181030340416
 30
0.0
  0
SPLINE
  5
AB
330
1F
100
AcDbEntity
  8
0
  6
Continuous
 62
     1
370
    15
100
AcDbSpline
210
0.0
220
0.0
230
1.0
 70
     8
 71
     3
 72
    30
 73
    26
 74
     0
 42
0.000000001
 43
0.00000001
 40
0.0
 40
0.0
 40
0.0
 40
0.0
 40
0.1249999999999995
 40
0.1249999999999995
 40
0.1874999999999995
 40
0.1874999999999995
 40
0.2499999999999994
 40
0.2499999999999994
 40
0.3749999999999998
 40
0.3749999999999998
 40
0.4374999999999998
 40
0.4374999999999998
 40
0.4999999999999997
 40
0.4999999999999997
 40
0.5624999999999997
 40
0.5624999999999997
 40
0.6249999999999996
 40
0.6249999999999996
 40
0.6874999999999997
 40
0.6874999999999997
 40
0.7499999999999997
 40
0.7499999999999997
 40
0.8749999999999999
 40
0.8749999999999999
 40
1.0
 40
1.0
 40
1.0
 40
1.0
 10
34.92499999999998
 20
-1.991301044327038
 30
0.0
 10
35.18963428975638
 20
-2.129818568531843
 30
0.0
 10
35.45010200522023
 20
-2.253793838872012
 30
0.0
 10
35.83945149033357
 20
-2.411111144386745
 30
0.0
 10
35.96896245328526
 20
-2.458819341186416
 30
0.0
 10
36.228891686694
 20
-2.54212975287196
 30
0.0
 10
36.35992440016123
 20
-2.577789942304718
 30
0.0
 10
36.74774429293102
 20
-2.660660713897048
 30
0.0
 10
37.00127134369045
 20
-2.685645583439841
 30
0.0
 10
37.38236574231199
 20
-2.65715857812628
 30
0.0
 10
37.50711029459544
 20
-2.636571838464594
 30
0.0
 10
37.75201129553813
 20
-2.569212844704212
 30
0.0
 10
37.87364613016453
 20
-2.521856526763453
 30
0.0
 10
38.10718955408815
 20
-2.395848202993525
 30
0.0
 10
38.21840749027972
 20
-2.318117080379704
 30
0.0
 10
38.4290096466013
 20
-2.12523854848979
 30
0.0
 10
38.52364615458356
 20
-2.014361182229371
 30
0.0
 10
38.68870806713139
 20
-1.76019875176043
 30
0.0
 10
38.75501113018561
 20
-1.622904250759167
 30
0.0
 10
38.85311205252248
 20
-1.33263647504155
 30
0.0
 10
38.88313520381317
 20
-1.184530489566504
 30
0.0
 10
38.92069478593528
 20
-0.7427994100710948
 30
0.0
 10
38.87542716483131
 20
-0.4652600166576001
 30
0.0
 10
38.70045391835939
 20
0.0430954199863779
 30
0.0
 10
38.57089062459696
 20
0.2765100393740256
 30
0.0
 10
38.41254577258084
 20
0.4990354627884929
 30
0.0
  0
SPLINE
  5
AC
330
1F
100
AcDbEntity
  8
0
  6
Continuous
 62
     1
370
    15
100
AcDbSpline
210
0.0
220
0.0
230
1.0
 70
     8
 71
     3
 72
    13
 73
     9
 74
     0
 42
0.000000001
 43
0.00000001
 40
0.0
 40
0.0
 40
0.0
 40
0.0
 40
0.1959531140134394
 40
0.3939555229949036
 40
0.5694593223752045
 40
0.7464343622177462
 40
0.9279785599316829
 40
1.0
 40
1.0
 40
1.0
 40
1.0
 10
25.39999999999998
 20
-2.41439373331983
 30
0.0
 10
25.95992707461301
 20
-2.683427361924853
 30
0.0
 10
27.08563699062412
 20
-3.224308196577162
 30
0.0
 10
28.71288183375312
 20
-3.849740710431974
 30
0.0
 10
30.28610920692828
 20
-4.320624728438047
 30
0.0
 10
31.81197345300627
 20
-4.620058426085982
 30
0.0
 10
33.04206926082344
 20
-4.765452349228414
 30
0.0
 10
33.76652419540491
 20
-4.7471263125506
 30
0.0
 10
33.97229453601378
 20
-4.741921082205415
 30
0.0
  0
SPLINE
  5
AD
330
1F
100
AcDbEntity
  8
0
  6
Continuous
 62
     1
370
    15
100
AcDbSpline
210
0.0
220
0.0
230
1.0
 70
     8
 71
     3
 72
    12
 73
     8
 74
     0
 42
0.000000001
 43
0.00000001
 40
0.0
 40
0.0
 40
0.0
 40
0.0
 40
0.2499999999999996
 40
0.2499999999999996
 40
0.4999999999999992
 40
0.4999999999999992
 40
1.0
 40
1.0
 40
1.0
 40
1.0
 10
38.41254577258081
 20
0.4990354627884989
 30
0.0
 10
38.4673201804211
 20
0.5320540104477036
 30
0.0
 10
38.51611384992293
 20
0.5729827045625064
 30
0.0
 10
38.60169856630162
 20
0.671122676896865
 30
0.0
 10
38.63877017428594
 20
0.7292654689709146
 30
0.0
 10
38.72646981333625
 20
0.920347799252498
 30
0.0
 10
38.75541522732955
 20
1.073829536802796
 30
0.0
 10
38.7580826543209
 20
1.233441726995386
 30
0.0
  0
ARC
  5
AE
330
1F
100
AcDbEntity
  8
0
  6
Continuous
 62
     1
370
    15
100
AcDbCircle
 10
37.40895610122155
 20
-0.8278801688980533
 30
0.0
 40
2.463572693217657
100
AcDbArc
 50
23.84125672760622
 51
56.79542084518492
  0
ARC
  5
AF
330
1F
100
AcDbEntity
  8
0
  6
Continuous
 62
     1
370
    15
100
AcDbCircle
 10
35.40505464028611
 20
0.0889208135325582
 30
0.0
 40
4.257987309847953
100
AcDbArc
 50
1.062888871613146
 51
71.16807011954823
  0
SPLINE
  5
B0
330
1F
100
AcDbEntity
  8
0
  6
Continuous
 62
     1
370
    15
100
AcDbSpline
210
0.0
220
0.0
230
1.0
 70
     8
 71
     3
 72
    10
 73
     6
 74
     0
 42
0.000000001
 43
0.00000001
 40
0.0
 40
0.0
 40
0.0
 40
0.0
 40
0.5
 40
0.5
 40
1.0
 40
1.0
 40
1.0
 40
1.0
 10
36.77950396967383
 20
4.118976020570272
 30
0.0
 10
36.48471081390848
 20
4.298571199290488
 30
0.0
 10
36.18141590685734
 20
4.439773403513397
 30
0.0
 10
35.56314756499997
 20
4.645211403520873
 30
0.0
 10
35.24440009588808
 20
4.709553171998375
 30
0.0
 10
34.92499999999998
 20
4.730764436419417
 30
0.0
  0
LINE
  5
B1
330
1F
100
AcDbEntity
  8
0
  6
Continuous
 62
     1
370
    15
100
AcDbLine
 10
27.15396286909898
 20
-3.223313475422989
 30
0.0
 11
25.39999999999998
 21
-3.201181030340411
 31
0.0
  0
SPLINE
  5
B2
330
1F
100
AcDbEntity
  8
외형선
  6
Continuous
370
    15
100
AcDbSpline
210
0.0
220
0.0
230
1.0
 70
    24
 71
     3
 72
    10
 73
     6
 74
     0
 42
0.000000001
 43
0.00000001
 40
0.0
 40
0.0
 40
0.0
 40
0.0
 40
0.1737688036427874
 40
0.5868844018213937
 40
1.0
 40
1.0
 40
1.0
 40
1.0
 10
25.39999999999998
 20
-2.469358498773375
 30
0.0
 10
25.39999999999998
 20
-2.499507372997275
 30
0.0
 10
25.4
 20
-2.601331772104348
 30
0.0
 10
25.39999999999998
 20
-2.84444286969022
 30
0.0
 10
25.39999999999998
 20
-3.082268310123682
 30
0.0
 10
25.39999999999998
 20
-3.201181030340413
 30
0.0
  0
SPLINE
  5
B3
330
1F
100
AcDbEntity
  8
0
  6
Continuous
 62
     1
370
    15
100
AcDbSpline
210
0.0
220
0.0
230
1.0
 70
     8
 71
     3
 72
     8
 73
     4
 74
     0
 42
0.000000001
 43
0.00000001
 40
0.0
 40
0.0
 40
0.0
 40
0.0
 40
1.0
 40
1.0
 40
1.0
 40
1.0
 10
35.81332261770261
 20
2.131918444055886
 30
0.0
 10
36.78145524931843
 20
1.862866606167385
 30
0.0
 10
37.76852247439554
 20
1.559692643445056
 30
0.0
 10
38.75808265432092
 20
1.233441726995425
 30
0.0
  0
SPLINE
  5
B4
330
1F
100
AcDbEntity
  8
0
  6
Continuous
 62
     1
370
    15
100
AcDbSpline
210
0.0
220
0.0
230
1.0
 70
     8
 71
     3
 72
    16
 73
    12
 74
     0
 42
0.000000001
 43
0.00000001
 40
0.0
 40
0.0
 40
0.0
 40
0.0
 40
0.1000000932333918
 40
0.2093048444405965
 40
0.3059542832070273
 40
0.5002118847336936
 40
0.5978763948446585
 40
0.6978469894242654
 40
0.7980397088950962
 40
0.8989057460032086
 40
1.0
 40
1.0
 40
1.0
 40
1.0
 10
27.14991148392316
 20
3.223262352869894
 30
0.0
 10
27.40922221181275
 20
3.330976207565078
 30
0.0
 10
27.95197162141614
 20
3.556426313381021
 30
0.0
 10
28.74425387748426
 20
3.843590637970164
 30
0.0
 10
29.78191310598498
 20
4.174293720789325
 30
0.0
 10
30.7886329156193
 20
4.427153461326103
 30
0.0
 10
31.80513340507228
 20
4.605410109253685
 30
0.0
 10
32.57609271377537
 20
4.701712787703136
 30
0.0
 10
33.35688655140912
 20
4.755782860618862
 30
0.0
 10
34.13964397475884
 20
4.770647164605476
 30
0.0
 10
34.66301751936436
 20
4.744068690450562
 30
0.0
 10
34.92499999999995
 20
4.730764436419414
 30
0.0
  0
SPLINE
  5
B5
330
1F
100
AcDbEntity
  8
0
  6
Continuous
 62
     1
370
    15
100
AcDbSpline
210
0.0
220
0.0
230
1.0
 70
     8
 71
     3
 72
    18
 73
    14
 74
     0
 42
0.000000001
 43
0.00000001
 40
0.0
 40
0.0
 40
0.0
 40
0.0
 40
0.2500000000000003
 40
0.2500000000000003
 40
0.3750000000000004
 40
0.3750000000000004
 40
0.5000000000000006
 40
0.5000000000000006
 40
0.6250000000000007
 40
0.6250000000000007
 40
0.7500000000000009
 40
0.7500000000000009
 40
1.0
 40
1.0
 40
1.0
 40
1.0
 10
36.77950396967384
 20
4.118976020570274
 30
0.0
 10
36.81335604055839
 20
3.919068620140925
 30
0.0
 10
36.82858417124784
 20
3.715597289818337
 30
0.0
 10
36.80643447289705
 20
3.406459927319873
 30
0.0
 10
36.79155863700515
 20
3.305128880430769
 30
0.0
 10
36.74421658785322
 20
3.106492481593167
 30
0.0
 10
36.71115248315866
 20
3.008054018583991
 30
0.0
 10
36.62716169938997
 20
2.823295392161473
 30
0.0
 10
36.57646614419357
 20
2.736730108727913
 30
0.0
 10
36.45738711504792
 20
2.575419789670977
 30
0.0
 10
36.38856929856517
 20
2.500668160749145
 30
0.0
 10
36.16654193872991
 20
2.303470500565104
 30
0.0
 10
35.99310942933302
 20
2.20337860688369
 30
0.0
 10
35.81332261770261
 20
2.131918444055886
 30
0.0
  0
LINE
  5
B6
330
1F
100
AcDbEntity
  8
중심선
 48
0.8
100
AcDbLine
 10
-42.68749999999999
 20
-0.0000000000000052
 30
0.0
 11
42.68749999999999
 21
0.0000000000000053
 31
0.0
  0
LINE
  5
B7
330
1F
100
AcDbEntity
  8
참조1
100
AcDbLine
 10
-16.47536934298443
 20
0.0010749287238892
 30
0.0
 11
-16.47536934298442
 21
-39.99892507127611
 31
0.0
  0
LINE
  5
B8
330
1F
100
AcDbEntity
  8
참조1
100
AcDbLine
 10
23.21213065701556
 20
0.0010749287238892
 30
0.0
 11
23.21213065701556
 21
0.6320484065631995
 31
0.0
  0
LINE
  5
B9
330
1F
100
AcDbEntity
  8
참조1
100
AcDbLine
 10
-16.47536934298442
 20
-39.99892507127611
 30
0.0
 11
-29.25297615729311
 21
-39.9989250712761
 31
0.0
  0
CIRCLE
  5
BA
330
1F
100
AcDbEntity
  8
해칭선
100
AcDbCircle
 10
0.0
 20
0.0
 30
0.0
 40
3.000000000000001
  0
INSERT
  5
BB
330
1F
100
AcDbEntity
  8
0
  6
Continuous
 62
     7
100
AcDbBlockReference
 66
     1
  2
블럭10
 10
-29.3402729321252
 20
-52.04717430164393
 30
0.0
  0
ATTRIB
  5
BC
330
BB
100
AcDbEntity
  8
FORMAT
 62
     2
100
AcDbText
 10
-38.52156822086648
 20
-49.97180738881174
 30
0.0
 40
4.233333333333333
  1
E1112024 [ 2 FLUTE ]
 41
0.75
  7
SLDTEXTSTYLE0
 11
-38.52156822086648
 21
-52.08847405547841
 31
0.0
100
AcDbAttribute
  2
AUTOATTR0
 70
     0
 74
     1
  0
SEQEND
  5
BD
330
BB
100
AcDbEntity
  8
0
  6
Continuous
 62
     7
  0
HATCH
  5
BE
330
1F
100
AcDbEntity
  8
중심선
100
AcDbHatch
 10
0.0
 20
0.0
 30
0.0
210
0.0
220
0.0
230
1.0
  2
SOLID
 70
     1
 71
     0
 91
        1
 92
        0
 93
        4
 72
     1
 10
-23.62536362774434
 20
-35.8
 11
-27.07163887158162
 21
-35.8
 72
     1
 10
-27.07163887158162
 20
-35.8
 11
-29.19986873078567
 21
-38.3363255805726
 72
     1
 10
-29.19986873078567
 20
-38.3363255805726
 11
-25.75356040183522
 21
-38.33628615127011
 72
     1
 10
-25.75356040183522
 20
-38.33628615127011
 11
-23.62536362774434
 21
-35.8
 97
        0
 75
     0
 76
     1
 98
        1
 10
1.075369342984439
 20
-0.001074928723896
  0
HATCH
  5
BF
330
1F
100
AcDbEntity
  8
중심선
100
AcDbHatch
 10
0.0
 20
0.0
 30
0.0
210
0.0
220
0.0
230
1.0
  2
SOLID
 70
     1
 71
     0
 91
        1
 92
        0
 93
        4
 72
     1
 10
-18.61259963670833
 20
-35.8
 11
-22.05887488054561
 21
-35.8
 72
     1
 10
-22.05887488054562
 20
-35.8
 11
-26.59001288890306
 21
-41.20000000000002
 72
     1
 10
-26.59001288890306
 20
-41.20000000000002
 11
-23.14373764506578
 21
-41.20000000000002
 72
     1
 10
-23.14373764506578
 20
-41.20000000000002
 11
-18.61259963670834
 21
-35.8
 97
        0
 75
     0
 76
     1
 98
        1
 10
1.075369342984439
 20
-0.001074928723896
  0
HATCH
  5
C0
330
1F
100
AcDbEntity
  8
중심선
100
AcDbHatch
 10
0.0
 20
0.0
 30
0.0
210
0.0
220
0.0
230
1.0
  2
SOLID
 70
     1
 71
     0
 91
        1
 92
        0
 93
        4
 72
     1
 10
-13.59983564567252
 20
-35.8
 11
-17.04611088950961
 21
-35.8
 72
     1
 10
-17.04611088950961
 20
-35.8
 11
-24.09454779139886
 21
-44.20000000000002
 72
     1
 10
-24.09454779139886
 20
-44.20000000000002
 11
-20.64827254756158
 21
-44.20000000000002
 72
     1
 10
-20.64827254756158
 20
-44.20000000000002
 11
-13.59983564567252
 21
-35.8
 97
        0
 75
     0
 76
     1
 98
        1
 10
1.075369342984439
 20
-0.001074928723896
  0
HATCH
  5
C1
330
1F
100
AcDbEntity
  8
중심선
100
AcDbHatch
 10
0.0
 20
0.0
 30
0.0
210
0.0
220
0.0
230
1.0
  2
SOLID
 70
     1
 71
     0
 91
        1
 92
        0
 93
        6
 72
     3
 10
-8.799945214660292
 20
-40.00000000005127
 11
3.960054785062283
 21
1.540882976769353E-10
 40
0.3939339440162628
 50
17.09539180608436
 51
320.0019657685082
 73
     0
 72
     1
 10
-7.116945558959726
 20
-38.58789400463833
 11
-4.81164368525866
 21
-36.65356729459038
 72
     3
 10
-8.799945214713139
 20
-40.00000000000015
 11
6.600054785286829
 21
-1.278976924368180E-13
 40
0.636358354079598
 50
39.99873849337411
 51
368.4976242363724
 73
     1
 72
     1
 10
-2.37461272281253
 20
-39.03999999993002
 11
-10.11987790787722
 21
-39.03999999993
 72
     1
 10
-10.11987790787722
 20
-39.03999999993
 11
-10.11990295232315
 21
-40.95999999992991
 72
     1
 10
-10.11990295232315
 20
-40.95999999992991
 11
-5.678523182851114
 21
-40.95999999992988
 97
        0
 75
     0
 76
     1
 98
        1
 10
1.075369342984439
 20
-0.001074928723896
  0
DIMENSION
  5
C2
330
1F
100
AcDbEntity
  8
0
  6
Continuous
370
    15
100
AcDbDimension
  2
_D
 10
25.39999999999999
 20
15.586851049091
 30
0.0
 11
1.110086922310275
 21
15.586851049091
 31
0.0
 70
   160
  1
<>
 71
     2
 42
14.28749999999999
  3
SLDDIMSTYLE0
100
AcDbAlignedDimension
 13
39.68749999999999
 23
4.762500000000005
 33
0.0
 14
25.4
 24
3.201181030340421
 34
0.0
 50
0.0000000000000071
100
AcDbRotatedDimension
1001
ACAD
1000
DSTYLE
1002
{
1070
   171
1070
     6
1070
   273
1070
     7
1002
}
  0
DIMENSION
  5
D7
330
1F
100
AcDbEntity
  8
0
  6
Continuous
370
    15
100
AcDbDimension
  2
_D_1
 10
-39.68749999999999
 20
29.28797898817498
 30
0.0
 11
0.3473945869787851
 21
29.28797898817498
 31
0.0
 70
   160
  1
<>
 71
     2
 42
79.37499999999997
  3
SLDDIMSTYLE0
100
AcDbAlignedDimension
 13
39.68749999999999
 23
4.762500000000005
 33
0.0
 14
-39.68749999999999
 24
4.762499999999997
 34
0.0
 50
0.0000000000000051
100
AcDbRotatedDimension
1001
ACAD
1000
DSTYLE
1002
{
1070
   171
1070
     6
1070
   273
1070
     7
1002
}
  0
DIMENSION
  5
FF
330
1F
100
AcDbEntity
  8
0
  6
Continuous
370
    15
100
AcDbDimension
  2
_D_3
 10
61.11109937644603
 20
-4.762499999999918
 30
0.0
 11
61.11109937644594
 21
21.40825000000009
 31
0.0
 70
   160
  1
%%c<>
 71
     2
 42
9.524999999999999
 52
-270.0
  3
SLDDIMSTYLE0
100
AcDbAlignedDimension
 13
39.68749999999999
 23
4.762500000000005
 33
0.0
 14
39.68749999999999
 24
-4.762499999999994
 34
0.0
 50
90.0000000000002
100
AcDbRotatedDimension
1001
ACAD
1000
DSTYLE
1002
{
1070
   171
1070
     6
1070
   273
1070
     7
1002
}
  0
LINE
  5
112
330
1F
100
AcDbEntity
  8
참조1
100
AcDbLine
 10
68.71936447236115
 20
7.441074928723896
 30
0.0
 11
68.71936447236115
 21
-7.438925071276109
 31
0.0
  0
LINE
  5
113
330
1F
100
AcDbEntity
  8
참조1
100
AcDbLine
 10
81.41936447236115
 20
5.441074928723896
 30
0.0
 11
68.71936447236115
 21
5.441074928723896
 31
0.0
  0
SOLID
  5
114
330
1F
100
AcDbEntity
  8
참조1
100
AcDbTrace
 10
68.71936447236115
 20
5.441074928723896
 30
0.0
 11
75.06936447236114
 21
4.425074928723896
 31
0.0
 12
75.06936447236114
 22
6.457074928723896
 32
0.0
 13
75.06936447236114
 23
6.457074928723896
 33
0.0
  0
LINE
  5
115
330
1F
100
AcDbEntity
  8
참조1
100
AcDbLine
 10
81.41936447236115
 20
-5.438925071276109
 30
0.0
 11
68.71936447236115
 21
-5.438925071276109
 31
0.0
  0
SOLID
  5
116
330
1F
100
AcDbEntity
  8
참조1
100
AcDbTrace
 10
68.71936447236115
 20
-5.438925071276109
 30
0.0
 11
75.06936447236114
 21
-6.454925071276109
 31
0.0
 12
75.06936447236114
 22
-4.422925071276109
 32
0.0
 13
75.06936447236114
 23
-4.422925071276109
 33
0.0
  0
MTEXT
  5
117
330
1F
100
AcDbEntity
  8
참조1
100
AcDbMText
 10
78.11685456483143
 20
10.98929157337383
 30
0.0
 40
3.5
 41
0.0
 71
     1
 72
     1
  1
A
  7
SLDTEXTSTYLE0
 73
     1
 44
1.0
  0
MTEXT
  5
118
330
1F
100
AcDbEntity
  8
참조1
100
AcDbMText
 10
78.11685456483143
 20
0.1092915733738251
 30
0.0
 40
3.5
 41
0.0
 71
     1
 72
     1
  1
A
  7
SLDTEXTSTYLE0
 73
     1
 44
1.0
  0
INSERT
  5
11F
330
1F
100
AcDbEntity
  8
해칭선
100
AcDbBlockReference
  2
SW_DOWELSYMBOL_0
 10
0.0
 20
0.0
 30
0.0
  0
DIMENSION
  5
1AA
330
1F
100
AcDbEntity
  8
0
  6
Continuous
370
    15
100
AcDbDimension
  2
*D7
 10
-57.34831885679485
 20
-4.762500000000003
 30
0.0
 11
-57.34831885679485
 21
-1.014074235396776
 31
0.0
 70
   160
 71
     5
 42
9.524999999999995
  3
SLDDIMSTYLE0
100
AcDbAlignedDimension
 13
-23.87993244403312
 23
4.76249999999999
 33
0.0
 14
-23.87993244403312
 24
-4.762500000000004
 34
0.0
 50
90.0
100
AcDbRotatedDimension
1001
ACAD
1000
DSTYLE
1002
{
1070
   171
1070
     6
1070
   273
1070
     7
1002
}
  0
LINE
  5
219
330
1F
100
AcDbEntity
  8
외형선
  6
Continuous
370
    15
100
AcDbLine
 10
-3.568700000000042
 20
3.492500000000019
 30
0.0
 11
3.568700000000028
 21
3.492500000000019
 31
0.0
  0
LINE
  5
21A
330
1F
100
AcDbEntity
  8
외형선
  6
Continuous
370
    15
100
AcDbLine
 10
3.568700000000028
 20
3.492500000000019
 30
0.0
 11
4.83870000000001
 21
4.762500000000001
 31
0.0
  0
LINE
  5
21B
330
1F
100
AcDbEntity
  8
외형선
  6
Continuous
370
    15
100
AcDbLine
 10
-3.568700000000042
 20
3.492500000000019
 30
0.0
 11
-4.838700000000024
 21
4.762500000000001
 31
0.0
  0
LINE
  5
223
330
1F
100
AcDbEntity
  8
외형선
  6
Continuous
370
    15
100
AcDbLine
 10
-4.838700000000017
 20
4.762499999999999
 30
0.0
 11
-23.87993244403312
 21
4.762499999999997
 31
0.0
  0
LINE
  5
2D6
330
1F
100
AcDbEntity
  8
0
  6
Continuous
 62
     1
370
    15
100
AcDbLine
 10
-33.97229453601377
 20
4.762500000000005
 30
0.0
 11
-34.92499999999998
 21
4.762500000000005
 31
0.0
  0
ARC
  5
2D7
330
1F
100
AcDbEntity
  8
0
  6
Continuous
 62
     1
370
    15
100
AcDbCircle
 10
-34.92499999999998
 20
-0.0000000000000052
 30
0.0
 40
4.762500000000003
100
AcDbArc
 50
90.00000000000068
 51
180.0
  0
ARC
  5
2D8
330
1F
100
AcDbEntity
  8
0
  6
Continuous
 62
     1
370
    15
100
AcDbCircle
 10
-34.92499999999998
 20
-0.0000000000000052
 30
0.0
 40
4.762500000000003
100
AcDbArc
 50
180.0
 51
270.0
  0
LINE
  5
2D9
330
1F
100
AcDbEntity
  8
0
  6
Continuous
 62
     1
370
    15
100
AcDbLine
 10
-34.92499999999998
 20
-4.762500000000001
 30
0.0
 11
-33.97256856643423
 21
-4.762500000000001
 31
0.0
  0
LINE
  5
2DA
330
1F
100
AcDbEntity
  8
외형선
  6
Continuous
370
    15
100
AcDbLine
 10
-23.87993244403312
 20
-3.752863443037951
 30
0.0
 11
-23.87993244403312
 21
-4.762500000000001
 31
0.0
  0
SPLINE
  5
2DB
330
1F
100
AcDbEntity
  8
외형선
  6
Continuous
370
    15
100
AcDbSpline
210
0.0
220
0.0
230
1.0
 70
     8
 71
     3
 72
    10
 73
     6
 74
     0
 42
0.000000001
 43
0.00000001
 40
0.0
 40
0.0
 40
0.0
 40
0.0
 40
0.5
 40
0.5
 40
1.0
 40
1.0
 40
1.0
 40
1.0
 10
-25.39999999999997
 20
-3.152028774326494
 30
0.0
 10
-25.14617972147081
 20
-3.261784983539611
 30
0.0
 10
-24.89452323303114
 20
-3.36677088262938
 30
0.0
 10
-24.3886119644845
 20
-3.567299759821919
 30
0.0
 10
-24.13419465856219
 20
-3.662842683904882
 30
0.0
 10
-23.87993244403312
 20
-3.753029791077592
 30
0.0
  0
SPLINE
  5
2DC
330
1F
100
AcDbEntity
  8
외형선
  6
Continuous
370
    15
100
AcDbSpline
210
0.0
220
0.0
230
1.0
 70
     8
 71
     3
 72
    10
 73
     6
 74
     0
 42
0.000000001
 43
0.00000001
 40
0.0
 40
0.0
 40
0.0
 40
0.0
 40
0.5
 40
0.5
 40
1.0
 40
1.0
 40
1.0
 40
1.0
 10
-23.87997949883256
 20
1.62105154202717
 30
0.0
 10
-24.13423389023819
 20
1.758796159236889
 30
0.0
 10
-24.38864326313315
 20
1.894262519177582
 30
0.0
 10
-24.89453874737082
 20
2.158941316028391
 30
0.0
 10
-25.14618755030599
 20
2.288195341989558
 30
0.0
 10
-25.39999999999997
 20
2.414393733319828
 30
0.0
  0
LINE
  5
2DD
330
1F
100
AcDbEntity
  8
외형선
  6
Continuous
370
    15
100
AcDbLine
 10
-23.87993244403312
 20
4.76249999999999
 30
0.0
 11
-23.87993244403312
 21
1.620819960050591
 31
0.0
  0
SPLINE
  5
2DE
330
1F
100
AcDbEntity
  8
외형선
  6
Continuous
370
    15
100
AcDbSpline
210
0.0
220
0.0
230
1.0
 70
     8
 71
     3
 72
     9
 73
     5
 74
     0
 42
0.000000001
 43
0.00000001
 40
0.0
 40
0.0
 40
0.0
 40
0.0
 40
0.5293010049464
 40
1.0
 40
1.0
 40
1.0
 40
1.0
 10
-25.30390086514867
 20
3.191721122704935
 30
0.0
 10
-25.05279526962774
 20
3.298099230814559
 30
0.0
 10
-24.57838544766579
 20
3.499077704528945
 30
0.0
 10
-24.10347317399063
 20
3.671752118125967
 30
0.0
 10
-23.87993244403312
 20
3.753029791077568
 30
0.0
  0
LINE
  5
2DF
330
1F
100
AcDbEntity
  8
외형선
  6
Continuous
370
    15
100
AcDbLine
 10
-25.39999999999997
 20
-3.152028774326494
 30
0.0
 11
-25.39999999999997
 21
2.414393733319828
 31
0.0
  0
SPLINE
  5
2E0
330
1F
100
AcDbEntity
  8
외형선
  6
Continuous
370
    15
100
AcDbSpline
210
0.0
220
0.0
230
1.0
 70
     8
 71
     3
 72
    10
 73
     6
 74
     0
 42
0.000000001
 43
0.00000001
 40
0.0
 40
0.0
 40
0.0
 40
0.0
 40
0.5
 40
0.5
 40
1.0
 40
1.0
 40
1.0
 40
1.0
 10
-25.39999999999997
 20
3.201181030340409
 30
0.0
 10
-25.14617972147081
 20
3.185180987921216
 30
0.0
 10
-24.89452323303114
 20
3.164698843616423
 30
0.0
 10
-24.3886119644845
 20
3.11478814320475
 30
0.0
 10
-24.13419465856219
 20
3.085334362593388
 30
0.0
 10
-23.87993244403312
 20
3.051547022694196
 30
0.0
  0
SPLINE
  5
2E1
330
1F
100
AcDbEntity
  8
외형선
  6
Continuous
370
    15
100
AcDbSpline
210
0.0
220
0.0
230
1.0
 70
    24
 71
     3
 72
    10
 73
     6
 74
     0
 42
0.000000001
 43
0.00000001
 40
0.0
 40
0.0
 40
0.0
 40
0.0
 40
0.1737688036427862
 40
0.5868844018213931
 40
1.0
 40
1.0
 40
1.0
 40
1.0
 10
-25.39999999999997
 20
2.469358498773369
 30
0.0
 10
-25.39999999999997
 20
2.499507372997273
 30
0.0
 10
-25.39999999999997
 20
2.601331772104347
 30
0.0
 10
-25.39999999999997
 20
2.844442869690228
 30
0.0
 10
-25.39999999999997
 20
3.082268310123682
 30
0.0
 10
-25.39999999999997
 20
3.201181030340409
 30
0.0
  0
LINE
  5
2E2
330
1F
100
AcDbEntity
  8
외형선
  6
Continuous
370
    15
100
AcDbLine
 10
-25.39999999999997
 20
-3.20118103034042
 30
0.0
 11
-25.30390086514867
 21
-3.191721122704946
 31
0.0
  0
SPLINE
  5
2E3
330
1F
100
AcDbEntity
  8
0
  6
Continuous
 62
     1
370
    15
100
AcDbSpline
210
0.0
220
0.0
230
1.0
 70
     8
 71
     3
 72
    22
 73
    18
 74
     0
 42
0.000000001
 43
0.00000001
 40
0.0
 40
0.0
 40
0.0
 40
0.0
 40
0.125
 40
0.125
 40
0.2500000000000001
 40
0.2500000000000001
 40
0.3750000000000001
 40
0.3750000000000001
 40
0.5000000000000001
 40
0.5000000000000001
 40
0.6250000000000001
 40
0.6250000000000001
 40
0.7500000000000002
 40
0.7500000000000002
 40
0.8750000000000002
 40
0.8750000000000002
 40
1.0
 40
1.0
 40
1.0
 40
1.0
 10
-34.92500000000029
 20
1.991301044327196
 30
0.0
 10
-34.52697854127106
 20
1.782964675316551
 30
0.0
 10
-34.13287521864265
 20
1.568400443158334
 30
0.0
 10
-33.33910266316737
 20
1.128901899957038
 30
0.0
 10
-32.9394696451259
 20
0.9039435849898416
 30
0.0
 10
-32.14714067174943
 20
0.4506194153834519
 30
0.0
 10
-31.75185899215321
 20
0.2217762295345855
 30
0.0
 10
-30.9556572190911
 20
-0.236946674259398
 30
0.0
 10
-30.56046070134467
 20
-0.4657208390991821
 30
0.0
 10
-29.76803887856087
 20
-0.9188530288678842
 30
0.0
 10
-29.36840119194152
 20
-1.143654515269103
 30
0.0
 10
-28.5747032899417
 20
-1.582723837495797
 30
0.0
 10
-28.18054840110684
 20
-1.797039899503394
 30
0.0
 10
-27.38448705119531
 20
-2.213102823078442
 30
0.0
 10
-26.98765267178063
 20
-2.413933712459146
 30
0.0
 10
-26.19687613865656
 20
-2.79704725927918
 30
0.0
 10
-25.79738534134562
 20
-2.980192588046604
 30
0.0
 10
-25.39999999999986
 20
-3.152028774326551
 30
0.0
  0
SPLINE
  5
2E4
330
1F
100
AcDbEntity
  8
0
  6
Continuous
 62
     1
370
    15
100
AcDbSpline
210
0.0
220
0.0
230
1.0
 70
     8
 71
     3
 72
    32
 73
    28
 74
     0
 42
0.000000001
 43
0.00000001
 40
0.0
 40
0.0
 40
0.0
 40
0.0
 40
0.0625000000000002
 40
0.0625000000000002
 40
0.1250000000000003
 40
0.1250000000000003
 40
0.2500000000000007
 40
0.2500000000000007
 40
0.3125000000000007
 40
0.3125000000000007
 40
0.3750000000000007
 40
0.3750000000000007
 40
0.4375000000000006
 40
0.4375000000000006
 40
0.5000000000000006
 40
0.5000000000000006
 40
0.5625000000000004
 40
0.5625000000000004
 40
0.6250000000000004
 40
0.6250000000000004
 40
0.7500000000000003
 40
0.7500000000000003
 40
0.8750000000000002
 40
0.8750000000000002
 40
0.9375000000000001
 40
0.9375000000000001
 40
1.0
 40
1.0
 40
1.0
 40
1.0
 10
-38.41254577258601
 20
-0.4990354627864855
 30
0.0
 10
-38.14096243272896
 20
-0.6044151025050704
 30
0.0
 10
-37.87170128279379
 20
-0.7086862133299314
 30
0.0
 10
-37.33065149910586
 20
-0.9149270516358337
 30
0.0
 10
-37.05844895201817
 20
-1.01694370771848
 30
0.0
 10
-36.24274391845631
 20
-1.317431468034668
 30
0.0
 10
-35.70452223951792
 20
-1.509826017876397
 30
0.0
 10
-34.88876966074167
 20
-1.782902333166019
 30
0.0
 10
-34.61660889467864
 20
-1.871201098155259
 30
0.0
 10
-34.0757559167554
 20
-2.041092800248554
 30
0.0
 10
-33.8063457465221
 20
-2.122774727335786
 30
0.0
 10
-33.26308409390764
 20
-2.279438098635756
 30
0.0
 10
-32.99066039963147
 20
-2.354266240513459
 30
0.0
 10
-32.44819499647397
 20
-2.495836477996383
 30
0.0
 10
-32.17942293915646
 20
-2.5624895482414
 30
0.0
 10
-31.63733765834618
 20
-2.687666239996259
 30
0.0
 10
-31.3649554579847
 20
-2.746094785414483
 30
0.0
 10
-30.8214776554237
 20
-2.853758809532236
 30
0.0
 10
-30.5515896328587
 20
-2.902929144950589
 30
0.0
 10
-29.74112420124708
 20
-3.036204650081272
 30
0.0
 10
-29.19328695947666
 20
-3.106220276592323
 30
0.0
 10
-28.11419074231403
 20
-3.204594624740222
 30
0.0
 10
-27.56805184762987
 20
-3.233438198166153
 30
0.0
 10
-26.75575481627262
 20
-3.244946232770657
 30
0.0
 10
-26.4867913788845
 20
-3.24354128309062
 30
0.0
 10
-25.94390282831804
 20
-3.230222042021039
 30
0.0
 10
-25.67145901162726
 20
-3.21829296373785
 30
0.0
 10
-25.39999999999997
 20
-3.20118103034042
 30
0.0
  0
SPLINE
  5
2E5
330
1F
100
AcDbEntity
  8
0
  6
Continuous
 62
     1
370
    15
100
AcDbSpline
210
0.0
220
0.0
230
1.0
 70
     8
 71
     3
 72
    30
 73
    26
 74
     0
 42
0.000000001
 43
0.00000001
 40
0.0
 40
0.0
 40
0.0
 40
0.0
 40
0.1249999999999995
 40
0.1249999999999995
 40
0.1874999999999995
 40
0.1874999999999995
 40
0.2499999999999994
 40
0.2499999999999994
 40
0.3749999999999998
 40
0.3749999999999998
 40
0.4374999999999998
 40
0.4374999999999998
 40
0.4999999999999997
 40
0.4999999999999997
 40
0.5624999999999997
 40
0.5624999999999997
 40
0.6249999999999996
 40
0.6249999999999996
 40
0.6874999999999997
 40
0.6874999999999997
 40
0.7499999999999997
 40
0.7499999999999997
 40
0.8749999999999999
 40
0.8749999999999999
 40
1.0
 40
1.0
 40
1.0
 40
1.0
 10
-34.92499999999998
 20
1.991301044327033
 30
0.0
 10
-35.18963428975638
 20
2.12981856853184
 30
0.0
 10
-35.45010200522022
 20
2.253793838872008
 30
0.0
 10
-35.83945149033357
 20
2.411111144386746
 30
0.0
 10
-35.96896245328522
 20
2.458819341186414
 30
0.0
 10
-36.22889168669396
 20
2.54212975287196
 30
0.0
 10
-36.35992440016121
 20
2.577789942304721
 30
0.0
 10
-36.747744292931
 20
2.660660713897046
 30
0.0
 10
-37.00127134369043
 20
2.685645583439838
 30
0.0
 10
-37.38236574231197
 20
2.657158578126287
 30
0.0
 10
-37.50711029459543
 20
2.636571838464592
 30
0.0
 10
-37.75201129553812
 20
2.569212844704213
 30
0.0
 10
-37.87364613016452
 20
2.521856526763452
 30
0.0
 10
-38.10718955408813
 20
2.395848202993522
 30
0.0
 10
-38.2184074902797
 20
2.318117080379702
 30
0.0
 10
-38.42900964660131
 20
2.125238548489785
 30
0.0
 10
-38.52364615458352
 20
2.014361182229367
 30
0.0
 10
-38.68870806713138
 20
1.760198751760429
 30
0.0
 10
-38.75501113018557
 20
1.622904250759165
 30
0.0
 10
-38.85311205252244
 20
1.332636475041548
 30
0.0
 10
-38.88313520381316
 20
1.1845304895665
 30
0.0
 10
-38.92069478593529
 20
0.7427994100710953
 30
0.0
 10
-38.8754271648313
 20
0.465260016657597
 30
0.0
 10
-38.70045391835938
 20
-0.0430954199863772
 30
0.0
 10
-38.57089062459695
 20
-0.2765100393740292
 30
0.0
 10
-38.41254577258083
 20
-0.4990354627884964
 30
0.0
  0
SPLINE
  5
2E6
330
1F
100
AcDbEntity
  8
0
  6
Continuous
 62
     1
370
    15
100
AcDbSpline
210
0.0
220
0.0
230
1.0
 70
     8
 71
     3
 72
    13
 73
     9
 74
     0
 42
0.000000001
 43
0.00000001
 40
0.0
 40
0.0
 40
0.0
 40
0.0
 40
0.1959531140134394
 40
0.3939555229949036
 40
0.5694593223752045
 40
0.7464343622177462
 40
0.9279785599316829
 40
1.0
 40
1.0
 40
1.0
 40
1.0
 10
-25.39999999999997
 20
2.414393733319828
 30
0.0
 10
-25.959927074613
 20
2.683427361924858
 30
0.0
 10
-27.08563699062412
 20
3.224308196577171
 30
0.0
 10
-28.71288183375312
 20
3.849740710431975
 30
0.0
 10
-30.28610920692827
 20
4.32062472843805
 30
0.0
 10
-31.81197345300625
 20
4.620058426085992
 30
0.0
 10
-33.0420692608234
 20
4.765452349228413
 30
0.0
 10
-33.76652419540491
 20
4.747126312550607
 30
0.0
 10
-33.97229453601377
 20
4.741921082205424
 30
0.0
  0
SPLINE
  5
2E7
330
1F
100
AcDbEntity
  8
0
  6
Continuous
 62
     1
370
    15
100
AcDbSpline
210
0.0
220
0.0
230
1.0
 70
     8
 71
     3
 72
    12
 73
     8
 74
     0
 42
0.000000001
 43
0.00000001
 40
0.0
 40
0.0
 40
0.0
 40
0.0
 40
0.2499999999999996
 40
0.2499999999999996
 40
0.4999999999999992
 40
0.4999999999999992
 40
1.0
 40
1.0
 40
1.0
 40
1.0
 10
-38.41254577258081
 20
-0.4990354627885035
 30
0.0
 10
-38.46732018042109
 20
-0.532054010447707
 30
0.0
 10
-38.51611384992292
 20
-0.5729827045625109
 30
0.0
 10
-38.60169856630161
 20
-0.6711226768968694
 30
0.0
 10
-38.63877017428592
 20
-0.7292654689709133
 30
0.0
 10
-38.72646981333624
 20
-0.9203477992525018
 30
0.0
 10
-38.75541522732956
 20
-1.073829536802796
 30
0.0
 10
-38.75808265432089
 20
-1.233441726995385
 30
0.0
  0
ARC
  5
2E8
330
1F
100
AcDbEntity
  8
0
  6
Continuous
 62
     1
370
    15
100
AcDbCircle
 10
-37.40895610122154
 20
0.8278801688980499
 30
0.0
 40
2.463572693217657
100
AcDbArc
 50
203.8412567276064
 51
236.7954208451848
  0
ARC
  5
2E9
330
1F
100
AcDbEntity
  8
0
  6
Continuous
 62
     1
370
    15
100
AcDbCircle
 10
-35.40505464028612
 20
-0.0889208135325584
 30
0.0
 40
4.257987309847953
100
AcDbArc
 50
181.0628888716131
 51
251.1680701195484
  0
SPLINE
  5
2EA
330
1F
100
AcDbEntity
  8
0
  6
Continuous
 62
     1
370
    15
100
AcDbSpline
210
0.0
220
0.0
230
1.0
 70
     8
 71
     3
 72
    10
 73
     6
 74
     0
 42
0.000000001
 43
0.00000001
 40
0.0
 40
0.0
 40
0.0
 40
0.0
 40
0.5
 40
0.5
 40
1.0
 40
1.0
 40
1.0
 40
1.0
 10
-36.7795039696738
 20
-4.118976020570285
 30
0.0
 10
-36.48471081390846
 20
-4.298571199290491
 30
0.0
 10
-36.18141590685732
 20
-4.439773403513398
 30
0.0
 10
-35.56314756499997
 20
-4.645211403520888
 30
0.0
 10
-35.24440009588809
 20
-4.709553171998378
 30
0.0
 10
-34.92499999999998
 20
-4.730764436419419
 30
0.0
  0
LINE
  5
2EB
330
1F
100
AcDbEntity
  8
0
  6
Continuous
 62
     1
370
    15
100
AcDbLine
 10
-27.15396286909895
 20
3.223313475422986
 30
0.0
 11
-25.39999999999997
 21
3.201181030340409
 31
0.0
  0
SPLINE
  5
2EC
330
1F
100
AcDbEntity
  8
외형선
  6
Continuous
370
    15
100
AcDbSpline
210
0.0
220
0.0
230
1.0
 70
    24
 71
     3
 72
    10
 73
     6
 74
     0
 42
0.000000001
 43
0.00000001
 40
0.0
 40
0.0
 40
0.0
 40
0.0
 40
0.1737688036427874
 40
0.5868844018213937
 40
1.0
 40
1.0
 40
1.0
 40
1.0
 10
-25.39999999999997
 20
2.469358498773369
 30
0.0
 10
-25.39999999999997
 20
2.499507372997273
 30
0.0
 10
-25.4
 20
2.601331772104347
 30
0.0
 10
-25.39999999999997
 20
2.844442869690228
 30
0.0
 10
-25.39999999999997
 20
3.082268310123682
 30
0.0
 10
-25.39999999999997
 20
3.201181030340409
 30
0.0
  0
SPLINE
  5
2ED
330
1F
100
AcDbEntity
  8
0
  6
Continuous
 62
     1
370
    15
100
AcDbSpline
210
0.0
220
0.0
230
1.0
 70
     8
 71
     3
 72
     8
 73
     4
 74
     0
 42
0.000000001
 43
0.00000001
 40
0.0
 40
0.0
 40
0.0
 40
0.0
 40
1.0
 40
1.0
 40
1.0
 40
1.0
 10
-35.81332261770259
 20
-2.13191844405589
 30
0.0
 10
-36.78145524931841
 20
-1.862866606167392
 30
0.0
 10
-37.76852247439552
 20
-1.559692643445059
 30
0.0
 10
-38.75808265432089
 20
-1.233441726995428
 30
0.0
  0
SPLINE
  5
2EE
330
1F
100
AcDbEntity
  8
0
  6
Continuous
 62
     1
370
    15
100
AcDbSpline
210
0.0
220
0.0
230
1.0
 70
     8
 71
     3
 72
    16
 73
    12
 74
     0
 42
0.000000001
 43
0.00000001
 40
0.0
 40
0.0
 40
0.0
 40
0.0
 40
0.1000000932333918
 40
0.2093048444405965
 40
0.3059542832070273
 40
0.5002118847336936
 40
0.5978763948446585
 40
0.6978469894242654
 40
0.7980397088950962
 40
0.8989057460032086
 40
1.0
 40
1.0
 40
1.0
 40
1.0
 10
-27.14991148392314
 20
-3.223262352869893
 30
0.0
 10
-27.40922221181273
 20
-3.330976207565085
 30
0.0
 10
-27.95197162141613
 20
-3.556426313381023
 30
0.0
 10
-28.74425387748425
 20
-3.843590637970165
 30
0.0
 10
-29.78191310598495
 20
-4.17429372078932
 30
0.0
 10
-30.78863291561927
 20
-4.427153461326112
 30
0.0
 10
-31.80513340507226
 20
-4.605410109253695
 30
0.0
 10
-32.57609271377535
 20
-4.701712787703128
 30
0.0
 10
-33.3568865514091
 20
-4.755782860618877
 30
0.0
 10
-34.13964397475885
 20
-4.770647164605476
 30
0.0
 10
-34.66301751936432
 20
-4.744068690450559
 30
0.0
 10
-34.92499999999995
 20
-4.730764436419419
 30
0.0
  0
SPLINE
  5
2EF
330
1F
100
AcDbEntity
  8
0
  6
Continuous
 62
     1
370
    15
100
AcDbSpline
210
0.0
220
0.0
230
1.0
 70
     8
 71
     3
 72
    18
 73
    14
 74
     0
 42
0.000000001
 43
0.00000001
 40
0.0
 40
0.0
 40
0.0
 40
0.0
 40
0.2500000000000003
 40
0.2500000000000003
 40
0.3750000000000004
 40
0.3750000000000004
 40
0.5000000000000006
 40
0.5000000000000006
 40
0.6250000000000007
 40
0.6250000000000007
 40
0.7500000000000009
 40
0.7500000000000009
 40
1.0
 40
1.0
 40
1.0
 40
1.0
 10
-36.77950396967383
 20
-4.118976020570285
 30
0.0
 10
-36.81335604055837
 20
-3.919068620140918
 30
0.0
 10
-36.82858417124785
 20
-3.715597289818346
 30
0.0
 10
-36.80643447289705
 20
-3.406459927319885
 30
0.0
 10
-36.79155863700512
 20
-3.30512888043077
 30
0.0
 10
-36.7442165878532
 20
-3.106492481593177
 30
0.0
 10
-36.71115248315865
 20
-3.008054018583989
 30
0.0
 10
-36.62716169938997
 20
-2.823295392161482
 30
0.0
 10
-36.57646614419357
 20
-2.73673010872791
 30
0.0
 10
-36.4573871150479
 20
-2.575419789670987
 30
0.0
 10
-36.38856929856515
 20
-2.500668160749148
 30
0.0
 10
-36.16654193872991
 20
-2.303470500565103
 30
0.0
 10
-35.993109429333
 20
-2.203378606883694
 30
0.0
 10
-35.81332261770259
 20
-2.13191844405589
 30
0.0
  0
CIRCLE
  5
2F1
330
1F
100
AcDbEntity
  8
해칭선
100
AcDbCircle
 10
149.0574125532239
 20
-61.47787177030325
 30
0.0
 40
3.000000000000001
  0
INSERT
  5
2F5
330
1F
100
AcDbEntity
  8
해칭선
100
AcDbBlockReference
  2
SW_DOWELSYMBOL_0
 10
149.0574125532239
 20
-61.47787177030325
 30
0.0
  0
LINE
  5
32F
330
1F
100
AcDbEntity
  8
외형선
  6
Continuous
370
    15
100
AcDbLine
 10
-23.87993244403312
 20
-4.762500000000004
 30
0.0
 11
23.87993244403312
 21
-4.762499999999998
 31
0.0
  0
ENDSEC
  0
SECTION
  2
OBJECTS
  0
DICTIONARY
  5
C
330
0
100
AcDbDictionary
281
     1
  3
ACAD_GROUP
350
D
  3
ACAD_IMAGE_VARS
350
143
  3
ACAD_LAYOUT
350
1A
  3
ACAD_MLINESTYLE
350
17
  3
ACAD_PLOTSETTINGS
350
19
  3
ACAD_PLOTSTYLENAME
350
E
  3
ACAD_SCALELIST
350
47
  3
APPDATA
350
141
  3
DWGPROPS
350
332
  0
DICTIONARY
  5
170
330
2
100
AcDbDictionary
280
     1
281
     1
  3
ACAD_LAYERSTATES
360
171
  0
DICTIONARY
  5
D
102
{ACAD_REACTORS
330
C
102
}
330
C
100
AcDbDictionary
281
     1
  0
RASTERVARIABLES
  5
143
102
{ACAD_REACTORS
330
C
102
}
330
C
100
AcDbRasterVariables
 90
        0
 70
     1
 71
     1
 72
     1
  0
DICTIONARY
  5
1A
102
{ACAD_REACTORS
330
C
102
}
330
C
100
AcDbDictionary
281
     1
  3
Layout1
350
1E
  3
Layout2
350
26
  3
Model
350
22
  0
DICTIONARY
  5
17
102
{ACAD_REACTORS
330
C
102
}
330
C
100
AcDbDictionary
281
     1
  3
Standard
350
18
  0
DICTIONARY
  5
19
102
{ACAD_REACTORS
330
C
102
}
330
C
100
AcDbDictionary
281
     1
  0
ACDBDICTIONARYWDFLT
  5
E
102
{ACAD_REACTORS
330
C
102
}
330
C
100
AcDbDictionary
281
     1
  3
Normal
350
F
100
AcDbDictionaryWithDefault
340
F
  0
DICTIONARY
  5
47
102
{ACAD_REACTORS
330
C
102
}
330
C
100
AcDbDictionary
281
     1
  3
A0
350
48
  3
A1
350
49
  3
A2
350
4A
  3
A3
350
4B
  3
A4
350
4C
  3
A5
350
4D
  3
A6
350
4E
  3
A7
350
4F
  3
A8
350
50
  3
A9
350
51
  3
B0
350
52
  3
B1
350
53
  3
B2
350
54
  3
B3
350
55
  3
B4
350
56
  3
B5
350
57
  3
B6
350
58
  3
B7
350
59
  3
B8
350
5A
  3
B9
350
5B
  3
C0
350
5C
  3
C1
350
5D
  3
C2
350
5E
  3
C3
350
5F
  3
C4
350
60
  3
C5
350
61
  3
C6
350
62
  3
C7
350
63
  3
C8
350
64
  3
C9
350
65
  3
D0
350
66
  3
D1
350
67
  3
D2
350
68
  0
DICTIONARY
  5
141
102
{ACAD_REACTORS
330
C
102
}
330
C
100
AcDbDictionary
281
     1
  0
XRECORD
  5
332
102
{ACAD_REACTORS
330
C
102
}
330
C
100
AcDbXrecord
280
     1
  1
DWGPROPS COOKIE
  2

  3

  4

  6

  7

  8
12017012
  9

300
=
301
=
302
=
303
=
304
=
305
=
306
=
307
=
308
=
309
=
 40
0.0
 41
2458319.368677257
 42
2458323.235325394
  1

 90
        0
  0
DICTIONARY
  5
171
102
{ACAD_REACTORS
330
170
102
}
330
170
100
AcDbDictionary
281
     1
  0
LAYOUT
  5
1E
102
{ACAD_REACTORS
330
1A
102
}
330
1A
100
AcDbPlotSettings
  1

  2
none_device
  4

  6

 40
0.0
 41
0.0
 42
0.0
 43
0.0
 44
0.0
 45
0.0
 46
0.0
 47
0.0
 48
0.0
 49
0.0
140
0.0
141
0.0
142
1.0
143
1.0
 70
   688
 72
     1
 73
     0
 74
     5
  7

 75
    16
147
1.0
148
0.0
149
0.0
100
AcDbLayout
  1
Layout1
 70
     1
 71
     1
 10
0.0
 20
0.0
 11
420.0
 21
297.0
 12
0.0
 22
0.0
 32
0.0
 14
1.000000000000000E+20
 24
1.000000000000000E+20
 34
1.000000000000000E+20
 15
-1.000000000000000E+20
 25
-1.000000000000000E+20
 35
-1.000000000000000E+20
146
0.0
 13
0.0
 23
0.0
 33
0.0
 16
1.0
 26
0.0
 36
0.0
 17
0.0
 27
1.0
 37
0.0
 76
     0
330
1B
  0
LAYOUT
  5
26
102
{ACAD_REACTORS
330
1A
102
}
330
1A
100
AcDbPlotSettings
  1

  2
none_device
  4

  6

 40
0.0
 41
0.0
 42
0.0
 43
0.0
 44
0.0
 45
0.0
 46
0.0
 47
0.0
 48
0.0
 49
0.0
140
0.0
141
0.0
142
1.0
143
1.0
 70
   688
 72
     1
 73
     0
 74
     5
  7

 75
    16
147
1.0
148
0.0
149
0.0
100
AcDbLayout
  1
Layout2
 70
     1
 71
     2
 10
0.0
 20
0.0
 11
0.0
 21
0.0
 12
0.0
 22
0.0
 32
0.0
 14
0.0
 24
0.0
 34
0.0
 15
0.0
 25
0.0
 35
0.0
146
0.0
 13
0.0
 23
0.0
 33
0.0
 16
1.0
 26
0.0
 36
0.0
 17
0.0
 27
1.0
 37
0.0
 76
     0
330
23
  0
LAYOUT
  5
22
102
{ACAD_REACTORS
330
1A
102
}
330
1A
100
AcDbPlotSettings
  1

  2
none_device
  4
ANSI_A_(11.00_x_8.50_Inches)
  6

 40
6.35
 41
19.05
 42
6.35000508
 43
19.05000254
 44
279.4
 45
215.9
 46
131.6009558640601
 47
73.07058734597298
 48
0.0
 49
0.0
140
0.0
141
0.0
142
0.0677217261653242
143
1.0
 70
  1696
 72
     0
 73
     0
 74
     0
  7

 75
     0
147
0.0235690232323232
148
0.0
149
0.0
100
AcDbLayout
  1
Model
 70
     1
 71
     0
 10
0.0
 20
0.0
 11
420.0
 21
297.0
 12
0.0
 22
0.0
 32
0.0
 14
1.000000000000000E+20
 24
1.000000000000000E+20
 34
1.000000000000000E+20
 15
-1.000000000000000E+20
 25
-1.000000000000000E+20
 35
-1.000000000000000E+20
146
0.0
 13
0.0
 23
0.0
 33
0.0
 16
1.0
 26
0.0
 36
0.0
 17
0.0
 27
1.0
 37
0.0
 76
     0
330
1F
331
29
  0
MLINESTYLE
  5
18
102
{ACAD_REACTORS
330
17
102
}
330
17
100
AcDbMlineStyle
  2
Standard
 70
     0
  3

 62
   256
 51
90.0
 52
90.0
 71
     2
 49
0.5
 62
   256
  6
BYLAYER
 49
-0.5
 62
   256
  6
BYLAYER
  0
ACDBPLACEHOLDER
  5
F
102
{ACAD_REACTORS
330
E
102
}
330
E
  0
SCALE
  5
48
102
{ACAD_REACTORS
330
47
102
}
330
47
100
AcDbScale
 70
     0
300
1:1
140
1.0
141
1.0
290
     1
  0
SCALE
  5
49
102
{ACAD_REACTORS
330
47
102
}
330
47
100
AcDbScale
 70
     0
300
1:2
140
1.0
141
2.0
290
     0
  0
SCALE
  5
4A
102
{ACAD_REACTORS
330
47
102
}
330
47
100
AcDbScale
 70
     0
300
1:4
140
1.0
141
4.0
290
     0
  0
SCALE
  5
4B
102
{ACAD_REACTORS
330
47
102
}
330
47
100
AcDbScale
 70
     0
300
1:5
140
1.0
141
5.0
290
     0
  0
SCALE
  5
4C
102
{ACAD_REACTORS
330
47
102
}
330
47
100
AcDbScale
 70
     0
300
1:8
140
1.0
141
8.0
290
     0
  0
SCALE
  5
4D
102
{ACAD_REACTORS
330
47
102
}
330
47
100
AcDbScale
 70
     0
300
1:10
140
1.0
141
10.0
290
     0
  0
SCALE
  5
4E
102
{ACAD_REACTORS
330
47
102
}
330
47
100
AcDbScale
 70
     0
300
1:16
140
1.0
141
16.0
290
     0
  0
SCALE
  5
4F
102
{ACAD_REACTORS
330
47
102
}
330
47
100
AcDbScale
 70
     0
300
1:20
140
1.0
141
20.0
290
     0
  0
SCALE
  5
50
102
{ACAD_REACTORS
330
47
102
}
330
47
100
AcDbScale
 70
     0
300
1:30
140
1.0
141
30.0
290
     0
  0
SCALE
  5
51
102
{ACAD_REACTORS
330
47
102
}
330
47
100
AcDbScale
 70
     0
300
1:40
140
1.0
141
40.0
290
     0
  0
SCALE
  5
52
102
{ACAD_REACTORS
330
47
102
}
330
47
100
AcDbScale
 70
     0
300
1:50
140
1.0
141
50.0
290
     0
  0
SCALE
  5
53
102
{ACAD_REACTORS
330
47
102
}
330
47
100
AcDbScale
 70
     0
300
1:100
140
1.0
141
100.0
290
     0
  0
SCALE
  5
54
102
{ACAD_REACTORS
330
47
102
}
330
47
100
AcDbScale
 70
     0
300
2:1
140
2.0
141
1.0
290
     0
  0
SCALE
  5
55
102
{ACAD_REACTORS
330
47
102
}
330
47
100
AcDbScale
 70
     0
300
4:1
140
4.0
141
1.0
290
     0
  0
SCALE
  5
56
102
{ACAD_REACTORS
330
47
102
}
330
47
100
AcDbScale
 70
     0
300
8:1
140
8.0
141
1.0
290
     0
  0
SCALE
  5
57
102
{ACAD_REACTORS
330
47
102
}
330
47
100
AcDbScale
 70
     0
300
10:1
140
10.0
141
1.0
290
     0
  0
SCALE
  5
58
102
{ACAD_REACTORS
330
47
102
}
330
47
100
AcDbScale
 70
     0
300
100:1
140
100.0
141
1.0
290
     0
  0
SCALE
  5
59
102
{ACAD_REACTORS
330
47
102
}
330
47
100
AcDbScale
 70
     0
300
1/128" = 1'-0"
140
0.0078125
141
12.0
290
     0
  0
SCALE
  5
5A
102
{ACAD_REACTORS
330
47
102
}
330
47
100
AcDbScale
 70
     0
300
1/64" = 1'-0"
140
0.015625
141
12.0
290
     0
  0
SCALE
  5
5B
102
{ACAD_REACTORS
330
47
102
}
330
47
100
AcDbScale
 70
     0
300
1/32" = 1'-0"
140
0.03125
141
12.0
290
     0
  0
SCALE
  5
5C
102
{ACAD_REACTORS
330
47
102
}
330
47
100
AcDbScale
 70
     0
300
1/16" = 1'-0"
140
0.0625
141
12.0
290
     0
  0
SCALE
  5
5D
102
{ACAD_REACTORS
330
47
102
}
330
47
100
AcDbScale
 70
     0
300
3/32" = 1'-0"
140
0.09375
141
12.0
290
     0
  0
SCALE
  5
5E
102
{ACAD_REACTORS
330
47
102
}
330
47
100
AcDbScale
 70
     0
300
1/8" = 1'-0"
140
0.125
141
12.0
290
     0
  0
SCALE
  5
5F
102
{ACAD_REACTORS
330
47
102
}
330
47
100
AcDbScale
 70
     0
300
3/16" = 1'-0"
140
0.1875
141
12.0
290
     0
  0
SCALE
  5
60
102
{ACAD_REACTORS
330
47
102
}
330
47
100
AcDbScale
 70
     0
300
1/4" = 1'-0"
140
0.25
141
12.0
290
     0
  0
SCALE
  5
61
102
{ACAD_REACTORS
330
47
102
}
330
47
100
AcDbScale
 70
     0
300
3/8" = 1'-0"
140
0.375
141
12.0
290
     0
  0
SCALE
  5
62
102
{ACAD_REACTORS
330
47
102
}
330
47
100
AcDbScale
 70
     0
300
1/2" = 1'-0"
140
0.5
141
12.0
290
     0
  0
SCALE
  5
63
102
{ACAD_REACTORS
330
47
102
}
330
47
100
AcDbScale
 70
     0
300
3/4" = 1'-0"
140
0.75
141
12.0
290
     0
  0
SCALE
  5
64
102
{ACAD_REACTORS
330
47
102
}
330
47
100
AcDbScale
 70
     0
300
1" = 1'-0"
140
1.0
141
12.0
290
     0
  0
SCALE
  5
65
102
{ACAD_REACTORS
330
47
102
}
330
47
100
AcDbScale
 70
     0
300
1-1/2" = 1'-0"
140
1.5
141
12.0
290
     0
  0
SCALE
  5
66
102
{ACAD_REACTORS
330
47
102
}
330
47
100
AcDbScale
 70
     0
300
3" = 1'-0"
140
3.0
141
12.0
290
     0
  0
SCALE
  5
67
102
{ACAD_REACTORS
330
47
102
}
330
47
100
AcDbScale
 70
     0
300
6" = 1'-0"
140
6.0
141
12.0
290
     0
  0
SCALE
  5
68
102
{ACAD_REACTORS
330
47
102
}
330
47
100
AcDbScale
 70
     0
300
1'-0" = 1'-0"
140
12.0
141
12.0
290
     0
  0
ENDSEC
  0
EOF
