  0
SECTION
  2
HEADER
  9
$ACADVER
  1
AC1015
  9
$ACADMAINTVER
 70
     6
  9
$DWGCODEPAGE
  3
ANSI_949
  9
$INSBASE
 10
0.0
 20
0.0
 30
0.0
  9
$EXTMIN
 10
1.000000000000000E+20
 20
1.000000000000000E+20
 30
1.000000000000000E+20
  9
$EXTMAX
 10
-1.000000000000000E+20
 20
-1.000000000000000E+20
 30
-1.000000000000000E+20
  9
$LIMMIN
 10
0.0
 20
0.0
  9
$LIMMAX
 10
420.0
 20
297.0
  9
$ORTHOMODE
 70
     1
  9
$REGENMODE
 70
     1
  9
$FILLMODE
 70
     1
  9
$QTEXTMODE
 70
     0
  9
$MIRRTEXT
 70
     1
  9
$LTSCALE
 40
1.0
  9
$ATTMODE
 70
     1
  9
$TEXTSIZE
 40
3.5
  9
$TRACEWID
 40
1.0
  9
$TEXTSTYLE
  7
Standard
  9
$CLAYER
  8
0
  9
$CELTYPE
  6
ByLayer
  9
$CECOLOR
 62
   256
  9
$CELTSCALE
 40
1.0
  9
$DISPSILH
 70
     0
  9
$DIMSCALE
 40
1.0
  9
$DIMASZ
 40
3.302
  9
$DIMEXO
 40
1.0
  9
$DIMDLI
 40
3.75
  9
$DIMRND
 40
0.0
  9
$DIMDLE
 40
0.0
  9
$DIMEXE
 40
1.0
  9
$DIMTP
 40
0.0
  9
$DIMTM
 40
0.0
  9
$DIMTXT
 40
3.5
  9
$DIMCEN
 40
2.5
  9
$DIMTSZ
 40
0.0
  9
$DIMTOL
 70
     0
  9
$DIMLIM
 70
     0
  9
$DIMTIH
 70
     1
  9
$DIMTOH
 70
     1
  9
$DIMSE1
 70
     0
  9
$DIMSE2
 70
     0
  9
$DIMTAD
 70
     1
  9
$DIMZIN
 70
     0
  9
$DIMBLK
  1

  9
$DIMASO
 70
     1
  9
$DIMSHO
 70
     1
  9
$DIMPOST
  1

  9
$DIMAPOST
  1

  9
$DIMALT
 70
     0
  9
$DIMALTD
 70
     3
  9
$DIMALTF
 40
0.0393700787401575
  9
$DIMLFAC
 40
1.0
  9
$DIMTOFL
 70
     1
  9
$DIMTVP
 40
0.0
  9
$DIMTIX
 70
     0
  9
$DIMSOXD
 70
     0
  9
$DIMSAH
 70
     0
  9
$DIMBLK1
  1

  9
$DIMBLK2
  1

  9
$DIMSTYLE
  2
ISO-25
  9
$DIMCLRD
 70
     0
  9
$DIMCLRE
 70
     0
  9
$DIMCLRT
 70
     0
  9
$DIMTFAC
 40
1.0
  9
$DIMGAP
 40
1.524
  9
$DIMJUST
 70
     0
  9
$DIMSD1
 70
     0
  9
$DIMSD2
 70
     0
  9
$DIMTOLJ
 70
     0
  9
$DIMTZIN
 70
     0
  9
$DIMALTZ
 70
     0
  9
$DIMALTTZ
 70
     0
  9
$DIMUPT
 70
     0
  9
$DIMDEC
 70
     2
  9
$DIMTDEC
 70
     2
  9
$DIMALTU
 70
     2
  9
$DIMALTTD
 70
     3
  9
$DIMTXSTY
  7
Standard
  9
$DIMAUNIT
 70
     0
  9
$DIMADEC
 70
     2
  9
$DIMALTRND
 40
0.0
  9
$DIMAZIN
 70
     0
  9
$DIMDSEP
 70
    44
  9
$DIMATFIT
 70
     3
  9
$DIMFRAC
 70
     0
  9
$DIMLDRBLK
  1

  9
$DIMLUNIT
 70
     2
  9
$DIMLWD
 70
    -2
  9
$DIMLWE
 70
    -2
  9
$DIMTMOVE
 70
     0
  9
$LUNITS
 70
     2
  9
$LUPREC
 70
     2
  9
$SKETCHINC
 40
1.0
  9
$FILLETRAD
 40
10.0
  9
$AUNITS
 70
     0
  9
$AUPREC
 70
     2
  9
$MENU
  1
.
  9
$ELEVATION
 40
0.0
  9
$PELEVATION
 40
0.0
  9
$THICKNESS
 40
0.0
  9
$LIMCHECK
 70
     0
  9
$CHAMFERA
 40
0.0
  9
$CHAMFERB
 40
0.0
  9
$CHAMFERC
 40
0.0
  9
$CHAMFERD
 40
0.0
  9
$SKPOLY
 70
     0
  9
$TDCREATE
 40
2458319.74325331
  9
$TDUCREATE
 40
2458319.36825331
  9
$TDUPDATE
 40
2458323.616215694
  9
$TDUUPDATE
 40
2458323.241215694
  9
$TDINDWG
 40
0.000231713
  9
$TDUSRTIMER
 40
2458323.239944815
  9
$USRTIMER
 70
     1
  9
$ANGBASE
 50
0.0
  9
$ANGDIR
 70
     0
  9
$PDMODE
 70
     0
  9
$PDSIZE
 40
-1.0
  9
$PLINEWID
 40
0.0
  9
$SPLFRAME
 70
     0
  9
$SPLINETYPE
 70
     6
  9
$SPLINESEGS
 70
     8
  9
$HANDSEED
  5
4E1
  9
$SURFTAB1
 70
     6
  9
$SURFTAB2
 70
     6
  9
$SURFTYPE
 70
     6
  9
$SURFU
 70
     6
  9
$SURFV
 70
     6
  9
$UCSBASE
  2

  9
$UCSNAME
  2

  9
$UCSORG
 10
0.0
 20
0.0
 30
0.0
  9
$UCSXDIR
 10
1.0
 20
0.0
 30
0.0
  9
$UCSYDIR
 10
0.0
 20
1.0
 30
0.0
  9
$UCSORTHOREF
  2

  9
$UCSORTHOVIEW
 70
     0
  9
$UCSORGTOP
 10
0.0
 20
0.0
 30
0.0
  9
$UCSORGBOTTOM
 10
0.0
 20
0.0
 30
0.0
  9
$UCSORGLEFT
 10
0.0
 20
0.0
 30
0.0
  9
$UCSORGRIGHT
 10
0.0
 20
0.0
 30
0.0
  9
$UCSORGFRONT
 10
0.0
 20
0.0
 30
0.0
  9
$UCSORGBACK
 10
0.0
 20
0.0
 30
0.0
  9
$PUCSBASE
  2

  9
$PUCSNAME
  2

  9
$PUCSORG
 10
0.0
 20
0.0
 30
0.0
  9
$PUCSXDIR
 10
1.0
 20
0.0
 30
0.0
  9
$PUCSYDIR
 10
0.0
 20
1.0
 30
0.0
  9
$PUCSORTHOREF
  2

  9
$PUCSORTHOVIEW
 70
     0
  9
$PUCSORGTOP
 10
0.0
 20
0.0
 30
0.0
  9
$PUCSORGBOTTOM
 10
0.0
 20
0.0
 30
0.0
  9
$PUCSORGLEFT
 10
0.0
 20
0.0
 30
0.0
  9
$PUCSORGRIGHT
 10
0.0
 20
0.0
 30
0.0
  9
$PUCSORGFRONT
 10
0.0
 20
0.0
 30
0.0
  9
$PUCSORGBACK
 10
0.0
 20
0.0
 30
0.0
  9
$USERI1
 70
     0
  9
$USERI2
 70
     0
  9
$USERI3
 70
     0
  9
$USERI4
 70
     0
  9
$USERI5
 70
     0
  9
$USERR1
 40
0.0
  9
$USERR2
 40
0.0
  9
$USERR3
 40
0.0
  9
$USERR4
 40
0.0
  9
$USERR5
 40
0.0
  9
$WORLDVIEW
 70
     1
  9
$SHADEDGE
 70
     3
  9
$SHADEDIF
 70
    70
  9
$TILEMODE
 70
     1
  9
$MAXACTVP
 70
    64
  9
$PINSBASE
 10
0.0
 20
0.0
 30
0.0
  9
$PLIMCHECK
 70
     0
  9
$PEXTMIN
 10
1.000000000000000E+20
 20
1.000000000000000E+20
 30
1.000000000000000E+20
  9
$PEXTMAX
 10
-1.000000000000000E+20
 20
-1.000000000000000E+20
 30
-1.000000000000000E+20
  9
$PLIMMIN
 10
0.0
 20
0.0
  9
$PLIMMAX
 10
0.0
 20
0.0
  9
$UNITMODE
 70
     0
  9
$VISRETAIN
 70
     1
  9
$PLINEGEN
 70
     0
  9
$PSLTSCALE
 70
     1
  9
$TREEDEPTH
 70
  3020
  9
$CMLSTYLE
  2
Standard
  9
$CMLJUST
 70
     0
  9
$CMLSCALE
 40
20.0
  9
$PROXYGRAPHICS
 70
     1
  9
$MEASUREMENT
 70
     1
  9
$CELWEIGHT
370
    -1
  9
$ENDCAPS
280
     0
  9
$JOINSTYLE
280
     0
  9
$LWDISPLAY
290
     1
  9
$INSUNITS
 70
     4
  9
$HYPERLINKBASE
  1

  9
$STYLESHEET
  1

  9
$XEDIT
290
     1
  9
$CEPSNTYPE
380
     0
  9
$PSTYLEMODE
290
     1
  9
$FINGERPRINTGUID
  2
{B80B3A3B-2AE4-4ECD-8C6E-E7722922A5D0}
  9
$VERSIONGUID
  2
{FAEB1C32-E019-11D5-929B-00C0DF256EC4}
  9
$EXTNAMES
290
     1
  9
$PSVPSCALE
 40
0.0
  9
$OLESTARTUP
290
     0
  0
ENDSEC
  0
SECTION
  2
CLASSES
  0
CLASS
  1
ACDBDICTIONARYWDFLT
  2
AcDbDictionaryWithDefault
  3
ObjectDBX Classes
 90
        0
280
     0
281
     0
  0
CLASS
  1
VISUALSTYLE
  2
AcDbVisualStyle
  3
ObjectDBX Classes
 90
     4095
280
     0
281
     0
  0
CLASS
  1
MATERIAL
  2
AcDbMaterial
  3
ObjectDBX Classes
 90
     1153
280
     0
281
     0
  0
CLASS
  1
SCALE
  2
AcDbScale
  3
ObjectDBX Classes
 90
     1153
280
     0
281
     0
  0
CLASS
  1
SUN
  2
AcDbSun
  3
SCENEOE
 90
     1153
280
     0
281
     0
  0
CLASS
  1
ACDBPLACEHOLDER
  2
AcDbPlaceHolder
  3
ObjectDBX Classes
 90
        0
280
     0
281
     0
  0
CLASS
  1
LAYOUT
  2
AcDbLayout
  3
ObjectDBX Classes
 90
        0
280
     0
281
     0
  0
CLASS
  1
TABLESTYLE
  2
AcDbTableStyle
  3
ObjectDBX Classes
 90
     4095
280
     0
281
     0
  0
CLASS
  1
MLEADERSTYLE
  2
AcDbMLeaderStyle
  3
ACDB_MLEADERSTYLE_CLASS
 90
     4095
280
     0
281
     0
  0
CLASS
  1
RASTERVARIABLES
  2
AcDbRasterVariables
  3
ISM
 90
        0
280
     0
281
     0
  0
ENDSEC
  0
SECTION
  2
TABLES
  0
TABLE
  2
VPORT
  5
8
330
0
100
AcDbSymbolTable
 70
     1
  0
VPORT
  5
29
330
8
100
AcDbSymbolTableRecord
100
AcDbViewportTableRecord
  2
*Active
 70
     0
 10
0.0
 20
0.0
 11
1.0
 21
1.0
 12
28.81358100945658
 22
9.7938798290931
 13
0.0
 23
0.0
 14
10.0
 24
10.0
 15
10.0
 25
10.0
 16
0.0
 26
0.0
 36
1.0
 17
0.0
 27
0.0
 37
0.0
 40
113.0990079205341
 41
1.632093933463796
 42
50.0
 43
0.0
 44
0.0
 50
0.0
 51
0.0
 71
    16
 72
  2000
 73
     1
 74
     3
 75
     0
 76
     0
 77
     0
 78
     0
281
     0
 65
     1
110
0.0
120
0.0
130
0.0
111
1.0
121
0.0
131
0.0
112
0.0
122
1.0
132
0.0
 79
     0
146
0.0
  0
ENDTAB
  0
TABLE
  2
LTYPE
  5
5
330
0
100
AcDbSymbolTable
 70
     6
  0
LTYPE
  5
14
330
5
100
AcDbSymbolTableRecord
100
AcDbLinetypeTableRecord
  2
ByBlock
 70
     0
  3

 72
    65
 73
     0
 40
0.0
  0
LTYPE
  5
15
330
5
100
AcDbSymbolTableRecord
100
AcDbLinetypeTableRecord
  2
ByLayer
 70
     0
  3

 72
    65
 73
     0
 40
0.0
  0
LTYPE
  5
16
330
5
100
AcDbSymbolTableRecord
100
AcDbLinetypeTableRecord
  2
Continuous
 70
     0
  3
Solid line
 72
    65
 73
     0
 40
0.0
  0
LTYPE
  5
6A
330
5
100
AcDbSymbolTableRecord
100
AcDbLinetypeTableRecord
  2
HIDDEN
 70
     0
  3
Hidden __ __ __ __ __ __ __ __ __ __ __ __ __ __
 72
    65
 73
     2
 40
1.905
 49
1.27
 74
     0
 49
-0.635
 74
     0
  0
LTYPE
  5
6B
330
5
100
AcDbSymbolTableRecord
100
AcDbLinetypeTableRecord
  2
PHANTOM
 70
     0
  3
Phantom ______  __  __  ______  __  __  ______
 72
    65
 73
     6
 40
12.7
 49
6.35
 74
     0
 49
-1.27
 74
     0
 49
1.27
 74
     0
 49
-1.27
 74
     0
 49
1.27
 74
     0
 49
-1.27
 74
     0
  0
LTYPE
  5
6C
330
5
100
AcDbSymbolTableRecord
100
AcDbLinetypeTableRecord
  2
CENTER
 70
     0
  3
Center ____ _ ____ _ ____ _ ____ _ ____ _ ____
 72
    65
 73
     4
 40
10.16
 49
6.35
 74
     0
 49
-1.27
 74
     0
 49
1.27
 74
     0
 49
-1.27
 74
     0
  0
LTYPE
  5
6D
330
5
100
AcDbSymbolTableRecord
100
AcDbLinetypeTableRecord
  2
CENTERX2
 70
     0
  3
Center (2x) ________  __  ________  __  _____
 72
    65
 73
     4
 40
20.32
 49
12.7
 74
     0
 49
-2.54
 74
     0
 49
2.54
 74
     0
 49
-2.54
 74
     0
  0
LTYPE
  5
6E
330
5
100
AcDbSymbolTableRecord
100
AcDbLinetypeTableRecord
  2
DOT2
 70
     0
  3
Dot (.5x) ........................................
 72
    65
 73
     2
 40
0.635
 49
0.0
 74
     0
 49
-0.635
 74
     0
  0
ENDTAB
  0
TABLE
  2
LAYER
  5
2
102
{ACAD_XDICTIONARY
360
201
102
}
330
0
100
AcDbSymbolTable
 70
    18
  0
LAYER
  5
10
330
2
100
AcDbSymbolTableRecord
100
AcDbLayerTableRecord
  2
0
 70
     0
 62
     7
  6
Continuous
370
    -3
390
F
  0
LAYER
  5
6F
330
2
100
AcDbSymbolTableRecord
100
AcDbLayerTableRecord
  2
FORMAT
 70
     0
 62
     2
  6
Continuous
370
    -3
390
F
  0
LAYER
  5
70
330
2
100
AcDbSymbolTableRecord
100
AcDbLayerTableRecord
  2
외형선
 70
     0
 62
     4
  6
Continuous
370
    30
390
F
  0
LAYER
  5
71
330
2
100
AcDbSymbolTableRecord
100
AcDbLayerTableRecord
  2
숨은선
 70
     0
 62
     2
  6
HIDDEN
370
    15
390
F
  0
LAYER
  5
72
330
2
100
AcDbSymbolTableRecord
100
AcDbLayerTableRecord
  2
중심선
 70
     0
 62
     1
  6
CENTERX2
370
    -3
390
F
  0
LAYER
  5
73
330
2
100
AcDbSymbolTableRecord
100
AcDbLayerTableRecord
  2
파단선
 70
     0
 62
     4
  6
Continuous
370
    -3
390
F
  0
LAYER
  5
74
330
2
100
AcDbSymbolTableRecord
100
AcDbLayerTableRecord
  2
해칭선
 70
     0
 62
   100
  6
Continuous
370
    -3
390
F
  0
LAYER
  5
75
330
2
100
AcDbSymbolTableRecord
100
AcDbLayerTableRecord
  2
가는실선
 70
     0
 62
     4
  6
Continuous
370
    -3
390
F
  0
LAYER
  5
76
330
2
100
AcDbSymbolTableRecord
100
AcDbLayerTableRecord
  2
치수_보조선
 70
     0
 62
     4
  6
Continuous
370
    -3
390
F
  0
LAYER
  5
77
330
2
100
AcDbSymbolTableRecord
100
AcDbLayerTableRecord
  2
치수문자_일반주서
 70
     0
 62
     7
  6
Continuous
370
    15
390
F
  0
LAYER
  5
78
330
2
100
AcDbSymbolTableRecord
100
AcDbLayerTableRecord
  2
개별주서
 70
     0
 62
   100
  6
Continuous
370
    30
390
F
  0
LAYER
  5
79
330
2
100
AcDbSymbolTableRecord
100
AcDbLayerTableRecord
  2
중간선
 70
     0
 62
     2
  6
Continuous
370
    15
390
F
  0
LAYER
  5
7A
330
2
100
AcDbSymbolTableRecord
100
AcDbLayerTableRecord
  2
윤곽선
 70
     0
 62
     3
  6
Continuous
370
    40
390
F
  0
LAYER
  5
7B
330
2
100
AcDbSymbolTableRecord
100
AcDbLayerTableRecord
  2
중심마크
 70
     0
 62
   100
  6
Continuous
370
    30
390
F
  0
LAYER
  5
7C
330
2
100
AcDbSymbolTableRecord
100
AcDbLayerTableRecord
  2
가상선
 70
     0
 62
     4
  6
PHANTOM
370
    -3
390
F
  0
LAYER
  5
7D
330
2
100
AcDbSymbolTableRecord
100
AcDbLayerTableRecord
  2
특수지정선
 70
     0
 62
     5
  6
CENTERX2
370
    60
390
F
  0
LAYER
  5
7E
330
2
100
AcDbSymbolTableRecord
100
AcDbLayerTableRecord
  2
참조1
 70
     0
 62
    -4
  6
Continuous
370
    -3
390
F
  0
LAYER
  5
14E
330
2
100
AcDbSymbolTableRecord
100
AcDbLayerTableRecord
  2
Defpoints
 70
     0
 62
     7
  6
Continuous
290
     0
370
    -3
390
F
  0
ENDTAB
  0
TABLE
  2
STYLE
  5
3
330
0
100
AcDbSymbolTable
 70
     2
  0
STYLE
  5
11
330
3
100
AcDbSymbolTableRecord
100
AcDbTextStyleTableRecord
  2
Standard
 70
     0
 40
0.0
 41
1.0
 50
0.0
 71
     0
 42
3.5
  3
txt
  4

  0
STYLE
  5
94
330
3
100
AcDbSymbolTableRecord
100
AcDbTextStyleTableRecord
  2
SLDTEXTSTYLE0
 70
     0
 40
0.0
 41
0.75
 50
0.0
 71
     0
 42
3.5
  3
TXT
  4

  0
ENDTAB
  0
TABLE
  2
VIEW
  5
6
330
0
100
AcDbSymbolTable
 70
     0
  0
ENDTAB
  0
TABLE
  2
UCS
  5
7
330
0
100
AcDbSymbolTable
 70
     0
  0
ENDTAB
  0
TABLE
  2
APPID
  5
9
330
0
100
AcDbSymbolTable
 70
     1
  0
APPID
  5
12
330
9
100
AcDbSymbolTableRecord
100
AcDbRegAppTableRecord
  2
ACAD
 70
     0
  0
ENDTAB
  0
TABLE
  2
DIMSTYLE
  5
A
330
0
100
AcDbSymbolTable
 70
     3
100
AcDbDimStyleTable
  0
DIMSTYLE
105
27
330
A
100
AcDbSymbolTableRecord
100
AcDbDimStyleTableRecord
  2
ISO-25
 70
     0
 41
2.5
 42
0.625
 43
3.75
 44
1.25
 73
     0
 74
     0
 77
     1
 78
     8
140
2.5
141
2.5
143
0.03937007874016
147
0.625
171
     3
172
     1
178
     0
271
     2
272
     2
274
     3
278
    44
283
     0
284
     8
340
11
  0
DIMSTYLE
105
CC
102
{ACAD_REACTORS
330
CB
330
E0
330
108
330
19B
330
1A9
330
1B6
330
1C3
330
F3
330
30D
330
31B
330
328
330
335
330
432
330
440
330
44D
102
}
330
A
100
AcDbSymbolTableRecord
100
AcDbDimStyleTableRecord
  2
SLDDIMSTYLE0
 70
     0
 41
3.302
 44
0.0
 45
0.000000001
 73
     0
 74
     0
 77
     1
 78
    12
 79
     3
140
3.5
143
0.0393700787401575
147
0.875
148
0.000000001
170
     1
173
     1
178
     0
271
     2
272
     2
276
     2
284
    12
340
94
  0
DIMSTYLE
105
F4
330
A
100
AcDbSymbolTableRecord
100
AcDbDimStyleTableRecord
  2
SLDDIMSTYLE1
 70
     0
 41
3.302
 44
0.0
 45
0.000000001
 73
     0
 74
     0
 77
     1
 78
    12
 79
     3
140
3.5
143
0.0393700787401575
147
0.875
148
0.000000001
170
     1
172
     1
173
     1
178
     0
271
     2
272
     2
276
     2
284
    12
289
     0
340
94
  0
ENDTAB
  0
TABLE
  2
BLOCK_RECORD
  5
1
330
0
100
AcDbSymbolTable
 70
    32
  0
BLOCK_RECORD
  5
1F
330
1
100
AcDbSymbolTableRecord
100
AcDbBlockTableRecord
  2
*Model_Space
340
22
  0
BLOCK_RECORD
  5
1B
330
1
100
AcDbSymbolTableRecord
100
AcDbBlockTableRecord
  2
*Paper_Space
340
1E
  0
BLOCK_RECORD
  5
23
330
1
100
AcDbSymbolTableRecord
100
AcDbBlockTableRecord
  2
*Paper_Space0
340
26
  0
BLOCK_RECORD
  5
7F
330
1
100
AcDbSymbolTableRecord
100
AcDbBlockTableRecord
  2
블럭10
340
0
102
{BLKREFS
331
C4
102
}
  0
BLOCK_RECORD
  5
CD
330
1
100
AcDbSymbolTableRecord
100
AcDbBlockTableRecord
  2
_D
340
0
  0
BLOCK_RECORD
  5
E1
330
1
100
AcDbSymbolTableRecord
100
AcDbBlockTableRecord
  2
_D_1
340
0
  0
BLOCK_RECORD
  5
F5
330
1
100
AcDbSymbolTableRecord
100
AcDbBlockTableRecord
  2
_D_2
340
0
  0
BLOCK_RECORD
  5
109
330
1
100
AcDbSymbolTableRecord
100
AcDbBlockTableRecord
  2
_D_3
340
0
  0
BLOCK_RECORD
  5
122
330
1
100
AcDbSymbolTableRecord
100
AcDbBlockTableRecord
  2
SW_DOWELSYMBOL_0
340
0
102
{BLKREFS
331
128
331
1D1
331
0
331
344
331
0
331
45C
331
0
102
}
  0
BLOCK_RECORD
  5
205
330
1
100
AcDbSymbolTableRecord
100
AcDbBlockTableRecord
  2
*D8
340
0
  0
BLOCK_RECORD
  5
212
330
1
100
AcDbSymbolTableRecord
100
AcDbBlockTableRecord
  2
*D9
340
0
  0
BLOCK_RECORD
  5
21E
330
1
100
AcDbSymbolTableRecord
100
AcDbBlockTableRecord
  2
*D10
340
0
  0
BLOCK_RECORD
  5
22A
330
1
100
AcDbSymbolTableRecord
100
AcDbBlockTableRecord
  2
*D11
340
0
  0
BLOCK_RECORD
  5
28B
330
1
100
AcDbSymbolTableRecord
100
AcDbBlockTableRecord
  2
*D12
340
0
  0
BLOCK_RECORD
  5
298
330
1
100
AcDbSymbolTableRecord
100
AcDbBlockTableRecord
  2
*D13
340
0
  0
BLOCK_RECORD
  5
2A4
330
1
100
AcDbSymbolTableRecord
100
AcDbBlockTableRecord
  2
*D14
340
0
  0
BLOCK_RECORD
  5
2B0
330
1
100
AcDbSymbolTableRecord
100
AcDbBlockTableRecord
  2
*D15
340
0
  0
BLOCK_RECORD
  5
34D
330
1
100
AcDbSymbolTableRecord
100
AcDbBlockTableRecord
  2
*D17
340
0
  0
BLOCK_RECORD
  5
35A
330
1
100
AcDbSymbolTableRecord
100
AcDbBlockTableRecord
  2
*D18
340
0
  0
BLOCK_RECORD
  5
366
330
1
100
AcDbSymbolTableRecord
100
AcDbBlockTableRecord
  2
*D19
340
0
  0
BLOCK_RECORD
  5
372
330
1
100
AcDbSymbolTableRecord
100
AcDbBlockTableRecord
  2
*D20
340
0
  0
BLOCK_RECORD
  5
3AD
330
1
100
AcDbSymbolTableRecord
100
AcDbBlockTableRecord
  2
*D21
340
0
  0
BLOCK_RECORD
  5
3BA
330
1
100
AcDbSymbolTableRecord
100
AcDbBlockTableRecord
  2
*D22
340
0
  0
BLOCK_RECORD
  5
3C6
330
1
100
AcDbSymbolTableRecord
100
AcDbBlockTableRecord
  2
*D23
340
0
  0
BLOCK_RECORD
  5
3D2
330
1
100
AcDbSymbolTableRecord
100
AcDbBlockTableRecord
  2
*D24
340
0
  0
BLOCK_RECORD
  5
465
330
1
100
AcDbSymbolTableRecord
100
AcDbBlockTableRecord
  2
*D26
340
0
  0
BLOCK_RECORD
  5
472
330
1
100
AcDbSymbolTableRecord
100
AcDbBlockTableRecord
  2
*D27
340
0
  0
BLOCK_RECORD
  5
47E
330
1
100
AcDbSymbolTableRecord
100
AcDbBlockTableRecord
  2
*D28
340
0
  0
BLOCK_RECORD
  5
4B8
330
1
100
AcDbSymbolTableRecord
100
AcDbBlockTableRecord
  2
*D29
340
0
  0
BLOCK_RECORD
  5
4C5
330
1
100
AcDbSymbolTableRecord
100
AcDbBlockTableRecord
  2
*D30
340
0
  0
BLOCK_RECORD
  5
4D1
330
1
100
AcDbSymbolTableRecord
100
AcDbBlockTableRecord
  2
*D31
340
0
  0
ENDTAB
  0
ENDSEC
  0
SECTION
  2
BLOCKS
  0
BLOCK
  5
20
330
1F
100
AcDbEntity
  8
0
100
AcDbBlockBegin
  2
*Model_Space
 70
     0
 10
0.0
 20
0.0
 30
0.0
  3
*Model_Space
  1
*Model_Space
  0
ENDBLK
  5
21
330
1F
100
AcDbEntity
  8
0
100
AcDbBlockEnd
  0
BLOCK
  5
1C
330
1B
100
AcDbEntity
 67
     1
  8
0
100
AcDbBlockBegin
  2
*Paper_Space
 70
     0
 10
0.0
 20
0.0
 30
0.0
  3
*Paper_Space
  1
*Paper_Space
  0
ENDBLK
  5
1D
330
1B
100
AcDbEntity
 67
     1
  8
0
100
AcDbBlockEnd
  0
BLOCK
  5
24
330
23
100
AcDbEntity
  8
0
100
AcDbBlockBegin
  2
*Paper_Space0
 70
     0
 10
0.0
 20
0.0
 30
0.0
  3
*Paper_Space0
  1
*Paper_Space0
  0
ENDBLK
  5
25
330
23
100
AcDbEntity
  8
0
100
AcDbBlockEnd
  0
BLOCK
  5
80
330
7F
100
AcDbEntity
  8
0
100
AcDbBlockBegin
  2
블럭10
 70
     2
 10
0.0
 20
0.0
 30
0.0
  3
블럭10
  1
블럭10
  0
ELLIPSE
  5
82
330
7F
100
AcDbEntity
  8
중심선
100
AcDbEllipse
 10
20.54032771741204
 20
12.0471743016438
 30
0.0
 11
6.600054785286829
 21
-1.261213355974178E-13
 31
0.0
210
0.0
220
0.0
230
1.0
 40
0.636358354079598
 41
0.9219305317359503
 42
6.513795318482858
  0
ELLIPSE
  5
83
330
7F
100
AcDbEntity
  8
중심선
100
AcDbEllipse
 10
20.54032771746488
 20
12.04717430159265
 30
0.0
 11
3.960054785062283
 21
1.540847449632565E-10
 31
0.0
210
0.0
220
0.0
230
1.0
 40
0.3939339440162632
 41
1.131841032648279
 42
5.62031148352944
  0
LINE
  5
84
330
7F
100
AcDbEntity
  8
중심선
100
AcDbLine
 10
2.268634060543552
 20
16.24717430164393
 30
0.0
 11
5.714909304380834
 21
16.24717430164393
 31
0.0
  0
LINE
  5
85
330
7F
100
AcDbEntity
  8
중심선
100
AcDbLine
 10
5.245725140726316
 20
7.84717430164391
 30
0.0
 11
8.692000384563599
 21
7.84717430164391
 31
0.0
  0
LINE
  5
86
330
7F
100
AcDbEntity
  8
중심선
100
AcDbLine
 10
15.74043728645272
 20
16.24717430164393
 30
0.0
 11
8.692000384563599
 21
7.84717430164391
 31
0.0
  0
LINE
  5
87
330
7F
100
AcDbEntity
  8
중심선
100
AcDbLine
 10
0.1404042013395286
 20
13.71084872107135
 30
0.0
 11
3.58671253028996
 21
13.71088815037384
 31
0.0
  0
LINE
  5
88
330
7F
100
AcDbEntity
  8
중심선
100
AcDbLine
 10
2.750260043222114
 20
10.84717430164391
 30
0.0
 11
6.196535287059397
 21
10.84717430164391
 31
0.0
  0
LINE
  5
89
330
7F
100
AcDbEntity
  8
중심선
100
AcDbLine
 10
12.29416204261559
 20
16.24717430164393
 30
0.0
 11
5.245725140726316
 21
7.84717430164391
 31
0.0
  0
LINE
  5
8A
330
7F
100
AcDbEntity
  8
중심선
100
AcDbLine
 10
10.72767329541681
 20
16.24717430164393
 30
0.0
 11
6.196535287059397
 21
10.84717430164391
 31
0.0
  0
LINE
  5
8B
330
7F
100
AcDbEntity
  8
중심선
100
AcDbLine
 10
7.28139805157953
 20
16.24717430164393
 30
0.0
 11
2.750260043222114
 21
10.84717430164391
 31
0.0
  0
LINE
  5
8C
330
7F
100
AcDbEntity
  8
중심선
100
AcDbLine
 10
5.714909304380834
 20
16.24717430164393
 30
0.0
 11
3.58671253028996
 21
13.71088815037384
 31
0.0
  0
LINE
  5
8D
330
7F
100
AcDbEntity
  8
중심선
100
AcDbLine
 10
2.268634060543552
 20
16.24717430164393
 30
0.0
 11
0.1404042013395286
 21
13.71084872107135
 31
0.0
  0
LINE
  5
8E
330
7F
100
AcDbEntity
  8
중심선
100
AcDbLine
 10
7.28139805157953
 20
16.24717430164393
 30
0.0
 11
10.72767329541681
 21
16.24717430164393
 31
0.0
  0
LINE
  5
8F
330
7F
100
AcDbEntity
  8
중심선
100
AcDbLine
 10
12.29416204261559
 20
16.24717430164393
 30
0.0
 11
15.74043728645272
 21
16.24717430164393
 31
0.0
  0
LINE
  5
90
330
7F
100
AcDbEntity
  8
중심선
100
AcDbLine
 10
19.22036997980202
 20
11.08717430171403
 30
0.0
 11
23.66174974927406
 21
11.08717430171406
 31
0.0
  0
LINE
  5
91
330
7F
100
AcDbEntity
  8
중심선
100
AcDbLine
 10
19.22039502424796
 20
13.00717430171391
 30
0.0
 11
19.22036997980202
 21
11.08717430171403
 31
0.0
  0
LINE
  5
92
330
7F
100
AcDbEntity
  8
중심선
100
AcDbLine
 10
19.22039502424796
 20
13.00717430171391
 30
0.0
 11
26.96566020931264
 21
13.00717430171391
 31
0.0
  0
LINE
  5
93
330
7F
100
AcDbEntity
  8
중심선
100
AcDbLine
 10
22.22332737316547
 20
13.45928029700563
 30
0.0
 11
24.52862924686651
 21
15.39360700705356
 31
0.0
  0
ATTDEF
  5
95
330
7F
100
AcDbEntity
  8
FORMAT
 62
     2
100
AcDbText
 10
4.408487351596664
 20
2.075366912832191
 30
0.0
 40
4.233333333333333
  1
E1112020
 41
0.75
  7
SLDTEXTSTYLE0
 11
4.408487351596664
 21
-0.0412997538344756
 31
0.0
100
AcDbAttributeDefinition
  3

  2
AUTOATTR0
 70
     0
 74
     1
  0
ENDBLK
  5
81
330
7F
100
AcDbEntity
  8
0
100
AcDbBlockEnd
  0
BLOCK
  5
CE
330
CD
100
AcDbEntity
  8
0
100
AcDbBlockBegin
  2
_D
 70
     0
 10
0.0
 20
0.0
 30
0.0
  3
_D
  1
_D
  0
LINE
  5
D0
330
CD
100
AcDbEntity
  8
0
  6
Continuous
 62
     0
370
    -2
100
AcDbLine
 10
39.68749999999999
 20
4.031250000000004
 30
0.0
 11
39.68749999999999
 21
12.99892507127612
 31
0.0
  0
LINE
  5
D1
330
CD
100
AcDbEntity
  8
0
  6
Continuous
 62
     0
370
    -2
100
AcDbLine
 10
25.4
 20
3.543339941364388
 30
0.0
 11
25.4
 21
12.99892507127612
 31
0.0
  0
LINE
  5
D2
330
CD
100
AcDbEntity
  8
0
  6
Continuous
 62
     0
370
    -2
100
AcDbLine
 10
25.4
 20
12.99892507127612
 30
0.0
 11
-12.19603172800619
 21
12.99892507127612
 31
0.0
  0
LINE
  5
D3
330
CD
100
AcDbEntity
  8
0
  6
Continuous
 62
     0
370
    -2
100
AcDbLine
 10
36.38549999999999
 20
12.99892507127612
 30
0.0
 11
28.702
 21
12.99892507127612
 31
0.0
  0
SOLID
  5
D4
330
CD
100
AcDbEntity
  8
0
 62
     0
100
AcDbTrace
 10
36.38549999999999
 20
12.44859173794278
 30
0.0
 11
36.38549999999999
 21
13.54925840460945
 31
0.0
 12
39.68749999999999
 22
12.99892507127612
 32
0.0
 13
39.68749999999999
 23
12.99892507127612
 33
0.0
  0
SOLID
  5
D5
330
CD
100
AcDbEntity
  8
0
 62
     0
100
AcDbTrace
 10
28.702
 20
13.54925840460945
 30
0.0
 11
28.702
 21
12.44859173794278
 31
0.0
 12
25.4
 22
12.99892507127612
 32
0.0
 13
25.4
 23
12.99892507127612
 33
0.0
  0
MTEXT
  5
D6
330
CD
100
AcDbEntity
  8
0
 62
     0
370
    15
100
AcDbMText
 10
1.36646827199381
 20
17.37392507127612
 30
0.0
 40
3.5
 41
0.0
 71
     2
 72
     1
  1
\A1;14.29 [9/16]
  7
SLDTEXTSTYLE0
 73
     1
 44
1.0
  0
POINT
  5
D7
330
CD
100
AcDbEntity
  8
Defpoints
 62
     0
100
AcDbPoint
 10
39.68749999999999
 20
3.968750000000004
 30
0.0
  0
POINT
  5
D8
330
CD
100
AcDbEntity
  8
Defpoints
 62
     0
100
AcDbPoint
 10
25.4
 20
3.480839941364388
 30
0.0
  0
POINT
  5
D9
330
CD
100
AcDbEntity
  8
Defpoints
 62
     0
100
AcDbPoint
 10
25.4
 20
12.99892507127612
 30
0.0
  0
ENDBLK
  5
CF
330
CD
100
AcDbEntity
  8
0
100
AcDbBlockEnd
  0
BLOCK
  5
E2
330
E1
100
AcDbEntity
  8
0
100
AcDbBlockBegin
  2
_D_1
 70
     0
 10
0.0
 20
0.0
 30
0.0
  3
_D_1
  1
_D_1
  0
LINE
  5
E4
330
E1
100
AcDbEntity
  8
0
  6
Continuous
 62
     0
370
    -2
100
AcDbLine
 10
39.68749999999999
 20
4.031250000000004
 30
0.0
 11
39.68749999999999
 21
29.28797898817498
 31
0.0
  0
LINE
  5
E5
330
E1
100
AcDbEntity
  8
0
  6
Continuous
 62
     0
370
    -2
100
AcDbLine
 10
-39.68749999999999
 20
4.825000000000003
 30
0.0
 11
-39.68749999999999
 21
29.28797898817498
 31
0.0
  0
LINE
  5
E6
330
E1
100
AcDbEntity
  8
0
  6
Continuous
 62
     0
370
    -2
100
AcDbLine
 10
36.38549999999999
 20
29.28797898817498
 30
0.0
 11
-36.38549999999999
 21
29.28797898817498
 31
0.0
  0
SOLID
  5
E7
330
E1
100
AcDbEntity
  8
0
 62
     0
100
AcDbTrace
 10
36.38549999999999
 20
28.73764565484164
 30
0.0
 11
36.38549999999999
 21
29.83831232150831
 31
0.0
 12
39.68749999999999
 22
29.28797898817498
 32
0.0
 13
39.68749999999999
 23
29.28797898817498
 33
0.0
  0
SOLID
  5
E8
330
E1
100
AcDbEntity
  8
0
 62
     0
100
AcDbTrace
 10
-36.38549999999999
 20
29.83831232150831
 30
0.0
 11
-36.38549999999999
 21
28.73764565484164
 31
0.0
 12
-39.68749999999999
 22
29.28797898817498
 32
0.0
 13
-39.68749999999999
 23
29.28797898817498
 33
0.0
  0
MTEXT
  5
E9
330
E1
100
AcDbEntity
  8
0
 62
     0
370
    15
100
AcDbMText
 10
0.347394586978794
 20
33.66297898817498
 30
0.0
 40
3.5
 41
0.0
 71
     2
 72
     1
  1
\A1;79.38 [3 1/8]
  7
SLDTEXTSTYLE0
 73
     1
 44
1.0
  0
POINT
  5
EA
330
E1
100
AcDbEntity
  8
Defpoints
 62
     0
100
AcDbPoint
 10
39.68749999999999
 20
3.968750000000004
 30
0.0
  0
POINT
  5
EB
330
E1
100
AcDbEntity
  8
Defpoints
 62
     0
100
AcDbPoint
 10
-39.68749999999999
 20
4.762500000000003
 30
0.0
  0
POINT
  5
EC
330
E1
100
AcDbEntity
  8
Defpoints
 62
     0
100
AcDbPoint
 10
-39.68749999999999
 20
29.28797898817498
 30
0.0
  0
ENDBLK
  5
E3
330
E1
100
AcDbEntity
  8
0
100
AcDbBlockEnd
  0
BLOCK
  5
F6
330
F5
100
AcDbEntity
  8
0
100
AcDbBlockBegin
  2
_D_2
 70
     0
 10
0.0
 20
0.0
 30
0.0
  3
_D_2
  1
_D_2
  0
LINE
  5
F8
330
F5
100
AcDbEntity
  8
0
  6
Continuous
 62
     0
370
    -2
100
AcDbLine
 10
-21.50018467149219
 20
4.762499999999997
 30
0.0
 11
-52.3075
 21
4.762499999999881
 31
0.0
  0
LINE
  5
F9
330
F5
100
AcDbEntity
  8
0
  6
Continuous
 62
     0
370
    -2
100
AcDbLine
 10
-21.50018467149219
 20
-4.762500000000004
 30
0.0
 11
-52.30749999999996
 21
-4.762500000000119
 31
0.0
  0
LINE
  5
FA
330
F5
100
AcDbEntity
  8
0
  6
Continuous
 62
     0
370
    -2
100
AcDbLine
 10
-52.30749999999998
 20
1.460499999999882
 30
0.0
 11
-52.30749999999998
 21
-1.46050000000012
 31
0.0
  0
SOLID
  5
FB
330
F5
100
AcDbEntity
  8
0
 62
     0
100
AcDbTrace
 10
-51.75716666666665
 20
1.460499999999884
 30
0.0
 11
-52.85783333333332
 21
1.46049999999988
 31
0.0
 12
-52.3075
 22
4.762499999999881
 32
0.0
 13
-52.3075
 23
4.762499999999881
 33
0.0
  0
SOLID
  5
FC
330
F5
100
AcDbEntity
  8
0
 62
     0
100
AcDbTrace
 10
-52.85783333333331
 20
-1.460500000000122
 30
0.0
 11
-51.75716666666664
 21
-1.460500000000118
 31
0.0
 12
-52.30749999999996
 22
-4.762500000000119
 32
0.0
 13
-52.30749999999996
 23
-4.762500000000119
 33
0.0
  0
MTEXT
  5
FD
330
F5
100
AcDbEntity
  8
0
 62
     0
370
    15
100
AcDbMText
 10
-56.68249999999998
 20
-0.0000000000000102
 30
0.0
 40
3.5
 41
0.0
 71
     2
 72
     1
  1
\A1;%%c9.53 [3/8]
  7
SLDTEXTSTYLE0
 11
-3.729883127349607E-15
 21
1.0
 31
0.0
 73
     1
 44
1.0
  0
POINT
  5
FE
330
F5
100
AcDbEntity
  8
Defpoints
 62
     0
100
AcDbPoint
 10
-21.43768467149219
 20
4.762499999999997
 30
0.0
  0
POINT
  5
FF
330
F5
100
AcDbEntity
  8
Defpoints
 62
     0
100
AcDbPoint
 10
-21.43768467149219
 20
-4.762500000000004
 30
0.0
  0
POINT
  5
100
330
F5
100
AcDbEntity
  8
Defpoints
 62
     0
100
AcDbPoint
 10
-52.30749999999997
 20
-4.762500000000119
 30
0.0
  0
ENDBLK
  5
F7
330
F5
100
AcDbEntity
  8
0
100
AcDbBlockEnd
  0
BLOCK
  5
10A
330
109
100
AcDbEntity
  8
0
100
AcDbBlockBegin
  2
_D_3
 70
     0
 10
0.0
 20
0.0
 30
0.0
  3
_D_3
  1
_D_3
  0
LINE
  5
10C
330
109
100
AcDbEntity
  8
0
  6
Continuous
 62
     0
370
    -2
100
AcDbLine
 10
39.74999999999999
 20
3.968750000000015
 30
0.0
 11
48.50949897076818
 21
3.968750000000046
 31
0.0
  0
LINE
  5
10D
330
109
100
AcDbEntity
  8
0
  6
Continuous
 62
     0
370
    -2
100
AcDbLine
 10
39.74999999999999
 20
-3.968749999999995
 30
0.0
 11
48.50949897076821
 21
-3.968749999999964
 31
0.0
  0
LINE
  5
10E
330
109
100
AcDbEntity
  8
0
  6
Continuous
 62
     0
370
    -2
100
AcDbLine
 10
48.50949897076818
 20
3.968750000000046
 30
0.0
 11
48.50949897076806
 21
38.57275000000004
 31
0.0
  0
LINE
  5
10F
330
109
100
AcDbEntity
  8
0
  6
Continuous
 62
     0
370
    -2
100
AcDbLine
 10
48.50949897076817
 20
7.270750000000046
 30
0.0
 11
48.50949897076816
 21
10.57275000000005
 31
0.0
  0
LINE
  5
110
330
109
100
AcDbEntity
  8
0
  6
Continuous
 62
     0
370
    -2
100
AcDbLine
 10
48.50949897076823
 20
-7.270749999999964
 30
0.0
 11
48.50949897076824
 21
-10.57274999999996
 31
0.0
  0
SOLID
  5
111
330
109
100
AcDbEntity
  8
0
 62
     0
100
AcDbTrace
 10
47.95916563743484
 20
7.270750000000044
 30
0.0
 11
49.0598323041015
 21
7.270750000000048
 31
0.0
 12
48.50949897076818
 22
3.968750000000046
 32
0.0
 13
48.50949897076818
 23
3.968750000000046
 33
0.0
  0
SOLID
  5
112
330
109
100
AcDbEntity
  8
0
 62
     0
100
AcDbTrace
 10
49.05983230410156
 20
-7.270749999999962
 30
0.0
 11
47.95916563743489
 21
-7.270749999999966
 31
0.0
 12
48.50949897076821
 22
-3.968749999999964
 32
0.0
 13
48.50949897076821
 23
-3.968749999999964
 33
0.0
  0
MTEXT
  5
113
330
109
100
AcDbEntity
  8
0
 62
     0
370
    15
100
AcDbMText
 10
44.13449897076811
 20
24.57275000000003
 30
0.0
 40
3.5
 41
0.0
 71
     2
 72
     1
  1
\A1;%%c7.94 [5/16]
  7
SLDTEXTSTYLE0
 11
-3.580687802255618E-15
 21
1.0
 31
0.0
 73
     1
 44
1.0
  0
POINT
  5
114
330
109
100
AcDbEntity
  8
Defpoints
 62
     0
100
AcDbPoint
 10
39.68749999999999
 20
3.968750000000015
 30
0.0
  0
POINT
  5
115
330
109
100
AcDbEntity
  8
Defpoints
 62
     0
100
AcDbPoint
 10
39.68749999999999
 20
-3.968749999999995
 30
0.0
  0
POINT
  5
116
330
109
100
AcDbEntity
  8
Defpoints
 62
     0
100
AcDbPoint
 10
48.50949897076821
 20
-3.968749999999962
 30
0.0
  0
ENDBLK
  5
10B
330
109
100
AcDbEntity
  8
0
100
AcDbBlockEnd
  0
BLOCK
  5
123
330
122
100
AcDbEntity
  8
0
100
AcDbBlockBegin
  2
SW_DOWELSYMBOL_0
 70
     0
 10
0.0
 20
0.0
 30
0.0
  3
SW_DOWELSYMBOL_0
  1
SW_DOWELSYMBOL_0
  0
CIRCLE
  5
125
330
122
100
AcDbEntity
  8
해칭선
 62
     0
100
AcDbCircle
 10
0.0
 20
0.0
 30
0.0
 40
3.000000000000001
  0
HATCH
  5
126
330
122
100
AcDbEntity
  8
0
  6
Continuous
 62
     0
370
     0
100
AcDbHatch
 10
0.0
 20
0.0
 30
0.0
210
0.0
220
0.0
230
1.0
  2
SOLID
 70
     1
 71
     0
 91
        1
 92
        0
 93
        3
 72
     2
 10
0.0
 20
0.0
 40
3.000000000000001
 50
0.0
 51
90.0
 73
     1
 72
     1
 10
0.0
 20
3.000000000000001
 11
0.0
 21
0.0
 72
     1
 10
0.0
 20
0.0
 11
3.000000000000001
 21
0.0
 97
        0
 75
     0
 76
     1
 98
        1
 10
0.0
 20
0.0
  0
HATCH
  5
127
330
122
100
AcDbEntity
  8
0
  6
Continuous
 62
     0
370
     0
100
AcDbHatch
 10
0.0
 20
0.0
 30
0.0
210
0.0
220
0.0
230
1.0
  2
SOLID
 70
     1
 71
     0
 91
        1
 92
        0
 93
        3
 72
     2
 10
0.0
 20
0.0
 40
3.000000000000001
 50
180.0
 51
270.0000000000008
 73
     1
 72
     1
 10
0.0
 20
-3.000000000000001
 11
0.0
 21
0.0
 72
     1
 10
0.0
 20
0.0
 11
-3.000000000000001
 21
0.0
 97
        0
 75
     0
 76
     1
 98
        1
 10
0.0
 20
0.0
  0
ENDBLK
  5
124
330
122
100
AcDbEntity
  8
0
100
AcDbBlockEnd
  0
BLOCK
  5
206
330
205
100
AcDbEntity
  8
0
100
AcDbBlockBegin
  2
*D8
 70
     1
 10
0.0
 20
0.0
 30
0.0
  3
*D8
  1
*D8
  0
LINE
  5
208
330
205
100
AcDbEntity
  8
0
  6
Continuous
 62
     0
370
    -2
100
AcDbLine
 10
96.18
 20
12.9434734778393
 30
0.0
 11
96.18
 21
25.20871319444687
 31
0.0
  0
LINE
  5
209
330
205
100
AcDbEntity
  8
0
  6
Continuous
 62
     0
370
    -2
100
AcDbLine
 10
81.89250000000003
 20
15.67921988523088
 30
0.0
 11
81.89250000000003
 21
25.20871319444687
 31
0.0
  0
LINE
  5
20A
330
205
100
AcDbEntity
  8
0
  6
Continuous
 62
     0
370
    -2
100
AcDbLine
 10
81.89250000000003
 20
25.20871319444687
 30
0.0
 11
40.43145587315108
 21
25.20871319444687
 31
0.0
  0
LINE
  5
20B
330
205
100
AcDbEntity
  8
0
  6
Continuous
 62
     0
370
    -2
100
AcDbLine
 10
92.87800000000001
 20
25.20871319444687
 30
0.0
 11
85.19450000000003
 21
25.20871319444687
 31
0.0
  0
SOLID
  5
20C
330
205
100
AcDbEntity
  8
0
 62
     0
100
AcDbTrace
 10
92.87800000000001
 20
24.65837986111353
 30
0.0
 11
92.87800000000001
 21
25.7590465277802
 31
0.0
 12
96.18
 22
25.20871319444687
 32
0.0
 13
96.18
 23
25.20871319444687
 33
0.0
  0
SOLID
  5
20D
330
205
100
AcDbEntity
  8
0
 62
     0
100
AcDbTrace
 10
85.19450000000003
 20
25.7590465277802
 30
0.0
 11
85.19450000000003
 21
24.65837986111353
 31
0.0
 12
81.89250000000003
 22
25.20871319444687
 32
0.0
 13
81.89250000000003
 23
25.20871319444687
 33
0.0
  0
MTEXT
  5
20E
330
205
100
AcDbEntity
  8
0
 62
     0
370
    15
100
AcDbMText
 10
53.99395587315107
 20
29.58371319444687
 30
0.0
 40
3.5
 41
0.0
 71
     2
 72
     1
  1
\A1;14.29 [9/16]
  7
SLDTEXTSTYLE0
 73
     1
 44
1.0
  0
POINT
  5
20F
330
205
100
AcDbEntity
  8
Defpoints
 62
     0
100
AcDbPoint
 10
96.18
 20
12.8809734778393
 30
0.0
  0
POINT
  5
210
330
205
100
AcDbEntity
  8
Defpoints
 62
     0
100
AcDbPoint
 10
81.89250000000003
 20
15.61671988523088
 30
0.0
  0
POINT
  5
211
330
205
100
AcDbEntity
  8
Defpoints
 62
     0
100
AcDbPoint
 10
81.89250000000003
 20
25.20871319444687
 30
0.0
  0
ENDBLK
  5
207
330
205
100
AcDbEntity
  8
0
100
AcDbBlockEnd
  0
BLOCK
  5
213
330
212
100
AcDbEntity
  8
0
100
AcDbBlockBegin
  2
*D9
 70
     1
 10
0.0
 20
0.0
 30
0.0
  3
*D9
  1
*D9
  0
LINE
  5
215
330
212
100
AcDbEntity
  8
0
  6
Continuous
 62
     0
370
    -2
100
AcDbLine
 10
96.18
 20
12.9434734778393
 30
0.0
 11
96.18
 21
41.53797898817498
 31
0.0
  0
LINE
  5
216
330
212
100
AcDbEntity
  8
0
  6
Continuous
 62
     0
370
    -2
100
AcDbLine
 10
16.80500000000004
 20
17.075
 30
0.0
 11
16.80500000000004
 21
41.53797898817498
 31
0.0
  0
LINE
  5
217
330
212
100
AcDbEntity
  8
0
  6
Continuous
 62
     0
370
    -2
100
AcDbLine
 10
92.87800000000001
 20
41.53797898817498
 30
0.0
 11
20.10700000000003
 21
41.53797898817498
 31
0.0
  0
SOLID
  5
218
330
212
100
AcDbEntity
  8
0
 62
     0
100
AcDbTrace
 10
92.87800000000001
 20
40.98764565484164
 30
0.0
 11
92.87800000000001
 21
42.08831232150831
 31
0.0
 12
96.18
 22
41.53797898817498
 32
0.0
 13
96.18
 23
41.53797898817498
 33
0.0
  0
SOLID
  5
219
330
212
100
AcDbEntity
  8
0
 62
     0
100
AcDbTrace
 10
20.10700000000003
 20
42.08831232150831
 30
0.0
 11
20.10700000000003
 21
40.98764565484164
 31
0.0
 12
16.80500000000004
 22
41.53797898817498
 32
0.0
 13
16.80500000000004
 23
41.53797898817498
 33
0.0
  0
MTEXT
  5
21A
330
212
100
AcDbEntity
  8
0
 62
     0
370
    15
100
AcDbMText
 10
56.83989458697882
 20
45.91297898817498
 30
0.0
 40
3.5
 41
0.0
 71
     2
 72
     1
  1
\A1;79.38 [3 1/8]
  7
SLDTEXTSTYLE0
 73
     1
 44
1.0
  0
POINT
  5
21B
330
212
100
AcDbEntity
  8
Defpoints
 62
     0
100
AcDbPoint
 10
96.18
 20
12.8809734778393
 30
0.0
  0
POINT
  5
21C
330
212
100
AcDbEntity
  8
Defpoints
 62
     0
100
AcDbPoint
 10
16.80500000000004
 20
17.0125
 30
0.0
  0
POINT
  5
21D
330
212
100
AcDbEntity
  8
Defpoints
 62
     0
100
AcDbPoint
 10
16.80500000000004
 20
41.53797898817498
 30
0.0
  0
ENDBLK
  5
214
330
212
100
AcDbEntity
  8
0
100
AcDbBlockEnd
  0
BLOCK
  5
21F
330
21E
100
AcDbEntity
  8
0
100
AcDbBlockBegin
  2
*D10
 70
     1
 10
0.0
 20
0.0
 30
0.0
  3
*D10
  1
*D10
  0
LINE
  5
221
330
21E
100
AcDbEntity
  8
0
  6
Continuous
 62
     0
370
    -2
100
AcDbLine
 10
33.51115766425393
 20
17.0125
 30
0.0
 11
4.375000000000027
 21
17.01249999999989
 31
0.0
  0
LINE
  5
222
330
21E
100
AcDbEntity
  8
0
  6
Continuous
 62
     0
370
    -2
100
AcDbLine
 10
33.51115766425393
 20
7.487499999999994
 30
0.0
 11
4.37500000000006
 21
7.487499999999888
 31
0.0
  0
LINE
  5
223
330
21E
100
AcDbEntity
  8
0
  6
Continuous
 62
     0
370
    -2
100
AcDbLine
 10
4.375000000000038
 20
13.71049999999989
 30
0.0
 11
4.375000000000048
 21
10.78949999999989
 31
0.0
  0
SOLID
  5
224
330
21E
100
AcDbEntity
  8
0
 62
     0
100
AcDbTrace
 10
4.925333333333372
 20
13.71049999999989
 30
0.0
 11
3.824666666666705
 21
13.71049999999989
 31
0.0
 12
4.375000000000027
 22
17.01249999999989
 32
0.0
 13
4.375000000000027
 23
17.01249999999989
 33
0.0
  0
SOLID
  5
225
330
21E
100
AcDbEntity
  8
0
 62
     0
100
AcDbTrace
 10
3.824666666666715
 20
10.78949999999988
 30
0.0
 11
4.925333333333382
 21
10.78949999999989
 31
0.0
 12
4.37500000000006
 22
7.487499999999888
 32
0.0
 13
4.37500000000006
 23
7.487499999999888
 33
0.0
  0
MTEXT
  5
226
330
21E
100
AcDbEntity
  8
0
 62
     0
370
    15
100
AcDbMText
 10
0.0000000000000426
 20
12.24999999999999
 30
0.0
 40
3.5
 41
0.0
 71
     2
 72
     1
  1
\A1;%%c9.53 [3/8]
  7
SLDTEXTSTYLE0
 11
-3.450141892798385E-15
 21
1.0
 31
0.0
 73
     1
 44
1.0
  0
POINT
  5
227
330
21E
100
AcDbEntity
  8
Defpoints
 62
     0
100
AcDbPoint
 10
33.57365766425393
 20
17.0125
 30
0.0
  0
POINT
  5
228
330
21E
100
AcDbEntity
  8
Defpoints
 62
     0
100
AcDbPoint
 10
33.57365766425393
 20
7.487499999999994
 30
0.0
  0
POINT
  5
229
330
21E
100
AcDbEntity
  8
Defpoints
 62
     0
100
AcDbPoint
 10
4.375000000000064
 20
7.487499999999885
 30
0.0
  0
ENDBLK
  5
220
330
21E
100
AcDbEntity
  8
0
100
AcDbBlockEnd
  0
BLOCK
  5
22B
330
22A
100
AcDbEntity
  8
0
100
AcDbBlockBegin
  2
*D11
 70
     1
 10
0.0
 20
0.0
 30
0.0
  3
*D11
  1
*D11
  0
LINE
  5
22D
330
22A
100
AcDbEntity
  8
0
  6
Continuous
 62
     0
370
    -2
100
AcDbLine
 10
91.87687500000001
 20
16.615625
 30
0.0
 11
111.1786426992189
 21
16.61562500000007
 31
0.0
  0
LINE
  5
22E
330
22A
100
AcDbEntity
  8
0
  6
Continuous
 62
     0
370
    -2
100
AcDbLine
 10
91.87687500000001
 20
7.884375000000001
 30
0.0
 11
111.178642699219
 21
7.884375000000073
 31
0.0
  0
LINE
  5
22F
330
22A
100
AcDbEntity
  8
0
  6
Continuous
 62
     0
370
    -2
100
AcDbLine
 10
111.1786426992189
 20
16.61562500000007
 30
0.0
 11
111.1786426992188
 21
49.66762500000007
 31
0.0
  0
LINE
  5
230
330
22A
100
AcDbEntity
  8
0
  6
Continuous
 62
     0
370
    -2
100
AcDbLine
 10
111.1786426992189
 20
13.31362500000007
 30
0.0
 11
111.1786426992189
 21
11.18637500000007
 31
0.0
  0
SOLID
  5
231
330
22A
100
AcDbEntity
  8
0
 62
     0
100
AcDbTrace
 10
111.7289760325523
 20
13.31362500000007
 30
0.0
 11
110.6283093658856
 21
13.31362500000007
 31
0.0
 12
111.1786426992189
 22
16.61562500000007
 32
0.0
 13
111.1786426992189
 23
16.61562500000007
 33
0.0
  0
SOLID
  5
232
330
22A
100
AcDbEntity
  8
0
 62
     0
100
AcDbTrace
 10
110.6283093658856
 20
11.18637500000007
 30
0.0
 11
111.7289760325523
 21
11.18637500000007
 31
0.0
 12
111.178642699219
 22
7.884375000000073
 32
0.0
 13
111.178642699219
 23
7.884375000000073
 33
0.0
  0
MTEXT
  5
233
330
22A
100
AcDbEntity
  8
0
 62
     0
370
    15
100
AcDbMText
 10
106.8036426992189
 20
34.79262500000006
 30
0.0
 40
3.5
 41
0.0
 71
     2
 72
     1
  1
\A1;%%c8.73 [11/32]
  7
SLDTEXTSTYLE0
 11
-3.255170729323294E-15
 21
1.0
 31
0.0
 73
     1
 44
1.0
  0
POINT
  5
234
330
22A
100
AcDbEntity
  8
Defpoints
 62
     0
100
AcDbPoint
 10
91.81437500000001
 20
16.615625
 30
0.0
  0
POINT
  5
235
330
22A
100
AcDbEntity
  8
Defpoints
 62
     0
100
AcDbPoint
 10
91.81437500000001
 20
7.884375000000001
 30
0.0
  0
POINT
  5
236
330
22A
100
AcDbEntity
  8
Defpoints
 62
     0
100
AcDbPoint
 10
111.178642699219
 20
7.884375000000073
 30
0.0
  0
ENDBLK
  5
22C
330
22A
100
AcDbEntity
  8
0
100
AcDbBlockEnd
  0
BLOCK
  5
28C
330
28B
100
AcDbEntity
  8
0
100
AcDbBlockBegin
  2
*D12
 70
     1
 10
0.0
 20
0.0
 30
0.0
  3
*D12
  1
*D12
  0
LINE
  5
28E
330
28B
100
AcDbEntity
  8
0
  6
Continuous
 62
     0
370
    -2
100
AcDbLine
 10
150.940033079798
 20
-37.8596219899427
 30
0.0
 11
150.940033079798
 21
-25.59438227333513
 31
0.0
  0
LINE
  5
28F
330
28B
100
AcDbEntity
  8
0
  6
Continuous
 62
     0
370
    -2
100
AcDbLine
 10
136.652533079798
 20
-35.12387558255112
 30
0.0
 11
136.652533079798
 21
-25.59438227333513
 31
0.0
  0
LINE
  5
290
330
28B
100
AcDbEntity
  8
0
  6
Continuous
 62
     0
370
    -2
100
AcDbLine
 10
136.652533079798
 20
-25.59438227333513
 30
0.0
 11
95.19148895294904
 21
-25.59438227333513
 31
0.0
  0
LINE
  5
291
330
28B
100
AcDbEntity
  8
0
  6
Continuous
 62
     0
370
    -2
100
AcDbLine
 10
147.638033079798
 20
-25.59438227333513
 30
0.0
 11
139.954533079798
 21
-25.59438227333513
 31
0.0
  0
SOLID
  5
292
330
28B
100
AcDbEntity
  8
0
 62
     0
100
AcDbTrace
 10
147.638033079798
 20
-26.14471560666846
 30
0.0
 11
147.638033079798
 21
-25.04404894000179
 31
0.0
 12
150.940033079798
 22
-25.59438227333513
 32
0.0
 13
150.940033079798
 23
-25.59438227333513
 33
0.0
  0
SOLID
  5
293
330
28B
100
AcDbEntity
  8
0
 62
     0
100
AcDbTrace
 10
139.954533079798
 20
-25.04404894000179
 30
0.0
 11
139.954533079798
 21
-26.14471560666846
 31
0.0
 12
136.652533079798
 22
-25.59438227333513
 32
0.0
 13
136.652533079798
 23
-25.59438227333513
 33
0.0
  0
MTEXT
  5
294
330
28B
100
AcDbEntity
  8
0
 62
     0
370
    15
100
AcDbMText
 10
108.753988952949
 20
-21.21938227333513
 30
0.0
 40
3.5
 41
0.0
 71
     2
 72
     1
  1
\A1;14.29 [9/16]
  7
SLDTEXTSTYLE0
 73
     1
 44
1.0
  0
POINT
  5
295
330
28B
100
AcDbEntity
  8
Defpoints
 62
     0
100
AcDbPoint
 10
150.940033079798
 20
-37.9221219899427
 30
0.0
  0
POINT
  5
296
330
28B
100
AcDbEntity
  8
Defpoints
 62
     0
100
AcDbPoint
 10
136.652533079798
 20
-35.18637558255112
 30
0.0
  0
POINT
  5
297
330
28B
100
AcDbEntity
  8
Defpoints
 62
     0
100
AcDbPoint
 10
136.652533079798
 20
-25.59438227333513
 30
0.0
  0
ENDBLK
  5
28D
330
28B
100
AcDbEntity
  8
0
100
AcDbBlockEnd
  0
BLOCK
  5
299
330
298
100
AcDbEntity
  8
0
100
AcDbBlockBegin
  2
*D13
 70
     1
 10
0.0
 20
0.0
 30
0.0
  3
*D13
  1
*D13
  0
LINE
  5
29B
330
298
100
AcDbEntity
  8
0
  6
Continuous
 62
     0
370
    -2
100
AcDbLine
 10
150.940033079798
 20
-37.8596219899427
 30
0.0
 11
150.940033079798
 21
-9.265116479607016
 31
0.0
  0
LINE
  5
29C
330
298
100
AcDbEntity
  8
0
  6
Continuous
 62
     0
370
    -2
100
AcDbLine
 10
71.56503307979801
 20
-33.728095467782
 30
0.0
 11
71.56503307979801
 21
-9.265116479607016
 31
0.0
  0
LINE
  5
29D
330
298
100
AcDbEntity
  8
0
  6
Continuous
 62
     0
370
    -2
100
AcDbLine
 10
147.638033079798
 20
-9.265116479607016
 30
0.0
 11
74.867033079798
 21
-9.265116479607016
 31
0.0
  0
SOLID
  5
29E
330
298
100
AcDbEntity
  8
0
 62
     0
100
AcDbTrace
 10
147.638033079798
 20
-9.815449812940349
 30
0.0
 11
147.638033079798
 21
-8.714783146273684
 31
0.0
 12
150.940033079798
 22
-9.265116479607016
 32
0.0
 13
150.940033079798
 23
-9.265116479607016
 33
0.0
  0
SOLID
  5
29F
330
298
100
AcDbEntity
  8
0
 62
     0
100
AcDbTrace
 10
74.867033079798
 20
-8.714783146273684
 30
0.0
 11
74.867033079798
 21
-9.815449812940349
 31
0.0
 12
71.56503307979801
 22
-9.265116479607016
 32
0.0
 13
71.56503307979801
 23
-9.265116479607016
 33
0.0
  0
MTEXT
  5
2A0
330
298
100
AcDbEntity
  8
0
 62
     0
370
    15
100
AcDbMText
 10
111.5999276667768
 20
-4.890116479607016
 30
0.0
 40
3.5
 41
0.0
 71
     2
 72
     1
  1
\A1;79.38 [3 1/8]
  7
SLDTEXTSTYLE0
 73
     1
 44
1.0
  0
POINT
  5
2A1
330
298
100
AcDbEntity
  8
Defpoints
 62
     0
100
AcDbPoint
 10
150.940033079798
 20
-37.9221219899427
 30
0.0
  0
POINT
  5
2A2
330
298
100
AcDbEntity
  8
Defpoints
 62
     0
100
AcDbPoint
 10
71.56503307979801
 20
-33.790595467782
 30
0.0
  0
POINT
  5
2A3
330
298
100
AcDbEntity
  8
Defpoints
 62
     0
100
AcDbPoint
 10
71.56503307979801
 20
-9.265116479607016
 30
0.0
  0
ENDBLK
  5
29A
330
298
100
AcDbEntity
  8
0
100
AcDbBlockEnd
  0
BLOCK
  5
2A5
330
2A4
100
AcDbEntity
  8
0
100
AcDbBlockBegin
  2
*D14
 70
     1
 10
0.0
 20
0.0
 30
0.0
  3
*D14
  1
*D14
  0
LINE
  5
2A7
330
2A4
100
AcDbEntity
  8
0
  6
Continuous
 62
     0
370
    -2
100
AcDbLine
 10
88.2711907440519
 20
-33.790595467782
 30
0.0
 11
59.13503307979801
 21
-33.7905954677821
 31
0.0
  0
LINE
  5
2A8
330
2A4
100
AcDbEntity
  8
0
  6
Continuous
 62
     0
370
    -2
100
AcDbLine
 10
88.2711907440519
 20
-43.315595467782
 30
0.0
 11
59.13503307979804
 21
-43.3155954677821
 31
0.0
  0
LINE
  5
2A9
330
2A4
100
AcDbEntity
  8
0
  6
Continuous
 62
     0
370
    -2
100
AcDbLine
 10
59.13503307979802
 20
-37.0925954677821
 30
0.0
 11
59.13503307979803
 21
-40.0135954677821
 31
0.0
  0
SOLID
  5
2AA
330
2A4
100
AcDbEntity
  8
0
 62
     0
100
AcDbTrace
 10
59.68536641313136
 20
-37.0925954677821
 30
0.0
 11
58.58469974646469
 21
-37.0925954677821
 31
0.0
 12
59.13503307979801
 22
-33.7905954677821
 32
0.0
 13
59.13503307979801
 23
-33.7905954677821
 33
0.0
  0
SOLID
  5
2AB
330
2A4
100
AcDbEntity
  8
0
 62
     0
100
AcDbTrace
 10
58.58469974646469
 20
-40.0135954677821
 30
0.0
 11
59.68536641313136
 21
-40.0135954677821
 31
0.0
 12
59.13503307979804
 22
-43.3155954677821
 32
0.0
 13
59.13503307979804
 23
-43.3155954677821
 33
0.0
  0
MTEXT
  5
2AC
330
2A4
100
AcDbEntity
  8
0
 62
     0
370
    15
100
AcDbMText
 10
54.76003307979802
 20
-38.553095467782
 30
0.0
 40
3.5
 41
0.0
 71
     2
 72
     1
  1
\A1;%%c9.53 [3/8]
  7
SLDTEXTSTYLE0
 11
-3.729883127349608E-15
 21
1.0
 31
0.0
 73
     1
 44
1.0
  0
POINT
  5
2AD
330
2A4
100
AcDbEntity
  8
Defpoints
 62
     0
100
AcDbPoint
 10
88.3336907440519
 20
-33.790595467782
 30
0.0
  0
POINT
  5
2AE
330
2A4
100
AcDbEntity
  8
Defpoints
 62
     0
100
AcDbPoint
 10
88.3336907440519
 20
-43.315595467782
 30
0.0
  0
POINT
  5
2AF
330
2A4
100
AcDbEntity
  8
Defpoints
 62
     0
100
AcDbPoint
 10
59.13503307979803
 20
-43.3155954677821
 30
0.0
  0
ENDBLK
  5
2A6
330
2A4
100
AcDbEntity
  8
0
100
AcDbBlockEnd
  0
BLOCK
  5
2B1
330
2B0
100
AcDbEntity
  8
0
100
AcDbBlockBegin
  2
*D15
 70
     1
 10
0.0
 20
0.0
 30
0.0
  3
*D15
  1
*D15
  0
LINE
  5
2B3
330
2B0
100
AcDbEntity
  8
0
  6
Continuous
 62
     0
370
    -2
100
AcDbLine
 10
146.636908079798
 20
-34.18747046778199
 30
0.0
 11
165.9386757790169
 21
-34.18747046778192
 31
0.0
  0
LINE
  5
2B4
330
2B0
100
AcDbEntity
  8
0
  6
Continuous
 62
     0
370
    -2
100
AcDbLine
 10
146.636908079798
 20
-42.91872046778199
 30
0.0
 11
165.9386757790169
 21
-42.91872046778192
 31
0.0
  0
LINE
  5
2B5
330
2B0
100
AcDbEntity
  8
0
  6
Continuous
 62
     0
370
    -2
100
AcDbLine
 10
165.9386757790169
 20
-34.18747046778192
 30
0.0
 11
165.9386757790168
 21
-1.135470467781921
 31
0.0
  0
LINE
  5
2B6
330
2B0
100
AcDbEntity
  8
0
  6
Continuous
 62
     0
370
    -2
100
AcDbLine
 10
165.9386757790169
 20
-37.48947046778192
 30
0.0
 11
165.9386757790169
 21
-39.61672046778192
 31
0.0
  0
SOLID
  5
2B7
330
2B0
100
AcDbEntity
  8
0
 62
     0
100
AcDbTrace
 10
166.4890091123502
 20
-37.48947046778192
 30
0.0
 11
165.3883424456836
 21
-37.48947046778192
 31
0.0
 12
165.9386757790169
 22
-34.18747046778192
 32
0.0
 13
165.9386757790169
 23
-34.18747046778192
 33
0.0
  0
SOLID
  5
2B8
330
2B0
100
AcDbEntity
  8
0
 62
     0
100
AcDbTrace
 10
165.3883424456836
 20
-39.61672046778192
 30
0.0
 11
166.4890091123503
 21
-39.61672046778192
 31
0.0
 12
165.9386757790169
 22
-42.91872046778192
 32
0.0
 13
165.9386757790169
 23
-42.91872046778192
 33
0.0
  0
MTEXT
  5
2B9
330
2B0
100
AcDbEntity
  8
0
 62
     0
370
    15
100
AcDbMText
 10
161.5636757790168
 20
-16.01047046778194
 30
0.0
 40
3.5
 41
0.0
 71
     2
 72
     1
  1
\A1;%%c8.73 [11/32]
  7
SLDTEXTSTYLE0
 11
-3.255170729323293E-15
 21
1.0
 31
0.0
 73
     1
 44
1.0
  0
POINT
  5
2BA
330
2B0
100
AcDbEntity
  8
Defpoints
 62
     0
100
AcDbPoint
 10
146.574408079798
 20
-34.18747046778199
 30
0.0
  0
POINT
  5
2BB
330
2B0
100
AcDbEntity
  8
Defpoints
 62
     0
100
AcDbPoint
 10
146.574408079798
 20
-42.91872046778199
 30
0.0
  0
POINT
  5
2BC
330
2B0
100
AcDbEntity
  8
Defpoints
 62
     0
100
AcDbPoint
 10
165.9386757790169
 20
-42.91872046778192
 30
0.0
  0
ENDBLK
  5
2B2
330
2B0
100
AcDbEntity
  8
0
100
AcDbBlockEnd
  0
BLOCK
  5
34E
330
34D
100
AcDbEntity
  8
0
100
AcDbBlockBegin
  2
*D17
 70
     1
 10
0.0
 20
0.0
 30
0.0
  3
*D17
  1
*D17
  0
LINE
  5
350
330
34D
100
AcDbEntity
  8
0
  6
Continuous
 62
     0
370
    -2
100
AcDbLine
 10
96.37
 20
12.94347347783931
 30
0.0
 11
96.37
 21
25.24892507127613
 31
0.0
  0
LINE
  5
351
330
34D
100
AcDbEntity
  8
0
  6
Continuous
 62
     0
370
    -2
100
AcDbLine
 10
82.08250000000002
 20
15.7933399413644
 30
0.0
 11
82.08250000000002
 21
25.24892507127613
 31
0.0
  0
LINE
  5
352
330
34D
100
AcDbEntity
  8
0
  6
Continuous
 62
     0
370
    -2
100
AcDbLine
 10
82.08250000000002
 20
25.24892507127613
 30
0.0
 11
44.48646827199384
 21
25.24892507127613
 31
0.0
  0
LINE
  5
353
330
34D
100
AcDbEntity
  8
0
  6
Continuous
 62
     0
370
    -2
100
AcDbLine
 10
93.06800000000001
 20
25.24892507127613
 30
0.0
 11
85.38450000000003
 21
25.24892507127613
 31
0.0
  0
SOLID
  5
354
330
34D
100
AcDbEntity
  8
0
 62
     0
100
AcDbTrace
 10
93.06800000000001
 20
24.69859173794279
 30
0.0
 11
93.06800000000001
 21
25.79925840460946
 31
0.0
 12
96.37
 22
25.24892507127613
 32
0.0
 13
96.37
 23
25.24892507127613
 33
0.0
  0
SOLID
  5
355
330
34D
100
AcDbEntity
  8
0
 62
     0
100
AcDbTrace
 10
85.38450000000003
 20
25.79925840460946
 30
0.0
 11
85.38450000000003
 21
24.69859173794279
 31
0.0
 12
82.08250000000002
 22
25.24892507127613
 32
0.0
 13
82.08250000000002
 23
25.24892507127613
 33
0.0
  0
MTEXT
  5
356
330
34D
100
AcDbEntity
  8
0
 62
     0
370
    15
100
AcDbMText
 10
58.04896827199384
 20
29.62392507127613
 30
0.0
 40
3.5
 41
0.0
 71
     2
 72
     1
  1
\A1;14.29 [9/16]
  7
SLDTEXTSTYLE0
 73
     1
 44
1.0
  0
POINT
  5
357
330
34D
100
AcDbEntity
  8
Defpoints
 62
     0
100
AcDbPoint
 10
96.37
 20
12.88097347783931
 30
0.0
  0
POINT
  5
358
330
34D
100
AcDbEntity
  8
Defpoints
 62
     0
100
AcDbPoint
 10
82.08250000000002
 20
15.7308399413644
 30
0.0
  0
POINT
  5
359
330
34D
100
AcDbEntity
  8
Defpoints
 62
     0
100
AcDbPoint
 10
82.08250000000002
 20
25.24892507127613
 30
0.0
  0
ENDBLK
  5
34F
330
34D
100
AcDbEntity
  8
0
100
AcDbBlockEnd
  0
BLOCK
  5
35B
330
35A
100
AcDbEntity
  8
0
100
AcDbBlockBegin
  2
*D18
 70
     1
 10
0.0
 20
0.0
 30
0.0
  3
*D18
  1
*D18
  0
LINE
  5
35D
330
35A
100
AcDbEntity
  8
0
  6
Continuous
 62
     0
370
    -2
100
AcDbLine
 10
96.37
 20
12.94347347783931
 30
0.0
 11
96.37
 21
41.53797898817498
 31
0.0
  0
LINE
  5
35E
330
35A
100
AcDbEntity
  8
0
  6
Continuous
 62
     0
370
    -2
100
AcDbLine
 10
16.99500000000003
 20
16.26500000000001
 30
0.0
 11
16.99500000000003
 21
41.53797898817498
 31
0.0
  0
LINE
  5
35F
330
35A
100
AcDbEntity
  8
0
  6
Continuous
 62
     0
370
    -2
100
AcDbLine
 10
93.06800000000001
 20
41.53797898817498
 30
0.0
 11
20.29700000000003
 21
41.53797898817498
 31
0.0
  0
SOLID
  5
360
330
35A
100
AcDbEntity
  8
0
 62
     0
100
AcDbTrace
 10
93.06800000000001
 20
40.98764565484165
 30
0.0
 11
93.06800000000001
 21
42.08831232150832
 31
0.0
 12
96.37
 22
41.53797898817498
 32
0.0
 13
96.37
 23
41.53797898817498
 33
0.0
  0
SOLID
  5
361
330
35A
100
AcDbEntity
  8
0
 62
     0
100
AcDbTrace
 10
20.29700000000003
 20
42.08831232150832
 30
0.0
 11
20.29700000000003
 21
40.98764565484165
 31
0.0
 12
16.99500000000003
 22
41.53797898817498
 32
0.0
 13
16.99500000000003
 23
41.53797898817498
 33
0.0
  0
MTEXT
  5
362
330
35A
100
AcDbEntity
  8
0
 62
     0
370
    15
100
AcDbMText
 10
57.02989458697882
 20
45.91297898817498
 30
0.0
 40
3.5
 41
0.0
 71
     2
 72
     1
  1
\A1;79.38 [3 1/8]
  7
SLDTEXTSTYLE0
 73
     1
 44
1.0
  0
POINT
  5
363
330
35A
100
AcDbEntity
  8
Defpoints
 62
     0
100
AcDbPoint
 10
96.37
 20
12.88097347783931
 30
0.0
  0
POINT
  5
364
330
35A
100
AcDbEntity
  8
Defpoints
 62
     0
100
AcDbPoint
 10
16.99500000000003
 20
16.20250000000001
 30
0.0
  0
POINT
  5
365
330
35A
100
AcDbEntity
  8
Defpoints
 62
     0
100
AcDbPoint
 10
16.99500000000003
 20
41.53797898817498
 30
0.0
  0
ENDBLK
  5
35C
330
35A
100
AcDbEntity
  8
0
100
AcDbBlockEnd
  0
BLOCK
  5
367
330
366
100
AcDbEntity
  8
0
100
AcDbBlockBegin
  2
*D19
 70
     1
 10
0.0
 20
0.0
 30
0.0
  3
*D19
  1
*D19
  0
LINE
  5
369
330
366
100
AcDbEntity
  8
0
  6
Continuous
 62
     0
370
    -2
100
AcDbLine
 10
17.74250000000003
 20
17.01250000000002
 30
0.0
 11
4.375000000000027
 21
17.01249999999997
 31
0.0
  0
LINE
  5
36A
330
366
100
AcDbEntity
  8
0
  6
Continuous
 62
     0
370
    -2
100
AcDbLine
 10
17.74250000000003
 20
7.48750000000001
 30
0.0
 11
4.37500000000006
 21
7.48749999999996
 31
0.0
  0
LINE
  5
36B
330
366
100
AcDbEntity
  8
0
  6
Continuous
 62
     0
370
    -2
100
AcDbLine
 10
4.375000000000038
 20
13.71049999999997
 30
0.0
 11
4.375000000000048
 21
10.78949999999996
 31
0.0
  0
SOLID
  5
36C
330
366
100
AcDbEntity
  8
0
 62
     0
100
AcDbTrace
 10
4.925333333333372
 20
13.71049999999997
 30
0.0
 11
3.824666666666705
 21
13.71049999999997
 31
0.0
 12
4.375000000000027
 22
17.01249999999997
 32
0.0
 13
4.375000000000027
 23
17.01249999999997
 33
0.0
  0
SOLID
  5
36D
330
366
100
AcDbEntity
  8
0
 62
     0
100
AcDbTrace
 10
3.824666666666715
 20
10.78949999999996
 30
0.0
 11
4.925333333333382
 21
10.78949999999996
 31
0.0
 12
4.37500000000006
 22
7.48749999999996
 32
0.0
 13
4.37500000000006
 23
7.48749999999996
 33
0.0
  0
MTEXT
  5
36E
330
366
100
AcDbEntity
  8
0
 62
     0
370
    15
100
AcDbMText
 10
0.0000000000000426
 20
12.25
 30
0.0
 40
3.5
 41
0.0
 71
     2
 72
     1
  1
\A1;%%c9.53 [3/8]
  7
SLDTEXTSTYLE0
 11
-3.450141892798384E-15
 21
1.0
 31
0.0
 73
     1
 44
1.0
  0
POINT
  5
36F
330
366
100
AcDbEntity
  8
Defpoints
 62
     0
100
AcDbPoint
 10
17.80500000000003
 20
17.01250000000002
 30
0.0
  0
POINT
  5
370
330
366
100
AcDbEntity
  8
Defpoints
 62
     0
100
AcDbPoint
 10
17.80500000000003
 20
7.48750000000001
 30
0.0
  0
POINT
  5
371
330
366
100
AcDbEntity
  8
Defpoints
 62
     0
100
AcDbPoint
 10
4.375000000000057
 20
7.48749999999996
 30
0.0
  0
ENDBLK
  5
368
330
366
100
AcDbEntity
  8
0
100
AcDbBlockEnd
  0
BLOCK
  5
373
330
372
100
AcDbEntity
  8
0
100
AcDbBlockBegin
  2
*D20
 70
     1
 10
0.0
 20
0.0
 30
0.0
  3
*D20
  1
*D20
  0
LINE
  5
375
330
372
100
AcDbEntity
  8
0
  6
Continuous
 62
     0
370
    -2
100
AcDbLine
 10
92.46375000000002
 20
16.21875000000001
 30
0.0
 11
105.1919989707683
 21
16.21875000000006
 31
0.0
  0
LINE
  5
376
330
372
100
AcDbEntity
  8
0
  6
Continuous
 62
     0
370
    -2
100
AcDbLine
 10
92.46375000000002
 20
8.281250000000012
 30
0.0
 11
105.1919989707684
 21
8.281250000000057
 31
0.0
  0
LINE
  5
377
330
372
100
AcDbEntity
  8
0
  6
Continuous
 62
     0
370
    -2
100
AcDbLine
 10
105.1919989707683
 20
16.21875000000006
 30
0.0
 11
105.1919989707681
 21
77.87799256346518
 31
0.0
  0
LINE
  5
378
330
372
100
AcDbEntity
  8
0
  6
Continuous
 62
     0
370
    -2
100
AcDbLine
 10
105.1919989707683
 20
19.52075000000006
 30
0.0
 11
105.1919989707683
 21
22.82275000000006
 31
0.0
  0
LINE
  5
379
330
372
100
AcDbEntity
  8
0
  6
Continuous
 62
     0
370
    -2
100
AcDbLine
 10
105.1919989707684
 20
4.979250000000057
 30
0.0
 11
105.1919989707684
 21
1.677250000000058
 31
0.0
  0
SOLID
  5
37A
330
372
100
AcDbEntity
  8
0
 62
     0
100
AcDbTrace
 10
104.641665637435
 20
19.52075000000005
 30
0.0
 11
105.7423323041017
 21
19.52075000000006
 31
0.0
 12
105.1919989707683
 22
16.21875000000006
 32
0.0
 13
105.1919989707683
 23
16.21875000000006
 33
0.0
  0
SOLID
  5
37B
330
372
100
AcDbEntity
  8
0
 62
     0
100
AcDbTrace
 10
105.7423323041017
 20
4.979250000000059
 30
0.0
 11
104.6416656374351
 21
4.979250000000055
 31
0.0
 12
105.1919989707684
 22
8.281250000000057
 32
0.0
 13
105.1919989707684
 23
8.281250000000057
 33
0.0
  0
MTEXT
  5
37C
330
372
100
AcDbEntity
  8
0
 62
     0
370
    15
100
AcDbMText
 10
100.8169989707682
 20
63.87799256346517
 30
0.0
 40
3.5
 41
0.0
 71
     2
 72
     1
  1
\A1;%%c7.94 [5/16]
  7
SLDTEXTSTYLE0
 11
-3.580687802255625E-15
 21
1.0
 31
0.0
 73
     1
 44
1.0
  0
POINT
  5
37D
330
372
100
AcDbEntity
  8
Defpoints
 62
     0
100
AcDbPoint
 10
92.40125000000002
 20
16.21875000000001
 30
0.0
  0
POINT
  5
37E
330
372
100
AcDbEntity
  8
Defpoints
 62
     0
100
AcDbPoint
 10
92.40125000000002
 20
8.281250000000012
 30
0.0
  0
POINT
  5
37F
330
372
100
AcDbEntity
  8
Defpoints
 62
     0
100
AcDbPoint
 10
105.1919989707684
 20
8.28125000000006
 30
0.0
  0
ENDBLK
  5
374
330
372
100
AcDbEntity
  8
0
100
AcDbBlockEnd
  0
BLOCK
  5
3AE
330
3AD
100
AcDbEntity
  8
0
100
AcDbBlockBegin
  2
*D21
 70
     1
 10
0.0
 20
0.0
 30
0.0
  3
*D21
  1
*D21
  0
LINE
  5
3B0
330
3AD
100
AcDbEntity
  8
0
  6
Continuous
 62
     0
370
    -2
100
AcDbLine
 10
154.5291553639339
 20
29.72357653232408
 30
0.0
 11
154.5291553639339
 21
42.0290281257609
 31
0.0
  0
LINE
  5
3B1
330
3AD
100
AcDbEntity
  8
0
  6
Continuous
 62
     0
370
    -2
100
AcDbLine
 10
140.2416553639339
 20
32.57344299584916
 30
0.0
 11
140.2416553639339
 21
42.0290281257609
 31
0.0
  0
LINE
  5
3B2
330
3AD
100
AcDbEntity
  8
0
  6
Continuous
 62
     0
370
    -2
100
AcDbLine
 10
140.2416553639339
 20
42.0290281257609
 30
0.0
 11
102.6456236359277
 21
42.0290281257609
 31
0.0
  0
LINE
  5
3B3
330
3AD
100
AcDbEntity
  8
0
  6
Continuous
 62
     0
370
    -2
100
AcDbLine
 10
151.2271553639339
 20
42.0290281257609
 30
0.0
 11
143.5436553639339
 21
42.0290281257609
 31
0.0
  0
SOLID
  5
3B4
330
3AD
100
AcDbEntity
  8
0
 62
     0
100
AcDbTrace
 10
151.2271553639339
 20
41.47869479242756
 30
0.0
 11
151.2271553639339
 21
42.57936145909423
 31
0.0
 12
154.5291553639339
 22
42.0290281257609
 32
0.0
 13
154.5291553639339
 23
42.0290281257609
 33
0.0
  0
SOLID
  5
3B5
330
3AD
100
AcDbEntity
  8
0
 62
     0
100
AcDbTrace
 10
143.5436553639339
 20
42.57936145909423
 30
0.0
 11
143.5436553639339
 21
41.47869479242756
 31
0.0
 12
140.2416553639339
 22
42.0290281257609
 32
0.0
 13
140.2416553639339
 23
42.0290281257609
 33
0.0
  0
MTEXT
  5
3B6
330
3AD
100
AcDbEntity
  8
0
 62
     0
370
    15
100
AcDbMText
 10
116.2081236359277
 20
46.4040281257609
 30
0.0
 40
3.5
 41
0.0
 71
     2
 72
     1
  1
\A1;14.29 [9/16]
  7
SLDTEXTSTYLE0
 73
     1
 44
1.0
  0
POINT
  5
3B7
330
3AD
100
AcDbEntity
  8
Defpoints
 62
     0
100
AcDbPoint
 10
154.5291553639339
 20
29.66107653232408
 30
0.0
  0
POINT
  5
3B8
330
3AD
100
AcDbEntity
  8
Defpoints
 62
     0
100
AcDbPoint
 10
140.2416553639339
 20
32.51094299584916
 30
0.0
  0
POINT
  5
3B9
330
3AD
100
AcDbEntity
  8
Defpoints
 62
     0
100
AcDbPoint
 10
140.2416553639339
 20
42.0290281257609
 30
0.0
  0
ENDBLK
  5
3AF
330
3AD
100
AcDbEntity
  8
0
100
AcDbBlockEnd
  0
BLOCK
  5
3BB
330
3BA
100
AcDbEntity
  8
0
100
AcDbBlockBegin
  2
*D22
 70
     1
 10
0.0
 20
0.0
 30
0.0
  3
*D22
  1
*D22
  0
LINE
  5
3BD
330
3BA
100
AcDbEntity
  8
0
  6
Continuous
 62
     0
370
    -2
100
AcDbLine
 10
154.5291553639339
 20
29.72357653232408
 30
0.0
 11
154.5291553639339
 21
58.31808204265975
 31
0.0
  0
LINE
  5
3BE
330
3BA
100
AcDbEntity
  8
0
  6
Continuous
 62
     0
370
    -2
100
AcDbLine
 10
75.15415536393388
 20
33.04510305448478
 30
0.0
 11
75.15415536393388
 21
58.31808204265975
 31
0.0
  0
LINE
  5
3BF
330
3BA
100
AcDbEntity
  8
0
  6
Continuous
 62
     0
370
    -2
100
AcDbLine
 10
151.2271553639339
 20
58.31808204265975
 30
0.0
 11
78.45615536393387
 21
58.31808204265975
 31
0.0
  0
SOLID
  5
3C0
330
3BA
100
AcDbEntity
  8
0
 62
     0
100
AcDbTrace
 10
151.2271553639339
 20
57.76774870932642
 30
0.0
 11
151.2271553639339
 21
58.86841537599309
 31
0.0
 12
154.5291553639339
 22
58.31808204265975
 32
0.0
 13
154.5291553639339
 23
58.31808204265975
 33
0.0
  0
SOLID
  5
3C1
330
3BA
100
AcDbEntity
  8
0
 62
     0
100
AcDbTrace
 10
78.45615536393387
 20
58.86841537599309
 30
0.0
 11
78.45615536393387
 21
57.76774870932642
 31
0.0
 12
75.15415536393388
 22
58.31808204265975
 32
0.0
 13
75.15415536393388
 23
58.31808204265975
 33
0.0
  0
MTEXT
  5
3C2
330
3BA
100
AcDbEntity
  8
0
 62
     0
370
    15
100
AcDbMText
 10
115.1890499509127
 20
62.69308204265975
 30
0.0
 40
3.5
 41
0.0
 71
     2
 72
     1
  1
\A1;79.38 [3 1/8]
  7
SLDTEXTSTYLE0
 73
     1
 44
1.0
  0
POINT
  5
3C3
330
3BA
100
AcDbEntity
  8
Defpoints
 62
     0
100
AcDbPoint
 10
154.5291553639339
 20
29.66107653232408
 30
0.0
  0
POINT
  5
3C4
330
3BA
100
AcDbEntity
  8
Defpoints
 62
     0
100
AcDbPoint
 10
75.15415536393388
 20
32.98260305448478
 30
0.0
  0
POINT
  5
3C5
330
3BA
100
AcDbEntity
  8
Defpoints
 62
     0
100
AcDbPoint
 10
75.15415536393388
 20
58.31808204265975
 30
0.0
  0
ENDBLK
  5
3BC
330
3BA
100
AcDbEntity
  8
0
100
AcDbBlockEnd
  0
BLOCK
  5
3C7
330
3C6
100
AcDbEntity
  8
0
100
AcDbBlockBegin
  2
*D23
 70
     1
 10
0.0
 20
0.0
 30
0.0
  3
*D23
  1
*D23
  0
LINE
  5
3C9
330
3C6
100
AcDbEntity
  8
0
  6
Continuous
 62
     0
370
    -2
100
AcDbLine
 10
75.90165536393388
 20
33.79260305448479
 30
0.0
 11
62.53415536393388
 21
33.79260305448474
 31
0.0
  0
LINE
  5
3CA
330
3C6
100
AcDbEntity
  8
0
  6
Continuous
 62
     0
370
    -2
100
AcDbLine
 10
75.90165536393388
 20
24.26760305448478
 30
0.0
 11
62.53415536393391
 21
24.26760305448473
 31
0.0
  0
LINE
  5
3CB
330
3C6
100
AcDbEntity
  8
0
  6
Continuous
 62
     0
370
    -2
100
AcDbLine
 10
62.53415536393389
 20
30.49060305448474
 30
0.0
 11
62.5341553639339
 21
27.56960305448473
 31
0.0
  0
SOLID
  5
3CC
330
3C6
100
AcDbEntity
  8
0
 62
     0
100
AcDbTrace
 10
63.08448869726723
 20
30.49060305448474
 30
0.0
 11
61.98382203060056
 21
30.49060305448473
 31
0.0
 12
62.53415536393388
 22
33.79260305448474
 32
0.0
 13
62.53415536393388
 23
33.79260305448474
 33
0.0
  0
SOLID
  5
3CD
330
3C6
100
AcDbEntity
  8
0
 62
     0
100
AcDbTrace
 10
61.98382203060056
 20
27.56960305448473
 30
0.0
 11
63.08448869726723
 21
27.56960305448473
 31
0.0
 12
62.53415536393391
 22
24.26760305448473
 32
0.0
 13
62.53415536393391
 23
24.26760305448473
 33
0.0
  0
MTEXT
  5
3CE
330
3C6
100
AcDbEntity
  8
0
 62
     0
370
    15
100
AcDbMText
 10
58.15915536393389
 20
29.03010305448477
 30
0.0
 40
3.5
 41
0.0
 71
     2
 72
     1
  1
\A1;%%c9.53 [3/8]
  7
SLDTEXTSTYLE0
 11
-3.729883127349605E-15
 21
1.0
 31
0.0
 73
     1
 44
1.0
  0
POINT
  5
3CF
330
3C6
100
AcDbEntity
  8
Defpoints
 62
     0
100
AcDbPoint
 10
75.96415536393388
 20
33.79260305448479
 30
0.0
  0
POINT
  5
3D0
330
3C6
100
AcDbEntity
  8
Defpoints
 62
     0
100
AcDbPoint
 10
75.96415536393388
 20
24.26760305448478
 30
0.0
  0
POINT
  5
3D1
330
3C6
100
AcDbEntity
  8
Defpoints
 62
     0
100
AcDbPoint
 10
62.53415536393391
 20
24.26760305448473
 30
0.0
  0
ENDBLK
  5
3C8
330
3C6
100
AcDbEntity
  8
0
100
AcDbBlockEnd
  0
BLOCK
  5
3D3
330
3D2
100
AcDbEntity
  8
0
100
AcDbBlockBegin
  2
*D24
 70
     1
 10
0.0
 20
0.0
 30
0.0
  3
*D24
  1
*D24
  0
LINE
  5
3D5
330
3D2
100
AcDbEntity
  8
0
  6
Continuous
 62
     0
370
    -2
100
AcDbLine
 10
150.6229053639339
 20
32.99885305448478
 30
0.0
 11
163.3511543347022
 21
32.99885305448483
 31
0.0
  0
LINE
  5
3D6
330
3D2
100
AcDbEntity
  8
0
  6
Continuous
 62
     0
370
    -2
100
AcDbLine
 10
150.6229053639339
 20
25.06135305448478
 30
0.0
 11
163.3511543347022
 21
25.06135305448483
 31
0.0
  0
LINE
  5
3D7
330
3D2
100
AcDbEntity
  8
0
  6
Continuous
 62
     0
370
    -2
100
AcDbLine
 10
163.3511543347022
 20
32.99885305448483
 30
0.0
 11
163.351154334702
 21
94.65809561794995
 31
0.0
  0
LINE
  5
3D8
330
3D2
100
AcDbEntity
  8
0
  6
Continuous
 62
     0
370
    -2
100
AcDbLine
 10
163.3511543347022
 20
36.30085305448483
 30
0.0
 11
163.3511543347022
 21
39.60285305448483
 31
0.0
  0
LINE
  5
3D9
330
3D2
100
AcDbEntity
  8
0
  6
Continuous
 62
     0
370
    -2
100
AcDbLine
 10
163.3511543347022
 20
21.75935305448483
 30
0.0
 11
163.3511543347022
 21
18.45735305448483
 31
0.0
  0
SOLID
  5
3DA
330
3D2
100
AcDbEntity
  8
0
 62
     0
100
AcDbTrace
 10
162.8008210013689
 20
36.30085305448483
 30
0.0
 11
163.9014876680355
 21
36.30085305448483
 31
0.0
 12
163.3511543347022
 22
32.99885305448483
 32
0.0
 13
163.3511543347022
 23
32.99885305448483
 33
0.0
  0
SOLID
  5
3DB
330
3D2
100
AcDbEntity
  8
0
 62
     0
100
AcDbTrace
 10
163.9014876680355
 20
21.75935305448484
 30
0.0
 11
162.8008210013689
 21
21.75935305448483
 31
0.0
 12
163.3511543347022
 22
25.06135305448483
 32
0.0
 13
163.3511543347022
 23
25.06135305448483
 33
0.0
  0
MTEXT
  5
3DC
330
3D2
100
AcDbEntity
  8
0
 62
     0
370
    15
100
AcDbMText
 10
158.976154334702
 20
80.65809561794994
 30
0.0
 40
3.5
 41
0.0
 71
     2
 72
     1
  1
\A1;%%c7.94 [5/16]
  7
SLDTEXTSTYLE0
 11
-3.580687802255621E-15
 21
1.0
 31
0.0
 73
     1
 44
1.0
  0
POINT
  5
3DD
330
3D2
100
AcDbEntity
  8
Defpoints
 62
     0
100
AcDbPoint
 10
150.5604053639339
 20
32.99885305448478
 30
0.0
  0
POINT
  5
3DE
330
3D2
100
AcDbEntity
  8
Defpoints
 62
     0
100
AcDbPoint
 10
150.5604053639339
 20
25.06135305448478
 30
0.0
  0
POINT
  5
3DF
330
3D2
100
AcDbEntity
  8
Defpoints
 62
     0
100
AcDbPoint
 10
163.3511543347022
 20
25.06135305448483
 30
0.0
  0
ENDBLK
  5
3D4
330
3D2
100
AcDbEntity
  8
0
100
AcDbBlockEnd
  0
BLOCK
  5
466
330
465
100
AcDbEntity
  8
0
100
AcDbBlockBegin
  2
*D26
 70
     1
 10
0.0
 20
0.0
 30
0.0
  3
*D26
  1
*D26
  0
LINE
  5
468
330
465
100
AcDbEntity
  8
0
  6
Continuous
 62
     0
370
    -2
100
AcDbLine
 10
82.37499999999999
 20
14.60399999999996
 30
0.0
 11
82.37499999999999
 21
23.57167507127607
 31
0.0
  0
LINE
  5
469
330
465
100
AcDbEntity
  8
0
  6
Continuous
 62
     0
370
    -2
100
AcDbLine
 10
68.08749999999999
 20
14.11608994136434
 30
0.0
 11
68.08749999999999
 21
23.57167507127607
 31
0.0
  0
LINE
  5
46A
330
465
100
AcDbEntity
  8
0
  6
Continuous
 62
     0
370
    -2
100
AcDbLine
 10
68.08749999999999
 20
23.57167507127607
 30
0.0
 11
30.4914682719938
 21
23.57167507127607
 31
0.0
  0
LINE
  5
46B
330
465
100
AcDbEntity
  8
0
  6
Continuous
 62
     0
370
    -2
100
AcDbLine
 10
79.07299999999998
 20
23.57167507127607
 30
0.0
 11
71.3895
 21
23.57167507127607
 31
0.0
  0
SOLID
  5
46C
330
465
100
AcDbEntity
  8
0
 62
     0
100
AcDbTrace
 10
79.07299999999998
 20
23.02134173794274
 30
0.0
 11
79.07299999999998
 21
24.12200840460941
 31
0.0
 12
82.37499999999999
 22
23.57167507127607
 32
0.0
 13
82.37499999999999
 23
23.57167507127607
 33
0.0
  0
SOLID
  5
46D
330
465
100
AcDbEntity
  8
0
 62
     0
100
AcDbTrace
 10
71.3895
 20
24.12200840460941
 30
0.0
 11
71.3895
 21
23.02134173794274
 31
0.0
 12
68.08749999999999
 22
23.57167507127607
 32
0.0
 13
68.08749999999999
 23
23.57167507127607
 33
0.0
  0
MTEXT
  5
46E
330
465
100
AcDbEntity
  8
0
 62
     0
370
    15
100
AcDbMText
 10
44.0539682719938
 20
27.94667507127607
 30
0.0
 40
3.5
 41
0.0
 71
     2
 72
     1
  1
\A1;14.29 [9/16]
  7
SLDTEXTSTYLE0
 73
     1
 44
1.0
  0
POINT
  5
46F
330
465
100
AcDbEntity
  8
Defpoints
 62
     0
100
AcDbPoint
 10
82.37499999999999
 20
14.54149999999996
 30
0.0
  0
POINT
  5
470
330
465
100
AcDbEntity
  8
Defpoints
 62
     0
100
AcDbPoint
 10
68.08749999999999
 20
14.05358994136434
 30
0.0
  0
POINT
  5
471
330
465
100
AcDbEntity
  8
Defpoints
 62
     0
100
AcDbPoint
 10
68.08749999999999
 20
23.57167507127607
 30
0.0
  0
ENDBLK
  5
467
330
465
100
AcDbEntity
  8
0
100
AcDbBlockEnd
  0
BLOCK
  5
473
330
472
100
AcDbEntity
  8
0
100
AcDbBlockBegin
  2
*D27
 70
     1
 10
0.0
 20
0.0
 30
0.0
  3
*D27
  1
*D27
  0
LINE
  5
475
330
472
100
AcDbEntity
  8
0
  6
Continuous
 62
     0
370
    -2
100
AcDbLine
 10
82.37499999999999
 20
14.60399999999996
 30
0.0
 11
82.37499999999999
 21
39.86072898817493
 31
0.0
  0
LINE
  5
476
330
472
100
AcDbEntity
  8
0
  6
Continuous
 62
     0
370
    -2
100
AcDbLine
 10
3.0
 20
14.58774999999995
 30
0.0
 11
3.0
 21
39.86072898817493
 31
0.0
  0
LINE
  5
477
330
472
100
AcDbEntity
  8
0
  6
Continuous
 62
     0
370
    -2
100
AcDbLine
 10
79.07299999999998
 20
39.86072898817493
 30
0.0
 11
6.302
 21
39.86072898817493
 31
0.0
  0
SOLID
  5
478
330
472
100
AcDbEntity
  8
0
 62
     0
100
AcDbTrace
 10
79.07299999999998
 20
39.3103956548416
 30
0.0
 11
79.07299999999998
 21
40.41106232150827
 31
0.0
 12
82.37499999999999
 22
39.86072898817493
 32
0.0
 13
82.37499999999999
 23
39.86072898817493
 33
0.0
  0
SOLID
  5
479
330
472
100
AcDbEntity
  8
0
 62
     0
100
AcDbTrace
 10
6.302
 20
40.41106232150827
 30
0.0
 11
6.302
 21
39.3103956548416
 31
0.0
 12
3.0
 22
39.86072898817493
 32
0.0
 13
3.0
 23
39.86072898817493
 33
0.0
  0
MTEXT
  5
47A
330
472
100
AcDbEntity
  8
0
 62
     0
370
    15
100
AcDbMText
 10
43.03489458697879
 20
44.23572898817493
 30
0.0
 40
3.5
 41
0.0
 71
     2
 72
     1
  1
\A1;79.38 [3 1/8]
  7
SLDTEXTSTYLE0
 73
     1
 44
1.0
  0
POINT
  5
47B
330
472
100
AcDbEntity
  8
Defpoints
 62
     0
100
AcDbPoint
 10
82.37499999999999
 20
14.54149999999996
 30
0.0
  0
POINT
  5
47C
330
472
100
AcDbEntity
  8
Defpoints
 62
     0
100
AcDbPoint
 10
3.0
 20
14.52524999999995
 30
0.0
  0
POINT
  5
47D
330
472
100
AcDbEntity
  8
Defpoints
 62
     0
100
AcDbPoint
 10
3.0
 20
39.86072898817493
 30
0.0
  0
ENDBLK
  5
474
330
472
100
AcDbEntity
  8
0
100
AcDbBlockEnd
  0
BLOCK
  5
47F
330
47E
100
AcDbEntity
  8
0
100
AcDbBlockBegin
  2
*D28
 70
     1
 10
0.0
 20
0.0
 30
0.0
  3
*D28
  1
*D28
  0
LINE
  5
481
330
47E
100
AcDbEntity
  8
0
  6
Continuous
 62
     0
370
    -2
100
AcDbLine
 10
82.43749999999997
 20
14.54149999999997
 30
0.0
 11
91.1969989707683
 21
14.5415
 31
0.0
  0
LINE
  5
482
330
47E
100
AcDbEntity
  8
0
  6
Continuous
 62
     0
370
    -2
100
AcDbLine
 10
82.43749999999999
 20
6.60399999999996
 30
0.0
 11
91.19699897076833
 21
6.603999999999992
 31
0.0
  0
LINE
  5
483
330
47E
100
AcDbEntity
  8
0
  6
Continuous
 62
     0
370
    -2
100
AcDbLine
 10
91.1969989707683
 20
14.5415
 30
0.0
 11
91.19699897076808
 21
76.20074256346513
 31
0.0
  0
LINE
  5
484
330
47E
100
AcDbEntity
  8
0
  6
Continuous
 62
     0
370
    -2
100
AcDbLine
 10
91.19699897076829
 20
17.8435
 30
0.0
 11
91.19699897076828
 21
21.1455
 31
0.0
  0
LINE
  5
485
330
47E
100
AcDbEntity
  8
0
  6
Continuous
 62
     0
370
    -2
100
AcDbLine
 10
91.19699897076835
 20
3.301999999999992
 30
0.0
 11
91.19699897076836
 21
-0.0000000000000071
 31
0.0
  0
SOLID
  5
486
330
47E
100
AcDbEntity
  8
0
 62
     0
100
AcDbTrace
 10
90.64666563743496
 20
17.8435
 30
0.0
 11
91.74733230410162
 21
17.8435
 31
0.0
 12
91.1969989707683
 22
14.5415
 32
0.0
 13
91.1969989707683
 23
14.5415
 33
0.0
  0
SOLID
  5
487
330
47E
100
AcDbEntity
  8
0
 62
     0
100
AcDbTrace
 10
91.74733230410168
 20
3.301999999999994
 30
0.0
 11
90.64666563743502
 21
3.301999999999991
 31
0.0
 12
91.19699897076833
 22
6.603999999999992
 32
0.0
 13
91.19699897076833
 23
6.603999999999992
 33
0.0
  0
MTEXT
  5
488
330
47E
100
AcDbEntity
  8
0
 62
     0
370
    15
100
AcDbMText
 10
86.82199897076813
 20
62.20074256346512
 30
0.0
 40
3.5
 41
0.0
 71
     2
 72
     1
  1
\A1;%%c7.94 [5/16]
  7
SLDTEXTSTYLE0
 11
-3.580687802255618E-15
 21
1.0
 31
0.0
 73
     1
 44
1.0
  0
POINT
  5
489
330
47E
100
AcDbEntity
  8
Defpoints
 62
     0
100
AcDbPoint
 10
82.37499999999997
 20
14.54149999999997
 30
0.0
  0
POINT
  5
48A
330
47E
100
AcDbEntity
  8
Defpoints
 62
     0
100
AcDbPoint
 10
82.37499999999999
 20
6.60399999999996
 30
0.0
  0
POINT
  5
48B
330
47E
100
AcDbEntity
  8
Defpoints
 62
     0
100
AcDbPoint
 10
91.19699897076833
 20
6.603999999999993
 30
0.0
  0
ENDBLK
  5
480
330
47E
100
AcDbEntity
  8
0
100
AcDbBlockEnd
  0
BLOCK
  5
4B9
330
4B8
100
AcDbEntity
  8
0
100
AcDbBlockBegin
  2
*D29
 70
     1
 10
0.0
 20
0.0
 30
0.0
  3
*D29
  1
*D29
  0
LINE
  5
4BB
330
4B8
100
AcDbEntity
  8
0
  6
Continuous
 62
     0
370
    -2
100
AcDbLine
 10
175.3551338304558
 20
35.27667346343645
 30
0.0
 11
175.3551338304558
 21
44.24434853471256
 31
0.0
  0
LINE
  5
4BC
330
4B8
100
AcDbEntity
  8
0
  6
Continuous
 62
     0
370
    -2
100
AcDbLine
 10
161.0676338304559
 20
34.78876340480083
 30
0.0
 11
161.0676338304559
 21
44.24434853471256
 31
0.0
  0
LINE
  5
4BD
330
4B8
100
AcDbEntity
  8
0
  6
Continuous
 62
     0
370
    -2
100
AcDbLine
 10
161.0676338304559
 20
44.24434853471256
 30
0.0
 11
123.4716021024497
 21
44.24434853471256
 31
0.0
  0
LINE
  5
4BE
330
4B8
100
AcDbEntity
  8
0
  6
Continuous
 62
     0
370
    -2
100
AcDbLine
 10
172.0531338304558
 20
44.24434853471256
 30
0.0
 11
164.3696338304559
 21
44.24434853471256
 31
0.0
  0
SOLID
  5
4BF
330
4B8
100
AcDbEntity
  8
0
 62
     0
100
AcDbTrace
 10
172.0531338304558
 20
43.69401520137923
 30
0.0
 11
172.0531338304558
 21
44.7946818680459
 31
0.0
 12
175.3551338304558
 22
44.24434853471256
 32
0.0
 13
175.3551338304558
 23
44.24434853471256
 33
0.0
  0
SOLID
  5
4C0
330
4B8
100
AcDbEntity
  8
0
 62
     0
100
AcDbTrace
 10
164.3696338304559
 20
44.7946818680459
 30
0.0
 11
164.3696338304559
 21
43.69401520137923
 31
0.0
 12
161.0676338304559
 22
44.24434853471256
 32
0.0
 13
161.0676338304559
 23
44.24434853471256
 33
0.0
  0
MTEXT
  5
4C1
330
4B8
100
AcDbEntity
  8
0
 62
     0
370
    15
100
AcDbMText
 10
137.0341021024497
 20
48.61934853471256
 30
0.0
 40
3.5
 41
0.0
 71
     2
 72
     1
  1
\A1;14.29 [9/16]
  7
SLDTEXTSTYLE0
 73
     1
 44
1.0
  0
POINT
  5
4C2
330
4B8
100
AcDbEntity
  8
Defpoints
 62
     0
100
AcDbPoint
 10
175.3551338304558
 20
35.21417346343645
 30
0.0
  0
POINT
  5
4C3
330
4B8
100
AcDbEntity
  8
Defpoints
 62
     0
100
AcDbPoint
 10
161.0676338304559
 20
34.72626340480083
 30
0.0
  0
POINT
  5
4C4
330
4B8
100
AcDbEntity
  8
Defpoints
 62
     0
100
AcDbPoint
 10
161.0676338304559
 20
44.24434853471256
 30
0.0
  0
ENDBLK
  5
4BA
330
4B8
100
AcDbEntity
  8
0
100
AcDbBlockEnd
  0
BLOCK
  5
4C6
330
4C5
100
AcDbEntity
  8
0
100
AcDbBlockBegin
  2
*D30
 70
     1
 10
0.0
 20
0.0
 30
0.0
  3
*D30
  1
*D30
  0
LINE
  5
4C8
330
4C5
100
AcDbEntity
  8
0
  6
Continuous
 62
     0
370
    -2
100
AcDbLine
 10
175.3551338304558
 20
35.27667346343645
 30
0.0
 11
175.3551338304558
 21
60.53340245161142
 31
0.0
  0
LINE
  5
4C9
330
4C5
100
AcDbEntity
  8
0
  6
Continuous
 62
     0
370
    -2
100
AcDbLine
 10
95.98013383045586
 20
35.26042346343645
 30
0.0
 11
95.98013383045586
 21
60.53340245161142
 31
0.0
  0
LINE
  5
4CA
330
4C5
100
AcDbEntity
  8
0
  6
Continuous
 62
     0
370
    -2
100
AcDbLine
 10
172.0531338304558
 20
60.53340245161142
 30
0.0
 11
99.28213383045585
 21
60.53340245161142
 31
0.0
  0
SOLID
  5
4CB
330
4C5
100
AcDbEntity
  8
0
 62
     0
100
AcDbTrace
 10
172.0531338304558
 20
59.98306911827809
 30
0.0
 11
172.0531338304558
 21
61.08373578494476
 31
0.0
 12
175.3551338304558
 22
60.53340245161142
 32
0.0
 13
175.3551338304558
 23
60.53340245161142
 33
0.0
  0
SOLID
  5
4CC
330
4C5
100
AcDbEntity
  8
0
 62
     0
100
AcDbTrace
 10
99.28213383045585
 20
61.08373578494476
 30
0.0
 11
99.28213383045585
 21
59.98306911827809
 31
0.0
 12
95.98013383045586
 22
60.53340245161142
 32
0.0
 13
95.98013383045586
 23
60.53340245161142
 33
0.0
  0
MTEXT
  5
4CD
330
4C5
100
AcDbEntity
  8
0
 62
     0
370
    15
100
AcDbMText
 10
136.0150284174346
 20
64.90840245161142
 30
0.0
 40
3.5
 41
0.0
 71
     2
 72
     1
  1
\A1;79.38 [3 1/8]
  7
SLDTEXTSTYLE0
 73
     1
 44
1.0
  0
POINT
  5
4CE
330
4C5
100
AcDbEntity
  8
Defpoints
 62
     0
100
AcDbPoint
 10
175.3551338304558
 20
35.21417346343645
 30
0.0
  0
POINT
  5
4CF
330
4C5
100
AcDbEntity
  8
Defpoints
 62
     0
100
AcDbPoint
 10
95.98013383045586
 20
35.19792346343645
 30
0.0
  0
POINT
  5
4D0
330
4C5
100
AcDbEntity
  8
Defpoints
 62
     0
100
AcDbPoint
 10
95.98013383045586
 20
60.53340245161142
 30
0.0
  0
ENDBLK
  5
4C7
330
4C5
100
AcDbEntity
  8
0
100
AcDbBlockEnd
  0
BLOCK
  5
4D2
330
4D1
100
AcDbEntity
  8
0
100
AcDbBlockBegin
  2
*D31
 70
     1
 10
0.0
 20
0.0
 30
0.0
  3
*D31
  1
*D31
  0
LINE
  5
4D4
330
4D1
100
AcDbEntity
  8
0
  6
Continuous
 62
     0
370
    -2
100
AcDbLine
 10
175.4176338304558
 20
35.21417346343647
 30
0.0
 11
184.1771328012242
 21
35.2141734634365
 31
0.0
  0
LINE
  5
4D5
330
4D1
100
AcDbEntity
  8
0
  6
Continuous
 62
     0
370
    -2
100
AcDbLine
 10
175.4176338304558
 20
27.27667346343645
 30
0.0
 11
184.1771328012242
 21
27.27667346343649
 31
0.0
  0
LINE
  5
4D6
330
4D1
100
AcDbEntity
  8
0
  6
Continuous
 62
     0
370
    -2
100
AcDbLine
 10
184.1771328012242
 20
35.2141734634365
 30
0.0
 11
184.1771328012239
 21
96.87341602690162
 31
0.0
  0
LINE
  5
4D7
330
4D1
100
AcDbEntity
  8
0
  6
Continuous
 62
     0
370
    -2
100
AcDbLine
 10
184.1771328012242
 20
38.5161734634365
 30
0.0
 11
184.1771328012242
 21
41.8181734634365
 31
0.0
  0
LINE
  5
4D8
330
4D1
100
AcDbEntity
  8
0
  6
Continuous
 62
     0
370
    -2
100
AcDbLine
 10
184.1771328012242
 20
23.97467346343649
 30
0.0
 11
184.1771328012242
 21
20.67267346343649
 31
0.0
  0
SOLID
  5
4D9
330
4D1
100
AcDbEntity
  8
0
 62
     0
100
AcDbTrace
 10
183.6267994678908
 20
38.5161734634365
 30
0.0
 11
184.7274661345575
 21
38.5161734634365
 31
0.0
 12
184.1771328012242
 22
35.2141734634365
 32
0.0
 13
184.1771328012242
 23
35.2141734634365
 33
0.0
  0
SOLID
  5
4DA
330
4D1
100
AcDbEntity
  8
0
 62
     0
100
AcDbTrace
 10
184.7274661345575
 20
23.97467346343649
 30
0.0
 11
183.6267994678909
 21
23.97467346343648
 31
0.0
 12
184.1771328012242
 22
27.27667346343649
 32
0.0
 13
184.1771328012242
 23
27.27667346343649
 33
0.0
  0
MTEXT
  5
4DB
330
4D1
100
AcDbEntity
  8
0
 62
     0
370
    15
100
AcDbMText
 10
179.802132801224
 20
82.87341602690161
 30
0.0
 40
3.5
 41
0.0
 71
     2
 72
     1
  1
\A1;%%c7.94 [5/16]
  7
SLDTEXTSTYLE0
 11
-3.580687802255615E-15
 21
1.0
 31
0.0
 73
     1
 44
1.0
  0
POINT
  5
4DC
330
4D1
100
AcDbEntity
  8
Defpoints
 62
     0
100
AcDbPoint
 10
175.3551338304558
 20
35.21417346343647
 30
0.0
  0
POINT
  5
4DD
330
4D1
100
AcDbEntity
  8
Defpoints
 62
     0
100
AcDbPoint
 10
175.3551338304558
 20
27.27667346343645
 30
0.0
  0
POINT
  5
4DE
330
4D1
100
AcDbEntity
  8
Defpoints
 62
     0
100
AcDbPoint
 10
184.1771328012242
 20
27.27667346343648
 30
0.0
  0
ENDBLK
  5
4D3
330
4D1
100
AcDbEntity
  8
0
100
AcDbBlockEnd
  0
ENDSEC
  0
SECTION
  2
ENTITIES
  0
LINE
  5
98
330
1F
100
AcDbEntity
  8
외형선
  6
Continuous
370
    15
100
AcDbLine
 10
21.4376846714922
 20
4.762500000000002
 30
0.0
 11
4.838699999999992
 21
4.7625
 31
0.0
  0
LINE
  5
99
330
1F
100
AcDbEntity
  8
외형선
  6
Continuous
370
    15
100
AcDbLine
 10
-21.43768467149219
 20
-4.762500000000004
 30
0.0
 11
21.43768467149221
 21
-4.762499999999998
 31
0.0
  0
LINE
  5
9A
330
1F
100
AcDbEntity
  8
외형선
  6
Continuous
370
    15
100
AcDbLine
 10
21.4376846714922
 20
-4.762499999999998
 30
0.0
 11
23.87997203163182
 21
-4.108091074165848
 31
0.0
  0
LINE
  5
9B
330
1F
100
AcDbEntity
  8
외형선
  6
Continuous
370
    15
100
AcDbLine
 10
23.87997203163182
 20
4.108091074165852
 30
0.0
 11
21.4376846714922
 21
4.762500000000003
 31
0.0
  0
LINE
  5
9C
330
1F
100
AcDbEntity
  8
0
  6
Continuous
 62
     1
370
    15
100
AcDbLine
 10
34.92544779951931
 20
-3.968749999999998
 30
0.0
 11
35.71874999999999
 21
-3.968749999999998
 31
0.0
  0
ARC
  5
9D
330
1F
100
AcDbEntity
  8
0
  6
Continuous
 62
     1
370
    15
100
AcDbCircle
 10
35.71874999999999
 20
0.0000000000000026
 30
0.0
 40
3.968750000000007
100
AcDbArc
 50
270.0000000000008
 51
0.0
  0
ARC
  5
9E
330
1F
100
AcDbEntity
  8
0
  6
Continuous
 62
     1
370
    15
100
AcDbCircle
 10
35.71874999999999
 20
0.0000000000000026
 30
0.0
 40
3.968750000000007
100
AcDbArc
 50
0.0
 51
90.0
  0
LINE
  5
9F
330
1F
100
AcDbEntity
  8
0
  6
Continuous
 62
     1
370
    15
100
AcDbLine
 10
35.71874999999999
 20
3.968750000000002
 30
0.0
 11
34.9254477995193
 21
3.968750000000002
 31
0.0
  0
LINE
  5
A2
330
1F
100
AcDbEntity
  8
외형선
  6
Continuous
370
    15
100
AcDbLine
 10
21.4376846714922
 20
4.762500000000002
 30
0.0
 11
21.4376846714922
 21
-4.762500000000002
 31
0.0
  0
LINE
  5
A3
330
1F
100
AcDbEntity
  8
외형선
  6
Continuous
370
    15
100
AcDbLine
 10
23.87997203163182
 20
3.948696175070734
 30
0.0
 11
23.87997203163182
 21
4.108091074165852
 31
0.0
  0
SPLINE
  5
A4
330
1F
100
AcDbEntity
  8
외형선
  6
Continuous
370
    15
100
AcDbSpline
210
0.0
220
0.0
230
1.0
 70
     8
 71
     3
 72
     8
 73
     4
 74
     0
 42
0.000000001
 43
0.00000001
 40
0.0
 40
0.0
 40
0.0
 40
0.0
 40
1.0
 40
1.0
 40
1.0
 40
1.0
 10
24.39999999999999
 20
3.72067636673251
 30
0.0
 10
24.2254359401639
 20
3.799386127628598
 30
0.0
 10
24.0521528728199
 20
3.875553623091604
 30
0.0
 10
23.87997203163182
 20
3.94872395018001
 30
0.0
  0
LINE
  5
A5
330
1F
100
AcDbEntity
  8
외형선
  6
Continuous
370
    15
100
AcDbLine
 10
24.39999999999999
 20
3.72067636673251
 30
0.0
 11
24.39999999999999
 21
-0.1570135117496279
 31
0.0
  0
SPLINE
  5
A6
330
1F
100
AcDbEntity
  8
외형선
  6
Continuous
370
    15
100
AcDbSpline
210
0.0
220
0.0
230
1.0
 70
     8
 71
     3
 72
     8
 73
     4
 74
     0
 42
0.000000001
 43
0.00000001
 40
0.0
 40
0.0
 40
0.0
 40
0.0
 40
1.0
 40
1.0
 40
1.0
 40
1.0
 10
23.87999151437434
 20
0.1519096532074094
 30
0.0
 10
24.0532250350494
 20
0.0469643202627642
 30
0.0
 10
24.22655501278665
 20
-0.0560146254529631
 30
0.0
 10
24.39999999999999
 20
-0.157013511749628
 30
0.0
  0
LINE
  5
A7
330
1F
100
AcDbEntity
  8
외형선
  6
Continuous
370
    15
100
AcDbLine
 10
23.87997203163182
 20
-4.108091074165848
 30
0.0
 11
23.87997203163182
 21
0.1520055096939039
 31
0.0
  0
SPLINE
  5
A8
330
1F
100
AcDbEntity
  8
외형선
  6
Continuous
370
    15
100
AcDbSpline
210
0.0
220
0.0
230
1.0
 70
     8
 71
     3
 72
     8
 73
     4
 74
     0
 42
0.000000001
 43
0.00000001
 40
0.0
 40
0.0
 40
0.0
 40
0.0
 40
1.0
 40
1.0
 40
1.0
 40
1.0
 10
24.39999999999999
 20
-3.720676366732506
 30
0.0
 10
24.2254359401639
 20
-3.799386127628593
 30
0.0
 10
24.0521528728199
 20
-3.875553623091599
 30
0.0
 10
23.87997203163182
 20
-3.948723950180006
 30
0.0
  0
SPLINE
  5
A9
330
1F
100
AcDbEntity
  8
외형선
  6
Continuous
370
    15
100
AcDbSpline
210
0.0
220
0.0
230
1.0
 70
    24
 71
     3
 72
    14
 73
    10
 74
     0
 42
0.000000001
 43
0.00000001
 40
0.0
 40
0.0
 40
0.0
 40
0.0
 40
0.0784904667497519
 40
0.2503630861435987
 40
0.4173918597861918
 40
0.5892644791797531
 40
0.7562932528223449
 40
0.928165872215905
 40
1.0
 40
1.0
 40
1.0
 40
1.0
 10
25.39999999999999
 20
-0.7979540424436663
 30
0.0
 10
25.39999999999999
 20
-0.8120976780681838
 30
0.0
 10
25.39999999999999
 20
-0.8572120010028981
 30
0.0
 10
25.39999999999999
 20
-1.002245311575879
 30
0.0
 10
25.39999999999999
 20
-1.226409166595878
 30
0.0
 10
25.39999999999999
 20
-1.50555842128843
 30
0.0
 10
25.39999999999999
 20
-1.832476143998106
 30
0.0
 10
25.39999999999999
 20
-2.124638658274949
 30
0.0
 10
25.39999999999999
 20
-2.307883732743647
 30
0.0
 10
25.39999999999999
 20
-2.36189639446776
 30
0.0
  0
SPLINE
  5
AA
330
1F
100
AcDbEntity
  8
외형선
  6
Continuous
370
    15
100
AcDbSpline
210
0.0
220
0.0
230
1.0
 70
     8
 71
     3
 72
     8
 73
     4
 74
     0
 42
0.000000001
 43
0.00000001
 40
0.0
 40
0.0
 40
0.0
 40
0.0
 40
1.0
 40
1.0
 40
1.0
 40
1.0
 10
25.39999999999999
 20
-2.361896394468571
 30
0.0
 10
24.89153114268167
 20
-2.2649280453883
 30
0.0
 10
24.38866037735587
 20
-2.149032940786757
 30
0.0
 10
23.87997203163182
 20
-2.016163325820587
 30
0.0
  0
SPLINE
  5
AB
330
1F
100
AcDbEntity
  8
외형선
  6
Continuous
370
    15
100
AcDbSpline
210
0.0
220
0.0
230
1.0
 70
     8
 71
     3
 72
     8
 73
     4
 74
     0
 42
0.000000001
 43
0.00000001
 40
0.0
 40
0.0
 40
0.0
 40
0.0
 40
1.0
 40
1.0
 40
1.0
 40
1.0
 10
24.39999999999999
 20
-0.1570135117496279
 30
0.0
 10
24.73384757955856
 20
-0.3496366341613092
 30
0.0
 10
25.06500900818538
 20
-0.5411909355159958
 30
0.0
 10
25.4
 20
-0.7308838047172729
 30
0.0
  0
SPLINE
  5
AC
330
1F
100
AcDbEntity
  8
외형선
  6
Continuous
370
    15
100
AcDbSpline
210
0.0
220
0.0
230
1.0
 70
     8
 71
     3
 72
     8
 73
     4
 74
     0
 42
0.000000001
 43
0.00000001
 40
0.0
 40
0.0
 40
0.0
 40
0.0
 40
1.0
 40
1.0
 40
1.0
 40
1.0
 10
25.39999999999999
 20
3.480839941385863
 30
0.0
 10
25.06500900818537
 20
3.573549735559375
 30
0.0
 10
24.73384757955855
 20
3.653590336536671
 30
0.0
 10
24.39999999999999
 20
3.72067636673251
 30
0.0
  0
LINE
  5
AD
330
1F
100
AcDbEntity
  8
외형선
  6
Continuous
370
    15
100
AcDbLine
 10
25.39999999999999
 20
3.480839941385864
 30
0.0
 11
25.39999999999999
 21
-0.7308838047172324
 31
0.0
  0
SPLINE
  5
AE
330
1F
100
AcDbEntity
  8
외형선
  6
Continuous
370
    15
100
AcDbSpline
210
0.0
220
0.0
230
1.0
 70
     8
 71
     3
 72
     8
 73
     4
 74
     0
 42
0.000000001
 43
0.00000001
 40
0.0
 40
0.0
 40
0.0
 40
0.0
 40
1.0
 40
1.0
 40
1.0
 40
1.0
 10
25.39999999999999
 20
-3.480839941385858
 30
0.0
 10
25.06500900818538
 20
-3.573549735559371
 30
0.0
 10
24.73384757955855
 20
-3.653590336536667
 30
0.0
 10
24.39999999999999
 20
-3.720676366732506
 30
0.0
  0
SPLINE
  5
AF
330
1F
100
AcDbEntity
  8
외형선
  6
Continuous
370
    15
100
AcDbSpline
210
0.0
220
0.0
230
1.0
 70
    24
 71
     3
 72
    13
 73
     9
 74
     0
 42
0.000000001
 43
0.00000001
 40
0.0
 40
0.0
 40
0.0
 40
0.0
 40
0.111637896785897
 40
0.3641877974953739
 40
0.6096201435427092
 40
0.8621700442521855
 40
0.9310100501944208
 40
1.0
 40
1.0
 40
1.0
 40
1.0
 10
25.39999999999999
 20
-2.361896394468571
 30
0.0
 10
25.39999999999999
 20
-2.38413731677167
 30
0.0
 10
25.39999999999999
 20
-2.456692181571435
 30
0.0
 10
25.39999999999999
 20
-2.649327894685342
 30
0.0
 10
25.39999999999999
 20
-2.931706183331665
 30
0.0
 10
25.39999999999999
 20
-3.187689823627145
 30
0.0
 10
25.39999999999999
 20
-3.376866405262898
 30
0.0
 10
25.39999999999999
 20
-3.446156969154285
 30
0.0
 10
25.39999999999999
 20
-3.480839941363995
 30
0.0
  0
SPLINE
  5
B0
330
1F
100
AcDbEntity
  8
0
  6
Continuous
 62
     1
370
    15
100
AcDbSpline
210
0.0
220
0.0
230
1.0
 70
     8
 71
     3
 72
    30
 73
    26
 74
     0
 42
0.000000001
 43
0.00000001
 40
0.0
 40
0.0
 40
0.0
 40
0.0
 40
0.0625
 40
0.0625
 40
0.1249999999999999
 40
0.1249999999999999
 40
0.2500000000000002
 40
0.2500000000000002
 40
0.3750000000000005
 40
0.3750000000000005
 40
0.4375000000000005
 40
0.4375000000000005
 40
0.5000000000000006
 40
0.5000000000000006
 40
0.5625000000000006
 40
0.5625000000000006
 40
0.6250000000000004
 40
0.6250000000000004
 40
0.7500000000000003
 40
0.7500000000000003
 40
0.8750000000000001
 40
0.8750000000000001
 40
0.9375
 40
0.9375
 40
1.0
 40
1.0
 40
1.0
 40
1.0
 10
35.71874999999995
 20
-1.659073067473775
 30
0.0
 10
35.5031307454268
 20
-1.54621905761912
 30
0.0
 10
35.28710594726773
 20
-1.430851094141295
 30
0.0
 10
34.85709385187589
 20
-1.196621580151904
 30
0.0
 10
34.64422260112718
 20
-1.077973652831968
 30
0.0
 10
34.0001823019862
 20
-0.7168216771741864
 30
0.0
 10
33.56592892826166
 20
-0.4694917150816283
 30
0.0
 10
32.71036291860635
 20
0.0253204521714166
 30
0.0
 10
32.27853106437302
 20
0.2748067640600116
 30
0.0
 10
31.63268218127534
 20
0.6440781546494003
 30
0.0
 10
31.41937882249166
 20
0.7660276343218819
 30
0.0
 10
30.99082768734844
 20
1.007700167476562
 30
0.0
 10
30.77511381215876
 20
1.127505519365928
 30
0.0
 10
30.34364444408479
 20
1.363455018591739
 30
0.0
 10
30.12789312973316
 20
1.47959687903629
 30
0.0
 10
29.69919387316994
 20
1.706711404986207
 30
0.0
 10
29.48599609901042
 20
1.817739847212521
 30
0.0
 10
28.84027584785683
 20
2.143394847191803
 30
0.0
 10
28.40807722365745
 20
2.349394475204903
 30
0.0
 10
27.55285173480857
 20
2.730164887322025
 30
0.0
 10
27.11862156745335
 20
2.906543754183502
 30
0.0
 10
26.47439251989089
 20
3.143071583441985
 30
0.0
 10
26.26155102497318
 20
3.217205835243142
 30
0.0
 10
25.83164718570779
 20
3.356321043022795
 30
0.0
 10
25.61563951075733
 20
3.421161039127347
 30
0.0
 10
25.39999999999985
 20
3.480839941385907
 30
0.0
  0
SPLINE
  5
B1
330
1F
100
AcDbEntity
  8
0
  6
Continuous
 62
     1
370
    15
100
AcDbSpline
210
0.0
220
0.0
230
1.0
 70
     8
 71
     3
 72
    16
 73
    12
 74
     0
 42
0.000000001
 43
0.00000001
 40
0.0
 40
0.0
 40
0.0
 40
0.0
 40
0.1319101650080303
 40
0.2638184729032141
 40
0.3840859305648847
 40
0.5045161608048743
 40
0.624884151628014
 40
0.7451181296484652
 40
0.8653256142774077
 40
0.9856144453082328
 40
0.9999999999999999
 40
0.9999999999999999
 40
0.9999999999999999
 40
0.9999999999999999
 10
38.62503814381763
 20
0.4158643780731701
 30
0.0
 10
38.14358588328557
 20
0.6011900167951315
 30
0.0
 10
37.18068814040399
 20
0.9718386851101489
 30
0.0
 10
35.77879599478537
 20
1.465166990503686
 30
0.0
 10
34.41895028023223
 20
1.886359093786214
 30
0.0
 10
33.10089220640098
 20
2.224754433386999
 30
0.0
 10
31.78309330179115
 20
2.481375633350251
 30
0.0
 10
30.46628835923338
 20
2.649524494559861
 30
0.0
 10
29.14977376054305
 20
2.711802092442945
 30
0.0
 10
28.21955046392522
 20
2.708972028179052
 30
0.0
 10
27.72794281187411
 20
2.661054973208373
 30
0.0
 10
27.67543060825404
 20
2.655936602619558
 30
0.0
  0
SPLINE
  5
B2
330
1F
100
AcDbEntity
  8
0
  6
Continuous
 62
     1
370
    15
100
AcDbSpline
210
0.0
220
0.0
230
1.0
 70
     8
 71
     3
 72
    26
 73
    22
 74
     0
 42
0.000000001
 43
0.00000001
 40
0.0
 40
0.0
 40
0.0
 40
0.0
 40
0.125
 40
0.125
 40
0.2499999999999999
 40
0.2499999999999999
 40
0.3749999999999999
 40
0.3749999999999999
 40
0.4374999999999999
 40
0.4374999999999999
 40
0.5
 40
0.5
 40
0.625
 40
0.625
 40
0.6875
 40
0.6875
 40
0.7499999999999999
 40
0.7499999999999999
 40
0.8749999999999999
 40
0.8749999999999999
 40
1.0
 40
1.0
 40
1.0
 40
1.0
 10
35.71874999999999
 20
-1.659073067473686
 30
0.0
 10
35.93926527821239
 20
-1.774489630942193
 30
0.0
 10
36.15618797822987
 20
-1.877993095611258
 30
0.0
 10
36.58837732894708
 20
-2.053441121231014
 30
0.0
 10
36.80652204919819
 20
-2.125106972347531
 30
0.0
 10
37.23754685574726
 20
-2.216996836835133
 30
0.0
 10
37.4488156313292
 20
-2.237829772358946
 30
0.0
 10
37.76629680050431
 20
-2.214278041574575
 30
0.0
 10
37.87027716035165
 20
-2.197201925418152
 30
0.0
 10
38.07433982385875
 20
-2.141271258171114
 30
0.0
 10
38.17571373532449
 20
-2.101792844797389
 30
0.0
 10
38.46769476768876
 20
-1.94420946939968
 30
0.0
 10
38.64868585293189
 20
-1.784692620232724
 30
0.0
 10
38.85504453018326
 20
-1.467034839754691
 30
0.0
 10
38.91033602889816
 20
-1.352586625849899
 30
0.0
 10
38.99211933364607
 20
-1.110712972056108
 30
0.0
 10
39.01716489465377
 20
-0.9872511332561181
 30
0.0
 10
39.0485096154944
 20
-0.6191333655831677
 30
0.0
 10
39.01080401554022
 20
-0.3877857524727493
 30
0.0
 10
38.86498834399352
 20
0.0359138427052566
 30
0.0
 10
38.75701703684375
 20
0.2304254986060179
 30
0.0
 10
38.62503814381736
 20
0.415864378073273
 30
0.0
  0
SPLINE
  5
B3
330
1F
100
AcDbEntity
  8
0
  6
Continuous
 62
     1
370
    15
100
AcDbSpline
210
0.0
220
0.0
230
1.0
 70
     8
 71
     3
 72
    15
 73
    11
 74
     0
 42
0.000000001
 43
0.00000001
 40
0.0
 40
0.0
 40
0.0
 40
0.0
 40
0.1468624960400203
 40
0.2952577149494395
 40
0.4152432002997946
 40
0.5360644484550281
 40
0.6560028190080792
 40
0.776771833596843
 40
0.9291666821617816
 40
0.9999999999999999
 40
0.9999999999999999
 40
0.9999999999999999
 40
0.9999999999999999
 10
25.39999999999999
 20
-0.73088380471765
 30
0.0
 10
25.86628858476277
 20
-0.9926424354880002
 30
0.0
 10
26.80373215106678
 20
-1.518891527485503
 30
0.0
 10
28.12223168841752
 20
-2.191962881741449
 30
0.0
 10
29.35845733374561
 20
-2.749315497842436
 30
0.0
 10
30.50336188098592
 20
-3.190194389031273
 30
0.0
 10
31.65085678418349
 20
-3.544899592987123
 30
0.0
 10
32.89951124324396
 20
-3.815288306156831
 30
0.0
 10
33.99172988197789
 20
-3.96678332446781
 30
0.0
 10
34.70053450223702
 20
-3.951221850157925
 30
0.0
 10
34.92544779951931
 20
-3.946283983787457
 30
0.0
  0
SPLINE
  5
B4
330
1F
100
AcDbEntity
  8
0
  6
Continuous
 62
     1
370
    15
100
AcDbSpline
210
0.0
220
0.0
230
1.0
 70
     8
 71
     3
 72
    11
 73
     7
 74
     0
 42
0.000000001
 43
0.00000001
 40
0.0
 40
0.0
 40
0.0
 40
0.0
 40
0.0296643653532187
 40
0.3704756446322526
 40
0.6855320875264885
 40
1.0
 40
1.0
 40
1.0
 40
1.0
 10
29.26470154536353
 20
-2.694751077818199
 30
0.0
 10
29.22649039788316
 20
-2.696855016376527
 30
0.0
 10
28.74927474447659
 20
-2.723130919615392
 30
0.0
 10
27.86620415695278
 20
-2.680849095834782
 30
0.0
 10
26.61592395214005
 20
-2.57443676167569
 30
0.0
 10
25.80505529545324
 20
-2.432699014223943
 30
0.0
 10
25.39999999999999
 20
-2.361896394468571
 30
0.0
  0
SPLINE
  5
B5
330
1F
100
AcDbEntity
  8
외형선
  6
Continuous
370
    15
100
AcDbSpline
210
0.0
220
0.0
230
1.0
 70
    24
 71
     3
 72
    14
 73
    10
 74
     0
 42
0.000000001
 43
0.00000001
 40
0.0
 40
0.0
 40
0.0
 40
0.0
 40
0.081462314034902
 40
0.2508109672407938
 40
0.4201596204464447
 40
0.5895082736520956
 40
0.7588569268577451
 40
0.9282055800633944
 40
1.0
 40
1.0
 40
1.0
 40
1.0
 10
25.39999999999999
 20
-0.7979640424436661
 30
0.0
 10
25.39999999999999
 20
-0.8127297232533289
 30
0.0
 10
25.39999999999999
 20
-0.8581911704232893
 30
0.0
 10
25.39999999999999
 20
-1.003905430563474
 30
0.0
 10
25.39999999999999
 20
-1.228036086281707
 30
0.0
 10
25.39999999999999
 20
-1.508277215626371
 30
0.0
 10
25.39999999999999
 20
-1.834415433257065
 30
0.0
 10
25.39999999999999
 20
-2.126441608480933
 30
0.0
 10
25.39999999999999
 20
-2.307878131539574
 30
0.0
 10
25.39999999999999
 20
-2.361896394467761
 30
0.0
  0
SPLINE
  5
B6
330
1F
100
AcDbEntity
  8
0
  6
Continuous
 62
     1
370
    15
100
AcDbSpline
210
0.0
220
0.0
230
1.0
 70
     8
 71
     3
 72
    12
 73
     8
 74
     0
 42
0.000000001
 43
0.00000001
 40
0.0
 40
0.0
 40
0.0
 40
0.0
 40
0.2500000000000001
 40
0.2500000000000001
 40
0.5000000000000002
 40
0.5000000000000002
 40
1.0
 40
1.0
 40
1.0
 40
1.0
 10
38.62503814381735
 20
0.415864378073275
 30
0.0
 10
38.67067916904445
 20
0.4433889472208855
 30
0.0
 10
38.71133789542392
 20
0.4775010744369394
 30
0.0
 10
38.78265500627894
 20
0.5592884231993208
 30
0.0
 10
38.81354723441677
 20
0.607739596024619
 30
0.0
 10
38.88663169550042
 20
0.7669694108143335
 30
0.0
 10
38.91075743073
 20
0.8948635884428082
 30
0.0
 10
38.91298481941955
 20
1.027868668048628
 30
0.0
  0
ARC
  5
B7
330
1F
100
AcDbEntity
  8
0
  6
Continuous
 62
     1
370
    15
100
AcDbCircle
 10
37.78871241816987
 20
-0.6899008203442724
 30
0.0
 40
2.052978433268475
100
AcDbArc
 50
23.84126280044508
 51
56.79543343399472
  0
ARC
  5
B8
330
1F
100
AcDbEntity
  8
0
  6
Continuous
 62
     1
370
    15
100
AcDbCircle
 10
36.11877364579411
 20
0.0740907228318827
 30
0.0
 40
3.548344826896846
100
AcDbArc
 50
1.063043034988076
 51
71.16364976741123
  0
SPLINE
  5
B9
330
1F
100
AcDbEntity
  8
0
  6
Continuous
 62
     1
370
    15
100
AcDbSpline
210
0.0
220
0.0
230
1.0
 70
     8
 71
     3
 72
    10
 73
     6
 74
     0
 42
0.000000001
 43
0.00000001
 40
0.0
 40
0.0
 40
0.0
 40
0.0
 40
0.5
 40
0.5
 40
1.0
 40
1.0
 40
1.0
 40
1.0
 10
37.26441430673083
 20
3.432402573535151
 30
0.0
 10
37.01868204059947
 20
3.582108636503197
 30
0.0
 10
36.7656457158545
 20
3.699744624892484
 30
0.0
 10
36.25028685606027
 20
3.870976530496406
 30
0.0
 10
35.98498566166671
 20
3.924683274564457
 30
0.0
 10
35.71874999999999
 20
3.942347382307397
 30
0.0
  0
SPLINE
  5
BA
330
1F
100
AcDbEntity
  8
0
  6
Continuous
 62
     1
370
    15
100
AcDbSpline
210
0.0
220
0.0
230
1.0
 70
     8
 71
     3
 72
     8
 73
     4
 74
     0
 42
0.000000001
 43
0.00000001
 40
0.0
 40
0.0
 40
0.0
 40
0.0
 40
1.0
 40
1.0
 40
1.0
 40
1.0
 10
36.45898851023996
 20
1.776614183794964
 30
0.0
 10
37.26577921958334
 20
1.552404283824541
 30
0.0
 10
38.08836190426557
 20
1.299740101918839
 30
0.0
 10
38.91298481941956
 20
1.02786866804866
 30
0.0
  0
SPLINE
  5
BB
330
1F
100
AcDbEntity
  8
0
  6
Continuous
 62
     1
370
    15
100
AcDbSpline
210
0.0
220
0.0
230
1.0
 70
     8
 71
     3
 72
    13
 73
     9
 74
     0
 42
0.000000001
 43
0.00000001
 40
0.0
 40
0.0
 40
0.0
 40
0.0
 40
0.014088335123965
 40
0.1924004052867218
 40
0.369409494927847
 40
0.547644477032738
 40
0.7725539308304721
 40
1.0
 40
1.0
 40
1.0
 40
1.0
 10
29.26470154536352
 20
2.694751077818205
 30
0.0
 10
29.29501761337417
 20
2.708420355146294
 30
0.0
 10
29.70903557366714
 20
2.895097806723042
 30
0.0
 10
30.50332957423078
 20
3.18571090090471
 30
0.0
 10
31.65086564479639
 20
3.545381443984738
 30
0.0
 10
32.89950720561487
 20
3.818074673769332
 30
0.0
 10
34.25615745846233
 20
3.987936822068403
 30
0.0
 10
35.22939997755621
 20
3.957600566455863
 30
0.0
 10
35.71874999999989
 20
3.942347382307401
 30
0.0
  0
SPLINE
  5
BC
330
1F
100
AcDbEntity
  8
0
  6
Continuous
 62
     1
370
    15
100
AcDbSpline
210
0.0
220
0.0
230
1.0
 70
     8
 71
     3
 72
    18
 73
    14
 74
     0
 42
0.000000001
 43
0.00000001
 40
0.0
 40
0.0
 40
0.0
 40
0.0
 40
0.2499999999999999
 40
0.2499999999999999
 40
0.3749999999999999
 40
0.3749999999999999
 40
0.4999999999999999
 40
0.4999999999999999
 40
0.6249999999999999
 40
0.6249999999999999
 40
0.7499999999999998
 40
0.7499999999999998
 40
1.0
 40
1.0
 40
1.0
 40
1.0
 10
37.26441430673084
 20
3.432402573535152
 30
0.0
 10
37.29262066322036
 20
3.265806603795706
 30
0.0
 10
37.30529750812272
 20
3.096216777401354
 30
0.0
 10
37.28680763983175
 20
2.838614665299738
 30
0.0
 10
37.27439918552984
 20
2.754174599916229
 30
0.0
 10
37.23491624258897
 20
2.588646327622035
 30
0.0
 10
37.20734233168581
 20
2.506615082647325
 30
0.0
 10
37.13731374385528
 20
2.352677057147477
 30
0.0
 10
37.09504645032179
 20
2.280552182020146
 30
0.0
 10
36.99576533166043
 20
2.146151353902725
 30
0.0
 10
36.93839874689357
 20
2.083880909817618
 30
0.0
 10
36.75333159638039
 20
1.919601941672628
 30
0.0
 10
36.6087990657724
 20
1.836209140050754
 30
0.0
 10
36.45898851023996
 20
1.776614183794965
 30
0.0
  0
SPLINE
  5
BD
330
1F
100
AcDbEntity
  8
0
  6
Continuous
 62
     1
370
    15
100
AcDbSpline
210
0.0
220
0.0
230
1.0
 70
     8
 71
     3
 72
     9
 73
     5
 74
     0
 42
0.000000001
 43
0.00000001
 40
0.0
 40
0.0
 40
0.0
 40
0.0
 40
0.3351372055615253
 40
1.0
 40
1.0
 40
1.0
 40
1.0
 10
27.67543060825404
 20
-2.655936602619551
 30
0.0
 10
27.42123167034415
 20
-2.768199872822545
 30
0.0
 10
26.66273952536141
 20
-3.103176916075309
 30
0.0
 10
25.90427490618691
 20
-3.330020249094814
 30
0.0
 10
25.39999999999985
 20
-3.480839941385902
 30
0.0
  0
SPLINE
  5
BE
330
1F
100
AcDbEntity
  8
외형선
  6
Continuous
370
    15
100
AcDbSpline
210
0.0
220
0.0
230
1.0
 70
    24
 71
     3
 72
    12
 73
     8
 74
     0
 42
0.000000001
 43
0.00000001
 40
0.0
 40
0.0
 40
0.0
 40
0.0
 40
0.1116420800892906
 40
0.3642014443670266
 40
0.6096429872730953
 40
0.8622023515508322
 40
1.0
 40
1.0
 40
1.0
 40
1.0
 10
25.39999999999999
 20
-2.361896394468571
 30
0.0
 10
25.39999999999999
 20
-2.384139839044513
 30
0.0
 10
25.39999999999999
 20
-2.456702932062635
 30
0.0
 10
25.39999999999999
 20
-2.649217623238435
 30
0.0
 10
25.39999999999999
 20
-2.932101373442502
 30
0.0
 10
25.39999999999999
 20
-3.217601029350013
 30
0.0
 10
25.39999999999999
 20
-3.412159863875098
 30
0.0
 10
25.39999999999999
 20
-3.480839941364378
 30
0.0
  0
LINE
  5
BF
330
1F
100
AcDbEntity
  8
중심선
 48
0.8
100
AcDbLine
 10
-42.68749999999999
 20
-0.0000000000000052
 30
0.0
 11
42.6875
 21
0.0000000000000052
 31
0.0
  0
LINE
  5
C0
330
1F
100
AcDbEntity
  8
참조1
100
AcDbLine
 10
-16.47536934298443
 20
0.0010749287238892
 30
0.0
 11
-16.47536934298442
 21
-39.99892507127611
 31
0.0
  0
LINE
  5
C1
330
1F
100
AcDbEntity
  8
참조1
100
AcDbLine
 10
23.21213065701556
 20
0.0010749287238892
 30
0.0
 11
23.21213065701556
 21
0.6320484065631995
 31
0.0
  0
LINE
  5
C2
330
1F
100
AcDbEntity
  8
참조1
100
AcDbLine
 10
-16.47536934298442
 20
-39.99892507127611
 30
0.0
 11
-29.25297615729311
 21
-39.9989250712761
 31
0.0
  0
CIRCLE
  5
C3
330
1F
100
AcDbEntity
  8
해칭선
100
AcDbCircle
 10
0.0
 20
0.0
 30
0.0
 40
3.000000000000001
  0
INSERT
  5
C4
330
1F
100
AcDbEntity
  8
0
  6
Continuous
 62
     7
100
AcDbBlockReference
 66
     1
  2
블럭10
 10
-13.94027293212521
 20
-52.04717430164393
 30
0.0
  0
ATTRIB
  5
C5
330
C4
100
AcDbEntity
  8
FORMAT
 62
     2
100
AcDbText
 10
-23.12156822086649
 20
-49.97180738881175
 30
0.0
 40
4.233333333333333
  1
E1112020 [ 2 FLUTE ]
 41
0.75
  7
SLDTEXTSTYLE0
 11
-23.12156822086649
 21
-52.08847405547841
 31
0.0
100
AcDbAttribute
  2
AUTOATTR0
 70
     0
 74
     1
  0
SEQEND
  5
C6
330
C4
100
AcDbEntity
  8
0
  6
Continuous
 62
     7
  0
HATCH
  5
C7
330
1F
100
AcDbEntity
  8
중심선
100
AcDbHatch
 10
0.0
 20
0.0
 30
0.0
210
0.0
220
0.0
230
1.0
  2
SOLID
 70
     1
 71
     0
 91
        1
 92
        0
 93
        4
 72
     1
 10
-8.22536362774435
 20
-35.8
 11
-11.67163887158163
 21
-35.8
 72
     1
 10
-11.67163887158163
 20
-35.8
 11
-13.79986873078568
 21
-38.3363255805726
 72
     1
 10
-13.79986873078568
 20
-38.3363255805726
 11
-10.35356040183522
 21
-38.33628615127011
 72
     1
 10
-10.35356040183522
 20
-38.33628615127011
 11
-8.22536362774435
 21
-35.8
 97
        0
 75
     0
 76
     1
 98
        1
 10
16.47536934298443
 20
-0.001074928723894
  0
HATCH
  5
C8
330
1F
100
AcDbEntity
  8
중심선
100
AcDbHatch
 10
0.0
 20
0.0
 30
0.0
210
0.0
220
0.0
230
1.0
  2
SOLID
 70
     1
 71
     0
 91
        1
 92
        0
 93
        4
 72
     1
 10
-3.212599636708344
 20
-35.8
 11
-6.658874880545625
 21
-35.8
 72
     1
 10
-6.658874880545625
 20
-35.8
 11
-11.19001288890307
 21
-41.20000000000002
 72
     1
 10
-11.19001288890307
 20
-41.20000000000002
 11
-7.743737645065785
 21
-41.20000000000002
 72
     1
 10
-7.743737645065785
 20
-41.20000000000002
 11
-3.212599636708344
 21
-35.8
 97
        0
 75
     0
 76
     1
 98
        1
 10
16.47536934298443
 20
-0.001074928723894
  0
HATCH
  5
C9
330
1F
100
AcDbEntity
  8
중심선
100
AcDbHatch
 10
0.0
 20
0.0
 30
0.0
210
0.0
220
0.0
230
1.0
  2
SOLID
 70
     1
 71
     0
 91
        1
 92
        0
 93
        4
 72
     1
 10
1.800164354327469
 20
-35.8
 11
-1.646110889509618
 21
-35.8
 72
     1
 10
-1.646110889509618
 20
-35.8
 11
-8.694547791398868
 21
-44.20000000000002
 72
     1
 10
-8.694547791398868
 20
-44.20000000000002
 11
-5.248272547561584
 21
-44.20000000000002
 72
     1
 10
-5.248272547561584
 20
-44.20000000000002
 11
1.800164354327469
 21
-35.8
 97
        0
 75
     0
 76
     1
 98
        1
 10
16.47536934298443
 20
-0.001074928723894
  0
HATCH
  5
CA
330
1F
100
AcDbEntity
  8
중심선
100
AcDbHatch
 10
0.0
 20
0.0
 30
0.0
210
0.0
220
0.0
230
1.0
  2
SOLID
 70
     1
 71
     0
 91
        1
 92
        0
 93
        6
 72
     3
 10
6.600054785339697
 20
-40.00000000005127
 11
3.960054785062283
 21
1.540882976769353E-10
 40
0.3939339440162628
 50
17.09539180608437
 51
320.0019657685082
 73
     0
 72
     1
 10
8.283054441040264
 20
-38.58789400463833
 11
10.58835631474133
 21
-36.65356729459038
 72
     3
 10
6.600054785286851
 20
-40.00000000000015
 11
6.600054785286829
 21
-1.278976924368180E-13
 40
0.636358354079598
 50
39.99873849337411
 51
368.4976242363725
 73
     1
 72
     1
 10
13.02538727718746
 20
-39.03999999993002
 11
5.280122092122771
 21
-39.03999999993
 72
     1
 10
5.280122092122772
 20
-39.03999999993
 11
5.28009704767684
 21
-40.95999999992991
 72
     1
 10
5.28009704767684
 20
-40.95999999992991
 11
9.721476817148876
 21
-40.95999999992988
 97
        0
 75
     0
 76
     1
 98
        1
 10
16.47536934298443
 20
-0.001074928723894
  0
DIMENSION
  5
CB
330
1F
100
AcDbEntity
  8
0
  6
Continuous
370
    15
100
AcDbDimension
  2
_D
 10
25.4
 20
12.99892507127612
 30
0.0
 11
1.36646827199381
 21
12.99892507127612
 31
0.0
 70
   160
  1
<>
 71
     2
 42
14.28749999999999
  3
SLDDIMSTYLE0
100
AcDbAlignedDimension
 13
39.68749999999999
 23
3.968750000000004
 33
0.0
 14
25.4
 24
3.480839941364388
 34
0.0
 50
0.0000000000000071
100
AcDbRotatedDimension
1001
ACAD
1000
DSTYLE
1002
{
1070
   171
1070
     6
1070
   273
1070
     7
1002
}
  0
DIMENSION
  5
E0
330
1F
100
AcDbEntity
  8
0
  6
Continuous
370
    15
100
AcDbDimension
  2
_D_1
 10
-39.68749999999999
 20
29.28797898817498
 30
0.0
 11
0.347394586978794
 21
29.28797898817498
 31
0.0
 70
   160
  1
<>
 71
     2
 42
79.37499999999999
  3
SLDDIMSTYLE0
100
AcDbAlignedDimension
 13
39.68749999999999
 23
3.968750000000004
 33
0.0
 14
-39.68749999999999
 24
4.762500000000003
 34
0.0
 50
0.0000000000000051
100
AcDbRotatedDimension
1001
ACAD
1000
DSTYLE
1002
{
1070
   171
1070
     6
1070
   273
1070
     7
1002
}
  0
DIMENSION
  5
F3
330
1F
100
AcDbEntity
  8
0
  6
Continuous
370
    15
100
AcDbDimension
  2
_D_2
 10
-52.30749999999996
 20
-4.762500000000119
 30
0.0
 11
-52.30749999999998
 21
0.0000000000000061
 31
0.0
 70
   160
  1
%%c<>
 71
     2
 42
9.525
 52
-270.0
  3
SLDDIMSTYLE0
100
AcDbAlignedDimension
 13
-21.43768467149219
 23
4.762499999999997
 33
0.0
 14
-21.43768467149219
 24
-4.762500000000004
 34
0.0
 50
90.0000000000002
100
AcDbRotatedDimension
1001
ACAD
1000
DSTYLE
1002
{
1070
   171
1070
     6
1070
   273
1070
     7
1002
}
  0
DIMENSION
  5
108
330
1F
100
AcDbEntity
  8
0
  6
Continuous
370
    15
100
AcDbDimension
  2
_D_3
 10
48.50949897076821
 20
-3.968749999999964
 30
0.0
 11
48.50949897076811
 21
24.57275000000005
 31
0.0
 70
   160
  1
%%c<>
 71
     2
 42
7.937500000000011
 52
-270.0
  3
SLDDIMSTYLE0
100
AcDbAlignedDimension
 13
39.68749999999999
 23
3.968750000000015
 33
0.0
 14
39.68749999999999
 24
-3.968749999999995
 34
0.0
 50
90.0000000000002
100
AcDbRotatedDimension
1001
ACAD
1000
DSTYLE
1002
{
1070
   171
1070
     6
1070
   273
1070
     7
1002
}
  0
LINE
  5
11B
330
1F
100
AcDbEntity
  8
참조1
100
AcDbLine
 10
68.71936447236115
 20
7.441074928723896
 30
0.0
 11
68.71936447236115
 21
-7.438925071276109
 31
0.0
  0
LINE
  5
11C
330
1F
100
AcDbEntity
  8
참조1
100
AcDbLine
 10
81.41936447236115
 20
5.441074928723896
 30
0.0
 11
68.71936447236115
 21
5.441074928723896
 31
0.0
  0
SOLID
  5
11D
330
1F
100
AcDbEntity
  8
참조1
100
AcDbTrace
 10
68.71936447236115
 20
5.441074928723896
 30
0.0
 11
75.06936447236114
 21
4.425074928723896
 31
0.0
 12
75.06936447236114
 22
6.457074928723896
 32
0.0
 13
75.06936447236114
 23
6.457074928723896
 33
0.0
  0
LINE
  5
11E
330
1F
100
AcDbEntity
  8
참조1
100
AcDbLine
 10
81.41936447236115
 20
-5.438925071276109
 30
0.0
 11
68.71936447236115
 21
-5.438925071276109
 31
0.0
  0
SOLID
  5
11F
330
1F
100
AcDbEntity
  8
참조1
100
AcDbTrace
 10
68.71936447236115
 20
-5.438925071276109
 30
0.0
 11
75.06936447236114
 21
-6.454925071276109
 31
0.0
 12
75.06936447236114
 22
-4.422925071276109
 32
0.0
 13
75.06936447236114
 23
-4.422925071276109
 33
0.0
  0
MTEXT
  5
120
330
1F
100
AcDbEntity
  8
참조1
100
AcDbMText
 10
78.11685456483143
 20
10.98929157337383
 30
0.0
 40
3.5
 41
0.0
 71
     1
 72
     1
  1
A
  7
SLDTEXTSTYLE0
 73
     1
 44
1.0
  0
MTEXT
  5
121
330
1F
100
AcDbEntity
  8
참조1
100
AcDbMText
 10
78.11685456483143
 20
0.1092915733738251
 30
0.0
 40
3.5
 41
0.0
 71
     1
 72
     1
  1
A
  7
SLDTEXTSTYLE0
 73
     1
 44
1.0
  0
INSERT
  5
128
330
1F
100
AcDbEntity
  8
해칭선
100
AcDbBlockReference
  2
SW_DOWELSYMBOL_0
 10
0.0
 20
0.0
 30
0.0
  0
LINE
  5
262
330
1F
100
AcDbEntity
  8
외형선
  6
Continuous
370
    15
100
AcDbLine
 10
-3.568700000000057
 20
3.492500000000022
 30
0.0
 11
3.568700000000014
 21
3.492500000000022
 31
0.0
  0
LINE
  5
263
330
1F
100
AcDbEntity
  8
외형선
  6
Continuous
370
    15
100
AcDbLine
 10
3.568700000000014
 20
3.492500000000022
 30
0.0
 11
4.838699999999996
 21
4.762500000000004
 31
0.0
  0
LINE
  5
264
330
1F
100
AcDbEntity
  8
외형선
  6
Continuous
370
    15
100
AcDbLine
 10
-3.568700000000057
 20
3.492500000000022
 30
0.0
 11
-4.838700000000038
 21
4.762500000000004
 31
0.0
  0
LINE
  5
48F
330
1F
100
AcDbEntity
  8
외형선
  6
Continuous
370
    15
100
AcDbLine
 10
-21.43768467149219
 20
4.762499999999997
 30
0.0
 11
-23.87997203163182
 21
4.108091074165849
 31
0.0
  0
LINE
  5
490
330
1F
100
AcDbEntity
  8
외형선
  6
Continuous
370
    15
100
AcDbLine
 10
-23.87997203163182
 20
-4.108091074165848
 30
0.0
 11
-21.43768467149219
 21
-4.762500000000002
 31
0.0
  0
LINE
  5
491
330
1F
100
AcDbEntity
  8
0
  6
Continuous
 62
     1
370
    15
100
AcDbLine
 10
-34.92544779951931
 20
3.968750000000001
 30
0.0
 11
-35.71874999999998
 21
3.968750000000001
 31
0.0
  0
ARC
  5
492
330
1F
100
AcDbEntity
  8
0
  6
Continuous
 62
     1
370
    15
100
AcDbCircle
 10
-35.71874999999998
 20
0.0000000000000011
 30
0.0
 40
3.968750000000007
100
AcDbArc
 50
90.00000000000082
 51
180.0
  0
ARC
  5
493
330
1F
100
AcDbEntity
  8
0
  6
Continuous
 62
     1
370
    15
100
AcDbCircle
 10
-35.71874999999998
 20
0.0000000000000011
 30
0.0
 40
3.968750000000007
100
AcDbArc
 50
180.0
 51
270.0
  0
LINE
  5
494
330
1F
100
AcDbEntity
  8
0
  6
Continuous
 62
     1
370
    15
100
AcDbLine
 10
-35.71874999999998
 20
-3.968749999999999
 30
0.0
 11
-34.92544779951931
 21
-3.968749999999999
 31
0.0
  0
LINE
  5
495
330
1F
100
AcDbEntity
  8
외형선
  6
Continuous
370
    15
100
AcDbLine
 10
-21.43768467149219
 20
-4.762499999999995
 30
0.0
 11
-21.43768467149219
 21
4.762500000000004
 31
0.0
  0
LINE
  5
496
330
1F
100
AcDbEntity
  8
외형선
  6
Continuous
370
    15
100
AcDbLine
 10
-23.87997203163182
 20
-3.948696175070729
 30
0.0
 11
-23.87997203163182
 21
-4.108091074165848
 31
0.0
  0
SPLINE
  5
497
330
1F
100
AcDbEntity
  8
외형선
  6
Continuous
370
    15
100
AcDbSpline
210
0.0
220
0.0
230
1.0
 70
     8
 71
     3
 72
     8
 73
     4
 74
     0
 42
0.000000001
 43
0.00000001
 40
0.0
 40
0.0
 40
0.0
 40
0.0
 40
1.0
 40
1.0
 40
1.0
 40
1.0
 10
-24.39999999999998
 20
-3.720676366732504
 30
0.0
 10
-24.2254359401639
 20
-3.799386127628593
 30
0.0
 10
-24.05215287281991
 20
-3.875553623091597
 30
0.0
 10
-23.87997203163182
 20
-3.94872395018001
 30
0.0
  0
LINE
  5
498
330
1F
100
AcDbEntity
  8
외형선
  6
Continuous
370
    15
100
AcDbLine
 10
-24.39999999999998
 20
-3.720676366732504
 30
0.0
 11
-24.39999999999998
 21
0.1570135117496332
 31
0.0
  0
SPLINE
  5
499
330
1F
100
AcDbEntity
  8
외형선
  6
Continuous
370
    15
100
AcDbSpline
210
0.0
220
0.0
230
1.0
 70
     8
 71
     3
 72
     8
 73
     4
 74
     0
 42
0.000000001
 43
0.00000001
 40
0.0
 40
0.0
 40
0.0
 40
0.0
 40
1.0
 40
1.0
 40
1.0
 40
1.0
 10
-23.87999151437433
 20
-0.1519096532074069
 30
0.0
 10
-24.0532250350494
 20
-0.0469643202627583
 30
0.0
 10
-24.22655501278664
 20
0.0560146254529681
 30
0.0
 10
-24.39999999999998
 20
0.1570135117496332
 30
0.0
  0
LINE
  5
49A
330
1F
100
AcDbEntity
  8
외형선
  6
Continuous
370
    15
100
AcDbLine
 10
-23.87997203163182
 20
4.108091074165849
 30
0.0
 11
-23.87997203163182
 21
-0.1520055096939028
 31
0.0
  0
SPLINE
  5
49B
330
1F
100
AcDbEntity
  8
외형선
  6
Continuous
370
    15
100
AcDbSpline
210
0.0
220
0.0
230
1.0
 70
     8
 71
     3
 72
     8
 73
     4
 74
     0
 42
0.000000001
 43
0.00000001
 40
0.0
 40
0.0
 40
0.0
 40
0.0
 40
1.0
 40
1.0
 40
1.0
 40
1.0
 10
-24.39999999999998
 20
3.720676366732513
 30
0.0
 10
-24.2254359401639
 20
3.799386127628602
 30
0.0
 10
-24.05215287281991
 20
3.875553623091606
 30
0.0
 10
-23.87997203163182
 20
3.948723950180004
 30
0.0
  0
SPLINE
  5
49C
330
1F
100
AcDbEntity
  8
외형선
  6
Continuous
370
    15
100
AcDbSpline
210
0.0
220
0.0
230
1.0
 70
    24
 71
     3
 72
    14
 73
    10
 74
     0
 42
0.000000001
 43
0.00000001
 40
0.0
 40
0.0
 40
0.0
 40
0.0
 40
0.0784904667497519
 40
0.2503630861435987
 40
0.4173918597861918
 40
0.5892644791797531
 40
0.7562932528223449
 40
0.928165872215905
 40
1.0
 40
1.0
 40
1.0
 40
1.0
 10
-25.39999999999998
 20
0.7979540424436717
 30
0.0
 10
-25.39999999999998
 20
0.8120976780681926
 30
0.0
 10
-25.39999999999998
 20
0.8572120010029007
 30
0.0
 10
-25.39999999999998
 20
1.002245311575885
 30
0.0
 10
-25.39999999999998
 20
1.22640916659588
 30
0.0
 10
-25.39999999999998
 20
1.505558421288435
 30
0.0
 10
-25.39999999999998
 20
1.832476143998116
 30
0.0
 10
-25.39999999999998
 20
2.124638658274955
 30
0.0
 10
-25.39999999999998
 20
2.307883732743655
 30
0.0
 10
-25.39999999999998
 20
2.361896394467764
 30
0.0
  0
SPLINE
  5
49D
330
1F
100
AcDbEntity
  8
외형선
  6
Continuous
370
    15
100
AcDbSpline
210
0.0
220
0.0
230
1.0
 70
     8
 71
     3
 72
     8
 73
     4
 74
     0
 42
0.000000001
 43
0.00000001
 40
0.0
 40
0.0
 40
0.0
 40
0.0
 40
1.0
 40
1.0
 40
1.0
 40
1.0
 10
-25.39999999999998
 20
2.361896394468581
 30
0.0
 10
-24.89153114268166
 20
2.264928045388303
 30
0.0
 10
-24.38866037735588
 20
2.149032940786761
 30
0.0
 10
-23.87997203163182
 20
2.016163325820593
 30
0.0
  0
SPLINE
  5
49E
330
1F
100
AcDbEntity
  8
외형선
  6
Continuous
370
    15
100
AcDbSpline
210
0.0
220
0.0
230
1.0
 70
     8
 71
     3
 72
     8
 73
     4
 74
     0
 42
0.000000001
 43
0.00000001
 40
0.0
 40
0.0
 40
0.0
 40
0.0
 40
1.0
 40
1.0
 40
1.0
 40
1.0
 10
-24.39999999999998
 20
0.1570135117496332
 30
0.0
 10
-24.73384757955856
 20
0.3496366341613151
 30
0.0
 10
-25.06500900818538
 20
0.5411909355160003
 30
0.0
 10
-25.40000000000001
 20
0.730883804717281
 30
0.0
  0
SPLINE
  5
49F
330
1F
100
AcDbEntity
  8
외형선
  6
Continuous
370
    15
100
AcDbSpline
210
0.0
220
0.0
230
1.0
 70
     8
 71
     3
 72
     8
 73
     4
 74
     0
 42
0.000000001
 43
0.00000001
 40
0.0
 40
0.0
 40
0.0
 40
0.0
 40
1.0
 40
1.0
 40
1.0
 40
1.0
 10
-25.39999999999998
 20
-3.480839941385859
 30
0.0
 10
-25.06500900818538
 20
-3.573549735559367
 30
0.0
 10
-24.73384757955856
 20
-3.653590336536666
 30
0.0
 10
-24.39999999999998
 20
-3.720676366732504
 30
0.0
  0
LINE
  5
4A0
330
1F
100
AcDbEntity
  8
외형선
  6
Continuous
370
    15
100
AcDbLine
 10
-25.39999999999998
 20
-3.480839941385859
 30
0.0
 11
-25.39999999999998
 21
0.7308838047172384
 31
0.0
  0
SPLINE
  5
4A1
330
1F
100
AcDbEntity
  8
외형선
  6
Continuous
370
    15
100
AcDbSpline
210
0.0
220
0.0
230
1.0
 70
     8
 71
     3
 72
     8
 73
     4
 74
     0
 42
0.000000001
 43
0.00000001
 40
0.0
 40
0.0
 40
0.0
 40
0.0
 40
1.0
 40
1.0
 40
1.0
 40
1.0
 10
-25.39999999999998
 20
3.48083994138586
 30
0.0
 10
-25.06500900818538
 20
3.573549735559376
 30
0.0
 10
-24.73384757955856
 20
3.653590336536674
 30
0.0
 10
-24.39999999999998
 20
3.720676366732513
 30
0.0
  0
SPLINE
  5
4A2
330
1F
100
AcDbEntity
  8
외형선
  6
Continuous
370
    15
100
AcDbSpline
210
0.0
220
0.0
230
1.0
 70
    24
 71
     3
 72
    13
 73
     9
 74
     0
 42
0.000000001
 43
0.00000001
 40
0.0
 40
0.0
 40
0.0
 40
0.0
 40
0.111637896785897
 40
0.3641877974953739
 40
0.6096201435427092
 40
0.8621700442521855
 40
0.9310100501944208
 40
1.0
 40
1.0
 40
1.0
 40
1.0
 10
-25.39999999999998
 20
2.361896394468581
 30
0.0
 10
-25.39999999999998
 20
2.384137316771679
 30
0.0
 10
-25.39999999999998
 20
2.456692181571442
 30
0.0
 10
-25.39999999999998
 20
2.64932789468535
 30
0.0
 10
-25.39999999999998
 20
2.931706183331671
 30
0.0
 10
-25.39999999999998
 20
3.187689823627147
 30
0.0
 10
-25.39999999999998
 20
3.376866405262903
 30
0.0
 10
-25.39999999999998
 20
3.446156969154289
 30
0.0
 10
-25.39999999999998
 20
3.480839941364004
 30
0.0
  0
SPLINE
  5
4A3
330
1F
100
AcDbEntity
  8
0
  6
Continuous
 62
     1
370
    15
100
AcDbSpline
210
0.0
220
0.0
230
1.0
 70
     8
 71
     3
 72
    30
 73
    26
 74
     0
 42
0.000000001
 43
0.00000001
 40
0.0
 40
0.0
 40
0.0
 40
0.0
 40
0.0625
 40
0.0625
 40
0.1249999999999999
 40
0.1249999999999999
 40
0.2500000000000002
 40
0.2500000000000002
 40
0.3750000000000005
 40
0.3750000000000005
 40
0.4375000000000005
 40
0.4375000000000005
 40
0.5000000000000006
 40
0.5000000000000006
 40
0.5625000000000006
 40
0.5625000000000006
 40
0.6250000000000004
 40
0.6250000000000004
 40
0.7500000000000003
 40
0.7500000000000003
 40
0.8750000000000001
 40
0.8750000000000001
 40
0.9375
 40
0.9375
 40
1.0
 40
1.0
 40
1.0
 40
1.0
 10
-35.71874999999995
 20
1.659073067473778
 30
0.0
 10
-35.50313074542681
 20
1.546219057619127
 30
0.0
 10
-35.28710594726775
 20
1.430851094141297
 30
0.0
 10
-34.85709385187588
 20
1.196621580151907
 30
0.0
 10
-34.64422260112719
 20
1.077973652831973
 30
0.0
 10
-34.00018230198621
 20
0.7168216771741929
 30
0.0
 10
-33.56592892826166
 20
0.469491715081632
 30
0.0
 10
-32.71036291860634
 20
-0.0253204521714128
 30
0.0
 10
-32.27853106437303
 20
-0.2748067640600051
 30
0.0
 10
-31.63268218127534
 20
-0.6440781546493948
 30
0.0
 10
-31.41937882249167
 20
-0.7660276343218786
 30
0.0
 10
-30.99082768734844
 20
-1.007700167476556
 30
0.0
 10
-30.77511381215877
 20
-1.127505519365924
 30
0.0
 10
-30.34364444408479
 20
-1.363455018591735
 30
0.0
 10
-30.12789312973317
 20
-1.479596879036285
 30
0.0
 10
-29.69919387316995
 20
-1.7067114049862
 30
0.0
 10
-29.48599609901041
 20
-1.817739847212514
 30
0.0
 10
-28.84027584785682
 20
-2.143394847191799
 30
0.0
 10
-28.40807722365745
 20
-2.349394475204895
 30
0.0
 10
-27.55285173480858
 20
-2.730164887322018
 30
0.0
 10
-27.11862156745335
 20
-2.906543754183502
 30
0.0
 10
-26.47439251989088
 20
-3.143071583441979
 30
0.0
 10
-26.26155102497317
 20
-3.217205835243134
 30
0.0
 10
-25.8316471857078
 20
-3.356321043022787
 30
0.0
 10
-25.61563951075733
 20
-3.42116103912734
 30
0.0
 10
-25.39999999999984
 20
-3.480839941385901
 30
0.0
  0
SPLINE
  5
4A4
330
1F
100
AcDbEntity
  8
0
  6
Continuous
 62
     1
370
    15
100
AcDbSpline
210
0.0
220
0.0
230
1.0
 70
     8
 71
     3
 72
    16
 73
    12
 74
     0
 42
0.000000001
 43
0.00000001
 40
0.0
 40
0.0
 40
0.0
 40
0.0
 40
0.1319101650080303
 40
0.2638184729032141
 40
0.3840859305648847
 40
0.5045161608048743
 40
0.624884151628014
 40
0.7451181296484652
 40
0.8653256142774077
 40
0.9856144453082328
 40
0.9999999999999999
 40
0.9999999999999999
 40
0.9999999999999999
 40
0.9999999999999999
 10
-38.62503814381763
 20
-0.4158643780731655
 30
0.0
 10
-38.14358588328557
 20
-0.601190016795125
 30
0.0
 10
-37.18068814040399
 20
-0.9718386851101417
 30
0.0
 10
-35.77879599478539
 20
-1.465166990503681
 30
0.0
 10
-34.41895028023223
 20
-1.88635909378621
 30
0.0
 10
-33.10089220640098
 20
-2.22475443338699
 30
0.0
 10
-31.78309330179113
 20
-2.481375633350246
 30
0.0
 10
-30.46628835923338
 20
-2.649524494559855
 30
0.0
 10
-29.14977376054305
 20
-2.711802092442936
 30
0.0
 10
-28.21955046392524
 20
-2.708972028179047
 30
0.0
 10
-27.72794281187411
 20
-2.661054973208365
 30
0.0
 10
-27.67543060825404
 20
-2.655936602619554
 30
0.0
  0
SPLINE
  5
4A5
330
1F
100
AcDbEntity
  8
0
  6
Continuous
 62
     1
370
    15
100
AcDbSpline
210
0.0
220
0.0
230
1.0
 70
     8
 71
     3
 72
    26
 73
    22
 74
     0
 42
0.000000001
 43
0.00000001
 40
0.0
 40
0.0
 40
0.0
 40
0.0
 40
0.125
 40
0.125
 40
0.2499999999999999
 40
0.2499999999999999
 40
0.3749999999999999
 40
0.3749999999999999
 40
0.4374999999999999
 40
0.4374999999999999
 40
0.5
 40
0.5
 40
0.625
 40
0.625
 40
0.6875
 40
0.6875
 40
0.7499999999999999
 40
0.7499999999999999
 40
0.8749999999999999
 40
0.8749999999999999
 40
1.0
 40
1.0
 40
1.0
 40
1.0
 10
-35.71874999999998
 20
1.659073067473693
 30
0.0
 10
-35.9392652782124
 20
1.7744896309422
 30
0.0
 10
-36.15618797822987
 20
1.877993095611268
 30
0.0
 10
-36.58837732894708
 20
2.053441121231018
 30
0.0
 10
-36.80652204919821
 20
2.125106972347532
 30
0.0
 10
-37.23754685574725
 20
2.216996836835137
 30
0.0
 10
-37.44881563132919
 20
2.237829772358951
 30
0.0
 10
-37.76629680050431
 20
2.214278041574581
 30
0.0
 10
-37.87027716035164
 20
2.197201925418157
 30
0.0
 10
-38.07433982385874
 20
2.141271258171117
 30
0.0
 10
-38.17571373532449
 20
2.101792844797395
 30
0.0
 10
-38.46769476768876
 20
1.944209469399689
 30
0.0
 10
-38.6486858529319
 20
1.784692620232726
 30
0.0
 10
-38.85504453018326
 20
1.467034839754697
 30
0.0
 10
-38.91033602889818
 20
1.352586625849903
 30
0.0
 10
-38.99211933364607
 20
1.110712972056114
 30
0.0
 10
-39.01716489465375
 20
0.9872511332561242
 30
0.0
 10
-39.0485096154944
 20
0.6191333655831752
 30
0.0
 10
-39.01080401554021
 20
0.3877857524727528
 30
0.0
 10
-38.86498834399354
 20
-0.035913842705251
 30
0.0
 10
-38.75701703684374
 20
-0.2304254986060126
 30
0.0
 10
-38.62503814381737
 20
-0.4158643780732649
 30
0.0
  0
SPLINE
  5
4A6
330
1F
100
AcDbEntity
  8
0
  6
Continuous
 62
     1
370
    15
100
AcDbSpline
210
0.0
220
0.0
230
1.0
 70
     8
 71
     3
 72
    15
 73
    11
 74
     0
 42
0.000000001
 43
0.00000001
 40
0.0
 40
0.0
 40
0.0
 40
0.0
 40
0.1468624960400203
 40
0.2952577149494395
 40
0.4152432002997946
 40
0.5360644484550281
 40
0.6560028190080792
 40
0.776771833596843
 40
0.9291666821617816
 40
0.9999999999999999
 40
0.9999999999999999
 40
0.9999999999999999
 40
0.9999999999999999
 10
-25.39999999999998
 20
0.7308838047176576
 30
0.0
 10
-25.86628858476278
 20
0.9926424354880024
 30
0.0
 10
-26.80373215106679
 20
1.518891527485509
 30
0.0
 10
-28.12223168841752
 20
2.191962881741454
 30
0.0
 10
-29.35845733374561
 20
2.749315497842439
 30
0.0
 10
-30.50336188098593
 20
3.190194389031277
 30
0.0
 10
-31.65085678418348
 20
3.54489959298713
 30
0.0
 10
-32.89951124324396
 20
3.815288306156838
 30
0.0
 10
-33.99172988197788
 20
3.96678332446782
 30
0.0
 10
-34.70053450223703
 20
3.951221850157929
 30
0.0
 10
-34.92544779951931
 20
3.946283983787461
 30
0.0
  0
SPLINE
  5
4A7
330
1F
100
AcDbEntity
  8
0
  6
Continuous
 62
     1
370
    15
100
AcDbSpline
210
0.0
220
0.0
230
1.0
 70
     8
 71
     3
 72
    11
 73
     7
 74
     0
 42
0.000000001
 43
0.00000001
 40
0.0
 40
0.0
 40
0.0
 40
0.0
 40
0.0296643653532187
 40
0.3704756446322526
 40
0.6855320875264885
 40
1.0
 40
1.0
 40
1.0
 40
1.0
 10
-29.26470154536353
 20
2.694751077818204
 30
0.0
 10
-29.22649039788318
 20
2.696855016376532
 30
0.0
 10
-28.7492747444766
 20
2.723130919615394
 30
0.0
 10
-27.86620415695277
 20
2.680849095834788
 30
0.0
 10
-26.61592395214004
 20
2.574436761675693
 30
0.0
 10
-25.80505529545324
 20
2.43269901422395
 30
0.0
 10
-25.39999999999998
 20
2.361896394468581
 30
0.0
  0
SPLINE
  5
4A8
330
1F
100
AcDbEntity
  8
외형선
  6
Continuous
370
    15
100
AcDbSpline
210
0.0
220
0.0
230
1.0
 70
    24
 71
     3
 72
    14
 73
    10
 74
     0
 42
0.000000001
 43
0.00000001
 40
0.0
 40
0.0
 40
0.0
 40
0.0
 40
0.081462314034902
 40
0.2508109672407938
 40
0.4201596204464447
 40
0.5895082736520956
 40
0.7588569268577451
 40
0.9282055800633944
 40
1.0
 40
1.0
 40
1.0
 40
1.0
 10
-25.39999999999998
 20
0.7979640424436749
 30
0.0
 10
-25.39999999999998
 20
0.8127297232533348
 30
0.0
 10
-25.39999999999998
 20
0.8581911704232976
 30
0.0
 10
-25.39999999999998
 20
1.003905430563479
 30
0.0
 10
-25.39999999999998
 20
1.228036086281713
 30
0.0
 10
-25.39999999999998
 20
1.508277215626373
 30
0.0
 10
-25.39999999999998
 20
1.834415433257072
 30
0.0
 10
-25.39999999999998
 20
2.126441608480939
 30
0.0
 10
-25.39999999999998
 20
2.307878131539575
 30
0.0
 10
-25.39999999999998
 20
2.361896394467771
 30
0.0
  0
SPLINE
  5
4A9
330
1F
100
AcDbEntity
  8
0
  6
Continuous
 62
     1
370
    15
100
AcDbSpline
210
0.0
220
0.0
230
1.0
 70
     8
 71
     3
 72
    12
 73
     8
 74
     0
 42
0.000000001
 43
0.00000001
 40
0.0
 40
0.0
 40
0.0
 40
0.0
 40
0.2500000000000001
 40
0.2500000000000001
 40
0.5000000000000002
 40
0.5000000000000002
 40
1.0
 40
1.0
 40
1.0
 40
1.0
 10
-38.62503814381737
 20
-0.4158643780732685
 30
0.0
 10
-38.67067916904447
 20
-0.4433889472208807
 30
0.0
 10
-38.7113378954239
 20
-0.4775010744369357
 30
0.0
 10
-38.78265500627894
 20
-0.5592884231993149
 30
0.0
 10
-38.81354723441678
 20
-0.6077395960246139
 30
0.0
 10
-38.88663169550043
 20
-0.766969410814325
 30
0.0
 10
-38.91075743073001
 20
-0.8948635884428018
 30
0.0
 10
-38.91298481941954
 20
-1.027868668048625
 30
0.0
  0
ARC
  5
4AA
330
1F
100
AcDbEntity
  8
0
  6
Continuous
 62
     1
370
    15
100
AcDbCircle
 10
-37.78871241816987
 20
0.6899008203442787
 30
0.0
 40
2.052978433268475
100
AcDbArc
 50
203.8412628004451
 51
236.7954334339948
  0
ARC
  5
4AB
330
1F
100
AcDbEntity
  8
0
  6
Continuous
 62
     1
370
    15
100
AcDbCircle
 10
-36.11877364579411
 20
-0.074090722831875
 30
0.0
 40
3.548344826896846
100
AcDbArc
 50
181.0630430349881
 51
251.1636497674111
  0
SPLINE
  5
4AC
330
1F
100
AcDbEntity
  8
0
  6
Continuous
 62
     1
370
    15
100
AcDbSpline
210
0.0
220
0.0
230
1.0
 70
     8
 71
     3
 72
    10
 73
     6
 74
     0
 42
0.000000001
 43
0.00000001
 40
0.0
 40
0.0
 40
0.0
 40
0.0
 40
0.5
 40
0.5
 40
1.0
 40
1.0
 40
1.0
 40
1.0
 10
-37.26441430673083
 20
-3.432402573535142
 30
0.0
 10
-37.01868204059947
 20
-3.582108636503192
 30
0.0
 10
-36.76564571585451
 20
-3.699744624892481
 30
0.0
 10
-36.25028685606026
 20
-3.870976530496399
 30
0.0
 10
-35.98498566166672
 20
-3.92468327456445
 30
0.0
 10
-35.71874999999998
 20
-3.942347382307388
 30
0.0
  0
SPLINE
  5
4AD
330
1F
100
AcDbEntity
  8
0
  6
Continuous
 62
     1
370
    15
100
AcDbSpline
210
0.0
220
0.0
230
1.0
 70
     8
 71
     3
 72
     8
 73
     4
 74
     0
 42
0.000000001
 43
0.00000001
 40
0.0
 40
0.0
 40
0.0
 40
0.0
 40
1.0
 40
1.0
 40
1.0
 40
1.0
 10
-36.45898851023995
 20
-1.776614183794961
 30
0.0
 10
-37.26577921958333
 20
-1.552404283824535
 30
0.0
 10
-38.08836190426556
 20
-1.299740101918835
 30
0.0
 10
-38.91298481941957
 20
-1.027868668048653
 30
0.0
  0
SPLINE
  5
4AE
330
1F
100
AcDbEntity
  8
0
  6
Continuous
 62
     1
370
    15
100
AcDbSpline
210
0.0
220
0.0
230
1.0
 70
     8
 71
     3
 72
    13
 73
     9
 74
     0
 42
0.000000001
 43
0.00000001
 40
0.0
 40
0.0
 40
0.0
 40
0.0
 40
0.014088335123965
 40
0.1924004052867218
 40
0.369409494927847
 40
0.547644477032738
 40
0.7725539308304721
 40
1.0
 40
1.0
 40
1.0
 40
1.0
 10
-29.26470154536353
 20
-2.694751077818196
 30
0.0
 10
-29.29501761337418
 20
-2.708420355146287
 30
0.0
 10
-29.70903557366714
 20
-2.895097806723036
 30
0.0
 10
-30.50332957423078
 20
-3.185710900904708
 30
0.0
 10
-31.65086564479638
 20
-3.545381443984737
 30
0.0
 10
-32.89950720561487
 20
-3.81807467376933
 30
0.0
 10
-34.25615745846233
 20
-3.987936822068398
 30
0.0
 10
-35.22939997755621
 20
-3.957600566455858
 30
0.0
 10
-35.71874999999989
 20
-3.942347382307395
 30
0.0
  0
SPLINE
  5
4AF
330
1F
100
AcDbEntity
  8
0
  6
Continuous
 62
     1
370
    15
100
AcDbSpline
210
0.0
220
0.0
230
1.0
 70
     8
 71
     3
 72
    18
 73
    14
 74
     0
 42
0.000000001
 43
0.00000001
 40
0.0
 40
0.0
 40
0.0
 40
0.0
 40
0.2499999999999999
 40
0.2499999999999999
 40
0.3749999999999999
 40
0.3749999999999999
 40
0.4999999999999999
 40
0.4999999999999999
 40
0.6249999999999999
 40
0.6249999999999999
 40
0.7499999999999998
 40
0.7499999999999998
 40
1.0
 40
1.0
 40
1.0
 40
1.0
 10
-37.26441430673086
 20
-3.432402573535149
 30
0.0
 10
-37.29262066322037
 20
-3.265806603795702
 30
0.0
 10
-37.30529750812273
 20
-3.096216777401351
 30
0.0
 10
-37.28680763983176
 20
-2.838614665299729
 30
0.0
 10
-37.27439918552987
 20
-2.754174599916225
 30
0.0
 10
-37.23491624258896
 20
-2.588646327622029
 30
0.0
 10
-37.2073423316858
 20
-2.506615082647321
 30
0.0
 10
-37.13731374385529
 20
-2.352677057147473
 30
0.0
 10
-37.09504645032181
 20
-2.280552182020144
 30
0.0
 10
-36.99576533166042
 20
-2.146151353902723
 30
0.0
 10
-36.93839874689358
 20
-2.083880909817615
 30
0.0
 10
-36.75333159638038
 20
-1.919601941672623
 30
0.0
 10
-36.60879906577239
 20
-1.836209140050747
 30
0.0
 10
-36.45898851023995
 20
-1.776614183794961
 30
0.0
  0
SPLINE
  5
4B0
330
1F
100
AcDbEntity
  8
0
  6
Continuous
 62
     1
370
    15
100
AcDbSpline
210
0.0
220
0.0
230
1.0
 70
     8
 71
     3
 72
     9
 73
     5
 74
     0
 42
0.000000001
 43
0.00000001
 40
0.0
 40
0.0
 40
0.0
 40
0.0
 40
0.3351372055615253
 40
1.0
 40
1.0
 40
1.0
 40
1.0
 10
-27.67543060825404
 20
2.655936602619556
 30
0.0
 10
-27.42123167034416
 20
2.76819987282255
 30
0.0
 10
-26.6627395253614
 20
3.103176916075314
 30
0.0
 10
-25.90427490618692
 20
3.330020249094823
 30
0.0
 10
-25.39999999999984
 20
3.480839941385903
 30
0.0
  0
SPLINE
  5
4B1
330
1F
100
AcDbEntity
  8
외형선
  6
Continuous
370
    15
100
AcDbSpline
210
0.0
220
0.0
230
1.0
 70
    24
 71
     3
 72
    12
 73
     8
 74
     0
 42
0.000000001
 43
0.00000001
 40
0.0
 40
0.0
 40
0.0
 40
0.0
 40
0.1116420800892906
 40
0.3642014443670266
 40
0.6096429872730953
 40
0.8622023515508322
 40
1.0
 40
1.0
 40
1.0
 40
1.0
 10
-25.39999999999998
 20
2.361896394468581
 30
0.0
 10
-25.39999999999998
 20
2.384139839044516
 30
0.0
 10
-25.39999999999998
 20
2.456702932062641
 30
0.0
 10
-25.39999999999998
 20
2.649217623238436
 30
0.0
 10
-25.39999999999998
 20
2.932101373442507
 30
0.0
 10
-25.39999999999998
 20
3.217601029350015
 30
0.0
 10
-25.39999999999998
 20
3.412159863875105
 30
0.0
 10
-25.39999999999998
 20
3.480839941364381
 30
0.0
  0
LINE
  5
4DF
330
1F
100
AcDbEntity
  8
외형선
  6
Continuous
370
    15
100
AcDbLine
 10
-4.838700000000028
 20
4.762499999999998
 30
0.0
 11
-21.43768467149219
 21
4.762499999999997
 31
0.0
  0
ENDSEC
  0
SECTION
  2
OBJECTS
  0
DICTIONARY
  5
C
330
0
100
AcDbDictionary
281
     1
  3
ACAD_GROUP
350
D
  3
ACAD_IMAGE_VARS
350
14C
  3
ACAD_LAYOUT
350
1A
  3
ACAD_MLINESTYLE
350
17
  3
ACAD_PLOTSETTINGS
350
19
  3
ACAD_PLOTSTYLENAME
350
E
  3
ACAD_SCALELIST
350
47
  3
APPDATA
350
14A
  3
DWGPROPS
350
4E0
  0
DICTIONARY
  5
201
330
2
100
AcDbDictionary
280
     1
281
     1
  3
ACAD_LAYERSTATES
360
202
  0
DICTIONARY
  5
D
102
{ACAD_REACTORS
330
C
102
}
330
C
100
AcDbDictionary
281
     1
  0
RASTERVARIABLES
  5
14C
102
{ACAD_REACTORS
330
C
102
}
330
C
100
AcDbRasterVariables
 90
        0
 70
     1
 71
     1
 72
     1
  0
DICTIONARY
  5
1A
102
{ACAD_REACTORS
330
C
102
}
330
C
100
AcDbDictionary
281
     1
  3
Layout1
350
1E
  3
Layout2
350
26
  3
Model
350
22
  0
DICTIONARY
  5
17
102
{ACAD_REACTORS
330
C
102
}
330
C
100
AcDbDictionary
281
     1
  3
Standard
350
18
  0
DICTIONARY
  5
19
102
{ACAD_REACTORS
330
C
102
}
330
C
100
AcDbDictionary
281
     1
  0
ACDBDICTIONARYWDFLT
  5
E
102
{ACAD_REACTORS
330
C
102
}
330
C
100
AcDbDictionary
281
     1
  3
Normal
350
F
100
AcDbDictionaryWithDefault
340
F
  0
DICTIONARY
  5
47
102
{ACAD_REACTORS
330
C
102
}
330
C
100
AcDbDictionary
281
     1
  3
A0
350
48
  3
A1
350
49
  3
A2
350
4A
  3
A3
350
4B
  3
A4
350
4C
  3
A5
350
4D
  3
A6
350
4E
  3
A7
350
4F
  3
A8
350
50
  3
A9
350
51
  3
B0
350
52
  3
B1
350
53
  3
B2
350
54
  3
B3
350
55
  3
B4
350
56
  3
B5
350
57
  3
B6
350
58
  3
B7
350
59
  3
B8
350
5A
  3
B9
350
5B
  3
C0
350
5C
  3
C1
350
5D
  3
C2
350
5E
  3
C3
350
5F
  3
C4
350
60
  3
C5
350
61
  3
C6
350
62
  3
C7
350
63
  3
C8
350
64
  3
C9
350
65
  3
D0
350
66
  3
D1
350
67
  3
D2
350
68
  0
DICTIONARY
  5
14A
102
{ACAD_REACTORS
330
C
102
}
330
C
100
AcDbDictionary
281
     1
  0
XRECORD
  5
4E0
102
{ACAD_REACTORS
330
C
102
}
330
C
100
AcDbXrecord
280
     1
  1
DWGPROPS COOKIE
  2

  3

  4

  6

  7

  8
12017012
  9

300
=
301
=
302
=
303
=
304
=
305
=
306
=
307
=
308
=
309
=
 40
0.0
 41
2458319.36825331
 42
2458323.241215694
  1

 90
        0
  0
DICTIONARY
  5
202
102
{ACAD_REACTORS
330
201
102
}
330
201
100
AcDbDictionary
281
     1
  0
LAYOUT
  5
1E
102
{ACAD_REACTORS
330
1A
102
}
330
1A
100
AcDbPlotSettings
  1

  2
none_device
  4

  6

 40
0.0
 41
0.0
 42
0.0
 43
0.0
 44
0.0
 45
0.0
 46
0.0
 47
0.0
 48
0.0
 49
0.0
140
0.0
141
0.0
142
1.0
143
1.0
 70
   688
 72
     1
 73
     0
 74
     5
  7

 75
    16
147
1.0
148
0.0
149
0.0
100
AcDbLayout
  1
Layout1
 70
     1
 71
     1
 10
0.0
 20
0.0
 11
420.0
 21
297.0
 12
0.0
 22
0.0
 32
0.0
 14
1.000000000000000E+20
 24
1.000000000000000E+20
 34
1.000000000000000E+20
 15
-1.000000000000000E+20
 25
-1.000000000000000E+20
 35
-1.000000000000000E+20
146
0.0
 13
0.0
 23
0.0
 33
0.0
 16
1.0
 26
0.0
 36
0.0
 17
0.0
 27
1.0
 37
0.0
 76
     0
330
1B
  0
LAYOUT
  5
26
102
{ACAD_REACTORS
330
1A
102
}
330
1A
100
AcDbPlotSettings
  1

  2
none_device
  4

  6

 40
0.0
 41
0.0
 42
0.0
 43
0.0
 44
0.0
 45
0.0
 46
0.0
 47
0.0
 48
0.0
 49
0.0
140
0.0
141
0.0
142
1.0
143
1.0
 70
   688
 72
     1
 73
     0
 74
     5
  7

 75
    16
147
1.0
148
0.0
149
0.0
100
AcDbLayout
  1
Layout2
 70
     1
 71
     2
 10
0.0
 20
0.0
 11
0.0
 21
0.0
 12
0.0
 22
0.0
 32
0.0
 14
0.0
 24
0.0
 34
0.0
 15
0.0
 25
0.0
 35
0.0
146
0.0
 13
0.0
 23
0.0
 33
0.0
 16
1.0
 26
0.0
 36
0.0
 17
0.0
 27
1.0
 37
0.0
 76
     0
330
23
  0
LAYOUT
  5
22
102
{ACAD_REACTORS
330
1A
102
}
330
1A
100
AcDbPlotSettings
  1

  2
none_device
  4
ANSI_A_(11.00_x_8.50_Inches)
  6

 40
6.35
 41
19.05
 42
6.35000508
 43
19.05000254
 44
279.4
 45
215.9
 46
131.766239685345
 47
81.95948335092626
 48
0.0
 49
0.0
140
0.0
141
0.0
142
0.0676418036910991
143
1.0
 70
  1696
 72
     0
 73
     0
 74
     0
  7

 75
     0
147
0.0235690232323232
148
0.0
149
0.0
100
AcDbLayout
  1
Model
 70
     1
 71
     0
 10
0.0
 20
0.0
 11
420.0
 21
297.0
 12
0.0
 22
0.0
 32
0.0
 14
1.000000000000000E+20
 24
1.000000000000000E+20
 34
1.000000000000000E+20
 15
-1.000000000000000E+20
 25
-1.000000000000000E+20
 35
-1.000000000000000E+20
146
0.0
 13
0.0
 23
0.0
 33
0.0
 16
1.0
 26
0.0
 36
0.0
 17
0.0
 27
1.0
 37
0.0
 76
     0
330
1F
331
29
  0
MLINESTYLE
  5
18
102
{ACAD_REACTORS
330
17
102
}
330
17
100
AcDbMlineStyle
  2
Standard
 70
     0
  3

 62
   256
 51
90.0
 52
90.0
 71
     2
 49
0.5
 62
   256
  6
BYLAYER
 49
-0.5
 62
   256
  6
BYLAYER
  0
ACDBPLACEHOLDER
  5
F
102
{ACAD_REACTORS
330
E
102
}
330
E
  0
SCALE
  5
48
102
{ACAD_REACTORS
330
47
102
}
330
47
100
AcDbScale
 70
     0
300
1:1
140
1.0
141
1.0
290
     1
  0
SCALE
  5
49
102
{ACAD_REACTORS
330
47
102
}
330
47
100
AcDbScale
 70
     0
300
1:2
140
1.0
141
2.0
290
     0
  0
SCALE
  5
4A
102
{ACAD_REACTORS
330
47
102
}
330
47
100
AcDbScale
 70
     0
300
1:4
140
1.0
141
4.0
290
     0
  0
SCALE
  5
4B
102
{ACAD_REACTORS
330
47
102
}
330
47
100
AcDbScale
 70
     0
300
1:5
140
1.0
141
5.0
290
     0
  0
SCALE
  5
4C
102
{ACAD_REACTORS
330
47
102
}
330
47
100
AcDbScale
 70
     0
300
1:8
140
1.0
141
8.0
290
     0
  0
SCALE
  5
4D
102
{ACAD_REACTORS
330
47
102
}
330
47
100
AcDbScale
 70
     0
300
1:10
140
1.0
141
10.0
290
     0
  0
SCALE
  5
4E
102
{ACAD_REACTORS
330
47
102
}
330
47
100
AcDbScale
 70
     0
300
1:16
140
1.0
141
16.0
290
     0
  0
SCALE
  5
4F
102
{ACAD_REACTORS
330
47
102
}
330
47
100
AcDbScale
 70
     0
300
1:20
140
1.0
141
20.0
290
     0
  0
SCALE
  5
50
102
{ACAD_REACTORS
330
47
102
}
330
47
100
AcDbScale
 70
     0
300
1:30
140
1.0
141
30.0
290
     0
  0
SCALE
  5
51
102
{ACAD_REACTORS
330
47
102
}
330
47
100
AcDbScale
 70
     0
300
1:40
140
1.0
141
40.0
290
     0
  0
SCALE
  5
52
102
{ACAD_REACTORS
330
47
102
}
330
47
100
AcDbScale
 70
     0
300
1:50
140
1.0
141
50.0
290
     0
  0
SCALE
  5
53
102
{ACAD_REACTORS
330
47
102
}
330
47
100
AcDbScale
 70
     0
300
1:100
140
1.0
141
100.0
290
     0
  0
SCALE
  5
54
102
{ACAD_REACTORS
330
47
102
}
330
47
100
AcDbScale
 70
     0
300
2:1
140
2.0
141
1.0
290
     0
  0
SCALE
  5
55
102
{ACAD_REACTORS
330
47
102
}
330
47
100
AcDbScale
 70
     0
300
4:1
140
4.0
141
1.0
290
     0
  0
SCALE
  5
56
102
{ACAD_REACTORS
330
47
102
}
330
47
100
AcDbScale
 70
     0
300
8:1
140
8.0
141
1.0
290
     0
  0
SCALE
  5
57
102
{ACAD_REACTORS
330
47
102
}
330
47
100
AcDbScale
 70
     0
300
10:1
140
10.0
141
1.0
290
     0
  0
SCALE
  5
58
102
{ACAD_REACTORS
330
47
102
}
330
47
100
AcDbScale
 70
     0
300
100:1
140
100.0
141
1.0
290
     0
  0
SCALE
  5
59
102
{ACAD_REACTORS
330
47
102
}
330
47
100
AcDbScale
 70
     0
300
1/128" = 1'-0"
140
0.0078125
141
12.0
290
     0
  0
SCALE
  5
5A
102
{ACAD_REACTORS
330
47
102
}
330
47
100
AcDbScale
 70
     0
300
1/64" = 1'-0"
140
0.015625
141
12.0
290
     0
  0
SCALE
  5
5B
102
{ACAD_REACTORS
330
47
102
}
330
47
100
AcDbScale
 70
     0
300
1/32" = 1'-0"
140
0.03125
141
12.0
290
     0
  0
SCALE
  5
5C
102
{ACAD_REACTORS
330
47
102
}
330
47
100
AcDbScale
 70
     0
300
1/16" = 1'-0"
140
0.0625
141
12.0
290
     0
  0
SCALE
  5
5D
102
{ACAD_REACTORS
330
47
102
}
330
47
100
AcDbScale
 70
     0
300
3/32" = 1'-0"
140
0.09375
141
12.0
290
     0
  0
SCALE
  5
5E
102
{ACAD_REACTORS
330
47
102
}
330
47
100
AcDbScale
 70
     0
300
1/8" = 1'-0"
140
0.125
141
12.0
290
     0
  0
SCALE
  5
5F
102
{ACAD_REACTORS
330
47
102
}
330
47
100
AcDbScale
 70
     0
300
3/16" = 1'-0"
140
0.1875
141
12.0
290
     0
  0
SCALE
  5
60
102
{ACAD_REACTORS
330
47
102
}
330
47
100
AcDbScale
 70
     0
300
1/4" = 1'-0"
140
0.25
141
12.0
290
     0
  0
SCALE
  5
61
102
{ACAD_REACTORS
330
47
102
}
330
47
100
AcDbScale
 70
     0
300
3/8" = 1'-0"
140
0.375
141
12.0
290
     0
  0
SCALE
  5
62
102
{ACAD_REACTORS
330
47
102
}
330
47
100
AcDbScale
 70
     0
300
1/2" = 1'-0"
140
0.5
141
12.0
290
     0
  0
SCALE
  5
63
102
{ACAD_REACTORS
330
47
102
}
330
47
100
AcDbScale
 70
     0
300
3/4" = 1'-0"
140
0.75
141
12.0
290
     0
  0
SCALE
  5
64
102
{ACAD_REACTORS
330
47
102
}
330
47
100
AcDbScale
 70
     0
300
1" = 1'-0"
140
1.0
141
12.0
290
     0
  0
SCALE
  5
65
102
{ACAD_REACTORS
330
47
102
}
330
47
100
AcDbScale
 70
     0
300
1-1/2" = 1'-0"
140
1.5
141
12.0
290
     0
  0
SCALE
  5
66
102
{ACAD_REACTORS
330
47
102
}
330
47
100
AcDbScale
 70
     0
300
3" = 1'-0"
140
3.0
141
12.0
290
     0
  0
SCALE
  5
67
102
{ACAD_REACTORS
330
47
102
}
330
47
100
AcDbScale
 70
     0
300
6" = 1'-0"
140
6.0
141
12.0
290
     0
  0
SCALE
  5
68
102
{ACAD_REACTORS
330
47
102
}
330
47
100
AcDbScale
 70
     0
300
1'-0" = 1'-0"
140
12.0
141
12.0
290
     0
  0
ENDSEC
  0
EOF
