  0
SECTION
  2
HEADER
  9
$ACADVER
  1
AC1015
  9
$ACADMAINTVER
 70
     6
  9
$DWGCODEPAGE
  3
ANSI_949
  9
$INSBASE
 10
0.0
 20
0.0
 30
0.0
  9
$EXTMIN
 10
1.000000000000000E+20
 20
1.000000000000000E+20
 30
1.000000000000000E+20
  9
$EXTMAX
 10
-1.000000000000000E+20
 20
-1.000000000000000E+20
 30
-1.000000000000000E+20
  9
$LIMMIN
 10
0.0
 20
0.0
  9
$LIMMAX
 10
420.0
 20
297.0
  9
$ORTHOMODE
 70
     1
  9
$REGENMODE
 70
     1
  9
$FILLMODE
 70
     1
  9
$QTEXTMODE
 70
     0
  9
$MIRRTEXT
 70
     1
  9
$LTSCALE
 40
1.0
  9
$ATTMODE
 70
     1
  9
$TEXTSIZE
 40
3.5
  9
$TRACEWID
 40
1.0
  9
$TEXTSTYLE
  7
Standard
  9
$CLAYER
  8
0
  9
$CELTYPE
  6
ByLayer
  9
$CECOLOR
 62
   256
  9
$CELTSCALE
 40
1.0
  9
$DISPSILH
 70
     0
  9
$DIMSCALE
 40
1.0
  9
$DIMASZ
 40
3.302
  9
$DIMEXO
 40
1.0
  9
$DIMDLI
 40
3.75
  9
$DIMRND
 40
0.0
  9
$DIMDLE
 40
0.0
  9
$DIMEXE
 40
1.0
  9
$DIMTP
 40
0.0
  9
$DIMTM
 40
0.0
  9
$DIMTXT
 40
3.5
  9
$DIMCEN
 40
2.5
  9
$DIMTSZ
 40
0.0
  9
$DIMTOL
 70
     0
  9
$DIMLIM
 70
     0
  9
$DIMTIH
 70
     1
  9
$DIMTOH
 70
     1
  9
$DIMSE1
 70
     0
  9
$DIMSE2
 70
     0
  9
$DIMTAD
 70
     1
  9
$DIMZIN
 70
     0
  9
$DIMBLK
  1

  9
$DIMASO
 70
     1
  9
$DIMSHO
 70
     1
  9
$DIMPOST
  1

  9
$DIMAPOST
  1

  9
$DIMALT
 70
     0
  9
$DIMALTD
 70
     3
  9
$DIMALTF
 40
0.0393700787401575
  9
$DIMLFAC
 40
1.0
  9
$DIMTOFL
 70
     1
  9
$DIMTVP
 40
0.0
  9
$DIMTIX
 70
     0
  9
$DIMSOXD
 70
     0
  9
$DIMSAH
 70
     0
  9
$DIMBLK1
  1

  9
$DIMBLK2
  1

  9
$DIMSTYLE
  2
ISO-25
  9
$DIMCLRD
 70
     0
  9
$DIMCLRE
 70
     0
  9
$DIMCLRT
 70
     0
  9
$DIMTFAC
 40
1.0
  9
$DIMGAP
 40
1.524
  9
$DIMJUST
 70
     0
  9
$DIMSD1
 70
     0
  9
$DIMSD2
 70
     0
  9
$DIMTOLJ
 70
     0
  9
$DIMTZIN
 70
     0
  9
$DIMALTZ
 70
     0
  9
$DIMALTTZ
 70
     0
  9
$DIMUPT
 70
     0
  9
$DIMDEC
 70
     2
  9
$DIMTDEC
 70
     2
  9
$DIMALTU
 70
     2
  9
$DIMALTTD
 70
     3
  9
$DIMTXSTY
  7
Standard
  9
$DIMAUNIT
 70
     0
  9
$DIMADEC
 70
     2
  9
$DIMALTRND
 40
0.0
  9
$DIMAZIN
 70
     0
  9
$DIMDSEP
 70
    44
  9
$DIMATFIT
 70
     3
  9
$DIMFRAC
 70
     0
  9
$DIMLDRBLK
  1

  9
$DIMLUNIT
 70
     2
  9
$DIMLWD
 70
    -2
  9
$DIMLWE
 70
    -2
  9
$DIMTMOVE
 70
     0
  9
$LUNITS
 70
     2
  9
$LUPREC
 70
     2
  9
$SKETCHINC
 40
1.0
  9
$FILLETRAD
 40
10.0
  9
$AUNITS
 70
     0
  9
$AUPREC
 70
     2
  9
$MENU
  1
.
  9
$ELEVATION
 40
0.0
  9
$PELEVATION
 40
0.0
  9
$THICKNESS
 40
0.0
  9
$LIMCHECK
 70
     0
  9
$CHAMFERA
 40
0.0
  9
$CHAMFERB
 40
0.0
  9
$CHAMFERC
 40
0.0
  9
$CHAMFERD
 40
0.0
  9
$SKPOLY
 70
     0
  9
$TDCREATE
 40
2458319.741982558
  9
$TDUCREATE
 40
2458319.366982558
  9
$TDUPDATE
 40
2458323.628734977
  9
$TDUUPDATE
 40
2458323.253734977
  9
$TDINDWG
 40
0.0013791435
  9
$TDUSRTIMER
 40
2458323.252356285
  9
$USRTIMER
 70
     1
  9
$ANGBASE
 50
0.0
  9
$ANGDIR
 70
     0
  9
$PDMODE
 70
     0
  9
$PDSIZE
 40
-1.0
  9
$PLINEWID
 40
0.0
  9
$SPLFRAME
 70
     0
  9
$SPLINETYPE
 70
     6
  9
$SPLINESEGS
 70
     8
  9
$HANDSEED
  5
3D1
  9
$SURFTAB1
 70
     6
  9
$SURFTAB2
 70
     6
  9
$SURFTYPE
 70
     6
  9
$SURFU
 70
     6
  9
$SURFV
 70
     6
  9
$UCSBASE
  2

  9
$UCSNAME
  2

  9
$UCSORG
 10
0.0
 20
0.0
 30
0.0
  9
$UCSXDIR
 10
1.0
 20
0.0
 30
0.0
  9
$UCSYDIR
 10
0.0
 20
1.0
 30
0.0
  9
$UCSORTHOREF
  2

  9
$UCSORTHOVIEW
 70
     0
  9
$UCSORGTOP
 10
0.0
 20
0.0
 30
0.0
  9
$UCSORGBOTTOM
 10
0.0
 20
0.0
 30
0.0
  9
$UCSORGLEFT
 10
0.0
 20
0.0
 30
0.0
  9
$UCSORGRIGHT
 10
0.0
 20
0.0
 30
0.0
  9
$UCSORGFRONT
 10
0.0
 20
0.0
 30
0.0
  9
$UCSORGBACK
 10
0.0
 20
0.0
 30
0.0
  9
$PUCSBASE
  2

  9
$PUCSNAME
  2

  9
$PUCSORG
 10
0.0
 20
0.0
 30
0.0
  9
$PUCSXDIR
 10
1.0
 20
0.0
 30
0.0
  9
$PUCSYDIR
 10
0.0
 20
1.0
 30
0.0
  9
$PUCSORTHOREF
  2

  9
$PUCSORTHOVIEW
 70
     0
  9
$PUCSORGTOP
 10
0.0
 20
0.0
 30
0.0
  9
$PUCSORGBOTTOM
 10
0.0
 20
0.0
 30
0.0
  9
$PUCSORGLEFT
 10
0.0
 20
0.0
 30
0.0
  9
$PUCSORGRIGHT
 10
0.0
 20
0.0
 30
0.0
  9
$PUCSORGFRONT
 10
0.0
 20
0.0
 30
0.0
  9
$PUCSORGBACK
 10
0.0
 20
0.0
 30
0.0
  9
$USERI1
 70
     0
  9
$USERI2
 70
     0
  9
$USERI3
 70
     0
  9
$USERI4
 70
     0
  9
$USERI5
 70
     0
  9
$USERR1
 40
0.0
  9
$USERR2
 40
0.0
  9
$USERR3
 40
0.0
  9
$USERR4
 40
0.0
  9
$USERR5
 40
0.0
  9
$WORLDVIEW
 70
     1
  9
$SHADEDGE
 70
     3
  9
$SHADEDIF
 70
    70
  9
$TILEMODE
 70
     1
  9
$MAXACTVP
 70
    64
  9
$PINSBASE
 10
0.0
 20
0.0
 30
0.0
  9
$PLIMCHECK
 70
     0
  9
$PEXTMIN
 10
1.000000000000000E+20
 20
1.000000000000000E+20
 30
1.000000000000000E+20
  9
$PEXTMAX
 10
-1.000000000000000E+20
 20
-1.000000000000000E+20
 30
-1.000000000000000E+20
  9
$PLIMMIN
 10
0.0
 20
0.0
  9
$PLIMMAX
 10
0.0
 20
0.0
  9
$UNITMODE
 70
     0
  9
$VISRETAIN
 70
     1
  9
$PLINEGEN
 70
     0
  9
$PSLTSCALE
 70
     1
  9
$TREEDEPTH
 70
  3020
  9
$CMLSTYLE
  2
Standard
  9
$CMLJUST
 70
     0
  9
$CMLSCALE
 40
20.0
  9
$PROXYGRAPHICS
 70
     1
  9
$MEASUREMENT
 70
     1
  9
$CELWEIGHT
370
    -1
  9
$ENDCAPS
280
     0
  9
$JOINSTYLE
280
     0
  9
$LWDISPLAY
290
     1
  9
$INSUNITS
 70
     4
  9
$HYPERLINKBASE
  1

  9
$STYLESHEET
  1

  9
$XEDIT
290
     1
  9
$CEPSNTYPE
380
     0
  9
$PSTYLEMODE
290
     1
  9
$FINGERPRINTGUID
  2
{4A2888D9-2858-46A5-9F95-6AC9B7BDDC10}
  9
$VERSIONGUID
  2
{FAEB1C32-E019-11D5-929B-00C0DF256EC4}
  9
$EXTNAMES
290
     1
  9
$PSVPSCALE
 40
0.0
  9
$OLESTARTUP
290
     0
  0
ENDSEC
  0
SECTION
  2
CLASSES
  0
CLASS
  1
ACDBDICTIONARYWDFLT
  2
AcDbDictionaryWithDefault
  3
ObjectDBX Classes
 90
        0
280
     0
281
     0
  0
CLASS
  1
VISUALSTYLE
  2
AcDbVisualStyle
  3
ObjectDBX Classes
 90
     4095
280
     0
281
     0
  0
CLASS
  1
MATERIAL
  2
AcDbMaterial
  3
ObjectDBX Classes
 90
     1153
280
     0
281
     0
  0
CLASS
  1
SCALE
  2
AcDbScale
  3
ObjectDBX Classes
 90
     1153
280
     0
281
     0
  0
CLASS
  1
SUN
  2
AcDbSun
  3
SCENEOE
 90
     1153
280
     0
281
     0
  0
CLASS
  1
ACDBPLACEHOLDER
  2
AcDbPlaceHolder
  3
ObjectDBX Classes
 90
        0
280
     0
281
     0
  0
CLASS
  1
LAYOUT
  2
AcDbLayout
  3
ObjectDBX Classes
 90
        0
280
     0
281
     0
  0
CLASS
  1
TABLESTYLE
  2
AcDbTableStyle
  3
ObjectDBX Classes
 90
     4095
280
     0
281
     0
  0
CLASS
  1
MLEADERSTYLE
  2
AcDbMLeaderStyle
  3
ACDB_MLEADERSTYLE_CLASS
 90
     4095
280
     0
281
     0
  0
CLASS
  1
RASTERVARIABLES
  2
AcDbRasterVariables
  3
ISM
 90
        0
280
     0
281
     0
  0
ENDSEC
  0
SECTION
  2
TABLES
  0
TABLE
  2
VPORT
  5
8
330
0
100
AcDbSymbolTable
 70
     1
  0
VPORT
  5
29
330
8
100
AcDbSymbolTableRecord
100
AcDbViewportTableRecord
  2
*Active
 70
     0
 10
0.0
 20
0.0
 11
1.0
 21
1.0
 12
-12.70448054834683
 22
-13.4436872427554
 13
0.0
 23
0.0
 14
10.0
 24
10.0
 15
10.0
 25
10.0
 16
0.0
 26
0.0
 36
1.0
 17
0.0
 27
0.0
 37
0.0
 40
160.3131512613727
 41
1.632093933463796
 42
50.0
 43
0.0
 44
0.0
 50
0.0
 51
0.0
 71
    16
 72
  2000
 73
     1
 74
     3
 75
     0
 76
     0
 77
     0
 78
     0
281
     0
 65
     1
110
0.0
120
0.0
130
0.0
111
1.0
121
0.0
131
0.0
112
0.0
122
1.0
132
0.0
 79
     0
146
0.0
  0
ENDTAB
  0
TABLE
  2
LTYPE
  5
5
330
0
100
AcDbSymbolTable
 70
     6
  0
LTYPE
  5
14
330
5
100
AcDbSymbolTableRecord
100
AcDbLinetypeTableRecord
  2
ByBlock
 70
     0
  3

 72
    65
 73
     0
 40
0.0
  0
LTYPE
  5
15
330
5
100
AcDbSymbolTableRecord
100
AcDbLinetypeTableRecord
  2
ByLayer
 70
     0
  3

 72
    65
 73
     0
 40
0.0
  0
LTYPE
  5
16
330
5
100
AcDbSymbolTableRecord
100
AcDbLinetypeTableRecord
  2
Continuous
 70
     0
  3
Solid line
 72
    65
 73
     0
 40
0.0
  0
LTYPE
  5
6A
330
5
100
AcDbSymbolTableRecord
100
AcDbLinetypeTableRecord
  2
HIDDEN
 70
     0
  3
Hidden __ __ __ __ __ __ __ __ __ __ __ __ __ __
 72
    65
 73
     2
 40
1.905
 49
1.27
 74
     0
 49
-0.635
 74
     0
  0
LTYPE
  5
6B
330
5
100
AcDbSymbolTableRecord
100
AcDbLinetypeTableRecord
  2
PHANTOM
 70
     0
  3
Phantom ______  __  __  ______  __  __  ______
 72
    65
 73
     6
 40
12.7
 49
6.35
 74
     0
 49
-1.27
 74
     0
 49
1.27
 74
     0
 49
-1.27
 74
     0
 49
1.27
 74
     0
 49
-1.27
 74
     0
  0
LTYPE
  5
6C
330
5
100
AcDbSymbolTableRecord
100
AcDbLinetypeTableRecord
  2
CENTER
 70
     0
  3
Center ____ _ ____ _ ____ _ ____ _ ____ _ ____
 72
    65
 73
     4
 40
10.16
 49
6.35
 74
     0
 49
-1.27
 74
     0
 49
1.27
 74
     0
 49
-1.27
 74
     0
  0
LTYPE
  5
6D
330
5
100
AcDbSymbolTableRecord
100
AcDbLinetypeTableRecord
  2
CENTERX2
 70
     0
  3
Center (2x) ________  __  ________  __  _____
 72
    65
 73
     4
 40
20.32
 49
12.7
 74
     0
 49
-2.54
 74
     0
 49
2.54
 74
     0
 49
-2.54
 74
     0
  0
LTYPE
  5
6E
330
5
100
AcDbSymbolTableRecord
100
AcDbLinetypeTableRecord
  2
DOT2
 70
     0
  3
Dot (.5x) ........................................
 72
    65
 73
     2
 40
0.635
 49
0.0
 74
     0
 49
-0.635
 74
     0
  0
ENDTAB
  0
TABLE
  2
LAYER
  5
2
102
{ACAD_XDICTIONARY
360
20B
102
}
330
0
100
AcDbSymbolTable
 70
    18
  0
LAYER
  5
10
330
2
100
AcDbSymbolTableRecord
100
AcDbLayerTableRecord
  2
0
 70
     0
 62
     7
  6
Continuous
370
    -3
390
F
  0
LAYER
  5
6F
330
2
100
AcDbSymbolTableRecord
100
AcDbLayerTableRecord
  2
FORMAT
 70
     0
 62
     2
  6
Continuous
370
    -3
390
F
  0
LAYER
  5
70
330
2
100
AcDbSymbolTableRecord
100
AcDbLayerTableRecord
  2
외형선
 70
     0
 62
     4
  6
Continuous
370
    30
390
F
  0
LAYER
  5
71
330
2
100
AcDbSymbolTableRecord
100
AcDbLayerTableRecord
  2
숨은선
 70
     0
 62
     2
  6
HIDDEN
370
    15
390
F
  0
LAYER
  5
72
330
2
100
AcDbSymbolTableRecord
100
AcDbLayerTableRecord
  2
중심선
 70
     0
 62
     1
  6
CENTERX2
370
    -3
390
F
  0
LAYER
  5
73
330
2
100
AcDbSymbolTableRecord
100
AcDbLayerTableRecord
  2
파단선
 70
     0
 62
     4
  6
Continuous
370
    -3
390
F
  0
LAYER
  5
74
330
2
100
AcDbSymbolTableRecord
100
AcDbLayerTableRecord
  2
해칭선
 70
     0
 62
   100
  6
Continuous
370
    -3
390
F
  0
LAYER
  5
75
330
2
100
AcDbSymbolTableRecord
100
AcDbLayerTableRecord
  2
가는실선
 70
     0
 62
     4
  6
Continuous
370
    -3
390
F
  0
LAYER
  5
76
330
2
100
AcDbSymbolTableRecord
100
AcDbLayerTableRecord
  2
치수_보조선
 70
     0
 62
     4
  6
Continuous
370
    -3
390
F
  0
LAYER
  5
77
330
2
100
AcDbSymbolTableRecord
100
AcDbLayerTableRecord
  2
치수문자_일반주서
 70
     0
 62
     7
  6
Continuous
370
    15
390
F
  0
LAYER
  5
78
330
2
100
AcDbSymbolTableRecord
100
AcDbLayerTableRecord
  2
개별주서
 70
     0
 62
   100
  6
Continuous
370
    30
390
F
  0
LAYER
  5
79
330
2
100
AcDbSymbolTableRecord
100
AcDbLayerTableRecord
  2
중간선
 70
     0
 62
     2
  6
Continuous
370
    15
390
F
  0
LAYER
  5
7A
330
2
100
AcDbSymbolTableRecord
100
AcDbLayerTableRecord
  2
윤곽선
 70
     0
 62
     3
  6
Continuous
370
    40
390
F
  0
LAYER
  5
7B
330
2
100
AcDbSymbolTableRecord
100
AcDbLayerTableRecord
  2
중심마크
 70
     0
 62
   100
  6
Continuous
370
    30
390
F
  0
LAYER
  5
7C
330
2
100
AcDbSymbolTableRecord
100
AcDbLayerTableRecord
  2
가상선
 70
     0
 62
     4
  6
PHANTOM
370
    -3
390
F
  0
LAYER
  5
7D
330
2
100
AcDbSymbolTableRecord
100
AcDbLayerTableRecord
  2
특수지정선
 70
     0
 62
     5
  6
CENTERX2
370
    60
390
F
  0
LAYER
  5
7E
330
2
100
AcDbSymbolTableRecord
100
AcDbLayerTableRecord
  2
참조1
 70
     0
 62
    -4
  6
Continuous
370
    -3
390
F
  0
LAYER
  5
14F
330
2
100
AcDbSymbolTableRecord
100
AcDbLayerTableRecord
  2
Defpoints
 70
     0
 62
     7
  6
Continuous
290
     0
370
    -3
390
F
  0
ENDTAB
  0
TABLE
  2
STYLE
  5
3
330
0
100
AcDbSymbolTable
 70
     2
  0
STYLE
  5
11
330
3
100
AcDbSymbolTableRecord
100
AcDbTextStyleTableRecord
  2
Standard
 70
     0
 40
0.0
 41
1.0
 50
0.0
 71
     0
 42
3.5
  3
txt
  4

  0
STYLE
  5
94
330
3
100
AcDbSymbolTableRecord
100
AcDbTextStyleTableRecord
  2
SLDTEXTSTYLE0
 70
     0
 40
0.0
 41
0.75
 50
0.0
 71
     0
 42
3.5
  3
TXT
  4

  0
ENDTAB
  0
TABLE
  2
VIEW
  5
6
330
0
100
AcDbSymbolTable
 70
     0
  0
ENDTAB
  0
TABLE
  2
UCS
  5
7
330
0
100
AcDbSymbolTable
 70
     0
  0
ENDTAB
  0
TABLE
  2
APPID
  5
9
330
0
100
AcDbSymbolTable
 70
     1
  0
APPID
  5
12
330
9
100
AcDbSymbolTableRecord
100
AcDbRegAppTableRecord
  2
ACAD
 70
     0
  0
ENDTAB
  0
TABLE
  2
DIMSTYLE
  5
A
330
0
100
AcDbSymbolTable
 70
     3
100
AcDbDimStyleTable
  0
DIMSTYLE
105
27
330
A
100
AcDbSymbolTableRecord
100
AcDbDimStyleTableRecord
  2
ISO-25
 70
     0
 41
2.5
 42
0.625
 43
3.75
 44
1.25
 73
     0
 74
     0
 77
     1
 78
     8
140
2.5
141
2.5
143
0.03937007874016
147
0.625
171
     3
172
     1
178
     0
271
     2
272
     2
274
     3
278
    44
283
     0
284
     8
340
11
  0
DIMSTYLE
105
CC
102
{ACAD_REACTORS
330
CB
330
E0
330
1A0
330
1AE
330
1BB
330
1C8
330
108
330
F3
330
322
330
330
330
33D
102
}
330
A
100
AcDbSymbolTableRecord
100
AcDbDimStyleTableRecord
  2
SLDDIMSTYLE0
 70
     0
 41
3.302
 44
0.0
 45
0.000000001
 73
     0
 74
     0
 77
     1
 78
    12
 79
     3
140
3.5
143
0.0393700787401575
147
0.875
148
0.000000001
170
     1
173
     1
178
     0
271
     2
272
     2
276
     2
284
    12
340
94
  0
DIMSTYLE
105
F4
330
A
100
AcDbSymbolTableRecord
100
AcDbDimStyleTableRecord
  2
SLDDIMSTYLE1
 70
     0
 41
3.302
 44
0.0
 45
0.000000001
 73
     0
 74
     0
 77
     1
 78
    12
 79
     3
140
3.5
143
0.0393700787401575
147
0.875
148
0.000000001
170
     1
172
     1
173
     1
178
     0
271
     2
272
     2
276
     2
284
    12
289
     0
340
94
  0
ENDTAB
  0
TABLE
  2
BLOCK_RECORD
  5
1
330
0
100
AcDbSymbolTable
 70
    23
  0
BLOCK_RECORD
  5
1F
330
1
100
AcDbSymbolTableRecord
100
AcDbBlockTableRecord
  2
*Model_Space
340
22
  0
BLOCK_RECORD
  5
1B
330
1
100
AcDbSymbolTableRecord
100
AcDbBlockTableRecord
  2
*Paper_Space
340
1E
  0
BLOCK_RECORD
  5
23
330
1
100
AcDbSymbolTableRecord
100
AcDbBlockTableRecord
  2
*Paper_Space0
340
26
  0
BLOCK_RECORD
  5
7F
330
1
100
AcDbSymbolTableRecord
100
AcDbBlockTableRecord
  2
블럭10
340
0
102
{BLKREFS
331
C4
102
}
  0
BLOCK_RECORD
  5
CD
330
1
100
AcDbSymbolTableRecord
100
AcDbBlockTableRecord
  2
_D
340
0
  0
BLOCK_RECORD
  5
E1
330
1
100
AcDbSymbolTableRecord
100
AcDbBlockTableRecord
  2
_D_1
340
0
  0
BLOCK_RECORD
  5
F5
330
1
100
AcDbSymbolTableRecord
100
AcDbBlockTableRecord
  2
_D_2
340
0
  0
BLOCK_RECORD
  5
109
330
1
100
AcDbSymbolTableRecord
100
AcDbBlockTableRecord
  2
_D_3
340
0
  0
BLOCK_RECORD
  5
123
330
1
100
AcDbSymbolTableRecord
100
AcDbBlockTableRecord
  2
SW_DOWELSYMBOL_0
340
0
102
{BLKREFS
331
129
331
1D7
331
0
331
34C
331
0
102
}
  0
BLOCK_RECORD
  5
20F
330
1
100
AcDbSymbolTableRecord
100
AcDbBlockTableRecord
  2
*D8
340
0
  0
BLOCK_RECORD
  5
21C
330
1
100
AcDbSymbolTableRecord
100
AcDbBlockTableRecord
  2
*D9
340
0
  0
BLOCK_RECORD
  5
228
330
1
100
AcDbSymbolTableRecord
100
AcDbBlockTableRecord
  2
*D10
340
0
  0
BLOCK_RECORD
  5
234
330
1
100
AcDbSymbolTableRecord
100
AcDbBlockTableRecord
  2
*D11
340
0
  0
BLOCK_RECORD
  5
29E
330
1
100
AcDbSymbolTableRecord
100
AcDbBlockTableRecord
  2
*D12
340
0
  0
BLOCK_RECORD
  5
2AB
330
1
100
AcDbSymbolTableRecord
100
AcDbBlockTableRecord
  2
*D13
340
0
  0
BLOCK_RECORD
  5
2B7
330
1
100
AcDbSymbolTableRecord
100
AcDbBlockTableRecord
  2
*D14
340
0
  0
BLOCK_RECORD
  5
2C3
330
1
100
AcDbSymbolTableRecord
100
AcDbBlockTableRecord
  2
*D15
340
0
  0
BLOCK_RECORD
  5
355
330
1
100
AcDbSymbolTableRecord
100
AcDbBlockTableRecord
  2
*D17
340
0
  0
BLOCK_RECORD
  5
362
330
1
100
AcDbSymbolTableRecord
100
AcDbBlockTableRecord
  2
*D18
340
0
  0
BLOCK_RECORD
  5
36E
330
1
100
AcDbSymbolTableRecord
100
AcDbBlockTableRecord
  2
*D19
340
0
  0
BLOCK_RECORD
  5
3A8
330
1
100
AcDbSymbolTableRecord
100
AcDbBlockTableRecord
  2
*D20
340
0
  0
BLOCK_RECORD
  5
3B5
330
1
100
AcDbSymbolTableRecord
100
AcDbBlockTableRecord
  2
*D21
340
0
  0
BLOCK_RECORD
  5
3C1
330
1
100
AcDbSymbolTableRecord
100
AcDbBlockTableRecord
  2
*D22
340
0
  0
ENDTAB
  0
ENDSEC
  0
SECTION
  2
BLOCKS
  0
BLOCK
  5
20
330
1F
100
AcDbEntity
  8
0
100
AcDbBlockBegin
  2
*Model_Space
 70
     0
 10
0.0
 20
0.0
 30
0.0
  3
*Model_Space
  1
*Model_Space
  0
ENDBLK
  5
21
330
1F
100
AcDbEntity
  8
0
100
AcDbBlockEnd
  0
BLOCK
  5
1C
330
1B
100
AcDbEntity
 67
     1
  8
0
100
AcDbBlockBegin
  2
*Paper_Space
 70
     0
 10
0.0
 20
0.0
 30
0.0
  3
*Paper_Space
  1
*Paper_Space
  0
ENDBLK
  5
1D
330
1B
100
AcDbEntity
 67
     1
  8
0
100
AcDbBlockEnd
  0
BLOCK
  5
24
330
23
100
AcDbEntity
  8
0
100
AcDbBlockBegin
  2
*Paper_Space0
 70
     0
 10
0.0
 20
0.0
 30
0.0
  3
*Paper_Space0
  1
*Paper_Space0
  0
ENDBLK
  5
25
330
23
100
AcDbEntity
  8
0
100
AcDbBlockEnd
  0
BLOCK
  5
80
330
7F
100
AcDbEntity
  8
0
100
AcDbBlockBegin
  2
블럭10
 70
     2
 10
0.0
 20
0.0
 30
0.0
  3
블럭10
  1
블럭10
  0
ELLIPSE
  5
82
330
7F
100
AcDbEntity
  8
중심선
100
AcDbEllipse
 10
20.54032771741204
 20
12.0471743016438
 30
0.0
 11
6.600054785286829
 21
-1.261213355974178E-13
 31
0.0
210
0.0
220
0.0
230
1.0
 40
0.636358354079598
 41
0.9219305317359503
 42
6.513795318482858
  0
ELLIPSE
  5
83
330
7F
100
AcDbEntity
  8
중심선
100
AcDbEllipse
 10
20.54032771746488
 20
12.04717430159265
 30
0.0
 11
3.960054785062283
 21
1.540847449632565E-10
 31
0.0
210
0.0
220
0.0
230
1.0
 40
0.3939339440162632
 41
1.131841032648279
 42
5.62031148352944
  0
LINE
  5
84
330
7F
100
AcDbEntity
  8
중심선
100
AcDbLine
 10
2.268634060543552
 20
16.24717430164393
 30
0.0
 11
5.714909304380834
 21
16.24717430164393
 31
0.0
  0
LINE
  5
85
330
7F
100
AcDbEntity
  8
중심선
100
AcDbLine
 10
5.245725140726316
 20
7.84717430164391
 30
0.0
 11
8.692000384563599
 21
7.84717430164391
 31
0.0
  0
LINE
  5
86
330
7F
100
AcDbEntity
  8
중심선
100
AcDbLine
 10
15.74043728645272
 20
16.24717430164393
 30
0.0
 11
8.692000384563599
 21
7.84717430164391
 31
0.0
  0
LINE
  5
87
330
7F
100
AcDbEntity
  8
중심선
100
AcDbLine
 10
0.1404042013395286
 20
13.71084872107135
 30
0.0
 11
3.58671253028996
 21
13.71088815037384
 31
0.0
  0
LINE
  5
88
330
7F
100
AcDbEntity
  8
중심선
100
AcDbLine
 10
2.750260043222114
 20
10.84717430164391
 30
0.0
 11
6.196535287059397
 21
10.84717430164391
 31
0.0
  0
LINE
  5
89
330
7F
100
AcDbEntity
  8
중심선
100
AcDbLine
 10
12.29416204261559
 20
16.24717430164393
 30
0.0
 11
5.245725140726316
 21
7.84717430164391
 31
0.0
  0
LINE
  5
8A
330
7F
100
AcDbEntity
  8
중심선
100
AcDbLine
 10
10.72767329541681
 20
16.24717430164393
 30
0.0
 11
6.196535287059397
 21
10.84717430164391
 31
0.0
  0
LINE
  5
8B
330
7F
100
AcDbEntity
  8
중심선
100
AcDbLine
 10
7.28139805157953
 20
16.24717430164393
 30
0.0
 11
2.750260043222114
 21
10.84717430164391
 31
0.0
  0
LINE
  5
8C
330
7F
100
AcDbEntity
  8
중심선
100
AcDbLine
 10
5.714909304380834
 20
16.24717430164393
 30
0.0
 11
3.58671253028996
 21
13.71088815037384
 31
0.0
  0
LINE
  5
8D
330
7F
100
AcDbEntity
  8
중심선
100
AcDbLine
 10
2.268634060543552
 20
16.24717430164393
 30
0.0
 11
0.1404042013395286
 21
13.71084872107135
 31
0.0
  0
LINE
  5
8E
330
7F
100
AcDbEntity
  8
중심선
100
AcDbLine
 10
7.28139805157953
 20
16.24717430164393
 30
0.0
 11
10.72767329541681
 21
16.24717430164393
 31
0.0
  0
LINE
  5
8F
330
7F
100
AcDbEntity
  8
중심선
100
AcDbLine
 10
12.29416204261559
 20
16.24717430164393
 30
0.0
 11
15.74043728645272
 21
16.24717430164393
 31
0.0
  0
LINE
  5
90
330
7F
100
AcDbEntity
  8
중심선
100
AcDbLine
 10
19.22036997980202
 20
11.08717430171403
 30
0.0
 11
23.66174974927406
 21
11.08717430171406
 31
0.0
  0
LINE
  5
91
330
7F
100
AcDbEntity
  8
중심선
100
AcDbLine
 10
19.22039502424796
 20
13.00717430171391
 30
0.0
 11
19.22036997980202
 21
11.08717430171403
 31
0.0
  0
LINE
  5
92
330
7F
100
AcDbEntity
  8
중심선
100
AcDbLine
 10
19.22039502424796
 20
13.00717430171391
 30
0.0
 11
26.96566020931264
 21
13.00717430171391
 31
0.0
  0
LINE
  5
93
330
7F
100
AcDbEntity
  8
중심선
100
AcDbLine
 10
22.22332737316547
 20
13.45928029700563
 30
0.0
 11
24.52862924686651
 21
15.39360700705356
 31
0.0
  0
ATTDEF
  5
95
330
7F
100
AcDbEntity
  8
FORMAT
 62
     2
100
AcDbText
 10
4.408487351596664
 20
2.075366912832191
 30
0.0
 40
4.233333333333333
  1
E1112008
 41
0.75
  7
SLDTEXTSTYLE0
 11
4.408487351596664
 21
-0.0412997538344756
 31
0.0
100
AcDbAttributeDefinition
  3

  2
AUTOATTR0
 70
     0
 74
     1
  0
ENDBLK
  5
81
330
7F
100
AcDbEntity
  8
0
100
AcDbBlockEnd
  0
BLOCK
  5
CE
330
CD
100
AcDbEntity
  8
0
100
AcDbBlockBegin
  2
_D
 70
     0
 10
0.0
 20
0.0
 30
0.0
  3
_D
  1
_D
  0
LINE
  5
D0
330
CD
100
AcDbEntity
  8
0
  6
Continuous
 62
     0
370
    -2
100
AcDbLine
 10
38.89375000000001
 20
1.650000000000008
 30
0.0
 11
38.89375000000001
 21
14.73745989356487
 31
0.0
  0
LINE
  5
D1
330
CD
100
AcDbEntity
  8
0
  6
Continuous
 62
     0
370
    -2
100
AcDbLine
 10
29.36875000000001
 20
1.649999999999991
 30
0.0
 11
29.36875000000001
 21
14.73745989356487
 31
0.0
  0
LINE
  5
D2
330
CD
100
AcDbEntity
  8
0
  6
Continuous
 62
     0
370
    -2
100
AcDbLine
 10
29.36875000000001
 20
14.73745989356487
 30
0.0
 11
2.441750000000013
 21
14.73745989356487
 31
0.0
  0
LINE
  5
D3
330
CD
100
AcDbEntity
  8
0
  6
Continuous
 62
     0
370
    -2
100
AcDbLine
 10
35.59175000000001
 20
14.73745989356487
 30
0.0
 11
32.67075000000001
 21
14.73745989356487
 31
0.0
  0
SOLID
  5
D4
330
CD
100
AcDbEntity
  8
0
 62
     0
100
AcDbTrace
 10
35.59175000000001
 20
14.18712656023154
 30
0.0
 11
35.59175000000001
 21
15.28779322689821
 31
0.0
 12
38.89375000000001
 22
14.73745989356487
 32
0.0
 13
38.89375000000001
 23
14.73745989356487
 33
0.0
  0
SOLID
  5
D5
330
CD
100
AcDbEntity
  8
0
 62
     0
100
AcDbTrace
 10
32.67075000000001
 20
15.28779322689821
 30
0.0
 11
32.67075000000001
 21
14.18712656023154
 31
0.0
 12
29.36875000000001
 22
14.73745989356487
 32
0.0
 13
29.36875000000001
 23
14.73745989356487
 33
0.0
  0
MTEXT
  5
D6
330
CD
100
AcDbEntity
  8
0
 62
     0
370
    15
100
AcDbMText
 10
14.25425000000001
 20
19.11245989356487
 30
0.0
 40
3.5
 41
0.0
 71
     2
 72
     1
  1
\A1;9.53 [3/8]
  7
SLDTEXTSTYLE0
 73
     1
 44
1.0
  0
POINT
  5
D7
330
CD
100
AcDbEntity
  8
Defpoints
 62
     0
100
AcDbPoint
 10
38.89375000000001
 20
1.587500000000008
 30
0.0
  0
POINT
  5
D8
330
CD
100
AcDbEntity
  8
Defpoints
 62
     0
100
AcDbPoint
 10
29.36875000000001
 20
1.587499999999991
 30
0.0
  0
POINT
  5
D9
330
CD
100
AcDbEntity
  8
Defpoints
 62
     0
100
AcDbPoint
 10
29.36875000000001
 20
14.73745989356487
 30
0.0
  0
ENDBLK
  5
CF
330
CD
100
AcDbEntity
  8
0
100
AcDbBlockEnd
  0
BLOCK
  5
E2
330
E1
100
AcDbEntity
  8
0
100
AcDbBlockBegin
  2
_D_1
 70
     0
 10
0.0
 20
0.0
 30
0.0
  3
_D_1
  1
_D_1
  0
LINE
  5
E4
330
E1
100
AcDbEntity
  8
0
  6
Continuous
 62
     0
370
    -2
100
AcDbLine
 10
38.89375000000001
 20
1.650000000000008
 30
0.0
 11
38.89375
 21
29.28797898817498
 31
0.0
  0
LINE
  5
E5
330
E1
100
AcDbEntity
  8
0
  6
Continuous
 62
     0
370
    -2
100
AcDbLine
 10
-38.89375000000002
 20
4.825000000000003
 30
0.0
 11
-38.89375000000003
 21
29.28797898817498
 31
0.0
  0
LINE
  5
E6
330
E1
100
AcDbEntity
  8
0
  6
Continuous
 62
     0
370
    -2
100
AcDbLine
 10
35.59175
 20
29.28797898817498
 30
0.0
 11
-35.59175000000003
 21
29.28797898817498
 31
0.0
  0
SOLID
  5
E7
330
E1
100
AcDbEntity
  8
0
 62
     0
100
AcDbTrace
 10
35.59175
 20
28.73764565484164
 30
0.0
 11
35.59175
 21
29.83831232150831
 31
0.0
 12
38.89375
 22
29.28797898817498
 32
0.0
 13
38.89375
 23
29.28797898817498
 33
0.0
  0
SOLID
  5
E8
330
E1
100
AcDbEntity
  8
0
 62
     0
100
AcDbTrace
 10
-35.59175000000003
 20
29.83831232150831
 30
0.0
 11
-35.59175000000003
 21
28.73764565484164
 31
0.0
 12
-38.89375000000003
 22
29.28797898817498
 32
0.0
 13
-38.89375000000003
 23
29.28797898817498
 33
0.0
  0
MTEXT
  5
E9
330
E1
100
AcDbEntity
  8
0
 62
     0
370
    15
100
AcDbMText
 10
0.3404466952392298
 20
33.66297898817498
 30
0.0
 40
3.5
 41
0.0
 71
     2
 72
     1
  1
\A1;77.79 [3 1/16]
  7
SLDTEXTSTYLE0
 73
     1
 44
1.0
  0
POINT
  5
EA
330
E1
100
AcDbEntity
  8
Defpoints
 62
     0
100
AcDbPoint
 10
38.89375000000001
 20
1.587500000000008
 30
0.0
  0
POINT
  5
EB
330
E1
100
AcDbEntity
  8
Defpoints
 62
     0
100
AcDbPoint
 10
-38.89375000000002
 20
4.762500000000003
 30
0.0
  0
POINT
  5
EC
330
E1
100
AcDbEntity
  8
Defpoints
 62
     0
100
AcDbPoint
 10
-38.89375000000002
 20
29.28797898817498
 30
0.0
  0
ENDBLK
  5
E3
330
E1
100
AcDbEntity
  8
0
100
AcDbBlockEnd
  0
BLOCK
  5
F6
330
F5
100
AcDbEntity
  8
0
100
AcDbBlockBegin
  2
_D_2
 70
     0
 10
0.0
 20
0.0
 30
0.0
  3
_D_2
  1
_D_2
  0
LINE
  5
F8
330
F5
100
AcDbEntity
  8
0
  6
Continuous
 62
     0
370
    -2
100
AcDbLine
 10
-16.73893039988255
 20
4.762500000000006
 30
0.0
 11
-51.51374999999999
 21
4.762499999999875
 31
0.0
  0
LINE
  5
F9
330
F5
100
AcDbEntity
  8
0
  6
Continuous
 62
     0
370
    -2
100
AcDbLine
 10
-16.58198868596886
 20
-4.762500000000002
 30
0.0
 11
-51.51374999999996
 21
-4.762500000000133
 31
0.0
  0
LINE
  5
FA
330
F5
100
AcDbEntity
  8
0
  6
Continuous
 62
     0
370
    -2
100
AcDbLine
 10
-51.51374999999998
 20
1.460499999999875
 30
0.0
 11
-51.51374999999997
 21
-1.460500000000134
 31
0.0
  0
SOLID
  5
FB
330
F5
100
AcDbEntity
  8
0
 62
     0
100
AcDbTrace
 10
-50.96341666666665
 20
1.460499999999877
 30
0.0
 11
-52.06408333333331
 21
1.460499999999873
 31
0.0
 12
-51.51374999999999
 22
4.762499999999875
 32
0.0
 13
-51.51374999999999
 23
4.762499999999875
 33
0.0
  0
SOLID
  5
FC
330
F5
100
AcDbEntity
  8
0
 62
     0
100
AcDbTrace
 10
-52.06408333333331
 20
-1.460500000000136
 30
0.0
 11
-50.96341666666664
 21
-1.460500000000132
 31
0.0
 12
-51.51374999999996
 22
-4.762500000000133
 32
0.0
 13
-51.51374999999996
 23
-4.762500000000133
 33
0.0
  0
MTEXT
  5
FD
330
F5
100
AcDbEntity
  8
0
 62
     0
370
    15
100
AcDbMText
 10
-55.88874999999998
 20
-0.0000000000000127
 30
0.0
 40
3.5
 41
0.0
 71
     2
 72
     1
  1
\A1;%%c9.53 [3/8]
  7
SLDTEXTSTYLE0
 11
-3.729883127349604E-15
 21
1.0
 31
0.0
 73
     1
 44
1.0
  0
POINT
  5
FE
330
F5
100
AcDbEntity
  8
Defpoints
 62
     0
100
AcDbPoint
 10
-16.67643039988255
 20
4.762500000000006
 30
0.0
  0
POINT
  5
FF
330
F5
100
AcDbEntity
  8
Defpoints
 62
     0
100
AcDbPoint
 10
-16.51948868596886
 20
-4.762500000000002
 30
0.0
  0
POINT
  5
100
330
F5
100
AcDbEntity
  8
Defpoints
 62
     0
100
AcDbPoint
 10
-51.51374999999997
 20
-4.762500000000133
 30
0.0
  0
ENDBLK
  5
F7
330
F5
100
AcDbEntity
  8
0
100
AcDbBlockEnd
  0
BLOCK
  5
10A
330
109
100
AcDbEntity
  8
0
100
AcDbBlockBegin
  2
_D_3
 70
     0
 10
0.0
 20
0.0
 30
0.0
  3
_D_3
  1
_D_3
  0
LINE
  5
10C
330
109
100
AcDbEntity
  8
0
  6
Continuous
 62
     0
370
    -2
100
AcDbLine
 10
38.95625000000002
 20
1.587500000000008
 30
0.0
 11
47.99686564797851
 21
1.587500000000045
 31
0.0
  0
LINE
  5
10D
330
109
100
AcDbEntity
  8
0
  6
Continuous
 62
     0
370
    -2
100
AcDbLine
 10
38.95625
 20
-1.587499999999991
 30
0.0
 11
47.99686564797852
 21
-1.587499999999956
 31
0.0
  0
LINE
  5
10E
330
109
100
AcDbEntity
  8
0
  6
Continuous
 62
     0
370
    -2
100
AcDbLine
 10
47.99686564797851
 20
1.587500000000045
 30
0.0
 11
47.99686564797836
 21
34.81632859961654
 31
0.0
  0
LINE
  5
10F
330
109
100
AcDbEntity
  8
0
  6
Continuous
 62
     0
370
    -2
100
AcDbLine
 10
47.9968656479785
 20
4.889500000000044
 30
0.0
 11
47.99686564797848
 21
8.191500000000044
 31
0.0
  0
LINE
  5
110
330
109
100
AcDbEntity
  8
0
  6
Continuous
 62
     0
370
    -2
100
AcDbLine
 10
47.99686564797854
 20
-4.889499999999956
 30
0.0
 11
47.99686564797855
 21
-8.191499999999955
 31
0.0
  0
SOLID
  5
111
330
109
100
AcDbEntity
  8
0
 62
     0
100
AcDbTrace
 10
47.44653231464516
 20
4.889500000000042
 30
0.0
 11
48.54719898131183
 21
4.889500000000047
 31
0.0
 12
47.99686564797851
 22
1.587500000000045
 32
0.0
 13
47.99686564797851
 23
1.587500000000045
 33
0.0
  0
SOLID
  5
112
330
109
100
AcDbEntity
  8
0
 62
     0
100
AcDbTrace
 10
48.54719898131187
 20
-4.889499999999953
 30
0.0
 11
47.4465323146452
 21
-4.889499999999958
 31
0.0
 12
47.99686564797852
 22
-1.587499999999956
 32
0.0
 13
47.99686564797852
 23
-1.587499999999956
 33
0.0
  0
MTEXT
  5
113
330
109
100
AcDbEntity
  8
0
 62
     0
370
    15
100
AcDbMText
 10
43.62186564797842
 20
22.56632859961653
 30
0.0
 40
3.5
 41
0.0
 71
     2
 72
     1
  1
\A1;%%c3.18 [1/8]
  7
SLDTEXTSTYLE0
 11
-4.475859752819529E-15
 21
1.0
 31
0.0
 73
     1
 44
1.0
  0
POINT
  5
114
330
109
100
AcDbEntity
  8
Defpoints
 62
     0
100
AcDbPoint
 10
38.89375000000002
 20
1.587500000000008
 30
0.0
  0
POINT
  5
115
330
109
100
AcDbEntity
  8
Defpoints
 62
     0
100
AcDbPoint
 10
38.89375
 20
-1.587499999999991
 30
0.0
  0
POINT
  5
116
330
109
100
AcDbEntity
  8
Defpoints
 62
     0
100
AcDbPoint
 10
47.9968656479785
 20
-1.587499999999958
 30
0.0
  0
ENDBLK
  5
10B
330
109
100
AcDbEntity
  8
0
100
AcDbBlockEnd
  0
BLOCK
  5
124
330
123
100
AcDbEntity
  8
0
100
AcDbBlockBegin
  2
SW_DOWELSYMBOL_0
 70
     0
 10
0.0
 20
0.0
 30
0.0
  3
SW_DOWELSYMBOL_0
  1
SW_DOWELSYMBOL_0
  0
CIRCLE
  5
126
330
123
100
AcDbEntity
  8
해칭선
 62
     0
100
AcDbCircle
 10
0.0
 20
0.0
 30
0.0
 40
3.000000000000001
  0
HATCH
  5
127
330
123
100
AcDbEntity
  8
0
  6
Continuous
 62
     0
370
     0
100
AcDbHatch
 10
0.0
 20
0.0
 30
0.0
210
0.0
220
0.0
230
1.0
  2
SOLID
 70
     1
 71
     0
 91
        1
 92
        0
 93
        3
 72
     2
 10
0.0
 20
0.0
 40
3.000000000000001
 50
0.0
 51
90.0
 73
     1
 72
     1
 10
0.0
 20
3.000000000000001
 11
0.0
 21
0.0
 72
     1
 10
0.0
 20
0.0
 11
3.000000000000001
 21
0.0
 97
        0
 75
     0
 76
     1
 98
        1
 10
0.0
 20
0.0
  0
HATCH
  5
128
330
123
100
AcDbEntity
  8
0
  6
Continuous
 62
     0
370
     0
100
AcDbHatch
 10
0.0
 20
0.0
 30
0.0
210
0.0
220
0.0
230
1.0
  2
SOLID
 70
     1
 71
     0
 91
        1
 92
        0
 93
        3
 72
     2
 10
0.0
 20
0.0
 40
3.000000000000001
 50
180.0
 51
270.0000000000008
 73
     1
 72
     1
 10
0.0
 20
-3.000000000000001
 11
0.0
 21
0.0
 72
     1
 10
0.0
 20
0.0
 11
-3.000000000000001
 21
0.0
 97
        0
 75
     0
 76
     1
 98
        1
 10
0.0
 20
0.0
  0
ENDBLK
  5
125
330
123
100
AcDbEntity
  8
0
100
AcDbBlockEnd
  0
BLOCK
  5
210
330
20F
100
AcDbEntity
  8
0
100
AcDbBlockBegin
  2
*D8
 70
     1
 10
0.0
 20
0.0
 30
0.0
  3
*D8
  1
*D8
  0
LINE
  5
212
330
20F
100
AcDbEntity
  8
0
  6
Continuous
 62
     0
370
    -2
100
AcDbLine
 10
96.37000000000003
 20
14.29687500000001
 30
0.0
 11
96.37000000000003
 21
25.24892507127612
 31
0.0
  0
LINE
  5
213
330
20F
100
AcDbEntity
  8
0
  6
Continuous
 62
     0
370
    -2
100
AcDbLine
 10
83.67000000000002
 20
14.29687500000001
 30
0.0
 11
83.67000000000002
 21
25.24892507127612
 31
0.0
  0
LINE
  5
214
330
20F
100
AcDbEntity
  8
0
  6
Continuous
 62
     0
370
    -2
100
AcDbLine
 10
83.67000000000002
 20
25.24892507127612
 30
0.0
 11
57.39925000000002
 21
25.24892507127612
 31
0.0
  0
LINE
  5
215
330
20F
100
AcDbEntity
  8
0
  6
Continuous
 62
     0
370
    -2
100
AcDbLine
 10
93.06800000000004
 20
25.24892507127612
 30
0.0
 11
86.97200000000001
 21
25.24892507127612
 31
0.0
  0
SOLID
  5
216
330
20F
100
AcDbEntity
  8
0
 62
     0
100
AcDbTrace
 10
93.06800000000004
 20
24.69859173794278
 30
0.0
 11
93.06800000000004
 21
25.79925840460945
 31
0.0
 12
96.37000000000003
 22
25.24892507127612
 32
0.0
 13
96.37000000000003
 23
25.24892507127612
 33
0.0
  0
SOLID
  5
217
330
20F
100
AcDbEntity
  8
0
 62
     0
100
AcDbTrace
 10
86.97200000000001
 20
25.79925840460945
 30
0.0
 11
86.97200000000001
 21
24.69859173794278
 31
0.0
 12
83.67000000000002
 22
25.24892507127612
 32
0.0
 13
83.67000000000002
 23
25.24892507127612
 33
0.0
  0
MTEXT
  5
218
330
20F
100
AcDbEntity
  8
0
 62
     0
370
    15
100
AcDbMText
 10
68.33675000000002
 20
29.62392507127612
 30
0.0
 40
3.5
 41
0.0
 71
     2
 72
     1
  1
\A1;12.7 [1/2]
  7
SLDTEXTSTYLE0
 73
     1
 44
1.0
  0
POINT
  5
219
330
20F
100
AcDbEntity
  8
Defpoints
 62
     0
100
AcDbPoint
 10
96.37000000000003
 20
14.23437500000001
 30
0.0
  0
POINT
  5
21A
330
20F
100
AcDbEntity
  8
Defpoints
 62
     0
100
AcDbPoint
 10
83.67000000000002
 20
14.23437500000001
 30
0.0
  0
POINT
  5
21B
330
20F
100
AcDbEntity
  8
Defpoints
 62
     0
100
AcDbPoint
 10
83.67000000000002
 20
25.24892507127612
 30
0.0
  0
ENDBLK
  5
211
330
20F
100
AcDbEntity
  8
0
100
AcDbBlockEnd
  0
BLOCK
  5
21D
330
21C
100
AcDbEntity
  8
0
100
AcDbBlockBegin
  2
*D9
 70
     1
 10
0.0
 20
0.0
 30
0.0
  3
*D9
  1
*D9
  0
LINE
  5
21F
330
21C
100
AcDbEntity
  8
0
  6
Continuous
 62
     0
370
    -2
100
AcDbLine
 10
96.37000000000003
 20
14.29687500000001
 30
0.0
 11
96.37000000000003
 21
41.53797898817498
 31
0.0
  0
LINE
  5
220
330
21C
100
AcDbEntity
  8
0
  6
Continuous
 62
     0
370
    -2
100
AcDbLine
 10
16.99500000000003
 20
17.075
 30
0.0
 11
16.99500000000003
 21
41.53797898817498
 31
0.0
  0
LINE
  5
221
330
21C
100
AcDbEntity
  8
0
  6
Continuous
 62
     0
370
    -2
100
AcDbLine
 10
93.06800000000004
 20
41.53797898817498
 30
0.0
 11
20.29700000000003
 21
41.53797898817498
 31
0.0
  0
SOLID
  5
222
330
21C
100
AcDbEntity
  8
0
 62
     0
100
AcDbTrace
 10
93.06800000000004
 20
40.98764565484164
 30
0.0
 11
93.06800000000004
 21
42.08831232150831
 31
0.0
 12
96.37000000000003
 22
41.53797898817498
 32
0.0
 13
96.37000000000003
 23
41.53797898817498
 33
0.0
  0
SOLID
  5
223
330
21C
100
AcDbEntity
  8
0
 62
     0
100
AcDbTrace
 10
20.29700000000003
 20
42.08831232150831
 30
0.0
 11
20.29700000000003
 21
40.98764565484164
 31
0.0
 12
16.99500000000003
 22
41.53797898817498
 32
0.0
 13
16.99500000000003
 23
41.53797898817498
 33
0.0
  0
MTEXT
  5
224
330
21C
100
AcDbEntity
  8
0
 62
     0
370
    15
100
AcDbMText
 10
57.02989458697883
 20
45.91297898817498
 30
0.0
 40
3.5
 41
0.0
 71
     2
 72
     1
  1
\A1;79.38 [3 1/8]
  7
SLDTEXTSTYLE0
 73
     1
 44
1.0
  0
POINT
  5
225
330
21C
100
AcDbEntity
  8
Defpoints
 62
     0
100
AcDbPoint
 10
96.37000000000003
 20
14.23437500000001
 30
0.0
  0
POINT
  5
226
330
21C
100
AcDbEntity
  8
Defpoints
 62
     0
100
AcDbPoint
 10
16.99500000000003
 20
17.0125
 30
0.0
  0
POINT
  5
227
330
21C
100
AcDbEntity
  8
Defpoints
 62
     0
100
AcDbPoint
 10
16.99500000000003
 20
41.53797898817498
 30
0.0
  0
ENDBLK
  5
21E
330
21C
100
AcDbEntity
  8
0
100
AcDbBlockEnd
  0
BLOCK
  5
229
330
228
100
AcDbEntity
  8
0
100
AcDbBlockBegin
  2
*D10
 70
     1
 10
0.0
 20
0.0
 30
0.0
  3
*D10
  1
*D10
  0
LINE
  5
22B
330
228
100
AcDbEntity
  8
0
  6
Continuous
 62
     0
370
    -2
100
AcDbLine
 10
41.00060364977729
 20
17.0125
 30
0.0
 11
4.375000000000027
 21
17.01249999999986
 31
0.0
  0
LINE
  5
22C
330
228
100
AcDbEntity
  8
0
  6
Continuous
 62
     0
370
    -2
100
AcDbLine
 10
41.0006036497773
 20
7.487500000000003
 30
0.0
 11
4.37500000000006
 21
7.487499999999868
 31
0.0
  0
LINE
  5
22D
330
228
100
AcDbEntity
  8
0
  6
Continuous
 62
     0
370
    -2
100
AcDbLine
 10
4.375000000000038
 20
13.71049999999986
 30
0.0
 11
4.375000000000048
 21
10.78949999999987
 31
0.0
  0
SOLID
  5
22E
330
228
100
AcDbEntity
  8
0
 62
     0
100
AcDbTrace
 10
4.925333333333372
 20
13.71049999999986
 30
0.0
 11
3.824666666666705
 21
13.71049999999986
 31
0.0
 12
4.375000000000027
 22
17.01249999999986
 32
0.0
 13
4.375000000000027
 23
17.01249999999986
 33
0.0
  0
SOLID
  5
22F
330
228
100
AcDbEntity
  8
0
 62
     0
100
AcDbTrace
 10
3.824666666666715
 20
10.78949999999987
 30
0.0
 11
4.925333333333382
 21
10.78949999999987
 31
0.0
 12
4.37500000000006
 22
7.487499999999868
 32
0.0
 13
4.37500000000006
 23
7.487499999999868
 33
0.0
  0
MTEXT
  5
230
330
228
100
AcDbEntity
  8
0
 62
     0
370
    15
100
AcDbMText
 10
0.0000000000000426
 20
12.24999999999999
 30
0.0
 40
3.5
 41
0.0
 71
     2
 72
     1
  1
\A1;%%c9.53 [3/8]
  7
SLDTEXTSTYLE0
 11
-3.450141892798388E-15
 21
1.0
 31
0.0
 73
     1
 44
1.0
  0
POINT
  5
231
330
228
100
AcDbEntity
  8
Defpoints
 62
     0
100
AcDbPoint
 10
41.06310364977729
 20
17.0125
 30
0.0
  0
POINT
  5
232
330
228
100
AcDbEntity
  8
Defpoints
 62
     0
100
AcDbPoint
 10
41.0631036497773
 20
7.487500000000003
 30
0.0
  0
POINT
  5
233
330
228
100
AcDbEntity
  8
Defpoints
 62
     0
100
AcDbPoint
 10
4.375000000000064
 20
7.487499999999867
 30
0.0
  0
ENDBLK
  5
22A
330
228
100
AcDbEntity
  8
0
100
AcDbBlockEnd
  0
BLOCK
  5
235
330
234
100
AcDbEntity
  8
0
100
AcDbBlockBegin
  2
*D11
 70
     1
 10
0.0
 20
0.0
 30
0.0
  3
*D11
  1
*D11
  0
LINE
  5
237
330
234
100
AcDbEntity
  8
0
  6
Continuous
 62
     0
370
    -2
100
AcDbLine
 10
96.43250000000003
 20
14.23437500000001
 30
0.0
 11
107.7003560752205
 21
14.23437500000005
 31
0.0
  0
LINE
  5
238
330
234
100
AcDbEntity
  8
0
  6
Continuous
 62
     0
370
    -2
100
AcDbLine
 10
96.42200387799849
 20
10.26562500000001
 30
0.0
 11
107.7003560752205
 21
10.26562500000005
 31
0.0
  0
LINE
  5
239
330
234
100
AcDbEntity
  8
0
  6
Continuous
 62
     0
370
    -2
100
AcDbLine
 10
107.7003560752205
 20
14.23437500000005
 30
0.0
 11
107.7003560752203
 21
52.50149628173261
 31
0.0
  0
LINE
  5
23A
330
234
100
AcDbEntity
  8
0
  6
Continuous
 62
     0
370
    -2
100
AcDbLine
 10
107.7003560752204
 20
17.53637500000005
 30
0.0
 11
107.7003560752204
 21
20.83837500000005
 31
0.0
  0
LINE
  5
23B
330
234
100
AcDbEntity
  8
0
  6
Continuous
 62
     0
370
    -2
100
AcDbLine
 10
107.7003560752205
 20
6.96362500000005
 30
0.0
 11
107.7003560752205
 21
3.661625000000051
 31
0.0
  0
SOLID
  5
23C
330
234
100
AcDbEntity
  8
0
 62
     0
100
AcDbTrace
 10
107.1500227418871
 20
17.53637500000005
 30
0.0
 11
108.2506894085538
 21
17.53637500000005
 31
0.0
 12
107.7003560752205
 22
14.23437500000005
 32
0.0
 13
107.7003560752205
 23
14.23437500000005
 33
0.0
  0
SOLID
  5
23D
330
234
100
AcDbEntity
  8
0
 62
     0
100
AcDbTrace
 10
108.2506894085538
 20
6.963625000000052
 30
0.0
 11
107.1500227418872
 21
6.963625000000048
 31
0.0
 12
107.7003560752205
 22
10.26562500000005
 32
0.0
 13
107.7003560752205
 23
10.26562500000005
 33
0.0
  0
MTEXT
  5
23E
330
234
100
AcDbEntity
  8
0
 62
     0
370
    15
100
AcDbMText
 10
103.3253560752204
 20
38.0639962817326
 30
0.0
 40
3.5
 41
0.0
 71
     2
 72
     1
  1
\A1;%%c3.97 [5/32]
  7
SLDTEXTSTYLE0
 11
-3.580687802255623E-15
 21
1.0
 31
0.0
 73
     1
 44
1.0
  0
POINT
  5
23F
330
234
100
AcDbEntity
  8
Defpoints
 62
     0
100
AcDbPoint
 10
96.37000000000003
 20
14.23437500000001
 30
0.0
  0
POINT
  5
240
330
234
100
AcDbEntity
  8
Defpoints
 62
     0
100
AcDbPoint
 10
96.35950387799849
 20
10.26562500000001
 30
0.0
  0
POINT
  5
241
330
234
100
AcDbEntity
  8
Defpoints
 62
     0
100
AcDbPoint
 10
107.7003560752205
 20
10.26562500000005
 30
0.0
  0
ENDBLK
  5
236
330
234
100
AcDbEntity
  8
0
100
AcDbBlockEnd
  0
BLOCK
  5
29F
330
29E
100
AcDbEntity
  8
0
100
AcDbBlockBegin
  2
*D12
 70
     1
 10
0.0
 20
0.0
 30
0.0
  3
*D12
  1
*D12
  0
LINE
  5
2A1
330
29E
100
AcDbEntity
  8
0
  6
Continuous
 62
     0
370
    -2
100
AcDbLine
 10
137.0155312822004
 20
-32.28924079225119
 30
0.0
 11
137.0155312822004
 21
-21.33719072097508
 31
0.0
  0
LINE
  5
2A2
330
29E
100
AcDbEntity
  8
0
  6
Continuous
 62
     0
370
    -2
100
AcDbLine
 10
124.3155312822003
 20
-32.28924079225119
 30
0.0
 11
124.3155312822003
 21
-21.33719072097508
 31
0.0
  0
LINE
  5
2A3
330
29E
100
AcDbEntity
  8
0
  6
Continuous
 62
     0
370
    -2
100
AcDbLine
 10
124.3155312822003
 20
-21.33719072097508
 30
0.0
 11
98.04478128220033
 21
-21.33719072097508
 31
0.0
  0
LINE
  5
2A4
330
29E
100
AcDbEntity
  8
0
  6
Continuous
 62
     0
370
    -2
100
AcDbLine
 10
133.7135312822004
 20
-21.33719072097508
 30
0.0
 11
127.6175312822003
 21
-21.33719072097508
 31
0.0
  0
SOLID
  5
2A5
330
29E
100
AcDbEntity
  8
0
 62
     0
100
AcDbTrace
 10
133.7135312822004
 20
-21.88752405430841
 30
0.0
 11
133.7135312822004
 21
-20.78685738764174
 31
0.0
 12
137.0155312822004
 22
-21.33719072097508
 32
0.0
 13
137.0155312822004
 23
-21.33719072097508
 33
0.0
  0
SOLID
  5
2A6
330
29E
100
AcDbEntity
  8
0
 62
     0
100
AcDbTrace
 10
127.6175312822003
 20
-20.78685738764174
 30
0.0
 11
127.6175312822003
 21
-21.88752405430841
 31
0.0
 12
124.3155312822003
 22
-21.33719072097508
 32
0.0
 13
124.3155312822003
 23
-21.33719072097508
 33
0.0
  0
MTEXT
  5
2A7
330
29E
100
AcDbEntity
  8
0
 62
     0
370
    15
100
AcDbMText
 10
108.9822812822003
 20
-16.96219072097508
 30
0.0
 40
3.5
 41
0.0
 71
     2
 72
     1
  1
\A1;12.7 [1/2]
  7
SLDTEXTSTYLE0
 73
     1
 44
1.0
  0
POINT
  5
2A8
330
29E
100
AcDbEntity
  8
Defpoints
 62
     0
100
AcDbPoint
 10
137.0155312822004
 20
-32.35174079225119
 30
0.0
  0
POINT
  5
2A9
330
29E
100
AcDbEntity
  8
Defpoints
 62
     0
100
AcDbPoint
 10
124.3155312822003
 20
-32.35174079225119
 30
0.0
  0
POINT
  5
2AA
330
29E
100
AcDbEntity
  8
Defpoints
 62
     0
100
AcDbPoint
 10
124.3155312822003
 20
-21.33719072097508
 30
0.0
  0
ENDBLK
  5
2A0
330
29E
100
AcDbEntity
  8
0
100
AcDbBlockEnd
  0
BLOCK
  5
2AC
330
2AB
100
AcDbEntity
  8
0
100
AcDbBlockBegin
  2
*D13
 70
     1
 10
0.0
 20
0.0
 30
0.0
  3
*D13
  1
*D13
  0
LINE
  5
2AE
330
2AB
100
AcDbEntity
  8
0
  6
Continuous
 62
     0
370
    -2
100
AcDbLine
 10
137.0155312822004
 20
-32.28924079225119
 30
0.0
 11
137.0155312822004
 21
-5.048136804076215
 31
0.0
  0
LINE
  5
2AF
330
2AB
100
AcDbEntity
  8
0
  6
Continuous
 62
     0
370
    -2
100
AcDbLine
 10
57.64053128220034
 20
-29.51111579225119
 30
0.0
 11
57.64053128220034
 21
-5.048136804076215
 31
0.0
  0
LINE
  5
2B0
330
2AB
100
AcDbEntity
  8
0
  6
Continuous
 62
     0
370
    -2
100
AcDbLine
 10
133.7135312822004
 20
-5.048136804076215
 30
0.0
 11
60.94253128220034
 21
-5.048136804076215
 31
0.0
  0
SOLID
  5
2B1
330
2AB
100
AcDbEntity
  8
0
 62
     0
100
AcDbTrace
 10
133.7135312822004
 20
-5.598470137409548
 30
0.0
 11
133.7135312822004
 21
-4.497803470742881
 31
0.0
 12
137.0155312822004
 22
-5.048136804076215
 32
0.0
 13
137.0155312822004
 23
-5.048136804076215
 33
0.0
  0
SOLID
  5
2B2
330
2AB
100
AcDbEntity
  8
0
 62
     0
100
AcDbTrace
 10
60.94253128220034
 20
-4.497803470742881
 30
0.0
 11
60.94253128220034
 21
-5.598470137409548
 31
0.0
 12
57.64053128220034
 22
-5.048136804076215
 32
0.0
 13
57.64053128220034
 23
-5.048136804076215
 33
0.0
  0
MTEXT
  5
2B3
330
2AB
100
AcDbEntity
  8
0
 62
     0
370
    15
100
AcDbMText
 10
97.67542586917914
 20
-0.6731368040762149
 30
0.0
 40
3.5
 41
0.0
 71
     2
 72
     1
  1
\A1;79.38 [3 1/8]
  7
SLDTEXTSTYLE0
 73
     1
 44
1.0
  0
POINT
  5
2B4
330
2AB
100
AcDbEntity
  8
Defpoints
 62
     0
100
AcDbPoint
 10
137.0155312822004
 20
-32.35174079225119
 30
0.0
  0
POINT
  5
2B5
330
2AB
100
AcDbEntity
  8
Defpoints
 62
     0
100
AcDbPoint
 10
57.64053128220034
 20
-29.57361579225119
 30
0.0
  0
POINT
  5
2B6
330
2AB
100
AcDbEntity
  8
Defpoints
 62
     0
100
AcDbPoint
 10
57.64053128220034
 20
-5.048136804076215
 30
0.0
  0
ENDBLK
  5
2AD
330
2AB
100
AcDbEntity
  8
0
100
AcDbBlockEnd
  0
BLOCK
  5
2B8
330
2B7
100
AcDbEntity
  8
0
100
AcDbBlockBegin
  2
*D14
 70
     1
 10
0.0
 20
0.0
 30
0.0
  3
*D14
  1
*D14
  0
LINE
  5
2BA
330
2B7
100
AcDbEntity
  8
0
  6
Continuous
 62
     0
370
    -2
100
AcDbLine
 10
81.6461349319776
 20
-29.5736157922512
 30
0.0
 11
45.02053128220034
 21
-29.57361579225133
 31
0.0
  0
LINE
  5
2BB
330
2B7
100
AcDbEntity
  8
0
  6
Continuous
 62
     0
370
    -2
100
AcDbLine
 10
81.64613493197761
 20
-39.09861579225119
 30
0.0
 11
45.02053128220037
 21
-39.09861579225132
 31
0.0
  0
LINE
  5
2BC
330
2B7
100
AcDbEntity
  8
0
  6
Continuous
 62
     0
370
    -2
100
AcDbLine
 10
45.02053128220035
 20
-32.87561579225133
 30
0.0
 11
45.02053128220036
 21
-35.79661579225132
 31
0.0
  0
SOLID
  5
2BD
330
2B7
100
AcDbEntity
  8
0
 62
     0
100
AcDbTrace
 10
45.57086461553369
 20
-32.87561579225133
 30
0.0
 11
44.47019794886702
 21
-32.87561579225133
 31
0.0
 12
45.02053128220034
 22
-29.57361579225133
 32
0.0
 13
45.02053128220034
 23
-29.57361579225133
 33
0.0
  0
SOLID
  5
2BE
330
2B7
100
AcDbEntity
  8
0
 62
     0
100
AcDbTrace
 10
44.47019794886702
 20
-35.79661579225132
 30
0.0
 11
45.57086461553369
 21
-35.79661579225132
 31
0.0
 12
45.02053128220037
 22
-39.09861579225132
 32
0.0
 13
45.02053128220037
 23
-39.09861579225132
 33
0.0
  0
MTEXT
  5
2BF
330
2B7
100
AcDbEntity
  8
0
 62
     0
370
    15
100
AcDbMText
 10
40.64553128220035
 20
-34.33611579225121
 30
0.0
 40
3.5
 41
0.0
 71
     2
 72
     1
  1
\A1;%%c9.53 [3/8]
  7
SLDTEXTSTYLE0
 11
-3.729883127349610E-15
 21
1.0
 31
0.0
 73
     1
 44
1.0
  0
POINT
  5
2C0
330
2B7
100
AcDbEntity
  8
Defpoints
 62
     0
100
AcDbPoint
 10
81.7086349319776
 20
-29.5736157922512
 30
0.0
  0
POINT
  5
2C1
330
2B7
100
AcDbEntity
  8
Defpoints
 62
     0
100
AcDbPoint
 10
81.70863493197761
 20
-39.09861579225119
 30
0.0
  0
POINT
  5
2C2
330
2B7
100
AcDbEntity
  8
Defpoints
 62
     0
100
AcDbPoint
 10
45.02053128220037
 20
-39.09861579225132
 30
0.0
  0
ENDBLK
  5
2B9
330
2B7
100
AcDbEntity
  8
0
100
AcDbBlockEnd
  0
BLOCK
  5
2C4
330
2C3
100
AcDbEntity
  8
0
100
AcDbBlockBegin
  2
*D15
 70
     1
 10
0.0
 20
0.0
 30
0.0
  3
*D15
  1
*D15
  0
LINE
  5
2C6
330
2C3
100
AcDbEntity
  8
0
  6
Continuous
 62
     0
370
    -2
100
AcDbLine
 10
137.0780312822004
 20
-32.35174079225119
 30
0.0
 11
148.3458873574207
 21
-32.35174079225114
 31
0.0
  0
LINE
  5
2C7
330
2C3
100
AcDbEntity
  8
0
  6
Continuous
 62
     0
370
    -2
100
AcDbLine
 10
137.0675351601988
 20
-36.32049079225119
 30
0.0
 11
148.3458873574207
 21
-36.32049079225114
 31
0.0
  0
LINE
  5
2C8
330
2C3
100
AcDbEntity
  8
0
  6
Continuous
 62
     0
370
    -2
100
AcDbLine
 10
148.3458873574207
 20
-32.35174079225114
 30
0.0
 11
148.3458873574207
 21
5.915380489481421
 31
0.0
  0
LINE
  5
2C9
330
2C3
100
AcDbEntity
  8
0
  6
Continuous
 62
     0
370
    -2
100
AcDbLine
 10
148.3458873574207
 20
-29.04974079225114
 30
0.0
 11
148.3458873574207
 21
-25.74774079225114
 31
0.0
  0
LINE
  5
2CA
330
2C3
100
AcDbEntity
  8
0
  6
Continuous
 62
     0
370
    -2
100
AcDbLine
 10
148.3458873574207
 20
-39.62249079225114
 30
0.0
 11
148.3458873574207
 21
-42.92449079225114
 31
0.0
  0
SOLID
  5
2CB
330
2C3
100
AcDbEntity
  8
0
 62
     0
100
AcDbTrace
 10
147.7955540240874
 20
-29.04974079225114
 30
0.0
 11
148.896220690754
 21
-29.04974079225114
 31
0.0
 12
148.3458873574207
 22
-32.35174079225114
 32
0.0
 13
148.3458873574207
 23
-32.35174079225114
 33
0.0
  0
SOLID
  5
2CC
330
2C3
100
AcDbEntity
  8
0
 62
     0
100
AcDbTrace
 10
148.896220690754
 20
-39.62249079225114
 30
0.0
 11
147.7955540240874
 21
-39.62249079225114
 31
0.0
 12
148.3458873574207
 22
-36.32049079225114
 32
0.0
 13
148.3458873574207
 23
-36.32049079225114
 33
0.0
  0
MTEXT
  5
2CD
330
2C3
100
AcDbEntity
  8
0
 62
     0
370
    15
100
AcDbMText
 10
143.9708873574207
 20
-8.522119510518579
 30
0.0
 40
3.5
 41
0.0
 71
     2
 72
     1
  1
\A1;%%c3.97 [5/32]
  7
SLDTEXTSTYLE0
 11
0.0
 21
1.0
 31
0.0
 73
     1
 44
1.0
  0
POINT
  5
2CE
330
2C3
100
AcDbEntity
  8
Defpoints
 62
     0
100
AcDbPoint
 10
137.0155312822004
 20
-32.35174079225119
 30
0.0
  0
POINT
  5
2CF
330
2C3
100
AcDbEntity
  8
Defpoints
 62
     0
100
AcDbPoint
 10
137.0050351601988
 20
-36.32049079225119
 30
0.0
  0
POINT
  5
2D0
330
2C3
100
AcDbEntity
  8
Defpoints
 62
     0
100
AcDbPoint
 10
148.3458873574208
 20
-36.32049079225114
 30
0.0
  0
ENDBLK
  5
2C5
330
2C3
100
AcDbEntity
  8
0
100
AcDbBlockEnd
  0
BLOCK
  5
356
330
355
100
AcDbEntity
  8
0
100
AcDbBlockBegin
  2
*D17
 70
     1
 10
0.0
 20
0.0
 30
0.0
  3
*D17
  1
*D17
  0
LINE
  5
358
330
355
100
AcDbEntity
  8
0
  6
Continuous
 62
     0
370
    -2
100
AcDbLine
 10
80.78750000000002
 20
9.841499999999963
 30
0.0
 11
80.78750000000002
 21
22.92895989356483
 31
0.0
  0
LINE
  5
359
330
355
100
AcDbEntity
  8
0
  6
Continuous
 62
     0
370
    -2
100
AcDbLine
 10
71.26250000000002
 20
9.841499999999945
 30
0.0
 11
71.26250000000002
 21
22.92895989356483
 31
0.0
  0
LINE
  5
35A
330
355
100
AcDbEntity
  8
0
  6
Continuous
 62
     0
370
    -2
100
AcDbLine
 10
71.26250000000002
 20
22.92895989356483
 30
0.0
 11
44.33550000000001
 21
22.92895989356483
 31
0.0
  0
LINE
  5
35B
330
355
100
AcDbEntity
  8
0
  6
Continuous
 62
     0
370
    -2
100
AcDbLine
 10
77.48550000000003
 20
22.92895989356483
 30
0.0
 11
74.56450000000001
 21
22.92895989356483
 31
0.0
  0
SOLID
  5
35C
330
355
100
AcDbEntity
  8
0
 62
     0
100
AcDbTrace
 10
77.48550000000003
 20
22.3786265602315
 30
0.0
 11
77.48550000000003
 21
23.47929322689816
 31
0.0
 12
80.78750000000002
 22
22.92895989356483
 32
0.0
 13
80.78750000000002
 23
22.92895989356483
 33
0.0
  0
SOLID
  5
35D
330
355
100
AcDbEntity
  8
0
 62
     0
100
AcDbTrace
 10
74.56450000000001
 20
23.47929322689816
 30
0.0
 11
74.56450000000001
 21
22.3786265602315
 31
0.0
 12
71.26250000000002
 22
22.92895989356483
 32
0.0
 13
71.26250000000002
 23
22.92895989356483
 33
0.0
  0
MTEXT
  5
35E
330
355
100
AcDbEntity
  8
0
 62
     0
370
    15
100
AcDbMText
 10
56.14800000000001
 20
27.30395989356483
 30
0.0
 40
3.5
 41
0.0
 71
     2
 72
     1
  1
\A1;9.53 [3/8]
  7
SLDTEXTSTYLE0
 73
     1
 44
1.0
  0
POINT
  5
35F
330
355
100
AcDbEntity
  8
Defpoints
 62
     0
100
AcDbPoint
 10
80.78750000000002
 20
9.778999999999963
 30
0.0
  0
POINT
  5
360
330
355
100
AcDbEntity
  8
Defpoints
 62
     0
100
AcDbPoint
 10
71.26250000000002
 20
9.778999999999945
 30
0.0
  0
POINT
  5
361
330
355
100
AcDbEntity
  8
Defpoints
 62
     0
100
AcDbPoint
 10
71.26250000000002
 20
22.92895989356483
 30
0.0
  0
ENDBLK
  5
357
330
355
100
AcDbEntity
  8
0
100
AcDbBlockEnd
  0
BLOCK
  5
363
330
362
100
AcDbEntity
  8
0
100
AcDbBlockBegin
  2
*D18
 70
     1
 10
0.0
 20
0.0
 30
0.0
  3
*D18
  1
*D18
  0
LINE
  5
365
330
362
100
AcDbEntity
  8
0
  6
Continuous
 62
     0
370
    -2
100
AcDbLine
 10
80.78750000000002
 20
9.841499999999963
 30
0.0
 11
80.78750000000002
 21
37.47947898817493
 31
0.0
  0
LINE
  5
366
330
362
100
AcDbEntity
  8
0
  6
Continuous
 62
     0
370
    -2
100
AcDbLine
 10
2.999999999999986
 20
12.20649999999995
 30
0.0
 11
2.999999999999986
 21
37.47947898817493
 31
0.0
  0
LINE
  5
367
330
362
100
AcDbEntity
  8
0
  6
Continuous
 62
     0
370
    -2
100
AcDbLine
 10
77.48550000000003
 20
37.47947898817493
 30
0.0
 11
6.301999999999985
 21
37.47947898817493
 31
0.0
  0
SOLID
  5
368
330
362
100
AcDbEntity
  8
0
 62
     0
100
AcDbTrace
 10
77.48550000000003
 20
36.9291456548416
 30
0.0
 11
77.48550000000003
 21
38.02981232150827
 31
0.0
 12
80.78750000000002
 22
37.47947898817493
 32
0.0
 13
80.78750000000002
 23
37.47947898817493
 33
0.0
  0
SOLID
  5
369
330
362
100
AcDbEntity
  8
0
 62
     0
100
AcDbTrace
 10
6.301999999999985
 20
38.02981232150827
 30
0.0
 11
6.301999999999985
 21
36.9291456548416
 31
0.0
 12
2.999999999999986
 22
37.47947898817493
 32
0.0
 13
2.999999999999986
 23
37.47947898817493
 33
0.0
  0
MTEXT
  5
36A
330
362
100
AcDbEntity
  8
0
 62
     0
370
    15
100
AcDbMText
 10
42.23419669523923
 20
41.85447898817493
 30
0.0
 40
3.5
 41
0.0
 71
     2
 72
     1
  1
\A1;77.79 [3 1/16]
  7
SLDTEXTSTYLE0
 73
     1
 44
1.0
  0
POINT
  5
36B
330
362
100
AcDbEntity
  8
Defpoints
 62
     0
100
AcDbPoint
 10
80.78750000000002
 20
9.778999999999963
 30
0.0
  0
POINT
  5
36C
330
362
100
AcDbEntity
  8
Defpoints
 62
     0
100
AcDbPoint
 10
2.999999999999986
 20
12.14399999999995
 30
0.0
  0
POINT
  5
36D
330
362
100
AcDbEntity
  8
Defpoints
 62
     0
100
AcDbPoint
 10
2.999999999999986
 20
37.47947898817493
 30
0.0
  0
ENDBLK
  5
364
330
362
100
AcDbEntity
  8
0
100
AcDbBlockEnd
  0
BLOCK
  5
36F
330
36E
100
AcDbEntity
  8
0
100
AcDbBlockBegin
  2
*D19
 70
     1
 10
0.0
 20
0.0
 30
0.0
  3
*D19
  1
*D19
  0
LINE
  5
371
330
36E
100
AcDbEntity
  8
0
  6
Continuous
 62
     0
370
    -2
100
AcDbLine
 10
80.85000000000002
 20
9.778999999999963
 30
0.0
 11
89.89061564797852
 21
9.778999999999996
 31
0.0
  0
LINE
  5
372
330
36E
100
AcDbEntity
  8
0
  6
Continuous
 62
     0
370
    -2
100
AcDbLine
 10
80.85000000000001
 20
6.603999999999963
 30
0.0
 11
89.89061564797854
 21
6.603999999999996
 31
0.0
  0
LINE
  5
373
330
36E
100
AcDbEntity
  8
0
  6
Continuous
 62
     0
370
    -2
100
AcDbLine
 10
89.89061564797852
 20
9.778999999999996
 30
0.0
 11
89.89061564797836
 21
43.0078285996165
 31
0.0
  0
LINE
  5
374
330
36E
100
AcDbEntity
  8
0
  6
Continuous
 62
     0
370
    -2
100
AcDbLine
 10
89.8906156479785
 20
13.081
 30
0.0
 11
89.89061564797849
 21
16.383
 31
0.0
  0
LINE
  5
375
330
36E
100
AcDbEntity
  8
0
  6
Continuous
 62
     0
370
    -2
100
AcDbLine
 10
89.89061564797855
 20
3.301999999999996
 30
0.0
 11
89.89061564797856
 21
-0.0000000000000036
 31
0.0
  0
SOLID
  5
376
330
36E
100
AcDbEntity
  8
0
 62
     0
100
AcDbTrace
 10
89.34028231464518
 20
13.08099999999999
 30
0.0
 11
90.44094898131183
 21
13.081
 31
0.0
 12
89.89061564797852
 22
9.778999999999996
 32
0.0
 13
89.89061564797852
 23
9.778999999999996
 33
0.0
  0
SOLID
  5
377
330
36E
100
AcDbEntity
  8
0
 62
     0
100
AcDbTrace
 10
90.44094898131188
 20
3.301999999999999
 30
0.0
 11
89.34028231464522
 21
3.301999999999993
 31
0.0
 12
89.89061564797854
 22
6.603999999999996
 32
0.0
 13
89.89061564797854
 23
6.603999999999996
 33
0.0
  0
MTEXT
  5
378
330
36E
100
AcDbEntity
  8
0
 62
     0
370
    15
100
AcDbMText
 10
85.51561564797842
 20
30.75782859961648
 30
0.0
 40
3.5
 41
0.0
 71
     2
 72
     1
  1
\A1;%%c3.18 [1/8]
  7
SLDTEXTSTYLE0
 11
-4.475859752819529E-15
 21
1.0
 31
0.0
 73
     1
 44
1.0
  0
POINT
  5
379
330
36E
100
AcDbEntity
  8
Defpoints
 62
     0
100
AcDbPoint
 10
80.78750000000002
 20
9.778999999999963
 30
0.0
  0
POINT
  5
37A
330
36E
100
AcDbEntity
  8
Defpoints
 62
     0
100
AcDbPoint
 10
80.78750000000001
 20
6.603999999999963
 30
0.0
  0
POINT
  5
37B
330
36E
100
AcDbEntity
  8
Defpoints
 62
     0
100
AcDbPoint
 10
89.8906156479785
 20
6.603999999999997
 30
0.0
  0
ENDBLK
  5
370
330
36E
100
AcDbEntity
  8
0
100
AcDbBlockEnd
  0
BLOCK
  5
3A9
330
3A8
100
AcDbEntity
  8
0
100
AcDbBlockBegin
  2
*D20
 70
     1
 10
0.0
 20
0.0
 30
0.0
  3
*D20
  1
*D20
  0
LINE
  5
3AB
330
3A8
100
AcDbEntity
  8
0
  6
Continuous
 62
     0
370
    -2
100
AcDbLine
 10
161.1153229155212
 20
54.22283092648084
 30
0.0
 11
161.1153229155212
 21
67.31029082004571
 31
0.0
  0
LINE
  5
3AC
330
3A8
100
AcDbEntity
  8
0
  6
Continuous
 62
     0
370
    -2
100
AcDbLine
 10
151.5903229155211
 20
54.22283092648082
 30
0.0
 11
151.5903229155211
 21
67.31029082004571
 31
0.0
  0
LINE
  5
3AD
330
3A8
100
AcDbEntity
  8
0
  6
Continuous
 62
     0
370
    -2
100
AcDbLine
 10
151.5903229155211
 20
67.31029082004571
 30
0.0
 11
124.6633229155211
 21
67.31029082004571
 31
0.0
  0
LINE
  5
3AE
330
3A8
100
AcDbEntity
  8
0
  6
Continuous
 62
     0
370
    -2
100
AcDbLine
 10
157.8133229155212
 20
67.31029082004571
 30
0.0
 11
154.8923229155211
 21
67.31029082004571
 31
0.0
  0
SOLID
  5
3AF
330
3A8
100
AcDbEntity
  8
0
 62
     0
100
AcDbTrace
 10
157.8133229155212
 20
66.75995748671238
 30
0.0
 11
157.8133229155212
 21
67.86062415337904
 31
0.0
 12
161.1153229155212
 22
67.31029082004571
 32
0.0
 13
161.1153229155212
 23
67.31029082004571
 33
0.0
  0
SOLID
  5
3B0
330
3A8
100
AcDbEntity
  8
0
 62
     0
100
AcDbTrace
 10
154.8923229155211
 20
67.86062415337904
 30
0.0
 11
154.8923229155211
 21
66.75995748671238
 31
0.0
 12
151.5903229155211
 22
67.31029082004571
 32
0.0
 13
151.5903229155211
 23
67.31029082004571
 33
0.0
  0
MTEXT
  5
3B1
330
3A8
100
AcDbEntity
  8
0
 62
     0
370
    15
100
AcDbMText
 10
136.4758229155211
 20
71.68529082004571
 30
0.0
 40
3.5
 41
0.0
 71
     2
 72
     1
  1
\A1;9.53 [3/8]
  7
SLDTEXTSTYLE0
 73
     1
 44
1.0
  0
POINT
  5
3B2
330
3A8
100
AcDbEntity
  8
Defpoints
 62
     0
100
AcDbPoint
 10
161.1153229155212
 20
54.16033092648084
 30
0.0
  0
POINT
  5
3B3
330
3A8
100
AcDbEntity
  8
Defpoints
 62
     0
100
AcDbPoint
 10
151.5903229155211
 20
54.16033092648082
 30
0.0
  0
POINT
  5
3B4
330
3A8
100
AcDbEntity
  8
Defpoints
 62
     0
100
AcDbPoint
 10
151.5903229155211
 20
67.31029082004571
 30
0.0
  0
ENDBLK
  5
3AA
330
3A8
100
AcDbEntity
  8
0
100
AcDbBlockEnd
  0
BLOCK
  5
3B6
330
3B5
100
AcDbEntity
  8
0
100
AcDbBlockBegin
  2
*D21
 70
     1
 10
0.0
 20
0.0
 30
0.0
  3
*D21
  1
*D21
  0
LINE
  5
3B8
330
3B5
100
AcDbEntity
  8
0
  6
Continuous
 62
     0
370
    -2
100
AcDbLine
 10
161.1153229155212
 20
54.22283092648084
 30
0.0
 11
161.1153229155212
 21
81.86080991465582
 31
0.0
  0
LINE
  5
3B9
330
3B5
100
AcDbEntity
  8
0
  6
Continuous
 62
     0
370
    -2
100
AcDbLine
 10
83.32782291552112
 20
56.58783092648083
 30
0.0
 11
83.32782291552112
 21
81.86080991465582
 31
0.0
  0
LINE
  5
3BA
330
3B5
100
AcDbEntity
  8
0
  6
Continuous
 62
     0
370
    -2
100
AcDbLine
 10
157.8133229155212
 20
81.86080991465582
 30
0.0
 11
86.62982291552112
 21
81.86080991465582
 31
0.0
  0
SOLID
  5
3BB
330
3B5
100
AcDbEntity
  8
0
 62
     0
100
AcDbTrace
 10
157.8133229155212
 20
81.31047658132249
 30
0.0
 11
157.8133229155212
 21
82.41114324798914
 31
0.0
 12
161.1153229155212
 22
81.86080991465582
 32
0.0
 13
161.1153229155212
 23
81.86080991465582
 33
0.0
  0
SOLID
  5
3BC
330
3B5
100
AcDbEntity
  8
0
 62
     0
100
AcDbTrace
 10
86.62982291552112
 20
82.41114324798914
 30
0.0
 11
86.62982291552112
 21
81.31047658132249
 31
0.0
 12
83.32782291552112
 22
81.86080991465582
 32
0.0
 13
83.32782291552112
 23
81.86080991465582
 33
0.0
  0
MTEXT
  5
3BD
330
3B5
100
AcDbEntity
  8
0
 62
     0
370
    15
100
AcDbMText
 10
122.5620196107604
 20
86.23580991465582
 30
0.0
 40
3.5
 41
0.0
 71
     2
 72
     1
  1
\A1;77.79 [3 1/16]
  7
SLDTEXTSTYLE0
 73
     1
 44
1.0
  0
POINT
  5
3BE
330
3B5
100
AcDbEntity
  8
Defpoints
 62
     0
100
AcDbPoint
 10
161.1153229155212
 20
54.16033092648084
 30
0.0
  0
POINT
  5
3BF
330
3B5
100
AcDbEntity
  8
Defpoints
 62
     0
100
AcDbPoint
 10
83.32782291552112
 20
56.52533092648083
 30
0.0
  0
POINT
  5
3C0
330
3B5
100
AcDbEntity
  8
Defpoints
 62
     0
100
AcDbPoint
 10
83.32782291552112
 20
81.86080991465582
 30
0.0
  0
ENDBLK
  5
3B7
330
3B5
100
AcDbEntity
  8
0
100
AcDbBlockEnd
  0
BLOCK
  5
3C2
330
3C1
100
AcDbEntity
  8
0
100
AcDbBlockBegin
  2
*D22
 70
     1
 10
0.0
 20
0.0
 30
0.0
  3
*D22
  1
*D22
  0
LINE
  5
3C4
330
3C1
100
AcDbEntity
  8
0
  6
Continuous
 62
     0
370
    -2
100
AcDbLine
 10
161.1778229155212
 20
54.16033092648084
 30
0.0
 11
170.2184385634995
 21
54.16033092648087
 31
0.0
  0
LINE
  5
3C5
330
3C1
100
AcDbEntity
  8
0
  6
Continuous
 62
     0
370
    -2
100
AcDbLine
 10
161.1778229155211
 20
50.98533092648084
 30
0.0
 11
170.2184385634995
 21
50.98533092648088
 31
0.0
  0
LINE
  5
3C6
330
3C1
100
AcDbEntity
  8
0
  6
Continuous
 62
     0
370
    -2
100
AcDbLine
 10
170.2184385634995
 20
54.16033092648087
 30
0.0
 11
170.2184385634995
 21
87.38915952609737
 31
0.0
  0
LINE
  5
3C7
330
3C1
100
AcDbEntity
  8
0
  6
Continuous
 62
     0
370
    -2
100
AcDbLine
 10
170.2184385634995
 20
57.46233092648087
 30
0.0
 11
170.2184385634995
 21
60.76433092648087
 31
0.0
  0
LINE
  5
3C8
330
3C1
100
AcDbEntity
  8
0
  6
Continuous
 62
     0
370
    -2
100
AcDbLine
 10
170.2184385634995
 20
47.68333092648088
 30
0.0
 11
170.2184385634995
 21
44.38133092648088
 31
0.0
  0
SOLID
  5
3C9
330
3C1
100
AcDbEntity
  8
0
 62
     0
100
AcDbTrace
 10
169.6681052301662
 20
57.46233092648087
 30
0.0
 11
170.7687718968329
 21
57.46233092648087
 31
0.0
 12
170.2184385634995
 22
54.16033092648087
 32
0.0
 13
170.2184385634995
 23
54.16033092648087
 33
0.0
  0
SOLID
  5
3CA
330
3C1
100
AcDbEntity
  8
0
 62
     0
100
AcDbTrace
 10
170.7687718968329
 20
47.68333092648088
 30
0.0
 11
169.6681052301662
 21
47.68333092648088
 31
0.0
 12
170.2184385634995
 22
50.98533092648088
 32
0.0
 13
170.2184385634995
 23
50.98533092648088
 33
0.0
  0
MTEXT
  5
3CB
330
3C1
100
AcDbEntity
  8
0
 62
     0
370
    15
100
AcDbMText
 10
165.8434385634995
 20
75.13915952609737
 30
0.0
 40
3.5
 41
0.0
 71
     2
 72
     1
  1
\A1;%%c3.18 [1/8]
  7
SLDTEXTSTYLE0
 11
0.0
 21
1.0
 31
0.0
 73
     1
 44
1.0
  0
POINT
  5
3CC
330
3C1
100
AcDbEntity
  8
Defpoints
 62
     0
100
AcDbPoint
 10
161.1153229155212
 20
54.16033092648084
 30
0.0
  0
POINT
  5
3CD
330
3C1
100
AcDbEntity
  8
Defpoints
 62
     0
100
AcDbPoint
 10
161.1153229155211
 20
50.98533092648084
 30
0.0
  0
POINT
  5
3CE
330
3C1
100
AcDbEntity
  8
Defpoints
 62
     0
100
AcDbPoint
 10
170.2184385634997
 20
50.98533092648088
 30
0.0
  0
ENDBLK
  5
3C3
330
3C1
100
AcDbEntity
  8
0
100
AcDbBlockEnd
  0
ENDSEC
  0
SECTION
  2
ENTITIES
  0
LINE
  5
96
330
1F
100
AcDbEntity
  8
외형선
  6
Continuous
370
    15
100
AcDbLine
 10
16.51948868596885
 20
-4.762499999999999
 30
0.0
 11
28.36875000000001
 21
-1.587499999999998
 31
0.0
  0
LINE
  5
97
330
1F
100
AcDbEntity
  8
외형선
  6
Continuous
370
    15
100
AcDbLine
 10
28.36875000000001
 20
1.587500000000003
 30
0.0
 11
16.51948868596885
 21
4.762500000000001
 31
0.0
  0
LINE
  5
98
330
1F
100
AcDbEntity
  8
외형선
  6
Continuous
370
    15
100
AcDbLine
 10
16.51948868596885
 20
4.762500000000002
 30
0.0
 11
4.838699999999983
 21
4.7625
 31
0.0
  0
LINE
  5
99
330
1F
100
AcDbEntity
  8
외형선
  6
Continuous
370
    15
100
AcDbLine
 10
-16.51948868596885
 20
-4.762500000000005
 30
0.0
 11
16.51948868596885
 21
-4.7625
 31
0.0
  0
LINE
  5
9C
330
1F
100
AcDbEntity
  8
외형선
  6
Continuous
370
    15
100
AcDbLine
 10
29.36875000000001
 20
1.587500000000003
 30
0.0
 11
28.36875000000001
 21
1.587500000000002
 31
0.0
  0
LINE
  5
9D
330
1F
100
AcDbEntity
  8
외형선
  6
Continuous
370
    15
100
AcDbLine
 10
28.36875000000001
 20
-1.587499999999997
 30
0.0
 11
29.36875000000001
 21
-1.587499999999997
 31
0.0
  0
LINE
  5
9E
330
1F
100
AcDbEntity
  8
0
  6
Continuous
 62
     1
370
    15
100
AcDbLine
 10
36.98855141279849
 20
-1.587499999999997
 30
0.0
 11
37.30625000000001
 21
-1.587499999999997
 31
0.0
  0
LINE
  5
9F
330
1F
100
AcDbEntity
  8
0
  6
Continuous
 62
     1
370
    15
100
AcDbLine
 10
31.8011156365363
 20
1.587500000000003
 30
0.0
 11
29.36875000000001
 21
1.587500000000003
 31
0.0
  0
ARC
  5
A0
330
1F
100
AcDbEntity
  8
0
  6
Continuous
 62
     1
370
    15
100
AcDbCircle
 10
37.30625000000001
 20
0.0000000000000027
 30
0.0
 40
1.5875
100
AcDbArc
 50
270.0000000000007
 51
0.0
  0
ARC
  5
A1
330
1F
100
AcDbEntity
  8
0
  6
Continuous
 62
     1
370
    15
100
AcDbCircle
 10
37.30625000000001
 20
0.0000000000000027
 30
0.0
 40
1.5875
100
AcDbArc
 50
0.0
 51
90.0
  0
LINE
  5
A2
330
1F
100
AcDbEntity
  8
0
  6
Continuous
 62
     1
370
    15
100
AcDbLine
 10
29.36875000000001
 20
-1.587499999999997
 30
0.0
 11
31.80034874837471
 21
-1.587499999999997
 31
0.0
  0
LINE
  5
A3
330
1F
100
AcDbEntity
  8
0
  6
Continuous
 62
     1
370
    15
100
AcDbLine
 10
37.30625000000001
 20
1.587500000000003
 30
0.0
 11
36.98855141279849
 21
1.587500000000003
 31
0.0
  0
LINE
  5
A4
330
1F
100
AcDbEntity
  8
외형선
  6
Continuous
370
    15
100
AcDbLine
 10
28.36875000000001
 20
1.587500000000003
 30
0.0
 11
28.36875000000001
 21
-1.587499999999997
 31
0.0
  0
LINE
  5
A5
330
1F
100
AcDbEntity
  8
외형선
  6
Continuous
370
    15
100
AcDbLine
 10
16.51948868596885
 20
4.762500000000002
 30
0.0
 11
16.51948868596885
 21
-4.762499999999999
 31
0.0
  0
LINE
  5
A8
330
1F
100
AcDbEntity
  8
외형선
  6
Continuous
370
    15
100
AcDbLine
 10
29.36875000000001
 20
1.587500000000003
 30
0.0
 11
29.36875000000001
 21
1.479925009659196
 31
0.0
  0
SPLINE
  5
A9
330
1F
100
AcDbEntity
  8
외형선
  6
Continuous
370
    15
100
AcDbSpline
210
0.0
220
0.0
230
1.0
 70
     8
 71
     3
 72
     8
 73
     4
 74
     0
 42
0.000000001
 43
0.00000001
 40
0.0
 40
0.0
 40
0.0
 40
0.0
 40
1.0
 40
1.0
 40
1.0
 40
1.0
 10
29.36875000000001
 20
1.479925009659196
 30
0.0
 10
29.07510028734804
 20
1.54170210779918
 30
0.0
 10
28.77305538728301
 20
1.577835614509115
 30
0.0
 10
28.47879575186636
 20
1.585781892148995
 30
0.0
  0
SPLINE
  5
AA
330
1F
100
AcDbEntity
  8
외형선
  6
Continuous
370
    15
100
AcDbSpline
210
0.0
220
0.0
230
1.0
 70
     8
 71
     3
 72
     8
 73
     4
 74
     0
 42
0.000000001
 43
0.00000001
 40
0.0
 40
0.0
 40
0.0
 40
0.0
 40
1.0
 40
1.0
 40
1.0
 40
1.0
 10
29.36874999999998
 20
-1.005744305537557
 30
0.0
 10
29.07513498359122
 20
-0.8736677938550814
 30
0.0
 10
28.77312256988749
 20
-0.7225765507014807
 30
0.0
 10
28.47890005637544
 20
-0.5628511651056894
 30
0.0
  0
LINE
  5
AB
330
1F
100
AcDbEntity
  8
외형선
  6
Continuous
370
    15
100
AcDbLine
 10
29.36875000000001
 20
-1.005744305537596
 30
0.0
 11
29.36875000000001
 21
-1.587499999999997
 31
0.0
  0
LINE
  5
AC
330
1F
100
AcDbEntity
  8
외형선
  6
Continuous
370
    15
100
AcDbLine
 10
28.47890005637579
 20
-0.5629441376446773
 30
0.0
 11
28.47890005637579
 21
1.585785452610137
 31
0.0
  0
SPLINE
  5
AD
330
1F
100
AcDbEntity
  8
외형선
  6
Continuous
370
    15
100
AcDbSpline
210
0.0
220
0.0
230
1.0
 70
    24
 71
     3
 72
    14
 73
    10
 74
     0
 42
0.000000001
 43
0.00000001
 40
0.0
 40
0.0
 40
0.0
 40
0.0
 40
0.25
 40
0.25
 40
0.5
 40
0.5
 40
0.75
 40
0.75
 40
1.0
 40
1.0
 40
1.0
 40
1.0
 10
29.36875000000001
 20
0.342707857966024
 30
0.0
 10
29.36875000000001
 20
0.2636374348209845
 30
0.0
 10
29.36875000000001
 20
0.1696657557033047
 30
0.0
 10
29.36875000000001
 20
-0.0464606037911192
 30
0.0
 10
29.36875000000001
 20
-0.1688291152079264
 30
0.0
 10
29.36875000000001
 20
-0.4250636561127998
 30
0.0
 10
29.36875000000001
 20
-0.5585594877056983
 30
0.0
 10
29.36875000000001
 20
-0.8051205019651974
 30
0.0
 10
29.36875000000001
 20
-0.9173510993002856
 30
0.0
 10
29.36875000000001
 20
-1.005744305537024
 30
0.0
  0
SPLINE
  5
AE
330
1F
100
AcDbEntity
  8
외형선
  6
Continuous
370
    15
100
AcDbSpline
210
0.0
220
0.0
230
1.0
 70
     8
 71
     3
 72
     8
 73
     4
 74
     0
 42
0.000000001
 43
0.00000001
 40
0.0
 40
0.0
 40
0.0
 40
0.0
 40
1.0
 40
1.0
 40
1.0
 40
1.0
 10
29.36874999998955
 20
0.3427078579699513
 30
0.0
 10
29.07513498358413
 20
0.4529607094598007
 30
0.0
 10
28.77312256988424
 20
0.5581541802018439
 30
0.0
 10
28.47890005637579
 20
0.6510241866219858
 30
0.0
  0
SPLINE
  5
AF
330
1F
100
AcDbEntity
  8
외형선
  6
Continuous
370
    15
100
AcDbSpline
210
0.0
220
0.0
230
1.0
 70
    24
 71
     3
 72
    14
 73
    10
 74
     0
 42
0.000000001
 43
0.00000001
 40
0.0
 40
0.0
 40
0.0
 40
0.0
 40
0.2500000000000002
 40
0.2500000000000002
 40
0.5000000000000003
 40
0.5000000000000003
 40
0.7500000000000002
 40
0.7500000000000002
 40
1.0
 40
1.0
 40
1.0
 40
1.0
 10
29.36875000000001
 20
1.479925009664806
 30
0.0
 10
29.36875000000001
 20
1.363734977939709
 30
0.0
 10
29.36875000000001
 20
1.238068803768904
 30
0.0
 10
29.36875000000001
 20
0.9943272787350798
 30
0.0
 10
29.36875000000001
 20
0.8768048593078441
 30
0.0
 10
29.36875000000001
 20
0.6706982966106033
 30
0.0
 10
29.36875000000001
 20
0.5821413333859541
 30
0.0
 10
29.36875000000001
 20
0.4388895272043918
 30
0.0
 10
29.36875000000001
 20
0.383913204432938
 30
0.0
 10
29.36875000000001
 20
0.3427078579660244
 30
0.0
  0
SPLINE
  5
B0
330
1F
100
AcDbEntity
  8
0
  6
Continuous
 62
     1
370
    15
100
AcDbSpline
210
0.0
220
0.0
230
1.0
 70
     8
 71
     3
 72
    19
 73
    15
 74
     0
 42
0.000000001
 43
0.00000001
 40
0.0
 40
0.0
 40
0.0
 40
0.0
 40
0.1077274755737452
 40
0.2167265423073472
 40
0.2999599255089619
 40
0.3837755018142821
 40
0.4668336004619331
 40
0.5504694841928045
 40
0.6335275658979084
 40
0.717162750255552
 40
0.8002209384460378
 40
0.8838555485303939
 40
0.9669139673219996
 40
1.0
 40
1.0
 40
1.0
 40
1.0
 10
37.30625000000001
 20
-0.6640620271061997
 30
0.0
 10
37.10855162059116
 20
-0.5573668619539536
 30
0.0
 10
36.71082127407698
 20
-0.3427171256522031
 30
0.0
 10
36.16077151463965
 20
-0.0221052417206658
 30
0.0
 10
35.65336587302944
 20
0.2683990866382399
 30
0.0
 10
35.19532252570755
 20
0.5274473156321973
 30
0.0
 10
34.73470517855218
 20
0.7691138583071283
 30
0.0
 10
34.2772712680453
 20
0.9914368532030301
 30
0.0
 10
33.81713111668663
 20
1.184482953362347
 30
0.0
 10
33.3594887003527
 20
1.345746168705412
 30
0.0
 10
32.89963322232823
 20
1.469518508747513
 30
0.0
 10
32.44166688353796
 20
1.550146816402366
 30
0.0
 10
32.07496749502945
 20
1.588213065733692
 30
0.0
 10
31.86183159273512
 20
1.583520962770528
 30
0.0
 10
31.8011156365363
 20
1.582184324902739
 30
0.0
  0
SPLINE
  5
B1
330
1F
100
AcDbEntity
  8
0
  6
Continuous
 62
     1
370
    15
100
AcDbSpline
210
0.0
220
0.0
230
1.0
 70
     8
 71
     3
 72
    12
 73
     8
 74
     0
 42
0.000000001
 43
0.00000001
 40
0.0
 40
0.0
 40
0.0
 40
0.0
 40
0.250604497325405
 40
0.5007483024902342
 40
0.7002875962465538
 40
0.8998271811733257
 40
1.0
 40
1.0
 40
1.0
 40
1.0
 10
38.46876525756406
 20
0.1664376237248684
 30
0.0
 10
38.1052694141346
 20
0.3048493646487995
 30
0.0
 10
37.37894595026151
 20
0.581418400927425
 30
0.0
 10
36.36337963403272
 20
0.8800707111069932
 30
0.0
 10
35.42216597700339
 20
1.043998547224932
 30
0.0
 10
34.69831796052837
 20
1.100700439884483
 30
0.0
 10
34.26378340226078
 20
1.064925876071624
 30
0.0
 10
34.11854900076742
 20
1.052968950517163
 30
0.0
  0
SPLINE
  5
B2
330
1F
100
AcDbEntity
  8
0
  6
Continuous
 62
     1
370
    15
100
AcDbSpline
210
0.0
220
0.0
230
1.0
 70
     8
 71
     3
 72
    22
 73
    18
 74
     0
 42
0.000000001
 43
0.00000001
 40
0.0
 40
0.0
 40
0.0
 40
0.0
 40
0.125
 40
0.125
 40
0.25
 40
0.25
 40
0.375
 40
0.375
 40
0.5
 40
0.5
 40
0.625
 40
0.625
 40
0.75
 40
0.75
 40
0.875
 40
0.875
 40
1.0
 40
1.0
 40
1.0
 40
1.0
 10
37.30625000000001
 20
-0.6640620271061982
 30
0.0
 10
37.39437925918595
 20
-0.7103472905038686
 30
0.0
 10
37.48121514647192
 20
-0.7516329149932673
 30
0.0
 10
37.6544588019575
 20
-0.8211889737750501
 30
0.0
 10
37.7417844008915
 20
-0.8497185298325982
 30
0.0
 10
37.91412314664384
 20
-0.8865426592317356
 30
0.0
 10
37.99847646570456
 20
-0.8952290465067928
 30
0.0
 10
38.16772432759346
 20
-0.8829697755402256
 30
0.0
 10
38.25027156931921
 20
-0.8618401680694809
 30
0.0
 10
38.40591299798309
 20
-0.7775720530114938
 30
0.0
 10
38.47828083838964
 20
-0.7137340829089523
 30
0.0
 10
38.58831514097265
 20
-0.544262631643018
 30
0.0
 10
38.62144133923117
 20
-0.4438390072697058
 30
0.0
 10
38.63815207548117
 20
-0.2475125812019554
 30
0.0
 10
38.62307224599776
 20
-0.1549835460825392
 30
0.0
 10
38.56475491342798
 20
0.0144840271007706
 30
0.0
 10
38.52156684771456
 20
0.0922899288771065
 30
0.0
 10
38.46876525752695
 20
0.1664376237392233
 30
0.0
  0
SPLINE
  5
B3
330
1F
100
AcDbEntity
  8
0
  6
Continuous
 62
     1
370
    15
100
AcDbSpline
210
0.0
220
0.0
230
1.0
 70
     8
 71
     3
 72
    14
 73
    10
 74
     0
 42
0.000000001
 43
0.00000001
 40
0.0
 40
0.0
 40
0.0
 40
0.0
 40
0.0293206447982659
 40
0.1917842410756822
 40
0.3542480698841649
 40
0.5167121289512469
 40
0.6791764160019592
 40
0.8395878821449795
 40
0.9999999999999999
 40
0.9999999999999999
 40
0.9999999999999999
 40
0.9999999999999999
 10
34.71088814374504
 20
-1.071854121802257
 30
0.0
 10
34.65867647144635
 20
-1.075356309339249
 30
0.0
 10
34.31716365629543
 20
-1.098263867597533
 30
0.0
 10
33.68634918365173
 20
-1.036273396322463
 30
0.0
 10
32.81844419818857
 20
-0.8840803965826125
 30
0.0
 10
31.95053821176379
 20
-0.6348604066273543
 30
0.0
 10
31.08628544623079
 20
-0.327387113528909
 30
0.0
 10
30.22569141670765
 20
0.013536630300851
 30
0.0
 10
29.65439752573273
 20
0.2329839668203964
 30
0.0
 10
29.36874999999011
 20
0.3427078579697411
 30
0.0
  0
SPLINE
  5
B4
330
1F
100
AcDbEntity
  8
외형선
  6
Continuous
370
    15
100
AcDbSpline
210
0.0
220
0.0
230
1.0
 70
    24
 71
     3
 72
    14
 73
    10
 74
     0
 42
0.000000001
 43
0.00000001
 40
0.0
 40
0.0
 40
0.0
 40
0.0
 40
0.2500000000000002
 40
0.2500000000000002
 40
0.5000000000000003
 40
0.5000000000000003
 40
0.7500000000000002
 40
0.7500000000000002
 40
1.0
 40
1.0
 40
1.0
 40
1.0
 10
29.36875000000001
 20
1.479925009664806
 30
0.0
 10
29.36875000000001
 20
1.363734977939709
 30
0.0
 10
29.36875000000001
 20
1.238068803768904
 30
0.0
 10
29.36875000000001
 20
0.9943272787350798
 30
0.0
 10
29.36875000000001
 20
0.8768048593078441
 30
0.0
 10
29.36875000000001
 20
0.6706982966106033
 30
0.0
 10
29.36875000000001
 20
0.5821413333859541
 30
0.0
 10
29.36875000000001
 20
0.4388895272043918
 30
0.0
 10
29.36875000000001
 20
0.383913204432938
 30
0.0
 10
29.36875000000001
 20
0.3427078579660244
 30
0.0
  0
SPLINE
  5
B5
330
1F
100
AcDbEntity
  8
0
  6
Continuous
 62
     1
370
    15
100
AcDbSpline
210
0.0
220
0.0
230
1.0
 70
     8
 71
     3
 72
    16
 73
    12
 74
     0
 42
0.000000001
 43
0.00000001
 40
0.0
 40
0.0
 40
0.0
 40
0.0
 40
0.1166513722894402
 40
0.2333036609830752
 40
0.3499615353941226
 40
0.4666246569476399
 40
0.5832926849550278
 40
0.69789205932602
 40
0.8124920504011217
 40
0.9270926403135344
 40
1.0
 40
1.0
 40
1.0
 40
1.0
 10
29.36874999999219
 20
1.47992500966084
 30
0.0
 10
29.66503353017301
 20
1.403000333560372
 30
0.0
 10
30.25760291811525
 20
1.249150377045106
 30
0.0
 10
31.1464714701141
 20
0.8478043279573585
 30
0.0
 10
32.03538173208062
 20
0.369638185914241
 30
0.0
 10
32.92433625034391
 20
-0.1499239195450739
 30
0.0
 10
33.80808099284371
 20
-0.6497199849303804
 30
0.0
 10
34.68655124680831
 20
-1.082199480073906
 30
0.0
 10
35.55978064964679
 20
-1.397349739400302
 30
0.0
 10
36.32711353887709
 20
-1.572708373663665
 30
0.0
 10
36.80337148187746
 20
-1.570050594723379
 30
0.0
 10
36.98855141279849
 20
-1.569017189763317
 30
0.0
  0
SPLINE
  5
B6
330
1F
100
AcDbEntity
  8
0
  6
Continuous
 62
     1
370
    15
100
AcDbSpline
210
0.0
220
0.0
230
1.0
 70
     8
 71
     3
 72
    10
 73
     6
 74
     0
 42
0.000000001
 43
0.00000001
 40
0.0
 40
0.0
 40
0.0
 40
0.0
 40
0.5000000000000003
 40
0.5000000000000003
 40
1.0
 40
1.0
 40
1.0
 40
1.0
 10
38.46876525752695
 20
0.1664376237392243
 30
0.0
 10
38.50525832081518
 20
0.188473378386703
 30
0.0
 10
38.53439649718675
 20
0.2219591947295464
 30
0.0
 10
38.57337755798842
 20
0.3068395227440748
 30
0.0
 10
38.58303805711194
 20
0.3579699194217771
 30
0.0
 10
38.5839418353827
 20
0.4111490879132559
 30
0.0
  0
ARC
  5
B7
330
1F
100
AcDbEntity
  8
0
  6
Continuous
 62
     1
370
    15
100
AcDbCircle
 10
38.13423208599177
 20
-0.2759622871941118
 30
0.0
 40
0.8211948005797466
100
AcDbArc
 50
23.84130656543812
 51
56.79552415731796
  0
ARC
  5
B8
330
1F
100
AcDbEntity
  8
0
  6
Continuous
 62
     1
370
    15
100
AcDbCircle
 10
37.46598859996546
 20
0.029446586681002
 30
0.0
 40
1.419612273962418
100
AcDbArc
 50
1.070495324450337
 51
71.1422567017304
  0
SPLINE
  5
B9
330
1F
100
AcDbEntity
  8
0
  6
Continuous
 62
     1
370
    15
100
AcDbSpline
210
0.0
220
0.0
230
1.0
 70
     8
 71
     3
 72
    10
 73
     6
 74
     0
 42
0.000000001
 43
0.00000001
 40
0.0
 40
0.0
 40
0.0
 40
0.0
 40
0.5
 40
0.5
 40
1.0
 40
1.0
 40
1.0
 40
1.0
 10
37.92483507530901
 20
1.372859747421045
 30
0.0
 10
37.826650772536
 20
1.432795731938092
 30
0.0
 10
37.72547721184974
 20
1.479851412957769
 30
0.0
 10
37.51899232040958
 20
1.54831973461437
 30
0.0
 10
37.4126521145875
 20
1.569780851254716
 30
0.0
 10
37.30624999999765
 20
1.576884014624631
 30
0.0
  0
SPLINE
  5
BA
330
1F
100
AcDbEntity
  8
0
  6
Continuous
 62
     1
370
    15
100
AcDbSpline
210
0.0
220
0.0
230
1.0
 70
     8
 71
     3
 72
    10
 73
     6
 74
     0
 42
0.000000001
 43
0.00000001
 40
0.0
 40
0.0
 40
0.0
 40
0.0
 40
0.3270802406048048
 40
0.6635392675081864
 40
1.0
 40
1.0
 40
1.0
 40
1.0
 10
34.71088814374465
 20
1.071854121802286
 30
0.0
 10
34.9938516503049
 20
1.182367827215736
 30
0.0
 10
35.56789243469271
 20
1.406564137589183
 30
0.0
 10
36.43301306639741
 20
1.587453795420908
 30
0.0
 10
37.0151705302853
 20
1.580407280843338
 30
0.0
 10
37.30625000000001
 20
1.576884014624473
 30
0.0
  0
SPLINE
  5
BB
330
1F
100
AcDbEntity
  8
0
  6
Continuous
 62
     1
370
    15
100
AcDbSpline
210
0.0
220
0.0
230
1.0
 70
     8
 71
     3
 72
    13
 73
     9
 74
     0
 42
0.000000001
 43
0.00000001
 40
0.0
 40
0.0
 40
0.0
 40
0.0
 40
0.1578674791594342
 40
0.3515364687409617
 40
0.5452052414275437
 40
0.738874037307899
 40
0.8686200876820327
 40
1.0
 40
1.0
 40
1.0
 40
1.0
 10
34.10628952435014
 20
-1.052179087498605
 30
0.0
 10
33.85694095498585
 20
-1.155435283882466
 30
0.0
 10
33.30169603673763
 20
-1.385364328456282
 30
0.0
 10
32.44050677864332
 20
-1.571425895469357
 30
0.0
 10
31.52292834260052
 20
-1.609839213742236
 30
0.0
 10
30.70576581697577
 20
-1.481396649437019
 30
0.0
 10
29.98852262363171
 20
-1.267418891765543
 30
0.0
 10
29.57620083865999
 20
-1.09333225359974
 30
0.0
 10
29.36875000000001
 20
-1.005744305537597
 30
0.0
  0
SPLINE
  5
BC
330
1F
100
AcDbEntity
  8
외형선
  6
Continuous
370
    15
100
AcDbSpline
210
0.0
220
0.0
230
1.0
 70
    24
 71
     3
 72
    14
 73
    10
 74
     0
 42
0.000000001
 43
0.00000001
 40
0.0
 40
0.0
 40
0.0
 40
0.0
 40
0.2499999999999999
 40
0.2499999999999999
 40
0.4999999999999999
 40
0.4999999999999999
 40
0.7499999999999999
 40
0.7499999999999999
 40
1.0
 40
1.0
 40
1.0
 40
1.0
 10
29.36875
 20
0.3427078579660255
 30
0.0
 10
29.36875
 20
0.2636374348209859
 30
0.0
 10
29.36875
 20
0.1696657557033059
 30
0.0
 10
29.36875000000001
 20
-0.046460603791118
 30
0.0
 10
29.36875
 20
-0.1688291152079252
 30
0.0
 10
29.36875
 20
-0.4250636561127986
 30
0.0
 10
29.36875
 20
-0.5585594877056967
 30
0.0
 10
29.36875
 20
-0.8051205019651955
 30
0.0
 10
29.36875000000001
 20
-0.9173510993002844
 30
0.0
 10
29.36875000000001
 20
-1.005744305537023
 30
0.0
  0
SPLINE
  5
BD
330
1F
100
AcDbEntity
  8
0
  6
Continuous
 62
     1
370
    15
100
AcDbSpline
210
0.0
220
0.0
230
1.0
 70
     8
 71
     3
 72
     8
 73
     4
 74
     0
 42
0.000000001
 43
0.00000001
 40
0.0
 40
0.0
 40
0.0
 40
0.0
 40
1.0
 40
1.0
 40
1.0
 40
1.0
 10
37.60235167654803
 20
0.710642472889883
 30
0.0
 10
37.92508402611634
 20
0.6209346837539025
 30
0.0
 10
38.25412515846903
 20
0.5198855860925048
 30
0.0
 10
38.58394183538272
 20
0.4111490879132699
 30
0.0
  0
SPLINE
  5
BE
330
1F
100
AcDbEntity
  8
0
  6
Continuous
 62
     1
370
    15
100
AcDbSpline
210
0.0
220
0.0
230
1.0
 70
     8
 71
     3
 72
    14
 73
    10
 74
     0
 42
0.000000001
 43
0.00000001
 40
0.0
 40
0.0
 40
0.0
 40
0.0
 40
0.25
 40
0.25
 40
0.5
 40
0.5
 40
0.75
 40
0.75
 40
1.0
 40
1.0
 40
1.0
 40
1.0
 10
37.92483507530901
 20
1.372859747421044
 30
0.0
 10
37.93607257009175
 20
1.306187900890983
 30
0.0
 10
37.94110727074818
 20
1.238282450482276
 30
0.0
 10
37.93121910598272
 20
1.100917013523046
 30
0.0
 10
37.9159048100374
 20
1.033208267318562
 30
0.0
 10
37.8598772743911
 20
0.9100871974201458
 30
0.0
 10
37.81894317170183
 20
0.8552594923361256
 30
0.0
 10
37.7201479766789
 20
0.7677459982601915
 30
0.0
 10
37.66229126493334
 20
0.7344628427950274
 30
0.0
 10
37.60235167654854
 20
0.7106424728899436
 30
0.0
  0
LINE
  5
BF
330
1F
100
AcDbEntity
  8
중심선
 48
0.8
100
AcDbLine
 10
-41.89375
 20
-0.0000000000000051
 30
0.0
 11
41.89375000000001
 21
0.0000000000000051
 31
0.0
  0
LINE
  5
C0
330
1F
100
AcDbEntity
  8
참조1
100
AcDbLine
 10
-20.44411934298444
 20
0.0010749287238892
 30
0.0
 11
-20.44411934298444
 21
-39.99892507127611
 31
0.0
  0
LINE
  5
C1
330
1F
100
AcDbEntity
  8
참조1
100
AcDbLine
 10
18.44963065701557
 20
0.0010749287238892
 30
0.0
 11
18.44963065701557
 21
0.6320484065631995
 31
0.0
  0
LINE
  5
C2
330
1F
100
AcDbEntity
  8
참조1
100
AcDbLine
 10
-20.44411934298444
 20
-39.99892507127611
 30
0.0
 11
-29.25297615729311
 21
-39.9989250712761
 31
0.0
  0
CIRCLE
  5
C3
330
1F
100
AcDbEntity
  8
해칭선
100
AcDbCircle
 10
0.0
 20
0.0
 30
0.0
 40
3.000000000000001
  0
INSERT
  5
C4
330
1F
100
AcDbEntity
  8
0
  6
Continuous
 62
     7
100
AcDbBlockReference
 66
     1
  2
블럭10
 10
-13.9402729321252
 20
-52.04717430164393
 30
0.0
  0
ATTRIB
  5
C5
330
C4
100
AcDbEntity
  8
FORMAT
 62
     2
100
AcDbText
 10
-23.12156822086649
 20
-49.97180738881175
 30
0.0
 40
4.233333333333333
  1
E1112008 [ 2 FLUTE ]
 41
0.75
  7
SLDTEXTSTYLE0
 11
-23.12156822086649
 21
-52.08847405547841
 31
0.0
100
AcDbAttribute
  2
AUTOATTR0
 70
     0
 74
     1
  0
SEQEND
  5
C6
330
C4
100
AcDbEntity
  8
0
  6
Continuous
 62
     7
  0
HATCH
  5
C7
330
1F
100
AcDbEntity
  8
중심선
100
AcDbHatch
 10
0.0
 20
0.0
 30
0.0
210
0.0
220
0.0
230
1.0
  2
SOLID
 70
     1
 71
     0
 91
        1
 92
        0
 93
        4
 72
     1
 10
-8.225363627744358
 20
-35.8
 11
-11.67163887158164
 21
-35.8
 72
     1
 10
-11.67163887158164
 20
-35.8
 11
-13.79986873078566
 21
-38.33632558057257
 72
     1
 10
-13.79986873078566
 20
-38.33632558057257
 11
-10.35356040183523
 21
-38.33628615127008
 72
     1
 10
-10.35356040183523
 20
-38.33628615127008
 11
-8.225363627744358
 21
-35.8
 97
        0
 75
     0
 76
     1
 98
        1
 10
20.44411934298444
 20
-0.0010749287238939
  0
HATCH
  5
C8
330
1F
100
AcDbEntity
  8
중심선
100
AcDbHatch
 10
0.0
 20
0.0
 30
0.0
210
0.0
220
0.0
230
1.0
  2
SOLID
 70
     1
 71
     0
 91
        1
 92
        0
 93
        4
 72
     1
 10
-3.212599636708404
 20
-35.80000000000003
 11
-6.65887488054566
 21
-35.79999999999998
 72
     1
 10
-6.65887488054566
 20
-35.79999999999998
 11
-11.19001288890308
 21
-41.20000000000002
 72
     1
 10
-11.19001288890308
 20
-41.20000000000002
 11
-7.743737645065792
 21
-41.20000000000002
 72
     1
 10
-7.743737645065792
 20
-41.20000000000002
 11
-3.212599636708404
 21
-35.80000000000003
 97
        0
 75
     0
 76
     1
 98
        1
 10
20.44411934298444
 20
-0.0010749287238939
  0
HATCH
  5
C9
330
1F
100
AcDbEntity
  8
중심선
100
AcDbHatch
 10
0.0
 20
0.0
 30
0.0
210
0.0
220
0.0
230
1.0
  2
SOLID
 70
     1
 71
     0
 91
        1
 92
        0
 93
        4
 72
     1
 10
1.800164354327492
 20
-35.8
 11
-1.646110889509625
 21
-35.8
 72
     1
 10
-1.646110889509625
 20
-35.8
 11
-8.694547791398875
 21
-44.20000000000002
 72
     1
 10
-8.694547791398875
 20
-44.20000000000002
 11
-5.248272547561591
 21
-44.20000000000002
 72
     1
 10
-5.248272547561591
 20
-44.20000000000002
 11
1.800164354327492
 21
-35.8
 97
        0
 75
     0
 76
     1
 98
        1
 10
20.44411934298444
 20
-0.0010749287238939
  0
HATCH
  5
CA
330
1F
100
AcDbEntity
  8
중심선
100
AcDbHatch
 10
0.0
 20
0.0
 30
0.0
210
0.0
220
0.0
230
1.0
  2
SOLID
 70
     1
 71
     0
 91
        1
 92
        0
 93
        6
 72
     3
 10
6.60005478533969
 20
-40.00000000005127
 11
3.960054785062283
 21
1.540882976769353E-10
 40
0.3939339440162628
 50
17.09539180608437
 51
320.0019657685082
 73
     0
 72
     1
 10
8.283054441040258
 20
-38.58789400463833
 11
10.5883563147413
 21
-36.65356729459038
 72
     3
 10
6.600054785286844
 20
-40.00000000000015
 11
6.600054785286829
 21
-1.278976924368180E-13
 40
0.636358354079598
 50
39.99873849337429
 51
368.4976242363725
 73
     1
 72
     1
 10
13.02538727718745
 20
-39.03999999993002
 11
5.280122092122792
 21
-39.03999999993002
 72
     1
 10
5.280122092122793
 20
-39.03999999993002
 11
5.280097047676833
 21
-40.95999999992991
 72
     1
 10
5.280097047676833
 20
-40.95999999992991
 11
9.721476817148869
 21
-40.95999999992988
 97
        0
 75
     0
 76
     1
 98
        1
 10
20.44411934298444
 20
-0.0010749287238939
  0
DIMENSION
  5
CB
330
1F
100
AcDbEntity
  8
0
  6
Continuous
370
    15
100
AcDbDimension
  2
_D
 10
29.36875000000001
 20
14.73745989356487
 30
0.0
 11
14.25425000000001
 21
14.73745989356487
 31
0.0
 70
   160
  1
<>
 71
     2
 42
9.524999999999999
  3
SLDDIMSTYLE0
100
AcDbAlignedDimension
 13
38.89375000000001
 23
1.587500000000008
 33
0.0
 14
29.36875000000001
 24
1.587499999999991
 34
0.0
 50
0.0000000000000107
100
AcDbRotatedDimension
1001
ACAD
1000
DSTYLE
1002
{
1070
   171
1070
     6
1070
   273
1070
     7
1002
}
  0
DIMENSION
  5
E0
330
1F
100
AcDbEntity
  8
0
  6
Continuous
370
    15
100
AcDbDimension
  2
_D_1
 10
-38.89375000000003
 20
29.28797898817498
 30
0.0
 11
0.3404466952392298
 21
29.28797898817498
 31
0.0
 70
   160
  1
<>
 71
     2
 42
77.78750000000002
  3
SLDDIMSTYLE0
100
AcDbAlignedDimension
 13
38.89375000000001
 23
1.587500000000008
 33
0.0
 14
-38.89375000000002
 24
4.762500000000003
 34
0.0
 50
0.0000000000000052
100
AcDbRotatedDimension
1001
ACAD
1000
DSTYLE
1002
{
1070
   171
1070
     6
1070
   273
1070
     7
1002
}
  0
DIMENSION
  5
F3
330
1F
100
AcDbEntity
  8
0
  6
Continuous
370
    15
100
AcDbDimension
  2
_D_2
 10
-51.51374999999996
 20
-4.762500000000133
 30
0.0
 11
-51.51374999999998
 21
0.0000000000000036
 31
0.0
 70
   160
  1
%%c<>
 71
     2
 42
9.525000000000007
 52
-270.0
  3
SLDDIMSTYLE0
100
AcDbAlignedDimension
 13
-16.67643039988255
 23
4.762500000000006
 33
0.0
 14
-16.51948868596886
 24
-4.762500000000002
 34
0.0
 50
90.0000000000002
100
AcDbRotatedDimension
1001
ACAD
1000
DSTYLE
1002
{
1070
   171
1070
     6
1070
   273
1070
     7
1002
}
  0
DIMENSION
  5
108
330
1F
100
AcDbEntity
  8
0
  6
Continuous
370
    15
100
AcDbDimension
  2
_D_3
 10
47.99686564797852
 20
-1.587499999999956
 30
0.0
 11
47.99686564797842
 21
22.56632859961654
 31
0.0
 70
   160
  1
%%c<>
 71
     2
 42
3.174999999999999
 52
-270.0
  3
SLDDIMSTYLE0
100
AcDbAlignedDimension
 13
38.89375000000002
 23
1.587500000000008
 33
0.0
 14
38.89375
 24
-1.587499999999991
 34
0.0
 50
90.0000000000002
100
AcDbRotatedDimension
1001
ACAD
1000
DSTYLE
1002
{
1070
   171
1070
     6
1070
   273
1070
     7
1002
}
  0
LINE
  5
11C
330
1F
100
AcDbEntity
  8
참조1
100
AcDbLine
 10
68.71936447236115
 20
7.441074928723896
 30
0.0
 11
68.71936447236115
 21
-7.438925071276109
 31
0.0
  0
LINE
  5
11D
330
1F
100
AcDbEntity
  8
참조1
100
AcDbLine
 10
81.41936447236115
 20
5.441074928723896
 30
0.0
 11
68.71936447236115
 21
5.441074928723896
 31
0.0
  0
SOLID
  5
11E
330
1F
100
AcDbEntity
  8
참조1
100
AcDbTrace
 10
68.71936447236115
 20
5.441074928723896
 30
0.0
 11
75.06936447236114
 21
4.425074928723896
 31
0.0
 12
75.06936447236114
 22
6.457074928723896
 32
0.0
 13
75.06936447236114
 23
6.457074928723896
 33
0.0
  0
LINE
  5
11F
330
1F
100
AcDbEntity
  8
참조1
100
AcDbLine
 10
81.41936447236115
 20
-5.438925071276109
 30
0.0
 11
68.71936447236115
 21
-5.438925071276109
 31
0.0
  0
SOLID
  5
120
330
1F
100
AcDbEntity
  8
참조1
100
AcDbTrace
 10
68.71936447236115
 20
-5.438925071276109
 30
0.0
 11
75.06936447236114
 21
-6.454925071276109
 31
0.0
 12
75.06936447236114
 22
-4.422925071276109
 32
0.0
 13
75.06936447236114
 23
-4.422925071276109
 33
0.0
  0
MTEXT
  5
121
330
1F
100
AcDbEntity
  8
참조1
100
AcDbMText
 10
78.11685456483143
 20
10.98929157337383
 30
0.0
 40
3.5
 41
0.0
 71
     1
 72
     1
  1
A
  7
SLDTEXTSTYLE0
 73
     1
 44
1.0
  0
MTEXT
  5
122
330
1F
100
AcDbEntity
  8
참조1
100
AcDbMText
 10
78.11685456483143
 20
0.1092915733738251
 30
0.0
 40
3.5
 41
0.0
 71
     1
 72
     1
  1
A
  7
SLDTEXTSTYLE0
 73
     1
 44
1.0
  0
INSERT
  5
129
330
1F
100
AcDbEntity
  8
해칭선
100
AcDbBlockReference
  2
SW_DOWELSYMBOL_0
 10
0.0
 20
0.0
 30
0.0
  0
LINE
  5
299
330
1F
100
AcDbEntity
  8
외형선
  6
Continuous
370
    15
100
AcDbLine
 10
-3.568700000000071
 20
3.492500000000022
 30
0.0
 11
3.5687
 21
3.492500000000022
 31
0.0
  0
LINE
  5
29A
330
1F
100
AcDbEntity
  8
외형선
  6
Continuous
370
    15
100
AcDbLine
 10
3.5687
 20
3.492500000000022
 30
0.0
 11
4.838699999999982
 21
4.762500000000004
 31
0.0
  0
LINE
  5
29B
330
1F
100
AcDbEntity
  8
외형선
  6
Continuous
370
    15
100
AcDbLine
 10
-3.568700000000071
 20
3.492500000000022
 30
0.0
 11
-4.838700000000053
 21
4.762500000000004
 31
0.0
  0
LINE
  5
37D
330
1F
100
AcDbEntity
  8
외형선
  6
Continuous
370
    15
100
AcDbLine
 10
-16.51948868596886
 20
4.762500000000004
 30
0.0
 11
-28.36875
 21
1.587500000000007
 31
0.0
  0
LINE
  5
37E
330
1F
100
AcDbEntity
  8
외형선
  6
Continuous
370
    15
100
AcDbLine
 10
-28.36875
 20
-1.587499999999997
 30
0.0
 11
-16.51948868596886
 21
-4.762500000000002
 31
0.0
  0
LINE
  5
381
330
1F
100
AcDbEntity
  8
외형선
  6
Continuous
370
    15
100
AcDbLine
 10
-29.36875
 20
-1.587499999999997
 30
0.0
 11
-28.36875
 21
-1.587499999999997
 31
0.0
  0
LINE
  5
382
330
1F
100
AcDbEntity
  8
외형선
  6
Continuous
370
    15
100
AcDbLine
 10
-28.36875
 20
1.587500000000007
 30
0.0
 11
-29.36875
 21
1.587500000000007
 31
0.0
  0
LINE
  5
383
330
1F
100
AcDbEntity
  8
0
  6
Continuous
 62
     1
370
    15
100
AcDbLine
 10
-36.98855141279849
 20
1.587500000000007
 30
0.0
 11
-37.30625
 21
1.587500000000007
 31
0.0
  0
LINE
  5
384
330
1F
100
AcDbEntity
  8
0
  6
Continuous
 62
     1
370
    15
100
AcDbLine
 10
-31.8011156365363
 20
-1.587499999999997
 30
0.0
 11
-29.36875
 21
-1.587499999999997
 31
0.0
  0
ARC
  5
385
330
1F
100
AcDbEntity
  8
0
  6
Continuous
 62
     1
370
    15
100
AcDbCircle
 10
-37.30625
 20
0.0000000000000083
 30
0.0
 40
1.5875
100
AcDbArc
 50
90.00000000000104
 51
180.0
  0
ARC
  5
386
330
1F
100
AcDbEntity
  8
0
  6
Continuous
 62
     1
370
    15
100
AcDbCircle
 10
-37.30625
 20
0.0000000000000083
 30
0.0
 40
1.5875
100
AcDbArc
 50
180.0
 51
270.0
  0
LINE
  5
387
330
1F
100
AcDbEntity
  8
0
  6
Continuous
 62
     1
370
    15
100
AcDbLine
 10
-29.36875
 20
1.587500000000007
 30
0.0
 11
-31.80034874837471
 21
1.587500000000007
 31
0.0
  0
LINE
  5
388
330
1F
100
AcDbEntity
  8
0
  6
Continuous
 62
     1
370
    15
100
AcDbLine
 10
-37.30625
 20
-1.587499999999997
 30
0.0
 11
-36.98855141279849
 21
-1.587499999999997
 31
0.0
  0
LINE
  5
389
330
1F
100
AcDbEntity
  8
외형선
  6
Continuous
370
    15
100
AcDbLine
 10
-28.36875
 20
-1.587499999999997
 30
0.0
 11
-28.36875
 21
1.587500000000007
 31
0.0
  0
LINE
  5
38A
330
1F
100
AcDbEntity
  8
외형선
  6
Continuous
370
    15
100
AcDbLine
 10
-16.51948868596886
 20
-4.762500000000002
 30
0.0
 11
-16.51948868596886
 21
4.762500000000004
 31
0.0
  0
LINE
  5
38B
330
1F
100
AcDbEntity
  8
외형선
  6
Continuous
370
    15
100
AcDbLine
 10
-29.36875
 20
-1.587499999999997
 30
0.0
 11
-29.36875
 21
-1.479925009659189
 31
0.0
  0
SPLINE
  5
38C
330
1F
100
AcDbEntity
  8
외형선
  6
Continuous
370
    15
100
AcDbSpline
210
0.0
220
0.0
230
1.0
 70
     8
 71
     3
 72
     8
 73
     4
 74
     0
 42
0.000000001
 43
0.00000001
 40
0.0
 40
0.0
 40
0.0
 40
0.0
 40
1.0
 40
1.0
 40
1.0
 40
1.0
 10
-29.36875
 20
-1.479925009659189
 30
0.0
 10
-29.07510028734804
 20
-1.541702107799174
 30
0.0
 10
-28.77305538728302
 20
-1.577835614509104
 30
0.0
 10
-28.47879575186638
 20
-1.585781892148985
 30
0.0
  0
SPLINE
  5
38D
330
1F
100
AcDbEntity
  8
외형선
  6
Continuous
370
    15
100
AcDbSpline
210
0.0
220
0.0
230
1.0
 70
     8
 71
     3
 72
     8
 73
     4
 74
     0
 42
0.000000001
 43
0.00000001
 40
0.0
 40
0.0
 40
0.0
 40
0.0
 40
1.0
 40
1.0
 40
1.0
 40
1.0
 10
-29.36875
 20
1.00574430553757
 30
0.0
 10
-29.07513498359122
 20
0.8736677938550924
 30
0.0
 10
-28.77312256988747
 20
0.7225765507014911
 30
0.0
 10
-28.47890005637546
 20
0.5628511651056994
 30
0.0
  0
LINE
  5
38E
330
1F
100
AcDbEntity
  8
외형선
  6
Continuous
370
    15
100
AcDbLine
 10
-29.36875
 20
1.005744305537605
 30
0.0
 11
-29.36875
 21
1.587500000000007
 31
0.0
  0
LINE
  5
38F
330
1F
100
AcDbEntity
  8
외형선
  6
Continuous
370
    15
100
AcDbLine
 10
-28.4789000563758
 20
0.5629441376446861
 30
0.0
 11
-28.4789000563758
 21
-1.585785452610131
 31
0.0
  0
SPLINE
  5
390
330
1F
100
AcDbEntity
  8
외형선
  6
Continuous
370
    15
100
AcDbSpline
210
0.0
220
0.0
230
1.0
 70
    24
 71
     3
 72
    14
 73
    10
 74
     0
 42
0.000000001
 43
0.00000001
 40
0.0
 40
0.0
 40
0.0
 40
0.0
 40
0.25
 40
0.25
 40
0.5
 40
0.5
 40
0.75
 40
0.75
 40
1.0
 40
1.0
 40
1.0
 40
1.0
 10
-29.36875
 20
-0.3427078579660107
 30
0.0
 10
-29.36875
 20
-0.2636374348209772
 30
0.0
 10
-29.36875
 20
-0.169665755703298
 30
0.0
 10
-29.36875
 20
0.0464606037911265
 30
0.0
 10
-29.36875
 20
0.1688291152079356
 30
0.0
 10
-29.36875
 20
0.4250636561128059
 30
0.0
 10
-29.36875
 20
0.5585594877057088
 30
0.0
 10
-29.36875
 20
0.8051205019652071
 30
0.0
 10
-29.36875
 20
0.917351099300299
 30
0.0
 10
-29.36875
 20
1.00574430553703
 30
0.0
  0
SPLINE
  5
391
330
1F
100
AcDbEntity
  8
외형선
  6
Continuous
370
    15
100
AcDbSpline
210
0.0
220
0.0
230
1.0
 70
     8
 71
     3
 72
     8
 73
     4
 74
     0
 42
0.000000001
 43
0.00000001
 40
0.0
 40
0.0
 40
0.0
 40
0.0
 40
1.0
 40
1.0
 40
1.0
 40
1.0
 10
-29.36874999998954
 20
-0.34270785796994
 30
0.0
 10
-29.07513498358414
 20
-0.4529607094597937
 30
0.0
 10
-28.77312256988423
 20
-0.5581541802018309
 30
0.0
 10
-28.4789000563758
 20
-0.6510241866219731
 30
0.0
  0
SPLINE
  5
392
330
1F
100
AcDbEntity
  8
외형선
  6
Continuous
370
    15
100
AcDbSpline
210
0.0
220
0.0
230
1.0
 70
    24
 71
     3
 72
    14
 73
    10
 74
     0
 42
0.000000001
 43
0.00000001
 40
0.0
 40
0.0
 40
0.0
 40
0.0
 40
0.2500000000000002
 40
0.2500000000000002
 40
0.5000000000000003
 40
0.5000000000000003
 40
0.7500000000000002
 40
0.7500000000000002
 40
1.0
 40
1.0
 40
1.0
 40
1.0
 10
-29.36875
 20
-1.479925009664796
 30
0.0
 10
-29.36875
 20
-1.363734977939699
 30
0.0
 10
-29.36875
 20
-1.238068803768896
 30
0.0
 10
-29.36875
 20
-0.9943272787350695
 30
0.0
 10
-29.36875
 20
-0.8768048593078307
 30
0.0
 10
-29.36875
 20
-0.6706982966105942
 30
0.0
 10
-29.36875
 20
-0.582141333385947
 30
0.0
 10
-29.36875
 20
-0.4388895272043799
 30
0.0
 10
-29.36875
 20
-0.3839132044329278
 30
0.0
 10
-29.36875
 20
-0.3427078579660107
 30
0.0
  0
SPLINE
  5
393
330
1F
100
AcDbEntity
  8
0
  6
Continuous
 62
     1
370
    15
100
AcDbSpline
210
0.0
220
0.0
230
1.0
 70
     8
 71
     3
 72
    19
 73
    15
 74
     0
 42
0.000000001
 43
0.00000001
 40
0.0
 40
0.0
 40
0.0
 40
0.0
 40
0.1077274755737452
 40
0.2167265423073472
 40
0.2999599255089619
 40
0.3837755018142821
 40
0.4668336004619331
 40
0.5504694841928045
 40
0.6335275658979084
 40
0.717162750255552
 40
0.8002209384460378
 40
0.8838555485303939
 40
0.9669139673219996
 40
1.0
 40
1.0
 40
1.0
 40
1.0
 10
-37.30625
 20
0.664062027106206
 30
0.0
 10
-37.10855162059115
 20
0.5573668619539601
 30
0.0
 10
-36.71082127407697
 20
0.3427171256522156
 30
0.0
 10
-36.16077151463966
 20
0.0221052417206747
 30
0.0
 10
-35.65336587302945
 20
-0.2683990866382319
 30
0.0
 10
-35.19532252570755
 20
-0.5274473156321863
 30
0.0
 10
-34.73470517855215
 20
-0.769113858307121
 30
0.0
 10
-34.27727126804529
 20
-0.9914368532030183
 30
0.0
 10
-33.81713111668662
 20
-1.18448295336234
 30
0.0
 10
-33.35948870035269
 20
-1.345746168705402
 30
0.0
 10
-32.89963322232821
 20
-1.469518508747504
 30
0.0
 10
-32.44166688353797
 20
-1.550146816402352
 30
0.0
 10
-32.07496749502945
 20
-1.588213065733682
 30
0.0
 10
-31.86183159273511
 20
-1.58352096277052
 30
0.0
 10
-31.8011156365363
 20
-1.582184324902733
 30
0.0
  0
SPLINE
  5
394
330
1F
100
AcDbEntity
  8
0
  6
Continuous
 62
     1
370
    15
100
AcDbSpline
210
0.0
220
0.0
230
1.0
 70
     8
 71
     3
 72
    12
 73
     8
 74
     0
 42
0.000000001
 43
0.00000001
 40
0.0
 40
0.0
 40
0.0
 40
0.0
 40
0.250604497325405
 40
0.5007483024902342
 40
0.7002875962465538
 40
0.8998271811733257
 40
1.0
 40
1.0
 40
1.0
 40
1.0
 10
-38.46876525756405
 20
-0.1664376237248592
 30
0.0
 10
-38.10526941413459
 20
-0.3048493646487943
 30
0.0
 10
-37.3789459502615
 20
-0.5814184009274174
 30
0.0
 10
-36.36337963403272
 20
-0.8800707111069871
 30
0.0
 10
-35.4221659770034
 20
-1.043998547224922
 30
0.0
 10
-34.69831796052838
 20
-1.100700439884476
 30
0.0
 10
-34.26378340226076
 20
-1.064925876071618
 30
0.0
 10
-34.11854900076744
 20
-1.052968950517154
 30
0.0
  0
SPLINE
  5
395
330
1F
100
AcDbEntity
  8
0
  6
Continuous
 62
     1
370
    15
100
AcDbSpline
210
0.0
220
0.0
230
1.0
 70
     8
 71
     3
 72
    22
 73
    18
 74
     0
 42
0.000000001
 43
0.00000001
 40
0.0
 40
0.0
 40
0.0
 40
0.0
 40
0.125
 40
0.125
 40
0.25
 40
0.25
 40
0.375
 40
0.375
 40
0.5
 40
0.5
 40
0.625
 40
0.625
 40
0.75
 40
0.75
 40
0.875
 40
0.875
 40
1.0
 40
1.0
 40
1.0
 40
1.0
 10
-37.30625
 20
0.664062027106206
 30
0.0
 10
-37.39437925918596
 20
0.7103472905038769
 30
0.0
 10
-37.48121514647195
 20
0.7516329149932742
 30
0.0
 10
-37.6544588019575
 20
0.8211889737750594
 30
0.0
 10
-37.74178440089153
 20
0.8497185298326085
 30
0.0
 10
-37.91412314664384
 20
0.8865426592317446
 30
0.0
 10
-37.99847646570455
 20
0.8952290465068001
 30
0.0
 10
-38.16772432759347
 20
0.8829697755402334
 30
0.0
 10
-38.2502715693192
 20
0.8618401680694928
 30
0.0
 10
-38.4059129979831
 20
0.777572053011505
 30
0.0
 10
-38.47828083838964
 20
0.713734082908965
 30
0.0
 10
-38.58831514097263
 20
0.5442626316430305
 30
0.0
 10
-38.62144133923118
 20
0.4438390072697173
 30
0.0
 10
-38.63815207548119
 20
0.2475125812019681
 30
0.0
 10
-38.62307224599777
 20
0.1549835460825489
 30
0.0
 10
-38.56475491342797
 20
-0.0144840271007626
 30
0.0
 10
-38.52156684771457
 20
-0.0922899288770994
 30
0.0
 10
-38.46876525752693
 20
-0.1664376237392121
 30
0.0
  0
SPLINE
  5
396
330
1F
100
AcDbEntity
  8
0
  6
Continuous
 62
     1
370
    15
100
AcDbSpline
210
0.0
220
0.0
230
1.0
 70
     8
 71
     3
 72
    14
 73
    10
 74
     0
 42
0.000000001
 43
0.00000001
 40
0.0
 40
0.0
 40
0.0
 40
0.0
 40
0.0293206447982659
 40
0.1917842410756822
 40
0.3542480698841649
 40
0.5167121289512469
 40
0.6791764160019592
 40
0.8395878821449795
 40
0.9999999999999999
 40
0.9999999999999999
 40
0.9999999999999999
 40
0.9999999999999999
 10
-34.71088814374504
 20
1.071854121802269
 30
0.0
 10
-34.65867647144633
 20
1.075356309339257
 30
0.0
 10
-34.31716365629543
 20
1.098263867597546
 30
0.0
 10
-33.68634918365174
 20
1.036273396322472
 30
0.0
 10
-32.81844419818858
 20
0.8840803965826195
 30
0.0
 10
-31.95053821176381
 20
0.6348604066273621
 30
0.0
 10
-31.08628544623078
 20
0.3273871135289225
 30
0.0
 10
-30.22569141670763
 20
-0.0135366303008399
 30
0.0
 10
-29.65439752573274
 20
-0.2329839668203905
 30
0.0
 10
-29.36874999999011
 20
-0.3427078579697339
 30
0.0
  0
SPLINE
  5
397
330
1F
100
AcDbEntity
  8
외형선
  6
Continuous
370
    15
100
AcDbSpline
210
0.0
220
0.0
230
1.0
 70
    24
 71
     3
 72
    14
 73
    10
 74
     0
 42
0.000000001
 43
0.00000001
 40
0.0
 40
0.0
 40
0.0
 40
0.0
 40
0.2500000000000002
 40
0.2500000000000002
 40
0.5000000000000003
 40
0.5000000000000003
 40
0.7500000000000002
 40
0.7500000000000002
 40
1.0
 40
1.0
 40
1.0
 40
1.0
 10
-29.36875
 20
-1.479925009664796
 30
0.0
 10
-29.36875
 20
-1.363734977939699
 30
0.0
 10
-29.36875
 20
-1.238068803768896
 30
0.0
 10
-29.36875
 20
-0.9943272787350695
 30
0.0
 10
-29.36875
 20
-0.8768048593078307
 30
0.0
 10
-29.36875
 20
-0.6706982966105942
 30
0.0
 10
-29.36875
 20
-0.582141333385947
 30
0.0
 10
-29.36875
 20
-0.4388895272043799
 30
0.0
 10
-29.36875
 20
-0.3839132044329278
 30
0.0
 10
-29.36875
 20
-0.3427078579660107
 30
0.0
  0
SPLINE
  5
398
330
1F
100
AcDbEntity
  8
0
  6
Continuous
 62
     1
370
    15
100
AcDbSpline
210
0.0
220
0.0
230
1.0
 70
     8
 71
     3
 72
    16
 73
    12
 74
     0
 42
0.000000001
 43
0.00000001
 40
0.0
 40
0.0
 40
0.0
 40
0.0
 40
0.1166513722894402
 40
0.2333036609830752
 40
0.3499615353941226
 40
0.4666246569476399
 40
0.5832926849550278
 40
0.69789205932602
 40
0.8124920504011217
 40
0.9270926403135344
 40
1.0
 40
1.0
 40
1.0
 40
1.0
 10
-29.36874999999218
 20
-1.479925009660831
 30
0.0
 10
-29.66503353017301
 20
-1.403000333560363
 30
0.0
 10
-30.25760291811525
 20
-1.249150377045096
 30
0.0
 10
-31.1464714701141
 20
-0.8478043279573472
 30
0.0
 10
-32.03538173208062
 20
-0.3696381859142323
 30
0.0
 10
-32.92433625034393
 20
0.1499239195450824
 30
0.0
 10
-33.80808099284371
 20
0.6497199849303937
 30
0.0
 10
-34.6865512468083
 20
1.082199480073919
 30
0.0
 10
-35.55978064964679
 20
1.397349739400313
 30
0.0
 10
-36.32711353887711
 20
1.572708373663674
 30
0.0
 10
-36.80337148187746
 20
1.570050594723392
 30
0.0
 10
-36.98855141279849
 20
1.569017189763323
 30
0.0
  0
SPLINE
  5
399
330
1F
100
AcDbEntity
  8
0
  6
Continuous
 62
     1
370
    15
100
AcDbSpline
210
0.0
220
0.0
230
1.0
 70
     8
 71
     3
 72
    10
 73
     6
 74
     0
 42
0.000000001
 43
0.00000001
 40
0.0
 40
0.0
 40
0.0
 40
0.0
 40
0.5000000000000003
 40
0.5000000000000003
 40
1.0
 40
1.0
 40
1.0
 40
1.0
 10
-38.46876525752693
 20
-0.1664376237392192
 30
0.0
 10
-38.50525832081518
 20
-0.1884733783866951
 30
0.0
 10
-38.53439649718674
 20
-0.2219591947295344
 30
0.0
 10
-38.57337755798843
 20
-0.306839522744062
 30
0.0
 10
-38.58303805711196
 20
-0.3579699194217684
 30
0.0
 10
-38.58394183538271
 20
-0.4111490879132506
 30
0.0
  0
ARC
  5
39A
330
1F
100
AcDbEntity
  8
0
  6
Continuous
 62
     1
370
    15
100
AcDbCircle
 10
-38.13423208599178
 20
0.2759622871941202
 30
0.0
 40
0.8211948005797466
100
AcDbArc
 50
203.841306565438
 51
236.7955241573179
  0
ARC
  5
39B
330
1F
100
AcDbEntity
  8
0
  6
Continuous
 62
     1
370
    15
100
AcDbCircle
 10
-37.46598859996546
 20
-0.029446586680996
 30
0.0
 40
1.419612273962418
100
AcDbArc
 50
181.0704953244502
 51
251.142256701731
  0
SPLINE
  5
39C
330
1F
100
AcDbEntity
  8
0
  6
Continuous
 62
     1
370
    15
100
AcDbSpline
210
0.0
220
0.0
230
1.0
 70
     8
 71
     3
 72
    10
 73
     6
 74
     0
 42
0.000000001
 43
0.00000001
 40
0.0
 40
0.0
 40
0.0
 40
0.0
 40
0.5
 40
0.5
 40
1.0
 40
1.0
 40
1.0
 40
1.0
 10
-37.924835075309
 20
-1.372859747421038
 30
0.0
 10
-37.82665077253599
 20
-1.432795731938085
 30
0.0
 10
-37.72547721184974
 20
-1.479851412957763
 30
0.0
 10
-37.51899232040957
 20
-1.548319734614359
 30
0.0
 10
-37.41265211458752
 20
-1.569780851254704
 30
0.0
 10
-37.30624999999767
 20
-1.576884014624624
 30
0.0
  0
SPLINE
  5
39D
330
1F
100
AcDbEntity
  8
0
  6
Continuous
 62
     1
370
    15
100
AcDbSpline
210
0.0
220
0.0
230
1.0
 70
     8
 71
     3
 72
    10
 73
     6
 74
     0
 42
0.000000001
 43
0.00000001
 40
0.0
 40
0.0
 40
0.0
 40
0.0
 40
0.3270802406048048
 40
0.6635392675081864
 40
1.0
 40
1.0
 40
1.0
 40
1.0
 10
-34.71088814374465
 20
-1.071854121802281
 30
0.0
 10
-34.99385165030488
 20
-1.182367827215727
 30
0.0
 10
-35.5678924346927
 20
-1.406564137589178
 30
0.0
 10
-36.43301306639741
 20
-1.587453795420898
 30
0.0
 10
-37.0151705302853
 20
-1.580407280843331
 30
0.0
 10
-37.30625
 20
-1.57688401462446
 30
0.0
  0
SPLINE
  5
39E
330
1F
100
AcDbEntity
  8
0
  6
Continuous
 62
     1
370
    15
100
AcDbSpline
210
0.0
220
0.0
230
1.0
 70
     8
 71
     3
 72
    13
 73
     9
 74
     0
 42
0.000000001
 43
0.00000001
 40
0.0
 40
0.0
 40
0.0
 40
0.0
 40
0.1578674791594342
 40
0.3515364687409617
 40
0.5452052414275437
 40
0.738874037307899
 40
0.8686200876820327
 40
1.0
 40
1.0
 40
1.0
 40
1.0
 10
-34.10628952435015
 20
1.052179087498616
 30
0.0
 10
-33.85694095498584
 20
1.155435283882477
 30
0.0
 10
-33.30169603673763
 20
1.385364328456292
 30
0.0
 10
-32.4405067786433
 20
1.571425895469369
 30
0.0
 10
-31.52292834260052
 20
1.609839213742242
 30
0.0
 10
-30.70576581697579
 20
1.481396649437025
 30
0.0
 10
-29.98852262363172
 20
1.267418891765552
 30
0.0
 10
-29.57620083866001
 20
1.093332253599749
 30
0.0
 10
-29.36875
 20
1.005744305537605
 30
0.0
  0
SPLINE
  5
39F
330
1F
100
AcDbEntity
  8
외형선
  6
Continuous
370
    15
100
AcDbSpline
210
0.0
220
0.0
230
1.0
 70
    24
 71
     3
 72
    14
 73
    10
 74
     0
 42
0.000000001
 43
0.00000001
 40
0.0
 40
0.0
 40
0.0
 40
0.0
 40
0.2499999999999999
 40
0.2499999999999999
 40
0.4999999999999999
 40
0.4999999999999999
 40
0.7499999999999999
 40
0.7499999999999999
 40
1.0
 40
1.0
 40
1.0
 40
1.0
 10
-29.36875
 20
-0.3427078579660178
 30
0.0
 10
-29.36875
 20
-0.2636374348209772
 30
0.0
 10
-29.36875
 20
-0.169665755703298
 30
0.0
 10
-29.36875
 20
0.0464606037911265
 30
0.0
 10
-29.36875
 20
0.1688291152079356
 30
0.0
 10
-29.36875
 20
0.4250636561128059
 30
0.0
 10
-29.36875
 20
0.5585594877057088
 30
0.0
 10
-29.36875
 20
0.8051205019652071
 30
0.0
 10
-29.36875
 20
0.9173510993002919
 30
0.0
 10
-29.36875
 20
1.00574430553703
 30
0.0
  0
SPLINE
  5
3A0
330
1F
100
AcDbEntity
  8
0
  6
Continuous
 62
     1
370
    15
100
AcDbSpline
210
0.0
220
0.0
230
1.0
 70
     8
 71
     3
 72
     8
 73
     4
 74
     0
 42
0.000000001
 43
0.00000001
 40
0.0
 40
0.0
 40
0.0
 40
0.0
 40
1.0
 40
1.0
 40
1.0
 40
1.0
 10
-37.60235167654803
 20
-0.7106424728898718
 30
0.0
 10
-37.92508402611636
 20
-0.6209346837538933
 30
0.0
 10
-38.25412515846903
 20
-0.519885586092491
 30
0.0
 10
-38.58394183538271
 20
-0.4111490879132648
 30
0.0
  0
SPLINE
  5
3A1
330
1F
100
AcDbEntity
  8
0
  6
Continuous
 62
     1
370
    15
100
AcDbSpline
210
0.0
220
0.0
230
1.0
 70
     8
 71
     3
 72
    14
 73
    10
 74
     0
 42
0.000000001
 43
0.00000001
 40
0.0
 40
0.0
 40
0.0
 40
0.0
 40
0.25
 40
0.25
 40
0.5
 40
0.5
 40
0.75
 40
0.75
 40
1.0
 40
1.0
 40
1.0
 40
1.0
 10
-37.924835075309
 20
-1.372859747421038
 30
0.0
 10
-37.93607257009173
 20
-1.306187900890974
 30
0.0
 10
-37.94110727074817
 20
-1.238282450482265
 30
0.0
 10
-37.93121910598273
 20
-1.100917013523037
 30
0.0
 10
-37.9159048100374
 20
-1.033208267318549
 30
0.0
 10
-37.85987727439109
 20
-0.9100871974201384
 30
0.0
 10
-37.81894317170181
 20
-0.8552594923361158
 30
0.0
 10
-37.72014797667889
 20
-0.7677459982601805
 30
0.0
 10
-37.66229126493337
 20
-0.7344628427950172
 30
0.0
 10
-37.60235167654852
 20
-0.7106424728899358
 30
0.0
  0
LINE
  5
3CF
330
1F
100
AcDbEntity
  8
외형선
  6
Continuous
370
    15
100
AcDbLine
 10
-4.838700000000038
 20
4.762499999999999
 30
0.0
 11
-16.51948868596887
 21
4.762499999999998
 31
0.0
  0
ENDSEC
  0
SECTION
  2
OBJECTS
  0
DICTIONARY
  5
C
330
0
100
AcDbDictionary
281
     1
  3
ACAD_GROUP
350
D
  3
ACAD_IMAGE_VARS
350
14D
  3
ACAD_LAYOUT
350
1A
  3
ACAD_MLINESTYLE
350
17
  3
ACAD_PLOTSETTINGS
350
19
  3
ACAD_PLOTSTYLENAME
350
E
  3
ACAD_SCALELIST
350
47
  3
APPDATA
350
14B
  3
DWGPROPS
350
3D0
  0
DICTIONARY
  5
20B
330
2
100
AcDbDictionary
280
     1
281
     1
  3
ACAD_LAYERSTATES
360
20C
  0
DICTIONARY
  5
D
102
{ACAD_REACTORS
330
C
102
}
330
C
100
AcDbDictionary
281
     1
  0
RASTERVARIABLES
  5
14D
102
{ACAD_REACTORS
330
C
102
}
330
C
100
AcDbRasterVariables
 90
        0
 70
     1
 71
     1
 72
     1
  0
DICTIONARY
  5
1A
102
{ACAD_REACTORS
330
C
102
}
330
C
100
AcDbDictionary
281
     1
  3
Layout1
350
1E
  3
Layout2
350
26
  3
Model
350
22
  0
DICTIONARY
  5
17
102
{ACAD_REACTORS
330
C
102
}
330
C
100
AcDbDictionary
281
     1
  3
Standard
350
18
  0
DICTIONARY
  5
19
102
{ACAD_REACTORS
330
C
102
}
330
C
100
AcDbDictionary
281
     1
  0
ACDBDICTIONARYWDFLT
  5
E
102
{ACAD_REACTORS
330
C
102
}
330
C
100
AcDbDictionary
281
     1
  3
Normal
350
F
100
AcDbDictionaryWithDefault
340
F
  0
DICTIONARY
  5
47
102
{ACAD_REACTORS
330
C
102
}
330
C
100
AcDbDictionary
281
     1
  3
A0
350
48
  3
A1
350
49
  3
A2
350
4A
  3
A3
350
4B
  3
A4
350
4C
  3
A5
350
4D
  3
A6
350
4E
  3
A7
350
4F
  3
A8
350
50
  3
A9
350
51
  3
B0
350
52
  3
B1
350
53
  3
B2
350
54
  3
B3
350
55
  3
B4
350
56
  3
B5
350
57
  3
B6
350
58
  3
B7
350
59
  3
B8
350
5A
  3
B9
350
5B
  3
C0
350
5C
  3
C1
350
5D
  3
C2
350
5E
  3
C3
350
5F
  3
C4
350
60
  3
C5
350
61
  3
C6
350
62
  3
C7
350
63
  3
C8
350
64
  3
C9
350
65
  3
D0
350
66
  3
D1
350
67
  3
D2
350
68
  0
DICTIONARY
  5
14B
102
{ACAD_REACTORS
330
C
102
}
330
C
100
AcDbDictionary
281
     1
  0
XRECORD
  5
3D0
102
{ACAD_REACTORS
330
C
102
}
330
C
100
AcDbXrecord
280
     1
  1
DWGPROPS COOKIE
  2

  3

  4

  6

  7

  8
12017012
  9

300
=
301
=
302
=
303
=
304
=
305
=
306
=
307
=
308
=
309
=
 40
0.0
 41
2458319.366982558
 42
2458323.253734977
  1

 90
        0
  0
DICTIONARY
  5
20C
102
{ACAD_REACTORS
330
20B
102
}
330
20B
100
AcDbDictionary
281
     1
  0
LAYOUT
  5
1E
102
{ACAD_REACTORS
330
1A
102
}
330
1A
100
AcDbPlotSettings
  1

  2
none_device
  4

  6

 40
0.0
 41
0.0
 42
0.0
 43
0.0
 44
0.0
 45
0.0
 46
0.0
 47
0.0
 48
0.0
 49
0.0
140
0.0
141
0.0
142
1.0
143
1.0
 70
   688
 72
     1
 73
     0
 74
     5
  7

 75
    16
147
1.0
148
0.0
149
0.0
100
AcDbLayout
  1
Layout1
 70
     1
 71
     1
 10
0.0
 20
0.0
 11
420.0
 21
297.0
 12
0.0
 22
0.0
 32
0.0
 14
1.000000000000000E+20
 24
1.000000000000000E+20
 34
1.000000000000000E+20
 15
-1.000000000000000E+20
 25
-1.000000000000000E+20
 35
-1.000000000000000E+20
146
0.0
 13
0.0
 23
0.0
 33
0.0
 16
1.0
 26
0.0
 36
0.0
 17
0.0
 27
1.0
 37
0.0
 76
     0
330
1B
  0
LAYOUT
  5
26
102
{ACAD_REACTORS
330
1A
102
}
330
1A
100
AcDbPlotSettings
  1

  2
none_device
  4

  6

 40
0.0
 41
0.0
 42
0.0
 43
0.0
 44
0.0
 45
0.0
 46
0.0
 47
0.0
 48
0.0
 49
0.0
140
0.0
141
0.0
142
1.0
143
1.0
 70
   688
 72
     1
 73
     0
 74
     5
  7

 75
    16
147
1.0
148
0.0
149
0.0
100
AcDbLayout
  1
Layout2
 70
     1
 71
     2
 10
0.0
 20
0.0
 11
0.0
 21
0.0
 12
0.0
 22
0.0
 32
0.0
 14
0.0
 24
0.0
 34
0.0
 15
0.0
 25
0.0
 35
0.0
146
0.0
 13
0.0
 23
0.0
 33
0.0
 16
1.0
 26
0.0
 36
0.0
 17
0.0
 27
1.0
 37
0.0
 76
     0
330
23
  0
LAYOUT
  5
22
102
{ACAD_REACTORS
330
1A
102
}
330
1A
100
AcDbPlotSettings
  1

  2
none_device
  4
ANSI_A_(11.00_x_8.50_Inches)
  6

 40
6.35
 41
19.05
 42
6.35000508
 43
19.05000254
 44
279.4
 45
215.9
 46
134.4716069472059
 47
97.85743264706906
 48
0.0
 49
0.0
140
0.0
141
0.0
142
0.0663336318230092
143
1.0
 70
  1696
 72
     0
 73
     0
 74
     0
  7

 75
     0
147
0.0235690232323232
148
0.0
149
0.0
100
AcDbLayout
  1
Model
 70
     1
 71
     0
 10
0.0
 20
0.0
 11
420.0
 21
297.0
 12
0.0
 22
0.0
 32
0.0
 14
1.000000000000000E+20
 24
1.000000000000000E+20
 34
1.000000000000000E+20
 15
-1.000000000000000E+20
 25
-1.000000000000000E+20
 35
-1.000000000000000E+20
146
0.0
 13
0.0
 23
0.0
 33
0.0
 16
1.0
 26
0.0
 36
0.0
 17
0.0
 27
1.0
 37
0.0
 76
     0
330
1F
331
29
  0
MLINESTYLE
  5
18
102
{ACAD_REACTORS
330
17
102
}
330
17
100
AcDbMlineStyle
  2
Standard
 70
     0
  3

 62
   256
 51
90.0
 52
90.0
 71
     2
 49
0.5
 62
   256
  6
BYLAYER
 49
-0.5
 62
   256
  6
BYLAYER
  0
ACDBPLACEHOLDER
  5
F
102
{ACAD_REACTORS
330
E
102
}
330
E
  0
SCALE
  5
48
102
{ACAD_REACTORS
330
47
102
}
330
47
100
AcDbScale
 70
     0
300
1:1
140
1.0
141
1.0
290
     1
  0
SCALE
  5
49
102
{ACAD_REACTORS
330
47
102
}
330
47
100
AcDbScale
 70
     0
300
1:2
140
1.0
141
2.0
290
     0
  0
SCALE
  5
4A
102
{ACAD_REACTORS
330
47
102
}
330
47
100
AcDbScale
 70
     0
300
1:4
140
1.0
141
4.0
290
     0
  0
SCALE
  5
4B
102
{ACAD_REACTORS
330
47
102
}
330
47
100
AcDbScale
 70
     0
300
1:5
140
1.0
141
5.0
290
     0
  0
SCALE
  5
4C
102
{ACAD_REACTORS
330
47
102
}
330
47
100
AcDbScale
 70
     0
300
1:8
140
1.0
141
8.0
290
     0
  0
SCALE
  5
4D
102
{ACAD_REACTORS
330
47
102
}
330
47
100
AcDbScale
 70
     0
300
1:10
140
1.0
141
10.0
290
     0
  0
SCALE
  5
4E
102
{ACAD_REACTORS
330
47
102
}
330
47
100
AcDbScale
 70
     0
300
1:16
140
1.0
141
16.0
290
     0
  0
SCALE
  5
4F
102
{ACAD_REACTORS
330
47
102
}
330
47
100
AcDbScale
 70
     0
300
1:20
140
1.0
141
20.0
290
     0
  0
SCALE
  5
50
102
{ACAD_REACTORS
330
47
102
}
330
47
100
AcDbScale
 70
     0
300
1:30
140
1.0
141
30.0
290
     0
  0
SCALE
  5
51
102
{ACAD_REACTORS
330
47
102
}
330
47
100
AcDbScale
 70
     0
300
1:40
140
1.0
141
40.0
290
     0
  0
SCALE
  5
52
102
{ACAD_REACTORS
330
47
102
}
330
47
100
AcDbScale
 70
     0
300
1:50
140
1.0
141
50.0
290
     0
  0
SCALE
  5
53
102
{ACAD_REACTORS
330
47
102
}
330
47
100
AcDbScale
 70
     0
300
1:100
140
1.0
141
100.0
290
     0
  0
SCALE
  5
54
102
{ACAD_REACTORS
330
47
102
}
330
47
100
AcDbScale
 70
     0
300
2:1
140
2.0
141
1.0
290
     0
  0
SCALE
  5
55
102
{ACAD_REACTORS
330
47
102
}
330
47
100
AcDbScale
 70
     0
300
4:1
140
4.0
141
1.0
290
     0
  0
SCALE
  5
56
102
{ACAD_REACTORS
330
47
102
}
330
47
100
AcDbScale
 70
     0
300
8:1
140
8.0
141
1.0
290
     0
  0
SCALE
  5
57
102
{ACAD_REACTORS
330
47
102
}
330
47
100
AcDbScale
 70
     0
300
10:1
140
10.0
141
1.0
290
     0
  0
SCALE
  5
58
102
{ACAD_REACTORS
330
47
102
}
330
47
100
AcDbScale
 70
     0
300
100:1
140
100.0
141
1.0
290
     0
  0
SCALE
  5
59
102
{ACAD_REACTORS
330
47
102
}
330
47
100
AcDbScale
 70
     0
300
1/128" = 1'-0"
140
0.0078125
141
12.0
290
     0
  0
SCALE
  5
5A
102
{ACAD_REACTORS
330
47
102
}
330
47
100
AcDbScale
 70
     0
300
1/64" = 1'-0"
140
0.015625
141
12.0
290
     0
  0
SCALE
  5
5B
102
{ACAD_REACTORS
330
47
102
}
330
47
100
AcDbScale
 70
     0
300
1/32" = 1'-0"
140
0.03125
141
12.0
290
     0
  0
SCALE
  5
5C
102
{ACAD_REACTORS
330
47
102
}
330
47
100
AcDbScale
 70
     0
300
1/16" = 1'-0"
140
0.0625
141
12.0
290
     0
  0
SCALE
  5
5D
102
{ACAD_REACTORS
330
47
102
}
330
47
100
AcDbScale
 70
     0
300
3/32" = 1'-0"
140
0.09375
141
12.0
290
     0
  0
SCALE
  5
5E
102
{ACAD_REACTORS
330
47
102
}
330
47
100
AcDbScale
 70
     0
300
1/8" = 1'-0"
140
0.125
141
12.0
290
     0
  0
SCALE
  5
5F
102
{ACAD_REACTORS
330
47
102
}
330
47
100
AcDbScale
 70
     0
300
3/16" = 1'-0"
140
0.1875
141
12.0
290
     0
  0
SCALE
  5
60
102
{ACAD_REACTORS
330
47
102
}
330
47
100
AcDbScale
 70
     0
300
1/4" = 1'-0"
140
0.25
141
12.0
290
     0
  0
SCALE
  5
61
102
{ACAD_REACTORS
330
47
102
}
330
47
100
AcDbScale
 70
     0
300
3/8" = 1'-0"
140
0.375
141
12.0
290
     0
  0
SCALE
  5
62
102
{ACAD_REACTORS
330
47
102
}
330
47
100
AcDbScale
 70
     0
300
1/2" = 1'-0"
140
0.5
141
12.0
290
     0
  0
SCALE
  5
63
102
{ACAD_REACTORS
330
47
102
}
330
47
100
AcDbScale
 70
     0
300
3/4" = 1'-0"
140
0.75
141
12.0
290
     0
  0
SCALE
  5
64
102
{ACAD_REACTORS
330
47
102
}
330
47
100
AcDbScale
 70
     0
300
1" = 1'-0"
140
1.0
141
12.0
290
     0
  0
SCALE
  5
65
102
{ACAD_REACTORS
330
47
102
}
330
47
100
AcDbScale
 70
     0
300
1-1/2" = 1'-0"
140
1.5
141
12.0
290
     0
  0
SCALE
  5
66
102
{ACAD_REACTORS
330
47
102
}
330
47
100
AcDbScale
 70
     0
300
3" = 1'-0"
140
3.0
141
12.0
290
     0
  0
SCALE
  5
67
102
{ACAD_REACTORS
330
47
102
}
330
47
100
AcDbScale
 70
     0
300
6" = 1'-0"
140
6.0
141
12.0
290
     0
  0
SCALE
  5
68
102
{ACAD_REACTORS
330
47
102
}
330
47
100
AcDbScale
 70
     0
300
1'-0" = 1'-0"
140
12.0
141
12.0
290
     0
  0
ENDSEC
  0
EOF
