  0
SECTION
  2
HEADER
  9
$ACADVER
  1
AC1015
  9
$ACADMAINTVER
 70
     6
  9
$DWGCODEPAGE
  3
ANSI_949
  9
$INSBASE
 10
0.0
 20
0.0
 30
0.0
  9
$EXTMIN
 10
1.000000000000000E+20
 20
1.000000000000000E+20
 30
1.000000000000000E+20
  9
$EXTMAX
 10
-1.000000000000000E+20
 20
-1.000000000000000E+20
 30
-1.000000000000000E+20
  9
$LIMMIN
 10
0.0
 20
0.0
  9
$LIMMAX
 10
420.0
 20
297.0
  9
$ORTHOMODE
 70
     1
  9
$REGENMODE
 70
     1
  9
$FILLMODE
 70
     1
  9
$QTEXTMODE
 70
     0
  9
$MIRRTEXT
 70
     1
  9
$LTSCALE
 40
1.0
  9
$ATTMODE
 70
     1
  9
$TEXTSIZE
 40
3.5
  9
$TRACEWID
 40
1.0
  9
$TEXTSTYLE
  7
Standard
  9
$CLAYER
  8
0
  9
$CELTYPE
  6
ByLayer
  9
$CECOLOR
 62
   256
  9
$CELTSCALE
 40
1.0
  9
$DISPSILH
 70
     0
  9
$DIMSCALE
 40
1.0
  9
$DIMASZ
 40
3.302
  9
$DIMEXO
 40
1.0
  9
$DIMDLI
 40
3.75
  9
$DIMRND
 40
0.0
  9
$DIMDLE
 40
0.0
  9
$DIMEXE
 40
1.0
  9
$DIMTP
 40
0.0
  9
$DIMTM
 40
0.0
  9
$DIMTXT
 40
3.5
  9
$DIMCEN
 40
2.5
  9
$DIMTSZ
 40
0.0
  9
$DIMTOL
 70
     0
  9
$DIMLIM
 70
     0
  9
$DIMTIH
 70
     1
  9
$DIMTOH
 70
     1
  9
$DIMSE1
 70
     0
  9
$DIMSE2
 70
     0
  9
$DIMTAD
 70
     1
  9
$DIMZIN
 70
     0
  9
$DIMBLK
  1

  9
$DIMASO
 70
     1
  9
$DIMSHO
 70
     1
  9
$DIMPOST
  1

  9
$DIMAPOST
  1

  9
$DIMALT
 70
     0
  9
$DIMALTD
 70
     3
  9
$DIMALTF
 40
0.0393700787401575
  9
$DIMLFAC
 40
1.0
  9
$DIMTOFL
 70
     1
  9
$DIMTVP
 40
0.0
  9
$DIMTIX
 70
     0
  9
$DIMSOXD
 70
     0
  9
$DIMSAH
 70
     0
  9
$DIMBLK1
  1

  9
$DIMBLK2
  1

  9
$DIMSTYLE
  2
ISO-25
  9
$DIMCLRD
 70
     0
  9
$DIMCLRE
 70
     0
  9
$DIMCLRT
 70
     0
  9
$DIMTFAC
 40
1.0
  9
$DIMGAP
 40
1.524
  9
$DIMJUST
 70
     0
  9
$DIMSD1
 70
     0
  9
$DIMSD2
 70
     0
  9
$DIMTOLJ
 70
     0
  9
$DIMTZIN
 70
     0
  9
$DIMALTZ
 70
     0
  9
$DIMALTTZ
 70
     0
  9
$DIMUPT
 70
     0
  9
$DIMDEC
 70
     2
  9
$DIMTDEC
 70
     2
  9
$DIMALTU
 70
     2
  9
$DIMALTTD
 70
     3
  9
$DIMTXSTY
  7
Standard
  9
$DIMAUNIT
 70
     0
  9
$DIMADEC
 70
     2
  9
$DIMALTRND
 40
0.0
  9
$DIMAZIN
 70
     0
  9
$DIMDSEP
 70
    44
  9
$DIMATFIT
 70
     3
  9
$DIMFRAC
 70
     0
  9
$DIMLDRBLK
  1

  9
$DIMLUNIT
 70
     2
  9
$DIMLWD
 70
    -2
  9
$DIMLWE
 70
    -2
  9
$DIMTMOVE
 70
     0
  9
$LUNITS
 70
     2
  9
$LUPREC
 70
     2
  9
$SKETCHINC
 40
1.0
  9
$FILLETRAD
 40
10.0
  9
$AUNITS
 70
     0
  9
$AUPREC
 70
     2
  9
$MENU
  1
.
  9
$ELEVATION
 40
0.0
  9
$PELEVATION
 40
0.0
  9
$THICKNESS
 40
0.0
  9
$LIMCHECK
 70
     0
  9
$CHAMFERA
 40
0.0
  9
$CHAMFERB
 40
0.0
  9
$CHAMFERC
 40
0.0
  9
$CHAMFERD
 40
0.0
  9
$SKPOLY
 70
     0
  9
$TDCREATE
 40
2458323.704333993
  9
$TDUCREATE
 40
2458323.329333993
  9
$TDUPDATE
 40
2458324.429014421
  9
$TDUUPDATE
 40
2458324.054014421
  9
$TDINDWG
 40
0.0004014583
  9
$TDUSRTIMER
 40
2458324.053613345
  9
$USRTIMER
 70
     1
  9
$ANGBASE
 50
0.0
  9
$ANGDIR
 70
     0
  9
$PDMODE
 70
     0
  9
$PDSIZE
 40
-1.0
  9
$PLINEWID
 40
0.0
  9
$SPLFRAME
 70
     0
  9
$SPLINETYPE
 70
     6
  9
$SPLINESEGS
 70
     8
  9
$HANDSEED
  5
2AB
  9
$SURFTAB1
 70
     6
  9
$SURFTAB2
 70
     6
  9
$SURFTYPE
 70
     6
  9
$SURFU
 70
     6
  9
$SURFV
 70
     6
  9
$UCSBASE
  2

  9
$UCSNAME
  2

  9
$UCSORG
 10
0.0
 20
0.0
 30
0.0
  9
$UCSXDIR
 10
1.0
 20
0.0
 30
0.0
  9
$UCSYDIR
 10
0.0
 20
1.0
 30
0.0
  9
$UCSORTHOREF
  2

  9
$UCSORTHOVIEW
 70
     0
  9
$UCSORGTOP
 10
0.0
 20
0.0
 30
0.0
  9
$UCSORGBOTTOM
 10
0.0
 20
0.0
 30
0.0
  9
$UCSORGLEFT
 10
0.0
 20
0.0
 30
0.0
  9
$UCSORGRIGHT
 10
0.0
 20
0.0
 30
0.0
  9
$UCSORGFRONT
 10
0.0
 20
0.0
 30
0.0
  9
$UCSORGBACK
 10
0.0
 20
0.0
 30
0.0
  9
$PUCSBASE
  2

  9
$PUCSNAME
  2

  9
$PUCSORG
 10
0.0
 20
0.0
 30
0.0
  9
$PUCSXDIR
 10
1.0
 20
0.0
 30
0.0
  9
$PUCSYDIR
 10
0.0
 20
1.0
 30
0.0
  9
$PUCSORTHOREF
  2

  9
$PUCSORTHOVIEW
 70
     0
  9
$PUCSORGTOP
 10
0.0
 20
0.0
 30
0.0
  9
$PUCSORGBOTTOM
 10
0.0
 20
0.0
 30
0.0
  9
$PUCSORGLEFT
 10
0.0
 20
0.0
 30
0.0
  9
$PUCSORGRIGHT
 10
0.0
 20
0.0
 30
0.0
  9
$PUCSORGFRONT
 10
0.0
 20
0.0
 30
0.0
  9
$PUCSORGBACK
 10
0.0
 20
0.0
 30
0.0
  9
$USERI1
 70
     0
  9
$USERI2
 70
     0
  9
$USERI3
 70
     0
  9
$USERI4
 70
     0
  9
$USERI5
 70
     0
  9
$USERR1
 40
0.0
  9
$USERR2
 40
0.0
  9
$USERR3
 40
0.0
  9
$USERR4
 40
0.0
  9
$USERR5
 40
0.0
  9
$WORLDVIEW
 70
     1
  9
$SHADEDGE
 70
     3
  9
$SHADEDIF
 70
    70
  9
$TILEMODE
 70
     1
  9
$MAXACTVP
 70
    64
  9
$PINSBASE
 10
0.0
 20
0.0
 30
0.0
  9
$PLIMCHECK
 70
     0
  9
$PEXTMIN
 10
1.000000000000000E+20
 20
1.000000000000000E+20
 30
1.000000000000000E+20
  9
$PEXTMAX
 10
-1.000000000000000E+20
 20
-1.000000000000000E+20
 30
-1.000000000000000E+20
  9
$PLIMMIN
 10
0.0
 20
0.0
  9
$PLIMMAX
 10
0.0
 20
0.0
  9
$UNITMODE
 70
     0
  9
$VISRETAIN
 70
     1
  9
$PLINEGEN
 70
     0
  9
$PSLTSCALE
 70
     1
  9
$TREEDEPTH
 70
  3020
  9
$CMLSTYLE
  2
Standard
  9
$CMLJUST
 70
     0
  9
$CMLSCALE
 40
20.0
  9
$PROXYGRAPHICS
 70
     1
  9
$MEASUREMENT
 70
     1
  9
$CELWEIGHT
370
    -1
  9
$ENDCAPS
280
     0
  9
$JOINSTYLE
280
     0
  9
$LWDISPLAY
290
     1
  9
$INSUNITS
 70
     4
  9
$HYPERLINKBASE
  1

  9
$STYLESHEET
  1

  9
$XEDIT
290
     1
  9
$CEPSNTYPE
380
     0
  9
$PSTYLEMODE
290
     1
  9
$FINGERPRINTGUID
  2
{2DDBC1FC-6D72-47B1-A83C-0C14B63F07E9}
  9
$VERSIONGUID
  2
{FAEB1C32-E019-11D5-929B-00C0DF256EC4}
  9
$EXTNAMES
290
     1
  9
$PSVPSCALE
 40
0.0
  9
$OLESTARTUP
290
     0
  0
ENDSEC
  0
SECTION
  2
CLASSES
  0
CLASS
  1
ACDBDICTIONARYWDFLT
  2
AcDbDictionaryWithDefault
  3
ObjectDBX Classes
 90
        0
280
     0
281
     0
  0
CLASS
  1
VISUALSTYLE
  2
AcDbVisualStyle
  3
ObjectDBX Classes
 90
     4095
280
     0
281
     0
  0
CLASS
  1
MATERIAL
  2
AcDbMaterial
  3
ObjectDBX Classes
 90
     1153
280
     0
281
     0
  0
CLASS
  1
SCALE
  2
AcDbScale
  3
ObjectDBX Classes
 90
     1153
280
     0
281
     0
  0
CLASS
  1
SUN
  2
AcDbSun
  3
SCENEOE
 90
     1153
280
     0
281
     0
  0
CLASS
  1
ACDBPLACEHOLDER
  2
AcDbPlaceHolder
  3
ObjectDBX Classes
 90
        0
280
     0
281
     0
  0
CLASS
  1
LAYOUT
  2
AcDbLayout
  3
ObjectDBX Classes
 90
        0
280
     0
281
     0
  0
CLASS
  1
TABLESTYLE
  2
AcDbTableStyle
  3
ObjectDBX Classes
 90
     4095
280
     0
281
     0
  0
CLASS
  1
MLEADERSTYLE
  2
AcDbMLeaderStyle
  3
ACDB_MLEADERSTYLE_CLASS
 90
     4095
280
     0
281
     0
  0
CLASS
  1
RASTERVARIABLES
  2
AcDbRasterVariables
  3
ISM
 90
        0
280
     0
281
     0
  0
ENDSEC
  0
SECTION
  2
TABLES
  0
TABLE
  2
VPORT
  5
8
330
0
100
AcDbSymbolTable
 70
     1
  0
VPORT
  5
29
330
8
100
AcDbSymbolTableRecord
100
AcDbViewportTableRecord
  2
*Active
 70
     0
 10
0.0
 20
0.0
 11
1.0
 21
1.0
 12
-22.92708038051995
 22
-18.40140704937091
 13
0.0
 23
0.0
 14
10.0
 24
10.0
 15
10.0
 25
10.0
 16
0.0
 26
0.0
 36
1.0
 17
0.0
 27
0.0
 37
0.0
 40
191.3496856509564
 41
1.625730994152047
 42
50.0
 43
0.0
 44
0.0
 50
0.0
 51
0.0
 71
    16
 72
  2000
 73
     1
 74
     3
 75
     0
 76
     0
 77
     0
 78
     0
281
     0
 65
     1
110
0.0
120
0.0
130
0.0
111
1.0
121
0.0
131
0.0
112
0.0
122
1.0
132
0.0
 79
     0
146
0.0
  0
ENDTAB
  0
TABLE
  2
LTYPE
  5
5
330
0
100
AcDbSymbolTable
 70
     6
  0
LTYPE
  5
14
330
5
100
AcDbSymbolTableRecord
100
AcDbLinetypeTableRecord
  2
ByBlock
 70
     0
  3

 72
    65
 73
     0
 40
0.0
  0
LTYPE
  5
15
330
5
100
AcDbSymbolTableRecord
100
AcDbLinetypeTableRecord
  2
ByLayer
 70
     0
  3

 72
    65
 73
     0
 40
0.0
  0
LTYPE
  5
16
330
5
100
AcDbSymbolTableRecord
100
AcDbLinetypeTableRecord
  2
Continuous
 70
     0
  3
Solid line
 72
    65
 73
     0
 40
0.0
  0
LTYPE
  5
6A
330
5
100
AcDbSymbolTableRecord
100
AcDbLinetypeTableRecord
  2
HIDDEN
 70
     0
  3
Hidden __ __ __ __ __ __ __ __ __ __ __ __ __ __
 72
    65
 73
     2
 40
1.905
 49
1.27
 74
     0
 49
-0.635
 74
     0
  0
LTYPE
  5
6B
330
5
100
AcDbSymbolTableRecord
100
AcDbLinetypeTableRecord
  2
PHANTOM
 70
     0
  3
Phantom ______  __  __  ______  __  __  ______
 72
    65
 73
     6
 40
12.7
 49
6.35
 74
     0
 49
-1.27
 74
     0
 49
1.27
 74
     0
 49
-1.27
 74
     0
 49
1.27
 74
     0
 49
-1.27
 74
     0
  0
LTYPE
  5
6C
330
5
100
AcDbSymbolTableRecord
100
AcDbLinetypeTableRecord
  2
CENTER
 70
     0
  3
Center ____ _ ____ _ ____ _ ____ _ ____ _ ____
 72
    65
 73
     4
 40
10.16
 49
6.35
 74
     0
 49
-1.27
 74
     0
 49
1.27
 74
     0
 49
-1.27
 74
     0
  0
LTYPE
  5
6D
330
5
100
AcDbSymbolTableRecord
100
AcDbLinetypeTableRecord
  2
CENTERX2
 70
     0
  3
Center (2x) ________  __  ________  __  _____
 72
    65
 73
     4
 40
20.32
 49
12.7
 74
     0
 49
-2.54
 74
     0
 49
2.54
 74
     0
 49
-2.54
 74
     0
  0
LTYPE
  5
6E
330
5
100
AcDbSymbolTableRecord
100
AcDbLinetypeTableRecord
  2
DOT2
 70
     0
  3
Dot (.5x) ........................................
 72
    65
 73
     2
 40
0.635
 49
0.0
 74
     0
 49
-0.635
 74
     0
  0
ENDTAB
  0
TABLE
  2
LAYER
  5
2
102
{ACAD_XDICTIONARY
360
1D7
102
}
330
0
100
AcDbSymbolTable
 70
    18
  0
LAYER
  5
10
330
2
100
AcDbSymbolTableRecord
100
AcDbLayerTableRecord
  2
0
 70
     0
 62
     7
  6
Continuous
370
    -3
390
F
  0
LAYER
  5
6F
330
2
100
AcDbSymbolTableRecord
100
AcDbLayerTableRecord
  2
FORMAT
 70
     0
 62
     2
  6
Continuous
370
    -3
390
F
  0
LAYER
  5
70
330
2
100
AcDbSymbolTableRecord
100
AcDbLayerTableRecord
  2
외형선
 70
     0
 62
     4
  6
Continuous
370
    30
390
F
  0
LAYER
  5
71
330
2
100
AcDbSymbolTableRecord
100
AcDbLayerTableRecord
  2
숨은선
 70
     0
 62
     2
  6
HIDDEN
370
    15
390
F
  0
LAYER
  5
72
330
2
100
AcDbSymbolTableRecord
100
AcDbLayerTableRecord
  2
중심선
 70
     0
 62
     1
  6
CENTERX2
370
    -3
390
F
  0
LAYER
  5
73
330
2
100
AcDbSymbolTableRecord
100
AcDbLayerTableRecord
  2
파단선
 70
     0
 62
     4
  6
Continuous
370
    -3
390
F
  0
LAYER
  5
74
330
2
100
AcDbSymbolTableRecord
100
AcDbLayerTableRecord
  2
해칭선
 70
     0
 62
   100
  6
Continuous
370
    -3
390
F
  0
LAYER
  5
75
330
2
100
AcDbSymbolTableRecord
100
AcDbLayerTableRecord
  2
가는실선
 70
     0
 62
     4
  6
Continuous
370
    -3
390
F
  0
LAYER
  5
76
330
2
100
AcDbSymbolTableRecord
100
AcDbLayerTableRecord
  2
치수_보조선
 70
     0
 62
     4
  6
Continuous
370
    -3
390
F
  0
LAYER
  5
77
330
2
100
AcDbSymbolTableRecord
100
AcDbLayerTableRecord
  2
치수문자_일반주서
 70
     0
 62
     7
  6
Continuous
370
    15
390
F
  0
LAYER
  5
78
330
2
100
AcDbSymbolTableRecord
100
AcDbLayerTableRecord
  2
개별주서
 70
     0
 62
   100
  6
Continuous
370
    30
390
F
  0
LAYER
  5
79
330
2
100
AcDbSymbolTableRecord
100
AcDbLayerTableRecord
  2
중간선
 70
     0
 62
     2
  6
Continuous
370
    15
390
F
  0
LAYER
  5
7A
330
2
100
AcDbSymbolTableRecord
100
AcDbLayerTableRecord
  2
윤곽선
 70
     0
 62
     3
  6
Continuous
370
    40
390
F
  0
LAYER
  5
7B
330
2
100
AcDbSymbolTableRecord
100
AcDbLayerTableRecord
  2
중심마크
 70
     0
 62
   100
  6
Continuous
370
    30
390
F
  0
LAYER
  5
7C
330
2
100
AcDbSymbolTableRecord
100
AcDbLayerTableRecord
  2
가상선
 70
     0
 62
     4
  6
PHANTOM
370
    -3
390
F
  0
LAYER
  5
7D
330
2
100
AcDbSymbolTableRecord
100
AcDbLayerTableRecord
  2
특수지정선
 70
     0
 62
     5
  6
CENTERX2
370
    60
390
F
  0
LAYER
  5
7E
330
2
100
AcDbSymbolTableRecord
100
AcDbLayerTableRecord
  2
참조1
 70
     0
 62
    -4
  6
Continuous
370
    -3
390
F
  0
LAYER
  5
149
330
2
100
AcDbSymbolTableRecord
100
AcDbLayerTableRecord
  2
Defpoints
 70
     0
 62
     7
  6
Continuous
290
     0
370
    -3
390
F
  0
ENDTAB
  0
TABLE
  2
STYLE
  5
3
330
0
100
AcDbSymbolTable
 70
     2
  0
STYLE
  5
11
330
3
100
AcDbSymbolTableRecord
100
AcDbTextStyleTableRecord
  2
Standard
 70
     0
 40
0.0
 41
1.0
 50
0.0
 71
     0
 42
3.5
  3
txt
  4

  0
STYLE
  5
94
330
3
100
AcDbSymbolTableRecord
100
AcDbTextStyleTableRecord
  2
SLDTEXTSTYLE0
 70
     0
 40
0.0
 41
0.75
 50
0.0
 71
     0
 42
3.5
  3
TXT
  4

  0
ENDTAB
  0
TABLE
  2
VIEW
  5
6
330
0
100
AcDbSymbolTable
 70
     0
  0
ENDTAB
  0
TABLE
  2
UCS
  5
7
330
0
100
AcDbSymbolTable
 70
     0
  0
ENDTAB
  0
TABLE
  2
APPID
  5
9
330
0
100
AcDbSymbolTable
 70
     1
  0
APPID
  5
12
330
9
100
AcDbSymbolTableRecord
100
AcDbRegAppTableRecord
  2
ACAD
 70
     0
  0
ENDTAB
  0
TABLE
  2
DIMSTYLE
  5
A
330
0
100
AcDbSymbolTable
 70
     4
100
AcDbDimStyleTable
  0
DIMSTYLE
105
27
330
A
100
AcDbSymbolTableRecord
100
AcDbDimStyleTableRecord
  2
ISO-25
 70
     0
 41
2.5
 42
0.625
 43
3.75
 44
1.25
 73
     0
 74
     0
 77
     1
 78
     8
140
2.5
141
2.5
143
0.03937007874016
147
0.625
171
     3
172
     1
178
     0
271
     2
272
     2
274
     3
278
    44
283
     0
284
     8
340
11
  0
DIMSTYLE
105
C6
330
A
100
AcDbSymbolTableRecord
100
AcDbDimStyleTableRecord
  2
SLDDIMSTYLE0
 70
     0
 41
3.302
 44
0.0
 45
0.000000001
 73
     0
 74
     0
 77
     1
 78
     4
 79
     1
140
3.5
143
0.0393700787401575
147
0.875
148
0.000000001
170
     1
173
     1
178
     0
271
     2
272
     2
276
     2
284
    12
340
94
  0
DIMSTYLE
105
DB
102
{ACAD_REACTORS
330
DA
330
194
330
1A1
330
1AE
330
1BB
330
103
330
C5
330
EE
102
}
330
A
100
AcDbSymbolTableRecord
100
AcDbDimStyleTableRecord
  2
SLDDIMSTYLE1
 70
     0
 41
3.302
 44
0.0
 45
0.000000001
 73
     0
 74
     0
 77
     1
 78
    12
 79
     3
140
3.5
143
0.0393700787401575
147
0.875
148
0.000000001
170
     1
173
     1
178
     0
271
     2
272
     2
276
     2
284
    12
340
94
  0
DIMSTYLE
105
EF
330
A
100
AcDbSymbolTableRecord
100
AcDbDimStyleTableRecord
  2
SLDDIMSTYLE2
 70
     0
 41
3.302
 44
0.0
 45
0.000000001
 73
     0
 74
     0
 77
     1
 78
     4
 79
     1
140
3.5
143
0.0393700787401575
147
0.875
148
0.000000001
170
     1
172
     1
173
     1
178
     0
271
     2
272
     2
276
     2
284
    12
289
     0
340
94
  0
ENDTAB
  0
TABLE
  2
BLOCK_RECORD
  5
1
330
0
100
AcDbSymbolTable
 70
    17
  0
BLOCK_RECORD
  5
1F
330
1
100
AcDbSymbolTableRecord
100
AcDbBlockTableRecord
  2
*Model_Space
340
22
  0
BLOCK_RECORD
  5
1B
330
1
100
AcDbSymbolTableRecord
100
AcDbBlockTableRecord
  2
*Paper_Space
340
1E
  0
BLOCK_RECORD
  5
23
330
1
100
AcDbSymbolTableRecord
100
AcDbBlockTableRecord
  2
*Paper_Space0
340
26
  0
BLOCK_RECORD
  5
7F
330
1
100
AcDbSymbolTableRecord
100
AcDbBlockTableRecord
  2
블럭10
340
0
102
{BLKREFS
331
BE
102
}
  0
BLOCK_RECORD
  5
C7
330
1
100
AcDbSymbolTableRecord
100
AcDbBlockTableRecord
  2
_D
340
0
  0
BLOCK_RECORD
  5
DC
330
1
100
AcDbSymbolTableRecord
100
AcDbBlockTableRecord
  2
_D_1
340
0
  0
BLOCK_RECORD
  5
F0
330
1
100
AcDbSymbolTableRecord
100
AcDbBlockTableRecord
  2
_D_2
340
0
  0
BLOCK_RECORD
  5
104
330
1
100
AcDbSymbolTableRecord
100
AcDbBlockTableRecord
  2
_D_3
340
0
  0
BLOCK_RECORD
  5
11D
330
1
100
AcDbSymbolTableRecord
100
AcDbBlockTableRecord
  2
SW_DOWELSYMBOL_0
340
0
102
{BLKREFS
331
123
331
1CB
331
0
102
}
  0
BLOCK_RECORD
  5
1DB
330
1
100
AcDbSymbolTableRecord
100
AcDbBlockTableRecord
  2
*D8
340
0
  0
BLOCK_RECORD
  5
1E7
330
1
100
AcDbSymbolTableRecord
100
AcDbBlockTableRecord
  2
*D9
340
0
  0
BLOCK_RECORD
  5
1F3
330
1
100
AcDbSymbolTableRecord
100
AcDbBlockTableRecord
  2
*D10
340
0
  0
BLOCK_RECORD
  5
1FF
330
1
100
AcDbSymbolTableRecord
100
AcDbBlockTableRecord
  2
*D11
340
0
  0
BLOCK_RECORD
  5
239
330
1
100
AcDbSymbolTableRecord
100
AcDbBlockTableRecord
  2
*D12
340
0
  0
BLOCK_RECORD
  5
245
330
1
100
AcDbSymbolTableRecord
100
AcDbBlockTableRecord
  2
*D13
340
0
  0
BLOCK_RECORD
  5
251
330
1
100
AcDbSymbolTableRecord
100
AcDbBlockTableRecord
  2
*D14
340
0
  0
BLOCK_RECORD
  5
25D
330
1
100
AcDbSymbolTableRecord
100
AcDbBlockTableRecord
  2
*D15
340
0
  0
ENDTAB
  0
ENDSEC
  0
SECTION
  2
BLOCKS
  0
BLOCK
  5
20
330
1F
100
AcDbEntity
  8
0
100
AcDbBlockBegin
  2
*Model_Space
 70
     0
 10
0.0
 20
0.0
 30
0.0
  3
*Model_Space
  1
*Model_Space
  0
ENDBLK
  5
21
330
1F
100
AcDbEntity
  8
0
100
AcDbBlockEnd
  0
BLOCK
  5
1C
330
1B
100
AcDbEntity
 67
     1
  8
0
100
AcDbBlockBegin
  2
*Paper_Space
 70
     0
 10
0.0
 20
0.0
 30
0.0
  3
*Paper_Space
  1
*Paper_Space
  0
ENDBLK
  5
1D
330
1B
100
AcDbEntity
 67
     1
  8
0
100
AcDbBlockEnd
  0
BLOCK
  5
24
330
23
100
AcDbEntity
  8
0
100
AcDbBlockBegin
  2
*Paper_Space0
 70
     0
 10
0.0
 20
0.0
 30
0.0
  3
*Paper_Space0
  1
*Paper_Space0
  0
ENDBLK
  5
25
330
23
100
AcDbEntity
  8
0
100
AcDbBlockEnd
  0
BLOCK
  5
80
330
7F
100
AcDbEntity
  8
0
100
AcDbBlockBegin
  2
블럭10
 70
     2
 10
0.0
 20
0.0
 30
0.0
  3
블럭10
  1
블럭10
  0
ELLIPSE
  5
82
330
7F
100
AcDbEntity
  8
중심선
100
AcDbEllipse
 10
20.54032771741204
 20
12.0471743016438
 30
0.0
 11
6.600054785286829
 21
-1.261213355974178E-13
 31
0.0
210
0.0
220
0.0
230
1.0
 40
0.636358354079598
 41
0.9219305317359503
 42
6.513795318482858
  0
ELLIPSE
  5
83
330
7F
100
AcDbEntity
  8
중심선
100
AcDbEllipse
 10
20.54032771746488
 20
12.04717430159265
 30
0.0
 11
3.960054785062283
 21
1.540847449632565E-10
 31
0.0
210
0.0
220
0.0
230
1.0
 40
0.3939339440162632
 41
1.131841032648279
 42
5.62031148352944
  0
LINE
  5
84
330
7F
100
AcDbEntity
  8
중심선
100
AcDbLine
 10
2.268634060543552
 20
16.24717430164393
 30
0.0
 11
5.714909304380834
 21
16.24717430164393
 31
0.0
  0
LINE
  5
85
330
7F
100
AcDbEntity
  8
중심선
100
AcDbLine
 10
5.245725140726316
 20
7.84717430164391
 30
0.0
 11
8.692000384563599
 21
7.84717430164391
 31
0.0
  0
LINE
  5
86
330
7F
100
AcDbEntity
  8
중심선
100
AcDbLine
 10
15.74043728645272
 20
16.24717430164393
 30
0.0
 11
8.692000384563599
 21
7.84717430164391
 31
0.0
  0
LINE
  5
87
330
7F
100
AcDbEntity
  8
중심선
100
AcDbLine
 10
0.1404042013395286
 20
13.71084872107135
 30
0.0
 11
3.58671253028996
 21
13.71088815037384
 31
0.0
  0
LINE
  5
88
330
7F
100
AcDbEntity
  8
중심선
100
AcDbLine
 10
2.750260043222114
 20
10.84717430164391
 30
0.0
 11
6.196535287059397
 21
10.84717430164391
 31
0.0
  0
LINE
  5
89
330
7F
100
AcDbEntity
  8
중심선
100
AcDbLine
 10
12.29416204261559
 20
16.24717430164393
 30
0.0
 11
5.245725140726316
 21
7.84717430164391
 31
0.0
  0
LINE
  5
8A
330
7F
100
AcDbEntity
  8
중심선
100
AcDbLine
 10
10.72767329541681
 20
16.24717430164393
 30
0.0
 11
6.196535287059397
 21
10.84717430164391
 31
0.0
  0
LINE
  5
8B
330
7F
100
AcDbEntity
  8
중심선
100
AcDbLine
 10
7.28139805157953
 20
16.24717430164393
 30
0.0
 11
2.750260043222114
 21
10.84717430164391
 31
0.0
  0
LINE
  5
8C
330
7F
100
AcDbEntity
  8
중심선
100
AcDbLine
 10
5.714909304380834
 20
16.24717430164393
 30
0.0
 11
3.58671253028996
 21
13.71088815037384
 31
0.0
  0
LINE
  5
8D
330
7F
100
AcDbEntity
  8
중심선
100
AcDbLine
 10
2.268634060543552
 20
16.24717430164393
 30
0.0
 11
0.1404042013395286
 21
13.71084872107135
 31
0.0
  0
LINE
  5
8E
330
7F
100
AcDbEntity
  8
중심선
100
AcDbLine
 10
7.28139805157953
 20
16.24717430164393
 30
0.0
 11
10.72767329541681
 21
16.24717430164393
 31
0.0
  0
LINE
  5
8F
330
7F
100
AcDbEntity
  8
중심선
100
AcDbLine
 10
12.29416204261559
 20
16.24717430164393
 30
0.0
 11
15.74043728645272
 21
16.24717430164393
 31
0.0
  0
LINE
  5
90
330
7F
100
AcDbEntity
  8
중심선
100
AcDbLine
 10
19.22036997980202
 20
11.08717430171403
 30
0.0
 11
23.66174974927406
 21
11.08717430171406
 31
0.0
  0
LINE
  5
91
330
7F
100
AcDbEntity
  8
중심선
100
AcDbLine
 10
19.22039502424796
 20
13.00717430171391
 30
0.0
 11
19.22036997980202
 21
11.08717430171403
 31
0.0
  0
LINE
  5
92
330
7F
100
AcDbEntity
  8
중심선
100
AcDbLine
 10
19.22039502424796
 20
13.00717430171391
 30
0.0
 11
26.96566020931264
 21
13.00717430171391
 31
0.0
  0
LINE
  5
93
330
7F
100
AcDbEntity
  8
중심선
100
AcDbLine
 10
22.22332737316547
 20
13.45928029700563
 30
0.0
 11
24.52862924686651
 21
15.39360700705356
 31
0.0
  0
ATTDEF
  5
95
330
7F
100
AcDbEntity
  8
FORMAT
 62
     2
100
AcDbText
 10
4.408487351596664
 20
2.075366912832191
 30
0.0
 40
4.233333333333333
  1
E1111064
 41
0.75
  7
SLDTEXTSTYLE0
 11
4.408487351596664
 21
-0.0412997538344756
 31
0.0
100
AcDbAttributeDefinition
  3

  2
AUTOATTR0
 70
     0
 74
     1
  0
ENDBLK
  5
81
330
7F
100
AcDbEntity
  8
0
100
AcDbBlockEnd
  0
BLOCK
  5
C8
330
C7
100
AcDbEntity
  8
0
100
AcDbBlockBegin
  2
_D
 70
     0
 10
0.0
 20
0.0
 30
0.0
  3
_D
  1
_D
  0
LINE
  5
CA
330
C7
100
AcDbEntity
  8
치수문자_일반주서
 62
     0
370
    -2
100
AcDbLine
 10
75.5
 20
12.76250000000001
 30
0.0
 11
75.5
 21
20.93397788837641
 31
0.0
  0
LINE
  5
CB
330
C7
100
AcDbEntity
  8
치수문자_일반주서
 62
     0
370
    -2
100
AcDbLine
 10
12.0
 20
12.76249999999998
 30
0.0
 11
12.0
 21
20.93397788837641
 31
0.0
  0
LINE
  5
CC
330
C7
100
AcDbEntity
  8
치수문자_일반주서
 62
     0
370
    -2
100
AcDbLine
 10
72.19800000000001
 20
20.93397788837641
 30
0.0
 11
15.302
 21
20.93397788837641
 31
0.0
  0
SOLID
  5
CD
330
C7
100
AcDbEntity
  8
치수문자_일반주서
 62
     0
100
AcDbTrace
 10
72.19800000000001
 20
20.38364455504308
 30
0.0
 11
72.19800000000001
 21
21.48431122170975
 31
0.0
 12
75.5
 22
20.93397788837641
 32
0.0
 13
75.5
 23
20.93397788837641
 33
0.0
  0
SOLID
  5
CE
330
C7
100
AcDbEntity
  8
치수문자_일반주서
 62
     0
100
AcDbTrace
 10
15.302
 20
21.48431122170975
 30
0.0
 11
15.302
 21
20.38364455504308
 31
0.0
 12
12.0
 22
20.93397788837641
 32
0.0
 13
12.0
 23
20.93397788837641
 33
0.0
  0
MTEXT
  5
CF
330
C7
100
AcDbEntity
  8
치수문자_일반주서
 62
     0
100
AcDbMText
 10
43.47960627435694
 20
25.30897788837641
 30
0.0
 40
3.5
 41
0.0
 71
     2
 72
     1
  1
\A1;63.5 [2 1/2]
  7
SLDTEXTSTYLE0
 73
     1
 44
1.0
  0
POINT
  5
D0
330
C7
100
AcDbEntity
  8
Defpoints
 62
     0
100
AcDbPoint
 10
75.5
 20
12.70000000000001
 30
0.0
  0
POINT
  5
D1
330
C7
100
AcDbEntity
  8
Defpoints
 62
     0
100
AcDbPoint
 10
12.0
 20
12.69999999999998
 30
0.0
  0
POINT
  5
D2
330
C7
100
AcDbEntity
  8
Defpoints
 62
     0
100
AcDbPoint
 10
12.0
 20
20.93397788837641
 30
0.0
  0
ENDBLK
  5
C9
330
C7
100
AcDbEntity
  8
0
100
AcDbBlockEnd
  0
BLOCK
  5
DD
330
DC
100
AcDbEntity
  8
0
100
AcDbBlockBegin
  2
_D_1
 70
     0
 10
0.0
 20
0.0
 30
0.0
  3
_D_1
  1
_D_1
  0
LINE
  5
DF
330
DC
100
AcDbEntity
  8
치수문자_일반주서
 62
     0
370
    -2
100
AcDbLine
 10
75.5
 20
12.76250000000001
 30
0.0
 11
75.5
 21
29.9616338158923
 31
0.0
  0
LINE
  5
E0
330
DC
100
AcDbEntity
  8
치수문자_일반주서
 62
     0
370
    -2
100
AcDbLine
 10
-108.65
 20
10.85749999999998
 30
0.0
 11
-108.65
 21
29.9616338158923
 31
0.0
  0
LINE
  5
E1
330
DC
100
AcDbEntity
  8
치수문자_일반주서
 62
     0
370
    -2
100
AcDbLine
 10
72.19800000000001
 20
29.9616338158923
 30
0.0
 11
-105.348
 21
29.9616338158923
 31
0.0
  0
SOLID
  5
E2
330
DC
100
AcDbEntity
  8
치수문자_일반주서
 62
     0
100
AcDbTrace
 10
72.19800000000001
 20
29.41130048255897
 30
0.0
 11
72.19800000000001
 21
30.51196714922564
 31
0.0
 12
75.5
 22
29.9616338158923
 32
0.0
 13
75.5
 23
29.9616338158923
 33
0.0
  0
SOLID
  5
E3
330
DC
100
AcDbEntity
  8
치수문자_일반주서
 62
     0
100
AcDbTrace
 10
-105.348
 20
30.51196714922564
 30
0.0
 11
-105.348
 21
29.41130048255897
 31
0.0
 12
-108.65
 22
29.9616338158923
 32
0.0
 13
-108.65
 23
29.9616338158923
 33
0.0
  0
MTEXT
  5
E4
330
DC
100
AcDbEntity
  8
치수문자_일반주서
 62
     0
100
AcDbMText
 10
-16.575
 20
34.3366338158923
 30
0.0
 40
3.5
 41
0.0
 71
     2
 72
     1
  1
\A1;184.15 [7 1/4]
  7
SLDTEXTSTYLE0
 73
     1
 44
1.0
  0
POINT
  5
E5
330
DC
100
AcDbEntity
  8
Defpoints
 62
     0
100
AcDbPoint
 10
75.5
 20
12.70000000000001
 30
0.0
  0
POINT
  5
E6
330
DC
100
AcDbEntity
  8
Defpoints
 62
     0
100
AcDbPoint
 10
-108.65
 20
10.79499999999998
 30
0.0
  0
POINT
  5
E7
330
DC
100
AcDbEntity
  8
Defpoints
 62
     0
100
AcDbPoint
 10
-108.65
 20
29.9616338158923
 30
0.0
  0
ENDBLK
  5
DE
330
DC
100
AcDbEntity
  8
0
100
AcDbBlockEnd
  0
BLOCK
  5
F1
330
F0
100
AcDbEntity
  8
0
100
AcDbBlockBegin
  2
_D_2
 70
     0
 10
0.0
 20
0.0
 30
0.0
  3
_D_2
  1
_D_2
  0
LINE
  5
F3
330
F0
100
AcDbEntity
  8
치수문자_일반주서
 62
     0
370
    -2
100
AcDbLine
 10
-108.7125
 20
12.69999999999998
 30
0.0
 11
-121.1500000000001
 21
12.69999999999993
 31
0.0
  0
LINE
  5
F4
330
F0
100
AcDbEntity
  8
치수문자_일반주서
 62
     0
370
    -2
100
AcDbLine
 10
-107.7125
 20
-12.70000000000002
 30
0.0
 11
-121.15
 21
-12.70000000000007
 31
0.0
  0
LINE
  5
F5
330
F0
100
AcDbEntity
  8
치수문자_일반주서
 62
     0
370
    -2
100
AcDbLine
 10
-121.15
 20
9.397999999999932
 30
0.0
 11
-121.15
 21
-9.398000000000074
 31
0.0
  0
SOLID
  5
F6
330
F0
100
AcDbEntity
  8
치수문자_일반주서
 62
     0
100
AcDbTrace
 10
-120.5996666666667
 20
9.397999999999934
 30
0.0
 11
-121.7003333333334
 21
9.39799999999993
 31
0.0
 12
-121.1500000000001
 22
12.69999999999993
 32
0.0
 13
-121.1500000000001
 23
12.69999999999993
 33
0.0
  0
SOLID
  5
F7
330
F0
100
AcDbEntity
  8
치수문자_일반주서
 62
     0
100
AcDbTrace
 10
-121.7003333333333
 20
-9.398000000000076
 30
0.0
 11
-120.5996666666667
 21
-9.398000000000073
 31
0.0
 12
-121.15
 22
-12.70000000000007
 32
0.0
 13
-121.15
 23
-12.70000000000007
 33
0.0
  0
MTEXT
  5
F8
330
F0
100
AcDbEntity
  8
치수문자_일반주서
 62
     0
100
AcDbMText
 10
-125.525
 20
-0.0000000000000336
 30
0.0
 40
3.5
 41
0.0
 71
     2
 72
     1
  1
\A1;%%c25.4 [1]
  7
SLDTEXTSTYLE0
 11
-3.356894814614646E-15
 21
1.0
 31
0.0
 73
     1
 44
1.0
  0
POINT
  5
F9
330
F0
100
AcDbEntity
  8
Defpoints
 62
     0
100
AcDbPoint
 10
-108.65
 20
12.69999999999998
 30
0.0
  0
POINT
  5
FA
330
F0
100
AcDbEntity
  8
Defpoints
 62
     0
100
AcDbPoint
 10
-107.65
 20
-12.70000000000002
 30
0.0
  0
POINT
  5
FB
330
F0
100
AcDbEntity
  8
Defpoints
 62
     0
100
AcDbPoint
 10
-121.15
 20
-12.70000000000007
 30
0.0
  0
ENDBLK
  5
F2
330
F0
100
AcDbEntity
  8
0
100
AcDbBlockEnd
  0
BLOCK
  5
105
330
104
100
AcDbEntity
  8
0
100
AcDbBlockBegin
  2
_D_3
 70
     0
 10
0.0
 20
0.0
 30
0.0
  3
_D_3
  1
_D_3
  0
LINE
  5
107
330
104
100
AcDbEntity
  8
치수문자_일반주서
 62
     0
370
    -2
100
AcDbLine
 10
75.5625
 20
12.70000000000001
 30
0.0
 11
86.3672999510567
 21
12.70000000000004
 31
0.0
  0
LINE
  5
108
330
104
100
AcDbEntity
  8
치수문자_일반주서
 62
     0
370
    -2
100
AcDbLine
 10
75.5625
 20
-12.69999999999999
 30
0.0
 11
86.36729995105678
 21
-12.69999999999996
 31
0.0
  0
LINE
  5
109
330
104
100
AcDbEntity
  8
치수문자_일반주서
 62
     0
370
    -2
100
AcDbLine
 10
86.3672999510567
 20
12.70000000000004
 30
0.0
 11
86.36729995105661
 21
40.72808275900692
 31
0.0
  0
LINE
  5
10A
330
104
100
AcDbEntity
  8
치수문자_일반주서
 62
     0
370
    -2
100
AcDbLine
 10
86.36729995105671
 20
9.398000000000042
 30
0.0
 11
86.36729995105676
 21
-9.397999999999957
 31
0.0
  0
SOLID
  5
10B
330
104
100
AcDbEntity
  8
치수문자_일반주서
 62
     0
100
AcDbTrace
 10
86.91763328439004
 20
9.398000000000044
 30
0.0
 11
85.81696661772338
 21
9.39800000000004
 31
0.0
 12
86.3672999510567
 22
12.70000000000004
 32
0.0
 13
86.3672999510567
 23
12.70000000000004
 33
0.0
  0
SOLID
  5
10C
330
104
100
AcDbEntity
  8
치수문자_일반주서
 62
     0
100
AcDbTrace
 10
85.81696661772344
 20
-9.397999999999959
 30
0.0
 11
86.91763328439009
 21
-9.397999999999955
 31
0.0
 12
86.36729995105678
 22
-12.69999999999996
 32
0.0
 13
86.36729995105678
 23
-12.69999999999996
 33
0.0
  0
MTEXT
  5
10D
330
104
100
AcDbEntity
  8
치수문자_일반주서
 62
     0
100
AcDbMText
 10
81.99229995105664
 20
30.66558275900691
 30
0.0
 40
3.5
 41
0.0
 71
     2
 72
     1
  1
\A1;%%c25.4 [1]
  7
SLDTEXTSTYLE0
 11
-3.356894814614647E-15
 21
1.0
 31
0.0
 73
     1
 44
1.0
  0
POINT
  5
10E
330
104
100
AcDbEntity
  8
Defpoints
 62
     0
100
AcDbPoint
 10
75.5
 20
12.70000000000001
 30
0.0
  0
POINT
  5
10F
330
104
100
AcDbEntity
  8
Defpoints
 62
     0
100
AcDbPoint
 10
75.5
 20
-12.69999999999999
 30
0.0
  0
POINT
  5
110
330
104
100
AcDbEntity
  8
Defpoints
 62
     0
100
AcDbPoint
 10
86.36729995105678
 20
-12.69999999999995
 30
0.0
  0
ENDBLK
  5
106
330
104
100
AcDbEntity
  8
0
100
AcDbBlockEnd
  0
BLOCK
  5
11E
330
11D
100
AcDbEntity
  8
0
100
AcDbBlockBegin
  2
SW_DOWELSYMBOL_0
 70
     0
 10
0.0
 20
0.0
 30
0.0
  3
SW_DOWELSYMBOL_0
  1
SW_DOWELSYMBOL_0
  0
CIRCLE
  5
120
330
11D
100
AcDbEntity
  8
해칭선
 62
     0
100
AcDbCircle
 10
0.0
 20
0.0
 30
0.0
 40
3.000000000000003
  0
HATCH
  5
121
330
11D
100
AcDbEntity
  8
0
  6
Continuous
 62
     0
370
     0
100
AcDbHatch
 10
0.0
 20
0.0
 30
0.0
210
0.0
220
0.0
230
1.0
  2
SOLID
 70
     1
 71
     0
 91
        1
 92
        0
 93
        3
 72
     2
 10
0.0
 20
0.0
 40
3.000000000000003
 50
0.0
 51
90.0
 73
     1
 72
     1
 10
0.0
 20
3.000000000000003
 11
0.0
 21
0.0
 72
     1
 10
0.0
 20
0.0
 11
3.000000000000003
 21
0.0
 97
        0
 75
     0
 76
     1
 98
        1
 10
0.0
 20
0.0
  0
HATCH
  5
122
330
11D
100
AcDbEntity
  8
0
  6
Continuous
 62
     0
370
     0
100
AcDbHatch
 10
0.0
 20
0.0
 30
0.0
210
0.0
220
0.0
230
1.0
  2
SOLID
 70
     1
 71
     0
 91
        1
 92
        0
 93
        3
 72
     2
 10
0.0
 20
0.0
 40
3.000000000000003
 50
180.0
 51
270.0000000000008
 73
     1
 72
     1
 10
0.0
 20
-3.000000000000003
 11
0.0
 21
0.0
 72
     1
 10
0.0
 20
0.0
 11
-3.000000000000003
 21
0.0
 97
        0
 75
     0
 76
     1
 98
        1
 10
0.0
 20
0.0
  0
ENDBLK
  5
11F
330
11D
100
AcDbEntity
  8
0
100
AcDbBlockEnd
  0
BLOCK
  5
1DC
330
1DB
100
AcDbEntity
  8
0
100
AcDbBlockBegin
  2
*D8
 70
     1
 10
0.0
 20
0.0
 30
0.0
  3
*D8
  1
*D8
  0
LINE
  5
1DE
330
1DB
100
AcDbEntity
  8
치수문자_일반주서
 62
     0
370
    -2
100
AcDbLine
 10
153.4000000000001
 20
25.71649999999995
 30
0.0
 11
153.4000000000001
 21
35.8275980723647
 31
0.0
  0
LINE
  5
1DF
330
1DB
100
AcDbEntity
  8
치수문자_일반주서
 62
     0
370
    -2
100
AcDbLine
 10
112.1250000000001
 20
25.6878005702405
 30
0.0
 11
112.1250000000001
 21
35.8275980723647
 31
0.0
  0
LINE
  5
1E0
330
1DB
100
AcDbEntity
  8
치수문자_일반주서
 62
     0
370
    -2
100
AcDbLine
 10
150.0980000000001
 20
35.8275980723647
 30
0.0
 11
115.4270000000001
 21
35.8275980723647
 31
0.0
  0
SOLID
  5
1E1
330
1DB
100
AcDbEntity
  8
치수문자_일반주서
 62
     0
100
AcDbTrace
 10
150.0980000000001
 20
35.27726473903137
 30
0.0
 11
150.0980000000001
 21
36.37793140569804
 31
0.0
 12
153.4000000000001
 22
35.8275980723647
 32
0.0
 13
153.4000000000001
 23
35.8275980723647
 33
0.0
  0
SOLID
  5
1E2
330
1DB
100
AcDbEntity
  8
치수문자_일반주서
 62
     0
100
AcDbTrace
 10
115.4270000000001
 20
36.37793140569804
 30
0.0
 11
115.4270000000001
 21
35.27726473903137
 31
0.0
 12
112.1250000000001
 22
35.8275980723647
 32
0.0
 13
112.1250000000001
 23
35.8275980723647
 33
0.0
  0
MTEXT
  5
1E3
330
1DB
100
AcDbEntity
  8
치수문자_일반주서
 62
     0
100
AcDbMText
 10
114.8735698537279
 20
40.2025980723647
 30
0.0
 40
3.5
 41
0.0
 71
     2
 72
     1
  1
\A1;41.28 [1 5/8]
  7
SLDTEXTSTYLE0
 73
     1
 44
1.0
  0
POINT
  5
1E4
330
1DB
100
AcDbEntity
  8
Defpoints
 62
     0
100
AcDbPoint
 10
153.4000000000001
 20
25.65399999999995
 30
0.0
  0
POINT
  5
1E5
330
1DB
100
AcDbEntity
  8
Defpoints
 62
     0
100
AcDbPoint
 10
112.1250000000001
 20
25.6253005702405
 30
0.0
  0
POINT
  5
1E6
330
1DB
100
AcDbEntity
  8
Defpoints
 62
     0
100
AcDbPoint
 10
112.1250000000001
 20
35.8275980723647
 30
0.0
  0
ENDBLK
  5
1DD
330
1DB
100
AcDbEntity
  8
0
100
AcDbBlockEnd
  0
BLOCK
  5
1E8
330
1E7
100
AcDbEntity
  8
0
100
AcDbBlockBegin
  2
*D9
 70
     1
 10
0.0
 20
0.0
 30
0.0
  3
*D9
  1
*D9
  0
LINE
  5
1EA
330
1E7
100
AcDbEntity
  8
치수문자_일반주서
 62
     0
370
    -2
100
AcDbLine
 10
153.4000000000001
 20
25.71649999999995
 30
0.0
 11
153.4000000000001
 21
46.09063381589225
 31
0.0
  0
LINE
  5
1EB
330
1E7
100
AcDbEntity
  8
치수문자_일반주서
 62
     0
370
    -2
100
AcDbLine
 10
16.87500000000006
 20
24.71649999999991
 30
0.0
 11
16.87500000000006
 21
46.09063381589225
 31
0.0
  0
LINE
  5
1EC
330
1E7
100
AcDbEntity
  8
치수문자_일반주서
 62
     0
370
    -2
100
AcDbLine
 10
150.0980000000001
 20
46.09063381589225
 30
0.0
 11
20.17700000000006
 21
46.09063381589225
 31
0.0
  0
SOLID
  5
1ED
330
1E7
100
AcDbEntity
  8
치수문자_일반주서
 62
     0
100
AcDbTrace
 10
150.0980000000001
 20
45.54030048255892
 30
0.0
 11
150.0980000000001
 21
46.64096714922559
 31
0.0
 12
153.4000000000001
 22
46.09063381589225
 32
0.0
 13
153.4000000000001
 23
46.09063381589225
 33
0.0
  0
SOLID
  5
1EE
330
1E7
100
AcDbEntity
  8
치수문자_일반주서
 62
     0
100
AcDbTrace
 10
20.17700000000006
 20
46.64096714922559
 30
0.0
 11
20.17700000000006
 21
45.54030048255892
 31
0.0
 12
16.87500000000006
 22
46.09063381589225
 32
0.0
 13
16.87500000000006
 23
46.09063381589225
 33
0.0
  0
MTEXT
  5
1EF
330
1E7
100
AcDbEntity
  8
치수문자_일반주서
 62
     0
100
AcDbMText
 10
85.13750000000005
 20
50.46563381589225
 30
0.0
 40
3.5
 41
0.0
 71
     2
 72
     1
  1
\A1;136.53 [5 3/8]
  7
SLDTEXTSTYLE0
 73
     1
 44
1.0
  0
POINT
  5
1F0
330
1E7
100
AcDbEntity
  8
Defpoints
 62
     0
100
AcDbPoint
 10
153.4000000000001
 20
25.65399999999995
 30
0.0
  0
POINT
  5
1F1
330
1E7
100
AcDbEntity
  8
Defpoints
 62
     0
100
AcDbPoint
 10
16.87500000000006
 20
24.65399999999991
 30
0.0
  0
POINT
  5
1F2
330
1E7
100
AcDbEntity
  8
Defpoints
 62
     0
100
AcDbPoint
 10
16.87500000000006
 20
46.09063381589225
 30
0.0
  0
ENDBLK
  5
1E9
330
1E7
100
AcDbEntity
  8
0
100
AcDbBlockEnd
  0
BLOCK
  5
1F4
330
1F3
100
AcDbEntity
  8
0
100
AcDbBlockBegin
  2
*D10
 70
     1
 10
0.0
 20
0.0
 30
0.0
  3
*D10
  1
*D10
  0
LINE
  5
1F6
330
1F3
100
AcDbEntity
  8
치수문자_일반주서
 62
     0
370
    -2
100
AcDbLine
 10
17.81250000000006
 20
25.65399999999992
 30
0.0
 11
4.37500000000001
 21
25.65399999999987
 31
0.0
  0
LINE
  5
1F7
330
1F3
100
AcDbEntity
  8
치수문자_일반주서
 62
     0
370
    -2
100
AcDbLine
 10
17.81250000000006
 20
6.603999999999935
 30
0.0
 11
4.375000000000076
 21
6.603999999999886
 31
0.0
  0
LINE
  5
1F8
330
1F3
100
AcDbEntity
  8
치수문자_일반주서
 62
     0
370
    -2
100
AcDbLine
 10
4.375000000000021
 20
22.35199999999987
 30
0.0
 11
4.375000000000065
 21
9.905999999999885
 31
0.0
  0
SOLID
  5
1F9
330
1F3
100
AcDbEntity
  8
치수문자_일반주서
 62
     0
100
AcDbTrace
 10
4.925333333333355
 20
22.35199999999987
 30
0.0
 11
3.824666666666688
 21
22.35199999999987
 31
0.0
 12
4.37500000000001
 22
25.65399999999987
 32
0.0
 13
4.37500000000001
 23
25.65399999999987
 33
0.0
  0
SOLID
  5
1FA
330
1F3
100
AcDbEntity
  8
치수문자_일반주서
 62
     0
100
AcDbTrace
 10
3.824666666666732
 20
9.905999999999883
 30
0.0
 11
4.925333333333398
 21
9.905999999999887
 31
0.0
 12
4.375000000000076
 22
6.603999999999886
 32
0.0
 13
4.375000000000076
 23
6.603999999999886
 33
0.0
  0
MTEXT
  5
1FB
330
1F3
100
AcDbEntity
  8
치수문자_일반주서
 62
     0
100
AcDbMText
 10
0.0000000000000426
 20
16.1289999999999
 30
0.0
 40
3.5
 41
0.0
 71
     2
 72
     1
  1
\A1;%%c19.05 [3/4]
  7
SLDTEXTSTYLE0
 11
-3.496765431890260E-15
 21
1.0
 31
0.0
 73
     1
 44
1.0
  0
POINT
  5
1FC
330
1F3
100
AcDbEntity
  8
Defpoints
 62
     0
100
AcDbPoint
 10
17.87500000000006
 20
25.65399999999992
 30
0.0
  0
POINT
  5
1FD
330
1F3
100
AcDbEntity
  8
Defpoints
 62
     0
100
AcDbPoint
 10
17.87500000000006
 20
6.603999999999935
 30
0.0
  0
POINT
  5
1FE
330
1F3
100
AcDbEntity
  8
Defpoints
 62
     0
100
AcDbPoint
 10
4.375000000000085
 20
6.603999999999885
 30
0.0
  0
ENDBLK
  5
1F5
330
1F3
100
AcDbEntity
  8
0
100
AcDbBlockEnd
  0
BLOCK
  5
200
330
1FF
100
AcDbEntity
  8
0
100
AcDbBlockBegin
  2
*D11
 70
     1
 10
0.0
 20
0.0
 30
0.0
  3
*D11
  1
*D11
  0
LINE
  5
202
330
1FF
100
AcDbEntity
  8
치수문자_일반주서
 62
     0
370
    -2
100
AcDbLine
 10
153.4625000000001
 20
25.65399999999995
 30
0.0
 11
166.6163845975507
 21
25.654
 31
0.0
  0
LINE
  5
203
330
1FF
100
AcDbEntity
  8
치수문자_일반주서
 62
     0
370
    -2
100
AcDbLine
 10
153.4625000000001
 20
6.603999999999951
 30
0.0
 11
166.6163845975507
 21
6.603999999999999
 31
0.0
  0
LINE
  5
204
330
1FF
100
AcDbEntity
  8
치수문자_일반주서
 62
     0
370
    -2
100
AcDbLine
 10
166.6163845975507
 20
25.654
 30
0.0
 11
166.6163845975506
 21
59.82050000000002
 31
0.0
  0
LINE
  5
205
330
1FF
100
AcDbEntity
  8
치수문자_일반주서
 62
     0
370
    -2
100
AcDbLine
 10
166.6163845975507
 20
22.352
 30
0.0
 11
166.6163845975507
 21
9.905999999999999
 31
0.0
  0
SOLID
  5
206
330
1FF
100
AcDbEntity
  8
치수문자_일반주서
 62
     0
100
AcDbTrace
 10
167.166717930884
 20
22.352
 30
0.0
 11
166.0660512642174
 21
22.352
 31
0.0
 12
166.6163845975507
 22
25.654
 32
0.0
 13
166.6163845975507
 23
25.654
 33
0.0
  0
SOLID
  5
207
330
1FF
100
AcDbEntity
  8
치수문자_일반주서
 62
     0
100
AcDbTrace
 10
166.0660512642174
 20
9.905999999999997
 30
0.0
 11
167.1667179308841
 21
9.906
 31
0.0
 12
166.6163845975507
 22
6.603999999999999
 32
0.0
 13
166.6163845975507
 23
6.603999999999999
 33
0.0
  0
MTEXT
  5
208
330
1FF
100
AcDbEntity
  8
치수문자_일반주서
 62
     0
100
AcDbMText
 10
162.2413845975506
 20
46.03925
 30
0.0
 40
3.5
 41
0.0
 71
     2
 72
     1
  1
\A1;%%c19.05 [3/4]
  7
SLDTEXTSTYLE0
 11
-2.983906501879685E-15
 21
1.0
 31
0.0
 73
     1
 44
1.0
  0
POINT
  5
209
330
1FF
100
AcDbEntity
  8
Defpoints
 62
     0
100
AcDbPoint
 10
153.4000000000001
 20
25.65399999999995
 30
0.0
  0
POINT
  5
20A
330
1FF
100
AcDbEntity
  8
Defpoints
 62
     0
100
AcDbPoint
 10
153.4000000000001
 20
6.603999999999951
 30
0.0
  0
POINT
  5
20B
330
1FF
100
AcDbEntity
  8
Defpoints
 62
     0
100
AcDbPoint
 10
166.6163845975508
 20
6.604000000000001
 30
0.0
  0
ENDBLK
  5
201
330
1FF
100
AcDbEntity
  8
0
100
AcDbBlockEnd
  0
BLOCK
  5
23A
330
239
100
AcDbEntity
  8
0
100
AcDbBlockBegin
  2
*D12
 70
     1
 10
0.0
 20
0.0
 30
0.0
  3
*D12
  1
*D12
  0
LINE
  5
23C
330
239
100
AcDbEntity
  8
치수문자_일반주서
 62
     0
370
    -2
100
AcDbLine
 10
229.7166742995695
 20
-58.0521516187264
 30
0.0
 11
229.7166742995695
 21
-47.94105354636165
 31
0.0
  0
LINE
  5
23D
330
239
100
AcDbEntity
  8
치수문자_일반주서
 62
     0
370
    -2
100
AcDbLine
 10
188.4416742995695
 20
-58.08085104848585
 30
0.0
 11
188.4416742995695
 21
-47.94105354636165
 31
0.0
  0
LINE
  5
23E
330
239
100
AcDbEntity
  8
치수문자_일반주서
 62
     0
370
    -2
100
AcDbLine
 10
226.4146742995695
 20
-47.94105354636165
 30
0.0
 11
191.7436742995695
 21
-47.94105354636165
 31
0.0
  0
SOLID
  5
23F
330
239
100
AcDbEntity
  8
치수문자_일반주서
 62
     0
100
AcDbTrace
 10
226.4146742995695
 20
-48.49138687969499
 30
0.0
 11
226.4146742995695
 21
-47.39072021302832
 31
0.0
 12
229.7166742995695
 22
-47.94105354636165
 32
0.0
 13
229.7166742995695
 23
-47.94105354636165
 33
0.0
  0
SOLID
  5
240
330
239
100
AcDbEntity
  8
치수문자_일반주서
 62
     0
100
AcDbTrace
 10
191.7436742995695
 20
-47.39072021302832
 30
0.0
 11
191.7436742995695
 21
-48.49138687969499
 31
0.0
 12
188.4416742995695
 22
-47.94105354636165
 32
0.0
 13
188.4416742995695
 23
-47.94105354636165
 33
0.0
  0
MTEXT
  5
241
330
239
100
AcDbEntity
  8
치수문자_일반주서
 62
     0
100
AcDbMText
 10
191.1902441532973
 20
-43.56605354636165
 30
0.0
 40
3.5
 41
0.0
 71
     2
 72
     1
  1
\A1;41.28 [1 5/8]
  7
SLDTEXTSTYLE0
 73
     1
 44
1.0
  0
POINT
  5
242
330
239
100
AcDbEntity
  8
Defpoints
 62
     0
100
AcDbPoint
 10
229.7166742995695
 20
-58.1146516187264
 30
0.0
  0
POINT
  5
243
330
239
100
AcDbEntity
  8
Defpoints
 62
     0
100
AcDbPoint
 10
188.4416742995695
 20
-58.14335104848585
 30
0.0
  0
POINT
  5
244
330
239
100
AcDbEntity
  8
Defpoints
 62
     0
100
AcDbPoint
 10
188.4416742995695
 20
-47.94105354636165
 30
0.0
  0
ENDBLK
  5
23B
330
239
100
AcDbEntity
  8
0
100
AcDbBlockEnd
  0
BLOCK
  5
246
330
245
100
AcDbEntity
  8
0
100
AcDbBlockBegin
  2
*D13
 70
     1
 10
0.0
 20
0.0
 30
0.0
  3
*D13
  1
*D13
  0
LINE
  5
248
330
245
100
AcDbEntity
  8
치수문자_일반주서
 62
     0
370
    -2
100
AcDbLine
 10
229.7166742995695
 20
-58.0521516187264
 30
0.0
 11
229.7166742995695
 21
-37.6780178028341
 31
0.0
  0
LINE
  5
249
330
245
100
AcDbEntity
  8
치수문자_일반주서
 62
     0
370
    -2
100
AcDbLine
 10
93.19167429956948
 20
-59.05215161872644
 30
0.0
 11
93.19167429956948
 21
-37.6780178028341
 31
0.0
  0
LINE
  5
24A
330
245
100
AcDbEntity
  8
치수문자_일반주서
 62
     0
370
    -2
100
AcDbLine
 10
226.4146742995695
 20
-37.6780178028341
 30
0.0
 11
96.49367429956948
 21
-37.6780178028341
 31
0.0
  0
SOLID
  5
24B
330
245
100
AcDbEntity
  8
치수문자_일반주서
 62
     0
100
AcDbTrace
 10
226.4146742995695
 20
-38.22835113616743
 30
0.0
 11
226.4146742995695
 21
-37.12768446950076
 31
0.0
 12
229.7166742995695
 22
-37.6780178028341
 32
0.0
 13
229.7166742995695
 23
-37.6780178028341
 33
0.0
  0
SOLID
  5
24C
330
245
100
AcDbEntity
  8
치수문자_일반주서
 62
     0
100
AcDbTrace
 10
96.49367429956948
 20
-37.12768446950076
 30
0.0
 11
96.49367429956948
 21
-38.22835113616743
 31
0.0
 12
93.19167429956948
 22
-37.6780178028341
 32
0.0
 13
93.19167429956948
 23
-37.6780178028341
 33
0.0
  0
MTEXT
  5
24D
330
245
100
AcDbEntity
  8
치수문자_일반주서
 62
     0
100
AcDbMText
 10
161.4541742995695
 20
-33.3030178028341
 30
0.0
 40
3.5
 41
0.0
 71
     2
 72
     1
  1
\A1;136.53 [5 3/8]
  7
SLDTEXTSTYLE0
 73
     1
 44
1.0
  0
POINT
  5
24E
330
245
100
AcDbEntity
  8
Defpoints
 62
     0
100
AcDbPoint
 10
229.7166742995695
 20
-58.1146516187264
 30
0.0
  0
POINT
  5
24F
330
245
100
AcDbEntity
  8
Defpoints
 62
     0
100
AcDbPoint
 10
93.19167429956948
 20
-59.11465161872644
 30
0.0
  0
POINT
  5
250
330
245
100
AcDbEntity
  8
Defpoints
 62
     0
100
AcDbPoint
 10
93.19167429956948
 20
-37.6780178028341
 30
0.0
  0
ENDBLK
  5
247
330
245
100
AcDbEntity
  8
0
100
AcDbBlockEnd
  0
BLOCK
  5
252
330
251
100
AcDbEntity
  8
0
100
AcDbBlockBegin
  2
*D14
 70
     1
 10
0.0
 20
0.0
 30
0.0
  3
*D14
  1
*D14
  0
LINE
  5
254
330
251
100
AcDbEntity
  8
치수문자_일반주서
 62
     0
370
    -2
100
AcDbLine
 10
94.12917429956948
 20
-58.11465161872643
 30
0.0
 11
80.69167429956944
 21
-58.11465161872648
 31
0.0
  0
LINE
  5
255
330
251
100
AcDbEntity
  8
치수문자_일반주서
 62
     0
370
    -2
100
AcDbLine
 10
94.12917429956948
 20
-77.16465161872642
 30
0.0
 11
80.69167429956951
 21
-77.16465161872648
 31
0.0
  0
LINE
  5
256
330
251
100
AcDbEntity
  8
치수문자_일반주서
 62
     0
370
    -2
100
AcDbLine
 10
80.69167429956946
 20
-61.41665161872648
 30
0.0
 11
80.6916742995695
 21
-73.86265161872649
 31
0.0
  0
SOLID
  5
257
330
251
100
AcDbEntity
  8
치수문자_일반주서
 62
     0
100
AcDbTrace
 10
81.24200763290278
 20
-61.41665161872648
 30
0.0
 11
80.14134096623613
 21
-61.41665161872648
 31
0.0
 12
80.69167429956944
 22
-58.11465161872648
 32
0.0
 13
80.69167429956944
 23
-58.11465161872648
 33
0.0
  0
SOLID
  5
258
330
251
100
AcDbEntity
  8
치수문자_일반주서
 62
     0
100
AcDbTrace
 10
80.14134096623617
 20
-73.86265161872649
 30
0.0
 11
81.24200763290283
 21
-73.86265161872649
 31
0.0
 12
80.69167429956951
 22
-77.16465161872648
 32
0.0
 13
80.69167429956951
 23
-77.16465161872648
 33
0.0
  0
MTEXT
  5
259
330
251
100
AcDbEntity
  8
치수문자_일반주서
 62
     0
100
AcDbMText
 10
76.31667429956947
 20
-67.63965161872645
 30
0.0
 40
3.5
 41
0.0
 71
     2
 72
     1
  1
\A1;%%c19.05 [3/4]
  7
SLDTEXTSTYLE0
 11
-3.729883127349608E-15
 21
1.0
 31
0.0
 73
     1
 44
1.0
  0
POINT
  5
25A
330
251
100
AcDbEntity
  8
Defpoints
 62
     0
100
AcDbPoint
 10
94.19167429956948
 20
-58.11465161872643
 30
0.0
  0
POINT
  5
25B
330
251
100
AcDbEntity
  8
Defpoints
 62
     0
100
AcDbPoint
 10
94.19167429956948
 20
-77.16465161872642
 30
0.0
  0
POINT
  5
25C
330
251
100
AcDbEntity
  8
Defpoints
 62
     0
100
AcDbPoint
 10
80.6916742995695
 20
-77.16465161872648
 30
0.0
  0
ENDBLK
  5
253
330
251
100
AcDbEntity
  8
0
100
AcDbBlockEnd
  0
BLOCK
  5
25E
330
25D
100
AcDbEntity
  8
0
100
AcDbBlockBegin
  2
*D15
 70
     1
 10
0.0
 20
0.0
 30
0.0
  3
*D15
  1
*D15
  0
LINE
  5
260
330
25D
100
AcDbEntity
  8
치수문자_일반주서
 62
     0
370
    -2
100
AcDbLine
 10
229.7791742995695
 20
-58.1146516187264
 30
0.0
 11
242.9330588971201
 21
-58.11465161872635
 31
0.0
  0
LINE
  5
261
330
25D
100
AcDbEntity
  8
치수문자_일반주서
 62
     0
370
    -2
100
AcDbLine
 10
229.7791742995695
 20
-77.1646516187264
 30
0.0
 11
242.9330588971202
 21
-77.16465161872634
 31
0.0
  0
LINE
  5
262
330
25D
100
AcDbEntity
  8
치수문자_일반주서
 62
     0
370
    -2
100
AcDbLine
 10
242.9330588971201
 20
-58.11465161872635
 30
0.0
 11
242.93305889712
 21
-23.94815161872632
 31
0.0
  0
LINE
  5
263
330
25D
100
AcDbEntity
  8
치수문자_일반주서
 62
     0
370
    -2
100
AcDbLine
 10
242.9330588971201
 20
-61.41665161872635
 30
0.0
 11
242.9330588971202
 21
-73.86265161872635
 31
0.0
  0
SOLID
  5
264
330
25D
100
AcDbEntity
  8
치수문자_일반주서
 62
     0
100
AcDbTrace
 10
243.4833922304534
 20
-61.41665161872635
 30
0.0
 11
242.3827255637868
 21
-61.41665161872635
 31
0.0
 12
242.9330588971201
 22
-58.11465161872635
 32
0.0
 13
242.9330588971201
 23
-58.11465161872635
 33
0.0
  0
SOLID
  5
265
330
25D
100
AcDbEntity
  8
치수문자_일반주서
 62
     0
100
AcDbTrace
 10
242.3827255637868
 20
-73.86265161872635
 30
0.0
 11
243.4833922304535
 21
-73.86265161872635
 31
0.0
 12
242.9330588971202
 22
-77.16465161872634
 32
0.0
 13
242.9330588971202
 23
-77.16465161872634
 33
0.0
  0
MTEXT
  5
266
330
25D
100
AcDbEntity
  8
치수문자_일반주서
 62
     0
100
AcDbMText
 10
238.55805889712
 20
-37.72940161872635
 30
0.0
 40
3.5
 41
0.0
 71
     2
 72
     1
  1
\A1;%%c19.05 [3/4]
  7
SLDTEXTSTYLE0
 11
-2.983906501879685E-15
 21
1.0
 31
0.0
 73
     1
 44
1.0
  0
POINT
  5
267
330
25D
100
AcDbEntity
  8
Defpoints
 62
     0
100
AcDbPoint
 10
229.7166742995695
 20
-58.1146516187264
 30
0.0
  0
POINT
  5
268
330
25D
100
AcDbEntity
  8
Defpoints
 62
     0
100
AcDbPoint
 10
229.7166742995695
 20
-77.1646516187264
 30
0.0
  0
POINT
  5
269
330
25D
100
AcDbEntity
  8
Defpoints
 62
     0
100
AcDbPoint
 10
242.9330588971202
 20
-77.16465161872635
 30
0.0
  0
ENDBLK
  5
25F
330
25D
100
AcDbEntity
  8
0
100
AcDbBlockEnd
  0
ENDSEC
  0
SECTION
  2
ENTITIES
  0
LINE
  5
96
330
1F
100
AcDbEntity
  8
외형선
  6
Continuous
370
    15
100
AcDbLine
 10
12.0
 20
12.69999999999999
 30
0.0
 11
-71.219925
 21
12.69999999999998
 31
0.0
  0
LINE
  5
97
330
1F
100
AcDbEntity
  8
외형선
  6
Continuous
370
    15
100
AcDbLine
 10
-107.65
 20
-12.70000000000002
 30
0.0
 11
12.0
 21
-12.70000000000001
 31
0.0
  0
LINE
  5
99
330
1F
100
AcDbEntity
  8
외형선
  6
Continuous
370
    15
100
AcDbLine
 10
-108.65
 20
-11.70000000000002
 30
0.0
 11
-107.65
 21
-12.70000000000002
 31
0.0
  0
LINE
  5
9A
330
1F
100
AcDbEntity
  8
0
  6
Continuous
 62
     1
370
    15
100
AcDbLine
 10
60.25916609038106
 20
-12.70000000000001
 30
0.0
 11
62.80000000000001
 21
-12.70000000000001
 31
0.0
  0
LINE
  5
9B
330
1F
100
AcDbEntity
  8
0
  6
Continuous
 62
     1
370
    15
100
AcDbLine
 10
18.75786450581483
 20
12.69999999999999
 30
0.0
 11
12.0
 21
12.69999999999999
 31
0.0
  0
ARC
  5
9C
330
1F
100
AcDbEntity
  8
0
  6
Continuous
 62
     1
370
    15
100
AcDbCircle
 10
62.80000000000001
 20
-0.0000000000000079
 30
0.0
 40
12.7
100
AcDbArc
 50
270.0000000000008
 51
0.0
  0
ARC
  5
9D
330
1F
100
AcDbEntity
  8
0
  6
Continuous
 62
     1
370
    15
100
AcDbCircle
 10
62.80000000000001
 20
-0.0000000000000079
 30
0.0
 40
12.7
100
AcDbArc
 50
0.0
 51
90.0
  0
LINE
  5
9E
330
1F
100
AcDbEntity
  8
0
  6
Continuous
 62
     1
370
    15
100
AcDbLine
 10
12.0
 20
-12.70000000000001
 30
0.0
 11
18.75786450581481
 21
-12.70000000000001
 31
0.0
  0
LINE
  5
9F
330
1F
100
AcDbEntity
  8
0
  6
Continuous
 62
     1
370
    15
100
AcDbLine
 10
62.80000000000001
 20
12.69999999999999
 30
0.0
 11
60.25916609038109
 21
12.69999999999999
 31
0.0
  0
LINE
  5
A0
330
1F
100
AcDbEntity
  8
외형선
  6
Continuous
370
    15
100
AcDbLine
 10
12.0
 20
12.69999999999999
 30
0.0
 11
12.0
 21
7.411545581125463
 31
0.0
  0
SPLINE
  5
A1
330
1F
100
AcDbEntity
  8
외형선
  6
Continuous
370
    15
100
AcDbSpline
210
0.0
220
0.0
230
1.0
 70
     8
 71
     3
 72
    10
 73
     6
 74
     0
 42
0.000000001
 43
0.00000001
 40
0.0
 40
0.0
 40
0.0
 40
0.0
 40
0.5
 40
0.5
 40
1.0
 40
1.0
 40
1.0
 40
1.0
 10
12.0
 20
7.411545581125461
 30
0.0
 10
11.4906972191094
 20
7.650059674458872
 30
0.0
 10
10.98121498312349
 20
7.882647832506285
 30
0.0
 10
9.965560063348391
 20
8.334332309715947
 30
0.0
 10
9.458986255347385
 20
8.553503669950848
 30
0.0
 10
8.950093932918724
 20
8.765976802272451
 30
0.0
  0
SPLINE
  5
A2
330
1F
100
AcDbEntity
  8
외형선
  6
Continuous
370
    15
100
AcDbSpline
210
0.0
220
0.0
230
1.0
 70
     8
 71
     3
 72
    10
 73
     6
 74
     0
 42
0.000000001
 43
0.00000001
 40
0.0
 40
0.0
 40
0.0
 40
0.0
 40
0.5
 40
0.5
 40
1.0
 40
1.0
 40
1.0
 40
1.0
 10
12.0
 20
-12.10516703668949
 30
0.0
 10
11.49073313427772
 20
-12.01633596450318
 30
0.0
 10
10.98128683850877
 20
-11.91777216818612
 30
0.0
 10
9.965703074799473
 20
-11.70194481428865
 30
0.0
 10
9.45916543626919
 20
-11.58467515932868
 30
0.0
 10
8.950309250206661
 20
-11.45803697034031
 30
0.0
  0
LINE
  5
A3
330
1F
100
AcDbEntity
  8
외형선
  6
Continuous
370
    15
100
AcDbLine
 10
12.0
 20
-12.10516703668949
 30
0.0
 11
12.0
 21
-12.70000000000001
 31
0.0
  0
LINE
  5
A4
330
1F
100
AcDbEntity
  8
외형선
  6
Continuous
370
    15
100
AcDbLine
 10
-107.65
 20
10.79499999999998
 30
0.0
 11
-107.65
 21
-12.70000000000003
 31
0.0
  0
LINE
  5
A5
330
1F
100
AcDbEntity
  8
외형선
  6
Continuous
370
    15
100
AcDbLine
 10
8.950309250206661
 20
-11.45805361578016
 30
0.0
 11
8.950309250206654
 21
8.766461782590538
 31
0.0
  0
LINE
  5
A6
330
1F
100
AcDbEntity
  8
외형선
  6
Continuous
370
    15
100
AcDbLine
 10
-108.65
 20
10.79499999999998
 30
0.0
 11
-108.65
 21
-11.70000000000002
 31
0.0
  0
SPLINE
  5
A7
330
1F
100
AcDbEntity
  8
외형선
  6
Continuous
370
    15
100
AcDbSpline
210
0.0
220
0.0
230
1.0
 70
     8
 71
     3
 72
    10
 73
     6
 74
     0
 42
0.000000001
 43
0.00000001
 40
0.0
 40
0.0
 40
0.0
 40
0.0
 40
0.5000000000000001
 40
0.5000000000000001
 40
1.0
 40
1.0
 40
1.0
 40
1.0
 10
11.99999999999999
 20
-2.180168913292126
 30
0.0
 10
11.49073313427771
 20
-1.986623171423949
 30
0.0
 10
10.98128683850877
 20
-1.79130400011924
 30
0.0
 10
9.965703074799473
 20
-1.398534831061761
 30
0.0
 10
9.45916543626919
 20
-1.201036068064605
 30
0.0
 10
8.950309250206658
 20
-1.002432657112626
 30
0.0
  0
SPLINE
  5
A8
330
1F
100
AcDbEntity
  8
외형선
  6
Continuous
370
    15
100
AcDbSpline
210
0.0
220
0.0
230
1.0
 70
    24
 71
     3
 72
    18
 73
    14
 74
     0
 42
0.000000001
 43
0.00000001
 40
0.0
 40
0.0
 40
0.0
 40
0.0
 40
0.125
 40
0.125
 40
0.25
 40
0.25
 40
0.375
 40
0.375
 40
0.5
 40
0.5
 40
0.75
 40
0.75
 40
1.0
 40
1.0
 40
1.0
 40
1.0
 10
12.0
 20
7.411545581130492
 30
0.0
 10
12.0
 20
7.103624004203875
 30
0.0
 10
12.0
 20
6.756435724633478
 30
0.0
 10
12.0
 20
6.000412387781681
 30
0.0
 10
12.0
 20
5.591701990296443
 30
0.0
 10
12.0
 20
4.73643824293748
 30
0.0
 10
12.0
 20
4.290043590775396
 30
0.0
 10
12.0
 20
3.385588976334046
 30
0.0
 10
12.0
 20
2.927664204433648
 30
0.0
 10
12.0
 20
1.572282227680981
 30
0.0
 10
12.0
 20
0.6968181722394086
 30
0.0
 10
12.0
 20
-0.8780885180955599
 30
0.0
 10
12.0
 20
-1.578519151908734
 30
0.0
 10
12.0
 20
-2.18016891329213
 30
0.0
  0
SPLINE
  5
A9
330
1F
100
AcDbEntity
  8
외형선
  6
Continuous
370
    15
100
AcDbSpline
210
0.0
220
0.0
230
1.0
 70
    24
 71
     3
 72
    20
 73
    16
 74
     0
 42
0.000000001
 43
0.00000001
 40
0.0
 40
0.0
 40
0.0
 40
0.0
 40
0.25
 40
0.25
 40
0.375
 40
0.375
 40
0.5
 40
0.5
 40
0.625
 40
0.625
 40
0.75
 40
0.75
 40
0.875
 40
0.875
 40
1.0
 40
1.0
 40
1.0
 40
1.0
 10
12.00000000000002
 20
-2.180168913292133
 30
0.0
 10
12.00000000000002
 20
-2.48767268906898
 30
0.0
 10
12.00000000000002
 20
-2.920093908388413
 30
0.0
 10
12.00000000000002
 20
-3.808717908973981
 30
0.0
 10
12.00000000000002
 20
-4.144586884040148
 30
0.0
 10
12.00000000000002
 20
-4.89614973251056
 30
0.0
 10
12.00000000000002
 20
-5.311926367770546
 30
0.0
 10
12.00000000000002
 20
-6.214592281680261
 30
0.0
 10
12.00000000000002
 20
-6.701488615616901
 30
0.0
 10
12.00000000000002
 20
-7.726704098945433
 30
0.0
 10
12.00000000000002
 20
-8.26491851510839
 30
0.0
 10
12.00000000000002
 20
-9.363464857801727
 30
0.0
 10
12.00000000000002
 20
-9.923595289025386
 30
0.0
 10
12.00000000000002
 20
-11.03176769197945
 30
0.0
 10
12.00000000000002
 20
-11.57958427615981
 30
0.0
 10
12.00000000000002
 20
-12.10516703668267
 30
0.0
  0
SPLINE
  5
AA
330
1F
100
AcDbEntity
  8
0
  6
Continuous
 62
     1
370
    15
100
AcDbSpline
210
0.0
220
0.0
230
1.0
 70
     8
 71
     3
 72
    14
 73
    10
 74
     0
 42
0.000000001
 43
0.00000001
 40
0.0
 40
0.0
 40
0.0
 40
0.0
 40
0.1375592287381454
 40
0.2752031915838289
 40
0.4128531057297748
 40
0.550495628848105
 40
0.7003213897552287
 40
0.8501230951086796
 40
1.0
 40
1.0
 40
1.0
 40
1.0
 10
42.22375587006442
 20
-8.63395028252253
 30
0.0
 10
40.83793350302857
 20
-8.635795290760077
 30
0.0
 10
38.06543512632915
 20
-8.63948644372836
 30
0.0
 10
33.90612116446876
 20
-8.254633065627752
 30
0.0
 10
29.74594430364191
 20
-7.597427230768076
 30
0.0
 10
25.46311147454452
 20
-6.63637155299876
 30
0.0
 10
21.05772231393524
 20
-5.384667623701031
 30
0.0
 10
16.52931577911034
 20
-3.876240415358946
 30
0.0
 10
13.51002447393616
 20
-2.7456206509428
 30
0.0
 10
11.99999999999999
 20
-2.180168913292124
 30
0.0
  0
SPLINE
  5
AB
330
1F
100
AcDbEntity
  8
외형선
  6
Continuous
370
    15
100
AcDbSpline
210
0.0
220
0.0
230
1.0
 70
    24
 71
     3
 72
    18
 73
    14
 74
     0
 42
0.000000001
 43
0.00000001
 40
0.0
 40
0.0
 40
0.0
 40
0.0
 40
0.125
 40
0.125
 40
0.25
 40
0.25
 40
0.375
 40
0.375
 40
0.5
 40
0.5
 40
0.75
 40
0.75
 40
1.0
 40
1.0
 40
1.0
 40
1.0
 10
12.0
 20
7.411545581130492
 30
0.0
 10
12.0
 20
7.103624004203875
 30
0.0
 10
12.0
 20
6.756435724633478
 30
0.0
 10
12.0
 20
6.000412387781681
 30
0.0
 10
12.0
 20
5.591701990296443
 30
0.0
 10
12.0
 20
4.73643824293748
 30
0.0
 10
12.0
 20
4.290043590775396
 30
0.0
 10
12.0
 20
3.385588976334046
 30
0.0
 10
12.0
 20
2.927664204433648
 30
0.0
 10
12.0
 20
1.572282227680981
 30
0.0
 10
12.0
 20
0.6968181722394086
 30
0.0
 10
12.0
 20
-0.8780885180955599
 30
0.0
 10
12.0
 20
-1.578519151908734
 30
0.0
 10
12.0
 20
-2.18016891329213
 30
0.0
  0
SPLINE
  5
AC
330
1F
100
AcDbEntity
  8
0
  6
Continuous
 62
     1
370
    15
100
AcDbSpline
210
0.0
220
0.0
230
1.0
 70
     8
 71
     3
 72
    20
 73
    16
 74
     0
 42
0.000000001
 43
0.00000001
 40
0.0
 40
0.0
 40
0.0
 40
0.0
 40
0.0842211941868273
 40
0.168436751334348
 40
0.2526425096525024
 40
0.3368344706036033
 40
0.4210291205054096
 40
0.5052369635263751
 40
0.5894538519455742
 40
0.6666530898660085
 40
0.7438524994215628
 40
0.821052043798074
 40
0.898251686170938
 40
0.9754513897079621
 40
1.0
 40
1.0
 40
1.0
 40
1.0
 10
11.99999999999952
 20
7.411545581125688
 30
0.0
 10
13.35488642147422
 20
6.75198567432016
 30
0.0
 10
16.06456858002895
 20
5.432910005952539
 30
0.0
 10
20.12882666161449
 20
3.201785736358206
 30
0.0
 10
24.19253692341885
 20
0.879931535613495
 30
0.0
 10
28.2557161657139
 20
-1.476860854765721
 30
0.0
 10
32.31898686934834
 20
-3.782013364640969
 30
0.0
 10
36.38277714326865
 20
-5.95880179196525
 30
0.0
 10
40.33425976772983
 20
-7.877749000812527
 30
0.0
 10
44.17252324579437
 20
-9.498116565804962
 30
0.0
 10
47.89802815349016
 20
-10.79721124739243
 30
0.0
 10
51.62350933712132
 20
-11.79430378701816
 30
0.0
 10
55.3490046685347
 20
-12.42796544168103
 30
0.0
 10
58.22755671030403
 20
-12.71763677031321
 30
0.0
 10
59.86427771693707
 20
-12.67163260342495
 30
0.0
 10
60.25916609038107
 20
-12.66053327094218
 30
0.0
  0
SPLINE
  5
AD
330
1F
100
AcDbEntity
  8
0
  6
Continuous
 62
     1
370
    15
100
AcDbSpline
210
0.0
220
0.0
230
1.0
 70
     8
 71
     3
 72
    21
 73
    17
 74
     0
 42
0.000000001
 43
0.00000001
 40
0.0
 40
0.0
 40
0.0
 40
0.0
 40
0.0540494782710789
 40
0.1080989100920633
 40
0.1627881703601212
 40
0.2174774019619742
 40
0.3005587915488981
 40
0.3842189684343368
 40
0.4671426379289325
 40
0.550641702171879
 40
0.6335653599723224
 40
0.7170643469312084
 40
0.7999879938626449
 40
0.8834869072718592
 40
0.9502187253861528
 40
1.0
 40
1.0
 40
1.0
 40
1.0
 10
62.80000000000001
 20
-5.309731008042718
 30
0.0
 10
62.00648176253283
 20
-4.887825476106441
 30
0.0
 10
60.41944596954761
 20
-4.04401477481929
 30
0.0
 10
58.03012851408468
 20
-2.708288755731899
 30
0.0
 10
55.63109532427461
 20
-1.339909533165331
 30
0.0
 10
52.80664448492176
 20
0.2926068330121572
 30
0.0
 10
49.55531281172436
 20
2.168534184616727
 30
0.0
 10
45.89000734061447
 20
4.224104289440865
 30
0.0
 10
42.21843658678685
 20
6.16548211167119
 30
0.0
 10
38.55768840785953
 20
7.930715772796129
 30
0.0
 10
34.88851779856171
 20
9.480181171866148
 30
0.0
 10
31.22775698731853
 20
10.76318315320309
 30
0.0
 10
27.55860298231873
 20
11.75344256294083
 30
0.0
 10
24.13551951212572
 20
12.36343838398932
 30
0.0
 10
21.19920773209559
 20
12.66660723089437
 30
0.0
 10
19.48869609991328
 20
12.67470616912958
 30
0.0
 10
18.75786450581483
 20
12.67816651387648
 30
0.0
  0
SPLINE
  5
AE
330
1F
100
AcDbEntity
  8
0
  6
Continuous
 62
     1
370
    15
100
AcDbSpline
210
0.0
220
0.0
230
1.0
 70
     8
 71
     3
 72
    16
 73
    12
 74
     0
 42
0.000000001
 43
0.00000001
 40
0.0
 40
0.0
 40
0.0
 40
0.0
 40
0.1261555483419856
 40
0.2523650076107692
 40
0.3785990561857308
 40
0.4975733597777075
 40
0.6165301734861903
 40
0.7354580815206226
 40
0.8543884027989449
 40
0.973346858625586
 40
1.0
 40
1.0
 40
1.0
 40
1.0
 10
72.10012206035847
 20
1.331241570847726
 30
0.0
 10
70.62978248566935
 20
1.897457077645908
 30
0.0
 10
67.68847500586713
 20
3.03013005604794
 30
0.0
 10
63.27567052007821
 20
4.59293880993398
 30
0.0
 10
58.94643310881511
 20
5.948880663895647
 30
0.0
 10
54.70200054983546
 20
7.054113323188499
 30
0.0
 10
50.54270948845068
 20
7.884245010045165
 30
0.0
 10
46.38408851589516
 20
8.440087956181506
 30
0.0
 10
42.22542555041457
 20
8.669790843375644
 30
0.0
 10
39.14213009854873
 20
8.680835495161714
 30
0.0
 10
37.44497112834026
 20
8.521769114805197
 30
0.0
 10
37.13431855095411
 20
8.492653173458134
 30
0.0
  0
SPLINE
  5
AF
330
1F
100
AcDbEntity
  8
0
  6
Continuous
 62
     1
370
    15
100
AcDbSpline
210
0.0
220
0.0
230
1.0
 70
     8
 71
     3
 72
    38
 73
    34
 74
     0
 42
0.000000001
 43
0.00000001
 40
0.0
 40
0.0
 40
0.0
 40
0.0
 40
0.1249999999999981
 40
0.1249999999999981
 40
0.1874999999999971
 40
0.1874999999999971
 40
0.2499999999999961
 40
0.2499999999999961
 40
0.3749999999999942
 40
0.3749999999999942
 40
0.4374999999999931
 40
0.4374999999999931
 40
0.4687499999999931
 40
0.4687499999999931
 40
0.499999999999993
 40
0.499999999999993
 40
0.5624999999999937
 40
0.5624999999999937
 40
0.6249999999999944
 40
0.6249999999999944
 40
0.6874999999999951
 40
0.6874999999999951
 40
0.7187499999999957
 40
0.7187499999999957
 40
0.7499999999999961
 40
0.7499999999999961
 40
0.8124999999999971
 40
0.8124999999999971
 40
0.874999999999998
 40
0.874999999999998
 40
0.937499999999999
 40
0.937499999999999
 40
1.0
 40
1.0
 40
1.0
 40
1.0
 10
62.80000000000001
 20
-5.309731008042712
 30
0.0
 10
63.50548047883183
 20
-5.679312277052009
 30
0.0
 10
64.19942989171516
 20
-6.010852599255804
 30
0.0
 10
65.23756783607016
 20
-6.430455700346386
 30
0.0
 10
65.58332165612178
 20
-6.55699359624167
 30
0.0
 10
66.27702633629754
 20
-6.778168403061473
 30
0.0
 10
66.62654438538746
 20
-6.873016614587897
 30
0.0
 10
67.6607095680732
 20
-7.094052025625885
 30
0.0
 10
68.33610089883061
 20
-7.162382986337601
 30
0.0
 10
69.35235873733245
 20
-7.086917579283671
 30
0.0
 10
69.6849869883083
 20
-7.031918134901133
 30
0.0
 10
70.17487612501982
 20
-6.89672431865367
 30
0.0
 10
70.3367824705081
 20
-6.842817445033353
 30
0.0
 10
70.65819443298699
 20
-6.714962321781076
 30
0.0
 10
70.81835680725825
 20
-6.64057158031857
 30
0.0
 10
71.28549025838352
 20
-6.38823227885019
 30
0.0
 10
71.58210856129347
 20
-6.18104820333647
 30
0.0
 10
72.14378817782013
 20
-5.667254173390885
 30
0.0
 10
72.39631811678844
 20
-5.371596614885522
 30
0.0
 10
72.83658119159698
 20
-4.69393826086052
 30
0.0
 10
73.01344072123464
 20
-4.327764497880457
 30
0.0
 10
73.20966030325887
 20
-3.74713866438744
 30
0.0
 10
73.26274994419364
 20
-3.550034942210858
 30
0.0
 10
73.3435551872816
 20
-3.158373756510864
 30
0.0
 10
73.37176843261203
 20
-2.962349317570031
 30
0.0
 10
73.42180786269151
 20
-2.373298487997491
 30
0.0
 10
73.40813890958962
 20
-1.993914271789724
 30
0.0
 10
73.30675568774362
 20
-1.259420121252216
 30
0.0
 10
73.21771806009409
 20
-0.9017149169414546
 30
0.0
 10
72.98441004135226
 20
-0.223911409537733
 30
0.0
 10
72.83972601641209
 20
0.1000000165418369
 30
0.0
 10
72.50348731412456
 20
0.7287961903257966
 30
0.0
 10
72.31118192236967
 20
1.034406987497758
 30
0.0
 10
72.10012206021564
 20
1.331241570903308
 30
0.0
  0
SPLINE
  5
B0
330
1F
100
AcDbEntity
  8
0
  6
Continuous
 62
     1
370
    15
100
AcDbSpline
210
0.0
220
0.0
230
1.0
 70
     8
 71
     3
 72
    14
 73
    10
 74
     0
 42
0.000000001
 43
0.00000001
 40
0.0
 40
0.0
 40
0.0
 40
0.0
 40
0.25
 40
0.25
 40
0.5
 40
0.5
 40
0.75
 40
0.75
 40
1.0
 40
1.0
 40
1.0
 40
1.0
 10
72.10012206021554
 20
1.331241570903331
 30
0.0
 10
72.24621988132525
 20
1.419150631659073
 30
0.0
 10
72.37635432612667
 20
1.528199772717964
 30
0.0
 10
72.60460300557855
 20
1.789780259213695
 30
0.0
 10
72.70346477313963
 20
1.944798386022489
 30
0.0
 10
72.85936337027043
 20
2.284456852826639
 30
0.0
 10
72.91768549403702
 20
2.469538249506614
 30
0.0
 10
72.99747993448923
 20
2.867135131467841
 30
0.0
 10
73.01801078085889
 20
3.076371141862452
 30
0.0
 10
73.02155694983844
 20
3.289175456173597
 30
0.0
  0
ARC
  5
B1
330
1F
100
AcDbEntity
  8
0
  6
Continuous
 62
     1
370
    15
100
AcDbCircle
 10
69.42388734995055
 20
-2.207677449638792
 30
0.0
 40
6.569521932233514
100
AcDbArc
 50
23.84124834803084
 51
56.79540347456492
  0
ARC
  5
B2
330
1F
100
AcDbEntity
  8
0
  6
Continuous
 62
     1
370
    15
100
AcDbCircle
 10
64.04954361448945
 20
0.2148178846594072
 30
0.0
 40
11.38566413638573
100
AcDbArc
 50
1.172254252315977
 51
71.05386472679663
  0
SPLINE
  5
B3
330
1F
100
AcDbEntity
  8
0
  6
Continuous
 62
     1
370
    15
100
AcDbSpline
210
0.0
220
0.0
230
1.0
 70
     8
 71
     3
 72
    12
 73
     8
 74
     0
 42
0.000000001
 43
0.00000001
 40
0.0
 40
0.0
 40
0.0
 40
0.0
 40
0.2499999999999992
 40
0.2499999999999992
 40
0.4999999999999984
 40
0.4999999999999984
 40
1.0
 40
1.0
 40
1.0
 40
1.0
 10
67.74623094478449
 20
10.98365489747632
 30
0.0
 10
67.35332419883396
 20
11.2232495926771
 30
0.0
 10
66.95320949798366
 20
11.43752799818268
 30
0.0
 10
66.14633016331474
 20
11.8136629931522
 30
0.0
 10
65.73848071687588
 20
11.97617427803667
 30
0.0
 10
64.50090955706467
 20
12.38699851259737
 30
0.0
 10
63.65170968827299
 20
12.55883175073039
 30
0.0
 10
62.80000000000001
 20
12.6154232202385
 30
0.0
  0
SPLINE
  5
B4
330
1F
100
AcDbEntity
  8
0
  6
Continuous
 62
     1
370
    15
100
AcDbSpline
210
0.0
220
0.0
230
1.0
 70
     8
 71
     3
 72
    10
 73
     6
 74
     0
 42
0.000000001
 43
0.00000001
 40
0.0
 40
0.0
 40
0.0
 40
0.0
 40
0.5
 40
0.5
 40
1.0
 40
1.0
 40
1.0
 40
1.0
 10
65.16878049782788
 20
5.685156578345749
 30
0.0
 10
66.4596650884768
 20
5.326385136162804
 30
0.0
 10
67.76152400442757
 20
4.945134392894056
 30
0.0
 10
70.38430954812773
 20
4.143575486173278
 30
0.0
 10
71.70219125810266
 20
3.724165701976359
 30
0.0
 10
73.02155694983848
 20
3.289175456173679
 30
0.0
  0
SPLINE
  5
B5
330
1F
100
AcDbEntity
  8
0
  6
Continuous
 62
     1
370
    15
100
AcDbSpline
210
0.0
220
0.0
230
1.0
 70
     8
 71
     3
 72
    13
 73
     9
 74
     0
 42
0.000000001
 43
0.00000001
 40
0.0
 40
0.0
 40
0.0
 40
0.0
 40
0.0947104907533791
 40
0.2757679329532395
 40
0.4568256913516001
 40
0.6378836795829232
 40
0.8189418112638727
 40
1.0
 40
1.0
 40
1.0
 40
1.0
 10
42.22375587006442
 20
8.633950282522523
 30
0.0
 10
42.87335065838168
 20
8.913604342779017
 30
0.0
 10
44.76477166788644
 20
9.727871289613123
 30
0.0
 10
47.89802295590911
 20
10.79024570737034
 30
0.0
 10
51.62351073423007
 20
11.79321500332542
 30
0.0
 10
55.34900427769105
 20
12.43928615025344
 30
0.0
 10
59.07450134693627
 20
12.75867147712157
 30
0.0
 10
61.55816698520302
 20
12.66317264421514
 30
0.0
 10
62.8
 20
12.61542322023851
 30
0.0
  0
SPLINE
  5
B6
330
1F
100
AcDbEntity
  8
0
  6
Continuous
 62
     1
370
    15
100
AcDbSpline
210
0.0
220
0.0
230
1.0
 70
     8
 71
     3
 72
    20
 73
    16
 74
     0
 42
0.000000001
 43
0.00000001
 40
0.0
 40
0.0
 40
0.0
 40
0.0
 40
0.2499999999999997
 40
0.2499999999999997
 40
0.3749999999999995
 40
0.3749999999999995
 40
0.4999999999999993
 40
0.4999999999999993
 40
0.6249999999999994
 40
0.6249999999999994
 40
0.7499999999999997
 40
0.7499999999999997
 40
0.8749999999999998
 40
0.8749999999999998
 40
1.0
 40
1.0
 40
1.0
 40
1.0
 10
67.74623094478454
 20
10.98365489747634
 30
0.0
 10
67.8363265136553
 20
10.45051589719197
 30
0.0
 10
67.87682232005889
 20
9.908061737068046
 30
0.0
 10
67.81775367528896
 20
9.083532602294841
 30
0.0
 10
67.77810399865719
 20
8.813273910191056
 30
0.0
 10
67.65191265241477
 20
8.28352646875326
 30
0.0
 10
67.56377756938643
 20
8.021006917558804
 30
0.0
 10
67.33977848460334
 20
7.528235453571176
 30
0.0
 10
67.20455482911946
 20
7.297394701457634
 30
0.0
 10
66.886889326996
 20
6.867318530384914
 30
0.0
 10
66.70326761806255
 20
6.668043805530244
 30
0.0
 10
66.30833720160948
 20
6.317648351931773
 30
0.0
 10
66.09463092021885
 20
6.163287245386568
 30
0.0
 10
65.64223681877264
 20
5.893362849085044
 30
0.0
 10
65.40850359601649
 20
5.780483718287545
 30
0.0
 10
65.16878049782792
 20
5.685156578345763
 30
0.0
  0
SPLINE
  5
B7
330
1F
100
AcDbEntity
  8
0
  6
Continuous
 62
     1
370
    15
100
AcDbSpline
210
0.0
220
0.0
230
1.0
 70
     8
 71
     3
 72
    15
 73
    11
 74
     0
 42
0.000000001
 43
0.00000001
 40
0.0
 40
0.0
 40
0.0
 40
0.0
 40
0.0890127461119583
 40
0.2353260584763585
 40
0.3806312160329241
 40
0.5269443995179637
 40
0.6438769959961531
 40
0.7613332772961334
 40
0.8803899452186625
 40
1.0
 40
1.0
 40
1.0
 40
1.0
 10
37.13431855095411
 20
-8.492653173458146
 30
0.0
 10
36.38853256527641
 20
-8.814504648456873
 30
0.0
 10
34.41687250374208
 20
-9.66539446294466
 30
0.0
 10
31.22775645690117
 20
-10.75727641037019
 30
0.0
 10
27.55860464696104
 20
-11.75347356232585
 30
0.0
 10
24.13551385973535
 20
-12.36891096231897
 30
0.0
 10
20.94599125886715
 20
-12.67584476666588
 30
0.0
 10
17.9846835848073
 20
-12.72815724720567
 30
0.0
 10
15.00134397554523
 20
-12.56414207938244
 30
0.0
 10
13.0019932630086
 20
-12.25839502535542
 30
0.0
 10
12.0
 20
-12.10516703668949
 30
0.0
  0
SPLINE
  5
B8
330
1F
100
AcDbEntity
  8
외형선
  6
Continuous
370
    15
100
AcDbSpline
210
0.0
220
0.0
230
1.0
 70
    24
 71
     3
 72
    20
 73
    16
 74
     0
 42
0.000000001
 43
0.00000001
 40
0.0
 40
0.0
 40
0.0
 40
0.0
 40
0.25
 40
0.25
 40
0.375
 40
0.375
 40
0.5
 40
0.5
 40
0.625
 40
0.625
 40
0.75
 40
0.75
 40
0.875
 40
0.875
 40
1.0
 40
1.0
 40
1.0
 40
1.0
 10
12.0
 20
-2.180168913292127
 30
0.0
 10
12.0
 20
-2.487672689068974
 30
0.0
 10
12.0
 20
-2.920093908388409
 30
0.0
 10
12.0
 20
-3.808717908973979
 30
0.0
 10
12.0
 20
-4.144586884040148
 30
0.0
 10
12.0
 20
-4.896149732510562
 30
0.0
 10
12.0
 20
-5.31192636777055
 30
0.0
 10
12.0
 20
-6.214592281680263
 30
0.0
 10
12.0
 20
-6.701488615616899
 30
0.0
 10
12.0
 20
-7.726704098945429
 30
0.0
 10
12.0
 20
-8.264918515108388
 30
0.0
 10
12.0
 20
-9.363464857801722
 30
0.0
 10
12.0
 20
-9.92359528902539
 30
0.0
 10
12.0
 20
-11.03176769197945
 30
0.0
 10
12.0
 20
-11.57958427615981
 30
0.0
 10
12.0
 20
-12.10516703668267
 30
0.0
  0
LINE
  5
B9
330
1F
100
AcDbEntity
  8
중심선
100
AcDbLine
 10
-111.65
 20
-0.0000000000000148
 30
0.0
 11
78.5
 21
0.0000000000000085
 31
0.0
  0
LINE
  5
BB
330
1F
100
AcDbEntity
  8
참조1
100
AcDbLine
 10
-13.72573868596884
 20
0.0010749287238892
 30
0.0
 11
-13.72573868596883
 21
-39.99892507127611
 31
0.0
  0
LINE
  5
BC
330
1F
100
AcDbEntity
  8
참조1
100
AcDbLine
 10
-13.72573868596883
 20
-39.99892507127611
 30
0.0
 11
-20.94709550027751
 21
-39.9989250712761
 31
0.0
  0
CIRCLE
  5
BD
330
1F
100
AcDbEntity
  8
해칭선
100
AcDbCircle
 10
0.0
 20
0.0
 30
0.0
 40
3.000000000000003
  0
INSERT
  5
BE
330
1F
100
AcDbEntity
  8
0
  6
Continuous
 62
     7
100
AcDbBlockReference
 66
     1
  2
블럭10
 10
-30.51527293212521
 20
-52.04717430164394
 30
0.0
  0
ATTRIB
  5
BF
330
BE
100
AcDbEntity
  8
FORMAT
 62
     2
100
AcDbText
 10
-39.6965682208665
 20
-49.97180738881175
 30
0.0
 40
4.233333333333333
  1
E1111064 [ 2 FLUTE ]
 41
0.75
  7
SLDTEXTSTYLE0
 11
-39.6965682208665
 21
-52.08847405547842
 31
0.0
100
AcDbAttribute
  2
AUTOATTR0
 70
     0
 74
     1
  0
SEQEND
  5
C0
330
BE
100
AcDbEntity
  8
0
  6
Continuous
 62
     7
  0
HATCH
  5
C1
330
1F
100
AcDbEntity
  8
중심선
100
AcDbHatch
 10
0.0
 20
0.0
 30
0.0
210
0.0
220
0.0
230
1.0
  2
SOLID
 70
     1
 71
     0
 91
        1
 92
        0
 93
        4
 72
     1
 10
-24.80036362774436
 20
-35.8
 11
-28.24663887158164
 21
-35.8
 72
     1
 10
-28.24663887158164
 20
-35.8
 11
-30.37486873078566
 21
-38.33632558057261
 72
     1
 10
-30.37486873078566
 20
-38.33632558057261
 11
-26.92856040183523
 21
-38.33628615127012
 72
     1
 10
-26.92856040183523
 20
-38.33628615127012
 11
-24.80036362774436
 21
-35.8
 97
        0
 75
     0
 76
     1
 98
        1
 10
-2.849261314031164
 20
-0.0010749287239045
  0
HATCH
  5
C2
330
1F
100
AcDbEntity
  8
중심선
100
AcDbHatch
 10
0.0
 20
0.0
 30
0.0
210
0.0
220
0.0
230
1.0
  2
SOLID
 70
     1
 71
     0
 91
        1
 92
        0
 93
        4
 72
     1
 10
-19.78759963670841
 20
-35.80000000000003
 11
-23.23387488054566
 21
-35.8
 72
     1
 10
-23.23387488054566
 20
-35.8
 11
-27.76501288890308
 21
-41.20000000000002
 72
     1
 10
-27.76501288890308
 20
-41.20000000000002
 11
-24.3187376450658
 21
-41.20000000000002
 72
     1
 10
-24.3187376450658
 20
-41.20000000000002
 11
-19.78759963670841
 21
-35.80000000000003
 97
        0
 75
     0
 76
     1
 98
        1
 10
-2.849261314031164
 20
-0.0010749287239045
  0
HATCH
  5
C3
330
1F
100
AcDbEntity
  8
중심선
100
AcDbHatch
 10
0.0
 20
0.0
 30
0.0
210
0.0
220
0.0
230
1.0
  2
SOLID
 70
     1
 71
     0
 91
        1
 92
        0
 93
        4
 72
     1
 10
-14.77483564567254
 20
-35.80000000000003
 11
-18.2211108895096
 21
-35.79999999999998
 72
     1
 10
-18.2211108895096
 20
-35.79999999999998
 11
-25.26954779139887
 21
-44.20000000000002
 72
     1
 10
-25.26954779139887
 20
-44.20000000000002
 11
-21.82327254756159
 21
-44.20000000000002
 72
     1
 10
-21.82327254756159
 20
-44.20000000000002
 11
-14.77483564567254
 21
-35.80000000000003
 97
        0
 75
     0
 76
     1
 98
        1
 10
-2.849261314031164
 20
-0.0010749287239045
  0
HATCH
  5
C4
330
1F
100
AcDbEntity
  8
중심선
100
AcDbHatch
 10
0.0
 20
0.0
 30
0.0
210
0.0
220
0.0
230
1.0
  2
SOLID
 70
     1
 71
     0
 91
        1
 92
        0
 93
        6
 72
     3
 10
-9.974945214660313
 20
-40.00000000005128
 11
3.960054785062283
 21
1.540882976769353E-10
 40
0.3939339440162628
 50
17.0953918060844
 51
320.0019657685083
 73
     0
 72
     1
 10
-8.291945558959744
 20
-38.58789400463834
 11
-5.986643685258679
 21
-36.65356729459042
 72
     3
 10
-9.97494521471316
 20
-40.00000000000016
 11
6.600054785286829
 21
-1.278976924368180E-13
 40
0.636358354079598
 50
39.99873849337384
 51
368.4976242363725
 73
     1
 72
     1
 10
-3.54961272281255
 20
-39.03999999993003
 11
-11.29487790787724
 21
-39.03999999993003
 72
     1
 10
-11.29487790787724
 20
-39.03999999993003
 11
-11.29490295232317
 21
-40.95999999992992
 72
     1
 10
-11.29490295232317
 20
-40.95999999992992
 11
-6.853523182851133
 21
-40.95999999992989
 97
        0
 75
     0
 76
     1
 98
        1
 10
-2.849261314031164
 20
-0.0010749287239045
  0
DIMENSION
  5
C5
330
1F
100
AcDbEntity
  8
치수문자_일반주서
100
AcDbDimension
  2
_D
 10
12.0
 20
20.93397788837641
 30
0.0
 11
43.47960627435694
 21
20.93397788837641
 31
0.0
 70
   160
  1
<>
 71
     2
 42
63.5
  3
SLDDIMSTYLE1
100
AcDbAlignedDimension
 13
75.5
 23
12.70000000000001
 33
0.0
 14
12.0
 24
12.69999999999998
 34
0.0
 50
0.0000000000000032
100
AcDbRotatedDimension
1001
ACAD
1000
DSTYLE
1002
{
1070
   171
1070
     6
1070
   273
1070
     7
1002
}
  0
DIMENSION
  5
DA
330
1F
100
AcDbEntity
  8
치수문자_일반주서
100
AcDbDimension
  2
_D_1
 10
-108.65
 20
29.9616338158923
 30
0.0
 11
-16.575
 21
29.9616338158923
 31
0.0
 70
   160
  1
<>
 71
     2
 42
184.15
  3
SLDDIMSTYLE1
100
AcDbAlignedDimension
 13
75.5
 23
12.70000000000001
 33
0.0
 14
-108.65
 24
10.79499999999998
 34
0.0
 50
0.0000000000000044
100
AcDbRotatedDimension
1001
ACAD
1000
DSTYLE
1002
{
1070
   171
1070
     6
1070
   273
1070
     7
1002
}
  0
DIMENSION
  5
EE
330
1F
100
AcDbEntity
  8
치수문자_일반주서
100
AcDbDimension
  2
_D_2
 10
-121.15
 20
-12.70000000000007
 30
0.0
 11
-121.15
 21
-0.0000000000000191
 31
0.0
 70
   160
  1
%%c<>
 71
     2
 42
25.40000000000001
 52
-270.0
  3
SLDDIMSTYLE1
100
AcDbAlignedDimension
 13
-108.65
 23
12.69999999999998
 33
0.0
 14
-107.65
 24
-12.70000000000002
 34
0.0
 50
90.0000000000002
100
AcDbRotatedDimension
1001
ACAD
1000
DSTYLE
1002
{
1070
   171
1070
     6
1070
   273
1070
     7
1002
}
  0
DIMENSION
  5
103
330
1F
100
AcDbEntity
  8
치수문자_일반주서
100
AcDbDimension
  2
_D_3
 10
86.36729995105678
 20
-12.69999999999996
 30
0.0
 11
86.36729995105664
 21
30.66558275900693
 31
0.0
 70
   160
  1
%%c<>
 71
     2
 42
25.4
 52
-270.0
  3
SLDDIMSTYLE1
100
AcDbAlignedDimension
 13
75.5
 23
12.70000000000001
 33
0.0
 14
75.5
 24
-12.69999999999999
 34
0.0
 50
90.0000000000002
100
AcDbRotatedDimension
1001
ACAD
1000
DSTYLE
1002
{
1070
   171
1070
     6
1070
   273
1070
     7
1002
}
  0
LINE
  5
116
330
1F
100
AcDbEntity
  8
참조1
100
AcDbLine
 10
77.02524512937676
 20
7.441074928723896
 30
0.0
 11
77.02524512937676
 21
-7.438925071276109
 31
0.0
  0
LINE
  5
117
330
1F
100
AcDbEntity
  8
참조1
100
AcDbLine
 10
89.72524512937676
 20
5.441074928723896
 30
0.0
 11
77.02524512937676
 21
5.441074928723896
 31
0.0
  0
SOLID
  5
118
330
1F
100
AcDbEntity
  8
참조1
100
AcDbTrace
 10
77.02524512937676
 20
5.441074928723896
 30
0.0
 11
83.37524512937675
 21
4.425074928723896
 31
0.0
 12
83.37524512937675
 22
6.457074928723896
 32
0.0
 13
83.37524512937675
 23
6.457074928723896
 33
0.0
  0
LINE
  5
119
330
1F
100
AcDbEntity
  8
참조1
100
AcDbLine
 10
89.72524512937676
 20
-5.438925071276109
 30
0.0
 11
77.02524512937676
 21
-5.438925071276109
 31
0.0
  0
SOLID
  5
11A
330
1F
100
AcDbEntity
  8
참조1
100
AcDbTrace
 10
77.02524512937676
 20
-5.438925071276109
 30
0.0
 11
83.37524512937675
 21
-6.454925071276109
 31
0.0
 12
83.37524512937675
 22
-4.422925071276109
 32
0.0
 13
83.37524512937675
 23
-4.422925071276109
 33
0.0
  0
MTEXT
  5
11B
330
1F
100
AcDbEntity
  8
참조1
100
AcDbMText
 10
86.62535993993933
 20
11.06679249473997
 30
0.0
 40
3.5
 41
0.0
 71
     1
 72
     1
  1
A
  7
SLDTEXTSTYLE0
 73
     1
 44
1.0
  0
MTEXT
  5
11C
330
1F
100
AcDbEntity
  8
참조1
100
AcDbMText
 10
86.62535993993933
 20
0.1867924947399633
 30
0.0
 40
3.5
 41
0.0
 71
     1
 72
     1
  1
A
  7
SLDTEXTSTYLE0
 73
     1
 44
1.0
  0
INSERT
  5
123
330
1F
100
AcDbEntity
  8
해칭선
100
AcDbBlockReference
  2
SW_DOWELSYMBOL_0
 10
0.0
 20
0.0
 30
0.0
  0
LINE
  5
2A3
330
1F
100
AcDbEntity
  8
외형선
  6
Continuous
370
    15
100
AcDbLine
 10
-86.23132499999991
 20
10.79499999999998
 30
0.0
 11
-73.12492500000002
 21
10.79499999999998
 31
0.0
  0
LINE
  5
2A4
330
1F
100
AcDbEntity
  8
외형선
  6
Continuous
370
    15
100
AcDbLine
 10
-86.23132499999991
 20
10.79499999999999
 30
0.0
 11
-88.13632499999989
 21
12.69999999999998
 31
0.0
  0
LINE
  5
2A5
330
1F
100
AcDbEntity
  8
외형선
  6
Continuous
370
    15
100
AcDbLine
 10
-73.12492500000002
 20
10.79499999999999
 30
0.0
 11
-71.21992499999999
 21
12.69999999999998
 31
0.0
  0
LINE
  5
2A7
330
1F
100
AcDbEntity
  8
외형선
  6
Continuous
370
    15
100
AcDbLine
 10
-108.65
 20
10.79499999999998
 30
0.0
 11
-95.94999999999999
 21
10.79499999999998
 31
0.0
  0
LINE
  5
2A8
330
1F
100
AcDbEntity
  8
외형선
  6
Continuous
370
    15
100
AcDbLine
 10
-95.94999999999999
 20
10.79499999999999
 30
0.0
 11
-94.04500000000002
 21
12.69999999999997
 31
0.0
  0
LINE
  5
2A9
330
1F
100
AcDbEntity
  8
외형선
  6
Continuous
370
    15
100
AcDbLine
 10
-88.13632499999986
 20
12.69999999999998
 30
0.0
 11
-94.045
 21
12.69999999999998
 31
0.0
  0
ENDSEC
  0
SECTION
  2
OBJECTS
  0
DICTIONARY
  5
C
330
0
100
AcDbDictionary
281
     1
  3
ACAD_GROUP
350
D
  3
ACAD_IMAGE_VARS
350
147
  3
ACAD_LAYOUT
350
1A
  3
ACAD_MLINESTYLE
350
17
  3
ACAD_PLOTSETTINGS
350
19
  3
ACAD_PLOTSTYLENAME
350
E
  3
ACAD_SCALELIST
350
47
  3
APPDATA
350
145
  3
DWGPROPS
350
2AA
  0
DICTIONARY
  5
1D7
330
2
100
AcDbDictionary
280
     1
281
     1
  3
ACAD_LAYERSTATES
360
1D8
  0
DICTIONARY
  5
D
102
{ACAD_REACTORS
330
C
102
}
330
C
100
AcDbDictionary
281
     1
  0
RASTERVARIABLES
  5
147
102
{ACAD_REACTORS
330
C
102
}
330
C
100
AcDbRasterVariables
 90
        0
 70
     1
 71
     1
 72
     1
  0
DICTIONARY
  5
1A
102
{ACAD_REACTORS
330
C
102
}
330
C
100
AcDbDictionary
281
     1
  3
Layout1
350
1E
  3
Layout2
350
26
  3
Model
350
22
  0
DICTIONARY
  5
17
102
{ACAD_REACTORS
330
C
102
}
330
C
100
AcDbDictionary
281
     1
  3
Standard
350
18
  0
DICTIONARY
  5
19
102
{ACAD_REACTORS
330
C
102
}
330
C
100
AcDbDictionary
281
     1
  0
ACDBDICTIONARYWDFLT
  5
E
102
{ACAD_REACTORS
330
C
102
}
330
C
100
AcDbDictionary
281
     1
  3
Normal
350
F
100
AcDbDictionaryWithDefault
340
F
  0
DICTIONARY
  5
47
102
{ACAD_REACTORS
330
C
102
}
330
C
100
AcDbDictionary
281
     1
  3
A0
350
48
  3
A1
350
49
  3
A2
350
4A
  3
A3
350
4B
  3
A4
350
4C
  3
A5
350
4D
  3
A6
350
4E
  3
A7
350
4F
  3
A8
350
50
  3
A9
350
51
  3
B0
350
52
  3
B1
350
53
  3
B2
350
54
  3
B3
350
55
  3
B4
350
56
  3
B5
350
57
  3
B6
350
58
  3
B7
350
59
  3
B8
350
5A
  3
B9
350
5B
  3
C0
350
5C
  3
C1
350
5D
  3
C2
350
5E
  3
C3
350
5F
  3
C4
350
60
  3
C5
350
61
  3
C6
350
62
  3
C7
350
63
  3
C8
350
64
  3
C9
350
65
  3
D0
350
66
  3
D1
350
67
  3
D2
350
68
  0
DICTIONARY
  5
145
102
{ACAD_REACTORS
330
C
102
}
330
C
100
AcDbDictionary
281
     1
  0
XRECORD
  5
2AA
102
{ACAD_REACTORS
330
C
102
}
330
C
100
AcDbXrecord
280
     1
  1
DWGPROPS COOKIE
  2

  3

  4

  6

  7

  8
12017012
  9

300
=
301
=
302
=
303
=
304
=
305
=
306
=
307
=
308
=
309
=
 40
0.0
 41
2458323.329333993
 42
2458324.054014421
  1

 90
        0
  0
DICTIONARY
  5
1D8
102
{ACAD_REACTORS
330
1D7
102
}
330
1D7
100
AcDbDictionary
281
     1
  0
LAYOUT
  5
1E
102
{ACAD_REACTORS
330
1A
102
}
330
1A
100
AcDbPlotSettings
  1

  2
none_device
  4

  6

 40
0.0
 41
0.0
 42
0.0
 43
0.0
 44
0.0
 45
0.0
 46
0.0
 47
0.0
 48
0.0
 49
0.0
140
0.0
141
0.0
142
1.0
143
1.0
 70
   688
 72
     1
 73
     0
 74
     5
  7

 75
    16
147
1.0
148
0.0
149
0.0
100
AcDbLayout
  1
Layout1
 70
     1
 71
     1
 10
0.0
 20
0.0
 11
420.0
 21
297.0
 12
0.0
 22
0.0
 32
0.0
 14
1.000000000000000E+20
 24
1.000000000000000E+20
 34
1.000000000000000E+20
 15
-1.000000000000000E+20
 25
-1.000000000000000E+20
 35
-1.000000000000000E+20
146
0.0
 13
0.0
 23
0.0
 33
0.0
 16
1.0
 26
0.0
 36
0.0
 17
0.0
 27
1.0
 37
0.0
 76
     0
330
1B
  0
LAYOUT
  5
26
102
{ACAD_REACTORS
330
1A
102
}
330
1A
100
AcDbPlotSettings
  1

  2
none_device
  4

  6

 40
0.0
 41
0.0
 42
0.0
 43
0.0
 44
0.0
 45
0.0
 46
0.0
 47
0.0
 48
0.0
 49
0.0
140
0.0
141
0.0
142
1.0
143
1.0
 70
   688
 72
     1
 73
     0
 74
     5
  7

 75
    16
147
1.0
148
0.0
149
0.0
100
AcDbLayout
  1
Layout2
 70
     1
 71
     2
 10
0.0
 20
0.0
 11
0.0
 21
0.0
 12
0.0
 22
0.0
 32
0.0
 14
0.0
 24
0.0
 34
0.0
 15
0.0
 25
0.0
 35
0.0
146
0.0
 13
0.0
 23
0.0
 33
0.0
 16
1.0
 26
0.0
 36
0.0
 17
0.0
 27
1.0
 37
0.0
 76
     0
330
23
  0
LAYOUT
  5
22
102
{ACAD_REACTORS
330
1A
102
}
330
1A
100
AcDbPlotSettings
  1

  2
none_device
  4
ANSI_A_(11.00_x_8.50_Inches)
  6

 40
6.35
 41
19.05
 42
6.35000508
 43
19.05000254
 44
279.4
 45
215.9
 46
152.0057140491709
 47
60.15963961627759
 48
0.0
 49
0.0
140
0.0
141
0.0
142
0.0478681828879394
143
1.0
 70
  1696
 72
     0
 73
     0
 74
     0
  7

 75
     0
147
0.0235690232323232
148
0.0
149
0.0
100
AcDbLayout
  1
Model
 70
     1
 71
     0
 10
0.0
 20
0.0
 11
420.0
 21
297.0
 12
0.0
 22
0.0
 32
0.0
 14
1.000000000000000E+20
 24
1.000000000000000E+20
 34
1.000000000000000E+20
 15
-1.000000000000000E+20
 25
-1.000000000000000E+20
 35
-1.000000000000000E+20
146
0.0
 13
0.0
 23
0.0
 33
0.0
 16
1.0
 26
0.0
 36
0.0
 17
0.0
 27
1.0
 37
0.0
 76
     0
330
1F
331
29
  0
MLINESTYLE
  5
18
102
{ACAD_REACTORS
330
17
102
}
330
17
100
AcDbMlineStyle
  2
Standard
 70
     0
  3

 62
   256
 51
90.0
 52
90.0
 71
     2
 49
0.5
 62
   256
  6
BYLAYER
 49
-0.5
 62
   256
  6
BYLAYER
  0
ACDBPLACEHOLDER
  5
F
102
{ACAD_REACTORS
330
E
102
}
330
E
  0
SCALE
  5
48
102
{ACAD_REACTORS
330
47
102
}
330
47
100
AcDbScale
 70
     0
300
1:1
140
1.0
141
1.0
290
     1
  0
SCALE
  5
49
102
{ACAD_REACTORS
330
47
102
}
330
47
100
AcDbScale
 70
     0
300
1:2
140
1.0
141
2.0
290
     0
  0
SCALE
  5
4A
102
{ACAD_REACTORS
330
47
102
}
330
47
100
AcDbScale
 70
     0
300
1:4
140
1.0
141
4.0
290
     0
  0
SCALE
  5
4B
102
{ACAD_REACTORS
330
47
102
}
330
47
100
AcDbScale
 70
     0
300
1:5
140
1.0
141
5.0
290
     0
  0
SCALE
  5
4C
102
{ACAD_REACTORS
330
47
102
}
330
47
100
AcDbScale
 70
     0
300
1:8
140
1.0
141
8.0
290
     0
  0
SCALE
  5
4D
102
{ACAD_REACTORS
330
47
102
}
330
47
100
AcDbScale
 70
     0
300
1:10
140
1.0
141
10.0
290
     0
  0
SCALE
  5
4E
102
{ACAD_REACTORS
330
47
102
}
330
47
100
AcDbScale
 70
     0
300
1:16
140
1.0
141
16.0
290
     0
  0
SCALE
  5
4F
102
{ACAD_REACTORS
330
47
102
}
330
47
100
AcDbScale
 70
     0
300
1:20
140
1.0
141
20.0
290
     0
  0
SCALE
  5
50
102
{ACAD_REACTORS
330
47
102
}
330
47
100
AcDbScale
 70
     0
300
1:30
140
1.0
141
30.0
290
     0
  0
SCALE
  5
51
102
{ACAD_REACTORS
330
47
102
}
330
47
100
AcDbScale
 70
     0
300
1:40
140
1.0
141
40.0
290
     0
  0
SCALE
  5
52
102
{ACAD_REACTORS
330
47
102
}
330
47
100
AcDbScale
 70
     0
300
1:50
140
1.0
141
50.0
290
     0
  0
SCALE
  5
53
102
{ACAD_REACTORS
330
47
102
}
330
47
100
AcDbScale
 70
     0
300
1:100
140
1.0
141
100.0
290
     0
  0
SCALE
  5
54
102
{ACAD_REACTORS
330
47
102
}
330
47
100
AcDbScale
 70
     0
300
2:1
140
2.0
141
1.0
290
     0
  0
SCALE
  5
55
102
{ACAD_REACTORS
330
47
102
}
330
47
100
AcDbScale
 70
     0
300
4:1
140
4.0
141
1.0
290
     0
  0
SCALE
  5
56
102
{ACAD_REACTORS
330
47
102
}
330
47
100
AcDbScale
 70
     0
300
8:1
140
8.0
141
1.0
290
     0
  0
SCALE
  5
57
102
{ACAD_REACTORS
330
47
102
}
330
47
100
AcDbScale
 70
     0
300
10:1
140
10.0
141
1.0
290
     0
  0
SCALE
  5
58
102
{ACAD_REACTORS
330
47
102
}
330
47
100
AcDbScale
 70
     0
300
100:1
140
100.0
141
1.0
290
     0
  0
SCALE
  5
59
102
{ACAD_REACTORS
330
47
102
}
330
47
100
AcDbScale
 70
     0
300
1/128" = 1'-0"
140
0.0078125
141
12.0
290
     0
  0
SCALE
  5
5A
102
{ACAD_REACTORS
330
47
102
}
330
47
100
AcDbScale
 70
     0
300
1/64" = 1'-0"
140
0.015625
141
12.0
290
     0
  0
SCALE
  5
5B
102
{ACAD_REACTORS
330
47
102
}
330
47
100
AcDbScale
 70
     0
300
1/32" = 1'-0"
140
0.03125
141
12.0
290
     0
  0
SCALE
  5
5C
102
{ACAD_REACTORS
330
47
102
}
330
47
100
AcDbScale
 70
     0
300
1/16" = 1'-0"
140
0.0625
141
12.0
290
     0
  0
SCALE
  5
5D
102
{ACAD_REACTORS
330
47
102
}
330
47
100
AcDbScale
 70
     0
300
3/32" = 1'-0"
140
0.09375
141
12.0
290
     0
  0
SCALE
  5
5E
102
{ACAD_REACTORS
330
47
102
}
330
47
100
AcDbScale
 70
     0
300
1/8" = 1'-0"
140
0.125
141
12.0
290
     0
  0
SCALE
  5
5F
102
{ACAD_REACTORS
330
47
102
}
330
47
100
AcDbScale
 70
     0
300
3/16" = 1'-0"
140
0.1875
141
12.0
290
     0
  0
SCALE
  5
60
102
{ACAD_REACTORS
330
47
102
}
330
47
100
AcDbScale
 70
     0
300
1/4" = 1'-0"
140
0.25
141
12.0
290
     0
  0
SCALE
  5
61
102
{ACAD_REACTORS
330
47
102
}
330
47
100
AcDbScale
 70
     0
300
3/8" = 1'-0"
140
0.375
141
12.0
290
     0
  0
SCALE
  5
62
102
{ACAD_REACTORS
330
47
102
}
330
47
100
AcDbScale
 70
     0
300
1/2" = 1'-0"
140
0.5
141
12.0
290
     0
  0
SCALE
  5
63
102
{ACAD_REACTORS
330
47
102
}
330
47
100
AcDbScale
 70
     0
300
3/4" = 1'-0"
140
0.75
141
12.0
290
     0
  0
SCALE
  5
64
102
{ACAD_REACTORS
330
47
102
}
330
47
100
AcDbScale
 70
     0
300
1" = 1'-0"
140
1.0
141
12.0
290
     0
  0
SCALE
  5
65
102
{ACAD_REACTORS
330
47
102
}
330
47
100
AcDbScale
 70
     0
300
1-1/2" = 1'-0"
140
1.5
141
12.0
290
     0
  0
SCALE
  5
66
102
{ACAD_REACTORS
330
47
102
}
330
47
100
AcDbScale
 70
     0
300
3" = 1'-0"
140
3.0
141
12.0
290
     0
  0
SCALE
  5
67
102
{ACAD_REACTORS
330
47
102
}
330
47
100
AcDbScale
 70
     0
300
6" = 1'-0"
140
6.0
141
12.0
290
     0
  0
SCALE
  5
68
102
{ACAD_REACTORS
330
47
102
}
330
47
100
AcDbScale
 70
     0
300
1'-0" = 1'-0"
140
12.0
141
12.0
290
     0
  0
ENDSEC
  0
EOF
