  0
SECTION
  2
HEADER
  9
$ACADVER
  1
AC1015
  9
$ACADMAINTVER
 70
     6
  9
$DWGCODEPAGE
  3
ANSI_949
  9
$INSBASE
 10
0.0
 20
0.0
 30
0.0
  9
$EXTMIN
 10
1.000000000000000E+20
 20
1.000000000000000E+20
 30
1.000000000000000E+20
  9
$EXTMAX
 10
-1.000000000000000E+20
 20
-1.000000000000000E+20
 30
-1.000000000000000E+20
  9
$LIMMIN
 10
0.0
 20
0.0
  9
$LIMMAX
 10
420.0
 20
297.0
  9
$ORTHOMODE
 70
     1
  9
$REGENMODE
 70
     1
  9
$FILLMODE
 70
     1
  9
$QTEXTMODE
 70
     0
  9
$MIRRTEXT
 70
     1
  9
$LTSCALE
 40
1.0
  9
$ATTMODE
 70
     1
  9
$TEXTSIZE
 40
3.5
  9
$TRACEWID
 40
1.0
  9
$TEXTSTYLE
  7
Standard
  9
$CLAYER
  8
0
  9
$CELTYPE
  6
ByLayer
  9
$CECOLOR
 62
   256
  9
$CELTSCALE
 40
1.0
  9
$DISPSILH
 70
     0
  9
$DIMSCALE
 40
1.0
  9
$DIMASZ
 40
3.302
  9
$DIMEXO
 40
1.0
  9
$DIMDLI
 40
3.75
  9
$DIMRND
 40
0.0
  9
$DIMDLE
 40
0.0
  9
$DIMEXE
 40
1.0
  9
$DIMTP
 40
0.0
  9
$DIMTM
 40
0.0
  9
$DIMTXT
 40
3.5
  9
$DIMCEN
 40
2.5
  9
$DIMTSZ
 40
0.0
  9
$DIMTOL
 70
     0
  9
$DIMLIM
 70
     0
  9
$DIMTIH
 70
     1
  9
$DIMTOH
 70
     1
  9
$DIMSE1
 70
     0
  9
$DIMSE2
 70
     0
  9
$DIMTAD
 70
     1
  9
$DIMZIN
 70
     0
  9
$DIMBLK
  1

  9
$DIMASO
 70
     1
  9
$DIMSHO
 70
     1
  9
$DIMPOST
  1

  9
$DIMAPOST
  1

  9
$DIMALT
 70
     0
  9
$DIMALTD
 70
     3
  9
$DIMALTF
 40
0.0393700787401575
  9
$DIMLFAC
 40
1.0
  9
$DIMTOFL
 70
     1
  9
$DIMTVP
 40
0.0
  9
$DIMTIX
 70
     0
  9
$DIMSOXD
 70
     0
  9
$DIMSAH
 70
     0
  9
$DIMBLK1
  1

  9
$DIMBLK2
  1

  9
$DIMSTYLE
  2
ISO-25
  9
$DIMCLRD
 70
     0
  9
$DIMCLRE
 70
     0
  9
$DIMCLRT
 70
     0
  9
$DIMTFAC
 40
1.0
  9
$DIMGAP
 40
1.524
  9
$DIMJUST
 70
     0
  9
$DIMSD1
 70
     0
  9
$DIMSD2
 70
     0
  9
$DIMTOLJ
 70
     0
  9
$DIMTZIN
 70
     0
  9
$DIMALTZ
 70
     0
  9
$DIMALTTZ
 70
     0
  9
$DIMUPT
 70
     0
  9
$DIMDEC
 70
     2
  9
$DIMTDEC
 70
     2
  9
$DIMALTU
 70
     2
  9
$DIMALTTD
 70
     3
  9
$DIMTXSTY
  7
Standard
  9
$DIMAUNIT
 70
     0
  9
$DIMADEC
 70
     2
  9
$DIMALTRND
 40
0.0
  9
$DIMAZIN
 70
     0
  9
$DIMDSEP
 70
    44
  9
$DIMATFIT
 70
     3
  9
$DIMFRAC
 70
     0
  9
$DIMLDRBLK
  1

  9
$DIMLUNIT
 70
     2
  9
$DIMLWD
 70
    -2
  9
$DIMLWE
 70
    -2
  9
$DIMTMOVE
 70
     0
  9
$LUNITS
 70
     2
  9
$LUPREC
 70
     2
  9
$SKETCHINC
 40
1.0
  9
$FILLETRAD
 40
10.0
  9
$AUNITS
 70
     0
  9
$AUPREC
 70
     2
  9
$MENU
  1
.
  9
$ELEVATION
 40
0.0
  9
$PELEVATION
 40
0.0
  9
$THICKNESS
 40
0.0
  9
$LIMCHECK
 70
     0
  9
$CHAMFERA
 40
0.0
  9
$CHAMFERB
 40
0.0
  9
$CHAMFERC
 40
0.0
  9
$CHAMFERD
 40
0.0
  9
$SKPOLY
 70
     0
  9
$TDCREATE
 40
2458323.704228368
  9
$TDUCREATE
 40
2458323.329228368
  9
$TDUPDATE
 40
2458324.427419144
  9
$TDUUPDATE
 40
2458324.052419144
  9
$TDINDWG
 40
0.0013671991
  9
$TDUSRTIMER
 40
2458324.052235035
  9
$USRTIMER
 70
     1
  9
$ANGBASE
 50
0.0
  9
$ANGDIR
 70
     0
  9
$PDMODE
 70
     0
  9
$PDSIZE
 40
-1.0
  9
$PLINEWID
 40
0.0
  9
$SPLFRAME
 70
     0
  9
$SPLINETYPE
 70
     6
  9
$SPLINESEGS
 70
     8
  9
$HANDSEED
  5
302
  9
$SURFTAB1
 70
     6
  9
$SURFTAB2
 70
     6
  9
$SURFTYPE
 70
     6
  9
$SURFU
 70
     6
  9
$SURFV
 70
     6
  9
$UCSBASE
  2

  9
$UCSNAME
  2

  9
$UCSORG
 10
0.0
 20
0.0
 30
0.0
  9
$UCSXDIR
 10
1.0
 20
0.0
 30
0.0
  9
$UCSYDIR
 10
0.0
 20
1.0
 30
0.0
  9
$UCSORTHOREF
  2

  9
$UCSORTHOVIEW
 70
     0
  9
$UCSORGTOP
 10
0.0
 20
0.0
 30
0.0
  9
$UCSORGBOTTOM
 10
0.0
 20
0.0
 30
0.0
  9
$UCSORGLEFT
 10
0.0
 20
0.0
 30
0.0
  9
$UCSORGRIGHT
 10
0.0
 20
0.0
 30
0.0
  9
$UCSORGFRONT
 10
0.0
 20
0.0
 30
0.0
  9
$UCSORGBACK
 10
0.0
 20
0.0
 30
0.0
  9
$PUCSBASE
  2

  9
$PUCSNAME
  2

  9
$PUCSORG
 10
0.0
 20
0.0
 30
0.0
  9
$PUCSXDIR
 10
1.0
 20
0.0
 30
0.0
  9
$PUCSYDIR
 10
0.0
 20
1.0
 30
0.0
  9
$PUCSORTHOREF
  2

  9
$PUCSORTHOVIEW
 70
     0
  9
$PUCSORGTOP
 10
0.0
 20
0.0
 30
0.0
  9
$PUCSORGBOTTOM
 10
0.0
 20
0.0
 30
0.0
  9
$PUCSORGLEFT
 10
0.0
 20
0.0
 30
0.0
  9
$PUCSORGRIGHT
 10
0.0
 20
0.0
 30
0.0
  9
$PUCSORGFRONT
 10
0.0
 20
0.0
 30
0.0
  9
$PUCSORGBACK
 10
0.0
 20
0.0
 30
0.0
  9
$USERI1
 70
     0
  9
$USERI2
 70
     0
  9
$USERI3
 70
     0
  9
$USERI4
 70
     0
  9
$USERI5
 70
     0
  9
$USERR1
 40
0.0
  9
$USERR2
 40
0.0
  9
$USERR3
 40
0.0
  9
$USERR4
 40
0.0
  9
$USERR5
 40
0.0
  9
$WORLDVIEW
 70
     1
  9
$SHADEDGE
 70
     3
  9
$SHADEDIF
 70
    70
  9
$TILEMODE
 70
     1
  9
$MAXACTVP
 70
    64
  9
$PINSBASE
 10
0.0
 20
0.0
 30
0.0
  9
$PLIMCHECK
 70
     0
  9
$PEXTMIN
 10
1.000000000000000E+20
 20
1.000000000000000E+20
 30
1.000000000000000E+20
  9
$PEXTMAX
 10
-1.000000000000000E+20
 20
-1.000000000000000E+20
 30
-1.000000000000000E+20
  9
$PLIMMIN
 10
0.0
 20
0.0
  9
$PLIMMAX
 10
0.0
 20
0.0
  9
$UNITMODE
 70
     0
  9
$VISRETAIN
 70
     1
  9
$PLINEGEN
 70
     0
  9
$PSLTSCALE
 70
     1
  9
$TREEDEPTH
 70
  3020
  9
$CMLSTYLE
  2
Standard
  9
$CMLJUST
 70
     0
  9
$CMLSCALE
 40
20.0
  9
$PROXYGRAPHICS
 70
     1
  9
$MEASUREMENT
 70
     1
  9
$CELWEIGHT
370
    -1
  9
$ENDCAPS
280
     0
  9
$JOINSTYLE
280
     0
  9
$LWDISPLAY
290
     1
  9
$INSUNITS
 70
     4
  9
$HYPERLINKBASE
  1

  9
$STYLESHEET
  1

  9
$XEDIT
290
     1
  9
$CEPSNTYPE
380
     0
  9
$PSTYLEMODE
290
     1
  9
$FINGERPRINTGUID
  2
{A72F7E20-3DDC-4613-A0AC-AC2C6A042574}
  9
$VERSIONGUID
  2
{FAEB1C32-E019-11D5-929B-00C0DF256EC4}
  9
$EXTNAMES
290
     1
  9
$PSVPSCALE
 40
0.0
  9
$OLESTARTUP
290
     0
  0
ENDSEC
  0
SECTION
  2
CLASSES
  0
CLASS
  1
ACDBDICTIONARYWDFLT
  2
AcDbDictionaryWithDefault
  3
ObjectDBX Classes
 90
        0
280
     0
281
     0
  0
CLASS
  1
VISUALSTYLE
  2
AcDbVisualStyle
  3
ObjectDBX Classes
 90
     4095
280
     0
281
     0
  0
CLASS
  1
MATERIAL
  2
AcDbMaterial
  3
ObjectDBX Classes
 90
     1153
280
     0
281
     0
  0
CLASS
  1
SCALE
  2
AcDbScale
  3
ObjectDBX Classes
 90
     1153
280
     0
281
     0
  0
CLASS
  1
SUN
  2
AcDbSun
  3
SCENEOE
 90
     1153
280
     0
281
     0
  0
CLASS
  1
ACDBPLACEHOLDER
  2
AcDbPlaceHolder
  3
ObjectDBX Classes
 90
        0
280
     0
281
     0
  0
CLASS
  1
LAYOUT
  2
AcDbLayout
  3
ObjectDBX Classes
 90
        0
280
     0
281
     0
  0
CLASS
  1
TABLESTYLE
  2
AcDbTableStyle
  3
ObjectDBX Classes
 90
     4095
280
     0
281
     0
  0
CLASS
  1
MLEADERSTYLE
  2
AcDbMLeaderStyle
  3
ACDB_MLEADERSTYLE_CLASS
 90
     4095
280
     0
281
     0
  0
CLASS
  1
RASTERVARIABLES
  2
AcDbRasterVariables
  3
ISM
 90
        0
280
     0
281
     0
  0
ENDSEC
  0
SECTION
  2
TABLES
  0
TABLE
  2
VPORT
  5
8
330
0
100
AcDbSymbolTable
 70
     1
  0
VPORT
  5
29
330
8
100
AcDbSymbolTableRecord
100
AcDbViewportTableRecord
  2
*Active
 70
     0
 10
0.0
 20
0.0
 11
1.0
 21
1.0
 12
-33.10054096563497
 22
0.0955617061989429
 13
0.0
 23
0.0
 14
10.0
 24
10.0
 15
10.0
 25
10.0
 16
0.0
 26
0.0
 36
1.0
 17
0.0
 27
0.0
 37
0.0
 40
185.6779019880119
 41
1.632093933463796
 42
50.0
 43
0.0
 44
0.0
 50
0.0
 51
0.0
 71
    16
 72
  2000
 73
     1
 74
     3
 75
     0
 76
     0
 77
     0
 78
     0
281
     0
 65
     1
110
0.0
120
0.0
130
0.0
111
1.0
121
0.0
131
0.0
112
0.0
122
1.0
132
0.0
 79
     0
146
0.0
  0
ENDTAB
  0
TABLE
  2
LTYPE
  5
5
330
0
100
AcDbSymbolTable
 70
     6
  0
LTYPE
  5
14
330
5
100
AcDbSymbolTableRecord
100
AcDbLinetypeTableRecord
  2
ByBlock
 70
     0
  3

 72
    65
 73
     0
 40
0.0
  0
LTYPE
  5
15
330
5
100
AcDbSymbolTableRecord
100
AcDbLinetypeTableRecord
  2
ByLayer
 70
     0
  3

 72
    65
 73
     0
 40
0.0
  0
LTYPE
  5
16
330
5
100
AcDbSymbolTableRecord
100
AcDbLinetypeTableRecord
  2
Continuous
 70
     0
  3
Solid line
 72
    65
 73
     0
 40
0.0
  0
LTYPE
  5
6A
330
5
100
AcDbSymbolTableRecord
100
AcDbLinetypeTableRecord
  2
HIDDEN
 70
     0
  3
Hidden __ __ __ __ __ __ __ __ __ __ __ __ __ __
 72
    65
 73
     2
 40
1.905
 49
1.27
 74
     0
 49
-0.635
 74
     0
  0
LTYPE
  5
6B
330
5
100
AcDbSymbolTableRecord
100
AcDbLinetypeTableRecord
  2
PHANTOM
 70
     0
  3
Phantom ______  __  __  ______  __  __  ______
 72
    65
 73
     6
 40
12.7
 49
6.35
 74
     0
 49
-1.27
 74
     0
 49
1.27
 74
     0
 49
-1.27
 74
     0
 49
1.27
 74
     0
 49
-1.27
 74
     0
  0
LTYPE
  5
6C
330
5
100
AcDbSymbolTableRecord
100
AcDbLinetypeTableRecord
  2
CENTER
 70
     0
  3
Center ____ _ ____ _ ____ _ ____ _ ____ _ ____
 72
    65
 73
     4
 40
10.16
 49
6.35
 74
     0
 49
-1.27
 74
     0
 49
1.27
 74
     0
 49
-1.27
 74
     0
  0
LTYPE
  5
6D
330
5
100
AcDbSymbolTableRecord
100
AcDbLinetypeTableRecord
  2
CENTERX2
 70
     0
  3
Center (2x) ________  __  ________  __  _____
 72
    65
 73
     4
 40
20.32
 49
12.7
 74
     0
 49
-2.54
 74
     0
 49
2.54
 74
     0
 49
-2.54
 74
     0
  0
LTYPE
  5
6E
330
5
100
AcDbSymbolTableRecord
100
AcDbLinetypeTableRecord
  2
DOT2
 70
     0
  3
Dot (.5x) ........................................
 72
    65
 73
     2
 40
0.635
 49
0.0
 74
     0
 49
-0.635
 74
     0
  0
ENDTAB
  0
TABLE
  2
LAYER
  5
2
102
{ACAD_XDICTIONARY
360
1D8
102
}
330
0
100
AcDbSymbolTable
 70
    18
  0
LAYER
  5
10
330
2
100
AcDbSymbolTableRecord
100
AcDbLayerTableRecord
  2
0
 70
     0
 62
     7
  6
Continuous
370
    -3
390
F
  0
LAYER
  5
6F
330
2
100
AcDbSymbolTableRecord
100
AcDbLayerTableRecord
  2
FORMAT
 70
     0
 62
     2
  6
Continuous
370
    -3
390
F
  0
LAYER
  5
70
330
2
100
AcDbSymbolTableRecord
100
AcDbLayerTableRecord
  2
외형선
 70
     0
 62
     4
  6
Continuous
370
    30
390
F
  0
LAYER
  5
71
330
2
100
AcDbSymbolTableRecord
100
AcDbLayerTableRecord
  2
숨은선
 70
     0
 62
     2
  6
HIDDEN
370
    15
390
F
  0
LAYER
  5
72
330
2
100
AcDbSymbolTableRecord
100
AcDbLayerTableRecord
  2
중심선
 70
     0
 62
     1
  6
CENTERX2
370
    -3
390
F
  0
LAYER
  5
73
330
2
100
AcDbSymbolTableRecord
100
AcDbLayerTableRecord
  2
파단선
 70
     0
 62
     4
  6
Continuous
370
    -3
390
F
  0
LAYER
  5
74
330
2
100
AcDbSymbolTableRecord
100
AcDbLayerTableRecord
  2
해칭선
 70
     0
 62
   100
  6
Continuous
370
    -3
390
F
  0
LAYER
  5
75
330
2
100
AcDbSymbolTableRecord
100
AcDbLayerTableRecord
  2
가는실선
 70
     0
 62
     4
  6
Continuous
370
    -3
390
F
  0
LAYER
  5
76
330
2
100
AcDbSymbolTableRecord
100
AcDbLayerTableRecord
  2
치수_보조선
 70
     0
 62
     4
  6
Continuous
370
    -3
390
F
  0
LAYER
  5
77
330
2
100
AcDbSymbolTableRecord
100
AcDbLayerTableRecord
  2
치수문자_일반주서
 70
     0
 62
     7
  6
Continuous
370
    15
390
F
  0
LAYER
  5
78
330
2
100
AcDbSymbolTableRecord
100
AcDbLayerTableRecord
  2
개별주서
 70
     0
 62
   100
  6
Continuous
370
    30
390
F
  0
LAYER
  5
79
330
2
100
AcDbSymbolTableRecord
100
AcDbLayerTableRecord
  2
중간선
 70
     0
 62
     2
  6
Continuous
370
    15
390
F
  0
LAYER
  5
7A
330
2
100
AcDbSymbolTableRecord
100
AcDbLayerTableRecord
  2
윤곽선
 70
     0
 62
     3
  6
Continuous
370
    40
390
F
  0
LAYER
  5
7B
330
2
100
AcDbSymbolTableRecord
100
AcDbLayerTableRecord
  2
중심마크
 70
     0
 62
   100
  6
Continuous
370
    30
390
F
  0
LAYER
  5
7C
330
2
100
AcDbSymbolTableRecord
100
AcDbLayerTableRecord
  2
가상선
 70
     0
 62
     4
  6
PHANTOM
370
    -3
390
F
  0
LAYER
  5
7D
330
2
100
AcDbSymbolTableRecord
100
AcDbLayerTableRecord
  2
특수지정선
 70
     0
 62
     5
  6
CENTERX2
370
    60
390
F
  0
LAYER
  5
7E
330
2
100
AcDbSymbolTableRecord
100
AcDbLayerTableRecord
  2
참조1
 70
     0
 62
    -4
  6
Continuous
370
    -3
390
F
  0
LAYER
  5
146
330
2
100
AcDbSymbolTableRecord
100
AcDbLayerTableRecord
  2
Defpoints
 70
     0
 62
     7
  6
Continuous
290
     0
370
    -3
390
F
  0
ENDTAB
  0
TABLE
  2
STYLE
  5
3
330
0
100
AcDbSymbolTable
 70
     2
  0
STYLE
  5
11
330
3
100
AcDbSymbolTableRecord
100
AcDbTextStyleTableRecord
  2
Standard
 70
     0
 40
0.0
 41
1.0
 50
0.0
 71
     0
 42
3.5
  3
txt
  4

  0
STYLE
  5
94
330
3
100
AcDbSymbolTableRecord
100
AcDbTextStyleTableRecord
  2
SLDTEXTSTYLE0
 70
     0
 40
0.0
 41
0.75
 50
0.0
 71
     0
 42
3.5
  3
TXT
  4

  0
ENDTAB
  0
TABLE
  2
VIEW
  5
6
330
0
100
AcDbSymbolTable
 70
     0
  0
ENDTAB
  0
TABLE
  2
UCS
  5
7
330
0
100
AcDbSymbolTable
 70
     0
  0
ENDTAB
  0
TABLE
  2
APPID
  5
9
330
0
100
AcDbSymbolTable
 70
     1
  0
APPID
  5
12
330
9
100
AcDbSymbolTableRecord
100
AcDbRegAppTableRecord
  2
ACAD
 70
     0
  0
ENDTAB
  0
TABLE
  2
DIMSTYLE
  5
A
330
0
100
AcDbSymbolTable
 70
     3
100
AcDbDimStyleTable
  0
DIMSTYLE
105
27
330
A
100
AcDbSymbolTableRecord
100
AcDbDimStyleTableRecord
  2
ISO-25
 70
     0
 41
2.5
 42
0.625
 43
3.75
 44
1.25
 73
     0
 74
     0
 77
     1
 78
     8
140
2.5
141
2.5
143
0.03937007874016
147
0.625
171
     3
172
     1
178
     0
271
     2
272
     2
274
     3
278
    44
283
     0
284
     8
340
11
  0
DIMSTYLE
105
C4
330
A
100
AcDbSymbolTableRecord
100
AcDbDimStyleTableRecord
  2
SLDDIMSTYLE0
 70
     0
 41
3.302
 44
0.0
 45
0.000000001
 73
     0
 74
     0
 77
     1
 78
    12
 79
     3
140
3.5
143
0.0393700787401575
147
0.875
148
0.000000001
170
     1
173
     1
178
     0
271
     2
272
     2
276
     2
284
    12
340
94
  0
DIMSTYLE
105
EC
102
{ACAD_REACTORS
330
EB
330
C3
330
D8
330
100
102
}
330
A
100
AcDbSymbolTableRecord
100
AcDbDimStyleTableRecord
  2
SLDDIMSTYLE1
 70
     0
 41
3.302
 44
0.0
 45
0.000000001
 73
     0
 74
     0
 77
     1
 78
    12
 79
     3
140
3.5
143
0.0393700787401575
147
0.875
148
0.000000001
170
     1
172
     1
173
     1
178
     0
271
     2
272
     2
276
     2
284
    12
289
     0
340
94
  0
ENDTAB
  0
TABLE
  2
BLOCK_RECORD
  5
1
330
0
100
AcDbSymbolTable
 70
    16
  0
BLOCK_RECORD
  5
1F
330
1
100
AcDbSymbolTableRecord
100
AcDbBlockTableRecord
  2
*Model_Space
340
22
  0
BLOCK_RECORD
  5
1B
330
1
100
AcDbSymbolTableRecord
100
AcDbBlockTableRecord
  2
*Paper_Space
340
1E
  0
BLOCK_RECORD
  5
23
330
1
100
AcDbSymbolTableRecord
100
AcDbBlockTableRecord
  2
*Paper_Space0
340
26
  0
BLOCK_RECORD
  5
7F
330
1
100
AcDbSymbolTableRecord
100
AcDbBlockTableRecord
  2
블럭10
340
0
102
{BLKREFS
331
BC
102
}
  0
BLOCK_RECORD
  5
C5
330
1
100
AcDbSymbolTableRecord
100
AcDbBlockTableRecord
  2
_D
340
0
  0
BLOCK_RECORD
  5
D9
330
1
100
AcDbSymbolTableRecord
100
AcDbBlockTableRecord
  2
_D_1
340
0
  0
BLOCK_RECORD
  5
ED
330
1
100
AcDbSymbolTableRecord
100
AcDbBlockTableRecord
  2
_D_2
340
0
  0
BLOCK_RECORD
  5
101
330
1
100
AcDbSymbolTableRecord
100
AcDbBlockTableRecord
  2
_D_3
340
0
  0
BLOCK_RECORD
  5
11A
330
1
100
AcDbSymbolTableRecord
100
AcDbBlockTableRecord
  2
SW_DOWELSYMBOL_0
340
0
102
{BLKREFS
331
120
102
}
  0
BLOCK_RECORD
  5
1DC
330
1
100
AcDbSymbolTableRecord
100
AcDbBlockTableRecord
  2
*D7
340
0
  0
BLOCK_RECORD
  5
1EB
330
1
100
AcDbSymbolTableRecord
100
AcDbBlockTableRecord
  2
*D8
340
0
  0
BLOCK_RECORD
  5
1F7
330
1
100
AcDbSymbolTableRecord
100
AcDbBlockTableRecord
  2
*D9
340
0
  0
BLOCK_RECORD
  5
203
330
1
100
AcDbSymbolTableRecord
100
AcDbBlockTableRecord
  2
*D10
340
0
  0
BLOCK_RECORD
  5
240
330
1
100
AcDbSymbolTableRecord
100
AcDbBlockTableRecord
  2
*D11
340
0
  0
BLOCK_RECORD
  5
24F
330
1
100
AcDbSymbolTableRecord
100
AcDbBlockTableRecord
  2
*D12
340
0
  0
BLOCK_RECORD
  5
25B
330
1
100
AcDbSymbolTableRecord
100
AcDbBlockTableRecord
  2
*D13
340
0
  0
BLOCK_RECORD
  5
267
330
1
100
AcDbSymbolTableRecord
100
AcDbBlockTableRecord
  2
*D14
340
0
  0
ENDTAB
  0
ENDSEC
  0
SECTION
  2
BLOCKS
  0
BLOCK
  5
20
330
1F
100
AcDbEntity
  8
0
100
AcDbBlockBegin
  2
*Model_Space
 70
     0
 10
0.0
 20
0.0
 30
0.0
  3
*Model_Space
  1
*Model_Space
  0
ENDBLK
  5
21
330
1F
100
AcDbEntity
  8
0
100
AcDbBlockEnd
  0
BLOCK
  5
1C
330
1B
100
AcDbEntity
 67
     1
  8
0
100
AcDbBlockBegin
  2
*Paper_Space
 70
     0
 10
0.0
 20
0.0
 30
0.0
  3
*Paper_Space
  1
*Paper_Space
  0
ENDBLK
  5
1D
330
1B
100
AcDbEntity
 67
     1
  8
0
100
AcDbBlockEnd
  0
BLOCK
  5
24
330
23
100
AcDbEntity
  8
0
100
AcDbBlockBegin
  2
*Paper_Space0
 70
     0
 10
0.0
 20
0.0
 30
0.0
  3
*Paper_Space0
  1
*Paper_Space0
  0
ENDBLK
  5
25
330
23
100
AcDbEntity
  8
0
100
AcDbBlockEnd
  0
BLOCK
  5
80
330
7F
100
AcDbEntity
  8
0
100
AcDbBlockBegin
  2
블럭10
 70
     2
 10
0.0
 20
0.0
 30
0.0
  3
블럭10
  1
블럭10
  0
ELLIPSE
  5
82
330
7F
100
AcDbEntity
  8
중심선
100
AcDbEllipse
 10
20.54032771741204
 20
12.0471743016438
 30
0.0
 11
6.600054785286829
 21
-1.261213355974178E-13
 31
0.0
210
0.0
220
0.0
230
1.0
 40
0.636358354079598
 41
0.9219305317359503
 42
6.513795318482858
  0
ELLIPSE
  5
83
330
7F
100
AcDbEntity
  8
중심선
100
AcDbEllipse
 10
20.54032771746488
 20
12.04717430159265
 30
0.0
 11
3.960054785062283
 21
1.540847449632565E-10
 31
0.0
210
0.0
220
0.0
230
1.0
 40
0.3939339440162632
 41
1.131841032648279
 42
5.62031148352944
  0
LINE
  5
84
330
7F
100
AcDbEntity
  8
중심선
100
AcDbLine
 10
2.268634060543552
 20
16.24717430164393
 30
0.0
 11
5.714909304380834
 21
16.24717430164393
 31
0.0
  0
LINE
  5
85
330
7F
100
AcDbEntity
  8
중심선
100
AcDbLine
 10
5.245725140726316
 20
7.84717430164391
 30
0.0
 11
8.692000384563599
 21
7.84717430164391
 31
0.0
  0
LINE
  5
86
330
7F
100
AcDbEntity
  8
중심선
100
AcDbLine
 10
15.74043728645272
 20
16.24717430164393
 30
0.0
 11
8.692000384563599
 21
7.84717430164391
 31
0.0
  0
LINE
  5
87
330
7F
100
AcDbEntity
  8
중심선
100
AcDbLine
 10
0.1404042013395286
 20
13.71084872107135
 30
0.0
 11
3.58671253028996
 21
13.71088815037384
 31
0.0
  0
LINE
  5
88
330
7F
100
AcDbEntity
  8
중심선
100
AcDbLine
 10
2.750260043222114
 20
10.84717430164391
 30
0.0
 11
6.196535287059397
 21
10.84717430164391
 31
0.0
  0
LINE
  5
89
330
7F
100
AcDbEntity
  8
중심선
100
AcDbLine
 10
12.29416204261559
 20
16.24717430164393
 30
0.0
 11
5.245725140726316
 21
7.84717430164391
 31
0.0
  0
LINE
  5
8A
330
7F
100
AcDbEntity
  8
중심선
100
AcDbLine
 10
10.72767329541681
 20
16.24717430164393
 30
0.0
 11
6.196535287059397
 21
10.84717430164391
 31
0.0
  0
LINE
  5
8B
330
7F
100
AcDbEntity
  8
중심선
100
AcDbLine
 10
7.28139805157953
 20
16.24717430164393
 30
0.0
 11
2.750260043222114
 21
10.84717430164391
 31
0.0
  0
LINE
  5
8C
330
7F
100
AcDbEntity
  8
중심선
100
AcDbLine
 10
5.714909304380834
 20
16.24717430164393
 30
0.0
 11
3.58671253028996
 21
13.71088815037384
 31
0.0
  0
LINE
  5
8D
330
7F
100
AcDbEntity
  8
중심선
100
AcDbLine
 10
2.268634060543552
 20
16.24717430164393
 30
0.0
 11
0.1404042013395286
 21
13.71084872107135
 31
0.0
  0
LINE
  5
8E
330
7F
100
AcDbEntity
  8
중심선
100
AcDbLine
 10
7.28139805157953
 20
16.24717430164393
 30
0.0
 11
10.72767329541681
 21
16.24717430164393
 31
0.0
  0
LINE
  5
8F
330
7F
100
AcDbEntity
  8
중심선
100
AcDbLine
 10
12.29416204261559
 20
16.24717430164393
 30
0.0
 11
15.74043728645272
 21
16.24717430164393
 31
0.0
  0
LINE
  5
90
330
7F
100
AcDbEntity
  8
중심선
100
AcDbLine
 10
19.22036997980202
 20
11.08717430171403
 30
0.0
 11
23.66174974927406
 21
11.08717430171406
 31
0.0
  0
LINE
  5
91
330
7F
100
AcDbEntity
  8
중심선
100
AcDbLine
 10
19.22039502424796
 20
13.00717430171391
 30
0.0
 11
19.22036997980202
 21
11.08717430171403
 31
0.0
  0
LINE
  5
92
330
7F
100
AcDbEntity
  8
중심선
100
AcDbLine
 10
19.22039502424796
 20
13.00717430171391
 30
0.0
 11
26.96566020931264
 21
13.00717430171391
 31
0.0
  0
LINE
  5
93
330
7F
100
AcDbEntity
  8
중심선
100
AcDbLine
 10
22.22332737316547
 20
13.45928029700563
 30
0.0
 11
24.52862924686651
 21
15.39360700705356
 31
0.0
  0
ATTDEF
  5
95
330
7F
100
AcDbEntity
  8
FORMAT
 62
     2
100
AcDbText
 10
4.408487351596664
 20
2.075366912832191
 30
0.0
 40
4.233333333333333
  1
E1111040
 41
0.75
  7
SLDTEXTSTYLE0
 11
4.408487351596664
 21
-0.0412997538344756
 31
0.0
100
AcDbAttributeDefinition
  3

  2
AUTOATTR0
 70
     0
 74
     1
  0
ENDBLK
  5
81
330
7F
100
AcDbEntity
  8
0
100
AcDbBlockEnd
  0
BLOCK
  5
C6
330
C5
100
AcDbEntity
  8
0
100
AcDbBlockBegin
  2
_D
 70
     0
 10
0.0
 20
0.0
 30
0.0
  3
_D
  1
_D
  0
LINE
  5
C8
330
C5
100
AcDbEntity
  8
치수문자_일반주서
 62
     0
370
    -2
100
AcDbLine
 10
46.93768242468818
 20
8.001074928723904
 30
0.0
 11
46.93768242468818
 21
14.76357492872391
 31
0.0
  0
LINE
  5
C9
330
C5
100
AcDbEntity
  8
치수문자_일반주서
 62
     0
370
    -2
100
AcDbLine
 10
12.01268242468817
 20
7.994983411127289
 30
0.0
 11
12.01268242468817
 21
14.76357492872391
 31
0.0
  0
LINE
  5
CA
330
C5
100
AcDbEntity
  8
치수문자_일반주서
 62
     0
370
    -2
100
AcDbLine
 10
12.01268242468817
 20
14.76357492872391
 30
0.0
 11
-25.21631757531183
 21
14.76357492872391
 31
0.0
  0
LINE
  5
CB
330
C5
100
AcDbEntity
  8
치수문자_일반주서
 62
     0
370
    -2
100
AcDbLine
 10
46.93768242468818
 20
14.76357492872391
 30
0.0
 11
12.01268242468817
 21
14.76357492872391
 31
0.0
  0
LINE
  5
CC
330
C5
100
AcDbEntity
  8
치수문자_일반주서
 62
     0
370
    -2
100
AcDbLine
 10
50.23968242468818
 20
14.76357492872391
 30
0.0
 11
53.54168242468818
 21
14.76357492872391
 31
0.0
  0
LINE
  5
CD
330
C5
100
AcDbEntity
  8
치수문자_일반주서
 62
     0
370
    -2
100
AcDbLine
 10
8.710682424688173
 20
14.76357492872391
 30
0.0
 11
5.408682424688173
 21
14.76357492872391
 31
0.0
  0
SOLID
  5
CE
330
C5
100
AcDbEntity
  8
치수문자_일반주서
 62
     0
100
AcDbTrace
 10
50.23968242468818
 20
15.31390826205724
 30
0.0
 11
50.23968242468818
 21
14.21324159539057
 31
0.0
 12
46.93768242468818
 22
14.76357492872391
 32
0.0
 13
46.93768242468818
 23
14.76357492872391
 33
0.0
  0
SOLID
  5
CF
330
C5
100
AcDbEntity
  8
치수문자_일반주서
 62
     0
100
AcDbTrace
 10
8.710682424688173
 20
14.21324159539057
 30
0.0
 11
8.710682424688173
 21
15.31390826205724
 31
0.0
 12
12.01268242468817
 22
14.76357492872391
 32
0.0
 13
12.01268242468817
 23
14.76357492872391
 33
0.0
  0
MTEXT
  5
D0
330
C5
100
AcDbEntity
  8
치수문자_일반주서
 62
     0
100
AcDbMText
 10
-9.903817575311827
 20
19.13857492872391
 30
0.0
 40
3.5
 41
0.0
 71
     2
 72
     1
  1
\A1;34.93 [1 3/8]
  7
SLDTEXTSTYLE0
 73
     1
 44
1.0
  0
POINT
  5
D1
330
C5
100
AcDbEntity
  8
Defpoints
 62
     0
100
AcDbPoint
 10
46.93768242468818
 20
7.938574928723904
 30
0.0
  0
POINT
  5
276
330
C5
100
AcDbEntity
  8
Defpoints
 62
     0
100
AcDbPoint
 10
12.01268242468817
 20
7.932483411127289
 30
0.0
  0
POINT
  5
277
330
C5
100
AcDbEntity
  8
Defpoints
 62
     0
100
AcDbPoint
 10
12.01268242468817
 20
14.76357492872391
 30
0.0
  0
ENDBLK
  5
C7
330
C5
100
AcDbEntity
  8
0
100
AcDbBlockEnd
  0
BLOCK
  5
DA
330
D9
100
AcDbEntity
  8
0
100
AcDbBlockBegin
  2
_D_1
 70
     0
 10
0.0
 20
0.0
 30
0.0
  3
_D_1
  1
_D_1
  0
LINE
  5
DC
330
D9
100
AcDbEntity
  8
치수문자_일반주서
 62
     0
370
    -2
100
AcDbLine
 10
46.93768242468818
 20
8.001074928723904
 30
0.0
 11
46.93768242468818
 21
29.96270874461621
 31
0.0
  0
LINE
  5
DD
330
D9
100
AcDbEntity
  8
치수문자_일반주서
 62
     0
370
    -2
100
AcDbLine
 10
-70.53731757531183
 20
7.001074928723878
 30
0.0
 11
-70.53731757531183
 21
29.96270874461621
 31
0.0
  0
LINE
  5
DE
330
D9
100
AcDbEntity
  8
치수문자_일반주서
 62
     0
370
    -2
100
AcDbLine
 10
43.63568242468818
 20
29.96270874461621
 30
0.0
 11
-67.23531757531183
 21
29.96270874461621
 31
0.0
  0
SOLID
  5
DF
330
D9
100
AcDbEntity
  8
치수문자_일반주서
 62
     0
100
AcDbTrace
 10
43.63568242468818
 20
29.41237541128287
 30
0.0
 11
43.63568242468818
 21
30.51304207794954
 31
0.0
 12
46.93768242468818
 22
29.96270874461621
 32
0.0
 13
46.93768242468818
 23
29.96270874461621
 33
0.0
  0
SOLID
  5
E0
330
D9
100
AcDbEntity
  8
치수문자_일반주서
 62
     0
100
AcDbTrace
 10
-67.23531757531183
 20
30.51304207794954
 30
0.0
 11
-67.23531757531183
 21
29.41237541128287
 31
0.0
 12
-70.53731757531183
 22
29.96270874461621
 32
0.0
 13
-70.53731757531183
 23
29.96270874461621
 33
0.0
  0
MTEXT
  5
E1
330
D9
100
AcDbEntity
  8
치수문자_일반주서
 62
     0
100
AcDbMText
 10
-11.79981757531184
 20
34.33770874461621
 30
0.0
 40
3.5
 41
0.0
 71
     2
 72
     1
  1
\A1;117.48 [4 5/8]
  7
SLDTEXTSTYLE0
 73
     1
 44
1.0
  0
POINT
  5
E2
330
D9
100
AcDbEntity
  8
Defpoints
 62
     0
100
AcDbPoint
 10
46.93768242468818
 20
7.938574928723904
 30
0.0
  0
POINT
  5
E3
330
D9
100
AcDbEntity
  8
Defpoints
 62
     0
100
AcDbPoint
 10
-70.53731757531183
 20
6.938574928723878
 30
0.0
  0
POINT
  5
E4
330
D9
100
AcDbEntity
  8
Defpoints
 62
     0
100
AcDbPoint
 10
-70.53731757531183
 20
29.96270874461621
 30
0.0
  0
ENDBLK
  5
DB
330
D9
100
AcDbEntity
  8
0
100
AcDbBlockEnd
  0
BLOCK
  5
EE
330
ED
100
AcDbEntity
  8
0
100
AcDbBlockBegin
  2
_D_2
 70
     0
 10
0.0
 20
0.0
 30
0.0
  3
_D_2
  1
_D_2
  0
LINE
  5
F0
330
ED
100
AcDbEntity
  8
치수문자_일반주서
 62
     0
370
    -2
100
AcDbLine
 10
-69.5998175753118
 20
7.938574928723883
 30
0.0
 11
-83.03731757531185
 21
7.938574928723832
 31
0.0
  0
LINE
  5
F1
330
ED
100
AcDbEntity
  8
치수문자_일반주서
 62
     0
370
    -2
100
AcDbLine
 10
-69.5998175753118
 20
-7.936425071276117
 30
0.0
 11
-83.03731757531179
 21
-7.936425071276168
 31
0.0
  0
LINE
  5
F2
330
ED
100
AcDbEntity
  8
치수문자_일반주서
 62
     0
370
    -2
100
AcDbLine
 10
-83.03731757531183
 20
4.636574928723832
 30
0.0
 11
-83.0373175753118
 21
-4.634425071276168
 31
0.0
  0
SOLID
  5
F3
330
ED
100
AcDbEntity
  8
치수문자_일반주서
 62
     0
100
AcDbTrace
 10
-82.4869842419785
 20
4.636574928723834
 30
0.0
 11
-83.58765090864516
 21
4.636574928723831
 31
0.0
 12
-83.03731757531185
 22
7.938574928723832
 32
0.0
 13
-83.03731757531185
 23
7.938574928723832
 33
0.0
  0
SOLID
  5
F4
330
ED
100
AcDbEntity
  8
치수문자_일반주서
 62
     0
100
AcDbTrace
 10
-83.58765090864513
 20
-4.63442507127617
 30
0.0
 11
-82.48698424197848
 21
-4.634425071276167
 31
0.0
 12
-83.03731757531179
 22
-7.936425071276168
 32
0.0
 13
-83.03731757531179
 23
-7.936425071276168
 33
0.0
  0
MTEXT
  5
F5
330
ED
100
AcDbEntity
  8
치수문자_일반주서
 62
     0
100
AcDbMText
 10
-87.41231757531182
 20
0.0010749287238733
 30
0.0
 40
3.5
 41
0.0
 71
     2
 72
     1
  1
\A1;%%c15.88 [5/8]
  7
SLDTEXTSTYLE0
 11
-3.580687802255623E-15
 21
1.0
 31
0.0
 73
     1
 44
1.0
  0
POINT
  5
F6
330
ED
100
AcDbEntity
  8
Defpoints
 62
     0
100
AcDbPoint
 10
-69.5373175753118
 20
7.938574928723883
 30
0.0
  0
POINT
  5
F7
330
ED
100
AcDbEntity
  8
Defpoints
 62
     0
100
AcDbPoint
 10
-69.5373175753118
 20
-7.936425071276117
 30
0.0
  0
POINT
  5
F8
330
ED
100
AcDbEntity
  8
Defpoints
 62
     0
100
AcDbPoint
 10
-83.03731757531179
 20
-7.936425071276168
 30
0.0
  0
ENDBLK
  5
EF
330
ED
100
AcDbEntity
  8
0
100
AcDbBlockEnd
  0
BLOCK
  5
102
330
101
100
AcDbEntity
  8
0
100
AcDbBlockBegin
  2
_D_3
 70
     0
 10
0.0
 20
0.0
 30
0.0
  3
_D_3
  1
_D_3
  0
LINE
  5
104
330
101
100
AcDbEntity
  8
치수문자_일반주서
 62
     0
370
    -2
100
AcDbLine
 10
47.00018242468818
 20
7.938574928723904
 30
0.0
 11
70.75705823012386
 21
7.938574928723991
 31
0.0
  0
LINE
  5
105
330
101
100
AcDbEntity
  8
치수문자_일반주서
 62
     0
370
    -2
100
AcDbLine
 10
47.00018242468822
 20
-7.936425071276096
 30
0.0
 11
70.75705823012392
 21
-7.936425071276012
 31
0.0
  0
LINE
  5
106
330
101
100
AcDbEntity
  8
치수문자_일반주서
 62
     0
370
    -2
100
AcDbLine
 10
70.75705823012386
 20
7.938574928723991
 30
0.0
 11
70.75705823012373
 21
42.54257492872399
 31
0.0
  0
LINE
  5
107
330
101
100
AcDbEntity
  8
치수문자_일반주서
 62
     0
370
    -2
100
AcDbLine
 10
70.75705823012386
 20
7.938574928723991
 30
0.0
 11
70.75705823012392
 21
-7.936425071276012
 31
0.0
  0
LINE
  5
108
330
101
100
AcDbEntity
  8
치수문자_일반주서
 62
     0
370
    -2
100
AcDbLine
 10
70.75705823012385
 20
11.24057492872399
 30
0.0
 11
70.75705823012383
 21
14.54257492872399
 31
0.0
  0
LINE
  5
109
330
101
100
AcDbEntity
  8
치수문자_일반주서
 62
     0
370
    -2
100
AcDbLine
 10
70.75705823012393
 20
-11.23842507127601
 30
0.0
 11
70.75705823012395
 21
-14.54042507127601
 31
0.0
  0
SOLID
  5
10A
330
101
100
AcDbEntity
  8
치수문자_일반주서
 62
     0
100
AcDbTrace
 10
70.20672489679052
 20
11.24057492872399
 30
0.0
 11
71.30739156345717
 21
11.24057492872399
 31
0.0
 12
70.75705823012386
 22
7.938574928723991
 32
0.0
 13
70.75705823012386
 23
7.938574928723991
 33
0.0
  0
SOLID
  5
10B
330
101
100
AcDbEntity
  8
치수문자_일반주서
 62
     0
100
AcDbTrace
 10
71.30739156345726
 20
-11.23842507127601
 30
0.0
 11
70.2067248967906
 21
-11.23842507127601
 31
0.0
 12
70.75705823012392
 22
-7.936425071276012
 32
0.0
 13
70.75705823012392
 23
-7.936425071276012
 33
0.0
  0
MTEXT
  5
10C
330
101
100
AcDbEntity
  8
치수문자_일반주서
 62
     0
100
AcDbMText
 10
66.38205823012379
 20
28.54257492872397
 30
0.0
 40
3.5
 41
0.0
 71
     2
 72
     1
  1
\A1;%%c15.88 [5/8]
  7
SLDTEXTSTYLE0
 11
-3.580687802255623E-15
 21
1.0
 31
0.0
 73
     1
 44
1.0
  0
POINT
  5
10D
330
101
100
AcDbEntity
  8
Defpoints
 62
     0
100
AcDbPoint
 10
46.93768242468818
 20
7.938574928723904
 30
0.0
  0
POINT
  5
278
330
101
100
AcDbEntity
  8
Defpoints
 62
     0
100
AcDbPoint
 10
46.93768242468822
 20
-7.936425071276096
 30
0.0
  0
POINT
  5
279
330
101
100
AcDbEntity
  8
Defpoints
 62
     0
100
AcDbPoint
 10
70.75705823012392
 20
-7.936425071276007
 30
0.0
  0
ENDBLK
  5
103
330
101
100
AcDbEntity
  8
0
100
AcDbBlockEnd
  0
BLOCK
  5
11B
330
11A
100
AcDbEntity
  8
0
100
AcDbBlockBegin
  2
SW_DOWELSYMBOL_0
 70
     0
 10
0.0
 20
0.0
 30
0.0
  3
SW_DOWELSYMBOL_0
  1
SW_DOWELSYMBOL_0
  0
CIRCLE
  5
11D
330
11A
100
AcDbEntity
  8
해칭선
 62
     0
100
AcDbCircle
 10
0.0
 20
0.0
 30
0.0
 40
3.000000000000003
  0
HATCH
  5
11E
330
11A
100
AcDbEntity
  8
0
  6
Continuous
 62
     0
370
     0
100
AcDbHatch
 10
0.0
 20
0.0
 30
0.0
210
0.0
220
0.0
230
1.0
  2
SOLID
 70
     1
 71
     0
 91
        1
 92
        0
 93
        3
 72
     2
 10
0.0
 20
0.0
 40
3.000000000000003
 50
0.0
 51
90.0
 73
     1
 72
     1
 10
0.0
 20
3.000000000000003
 11
0.0
 21
0.0
 72
     1
 10
0.0
 20
0.0
 11
3.000000000000003
 21
0.0
 97
        0
 75
     0
 76
     1
 98
        1
 10
0.0
 20
0.0
  0
HATCH
  5
11F
330
11A
100
AcDbEntity
  8
0
  6
Continuous
 62
     0
370
     0
100
AcDbHatch
 10
0.0
 20
0.0
 30
0.0
210
0.0
220
0.0
230
1.0
  2
SOLID
 70
     1
 71
     0
 91
        1
 92
        0
 93
        3
 72
     2
 10
0.0
 20
0.0
 40
3.000000000000003
 50
180.0
 51
270.0000000000007
 73
     1
 72
     1
 10
0.0
 20
-3.000000000000003
 11
0.0
 21
0.0
 72
     1
 10
0.0
 20
0.0
 11
-3.000000000000003
 21
0.0
 97
        0
 75
     0
 76
     1
 98
        1
 10
0.0
 20
0.0
  0
ENDBLK
  5
11C
330
11A
100
AcDbEntity
  8
0
100
AcDbBlockEnd
  0
BLOCK
  5
1DD
330
1DC
100
AcDbEntity
  8
0
100
AcDbBlockBegin
  2
*D7
 70
     1
 10
0.0
 20
0.0
 30
0.0
  3
*D7
  1
*D8
  0
LINE
  5
1DF
330
1DC
100
AcDbEntity
  8
치수문자_일반주서
 62
     0
370
    -2
100
AcDbLine
 10
118.4750000000001
 20
19.36649999999991
 30
0.0
 11
118.4750000000001
 21
27.71649999999991
 31
0.0
  0
LINE
  5
1E0
330
1DC
100
AcDbEntity
  8
치수문자_일반주서
 62
     0
370
    -2
100
AcDbLine
 10
93.07500000000005
 20
19.13632844282062
 30
0.0
 11
93.07500000000005
 21
27.71649999999991
 31
0.0
  0
LINE
  5
1E1
330
1DC
100
AcDbEntity
  8
치수문자_일반주서
 62
     0
370
    -2
100
AcDbLine
 10
118.4750000000001
 20
27.71649999999991
 30
0.0
 11
143.6727500000001
 21
27.71649999999991
 31
0.0
  0
LINE
  5
1E2
330
1DC
100
AcDbEntity
  8
치수문자_일반주서
 62
     0
370
    -2
100
AcDbLine
 10
118.4750000000001
 20
27.71649999999991
 30
0.0
 11
93.07500000000005
 21
27.71649999999991
 31
0.0
  0
LINE
  5
1E3
330
1DC
100
AcDbEntity
  8
치수문자_일반주서
 62
     0
370
    -2
100
AcDbLine
 10
121.7770000000001
 20
27.71649999999991
 30
0.0
 11
125.0790000000001
 21
27.71649999999991
 31
0.0
  0
LINE
  5
1E4
330
1DC
100
AcDbEntity
  8
치수문자_일반주서
 62
     0
370
    -2
100
AcDbLine
 10
89.77300000000005
 20
27.71649999999991
 30
0.0
 11
86.47100000000006
 21
27.71649999999991
 31
0.0
  0
SOLID
  5
1E5
330
1DC
100
AcDbEntity
  8
치수문자_일반주서
 62
     0
100
AcDbTrace
 10
121.7770000000001
 20
28.26683333333325
 30
0.0
 11
121.7770000000001
 21
27.16616666666658
 31
0.0
 12
118.4750000000001
 22
27.71649999999991
 32
0.0
 13
118.4750000000001
 23
27.71649999999991
 33
0.0
  0
SOLID
  5
1E6
330
1DC
100
AcDbEntity
  8
치수문자_일반주서
 62
     0
100
AcDbTrace
 10
89.77300000000005
 20
27.16616666666658
 30
0.0
 11
89.77300000000005
 21
28.26683333333325
 31
0.0
 12
93.07500000000005
 22
27.71649999999991
 32
0.0
 13
93.07500000000005
 23
27.71649999999991
 33
0.0
  0
MTEXT
  5
1E7
330
1DC
100
AcDbEntity
  8
치수문자_일반주서
 62
     0
100
AcDbMText
 10
134.9227500000001
 20
32.09149999999991
 30
0.0
 40
3.5
 41
0.0
 71
     2
 72
     1
  1
\A1;25.4 [1]
  7
SLDTEXTSTYLE0
 73
     1
 44
1.0
  0
POINT
  5
1E8
330
1DC
100
AcDbEntity
  8
Defpoints
 62
     0
100
AcDbPoint
 10
118.4750000000001
 20
19.30399999999991
 30
0.0
  0
POINT
  5
1E9
330
1DC
100
AcDbEntity
  8
Defpoints
 62
     0
100
AcDbPoint
 10
93.07500000000005
 20
19.07382844282062
 30
0.0
  0
POINT
  5
1EA
330
1DC
100
AcDbEntity
  8
Defpoints
 62
     0
100
AcDbPoint
 10
93.07500000000005
 20
27.71649999999991
 30
0.0
  0
ENDBLK
  5
1DE
330
1DC
100
AcDbEntity
  8
0
100
AcDbBlockEnd
  0
BLOCK
  5
1EC
330
1EB
100
AcDbEntity
  8
0
100
AcDbBlockBegin
  2
*D8
 70
     1
 10
0.0
 20
0.0
 30
0.0
  3
*D8
  1
*D9
  0
LINE
  5
1EE
330
1EB
100
AcDbEntity
  8
치수문자_일반주서
 62
     0
370
    -2
100
AcDbLine
 10
118.4750000000001
 20
19.36649999999991
 30
0.0
 11
118.4750000000001
 21
42.91563381589221
 31
0.0
  0
LINE
  5
1EF
330
1EB
100
AcDbEntity
  8
치수문자_일반주서
 62
     0
370
    -2
100
AcDbLine
 10
16.87500000000007
 20
18.36649999999989
 30
0.0
 11
16.87500000000007
 21
42.91563381589221
 31
0.0
  0
LINE
  5
1F0
330
1EB
100
AcDbEntity
  8
치수문자_일반주서
 62
     0
370
    -2
100
AcDbLine
 10
115.1730000000001
 20
42.91563381589221
 30
0.0
 11
20.17700000000007
 21
42.91563381589221
 31
0.0
  0
SOLID
  5
1F1
330
1EB
100
AcDbEntity
  8
치수문자_일반주서
 62
     0
100
AcDbTrace
 10
115.1730000000001
 20
42.36530048255888
 30
0.0
 11
115.1730000000001
 21
43.46596714922555
 31
0.0
 12
118.4750000000001
 22
42.91563381589221
 32
0.0
 13
118.4750000000001
 23
42.91563381589221
 33
0.0
  0
SOLID
  5
1F2
330
1EB
100
AcDbEntity
  8
치수문자_일반주서
 62
     0
100
AcDbTrace
 10
20.17700000000007
 20
43.46596714922555
 30
0.0
 11
20.17700000000007
 21
42.36530048255888
 31
0.0
 12
16.87500000000007
 22
42.91563381589221
 32
0.0
 13
16.87500000000007
 23
42.91563381589221
 33
0.0
  0
MTEXT
  5
1F3
330
1EB
100
AcDbEntity
  8
치수문자_일반주서
 62
     0
100
AcDbMText
 10
67.67500000000005
 20
47.29063381589221
 30
0.0
 40
3.5
 41
0.0
 71
     2
 72
     1
  1
\A1;101.6 [4]
  7
SLDTEXTSTYLE0
 73
     1
 44
1.0
  0
POINT
  5
1F4
330
1EB
100
AcDbEntity
  8
Defpoints
 62
     0
100
AcDbPoint
 10
118.4750000000001
 20
19.30399999999991
 30
0.0
  0
POINT
  5
1F5
330
1EB
100
AcDbEntity
  8
Defpoints
 62
     0
100
AcDbPoint
 10
16.87500000000007
 20
18.30399999999989
 30
0.0
  0
POINT
  5
1F6
330
1EB
100
AcDbEntity
  8
Defpoints
 62
     0
100
AcDbPoint
 10
16.87500000000007
 20
42.91563381589221
 30
0.0
  0
ENDBLK
  5
1ED
330
1EB
100
AcDbEntity
  8
0
100
AcDbBlockEnd
  0
BLOCK
  5
1F8
330
1F7
100
AcDbEntity
  8
0
100
AcDbBlockBegin
  2
*D9
 70
     1
 10
0.0
 20
0.0
 30
0.0
  3
*D9
  1
*D10
  0
LINE
  5
1FA
330
1F7
100
AcDbEntity
  8
치수문자_일반주서
 62
     0
370
    -2
100
AcDbLine
 10
17.81250000000006
 20
19.3039999999999
 30
0.0
 11
4.37500000000002
 21
19.30399999999985
 31
0.0
  0
LINE
  5
1FB
330
1F7
100
AcDbEntity
  8
치수문자_일반주서
 62
     0
370
    -2
100
AcDbLine
 10
17.81250000000006
 20
6.603999999999878
 30
0.0
 11
4.375000000000065
 21
6.603999999999829
 31
0.0
  0
LINE
  5
1FC
330
1F7
100
AcDbEntity
  8
치수문자_일반주서
 62
     0
370
    -2
100
AcDbLine
 10
4.375000000000032
 20
16.00199999999985
 30
0.0
 11
4.375000000000053
 21
9.905999999999828
 31
0.0
  0
SOLID
  5
1FD
330
1F7
100
AcDbEntity
  8
치수문자_일반주서
 62
     0
100
AcDbTrace
 10
4.925333333333366
 20
16.00199999999985
 30
0.0
 11
3.824666666666699
 21
16.00199999999984
 31
0.0
 12
4.37500000000002
 22
19.30399999999985
 32
0.0
 13
4.37500000000002
 23
19.30399999999985
 33
0.0
  0
SOLID
  5
1FE
330
1F7
100
AcDbEntity
  8
치수문자_일반주서
 62
     0
100
AcDbTrace
 10
3.82466666666672
 20
9.905999999999826
 30
0.0
 11
4.925333333333387
 21
9.90599999999983
 31
0.0
 12
4.375000000000065
 22
6.603999999999829
 32
0.0
 13
4.375000000000065
 23
6.603999999999829
 33
0.0
  0
MTEXT
  5
1FF
330
1F7
100
AcDbEntity
  8
치수문자_일반주서
 62
     0
100
AcDbMText
 10
0.0000000000000426
 20
12.95399999999988
 30
0.0
 40
3.5
 41
0.0
 71
     2
 72
     1
  1
\A1;%%c12.7 [1/2]
  7
SLDTEXTSTYLE0
 11
-3.496765431890252E-15
 21
1.0
 31
0.0
 73
     1
 44
1.0
  0
POINT
  5
200
330
1F7
100
AcDbEntity
  8
Defpoints
 62
     0
100
AcDbPoint
 10
17.87500000000006
 20
19.3039999999999
 30
0.0
  0
POINT
  5
201
330
1F7
100
AcDbEntity
  8
Defpoints
 62
     0
100
AcDbPoint
 10
17.87500000000006
 20
6.603999999999878
 30
0.0
  0
POINT
  5
202
330
1F7
100
AcDbEntity
  8
Defpoints
 62
     0
100
AcDbPoint
 10
4.375000000000071
 20
6.603999999999828
 30
0.0
  0
ENDBLK
  5
1F9
330
1F7
100
AcDbEntity
  8
0
100
AcDbBlockEnd
  0
BLOCK
  5
204
330
203
100
AcDbEntity
  8
0
100
AcDbBlockBegin
  2
*D10
 70
     1
 10
0.0
 20
0.0
 30
0.0
  3
*D10
  1
*D11
  0
LINE
  5
206
330
203
100
AcDbEntity
  8
치수문자_일반주서
 62
     0
370
    -2
100
AcDbLine
 10
118.5375000000001
 20
19.30399999999991
 30
0.0
 11
143.8818758054359
 21
19.30399999999999
 31
0.0
  0
LINE
  5
207
330
203
100
AcDbEntity
  8
치수문자_일반주서
 62
     0
370
    -2
100
AcDbLine
 10
118.5375000000001
 20
6.603999999999905
 30
0.0
 11
143.8818758054359
 21
6.603999999999999
 31
0.0
  0
LINE
  5
208
330
203
100
AcDbEntity
  8
치수문자_일반주서
 62
     0
370
    -2
100
AcDbLine
 10
143.8818758054359
 20
19.30399999999999
 30
0.0
 11
143.8818758054356
 21
69.9698709129899
 31
0.0
  0
LINE
  5
209
330
203
100
AcDbEntity
  8
치수문자_일반주서
 62
     0
370
    -2
100
AcDbLine
 10
143.8818758054359
 20
19.30399999999999
 30
0.0
 11
143.8818758054359
 21
6.603999999999999
 31
0.0
  0
LINE
  5
20A
330
203
100
AcDbEntity
  8
치수문자_일반주서
 62
     0
370
    -2
100
AcDbLine
 10
143.8818758054358
 20
22.60599999999999
 30
0.0
 11
143.8818758054358
 21
25.90799999999999
 31
0.0
  0
LINE
  5
20B
330
203
100
AcDbEntity
  8
치수문자_일반주서
 62
     0
370
    -2
100
AcDbLine
 10
143.881875805436
 20
3.302
 30
0.0
 11
143.881875805436
 21
0.0
 31
0.0
  0
SOLID
  5
20C
330
203
100
AcDbEntity
  8
치수문자_일반주서
 62
     0
100
AcDbTrace
 10
143.3315424721025
 20
22.60599999999999
 30
0.0
 11
144.4322091387692
 21
22.606
 31
0.0
 12
143.8818758054359
 22
19.30399999999999
 32
0.0
 13
143.8818758054359
 23
19.30399999999999
 33
0.0
  0
SOLID
  5
20D
330
203
100
AcDbEntity
  8
치수문자_일반주서
 62
     0
100
AcDbTrace
 10
144.4322091387693
 20
3.302000000000002
 30
0.0
 11
143.3315424721026
 21
3.301999999999997
 31
0.0
 12
143.8818758054359
 22
6.603999999999999
 32
0.0
 13
143.8818758054359
 23
6.603999999999999
 33
0.0
  0
MTEXT
  5
20E
330
203
100
AcDbEntity
  8
치수문자_일반주서
 62
     0
100
AcDbMText
 10
139.5068758054357
 20
57.71987091298988
 30
0.0
 40
3.5
 41
0.0
 71
     2
 72
     1
  1
\A1;%%c12.7 [1/2]
  7
SLDTEXTSTYLE0
 11
-4.475859752819528E-15
 21
1.0
 31
0.0
 73
     1
 44
1.0
  0
POINT
  5
20F
330
203
100
AcDbEntity
  8
Defpoints
 62
     0
100
AcDbPoint
 10
118.4750000000001
 20
19.30399999999991
 30
0.0
  0
POINT
  5
210
330
203
100
AcDbEntity
  8
Defpoints
 62
     0
100
AcDbPoint
 10
118.4750000000001
 20
6.603999999999905
 30
0.0
  0
POINT
  5
211
330
203
100
AcDbEntity
  8
Defpoints
 62
     0
100
AcDbPoint
 10
143.8818758054359
 20
6.604
 30
0.0
  0
ENDBLK
  5
205
330
203
100
AcDbEntity
  8
0
100
AcDbBlockEnd
  0
BLOCK
  5
241
330
240
100
AcDbEntity
  8
0
100
AcDbBlockBegin
  2
*D11
 70
     1
 10
0.0
 20
0.0
 30
0.0
  3
*D11
  1
*D12
  0
LINE
  5
243
330
240
100
AcDbEntity
  8
치수문자_일반주서
 62
     0
370
    -2
100
AcDbLine
 10
181.8942381218955
 20
-30.64474929983671
 30
0.0
 11
181.8942381218955
 21
-22.2947492998367
 31
0.0
  0
LINE
  5
244
330
240
100
AcDbEntity
  8
치수문자_일반주서
 62
     0
370
    -2
100
AcDbLine
 10
156.4942381218954
 20
-30.874920857016
 30
0.0
 11
156.4942381218954
 21
-22.2947492998367
 31
0.0
  0
LINE
  5
245
330
240
100
AcDbEntity
  8
치수문자_일반주서
 62
     0
370
    -2
100
AcDbLine
 10
181.8942381218955
 20
-22.2947492998367
 30
0.0
 11
207.0919881218954
 21
-22.2947492998367
 31
0.0
  0
LINE
  5
246
330
240
100
AcDbEntity
  8
치수문자_일반주서
 62
     0
370
    -2
100
AcDbLine
 10
181.8942381218955
 20
-22.2947492998367
 30
0.0
 11
156.4942381218954
 21
-22.2947492998367
 31
0.0
  0
LINE
  5
247
330
240
100
AcDbEntity
  8
치수문자_일반주서
 62
     0
370
    -2
100
AcDbLine
 10
185.1962381218954
 20
-22.2947492998367
 30
0.0
 11
188.4982381218954
 21
-22.2947492998367
 31
0.0
  0
LINE
  5
248
330
240
100
AcDbEntity
  8
치수문자_일반주서
 62
     0
370
    -2
100
AcDbLine
 10
153.1922381218954
 20
-22.2947492998367
 30
0.0
 11
149.8902381218954
 21
-22.2947492998367
 31
0.0
  0
SOLID
  5
249
330
240
100
AcDbEntity
  8
치수문자_일반주서
 62
     0
100
AcDbTrace
 10
185.1962381218954
 20
-21.74441596650337
 30
0.0
 11
185.1962381218954
 21
-22.84508263317004
 31
0.0
 12
181.8942381218955
 22
-22.2947492998367
 32
0.0
 13
181.8942381218955
 23
-22.2947492998367
 33
0.0
  0
SOLID
  5
24A
330
240
100
AcDbEntity
  8
치수문자_일반주서
 62
     0
100
AcDbTrace
 10
153.1922381218954
 20
-22.84508263317004
 30
0.0
 11
153.1922381218954
 21
-21.74441596650337
 31
0.0
 12
156.4942381218954
 22
-22.2947492998367
 32
0.0
 13
156.4942381218954
 23
-22.2947492998367
 33
0.0
  0
MTEXT
  5
24B
330
240
100
AcDbEntity
  8
치수문자_일반주서
 62
     0
100
AcDbMText
 10
198.3419881218954
 20
-17.9197492998367
 30
0.0
 40
3.5
 41
0.0
 71
     2
 72
     1
  1
\A1;25.4 [1]
  7
SLDTEXTSTYLE0
 73
     1
 44
1.0
  0
POINT
  5
24C
330
240
100
AcDbEntity
  8
Defpoints
 62
     0
100
AcDbPoint
 10
181.8942381218955
 20
-30.70724929983671
 30
0.0
  0
POINT
  5
24D
330
240
100
AcDbEntity
  8
Defpoints
 62
     0
100
AcDbPoint
 10
156.4942381218954
 20
-30.937420857016
 30
0.0
  0
POINT
  5
24E
330
240
100
AcDbEntity
  8
Defpoints
 62
     0
100
AcDbPoint
 10
156.4942381218954
 20
-22.2947492998367
 30
0.0
  0
ENDBLK
  5
242
330
240
100
AcDbEntity
  8
0
100
AcDbBlockEnd
  0
BLOCK
  5
250
330
24F
100
AcDbEntity
  8
0
100
AcDbBlockBegin
  2
*D12
 70
     1
 10
0.0
 20
0.0
 30
0.0
  3
*D12
  1
*D13
  0
LINE
  5
252
330
24F
100
AcDbEntity
  8
치수문자_일반주서
 62
     0
370
    -2
100
AcDbLine
 10
181.8942381218955
 20
-30.64474929983671
 30
0.0
 11
181.8942381218955
 21
-7.0956154839444
 31
0.0
  0
LINE
  5
253
330
24F
100
AcDbEntity
  8
치수문자_일반주서
 62
     0
370
    -2
100
AcDbLine
 10
80.29423812189546
 20
-31.64474929983672
 30
0.0
 11
80.29423812189546
 21
-7.0956154839444
 31
0.0
  0
LINE
  5
254
330
24F
100
AcDbEntity
  8
치수문자_일반주서
 62
     0
370
    -2
100
AcDbLine
 10
178.5922381218955
 20
-7.0956154839444
 30
0.0
 11
83.59623812189545
 21
-7.0956154839444
 31
0.0
  0
SOLID
  5
255
330
24F
100
AcDbEntity
  8
치수문자_일반주서
 62
     0
100
AcDbTrace
 10
178.5922381218955
 20
-7.645948817277733
 30
0.0
 11
178.5922381218955
 21
-6.545282150611066
 31
0.0
 12
181.8942381218955
 22
-7.0956154839444
 32
0.0
 13
181.8942381218955
 23
-7.0956154839444
 33
0.0
  0
SOLID
  5
256
330
24F
100
AcDbEntity
  8
치수문자_일반주서
 62
     0
100
AcDbTrace
 10
83.59623812189545
 20
-6.545282150611066
 30
0.0
 11
83.59623812189545
 21
-7.645948817277733
 31
0.0
 12
80.29423812189546
 22
-7.0956154839444
 32
0.0
 13
80.29423812189546
 23
-7.0956154839444
 33
0.0
  0
MTEXT
  5
257
330
24F
100
AcDbEntity
  8
치수문자_일반주서
 62
     0
100
AcDbMText
 10
131.0942381218954
 20
-2.7206154839444
 30
0.0
 40
3.5
 41
0.0
 71
     2
 72
     1
  1
\A1;101.6 [4]
  7
SLDTEXTSTYLE0
 73
     1
 44
1.0
  0
POINT
  5
258
330
24F
100
AcDbEntity
  8
Defpoints
 62
     0
100
AcDbPoint
 10
181.8942381218955
 20
-30.70724929983671
 30
0.0
  0
POINT
  5
259
330
24F
100
AcDbEntity
  8
Defpoints
 62
     0
100
AcDbPoint
 10
80.29423812189546
 20
-31.70724929983672
 30
0.0
  0
POINT
  5
25A
330
24F
100
AcDbEntity
  8
Defpoints
 62
     0
100
AcDbPoint
 10
80.29423812189546
 20
-7.0956154839444
 30
0.0
  0
ENDBLK
  5
251
330
24F
100
AcDbEntity
  8
0
100
AcDbBlockEnd
  0
BLOCK
  5
25C
330
25B
100
AcDbEntity
  8
0
100
AcDbBlockBegin
  2
*D13
 70
     1
 10
0.0
 20
0.0
 30
0.0
  3
*D13
  1
*D14
  0
LINE
  5
25E
330
25B
100
AcDbEntity
  8
치수문자_일반주서
 62
     0
370
    -2
100
AcDbLine
 10
81.23173812189545
 20
-30.70724929983672
 30
0.0
 11
67.79423812189542
 21
-30.70724929983677
 31
0.0
  0
LINE
  5
25F
330
25B
100
AcDbEntity
  8
치수문자_일반주서
 62
     0
370
    -2
100
AcDbLine
 10
81.23173812189545
 20
-43.40724929983674
 30
0.0
 11
67.79423812189546
 21
-43.40724929983678
 31
0.0
  0
LINE
  5
260
330
25B
100
AcDbEntity
  8
치수문자_일반주서
 62
     0
370
    -2
100
AcDbLine
 10
67.79423812189543
 20
-34.00924929983677
 30
0.0
 11
67.79423812189545
 21
-40.10524929983679
 31
0.0
  0
SOLID
  5
261
330
25B
100
AcDbEntity
  8
치수문자_일반주서
 62
     0
100
AcDbTrace
 10
68.34457145522876
 20
-34.00924929983677
 30
0.0
 11
67.2439047885621
 21
-34.00924929983677
 31
0.0
 12
67.79423812189542
 22
-30.70724929983677
 32
0.0
 13
67.79423812189542
 23
-30.70724929983677
 33
0.0
  0
SOLID
  5
262
330
25B
100
AcDbEntity
  8
치수문자_일반주서
 62
     0
100
AcDbTrace
 10
67.24390478856212
 20
-40.10524929983679
 30
0.0
 11
68.34457145522877
 21
-40.10524929983679
 31
0.0
 12
67.79423812189546
 22
-43.40724929983678
 32
0.0
 13
67.79423812189546
 23
-43.40724929983678
 33
0.0
  0
MTEXT
  5
263
330
25B
100
AcDbEntity
  8
치수문자_일반주서
 62
     0
100
AcDbMText
 10
63.41923812189543
 20
-37.05724929983673
 30
0.0
 40
3.5
 41
0.0
 71
     2
 72
     1
  1
\A1;%%c12.7 [1/2]
  7
SLDTEXTSTYLE0
 11
-3.356894814614642E-15
 21
1.0
 31
0.0
 73
     1
 44
1.0
  0
POINT
  5
264
330
25B
100
AcDbEntity
  8
Defpoints
 62
     0
100
AcDbPoint
 10
81.29423812189545
 20
-30.70724929983672
 30
0.0
  0
POINT
  5
265
330
25B
100
AcDbEntity
  8
Defpoints
 62
     0
100
AcDbPoint
 10
81.29423812189545
 20
-43.40724929983674
 30
0.0
  0
POINT
  5
266
330
25B
100
AcDbEntity
  8
Defpoints
 62
     0
100
AcDbPoint
 10
67.79423812189546
 20
-43.40724929983678
 30
0.0
  0
ENDBLK
  5
25D
330
25B
100
AcDbEntity
  8
0
100
AcDbBlockEnd
  0
BLOCK
  5
268
330
267
100
AcDbEntity
  8
0
100
AcDbBlockBegin
  2
*D14
 70
     1
 10
0.0
 20
0.0
 30
0.0
  3
*D14
  1
*D15
  0
LINE
  5
26A
330
267
100
AcDbEntity
  8
치수문자_일반주서
 62
     0
370
    -2
100
AcDbLine
 10
181.9567381218955
 20
-30.70724929983671
 30
0.0
 11
207.3011139273312
 21
-30.70724929983662
 31
0.0
  0
LINE
  5
26B
330
267
100
AcDbEntity
  8
치수문자_일반주서
 62
     0
370
    -2
100
AcDbLine
 10
181.9567381218955
 20
-43.40724929983671
 30
0.0
 11
207.3011139273313
 21
-43.40724929983661
 31
0.0
  0
LINE
  5
26C
330
267
100
AcDbEntity
  8
치수문자_일반주서
 62
     0
370
    -2
100
AcDbLine
 10
207.3011139273312
 20
-30.70724929983662
 30
0.0
 11
207.301113927331
 21
19.95862161315329
 31
0.0
  0
LINE
  5
26D
330
267
100
AcDbEntity
  8
치수문자_일반주서
 62
     0
370
    -2
100
AcDbLine
 10
207.3011139273312
 20
-30.70724929983662
 30
0.0
 11
207.3011139273313
 21
-43.40724929983661
 31
0.0
  0
LINE
  5
26E
330
267
100
AcDbEntity
  8
치수문자_일반주서
 62
     0
370
    -2
100
AcDbLine
 10
207.3011139273312
 20
-27.40524929983662
 30
0.0
 11
207.3011139273312
 21
-24.10324929983662
 31
0.0
  0
LINE
  5
26F
330
267
100
AcDbEntity
  8
치수문자_일반주서
 62
     0
370
    -2
100
AcDbLine
 10
207.3011139273313
 20
-46.70924929983661
 30
0.0
 11
207.3011139273314
 21
-50.01124929983661
 31
0.0
  0
SOLID
  5
270
330
267
100
AcDbEntity
  8
치수문자_일반주서
 62
     0
100
AcDbTrace
 10
206.7507805939979
 20
-27.40524929983662
 30
0.0
 11
207.8514472606645
 21
-27.40524929983662
 31
0.0
 12
207.3011139273312
 22
-30.70724929983662
 32
0.0
 13
207.3011139273312
 23
-30.70724929983662
 33
0.0
  0
SOLID
  5
271
330
267
100
AcDbEntity
  8
치수문자_일반주서
 62
     0
100
AcDbTrace
 10
207.8514472606647
 20
-46.70924929983661
 30
0.0
 11
206.750780593998
 21
-46.70924929983661
 31
0.0
 12
207.3011139273313
 22
-43.40724929983661
 32
0.0
 13
207.3011139273313
 23
-43.40724929983661
 33
0.0
  0
MTEXT
  5
272
330
267
100
AcDbEntity
  8
치수문자_일반주서
 62
     0
100
AcDbMText
 10
202.9261139273311
 20
7.708621613153271
 30
0.0
 40
3.5
 41
0.0
 71
     2
 72
     1
  1
\A1;%%c12.7 [1/2]
  7
SLDTEXTSTYLE0
 11
-4.475859752819528E-15
 21
1.0
 31
0.0
 73
     1
 44
1.0
  0
POINT
  5
273
330
267
100
AcDbEntity
  8
Defpoints
 62
     0
100
AcDbPoint
 10
181.8942381218955
 20
-30.70724929983671
 30
0.0
  0
POINT
  5
274
330
267
100
AcDbEntity
  8
Defpoints
 62
     0
100
AcDbPoint
 10
181.8942381218955
 20
-43.40724929983671
 30
0.0
  0
POINT
  5
275
330
267
100
AcDbEntity
  8
Defpoints
 62
     0
100
AcDbPoint
 10
207.3011139273313
 20
-43.40724929983661
 30
0.0
  0
ENDBLK
  5
269
330
267
100
AcDbEntity
  8
0
100
AcDbBlockEnd
  0
ENDSEC
  0
SECTION
  2
ENTITIES
  0
LINE
  5
96
330
1F
100
AcDbEntity
  8
외형선
  6
Continuous
370
    15
100
AcDbLine
 10
11.47491756138665
 20
7.938574928723895
 30
0.0
 11
-39.5842425753119
 21
7.938574928723888
 31
0.0
  0
LINE
  5
97
330
1F
100
AcDbEntity
  8
외형선
  6
Continuous
370
    15
100
AcDbLine
 10
-69.5373175753118
 20
-7.936425071276112
 30
0.0
 11
11.47491756138665
 21
-7.936425071276102
 31
0.0
  0
LINE
  5
98
330
1F
100
AcDbEntity
  8
외형선
  6
Continuous
370
    15
100
AcDbLine
 10
-69.5373175753118
 20
7.938574928723881
 30
0.0
 11
-70.53731757531183
 21
6.938574928723885
 31
0.0
  0
LINE
  5
99
330
1F
100
AcDbEntity
  8
외형선
  6
Continuous
370
    15
100
AcDbLine
 10
-70.53731757531183
 20
-6.936425071276115
 30
0.0
 11
-69.5373175753118
 21
-7.936425071276112
 31
0.0
  0
LINE
  5
9A
330
1F
100
AcDbEntity
  8
0
  6
Continuous
 62
     1
370
    15
100
AcDbLine
 10
37.41148989073258
 20
-7.936425071276103
 30
0.0
 11
39.00018242468818
 21
-7.936425071276103
 31
0.0
  0
ARC
  5
9B
330
1F
100
AcDbEntity
  8
0
  6
Continuous
 62
     1
370
    15
100
AcDbCircle
 10
39.00018242468818
 20
0.0010749287238966
 30
0.0
 40
7.9375
100
AcDbArc
 50
270.0000000000007
 51
0.0
  0
ARC
  5
9C
330
1F
100
AcDbEntity
  8
0
  6
Continuous
 62
     1
370
    15
100
AcDbCircle
 10
39.00018242468818
 20
0.0010749287238966
 30
0.0
 40
7.9375
100
AcDbArc
 50
0.0
 51
90.0
  0
LINE
  5
9D
330
1F
100
AcDbEntity
  8
0
  6
Continuous
 62
     1
370
    15
100
AcDbLine
 10
39.00018242468818
 20
7.938574928723897
 30
0.0
 11
37.41148989073258
 21
7.938574928723897
 31
0.0
  0
LINE
  5
9E
330
1F
100
AcDbEntity
  8
외형선
  6
Continuous
370
    15
100
AcDbLine
 10
12.01268242468817
 20
7.932483411127282
 30
0.0
 11
11.47491756138665
 21
7.936049180926042
 31
0.0
  0
LINE
  5
9F
330
1F
100
AcDbEntity
  8
외형선
  6
Continuous
370
    15
100
AcDbLine
 10
12.01268242468817
 20
7.932483411127273
 30
0.0
 11
12.01268242468817
 21
2.16936963848871
 31
0.0
  0
SPLINE
  5
A0
330
1F
100
AcDbEntity
  8
외형선
  6
Continuous
370
    15
100
AcDbSpline
210
0.0
220
0.0
230
1.0
 70
     8
 71
     3
 72
     8
 73
     4
 74
     0
 42
0.000000001
 43
0.00000001
 40
0.0
 40
0.0
 40
0.0
 40
0.0
 40
1.0
 40
1.0
 40
1.0
 40
1.0
 10
12.01268242470098
 20
2.169369638481579
 30
0.0
 10
10.99876013614697
 20
2.73367141214033
 30
0.0
 10
9.976810232949859
 20
3.281526019289784
 30
0.0
 10
8.962746067642586
 20
3.796745425809744
 30
0.0
  0
SPLINE
  5
A1
330
1F
100
AcDbEntity
  8
외형선
  6
Continuous
370
    15
100
AcDbSpline
210
0.0
220
0.0
230
1.0
 70
     8
 71
     3
 72
     8
 73
     4
 74
     0
 42
0.000000001
 43
0.00000001
 40
0.0
 40
0.0
 40
0.0
 40
0.0
 40
1.0
 40
1.0
 40
1.0
 40
1.0
 10
12.01268242468818
 20
-7.930333553679489
 30
0.0
 10
10.99880864737719
 20
-7.953310043593415
 30
0.0
 10
9.976905897256687
 20
-7.910880952802837
 30
0.0
 10
8.962891621624367
 20
-7.804290805537506
 30
0.0
  0
LINE
  5
A2
330
1F
100
AcDbEntity
  8
외형선
  6
Continuous
370
    15
100
AcDbLine
 10
-69.5373175753118
 20
7.938574928723883
 30
0.0
 11
-69.5373175753118
 21
-7.936425071276112
 31
0.0
  0
LINE
  5
A3
330
1F
100
AcDbEntity
  8
외형선
  6
Continuous
370
    15
100
AcDbLine
 10
8.962891621624367
 20
-7.804370905400225
 30
0.0
 11
8.962891621624367
 21
3.79711067380929
 31
0.0
  0
LINE
  5
A4
330
1F
100
AcDbEntity
  8
외형선
  6
Continuous
370
    15
100
AcDbLine
 10
-70.53731757531183
 20
6.938574928723886
 30
0.0
 11
-70.53731757531183
 21
-6.936425071276115
 31
0.0
  0
SPLINE
  5
A5
330
1F
100
AcDbEntity
  8
외형선
  6
Continuous
370
    15
100
AcDbSpline
210
0.0
220
0.0
230
1.0
 70
     8
 71
     3
 72
     8
 73
     4
 74
     0
 42
0.000000001
 43
0.00000001
 40
0.0
 40
0.0
 40
0.0
 40
0.0
 40
1.0
 40
1.0
 40
1.0
 40
1.0
 10
12.01268242468902
 20
-3.056742743389498
 30
0.0
 10
10.99880864737774
 20
-2.72734527052078
 30
0.0
 10
9.976905897256982
 20
-2.371861655702403
 30
0.0
 10
8.962891621624367
 20
-2.000790418664768
 30
0.0
  0
SPLINE
  5
A6
330
1F
100
AcDbEntity
  8
외형선
  6
Continuous
370
    15
100
AcDbSpline
210
0.0
220
0.0
230
1.0
 70
    24
 71
     3
 72
    14
 73
    10
 74
     0
 42
0.000000001
 43
0.00000001
 40
0.0
 40
0.0
 40
0.0
 40
0.0
 40
0.25
 40
0.25
 40
0.5
 40
0.5
 40
0.75
 40
0.75
 40
1.0
 40
1.0
 40
1.0
 40
1.0
 10
12.01268242468817
 20
2.16936963848499
 30
0.0
 10
12.01268242468817
 20
1.968110938802619
 30
0.0
 10
12.01268242468817
 20
1.649665686328243
 30
0.0
 10
12.01268242468817
 20
0.8450028210900555
 30
0.0
 10
12.01268242468817
 20
0.3614606408160639
 30
0.0
 10
12.01268242468817
 20
-0.6485619640065905
 30
0.0
 10
12.01268242468817
 20
-1.172967343097401
 30
0.0
 10
12.01268242468817
 20
-2.166283401894558
 30
0.0
 10
12.01268242468817
 20
-2.63522124027927
 30
0.0
 10
12.01268242468817
 20
-3.056742743389226
 30
0.0
  0
SPLINE
  5
A7
330
1F
100
AcDbEntity
  8
외형선
  6
Continuous
370
    15
100
AcDbSpline
210
0.0
220
0.0
230
1.0
 70
    24
 71
     3
 72
    16
 73
    12
 74
     0
 42
0.000000001
 43
0.00000001
 40
0.0
 40
0.0
 40
0.0
 40
0.0
 40
0.2500000000000001
 40
0.2500000000000001
 40
0.5000000000000001
 40
0.5000000000000001
 40
0.7500000000000002
 40
0.7500000000000002
 40
0.8750000000000001
 40
0.8750000000000001
 40
1.0
 40
1.0
 40
1.0
 40
1.0
 10
12.01268242468817
 20
-3.056742743389222
 30
0.0
 10
12.01268242468817
 20
-3.091749043302424
 30
0.0
 10
12.01268242468817
 20
-3.194535252329976
 30
0.0
 10
12.01268242468817
 20
-3.604800211418733
 30
0.0
 10
12.01268242468817
 20
-3.914589305684447
 30
0.0
 10
12.01268242468818
 20
-4.767010352378064
 30
0.0
 10
12.01268242468817
 20
-5.310844719576961
 30
0.0
 10
12.01268242468817
 20
-6.24117016928483
 30
0.0
 10
12.01268242468818
 20
-6.569375096338794
 30
0.0
 10
12.01268242468817
 20
-7.242666535724616
 30
0.0
 10
12.01268242468817
 20
-7.587613094915465
 30
0.0
 10
12.01268242468818
 20
-7.93033355367503
 30
0.0
  0
SPLINE
  5
A8
330
1F
100
AcDbEntity
  8
0
  6
Continuous
 62
     1
370
    15
100
AcDbSpline
210
0.0
220
0.0
230
1.0
 70
     8
 71
     3
 72
    12
 73
     8
 74
     0
 42
0.000000001
 43
0.00000001
 40
0.0
 40
0.0
 40
0.0
 40
0.0
 40
0.0912436048429549
 40
0.3164178478641482
 40
0.54162867142535
 40
0.7708605880755361
 40
1.0
 40
1.0
 40
1.0
 40
1.0
 10
26.06906325965201
 20
-5.362343050798619
 30
0.0
 10
25.64156401288015
 20
-5.379699159626378
 30
0.0
 10
24.15906678077372
 20
-5.439887296778867
 30
0.0
 10
21.62125219497009
 20
-5.243243151944175
 30
0.0
 10
18.43689933950892
 20
-4.780539428455719
 30
0.0
 10
15.23388950200891
 20
-4.051822931209382
 30
0.0
 10
13.08627364574857
 20
-3.388391509907971
 30
0.0
 10
12.01268242468903
 20
-3.056742743389498
 30
0.0
  0
SPLINE
  5
A9
330
1F
100
AcDbEntity
  8
외형선
  6
Continuous
370
    15
100
AcDbSpline
210
0.0
220
0.0
230
1.0
 70
    24
 71
     3
 72
    14
 73
    10
 74
     0
 42
0.000000001
 43
0.00000001
 40
0.0
 40
0.0
 40
0.0
 40
0.0
 40
0.25
 40
0.25
 40
0.5
 40
0.5
 40
0.75
 40
0.75
 40
1.0
 40
1.0
 40
1.0
 40
1.0
 10
12.01268242468817
 20
2.16936963848499
 30
0.0
 10
12.01268242468817
 20
1.968110938802619
 30
0.0
 10
12.01268242468817
 20
1.649665686328243
 30
0.0
 10
12.01268242468817
 20
0.8450028210900555
 30
0.0
 10
12.01268242468817
 20
0.3614606408160639
 30
0.0
 10
12.01268242468817
 20
-0.6485619640065905
 30
0.0
 10
12.01268242468817
 20
-1.172967343097401
 30
0.0
 10
12.01268242468817
 20
-2.166283401894558
 30
0.0
 10
12.01268242468817
 20
-2.63522124027927
 30
0.0
 10
12.01268242468817
 20
-3.056742743389226
 30
0.0
  0
SPLINE
  5
AA
330
1F
100
AcDbEntity
  8
0
  6
Continuous
 62
     1
370
    15
100
AcDbSpline
210
0.0
220
0.0
230
1.0
 70
     8
 71
     3
 72
    18
 73
    14
 74
     0
 42
0.000000001
 43
0.00000001
 40
0.0
 40
0.0
 40
0.0
 40
0.0
 40
0.0991931953067526
 40
0.1983850037540919
 40
0.2975670025302019
 40
0.3967407096311669
 40
0.4959076498559427
 40
0.595069353563828
 40
0.688553411090147
 40
0.7820344423918564
 40
0.8755213805255969
 40
0.9690231429368177
 40
1.0
 40
1.0
 40
1.0
 40
1.0
 10
12.01268242470099
 20
2.169369638481573
 30
0.0
 10
12.85253375064421
 20
1.695990841301115
 30
0.0
 10
14.53222466023608
 20
0.7492398654369509
 30
0.0
 10
17.05167860362443
 20
-0.7153248174457495
 30
0.0
 10
19.57089933732201
 20
-2.150708123421472
 30
0.0
 10
22.08987734799089
 20
-3.515423591588658
 30
0.0
 10
24.60862797759266
 20
-4.76193438230159
 30
0.0
 10
27.07925553699481
 20
-5.82867550702455
 30
0.0
 10
29.50146592467056
 20
-6.690538394431305
 30
0.0
 10
31.87567314748214
 20
-7.340591418959781
 30
0.0
 10
34.2500553904776
 20
-7.755659670361037
 30
0.0
 10
36.09532727208446
 20
-7.946627141847044
 30
0.0
 10
37.14922456423629
 20
-7.917466255103403
 30
0.0
 10
37.41148989073258
 20
-7.910209485834048
 30
0.0
  0
SPLINE
  5
AB
330
1F
100
AcDbEntity
  8
0
  6
Continuous
 62
     1
370
    15
100
AcDbSpline
210
0.0
220
0.0
230
1.0
 70
     8
 71
     3
 72
    38
 73
    34
 74
     0
 42
0.000000001
 43
0.00000001
 40
0.0
 40
0.0
 40
0.0
 40
0.0
 40
0.0625
 40
0.0625
 40
0.1250000000000001
 40
0.1250000000000001
 40
0.1875000000000001
 40
0.1875000000000001
 40
0.2500000000000001
 40
0.2500000000000001
 40
0.3125000000000001
 40
0.3125000000000001
 40
0.3750000000000002
 40
0.3750000000000002
 40
0.4375000000000002
 40
0.4375000000000002
 40
0.5000000000000002
 40
0.5000000000000002
 40
0.5625000000000002
 40
0.5625000000000002
 40
0.6250000000000002
 40
0.6250000000000002
 40
0.6875000000000003
 40
0.6875000000000003
 40
0.7500000000000003
 40
0.7500000000000003
 40
0.8125000000000002
 40
0.8125000000000002
 40
0.8750000000000001
 40
0.8750000000000001
 40
0.9375000000000001
 40
0.9375000000000001
 40
1.0
 40
1.0
 40
1.0
 40
1.0
 10
39.00018242468818
 20
-3.31774328142322
 30
0.0
 10
38.43973918783522
 20
-3.023184944544649
 30
0.0
 10
37.877219601416
 20
-2.719940863906774
 30
0.0
 10
36.75016548781083
 20
-2.100938434695652
 30
0.0
 10
36.19066207171042
 20
-1.786124532856859
 30
0.0
 10
35.06660511960325
 20
-1.1481894311104
 30
0.0
 10
34.50141946940724
 20
-0.824931757827185
 30
0.0
 10
33.37745521970389
 20
-0.1771125727321185
 30
0.0
 10
32.81788137729926
 20
0.1475935260579717
 30
0.0
 10
31.69080859055603
 20
0.7961664571363098
 30
0.0
 10
31.12843000711359
 20
1.119042373633036
 30
0.0
 10
30.00741398968779
 20
1.756878964900053
 30
0.0
 10
29.44247827826754
 20
2.073023311042741
 30
0.0
 10
28.31645426194557
 20
2.692608755981768
 30
0.0
 10
27.75788027018121
 20
2.995620874407726
 30
0.0
 10
26.63181624804192
 20
3.586718761116074
 30
0.0
 10
26.06689398225792
 20
3.874301901107115
 30
0.0
 10
24.94597075357012
 20
4.427151658097061
 30
0.0
 10
24.38349128574401
 20
4.693502946350779
 30
0.0
 10
23.25643175601105
 20
5.201630453216011
 30
0.0
 10
22.69690869202211
 20
5.442678989371915
 30
0.0
 10
21.57287780910345
 20
5.897048036930828
 30
0.0
 10
21.00769208947028
 20
6.110386383479515
 30
0.0
 10
19.88370149799485
 20
6.504569899338923
 30
0.0
 10
19.3241478244713
 20
6.685581277038398
 30
0.0
 10
18.19708017879256
 20
7.014007957918387
 30
0.0
 10
17.63466199539059
 20
7.160876491889915
 30
0.0
 10
16.51368246283988
 20
7.417769379666919
 30
0.0
 10
15.94875200814289
 20
7.528239130717093
 30
0.0
 10
14.82271214302106
 20
7.710571964815466
 30
0.0
 10
14.26413830933224
 20
7.782412077749116
 30
0.0
 10
13.13808996983034
 20
7.887115900512627
 30
0.0
 10
12.57316236330493
 20
7.919781769221937
 30
0.0
 10
12.0126824246882
 20
7.93248341112724
 30
0.0
  0
SPLINE
  5
AC
330
1F
100
AcDbEntity
  8
0
  6
Continuous
 62
     1
370
    15
100
AcDbSpline
210
0.0
220
0.0
230
1.0
 70
     8
 71
     3
 72
    15
 73
    11
 74
     0
 42
0.000000001
 43
0.00000001
 40
0.0
 40
0.0
 40
0.0
 40
0.0
 40
0.1126304690575828
 40
0.225250540142728
 40
0.3378649589540406
 40
0.4829806951562899
 40
0.6280597004402749
 40
0.7730724906674481
 40
0.9181130492578664
 40
1.0
 40
1.0
 40
1.0
 40
1.0
 10
44.81275871237384
 20
0.8328833085327492
 30
0.0
 10
43.99390424287871
 20
1.148446967719866
 30
0.0
 10
42.35627090000621
 20
1.779545153460117
 30
0.0
 10
39.89988887981373
 20
2.662445477166118
 30
0.0
 10
37.20752289826281
 20
3.539709679967195
 30
0.0
 10
34.27833591359922
 20
4.341535791713626
 30
0.0
 10
31.11389159539237
 20
4.982877911008233
 30
0.0
 10
27.95013905935014
 20
5.348347013435418
 30
0.0
 10
25.24577994994997
 20
5.461409205965179
 30
0.0
 10
23.59571599926048
 20
5.337977740372756
 30
0.0
 10
23.00028926651707
 20
5.293437409529992
 30
0.0
  0
SPLINE
  5
AD
330
1F
100
AcDbEntity
  8
0
  6
Continuous
 62
     1
370
    15
100
AcDbSpline
210
0.0
220
0.0
230
1.0
 70
     8
 71
     3
 72
    32
 73
    28
 74
     0
 42
0.000000001
 43
0.00000001
 40
0.0
 40
0.0
 40
0.0
 40
0.0
 40
0.1249999999999988
 40
0.1249999999999988
 40
0.1874999999999981
 40
0.1874999999999981
 40
0.2499999999999975
 40
0.2499999999999975
 40
0.3749999999999969
 40
0.3749999999999969
 40
0.4374999999999973
 40
0.4374999999999973
 40
0.4999999999999977
 40
0.4999999999999977
 40
0.562499999999998
 40
0.562499999999998
 40
0.6249999999999984
 40
0.6249999999999984
 40
0.6874999999999988
 40
0.6874999999999988
 40
0.7499999999999992
 40
0.7499999999999992
 40
0.8124999999999996
 40
0.8124999999999996
 40
0.8749999999999999
 40
0.8749999999999999
 40
1.0
 40
1.0
 40
1.0
 40
1.0
 10
39.00018242468818
 20
-3.317743281423263
 30
0.0
 10
39.44077054563154
 20
-3.549308042347634
 30
0.0
 10
39.87479151515761
 20
-3.756042645409358
 30
0.0
 10
40.52409174663102
 20
-4.0175754003896
 30
0.0
 10
40.74024910007358
 20
-4.096579283714661
 30
0.0
 10
41.17375285138661
 20
-4.234957783628793
 30
0.0
 10
41.39202301344451
 20
-4.294533956601999
 30
0.0
 10
42.03784666184535
 20
-4.433564578160955
 30
0.0
 10
42.46025865752824
 20
-4.475482936768426
 30
0.0
 10
43.09557077100139
 20
-4.427917417220963
 30
0.0
 10
43.30339242946987
 20
-4.393518768211563
 30
0.0
 10
43.71158983773989
 20
-4.280953395131619
 30
0.0
 10
43.91435335783576
 20
-4.201722887979741
 30
0.0
 10
44.30359075826517
 20
-3.991788573281949
 30
0.0
 10
44.48897923549517
 20
-3.862429078195413
 30
0.0
 10
44.84005771501207
 20
-3.541099105024719
 30
0.0
 10
44.99781043418216
 20
-3.356349509906514
 30
0.0
 10
45.27299025774801
 20
-2.932738142777719
 30
0.0
 10
45.38349848114113
 20
-2.703944149074741
 30
0.0
 10
45.54704250986498
 20
-2.220087140127734
 30
0.0
 10
45.5970734381789
 20
-1.973283340405158
 30
0.0
 10
45.63881077457199
 20
-1.482400108707629
 30
0.0
 10
45.63028554198598
 20
-1.245273513039463
 30
0.0
 10
45.56694895489403
 20
-0.7861990973786338
 30
0.0
 10
45.51131060427163
 20
-0.5626254043886114
 30
0.0
 10
45.29259862405473
 20
0.0728205382614568
 30
0.0
 10
45.0766380651914
 20
0.4619230355842944
 30
0.0
 10
44.81275871232295
 20
0.8328833085525233
 30
0.0
  0
SPLINE
  5
AE
330
1F
100
AcDbEntity
  8
0
  6
Continuous
 62
     1
370
    15
100
AcDbSpline
210
0.0
220
0.0
230
1.0
 70
     8
 71
     3
 72
    12
 73
     8
 74
     0
 42
0.000000001
 43
0.00000001
 40
0.0
 40
0.0
 40
0.0
 40
0.0
 40
0.2499999999999991
 40
0.2499999999999991
 40
0.4999999999999981
 40
0.4999999999999981
 40
1.0
 40
1.0
 40
1.0
 40
1.0
 10
44.81275871232289
 20
0.8328833085525377
 30
0.0
 10
44.90406085714434
 20
0.8878774591594611
 30
0.0
 10
44.98539032885003
 20
0.9560689397685401
 30
0.0
 10
45.12804013766784
 20
1.119608019846548
 30
0.0
 10
45.18982790932289
 20
1.21650903574844
 30
0.0
 10
45.33598895017948
 20
1.534975324049214
 30
0.0
 10
45.38421897672963
 20
1.790787140071664
 30
0.0
 10
45.3886550367351
 20
2.056809961866609
 30
0.0
  0
ARC
  5
AF
330
1F
100
AcDbEntity
  8
0
  6
Continuous
 62
     1
370
    15
100
AcDbCircle
 10
43.14011135522645
 20
-1.378723928213814
 30
0.0
 40
4.105951996497779
100
AcDbArc
 50
23.84125036270401
 51
56.79540765092867
  0
ARC
  5
B0
330
1F
100
AcDbEntity
  8
0
  6
Continuous
 62
     1
370
    15
100
AcDbCircle
 10
39.78121717348475
 20
0.1353658390683516
 30
0.0
 40
7.115969501930865
100
AcDbArc
 50
1.172026434265249
 51
71.06103089496945
  0
SPLINE
  5
B1
330
1F
100
AcDbEntity
  8
0
  6
Continuous
 62
     1
370
    15
100
AcDbSpline
210
0.0
220
0.0
230
1.0
 70
     8
 71
     3
 72
    10
 73
     6
 74
     0
 42
0.000000001
 43
0.00000001
 40
0.0
 40
0.0
 40
0.0
 40
0.0
 40
0.5
 40
0.5
 40
1.0
 40
1.0
 40
1.0
 40
1.0
 10
42.09078202000985
 20
6.866111130052518
 30
0.0
 10
41.59970333513921
 20
7.165453749107283
 30
0.0
 10
41.09456713309785
 20
7.40084115457563
 30
0.0
 10
40.06319193528617
 20
7.74299931899282
 30
0.0
 10
39.53194501713175
 20
7.850225897018894
 30
0.0
 10
39.00018242468823
 20
7.885684462303951
 30
0.0
  0
SPLINE
  5
B2
330
1F
100
AcDbEntity
  8
0
  6
Continuous
 62
     1
370
    15
100
AcDbSpline
210
0.0
220
0.0
230
1.0
 70
     8
 71
     3
 72
     8
 73
     4
 74
     0
 42
0.000000001
 43
0.00000001
 40
0.0
 40
0.0
 40
0.0
 40
0.0
 40
1.0
 40
1.0
 40
1.0
 40
1.0
 10
40.48070387168326
 20
3.554280626909268
 30
0.0
 10
42.09430815714298
 20
3.105797106931487
 30
0.0
 10
43.73944097448297
 20
2.60054685612966
 30
0.0
 10
45.38865503673512
 20
2.056809961866668
 30
0.0
  0
SPLINE
  5
B3
330
1F
100
AcDbEntity
  8
0
  6
Continuous
 62
     1
370
    15
100
AcDbSpline
210
0.0
220
0.0
230
1.0
 70
     8
 71
     3
 72
    13
 73
     9
 74
     0
 42
0.000000001
 43
0.00000001
 40
0.0
 40
0.0
 40
0.0
 40
0.0
 40
0.0818311519458215
 40
0.2654417584219483
 40
0.4490464211366401
 40
0.6326626853697112
 40
0.8163080657392737
 40
1.0
 40
1.0
 40
1.0
 40
1.0
 10
26.069063259652
 20
5.364492908246416
 30
0.0
 10
26.42180484493398
 20
5.519364995518981
 30
0.0
 10
27.56601880794634
 20
6.021735036739036
 30
0.0
 10
29.50146087160561
 20
6.687020514527362
 30
0.0
 10
31.87567551574868
 20
7.342397111727616
 30
0.0
 10
34.25005097008412
 20
7.764855194176929
 30
0.0
 10
36.6248720650937
 20
7.975731706510882
 30
0.0
 10
38.20834541185884
 20
7.915702746263487
 30
0.0
 10
39.00018242468818
 20
7.885684462303955
 30
0.0
  0
SPLINE
  5
B4
330
1F
100
AcDbEntity
  8
0
  6
Continuous
 62
     1
370
    15
100
AcDbSpline
210
0.0
220
0.0
230
1.0
 70
     8
 71
     3
 72
    18
 73
    14
 74
     0
 42
0.000000001
 43
0.00000001
 40
0.0
 40
0.0
 40
0.0
 40
0.0
 40
0.2499999999999997
 40
0.2499999999999997
 40
0.3749999999999995
 40
0.3749999999999995
 40
0.4999999999999993
 40
0.4999999999999993
 40
0.6249999999999991
 40
0.6249999999999991
 40
0.749999999999999
 40
0.749999999999999
 40
1.0
 40
1.0
 40
1.0
 40
1.0
 10
42.09078202000988
 20
6.86611113005252
 30
0.0
 10
42.1471504364186
 20
6.532902205605087
 30
0.0
 10
42.1725242222889
 20
6.193822718067232
 30
0.0
 10
42.13566320152668
 20
5.678526060312209
 30
0.0
 10
42.11089777665374
 20
5.509620911436695
 30
0.0
 10
42.03207519970861
 20
5.178525099885686
 30
0.0
 10
41.97702495992365
 20
5.014443123032103
 30
0.0
 10
41.83713941301349
 20
4.706410425866442
 30
0.0
 10
41.75270244173329
 20
4.562086403690562
 30
0.0
 10
41.55435085642387
 20
4.293150173588844
 30
0.0
 10
41.43968353934207
 20
4.168501534576962
 30
0.0
 10
41.06957857940304
 20
3.83991508370566
 30
0.0
 10
40.78036643991479
 20
3.673376883638963
 30
0.0
 10
40.48070387168327
 20
3.554280626909266
 30
0.0
  0
SPLINE
  5
B5
330
1F
100
AcDbEntity
  8
0
  6
Continuous
 62
     1
370
    15
100
AcDbSpline
210
0.0
220
0.0
230
1.0
 70
     8
 71
     3
 72
    16
 73
    12
 74
     0
 42
0.000000001
 43
0.00000001
 40
0.0
 40
0.0
 40
0.0
 40
0.0
 40
0.0680829889694061
 40
0.1819822414268841
 40
0.2961190249788689
 40
0.4109739688502542
 40
0.5260725930160941
 40
0.6438908059806343
 40
0.7619723251077627
 40
0.8808509609126163
 40
1.0
 40
1.0
 40
1.0
 40
1.0
 10
23.02269769633299
 20
-5.292649497215335
 30
0.0
 10
22.77295534510345
 20
-5.400349005840898
 30
0.0
 10
22.10540720210998
 20
-5.688224116451289
 30
0.0
 10
21.01792697525246
 20
-6.106505912478392
 30
0.0
 10
19.76018111624985
 20
-6.547856237750899
 30
0.0
 10
18.49693131629943
 20
-6.932814356943022
 30
0.0
 10
17.22079908816043
 20
-7.263656111223517
 30
0.0
 10
15.93264302882047
 20
-7.534183966463829
 30
0.0
 10
14.6304126503985
 20
-7.738891425738009
 30
0.0
 10
13.32377583476345
 20
-7.87990505798003
 30
0.0
 10
12.45004441904593
 20
-7.91351132935734
 30
0.0
 10
12.0126824246882
 20
-7.930333553679487
 30
0.0
  0
SPLINE
  5
B6
330
1F
100
AcDbEntity
  8
외형선
  6
Continuous
370
    15
100
AcDbSpline
210
0.0
220
0.0
230
1.0
 70
    24
 71
     3
 72
    16
 73
    12
 74
     0
 42
0.000000001
 43
0.00000001
 40
0.0
 40
0.0
 40
0.0
 40
0.0
 40
0.25
 40
0.25
 40
0.5
 40
0.5
 40
0.75
 40
0.75
 40
0.875
 40
0.875
 40
1.0
 40
1.0
 40
1.0
 40
1.0
 10
12.01268242468817
 20
-3.056742743389222
 30
0.0
 10
12.01268242468817
 20
-3.091749043302423
 30
0.0
 10
12.01268242468817
 20
-3.194535252329976
 30
0.0
 10
12.01268242468817
 20
-3.604800211418733
 30
0.0
 10
12.01268242468817
 20
-3.914589305684445
 30
0.0
 10
12.01268242468817
 20
-4.767010352378061
 30
0.0
 10
12.01268242468817
 20
-5.310844719576956
 30
0.0
 10
12.01268242468817
 20
-6.241170169284826
 30
0.0
 10
12.01268242468818
 20
-6.569375096338791
 30
0.0
 10
12.01268242468818
 20
-7.24266653572461
 30
0.0
 10
12.01268242468818
 20
-7.587613094915461
 30
0.0
 10
12.01268242468818
 20
-7.930333553675027
 30
0.0
  0
LINE
  5
B7
330
1F
100
AcDbEntity
  8
중심선
 48
0.8
100
AcDbLine
 10
-73.53731757531183
 20
0.0010749287238888
 30
0.0
 11
49.93768242468818
 21
0.0010749287239039
 31
0.0
  0
LINE
  5
B9
330
1F
100
AcDbEntity
  8
참조1
100
AcDbLine
 10
-8.963238685968843
 20
0.0010749287238892
 30
0.0
 11
-8.963238685968838
 21
-39.99892507127611
 31
0.0
  0
LINE
  5
BA
330
1F
100
AcDbEntity
  8
참조1
100
AcDbLine
 10
-8.963238685968838
 20
-39.99892507127611
 30
0.0
 11
-20.94709550027751
 21
-39.9989250712761
 31
0.0
  0
CIRCLE
  5
BB
330
1F
100
AcDbEntity
  8
해칭선
100
AcDbCircle
 10
0.0
 20
0.0
 30
0.0
 40
3.000000000000003
  0
INSERT
  5
BC
330
1F
100
AcDbEntity
  8
0
  6
Continuous
 62
     7
100
AcDbBlockReference
 66
     1
  2
블럭10
 10
-25.74009050743704
 20
-52.04609937292004
 30
0.0
  0
ATTRIB
  5
BD
330
BC
100
AcDbEntity
  8
FORMAT
 62
     2
100
AcDbText
 10
-34.92138579617833
 20
-49.97073246008785
 30
0.0
 40
4.233333333333333
  1
E1111040 [ 2 FLUTE ]
 41
0.75
  7
SLDTEXTSTYLE0
 11
-34.92138579617833
 21
-52.08739912675452
 31
0.0
100
AcDbAttribute
  2
AUTOATTR0
 70
     0
 74
     1
  0
SEQEND
  5
BE
330
BC
100
AcDbEntity
  8
0
  6
Continuous
 62
     7
  0
HATCH
  5
BF
330
1F
100
AcDbEntity
  8
중심선
100
AcDbHatch
 10
0.0
 20
0.0
 30
0.0
210
0.0
220
0.0
230
1.0
  2
SOLID
 70
     1
 71
     0
 91
        1
 92
        0
 93
        4
 72
     1
 10
-20.02518120305621
 20
-35.7989250712761
 11
-23.47145644689349
 21
-35.7989250712761
 72
     1
 10
-23.47145644689349
 20
-35.7989250712761
 11
-25.59968630609752
 21
-38.3352506518487
 72
     1
 10
-25.59968630609752
 20
-38.3352506518487
 11
-22.15337797714706
 21
-38.33521122254621
 72
     1
 10
-22.15337797714706
 20
-38.33521122254621
 11
-20.02518120305621
 21
-35.7989250712761
 97
        0
 75
     0
 76
     1
 98
        1
 10
-2.836578889342992
 20
0.0
  0
HATCH
  5
C0
330
1F
100
AcDbEntity
  8
중심선
100
AcDbHatch
 10
0.0
 20
0.0
 30
0.0
210
0.0
220
0.0
230
1.0
  2
SOLID
 70
     1
 71
     0
 91
        1
 92
        0
 93
        4
 72
     1
 10
-15.0124172120202
 20
-35.7989250712761
 11
-18.45869245585752
 21
-35.7989250712761
 72
     1
 10
-18.45869245585752
 20
-35.7989250712761
 11
-22.98983046421493
 21
-41.19892507127612
 72
     1
 10
-22.98983046421493
 20
-41.19892507127612
 11
-19.54355522037765
 21
-41.19892507127612
 72
     1
 10
-19.54355522037765
 20
-41.19892507127612
 11
-15.0124172120202
 21
-35.7989250712761
 97
        0
 75
     0
 76
     1
 98
        1
 10
-2.836578889342992
 20
0.0
  0
HATCH
  5
C1
330
1F
100
AcDbEntity
  8
중심선
100
AcDbHatch
 10
0.0
 20
0.0
 30
0.0
210
0.0
220
0.0
230
1.0
  2
SOLID
 70
     1
 71
     0
 91
        1
 92
        0
 93
        4
 72
     1
 10
-9.999653220984364
 20
-35.79892507127608
 11
-13.44592846482148
 21
-35.7989250712761
 72
     1
 10
-13.44592846482148
 20
-35.7989250712761
 11
-20.49436536671073
 21
-44.19892507127612
 72
     1
 10
-20.49436536671073
 20
-44.19892507127612
 11
-17.04809012287345
 21
-44.19892507127612
 72
     1
 10
-17.04809012287345
 20
-44.19892507127612
 11
-9.999653220984364
 21
-35.79892507127608
 97
        0
 75
     0
 76
     1
 98
        1
 10
-2.836578889342992
 20
0.0
  0
HATCH
  5
C2
330
1F
100
AcDbEntity
  8
중심선
100
AcDbHatch
 10
0.0
 20
0.0
 30
0.0
210
0.0
220
0.0
230
1.0
  2
SOLID
 70
     1
 71
     0
 91
        1
 92
        0
 93
        6
 72
     3
 10
-5.199762789972165
 20
-39.99892507132738
 11
3.960054785062284
 21
1.540882976769353E-10
 40
0.3939339440162627
 50
17.09539180608436
 51
320.0019657685081
 73
     0
 72
     1
 10
-3.516763134271569
 20
-38.58681907591441
 11
-1.211461260570504
 21
-36.65249236586646
 72
     3
 10
-5.199762790025011
 20
-39.99892507127625
 11
6.600054785286829
 21
-1.278976924368180E-13
 40
0.636358354079598
 50
39.99873849337413
 51
368.4976242363724
 73
     1
 72
     1
 10
1.225569701875598
 20
-39.03892507120613
 11
-6.519695483189089
 21
-39.03892507120613
 72
     1
 10
-6.519695483189089
 20
-39.03892507120613
 11
-6.519720527635023
 21
-40.95892507120602
 72
     1
 10
-6.519720527635023
 20
-40.95892507120602
 11
-2.078340758162986
 21
-40.95892507120599
 97
        0
 75
     0
 76
     1
 98
        1
 10
-2.836578889342992
 20
0.0
  0
DIMENSION
  5
C3
330
1F
100
AcDbEntity
  8
치수문자_일반주서
100
AcDbDimension
  2
_D
 10
12.01268242468817
 20
14.76357492872391
 30
0.0
 11
-9.903817575311827
 21
14.76357492872391
 31
0.0
 70
   160
  1
<>
 71
     2
 42
34.925
  3
SLDDIMSTYLE1
100
AcDbAlignedDimension
 13
46.93768242468818
 23
7.938574928723904
 33
0.0
 14
12.01268242468817
 24
7.932483411127289
 34
0.0
 50
0.0000000000000058
100
AcDbRotatedDimension
1001
ACAD
1000
DSTYLE
1002
{
1070
   171
1070
     6
1070
   273
1070
     7
1002
}
  0
DIMENSION
  5
D8
330
1F
100
AcDbEntity
  8
치수문자_일반주서
100
AcDbDimension
  2
_D_1
 10
-70.53731757531183
 20
29.96270874461621
 30
0.0
 11
-11.79981757531184
 21
29.96270874461621
 31
0.0
 70
   160
  1
<>
 71
     2
 42
117.475
  3
SLDDIMSTYLE1
100
AcDbAlignedDimension
 13
46.93768242468818
 23
7.938574928723904
 33
0.0
 14
-70.53731757531183
 24
6.938574928723878
 34
0.0
 50
0.0000000000000035
100
AcDbRotatedDimension
1001
ACAD
1000
DSTYLE
1002
{
1070
   171
1070
     6
1070
   273
1070
     7
1002
}
  0
DIMENSION
  5
EB
330
1F
100
AcDbEntity
  8
치수문자_일반주서
100
AcDbDimension
  2
_D_2
 10
-83.03731757531179
 20
-7.936425071276168
 30
0.0
 11
-83.03731757531182
 21
0.0010749287238888
 31
0.0
 70
   160
  1
%%c<>
 71
     2
 42
15.875
 52
-270.0
  3
SLDDIMSTYLE1
100
AcDbAlignedDimension
 13
-69.5373175753118
 23
7.938574928723883
 33
0.0
 14
-69.5373175753118
 24
-7.936425071276117
 34
0.0
 50
90.0000000000002
100
AcDbRotatedDimension
1001
ACAD
1000
DSTYLE
1002
{
1070
   171
1070
     6
1070
   273
1070
     7
1002
}
  0
DIMENSION
  5
100
330
1F
100
AcDbEntity
  8
치수문자_일반주서
100
AcDbDimension
  2
_D_3
 10
70.75705823012392
 20
-7.936425071276012
 30
0.0
 11
70.75705823012379
 21
28.54257492872399
 31
0.0
 70
   160
  1
%%c<>
 71
     2
 42
15.875
 52
-270.0
  3
SLDDIMSTYLE1
100
AcDbAlignedDimension
 13
46.93768242468818
 23
7.938574928723904
 33
0.0
 14
46.93768242468822
 24
-7.936425071276096
 34
0.0
 50
90.0000000000002
100
AcDbRotatedDimension
1001
ACAD
1000
DSTYLE
1002
{
1070
   171
1070
     6
1070
   273
1070
     7
1002
}
  0
LINE
  5
113
330
1F
100
AcDbEntity
  8
참조1
100
AcDbLine
 10
77.02524512937676
 20
7.441074928723896
 30
0.0
 11
77.02524512937676
 21
-7.438925071276109
 31
0.0
  0
LINE
  5
114
330
1F
100
AcDbEntity
  8
참조1
100
AcDbLine
 10
89.72524512937676
 20
5.441074928723896
 30
0.0
 11
77.02524512937676
 21
5.441074928723896
 31
0.0
  0
SOLID
  5
115
330
1F
100
AcDbEntity
  8
참조1
100
AcDbTrace
 10
77.02524512937676
 20
5.441074928723896
 30
0.0
 11
83.37524512937675
 21
4.425074928723896
 31
0.0
 12
83.37524512937675
 22
6.457074928723896
 32
0.0
 13
83.37524512937675
 23
6.457074928723896
 33
0.0
  0
LINE
  5
116
330
1F
100
AcDbEntity
  8
참조1
100
AcDbLine
 10
89.72524512937676
 20
-5.438925071276109
 30
0.0
 11
77.02524512937676
 21
-5.438925071276109
 31
0.0
  0
SOLID
  5
117
330
1F
100
AcDbEntity
  8
참조1
100
AcDbTrace
 10
77.02524512937676
 20
-5.438925071276109
 30
0.0
 11
83.37524512937675
 21
-6.454925071276109
 31
0.0
 12
83.37524512937675
 22
-4.422925071276109
 32
0.0
 13
83.37524512937675
 23
-4.422925071276109
 33
0.0
  0
MTEXT
  5
118
330
1F
100
AcDbEntity
  8
참조1
100
AcDbMText
 10
86.62535993993933
 20
11.06679249473997
 30
0.0
 40
3.5
 41
0.0
 71
     1
 72
     1
  1
A
  7
SLDTEXTSTYLE0
 73
     1
 44
1.0
  0
MTEXT
  5
119
330
1F
100
AcDbEntity
  8
참조1
100
AcDbMText
 10
86.62535993993933
 20
0.1867924947399633
 30
0.0
 40
3.5
 41
0.0
 71
     1
 72
     1
  1
A
  7
SLDTEXTSTYLE0
 73
     1
 44
1.0
  0
INSERT
  5
120
330
1F
100
AcDbEntity
  8
해칭선
100
AcDbBlockReference
  2
SW_DOWELSYMBOL_0
 10
0.0
 20
0.0
 30
0.0
  0
LINE
  5
2FC
330
1F
100
AcDbEntity
  8
외형선
  6
Continuous
370
    15
100
AcDbLine
 10
-51.42064257531185
 20
6.287574928723849
 30
0.0
 11
-41.23524257531183
 21
6.287574928723849
 31
0.0
  0
LINE
  5
2FD
330
1F
100
AcDbEntity
  8
외형선
  6
Continuous
370
    15
100
AcDbLine
 10
-51.42064257531185
 20
6.287574928723949
 30
0.0
 11
-53.0716425753118
 21
7.93857492872386
 31
0.0
  0
LINE
  5
2FE
330
1F
100
AcDbEntity
  8
외형선
  6
Continuous
370
    15
100
AcDbLine
 10
-41.23524257531194
 20
6.287574928723949
 30
0.0
 11
-39.58424257531193
 21
7.93857492872386
 31
0.0
  0
LINE
  5
300
330
1F
100
AcDbEntity
  8
외형선
  6
Continuous
370
    15
100
AcDbLine
 10
-53.07164257531183
 20
7.938574928723886
 30
0.0
 11
-69.5373175753118
 21
7.938574928723884
 31
0.0
  0
ENDSEC
  0
SECTION
  2
OBJECTS
  0
DICTIONARY
  5
C
330
0
100
AcDbDictionary
281
     1
  3
ACAD_GROUP
350
D
  3
ACAD_IMAGE_VARS
350
144
  3
ACAD_LAYOUT
350
1A
  3
ACAD_MLINESTYLE
350
17
  3
ACAD_PLOTSETTINGS
350
19
  3
ACAD_PLOTSTYLENAME
350
E
  3
ACAD_SCALELIST
350
47
  3
APPDATA
350
142
  3
DWGPROPS
350
301
  0
DICTIONARY
  5
1D8
330
2
100
AcDbDictionary
280
     1
281
     1
  3
ACAD_LAYERSTATES
360
1D9
  0
DICTIONARY
  5
D
102
{ACAD_REACTORS
330
C
102
}
330
C
100
AcDbDictionary
281
     1
  0
RASTERVARIABLES
  5
144
102
{ACAD_REACTORS
330
C
102
}
330
C
100
AcDbRasterVariables
 90
        0
 70
     1
 71
     1
 72
     1
  0
DICTIONARY
  5
1A
102
{ACAD_REACTORS
330
C
102
}
330
C
100
AcDbDictionary
281
     1
  3
Layout1
350
1E
  3
Layout2
350
26
  3
Model
350
22
  0
DICTIONARY
  5
17
102
{ACAD_REACTORS
330
C
102
}
330
C
100
AcDbDictionary
281
     1
  3
Standard
350
18
  0
DICTIONARY
  5
19
102
{ACAD_REACTORS
330
C
102
}
330
C
100
AcDbDictionary
281
     1
  0
ACDBDICTIONARYWDFLT
  5
E
102
{ACAD_REACTORS
330
C
102
}
330
C
100
AcDbDictionary
281
     1
  3
Normal
350
F
100
AcDbDictionaryWithDefault
340
F
  0
DICTIONARY
  5
47
102
{ACAD_REACTORS
330
C
102
}
330
C
100
AcDbDictionary
281
     1
  3
A0
350
48
  3
A1
350
49
  3
A2
350
4A
  3
A3
350
4B
  3
A4
350
4C
  3
A5
350
4D
  3
A6
350
4E
  3
A7
350
4F
  3
A8
350
50
  3
A9
350
51
  3
B0
350
52
  3
B1
350
53
  3
B2
350
54
  3
B3
350
55
  3
B4
350
56
  3
B5
350
57
  3
B6
350
58
  3
B7
350
59
  3
B8
350
5A
  3
B9
350
5B
  3
C0
350
5C
  3
C1
350
5D
  3
C2
350
5E
  3
C3
350
5F
  3
C4
350
60
  3
C5
350
61
  3
C6
350
62
  3
C7
350
63
  3
C8
350
64
  3
C9
350
65
  3
D0
350
66
  3
D1
350
67
  3
D2
350
68
  0
DICTIONARY
  5
142
102
{ACAD_REACTORS
330
C
102
}
330
C
100
AcDbDictionary
281
     1
  0
XRECORD
  5
301
102
{ACAD_REACTORS
330
C
102
}
330
C
100
AcDbXrecord
280
     1
  1
DWGPROPS COOKIE
  2

  3

  4

  6

  7

  8
12017012
  9

300
=
301
=
302
=
303
=
304
=
305
=
306
=
307
=
308
=
309
=
 40
0.0
 41
2458323.329228368
 42
2458324.052419144
  1

 90
        0
  0
DICTIONARY
  5
1D9
102
{ACAD_REACTORS
330
1D8
102
}
330
1D8
100
AcDbDictionary
281
     1
  0
LAYOUT
  5
1E
102
{ACAD_REACTORS
330
1A
102
}
330
1A
100
AcDbPlotSettings
  1

  2
none_device
  4

  6

 40
0.0
 41
0.0
 42
0.0
 43
0.0
 44
0.0
 45
0.0
 46
0.0
 47
0.0
 48
0.0
 49
0.0
140
0.0
141
0.0
142
1.0
143
1.0
 70
   688
 72
     1
 73
     0
 74
     5
  7

 75
    16
147
1.0
148
0.0
149
0.0
100
AcDbLayout
  1
Layout1
 70
     1
 71
     1
 10
0.0
 20
0.0
 11
420.0
 21
297.0
 12
0.0
 22
0.0
 32
0.0
 14
1.000000000000000E+20
 24
1.000000000000000E+20
 34
1.000000000000000E+20
 15
-1.000000000000000E+20
 25
-1.000000000000000E+20
 35
-1.000000000000000E+20
146
0.0
 13
0.0
 23
0.0
 33
0.0
 16
1.0
 26
0.0
 36
0.0
 17
0.0
 27
1.0
 37
0.0
 76
     0
330
1B
  0
LAYOUT
  5
26
102
{ACAD_REACTORS
330
1A
102
}
330
1A
100
AcDbPlotSettings
  1

  2
none_device
  4

  6

 40
0.0
 41
0.0
 42
0.0
 43
0.0
 44
0.0
 45
0.0
 46
0.0
 47
0.0
 48
0.0
 49
0.0
140
0.0
141
0.0
142
1.0
143
1.0
 70
   688
 72
     1
 73
     0
 74
     5
  7

 75
    16
147
1.0
148
0.0
149
0.0
100
AcDbLayout
  1
Layout2
 70
     1
 71
     2
 10
0.0
 20
0.0
 11
0.0
 21
0.0
 12
0.0
 22
0.0
 32
0.0
 14
0.0
 24
0.0
 34
0.0
 15
0.0
 25
0.0
 35
0.0
146
0.0
 13
0.0
 23
0.0
 33
0.0
 16
1.0
 26
0.0
 36
0.0
 17
0.0
 27
1.0
 37
0.0
 76
     0
330
23
  0
LAYOUT
  5
22
102
{ACAD_REACTORS
330
1A
102
}
330
1A
100
AcDbPlotSettings
  1

  2
none_device
  4
ANSI_A_(11.00_x_8.50_Inches)
  6

 40
6.35
 41
19.05
 42
6.35000508
 43
19.05000254
 44
279.4
 45
215.9
 46
134.3206770003757
 47
78.41418674672654
 48
0.0
 49
0.0
140
0.0
141
0.0
142
0.0602593424210521
143
1.0
 70
  1696
 72
     0
 73
     0
 74
     0
  7

 75
     0
147
0.0235690232323232
148
0.0
149
0.0
100
AcDbLayout
  1
Model
 70
     1
 71
     0
 10
0.0
 20
0.0
 11
420.0
 21
297.0
 12
0.0
 22
0.0
 32
0.0
 14
1.000000000000000E+20
 24
1.000000000000000E+20
 34
1.000000000000000E+20
 15
-1.000000000000000E+20
 25
-1.000000000000000E+20
 35
-1.000000000000000E+20
146
0.0
 13
0.0
 23
0.0
 33
0.0
 16
1.0
 26
0.0
 36
0.0
 17
0.0
 27
1.0
 37
0.0
 76
     0
330
1F
331
29
  0
MLINESTYLE
  5
18
102
{ACAD_REACTORS
330
17
102
}
330
17
100
AcDbMlineStyle
  2
Standard
 70
     0
  3

 62
   256
 51
90.0
 52
90.0
 71
     2
 49
0.5
 62
   256
  6
BYLAYER
 49
-0.5
 62
   256
  6
BYLAYER
  0
ACDBPLACEHOLDER
  5
F
102
{ACAD_REACTORS
330
E
102
}
330
E
  0
SCALE
  5
48
102
{ACAD_REACTORS
330
47
102
}
330
47
100
AcDbScale
 70
     0
300
1:1
140
1.0
141
1.0
290
     1
  0
SCALE
  5
49
102
{ACAD_REACTORS
330
47
102
}
330
47
100
AcDbScale
 70
     0
300
1:2
140
1.0
141
2.0
290
     0
  0
SCALE
  5
4A
102
{ACAD_REACTORS
330
47
102
}
330
47
100
AcDbScale
 70
     0
300
1:4
140
1.0
141
4.0
290
     0
  0
SCALE
  5
4B
102
{ACAD_REACTORS
330
47
102
}
330
47
100
AcDbScale
 70
     0
300
1:5
140
1.0
141
5.0
290
     0
  0
SCALE
  5
4C
102
{ACAD_REACTORS
330
47
102
}
330
47
100
AcDbScale
 70
     0
300
1:8
140
1.0
141
8.0
290
     0
  0
SCALE
  5
4D
102
{ACAD_REACTORS
330
47
102
}
330
47
100
AcDbScale
 70
     0
300
1:10
140
1.0
141
10.0
290
     0
  0
SCALE
  5
4E
102
{ACAD_REACTORS
330
47
102
}
330
47
100
AcDbScale
 70
     0
300
1:16
140
1.0
141
16.0
290
     0
  0
SCALE
  5
4F
102
{ACAD_REACTORS
330
47
102
}
330
47
100
AcDbScale
 70
     0
300
1:20
140
1.0
141
20.0
290
     0
  0
SCALE
  5
50
102
{ACAD_REACTORS
330
47
102
}
330
47
100
AcDbScale
 70
     0
300
1:30
140
1.0
141
30.0
290
     0
  0
SCALE
  5
51
102
{ACAD_REACTORS
330
47
102
}
330
47
100
AcDbScale
 70
     0
300
1:40
140
1.0
141
40.0
290
     0
  0
SCALE
  5
52
102
{ACAD_REACTORS
330
47
102
}
330
47
100
AcDbScale
 70
     0
300
1:50
140
1.0
141
50.0
290
     0
  0
SCALE
  5
53
102
{ACAD_REACTORS
330
47
102
}
330
47
100
AcDbScale
 70
     0
300
1:100
140
1.0
141
100.0
290
     0
  0
SCALE
  5
54
102
{ACAD_REACTORS
330
47
102
}
330
47
100
AcDbScale
 70
     0
300
2:1
140
2.0
141
1.0
290
     0
  0
SCALE
  5
55
102
{ACAD_REACTORS
330
47
102
}
330
47
100
AcDbScale
 70
     0
300
4:1
140
4.0
141
1.0
290
     0
  0
SCALE
  5
56
102
{ACAD_REACTORS
330
47
102
}
330
47
100
AcDbScale
 70
     0
300
8:1
140
8.0
141
1.0
290
     0
  0
SCALE
  5
57
102
{ACAD_REACTORS
330
47
102
}
330
47
100
AcDbScale
 70
     0
300
10:1
140
10.0
141
1.0
290
     0
  0
SCALE
  5
58
102
{ACAD_REACTORS
330
47
102
}
330
47
100
AcDbScale
 70
     0
300
100:1
140
100.0
141
1.0
290
     0
  0
SCALE
  5
59
102
{ACAD_REACTORS
330
47
102
}
330
47
100
AcDbScale
 70
     0
300
1/128" = 1'-0"
140
0.0078125
141
12.0
290
     0
  0
SCALE
  5
5A
102
{ACAD_REACTORS
330
47
102
}
330
47
100
AcDbScale
 70
     0
300
1/64" = 1'-0"
140
0.015625
141
12.0
290
     0
  0
SCALE
  5
5B
102
{ACAD_REACTORS
330
47
102
}
330
47
100
AcDbScale
 70
     0
300
1/32" = 1'-0"
140
0.03125
141
12.0
290
     0
  0
SCALE
  5
5C
102
{ACAD_REACTORS
330
47
102
}
330
47
100
AcDbScale
 70
     0
300
1/16" = 1'-0"
140
0.0625
141
12.0
290
     0
  0
SCALE
  5
5D
102
{ACAD_REACTORS
330
47
102
}
330
47
100
AcDbScale
 70
     0
300
3/32" = 1'-0"
140
0.09375
141
12.0
290
     0
  0
SCALE
  5
5E
102
{ACAD_REACTORS
330
47
102
}
330
47
100
AcDbScale
 70
     0
300
1/8" = 1'-0"
140
0.125
141
12.0
290
     0
  0
SCALE
  5
5F
102
{ACAD_REACTORS
330
47
102
}
330
47
100
AcDbScale
 70
     0
300
3/16" = 1'-0"
140
0.1875
141
12.0
290
     0
  0
SCALE
  5
60
102
{ACAD_REACTORS
330
47
102
}
330
47
100
AcDbScale
 70
     0
300
1/4" = 1'-0"
140
0.25
141
12.0
290
     0
  0
SCALE
  5
61
102
{ACAD_REACTORS
330
47
102
}
330
47
100
AcDbScale
 70
     0
300
3/8" = 1'-0"
140
0.375
141
12.0
290
     0
  0
SCALE
  5
62
102
{ACAD_REACTORS
330
47
102
}
330
47
100
AcDbScale
 70
     0
300
1/2" = 1'-0"
140
0.5
141
12.0
290
     0
  0
SCALE
  5
63
102
{ACAD_REACTORS
330
47
102
}
330
47
100
AcDbScale
 70
     0
300
3/4" = 1'-0"
140
0.75
141
12.0
290
     0
  0
SCALE
  5
64
102
{ACAD_REACTORS
330
47
102
}
330
47
100
AcDbScale
 70
     0
300
1" = 1'-0"
140
1.0
141
12.0
290
     0
  0
SCALE
  5
65
102
{ACAD_REACTORS
330
47
102
}
330
47
100
AcDbScale
 70
     0
300
1-1/2" = 1'-0"
140
1.5
141
12.0
290
     0
  0
SCALE
  5
66
102
{ACAD_REACTORS
330
47
102
}
330
47
100
AcDbScale
 70
     0
300
3" = 1'-0"
140
3.0
141
12.0
290
     0
  0
SCALE
  5
67
102
{ACAD_REACTORS
330
47
102
}
330
47
100
AcDbScale
 70
     0
300
6" = 1'-0"
140
6.0
141
12.0
290
     0
  0
SCALE
  5
68
102
{ACAD_REACTORS
330
47
102
}
330
47
100
AcDbScale
 70
     0
300
1'-0" = 1'-0"
140
12.0
141
12.0
290
     0
  0
ENDSEC
  0
EOF
