  0
SECTION
  2
HEADER
  9
$ACADVER
  1
AC1015
  9
$ACADMAINTVER
 70
     6
  9
$DWGCODEPAGE
  3
ANSI_949
  9
$INSBASE
 10
0.0
 20
0.0
 30
0.0
  9
$EXTMIN
 10
-79.17518467149226
 20
-49.97073246008785
 30
0.0
  9
$EXTMAX
 10
89.72524512937676
 20
35.98432492872389
 30
0.0
  9
$LIMMIN
 10
0.0
 20
0.0
  9
$LIMMAX
 10
420.0
 20
297.0
  9
$ORTHOMODE
 70
     1
  9
$REGENMODE
 70
     1
  9
$FILLMODE
 70
     1
  9
$QTEXTMODE
 70
     0
  9
$MIRRTEXT
 70
     1
  9
$LTSCALE
 40
1.0
  9
$ATTMODE
 70
     1
  9
$TEXTSIZE
 40
3.5
  9
$TRACEWID
 40
1.0
  9
$TEXTSTYLE
  7
Standard
  9
$CLAYER
  8
0
  9
$CELTYPE
  6
ByLayer
  9
$CECOLOR
 62
   256
  9
$CELTSCALE
 40
1.0
  9
$DISPSILH
 70
     0
  9
$DIMSCALE
 40
1.0
  9
$DIMASZ
 40
3.302
  9
$DIMEXO
 40
1.0
  9
$DIMDLI
 40
3.75
  9
$DIMRND
 40
0.0
  9
$DIMDLE
 40
0.0
  9
$DIMEXE
 40
1.0
  9
$DIMTP
 40
0.0
  9
$DIMTM
 40
0.0
  9
$DIMTXT
 40
3.5
  9
$DIMCEN
 40
2.5
  9
$DIMTSZ
 40
0.0
  9
$DIMTOL
 70
     0
  9
$DIMLIM
 70
     0
  9
$DIMTIH
 70
     1
  9
$DIMTOH
 70
     1
  9
$DIMSE1
 70
     0
  9
$DIMSE2
 70
     0
  9
$DIMTAD
 70
     1
  9
$DIMZIN
 70
     0
  9
$DIMBLK
  1

  9
$DIMASO
 70
     1
  9
$DIMSHO
 70
     1
  9
$DIMPOST
  1

  9
$DIMAPOST
  1

  9
$DIMALT
 70
     0
  9
$DIMALTD
 70
     3
  9
$DIMALTF
 40
0.0393700787401575
  9
$DIMLFAC
 40
1.0
  9
$DIMTOFL
 70
     1
  9
$DIMTVP
 40
0.0
  9
$DIMTIX
 70
     0
  9
$DIMSOXD
 70
     0
  9
$DIMSAH
 70
     0
  9
$DIMBLK1
  1

  9
$DIMBLK2
  1

  9
$DIMSTYLE
  2
ISO-25
  9
$DIMCLRD
 70
     0
  9
$DIMCLRE
 70
     0
  9
$DIMCLRT
 70
     0
  9
$DIMTFAC
 40
1.0
  9
$DIMGAP
 40
1.524
  9
$DIMJUST
 70
     0
  9
$DIMSD1
 70
     0
  9
$DIMSD2
 70
     0
  9
$DIMTOLJ
 70
     0
  9
$DIMTZIN
 70
     0
  9
$DIMALTZ
 70
     0
  9
$DIMALTTZ
 70
     0
  9
$DIMUPT
 70
     0
  9
$DIMDEC
 70
     2
  9
$DIMTDEC
 70
     2
  9
$DIMALTU
 70
     2
  9
$DIMALTTD
 70
     3
  9
$DIMTXSTY
  7
Standard
  9
$DIMAUNIT
 70
     0
  9
$DIMADEC
 70
     2
  9
$DIMALTRND
 40
0.0
  9
$DIMAZIN
 70
     0
  9
$DIMDSEP
 70
    44
  9
$DIMATFIT
 70
     3
  9
$DIMFRAC
 70
     0
  9
$DIMLDRBLK
  1

  9
$DIMLUNIT
 70
     2
  9
$DIMLWD
 70
    -2
  9
$DIMLWE
 70
    -2
  9
$DIMTMOVE
 70
     0
  9
$LUNITS
 70
     2
  9
$LUPREC
 70
     2
  9
$SKETCHINC
 40
1.0
  9
$FILLETRAD
 40
10.0
  9
$AUNITS
 70
     0
  9
$AUPREC
 70
     2
  9
$MENU
  1
.
  9
$ELEVATION
 40
0.0
  9
$PELEVATION
 40
0.0
  9
$THICKNESS
 40
0.0
  9
$LIMCHECK
 70
     0
  9
$CHAMFERA
 40
0.0
  9
$CHAMFERB
 40
0.0
  9
$CHAMFERC
 40
0.0
  9
$CHAMFERD
 40
0.0
  9
$SKPOLY
 70
     0
  9
$TDCREATE
 40
2458323.704119653
  9
$TDUCREATE
 40
2458323.329119653
  9
$TDUPDATE
 40
2458330.779165451
  9
$TDUUPDATE
 40
2458330.404165451
  9
$TDINDWG
 40
0.0008646991
  9
$TDUSRTIMER
 40
2458330.403528542
  9
$USRTIMER
 70
     1
  9
$ANGBASE
 50
0.0
  9
$ANGDIR
 70
     0
  9
$PDMODE
 70
     0
  9
$PDSIZE
 40
-1.0
  9
$PLINEWID
 40
0.0
  9
$SPLFRAME
 70
     0
  9
$SPLINETYPE
 70
     6
  9
$SPLINESEGS
 70
     8
  9
$HANDSEED
  5
2EB
  9
$SURFTAB1
 70
     6
  9
$SURFTAB2
 70
     6
  9
$SURFTYPE
 70
     6
  9
$SURFU
 70
     6
  9
$SURFV
 70
     6
  9
$UCSBASE
  2

  9
$UCSNAME
  2

  9
$UCSORG
 10
0.0
 20
0.0
 30
0.0
  9
$UCSXDIR
 10
1.0
 20
0.0
 30
0.0
  9
$UCSYDIR
 10
0.0
 20
1.0
 30
0.0
  9
$UCSORTHOREF
  2

  9
$UCSORTHOVIEW
 70
     0
  9
$UCSORGTOP
 10
0.0
 20
0.0
 30
0.0
  9
$UCSORGBOTTOM
 10
0.0
 20
0.0
 30
0.0
  9
$UCSORGLEFT
 10
0.0
 20
0.0
 30
0.0
  9
$UCSORGRIGHT
 10
0.0
 20
0.0
 30
0.0
  9
$UCSORGFRONT
 10
0.0
 20
0.0
 30
0.0
  9
$UCSORGBACK
 10
0.0
 20
0.0
 30
0.0
  9
$PUCSBASE
  2

  9
$PUCSNAME
  2

  9
$PUCSORG
 10
0.0
 20
0.0
 30
0.0
  9
$PUCSXDIR
 10
1.0
 20
0.0
 30
0.0
  9
$PUCSYDIR
 10
0.0
 20
1.0
 30
0.0
  9
$PUCSORTHOREF
  2

  9
$PUCSORTHOVIEW
 70
     0
  9
$PUCSORGTOP
 10
0.0
 20
0.0
 30
0.0
  9
$PUCSORGBOTTOM
 10
0.0
 20
0.0
 30
0.0
  9
$PUCSORGLEFT
 10
0.0
 20
0.0
 30
0.0
  9
$PUCSORGRIGHT
 10
0.0
 20
0.0
 30
0.0
  9
$PUCSORGFRONT
 10
0.0
 20
0.0
 30
0.0
  9
$PUCSORGBACK
 10
0.0
 20
0.0
 30
0.0
  9
$USERI1
 70
     0
  9
$USERI2
 70
     0
  9
$USERI3
 70
     0
  9
$USERI4
 70
     0
  9
$USERI5
 70
     0
  9
$USERR1
 40
0.0
  9
$USERR2
 40
0.0
  9
$USERR3
 40
0.0
  9
$USERR4
 40
0.0
  9
$USERR5
 40
0.0
  9
$WORLDVIEW
 70
     1
  9
$SHADEDGE
 70
     3
  9
$SHADEDIF
 70
    70
  9
$TILEMODE
 70
     1
  9
$MAXACTVP
 70
    64
  9
$PINSBASE
 10
0.0
 20
0.0
 30
0.0
  9
$PLIMCHECK
 70
     0
  9
$PEXTMIN
 10
1.000000000000000E+20
 20
1.000000000000000E+20
 30
1.000000000000000E+20
  9
$PEXTMAX
 10
-1.000000000000000E+20
 20
-1.000000000000000E+20
 30
-1.000000000000000E+20
  9
$PLIMMIN
 10
0.0
 20
0.0
  9
$PLIMMAX
 10
0.0
 20
0.0
  9
$UNITMODE
 70
     0
  9
$VISRETAIN
 70
     1
  9
$PLINEGEN
 70
     0
  9
$PSLTSCALE
 70
     1
  9
$TREEDEPTH
 70
  3020
  9
$CMLSTYLE
  2
Standard
  9
$CMLJUST
 70
     0
  9
$CMLSCALE
 40
20.0
  9
$PROXYGRAPHICS
 70
     1
  9
$MEASUREMENT
 70
     1
  9
$CELWEIGHT
370
    -1
  9
$ENDCAPS
280
     0
  9
$JOINSTYLE
280
     0
  9
$LWDISPLAY
290
     1
  9
$INSUNITS
 70
     4
  9
$HYPERLINKBASE
  1

  9
$STYLESHEET
  1

  9
$XEDIT
290
     1
  9
$CEPSNTYPE
380
     0
  9
$PSTYLEMODE
290
     1
  9
$FINGERPRINTGUID
  2
{B8DC4AD2-AE6C-40EB-A659-3B0CC833CA8D}
  9
$VERSIONGUID
  2
{FAEB1C32-E019-11D5-929B-00C0DF256EC4}
  9
$EXTNAMES
290
     1
  9
$PSVPSCALE
 40
0.0
  9
$OLESTARTUP
290
     0
  0
ENDSEC
  0
SECTION
  2
CLASSES
  0
CLASS
  1
ACDBDICTIONARYWDFLT
  2
AcDbDictionaryWithDefault
  3
ObjectDBX Classes
 90
        0
280
     0
281
     0
  0
CLASS
  1
VISUALSTYLE
  2
AcDbVisualStyle
  3
ObjectDBX Classes
 90
     4095
280
     0
281
     0
  0
CLASS
  1
MATERIAL
  2
AcDbMaterial
  3
ObjectDBX Classes
 90
     1153
280
     0
281
     0
  0
CLASS
  1
SCALE
  2
AcDbScale
  3
ObjectDBX Classes
 90
     1153
280
     0
281
     0
  0
CLASS
  1
SUN
  2
AcDbSun
  3
SCENEOE
 90
     1153
280
     0
281
     0
  0
CLASS
  1
ACDBPLACEHOLDER
  2
AcDbPlaceHolder
  3
ObjectDBX Classes
 90
        0
280
     0
281
     0
  0
CLASS
  1
LAYOUT
  2
AcDbLayout
  3
ObjectDBX Classes
 90
        0
280
     0
281
     0
  0
CLASS
  1
TABLESTYLE
  2
AcDbTableStyle
  3
ObjectDBX Classes
 90
     4095
280
     0
281
     0
  0
CLASS
  1
MLEADERSTYLE
  2
AcDbMLeaderStyle
  3
ACDB_MLEADERSTYLE_CLASS
 90
     4095
280
     0
281
     0
  0
CLASS
  1
RASTERVARIABLES
  2
AcDbRasterVariables
  3
ISM
 90
        0
280
     0
281
     0
  0
CLASS
  1
DIMASSOC
  2
AcDbDimAssoc
  3
"AcDbDimAssoc|Product Desc:     AcDim ARX App For Dimension|Company:          Autodesk, Inc.|WEB Address:      www.autodesk.com"
 90
        0
280
     0
281
     0
  0
ENDSEC
  0
SECTION
  2
TABLES
  0
TABLE
  2
VPORT
  5
8
330
0
100
AcDbSymbolTable
 70
     1
  0
VPORT
  5
29
330
8
100
AcDbSymbolTableRecord
100
AcDbViewportTableRecord
  2
*Active
 70
     0
 10
0.0
 20
0.0
 11
1.0
 21
1.0
 12
28.18630119302777
 22
-7.039143105438631
 13
0.0
 23
0.0
 14
10.0
 24
10.0
 15
10.0
 25
10.0
 16
0.0
 26
0.0
 36
1.0
 17
0.0
 27
0.0
 37
0.0
 40
89.55705744828806
 41
1.516441005802708
 42
50.0
 43
0.0
 44
0.0
 50
0.0
 51
0.0
 71
    16
 72
  2000
 73
     1
 74
     3
 75
     0
 76
     0
 77
     0
 78
     0
281
     0
 65
     1
110
0.0
120
0.0
130
0.0
111
1.0
121
0.0
131
0.0
112
0.0
122
1.0
132
0.0
 79
     0
146
0.0
  0
ENDTAB
  0
TABLE
  2
LTYPE
  5
5
330
0
100
AcDbSymbolTable
 70
     6
  0
LTYPE
  5
14
330
5
100
AcDbSymbolTableRecord
100
AcDbLinetypeTableRecord
  2
ByBlock
 70
     0
  3

 72
    65
 73
     0
 40
0.0
  0
LTYPE
  5
15
330
5
100
AcDbSymbolTableRecord
100
AcDbLinetypeTableRecord
  2
ByLayer
 70
     0
  3

 72
    65
 73
     0
 40
0.0
  0
LTYPE
  5
16
330
5
100
AcDbSymbolTableRecord
100
AcDbLinetypeTableRecord
  2
Continuous
 70
     0
  3
Solid line
 72
    65
 73
     0
 40
0.0
  0
LTYPE
  5
6A
330
5
100
AcDbSymbolTableRecord
100
AcDbLinetypeTableRecord
  2
HIDDEN
 70
     0
  3
Hidden __ __ __ __ __ __ __ __ __ __ __ __ __ __
 72
    65
 73
     2
 40
1.905
 49
1.27
 74
     0
 49
-0.635
 74
     0
  0
LTYPE
  5
6B
330
5
100
AcDbSymbolTableRecord
100
AcDbLinetypeTableRecord
  2
PHANTOM
 70
     0
  3
Phantom ______  __  __  ______  __  __  ______
 72
    65
 73
     6
 40
12.7
 49
6.35
 74
     0
 49
-1.27
 74
     0
 49
1.27
 74
     0
 49
-1.27
 74
     0
 49
1.27
 74
     0
 49
-1.27
 74
     0
  0
LTYPE
  5
6C
330
5
100
AcDbSymbolTableRecord
100
AcDbLinetypeTableRecord
  2
CENTER
 70
     0
  3
Center ____ _ ____ _ ____ _ ____ _ ____ _ ____
 72
    65
 73
     4
 40
10.16
 49
6.35
 74
     0
 49
-1.27
 74
     0
 49
1.27
 74
     0
 49
-1.27
 74
     0
  0
LTYPE
  5
6D
330
5
100
AcDbSymbolTableRecord
100
AcDbLinetypeTableRecord
  2
CENTERX2
 70
     0
  3
Center (2x) ________  __  ________  __  _____
 72
    65
 73
     4
 40
20.32
 49
12.7
 74
     0
 49
-2.54
 74
     0
 49
2.54
 74
     0
 49
-2.54
 74
     0
  0
LTYPE
  5
6E
330
5
100
AcDbSymbolTableRecord
100
AcDbLinetypeTableRecord
  2
DOT2
 70
     0
  3
Dot (.5x) ........................................
 72
    65
 73
     2
 40
0.635
 49
0.0
 74
     0
 49
-0.635
 74
     0
  0
ENDTAB
  0
TABLE
  2
LAYER
  5
2
102
{ACAD_XDICTIONARY
360
1E4
102
}
330
0
100
AcDbSymbolTable
 70
    18
  0
LAYER
  5
10
330
2
100
AcDbSymbolTableRecord
100
AcDbLayerTableRecord
  2
0
 70
     0
 62
     7
  6
Continuous
370
    -3
390
F
  0
LAYER
  5
6F
330
2
100
AcDbSymbolTableRecord
100
AcDbLayerTableRecord
  2
FORMAT
 70
     0
 62
     2
  6
Continuous
370
    -3
390
F
  0
LAYER
  5
70
330
2
100
AcDbSymbolTableRecord
100
AcDbLayerTableRecord
  2
외형선
 70
     0
 62
     4
  6
Continuous
370
    30
390
F
  0
LAYER
  5
71
330
2
100
AcDbSymbolTableRecord
100
AcDbLayerTableRecord
  2
숨은선
 70
     0
 62
     2
  6
HIDDEN
370
    15
390
F
  0
LAYER
  5
72
330
2
100
AcDbSymbolTableRecord
100
AcDbLayerTableRecord
  2
중심선
 70
     0
 62
     1
  6
CENTERX2
370
    -3
390
F
  0
LAYER
  5
73
330
2
100
AcDbSymbolTableRecord
100
AcDbLayerTableRecord
  2
파단선
 70
     0
 62
     4
  6
Continuous
370
    -3
390
F
  0
LAYER
  5
74
330
2
100
AcDbSymbolTableRecord
100
AcDbLayerTableRecord
  2
해칭선
 70
     0
 62
   100
  6
Continuous
370
    -3
390
F
  0
LAYER
  5
75
330
2
100
AcDbSymbolTableRecord
100
AcDbLayerTableRecord
  2
가는실선
 70
     0
 62
     4
  6
Continuous
370
    -3
390
F
  0
LAYER
  5
76
330
2
100
AcDbSymbolTableRecord
100
AcDbLayerTableRecord
  2
치수_보조선
 70
     0
 62
     4
  6
Continuous
370
    -3
390
F
  0
LAYER
  5
77
330
2
100
AcDbSymbolTableRecord
100
AcDbLayerTableRecord
  2
치수문자_일반주서
 70
     0
 62
     7
  6
Continuous
370
    15
390
F
  0
LAYER
  5
78
330
2
100
AcDbSymbolTableRecord
100
AcDbLayerTableRecord
  2
개별주서
 70
     0
 62
   100
  6
Continuous
370
    30
390
F
  0
LAYER
  5
79
330
2
100
AcDbSymbolTableRecord
100
AcDbLayerTableRecord
  2
중간선
 70
     0
 62
     2
  6
Continuous
370
    15
390
F
  0
LAYER
  5
7A
330
2
100
AcDbSymbolTableRecord
100
AcDbLayerTableRecord
  2
윤곽선
 70
     0
 62
     3
  6
Continuous
370
    40
390
F
  0
LAYER
  5
7B
330
2
100
AcDbSymbolTableRecord
100
AcDbLayerTableRecord
  2
중심마크
 70
     0
 62
   100
  6
Continuous
370
    30
390
F
  0
LAYER
  5
7C
330
2
100
AcDbSymbolTableRecord
100
AcDbLayerTableRecord
  2
가상선
 70
     0
 62
     4
  6
PHANTOM
370
    -3
390
F
  0
LAYER
  5
7D
330
2
100
AcDbSymbolTableRecord
100
AcDbLayerTableRecord
  2
특수지정선
 70
     0
 62
     5
  6
CENTERX2
370
    60
390
F
  0
LAYER
  5
7E
330
2
100
AcDbSymbolTableRecord
100
AcDbLayerTableRecord
  2
참조1
 70
     0
 62
    -4
  6
Continuous
370
    -3
390
F
  0
LAYER
  5
152
330
2
100
AcDbSymbolTableRecord
100
AcDbLayerTableRecord
  2
Defpoints
 70
     0
 62
     7
  6
Continuous
290
     0
370
    -3
390
F
  0
ENDTAB
  0
TABLE
  2
STYLE
  5
3
330
0
100
AcDbSymbolTable
 70
     2
  0
STYLE
  5
11
330
3
100
AcDbSymbolTableRecord
100
AcDbTextStyleTableRecord
  2
Standard
 70
     0
 40
0.0
 41
1.0
 50
0.0
 71
     0
 42
3.5
  3
txt
  4

  0
STYLE
  5
94
330
3
100
AcDbSymbolTableRecord
100
AcDbTextStyleTableRecord
  2
SLDTEXTSTYLE0
 70
     0
 40
0.0
 41
0.75
 50
0.0
 71
     0
 42
3.5
  3
TXT
  4

  0
ENDTAB
  0
TABLE
  2
VIEW
  5
6
330
0
100
AcDbSymbolTable
 70
     0
  0
ENDTAB
  0
TABLE
  2
UCS
  5
7
330
0
100
AcDbSymbolTable
 70
     0
  0
ENDTAB
  0
TABLE
  2
APPID
  5
9
330
0
100
AcDbSymbolTable
 70
     2
  0
APPID
  5
12
330
9
100
AcDbSymbolTableRecord
100
AcDbRegAppTableRecord
  2
ACAD
 70
     0
  0
APPID
  5
2E9
330
9
100
AcDbSymbolTableRecord
100
AcDbRegAppTableRecord
  2
PE_DIMMEASUREMENT
 70
     0
  0
ENDTAB
  0
TABLE
  2
DIMSTYLE
  5
A
330
0
100
AcDbSymbolTable
 70
     4
100
AcDbDimStyleTable
  0
DIMSTYLE
105
27
330
A
100
AcDbSymbolTableRecord
100
AcDbDimStyleTableRecord
  2
ISO-25
 70
     0
 41
2.5
 42
0.625
 43
3.75
 44
1.25
 73
     0
 74
     0
 77
     1
 78
     8
140
2.5
141
2.5
143
0.03937007874016
147
0.625
171
     3
172
     1
178
     0
271
     2
272
     2
274
     3
278
    44
283
     0
284
     8
340
11
  0
DIMSTYLE
105
CF
330
A
100
AcDbSymbolTableRecord
100
AcDbDimStyleTableRecord
  2
SLDDIMSTYLE0
 70
     0
 41
3.302
 44
0.0
 45
0.000000001
 73
     0
 74
     0
 77
     1
 78
     4
 79
     1
140
3.5
143
0.0393700787401575
147
0.875
148
0.000000001
170
     1
173
     1
178
     0
271
     2
272
     2
276
     2
284
    12
340
94
  0
DIMSTYLE
105
E4
102
{ACAD_REACTORS
330
E3
330
CE
330
F7
330
2D8
102
}
330
A
100
AcDbSymbolTableRecord
100
AcDbDimStyleTableRecord
  2
SLDDIMSTYLE1
 70
     0
 41
3.302
 44
0.0
 45
0.000000001
 73
     0
 74
     0
 77
     1
 78
    12
 79
     3
140
3.5
143
0.0393700787401575
147
0.875
148
0.000000001
170
     1
173
     1
178
     0
271
     2
272
     2
276
     2
284
    12
340
94
  0
DIMSTYLE
105
F8
330
A
100
AcDbSymbolTableRecord
100
AcDbDimStyleTableRecord
  2
SLDDIMSTYLE2
 70
     0
 41
3.302
 44
0.0
 45
0.000000001
 73
     0
 74
     0
 77
     1
 78
     4
 79
     1
140
3.5
143
0.0393700787401575
147
0.875
148
0.000000001
170
     1
172
     1
173
     1
178
     0
271
     2
272
     2
276
     2
284
    12
289
     0
340
94
  0
ENDTAB
  0
TABLE
  2
BLOCK_RECORD
  5
1
330
0
100
AcDbSymbolTable
 70
    16
  0
BLOCK_RECORD
  5
1F
330
1
100
AcDbSymbolTableRecord
100
AcDbBlockTableRecord
  2
*Model_Space
340
22
  0
BLOCK_RECORD
  5
1B
330
1
100
AcDbSymbolTableRecord
100
AcDbBlockTableRecord
  2
*Paper_Space
340
1E
  0
BLOCK_RECORD
  5
23
330
1
100
AcDbSymbolTableRecord
100
AcDbBlockTableRecord
  2
*Paper_Space0
340
26
  0
BLOCK_RECORD
  5
7F
330
1
100
AcDbSymbolTableRecord
100
AcDbBlockTableRecord
  2
블럭10
340
0
102
{BLKREFS
331
C7
102
}
  0
BLOCK_RECORD
  5
D0
330
1
100
AcDbSymbolTableRecord
100
AcDbBlockTableRecord
  2
_D
340
0
  0
BLOCK_RECORD
  5
E5
330
1
100
AcDbSymbolTableRecord
100
AcDbBlockTableRecord
  2
_D_1
340
0
  0
BLOCK_RECORD
  5
F9
330
1
100
AcDbSymbolTableRecord
100
AcDbBlockTableRecord
  2
_D_2
340
0
  0
BLOCK_RECORD
  5
10D
330
1
100
AcDbSymbolTableRecord
100
AcDbBlockTableRecord
  2
_D_3
340
0
  0
BLOCK_RECORD
  5
126
330
1
100
AcDbSymbolTableRecord
100
AcDbBlockTableRecord
  2
SW_DOWELSYMBOL_0
340
0
102
{BLKREFS
331
12C
102
}
  0
BLOCK_RECORD
  5
1E8
330
1
100
AcDbSymbolTableRecord
100
AcDbBlockTableRecord
  2
*D7
340
0
  0
BLOCK_RECORD
  5
1F5
330
1
100
AcDbSymbolTableRecord
100
AcDbBlockTableRecord
  2
*D8
340
0
  0
BLOCK_RECORD
  5
201
330
1
100
AcDbSymbolTableRecord
100
AcDbBlockTableRecord
  2
*D9
340
0
  0
BLOCK_RECORD
  5
20D
330
1
100
AcDbSymbolTableRecord
100
AcDbBlockTableRecord
  2
*D10
340
0
  0
BLOCK_RECORD
  5
248
330
1
100
AcDbSymbolTableRecord
100
AcDbBlockTableRecord
  2
*D11
340
0
  0
BLOCK_RECORD
  5
255
330
1
100
AcDbSymbolTableRecord
100
AcDbBlockTableRecord
  2
*D12
340
0
  0
BLOCK_RECORD
  5
261
330
1
100
AcDbSymbolTableRecord
100
AcDbBlockTableRecord
  2
*D13
340
0
  0
BLOCK_RECORD
  5
26D
330
1
100
AcDbSymbolTableRecord
100
AcDbBlockTableRecord
  2
*D14
340
0
  0
BLOCK_RECORD
  5
2DB
330
1
100
AcDbSymbolTableRecord
100
AcDbBlockTableRecord
  2
*D15
340
0
  0
ENDTAB
  0
ENDSEC
  0
SECTION
  2
BLOCKS
  0
BLOCK
  5
20
330
1F
100
AcDbEntity
  8
0
100
AcDbBlockBegin
  2
*Model_Space
 70
     0
 10
0.0
 20
0.0
 30
0.0
  3
*Model_Space
  1
*Model_Space
  0
ENDBLK
  5
21
330
1F
100
AcDbEntity
  8
0
100
AcDbBlockEnd
  0
BLOCK
  5
1C
330
1B
100
AcDbEntity
 67
     1
  8
0
100
AcDbBlockBegin
  2
*Paper_Space
 70
     0
 10
0.0
 20
0.0
 30
0.0
  3
*Paper_Space
  1
*Paper_Space
  0
ENDBLK
  5
1D
330
1B
100
AcDbEntity
 67
     1
  8
0
100
AcDbBlockEnd
  0
BLOCK
  5
24
330
23
100
AcDbEntity
  8
0
100
AcDbBlockBegin
  2
*Paper_Space0
 70
     0
 10
0.0
 20
0.0
 30
0.0
  3
*Paper_Space0
  1
*Paper_Space0
  0
ENDBLK
  5
25
330
23
100
AcDbEntity
  8
0
100
AcDbBlockEnd
  0
BLOCK
  5
80
330
7F
100
AcDbEntity
  8
0
100
AcDbBlockBegin
  2
블럭10
 70
     2
 10
0.0
 20
0.0
 30
0.0
  3
블럭10
  1
블럭10
  0
ELLIPSE
  5
82
330
7F
100
AcDbEntity
  8
중심선
100
AcDbEllipse
 10
20.54032771741204
 20
12.0471743016438
 30
0.0
 11
6.600054785286829
 21
-1.261213355974178E-13
 31
0.0
210
0.0
220
0.0
230
1.0
 40
0.636358354079598
 41
0.9219305317359503
 42
6.513795318482858
  0
ELLIPSE
  5
83
330
7F
100
AcDbEntity
  8
중심선
100
AcDbEllipse
 10
20.54032771746488
 20
12.04717430159265
 30
0.0
 11
3.960054785062283
 21
1.540847449632565E-10
 31
0.0
210
0.0
220
0.0
230
1.0
 40
0.3939339440162632
 41
1.131841032648279
 42
5.62031148352944
  0
LINE
  5
84
330
7F
100
AcDbEntity
  8
중심선
100
AcDbLine
 10
2.268634060543552
 20
16.24717430164393
 30
0.0
 11
5.714909304380834
 21
16.24717430164393
 31
0.0
  0
LINE
  5
85
330
7F
100
AcDbEntity
  8
중심선
100
AcDbLine
 10
5.245725140726316
 20
7.84717430164391
 30
0.0
 11
8.692000384563599
 21
7.84717430164391
 31
0.0
  0
LINE
  5
86
330
7F
100
AcDbEntity
  8
중심선
100
AcDbLine
 10
15.74043728645272
 20
16.24717430164393
 30
0.0
 11
8.692000384563599
 21
7.84717430164391
 31
0.0
  0
LINE
  5
87
330
7F
100
AcDbEntity
  8
중심선
100
AcDbLine
 10
0.1404042013395286
 20
13.71084872107135
 30
0.0
 11
3.58671253028996
 21
13.71088815037384
 31
0.0
  0
LINE
  5
88
330
7F
100
AcDbEntity
  8
중심선
100
AcDbLine
 10
2.750260043222114
 20
10.84717430164391
 30
0.0
 11
6.196535287059397
 21
10.84717430164391
 31
0.0
  0
LINE
  5
89
330
7F
100
AcDbEntity
  8
중심선
100
AcDbLine
 10
12.29416204261559
 20
16.24717430164393
 30
0.0
 11
5.245725140726316
 21
7.84717430164391
 31
0.0
  0
LINE
  5
8A
330
7F
100
AcDbEntity
  8
중심선
100
AcDbLine
 10
10.72767329541681
 20
16.24717430164393
 30
0.0
 11
6.196535287059397
 21
10.84717430164391
 31
0.0
  0
LINE
  5
8B
330
7F
100
AcDbEntity
  8
중심선
100
AcDbLine
 10
7.28139805157953
 20
16.24717430164393
 30
0.0
 11
2.750260043222114
 21
10.84717430164391
 31
0.0
  0
LINE
  5
8C
330
7F
100
AcDbEntity
  8
중심선
100
AcDbLine
 10
5.714909304380834
 20
16.24717430164393
 30
0.0
 11
3.58671253028996
 21
13.71088815037384
 31
0.0
  0
LINE
  5
8D
330
7F
100
AcDbEntity
  8
중심선
100
AcDbLine
 10
2.268634060543552
 20
16.24717430164393
 30
0.0
 11
0.1404042013395286
 21
13.71084872107135
 31
0.0
  0
LINE
  5
8E
330
7F
100
AcDbEntity
  8
중심선
100
AcDbLine
 10
7.28139805157953
 20
16.24717430164393
 30
0.0
 11
10.72767329541681
 21
16.24717430164393
 31
0.0
  0
LINE
  5
8F
330
7F
100
AcDbEntity
  8
중심선
100
AcDbLine
 10
12.29416204261559
 20
16.24717430164393
 30
0.0
 11
15.74043728645272
 21
16.24717430164393
 31
0.0
  0
LINE
  5
90
330
7F
100
AcDbEntity
  8
중심선
100
AcDbLine
 10
19.22036997980202
 20
11.08717430171403
 30
0.0
 11
23.66174974927406
 21
11.08717430171406
 31
0.0
  0
LINE
  5
91
330
7F
100
AcDbEntity
  8
중심선
100
AcDbLine
 10
19.22039502424796
 20
13.00717430171391
 30
0.0
 11
19.22036997980202
 21
11.08717430171403
 31
0.0
  0
LINE
  5
92
330
7F
100
AcDbEntity
  8
중심선
100
AcDbLine
 10
19.22039502424796
 20
13.00717430171391
 30
0.0
 11
26.96566020931264
 21
13.00717430171391
 31
0.0
  0
LINE
  5
93
330
7F
100
AcDbEntity
  8
중심선
100
AcDbLine
 10
22.22332737316547
 20
13.45928029700563
 30
0.0
 11
24.52862924686651
 21
15.39360700705356
 31
0.0
  0
ATTDEF
  5
95
330
7F
100
AcDbEntity
  8
FORMAT
 62
     2
100
AcDbText
 10
4.408487351596664
 20
2.075366912832191
 30
0.0
 40
4.233333333333333
  1
E1111028
 41
0.75
  7
SLDTEXTSTYLE0
 11
4.408487351596664
 21
-0.0412997538344756
 31
0.0
100
AcDbAttributeDefinition
  3

  2
AUTOATTR0
 70
     0
 74
     1
  0
ENDBLK
  5
81
330
7F
100
AcDbEntity
  8
0
100
AcDbBlockEnd
  0
BLOCK
  5
D1
330
D0
100
AcDbEntity
  8
0
100
AcDbBlockBegin
  2
_D
 70
     0
 10
0.0
 20
0.0
 30
0.0
  3
_D
  1
_D
  0
LINE
  5
D3
330
D0
100
AcDbEntity
  8
치수문자_일반주서
 62
     0
370
    -2
100
AcDbLine
 10
31.36231532850783
 20
5.619824928723902
 30
0.0
 11
31.36231532850783
 21
14.16741118867725
 31
0.0
  0
LINE
  5
D4
330
D0
100
AcDbEntity
  8
치수문자_일반주서
 62
     0
370
    -2
100
AcDbLine
 10
5.962315328507787
 20
5.619824928723906
 30
0.0
 11
5.962315328507787
 21
14.16741118867725
 31
0.0
  0
LINE
  5
D5
330
D0
100
AcDbEntity
  8
치수문자_일반주서
 62
     0
370
    -2
100
AcDbLine
 10
5.962315328507787
 20
14.16741118867725
 30
0.0
 11
-14.83968467149221
 21
14.16741118867725
 31
0.0
  0
LINE
  5
D6
330
D0
100
AcDbEntity
  8
치수문자_일반주서
 62
     0
370
    -2
100
AcDbLine
 10
28.06031532850783
 20
14.16741118867725
 30
0.0
 11
9.264315328507786
 21
14.16741118867725
 31
0.0
  0
SOLID
  5
D7
330
D0
100
AcDbEntity
  8
치수문자_일반주서
 62
     0
100
AcDbTrace
 10
28.06031532850783
 20
13.61707785534392
 30
0.0
 11
28.06031532850783
 21
14.71774452201058
 31
0.0
 12
31.36231532850783
 22
14.16741118867725
 32
0.0
 13
31.36231532850783
 23
14.16741118867725
 33
0.0
  0
SOLID
  5
D8
330
D0
100
AcDbEntity
  8
치수문자_일반주서
 62
     0
100
AcDbTrace
 10
9.264315328507786
 20
14.71774452201058
 30
0.0
 11
9.264315328507786
 21
13.61707785534392
 31
0.0
 12
5.962315328507787
 22
14.16741118867725
 32
0.0
 13
5.962315328507787
 23
14.16741118867725
 33
0.0
  0
MTEXT
  5
D9
330
D0
100
AcDbEntity
  8
치수문자_일반주서
 62
     0
100
AcDbMText
 10
-6.089684671492213
 20
18.54241118867725
 30
0.0
 40
3.5
 41
0.0
 71
     2
 72
     1
  1
\A1;25.4 [1]
  7
SLDTEXTSTYLE0
 73
     1
 44
1.0
  0
POINT
  5
DA
330
D0
100
AcDbEntity
  8
Defpoints
 62
     0
100
AcDbPoint
 10
31.36231532850783
 20
5.557324928723902
 30
0.0
  0
POINT
  5
DB
330
D0
100
AcDbEntity
  8
Defpoints
 62
     0
100
AcDbPoint
 10
5.962315328507787
 20
5.557324928723906
 30
0.0
  0
POINT
  5
DC
330
D0
100
AcDbEntity
  8
Defpoints
 62
     0
100
AcDbPoint
 10
5.962315328507787
 20
14.16741118867725
 30
0.0
  0
ENDBLK
  5
D2
330
D0
100
AcDbEntity
  8
0
100
AcDbBlockEnd
  0
BLOCK
  5
E6
330
E5
100
AcDbEntity
  8
0
100
AcDbBlockBegin
  2
_D_1
 70
     0
 10
0.0
 20
0.0
 30
0.0
  3
_D_1
  1
_D_1
  0
LINE
  5
E8
330
E5
100
AcDbEntity
  8
치수문자_일반주서
 62
     0
370
    -2
100
AcDbLine
 10
31.36231532850783
 20
5.619824928723902
 30
0.0
 11
31.36231532850783
 21
29.96270874461621
 31
0.0
  0
LINE
  5
E9
330
E5
100
AcDbEntity
  8
치수문자_일반주서
 62
     0
370
    -2
100
AcDbLine
 10
-62.30018467149222
 20
5.413574928723887
 30
0.0
 11
-62.30018467149221
 21
29.96270874461621
 31
0.0
  0
LINE
  5
EA
330
E5
100
AcDbEntity
  8
치수문자_일반주서
 62
     0
370
    -2
100
AcDbLine
 10
28.06031532850783
 20
29.96270874461621
 30
0.0
 11
-58.99818467149221
 21
29.96270874461621
 31
0.0
  0
SOLID
  5
EB
330
E5
100
AcDbEntity
  8
치수문자_일반주서
 62
     0
100
AcDbTrace
 10
28.06031532850783
 20
29.41237541128287
 30
0.0
 11
28.06031532850783
 21
30.51304207794954
 31
0.0
 12
31.36231532850783
 22
29.96270874461621
 32
0.0
 13
31.36231532850783
 23
29.96270874461621
 33
0.0
  0
SOLID
  5
EC
330
E5
100
AcDbEntity
  8
치수문자_일반주서
 62
     0
100
AcDbTrace
 10
-58.99818467149221
 20
30.51304207794954
 30
0.0
 11
-58.99818467149221
 21
29.41237541128287
 31
0.0
 12
-62.30018467149221
 22
29.96270874461621
 32
0.0
 13
-62.30018467149221
 23
29.96270874461621
 33
0.0
  0
MTEXT
  5
ED
330
E5
100
AcDbEntity
  8
치수문자_일반주서
 62
     0
100
AcDbMText
 10
-15.46893467149222
 20
34.33770874461621
 30
0.0
 40
3.5
 41
0.0
 71
     2
 72
     1
  1
\A1;93.66 [3 11/16]
  7
SLDTEXTSTYLE0
 73
     1
 44
1.0
  0
POINT
  5
EE
330
E5
100
AcDbEntity
  8
Defpoints
 62
     0
100
AcDbPoint
 10
31.36231532850783
 20
5.557324928723902
 30
0.0
  0
POINT
  5
EF
330
E5
100
AcDbEntity
  8
Defpoints
 62
     0
100
AcDbPoint
 10
-62.30018467149222
 20
5.351074928723887
 30
0.0
  0
POINT
  5
F0
330
E5
100
AcDbEntity
  8
Defpoints
 62
     0
100
AcDbPoint
 10
-62.30018467149222
 20
29.96270874461621
 30
0.0
  0
ENDBLK
  5
E7
330
E5
100
AcDbEntity
  8
0
100
AcDbBlockEnd
  0
BLOCK
  5
FA
330
F9
100
AcDbEntity
  8
0
100
AcDbBlockBegin
  2
_D_2
 70
     0
 10
0.0
 20
0.0
 30
0.0
  3
_D_2
  1
_D_2
  0
LINE
  5
FC
330
F9
100
AcDbEntity
  8
치수문자_일반주서
 62
     0
370
    -2
100
AcDbLine
 10
-61.36268467149221
 20
6.351074928723891
 30
0.0
 11
-74.80018467149225
 21
6.351074928723841
 31
0.0
  0
LINE
  5
FD
330
F9
100
AcDbEntity
  8
치수문자_일반주서
 62
     0
370
    -2
100
AcDbLine
 10
-61.36268467149221
 20
-6.348925071276098
 30
0.0
 11
-74.8001846714922
 21
-6.348925071276148
 31
0.0
  0
LINE
  5
FE
330
F9
100
AcDbEntity
  8
치수문자_일반주서
 62
     0
370
    -2
100
AcDbLine
 10
-74.80018467149223
 20
3.049074928723842
 30
0.0
 11
-74.80018467149222
 21
-3.046925071276148
 31
0.0
  0
SOLID
  5
FF
330
F9
100
AcDbEntity
  8
치수문자_일반주서
 62
     0
100
AcDbTrace
 10
-74.2498513381589
 20
3.049074928723844
 30
0.0
 11
-75.35051800482556
 21
3.04907492872384
 31
0.0
 12
-74.80018467149225
 22
6.351074928723841
 32
0.0
 13
-74.80018467149225
 23
6.351074928723841
 33
0.0
  0
SOLID
  5
100
330
F9
100
AcDbEntity
  8
치수문자_일반주서
 62
     0
100
AcDbTrace
 10
-75.35051800482555
 20
-3.04692507127615
 30
0.0
 11
-74.24985133815889
 21
-3.046925071276147
 31
0.0
 12
-74.8001846714922
 22
-6.348925071276148
 32
0.0
 13
-74.8001846714922
 23
-6.348925071276148
 33
0.0
  0
MTEXT
  5
101
330
F9
100
AcDbEntity
  8
치수문자_일반주서
 62
     0
100
AcDbMText
 10
-79.17518467149223
 20
0.001074928723876
 30
0.0
 40
3.5
 41
0.0
 71
     2
 72
     1
  1
\A1;%%c12.7 [1/2]
  7
SLDTEXTSTYLE0
 11
-3.356894814614649E-15
 21
1.0
 31
0.0
 73
     1
 44
1.0
  0
POINT
  5
102
330
F9
100
AcDbEntity
  8
Defpoints
 62
     0
100
AcDbPoint
 10
-61.30018467149221
 20
6.351074928723891
 30
0.0
  0
POINT
  5
103
330
F9
100
AcDbEntity
  8
Defpoints
 62
     0
100
AcDbPoint
 10
-61.30018467149221
 20
-6.348925071276098
 30
0.0
  0
POINT
  5
104
330
F9
100
AcDbEntity
  8
Defpoints
 62
     0
100
AcDbPoint
 10
-74.8001846714922
 20
-6.348925071276149
 30
0.0
  0
ENDBLK
  5
FB
330
F9
100
AcDbEntity
  8
0
100
AcDbBlockEnd
  0
BLOCK
  5
10E
330
10D
100
AcDbEntity
  8
0
100
AcDbBlockBegin
  2
_D_3
 70
     0
 10
0.0
 20
0.0
 30
0.0
  3
_D_3
  1
_D_3
  0
LINE
  5
110
330
10D
100
AcDbEntity
  8
치수문자_일반주서
 62
     0
370
    -2
100
AcDbLine
 10
40.3117613140312
 20
5.557324928723895
 30
0.0
 11
53.38082421674906
 21
5.557324928723936
 31
0.0
  0
LINE
  5
111
330
10D
100
AcDbEntity
  8
치수문자_일반주서
 62
     0
370
    -2
100
AcDbLine
 10
40.31176131403117
 20
-5.555175071276099
 30
0.0
 11
53.3808242167491
 21
-5.555175071276054
 31
0.0
  0
LINE
  5
112
330
10D
100
AcDbEntity
  8
치수문자_일반주서
 62
     0
370
    -2
100
AcDbLine
 10
53.38082421674906
 20
5.557324928723936
 30
0.0
 11
53.38082421674891
 21
52.7337119775901
 31
0.0
  0
LINE
  5
113
330
10D
100
AcDbEntity
  8
치수문자_일반주서
 62
     0
370
    -2
100
AcDbLine
 10
53.38082421674907
 20
2.255324928723937
 30
0.0
 11
53.38082421674909
 21
-2.253175071276054
 31
0.0
  0
SOLID
  5
114
330
10D
100
AcDbEntity
  8
치수문자_일반주서
 62
     0
100
AcDbTrace
 10
53.9311575500824
 20
2.255324928723939
 30
0.0
 11
52.83049088341573
 21
2.255324928723935
 31
0.0
 12
53.38082421674906
 22
5.557324928723936
 32
0.0
 13
53.38082421674906
 23
5.557324928723936
 33
0.0
  0
SOLID
  5
115
330
10D
100
AcDbEntity
  8
치수문자_일반주서
 62
     0
100
AcDbTrace
 10
52.83049088341576
 20
-2.253175071276056
 30
0.0
 11
53.93115755008242
 21
-2.253175071276052
 31
0.0
 12
53.3808242167491
 22
-5.555175071276054
 32
0.0
 13
53.3808242167491
 23
-5.555175071276054
 33
0.0
  0
MTEXT
  5
116
330
10D
100
AcDbEntity
  8
치수문자_일반주서
 62
     0
100
AcDbMText
 10
49.00582421674896
 20
39.17121197759009
 30
0.0
 40
3.5
 41
0.0
 71
     2
 72
     1
  1
\A1;%%c11.11 [7/16]
  7
SLDTEXTSTYLE0
 11
-3.197042680585380E-15
 21
1.0
 31
0.0
 73
     1
 44
1.0
  0
POINT
  5
117
330
10D
100
AcDbEntity
  8
Defpoints
 62
     0
100
AcDbPoint
 10
40.2492613140312
 20
5.557324928723895
 30
0.0
  0
POINT
  5
118
330
10D
100
AcDbEntity
  8
Defpoints
 62
     0
100
AcDbPoint
 10
40.24926131403117
 20
-5.555175071276099
 30
0.0
  0
POINT
  5
119
330
10D
100
AcDbEntity
  8
Defpoints
 62
     0
100
AcDbPoint
 10
53.38082421674913
 20
-5.555175071276053
 30
0.0
  0
ENDBLK
  5
10F
330
10D
100
AcDbEntity
  8
0
100
AcDbBlockEnd
  0
BLOCK
  5
127
330
126
100
AcDbEntity
  8
0
100
AcDbBlockBegin
  2
SW_DOWELSYMBOL_0
 70
     0
 10
0.0
 20
0.0
 30
0.0
  3
SW_DOWELSYMBOL_0
  1
SW_DOWELSYMBOL_0
  0
CIRCLE
  5
129
330
126
100
AcDbEntity
  8
해칭선
 62
     0
100
AcDbCircle
 10
0.0
 20
0.0
 30
0.0
 40
3.000000000000003
  0
HATCH
  5
12A
330
126
100
AcDbEntity
  8
0
  6
Continuous
 62
     0
370
     0
100
AcDbHatch
 10
0.0
 20
0.0
 30
0.0
210
0.0
220
0.0
230
1.0
  2
SOLID
 70
     1
 71
     0
 91
        1
 92
        0
 93
        3
 72
     2
 10
0.0
 20
0.0
 40
3.000000000000003
 50
0.0
 51
90.0
 73
     1
 72
     1
 10
0.0
 20
3.000000000000003
 11
0.0
 21
0.0
 72
     1
 10
0.0
 20
0.0
 11
3.000000000000003
 21
0.0
 97
        0
 75
     0
 76
     1
 98
        1
 10
0.0
 20
0.0
  0
HATCH
  5
12B
330
126
100
AcDbEntity
  8
0
  6
Continuous
 62
     0
370
     0
100
AcDbHatch
 10
0.0
 20
0.0
 30
0.0
210
0.0
220
0.0
230
1.0
  2
SOLID
 70
     1
 71
     0
 91
        1
 92
        0
 93
        3
 72
     2
 10
0.0
 20
0.0
 40
3.000000000000003
 50
180.0
 51
270.0000000000007
 73
     1
 72
     1
 10
0.0
 20
-3.000000000000003
 11
0.0
 21
0.0
 72
     1
 10
0.0
 20
0.0
 11
-3.000000000000003
 21
0.0
 97
        0
 75
     0
 76
     1
 98
        1
 10
0.0
 20
0.0
  0
ENDBLK
  5
128
330
126
100
AcDbEntity
  8
0
100
AcDbBlockEnd
  0
BLOCK
  5
1E9
330
1E8
100
AcDbEntity
  8
0
100
AcDbBlockBegin
  2
*D7
 70
     1
 10
0.0
 20
0.0
 30
0.0
  3
*D7
  1
*D8
  0
LINE
  5
1EB
330
1E8
100
AcDbEntity
  8
치수문자_일반주서
 62
     0
370
    -2
100
AcDbLine
 10
101.0125
 20
17.07500000000001
 30
0.0
 11
101.0125
 21
27.01250000000002
 31
0.0
  0
LINE
  5
1EC
330
1E8
100
AcDbEntity
  8
치수문자_일반주서
 62
     0
370
    -2
100
AcDbLine
 10
81.96250000000003
 20
16.90245048789161
 30
0.0
 11
81.96250000000003
 21
27.01250000000002
 31
0.0
  0
LINE
  5
1ED
330
1E8
100
AcDbEntity
  8
치수문자_일반주서
 62
     0
370
    -2
100
AcDbLine
 10
81.96250000000003
 20
27.01250000000002
 30
0.0
 11
50.42100000000003
 21
27.01250000000002
 31
0.0
  0
LINE
  5
1EE
330
1E8
100
AcDbEntity
  8
치수문자_일반주서
 62
     0
370
    -2
100
AcDbLine
 10
97.71050000000005
 20
27.01250000000002
 30
0.0
 11
85.26450000000003
 21
27.01250000000002
 31
0.0
  0
SOLID
  5
1EF
330
1E8
100
AcDbEntity
  8
치수문자_일반주서
 62
     0
100
AcDbTrace
 10
97.71050000000005
 20
26.46216666666669
 30
0.0
 11
97.71050000000005
 21
27.56283333333336
 31
0.0
 12
101.0125
 22
27.01250000000002
 32
0.0
 13
101.0125
 23
27.01250000000002
 33
0.0
  0
SOLID
  5
1F0
330
1E8
100
AcDbEntity
  8
치수문자_일반주서
 62
     0
100
AcDbTrace
 10
85.26450000000003
 20
27.56283333333336
 30
0.0
 11
85.26450000000003
 21
26.46216666666669
 31
0.0
 12
81.96250000000003
 22
27.01250000000002
 32
0.0
 13
81.96250000000003
 23
27.01250000000002
 33
0.0
  0
MTEXT
  5
1F1
330
1E8
100
AcDbEntity
  8
치수문자_일반주서
 62
     0
100
AcDbMText
 10
62.88975000000003
 20
31.38750000000002
 30
0.0
 40
3.5
 41
0.0
 71
     2
 72
     1
  1
\A1;19.05 [3/4]
  7
SLDTEXTSTYLE0
 73
     1
 44
1.0
  0
POINT
  5
1F2
330
1E8
100
AcDbEntity
  8
Defpoints
 62
     0
100
AcDbPoint
 10
101.0125
 20
17.01250000000001
 30
0.0
  0
POINT
  5
1F3
330
1E8
100
AcDbEntity
  8
Defpoints
 62
     0
100
AcDbPoint
 10
81.96250000000003
 20
16.83995048789161
 30
0.0
  0
POINT
  5
1F4
330
1E8
100
AcDbEntity
  8
Defpoints
 62
     0
100
AcDbPoint
 10
81.96250000000003
 20
27.01250000000002
 30
0.0
  0
ENDBLK
  5
1EA
330
1E8
100
AcDbEntity
  8
0
100
AcDbBlockEnd
  0
BLOCK
  5
1F6
330
1F5
100
AcDbEntity
  8
0
100
AcDbBlockBegin
  2
*D8
 70
     1
 10
0.0
 20
0.0
 30
0.0
  3
*D8
  1
*D9
  0
LINE
  5
1F8
330
1F5
100
AcDbEntity
  8
치수문자_일반주서
 62
     0
370
    -2
100
AcDbLine
 10
101.0125
 20
17.07500000000001
 30
0.0
 11
101.0125
 21
42.21163381589233
 31
0.0
  0
LINE
  5
1F9
330
1F5
100
AcDbEntity
  8
치수문자_일반주서
 62
     0
370
    -2
100
AcDbLine
 10
16.87500000000004
 20
16.07500000000001
 30
0.0
 11
16.87500000000004
 21
42.21163381589233
 31
0.0
  0
LINE
  5
1FA
330
1F5
100
AcDbEntity
  8
치수문자_일반주서
 62
     0
370
    -2
100
AcDbLine
 10
97.71050000000005
 20
42.21163381589233
 30
0.0
 11
20.17700000000004
 21
42.21163381589233
 31
0.0
  0
SOLID
  5
1FB
330
1F5
100
AcDbEntity
  8
치수문자_일반주서
 62
     0
100
AcDbTrace
 10
97.71050000000005
 20
41.66130048255899
 30
0.0
 11
97.71050000000005
 21
42.76196714922566
 31
0.0
 12
101.0125
 22
42.21163381589233
 32
0.0
 13
101.0125
 23
42.21163381589233
 33
0.0
  0
SOLID
  5
1FC
330
1F5
100
AcDbEntity
  8
치수문자_일반주서
 62
     0
100
AcDbTrace
 10
20.17700000000004
 20
42.76196714922566
 30
0.0
 11
20.17700000000004
 21
41.66130048255899
 31
0.0
 12
16.87500000000004
 22
42.21163381589233
 32
0.0
 13
16.87500000000004
 23
42.21163381589233
 33
0.0
  0
MTEXT
  5
1FD
330
1F5
100
AcDbEntity
  8
치수문자_일반주서
 62
     0
100
AcDbMText
 10
58.94375000000002
 20
46.58663381589233
 30
0.0
 40
3.5
 41
0.0
 71
     2
 72
     1
  1
\A1;84.14 [3 5/16]
  7
SLDTEXTSTYLE0
 73
     1
 44
1.0
  0
POINT
  5
1FE
330
1F5
100
AcDbEntity
  8
Defpoints
 62
     0
100
AcDbPoint
 10
101.0125
 20
17.01250000000001
 30
0.0
  0
POINT
  5
1FF
330
1F5
100
AcDbEntity
  8
Defpoints
 62
     0
100
AcDbPoint
 10
16.87500000000004
 20
16.01250000000001
 30
0.0
  0
POINT
  5
200
330
1F5
100
AcDbEntity
  8
Defpoints
 62
     0
100
AcDbPoint
 10
16.87500000000004
 20
42.21163381589233
 30
0.0
  0
ENDBLK
  5
1F7
330
1F5
100
AcDbEntity
  8
0
100
AcDbBlockEnd
  0
BLOCK
  5
202
330
201
100
AcDbEntity
  8
0
100
AcDbBlockBegin
  2
*D9
 70
     1
 10
0.0
 20
0.0
 30
0.0
  3
*D9
  1
*D10
  0
LINE
  5
204
330
201
100
AcDbEntity
  8
치수문자_일반주서
 62
     0
370
    -2
100
AcDbLine
 10
17.81250000000005
 20
17.01250000000001
 30
0.0
 11
4.375000000000027
 21
17.01249999999996
 31
0.0
  0
LINE
  5
205
330
201
100
AcDbEntity
  8
치수문자_일반주서
 62
     0
370
    -2
100
AcDbLine
 10
17.81250000000005
 20
7.487500000000009
 30
0.0
 11
4.37500000000006
 21
7.487499999999959
 31
0.0
  0
LINE
  5
206
330
201
100
AcDbEntity
  8
치수문자_일반주서
 62
     0
370
    -2
100
AcDbLine
 10
4.375000000000038
 20
13.71049999999996
 30
0.0
 11
4.375000000000048
 21
10.78949999999996
 31
0.0
  0
SOLID
  5
207
330
201
100
AcDbEntity
  8
치수문자_일반주서
 62
     0
100
AcDbTrace
 10
4.925333333333372
 20
13.71049999999997
 30
0.0
 11
3.824666666666705
 21
13.71049999999996
 31
0.0
 12
4.375000000000027
 22
17.01249999999996
 32
0.0
 13
4.375000000000027
 23
17.01249999999996
 33
0.0
  0
SOLID
  5
208
330
201
100
AcDbEntity
  8
치수문자_일반주서
 62
     0
100
AcDbTrace
 10
3.824666666666715
 20
10.78949999999996
 30
0.0
 11
4.925333333333382
 21
10.78949999999996
 31
0.0
 12
4.37500000000006
 22
7.487499999999959
 32
0.0
 13
4.37500000000006
 23
7.487499999999959
 33
0.0
  0
MTEXT
  5
209
330
201
100
AcDbEntity
  8
치수문자_일반주서
 62
     0
100
AcDbMText
 10
0.0000000000000426
 20
12.25
 30
0.0
 40
3.5
 41
0.0
 71
     2
 72
     1
  1
\A1;%%c9.53 [3/8]
  7
SLDTEXTSTYLE0
 11
-3.450141892798385E-15
 21
1.0
 31
0.0
 73
     1
 44
1.0
  0
POINT
  5
20A
330
201
100
AcDbEntity
  8
Defpoints
 62
     0
100
AcDbPoint
 10
17.87500000000005
 20
17.01250000000001
 30
0.0
  0
POINT
  5
20B
330
201
100
AcDbEntity
  8
Defpoints
 62
     0
100
AcDbPoint
 10
17.87500000000005
 20
7.487500000000009
 30
0.0
  0
POINT
  5
20C
330
201
100
AcDbEntity
  8
Defpoints
 62
     0
100
AcDbPoint
 10
4.375000000000057
 20
7.487499999999958
 30
0.0
  0
ENDBLK
  5
203
330
201
100
AcDbEntity
  8
0
100
AcDbBlockEnd
  0
BLOCK
  5
20E
330
20D
100
AcDbEntity
  8
0
100
AcDbBlockBegin
  2
*D10
 70
     1
 10
0.0
 20
0.0
 30
0.0
  3
*D10
  1
*D11
  0
LINE
  5
210
330
20D
100
AcDbEntity
  8
치수문자_일반주서
 62
     0
370
    -2
100
AcDbLine
 10
101.075
 20
17.01250000000001
 30
0.0
 11
115.213520674149
 21
17.01250000000007
 31
0.0
  0
LINE
  5
211
330
20D
100
AcDbEntity
  8
치수문자_일반주서
 62
     0
370
    -2
100
AcDbLine
 10
101.075
 20
7.487500000000016
 30
0.0
 11
115.213520674149
 21
7.487500000000068
 31
0.0
  0
LINE
  5
212
330
20D
100
AcDbEntity
  8
치수문자_일반주서
 62
     0
370
    -2
100
AcDbLine
 10
115.213520674149
 20
17.01250000000007
 30
0.0
 11
115.2135206741488
 21
58.94940318474247
 31
0.0
  0
LINE
  5
213
330
20D
100
AcDbEntity
  8
치수문자_일반주서
 62
     0
370
    -2
100
AcDbLine
 10
115.213520674149
 20
13.71050000000007
 30
0.0
 11
115.213520674149
 21
10.78950000000007
 31
0.0
  0
SOLID
  5
214
330
20D
100
AcDbEntity
  8
치수문자_일반주서
 62
     0
100
AcDbTrace
 10
115.7638540074823
 20
13.71050000000007
 30
0.0
 11
114.6631873408156
 21
13.71050000000007
 31
0.0
 12
115.213520674149
 22
17.01250000000007
 32
0.0
 13
115.213520674149
 23
17.01250000000007
 33
0.0
  0
SOLID
  5
215
330
20D
100
AcDbEntity
  8
치수문자_일반주서
 62
     0
100
AcDbTrace
 10
114.6631873408156
 20
10.78950000000007
 30
0.0
 11
115.7638540074823
 21
10.78950000000007
 31
0.0
 12
115.213520674149
 22
7.487500000000068
 32
0.0
 13
115.213520674149
 23
7.487500000000068
 33
0.0
  0
MTEXT
  5
216
330
20D
100
AcDbEntity
  8
치수문자_일반주서
 62
     0
100
AcDbMText
 10
110.8385206741489
 20
45.82440318474245
 30
0.0
 40
3.5
 41
0.0
 71
     2
 72
     1
  1
\A1;%%c9.53 [3/8]
  7
SLDTEXTSTYLE0
 11
-2.983906501879686E-15
 21
1.0
 31
0.0
 73
     1
 44
1.0
  0
POINT
  5
217
330
20D
100
AcDbEntity
  8
Defpoints
 62
     0
100
AcDbPoint
 10
101.0125
 20
17.01250000000001
 30
0.0
  0
POINT
  5
218
330
20D
100
AcDbEntity
  8
Defpoints
 62
     0
100
AcDbPoint
 10
101.0125
 20
7.487500000000016
 30
0.0
  0
POINT
  5
219
330
20D
100
AcDbEntity
  8
Defpoints
 62
     0
100
AcDbPoint
 10
115.213520674149
 20
7.487500000000069
 30
0.0
  0
ENDBLK
  5
20F
330
20D
100
AcDbEntity
  8
0
100
AcDbBlockEnd
  0
BLOCK
  5
249
330
248
100
AcDbEntity
  8
0
100
AcDbBlockBegin
  2
*D11
 70
     1
 10
0.0
 20
0.0
 30
0.0
  3
*D11
  1
*D12
  0
LINE
  5
24B
330
248
100
AcDbEntity
  8
치수문자_일반주서
 62
     0
370
    -2
100
AcDbLine
 10
182.4663157983587
 20
-29.36244057244671
 30
0.0
 11
182.4663157983587
 21
-19.4249405724467
 31
0.0
  0
LINE
  5
24C
330
248
100
AcDbEntity
  8
치수문자_일반주서
 62
     0
370
    -2
100
AcDbLine
 10
163.4163157983587
 20
-29.53499008455512
 30
0.0
 11
163.4163157983587
 21
-19.4249405724467
 31
0.0
  0
LINE
  5
24D
330
248
100
AcDbEntity
  8
치수문자_일반주서
 62
     0
370
    -2
100
AcDbLine
 10
163.4163157983587
 20
-19.4249405724467
 30
0.0
 11
131.8748157983587
 21
-19.4249405724467
 31
0.0
  0
LINE
  5
24E
330
248
100
AcDbEntity
  8
치수문자_일반주서
 62
     0
370
    -2
100
AcDbLine
 10
179.1643157983587
 20
-19.4249405724467
 30
0.0
 11
166.7183157983586
 21
-19.4249405724467
 31
0.0
  0
SOLID
  5
24F
330
248
100
AcDbEntity
  8
치수문자_일반주서
 62
     0
100
AcDbTrace
 10
179.1643157983587
 20
-19.97527390578004
 30
0.0
 11
179.1643157983587
 21
-18.87460723911337
 31
0.0
 12
182.4663157983587
 22
-19.4249405724467
 32
0.0
 13
182.4663157983587
 23
-19.4249405724467
 33
0.0
  0
SOLID
  5
250
330
248
100
AcDbEntity
  8
치수문자_일반주서
 62
     0
100
AcDbTrace
 10
166.7183157983586
 20
-18.87460723911337
 30
0.0
 11
166.7183157983586
 21
-19.97527390578004
 31
0.0
 12
163.4163157983587
 22
-19.4249405724467
 32
0.0
 13
163.4163157983587
 23
-19.4249405724467
 33
0.0
  0
MTEXT
  5
251
330
248
100
AcDbEntity
  8
치수문자_일반주서
 62
     0
100
AcDbMText
 10
144.3435657983587
 20
-15.0499405724467
 30
0.0
 40
3.5
 41
0.0
 71
     2
 72
     1
  1
\A1;19.05 [3/4]
  7
SLDTEXTSTYLE0
 73
     1
 44
1.0
  0
POINT
  5
252
330
248
100
AcDbEntity
  8
Defpoints
 62
     0
100
AcDbPoint
 10
182.4663157983587
 20
-29.42494057244671
 30
0.0
  0
POINT
  5
253
330
248
100
AcDbEntity
  8
Defpoints
 62
     0
100
AcDbPoint
 10
163.4163157983587
 20
-29.59749008455512
 30
0.0
  0
POINT
  5
254
330
248
100
AcDbEntity
  8
Defpoints
 62
     0
100
AcDbPoint
 10
163.4163157983587
 20
-19.4249405724467
 30
0.0
  0
ENDBLK
  5
24A
330
248
100
AcDbEntity
  8
0
100
AcDbBlockEnd
  0
BLOCK
  5
256
330
255
100
AcDbEntity
  8
0
100
AcDbBlockBegin
  2
*D12
 70
     1
 10
0.0
 20
0.0
 30
0.0
  3
*D12
  1
*D13
  0
LINE
  5
258
330
255
100
AcDbEntity
  8
치수문자_일반주서
 62
     0
370
    -2
100
AcDbLine
 10
182.4663157983587
 20
-29.36244057244671
 30
0.0
 11
182.4663157983587
 21
-4.225806756554398
 31
0.0
  0
LINE
  5
259
330
255
100
AcDbEntity
  8
치수문자_일반주서
 62
     0
370
    -2
100
AcDbLine
 10
98.32881579835866
 20
-30.36244057244672
 30
0.0
 11
98.32881579835866
 21
-4.225806756554398
 31
0.0
  0
LINE
  5
25A
330
255
100
AcDbEntity
  8
치수문자_일반주서
 62
     0
370
    -2
100
AcDbLine
 10
179.1643157983587
 20
-4.225806756554398
 30
0.0
 11
101.6308157983587
 21
-4.225806756554398
 31
0.0
  0
SOLID
  5
25B
330
255
100
AcDbEntity
  8
치수문자_일반주서
 62
     0
100
AcDbTrace
 10
179.1643157983587
 20
-4.776140089887732
 30
0.0
 11
179.1643157983587
 21
-3.675473423221065
 31
0.0
 12
182.4663157983587
 22
-4.225806756554398
 32
0.0
 13
182.4663157983587
 23
-4.225806756554398
 33
0.0
  0
SOLID
  5
25C
330
255
100
AcDbEntity
  8
치수문자_일반주서
 62
     0
100
AcDbTrace
 10
101.6308157983587
 20
-3.675473423221065
 30
0.0
 11
101.6308157983587
 21
-4.776140089887732
 31
0.0
 12
98.32881579835866
 22
-4.225806756554398
 32
0.0
 13
98.32881579835866
 23
-4.225806756554398
 33
0.0
  0
MTEXT
  5
25D
330
255
100
AcDbEntity
  8
치수문자_일반주서
 62
     0
100
AcDbMText
 10
140.3975657983586
 20
0.1491932434456018
 30
0.0
 40
3.5
 41
0.0
 71
     2
 72
     1
  1
\A1;84.14 [3 5/16]
  7
SLDTEXTSTYLE0
 73
     1
 44
1.0
  0
POINT
  5
25E
330
255
100
AcDbEntity
  8
Defpoints
 62
     0
100
AcDbPoint
 10
182.4663157983587
 20
-29.42494057244671
 30
0.0
  0
POINT
  5
25F
330
255
100
AcDbEntity
  8
Defpoints
 62
     0
100
AcDbPoint
 10
98.32881579835866
 20
-30.42494057244672
 30
0.0
  0
POINT
  5
260
330
255
100
AcDbEntity
  8
Defpoints
 62
     0
100
AcDbPoint
 10
98.32881579835866
 20
-4.225806756554398
 30
0.0
  0
ENDBLK
  5
257
330
255
100
AcDbEntity
  8
0
100
AcDbBlockEnd
  0
BLOCK
  5
262
330
261
100
AcDbEntity
  8
0
100
AcDbBlockBegin
  2
*D13
 70
     1
 10
0.0
 20
0.0
 30
0.0
  3
*D13
  1
*D14
  0
LINE
  5
264
330
261
100
AcDbEntity
  8
치수문자_일반주서
 62
     0
370
    -2
100
AcDbLine
 10
99.26631579835868
 20
-29.42494057244671
 30
0.0
 11
85.82881579835865
 21
-29.42494057244676
 31
0.0
  0
LINE
  5
265
330
261
100
AcDbEntity
  8
치수문자_일반주서
 62
     0
370
    -2
100
AcDbLine
 10
99.26631579835868
 20
-38.94994057244671
 30
0.0
 11
85.82881579835868
 21
-38.94994057244676
 31
0.0
  0
LINE
  5
266
330
261
100
AcDbEntity
  8
치수문자_일반주서
 62
     0
370
    -2
100
AcDbLine
 10
85.82881579835866
 20
-32.72694057244676
 30
0.0
 11
85.82881579835866
 21
-35.64794057244676
 31
0.0
  0
SOLID
  5
267
330
261
100
AcDbEntity
  8
치수문자_일반주서
 62
     0
100
AcDbTrace
 10
86.37914913169199
 20
-32.72694057244676
 30
0.0
 11
85.27848246502533
 21
-32.72694057244676
 31
0.0
 12
85.82881579835865
 22
-29.42494057244676
 32
0.0
 13
85.82881579835865
 23
-29.42494057244676
 33
0.0
  0
SOLID
  5
268
330
261
100
AcDbEntity
  8
치수문자_일반주서
 62
     0
100
AcDbTrace
 10
85.27848246502533
 20
-35.64794057244676
 30
0.0
 11
86.37914913169199
 21
-35.64794057244676
 31
0.0
 12
85.82881579835868
 22
-38.94994057244676
 32
0.0
 13
85.82881579835868
 23
-38.94994057244676
 33
0.0
  0
MTEXT
  5
269
330
261
100
AcDbEntity
  8
치수문자_일반주서
 62
     0
100
AcDbMText
 10
81.45381579835866
 20
-34.18744057244673
 30
0.0
 40
3.5
 41
0.0
 71
     2
 72
     1
  1
\A1;%%c9.53 [3/8]
  7
SLDTEXTSTYLE0
 11
-2.983906501879685E-15
 21
1.0
 31
0.0
 73
     1
 44
1.0
  0
POINT
  5
26A
330
261
100
AcDbEntity
  8
Defpoints
 62
     0
100
AcDbPoint
 10
99.32881579835868
 20
-29.42494057244671
 30
0.0
  0
POINT
  5
26B
330
261
100
AcDbEntity
  8
Defpoints
 62
     0
100
AcDbPoint
 10
99.32881579835868
 20
-38.94994057244671
 30
0.0
  0
POINT
  5
26C
330
261
100
AcDbEntity
  8
Defpoints
 62
     0
100
AcDbPoint
 10
85.82881579835868
 20
-38.94994057244676
 30
0.0
  0
ENDBLK
  5
263
330
261
100
AcDbEntity
  8
0
100
AcDbBlockEnd
  0
BLOCK
  5
26E
330
26D
100
AcDbEntity
  8
0
100
AcDbBlockBegin
  2
*D14
 70
     1
 10
0.0
 20
0.0
 30
0.0
  3
*D14
  1
*D15
  0
LINE
  5
270
330
26D
100
AcDbEntity
  8
치수문자_일반주서
 62
     0
370
    -2
100
AcDbLine
 10
182.5288157983587
 20
-29.42494057244671
 30
0.0
 11
196.6673364725076
 21
-29.42494057244666
 31
0.0
  0
LINE
  5
271
330
26D
100
AcDbEntity
  8
치수문자_일반주서
 62
     0
370
    -2
100
AcDbLine
 10
182.5288157983587
 20
-38.94994057244671
 30
0.0
 11
196.6673364725076
 21
-38.94994057244666
 31
0.0
  0
LINE
  5
272
330
26D
100
AcDbEntity
  8
치수문자_일반주서
 62
     0
370
    -2
100
AcDbLine
 10
196.6673364725076
 20
-29.42494057244666
 30
0.0
 11
196.6673364725075
 21
12.51196261229574
 31
0.0
  0
LINE
  5
273
330
26D
100
AcDbEntity
  8
치수문자_일반주서
 62
     0
370
    -2
100
AcDbLine
 10
196.6673364725076
 20
-32.72694057244666
 30
0.0
 11
196.6673364725076
 21
-35.64794057244666
 31
0.0
  0
SOLID
  5
274
330
26D
100
AcDbEntity
  8
치수문자_일반주서
 62
     0
100
AcDbTrace
 10
197.2176698058409
 20
-32.72694057244666
 30
0.0
 11
196.1170031391742
 21
-32.72694057244666
 31
0.0
 12
196.6673364725076
 22
-29.42494057244666
 32
0.0
 13
196.6673364725076
 23
-29.42494057244666
 33
0.0
  0
SOLID
  5
275
330
26D
100
AcDbEntity
  8
치수문자_일반주서
 62
     0
100
AcDbTrace
 10
196.1170031391743
 20
-35.64794057244666
 30
0.0
 11
197.2176698058409
 21
-35.64794057244666
 31
0.0
 12
196.6673364725076
 22
-38.94994057244666
 32
0.0
 13
196.6673364725076
 23
-38.94994057244666
 33
0.0
  0
MTEXT
  5
276
330
26D
100
AcDbEntity
  8
치수문자_일반주서
 62
     0
100
AcDbMText
 10
192.2923364725075
 20
-0.6130373877042733
 30
0.0
 40
3.5
 41
0.0
 71
     2
 72
     1
  1
\A1;%%c9.53 [3/8]
  7
SLDTEXTSTYLE0
 11
-2.983906501879686E-15
 21
1.0
 31
0.0
 73
     1
 44
1.0
  0
POINT
  5
277
330
26D
100
AcDbEntity
  8
Defpoints
 62
     0
100
AcDbPoint
 10
182.4663157983587
 20
-29.42494057244671
 30
0.0
  0
POINT
  5
278
330
26D
100
AcDbEntity
  8
Defpoints
 62
     0
100
AcDbPoint
 10
182.4663157983587
 20
-38.94994057244671
 30
0.0
  0
POINT
  5
279
330
26D
100
AcDbEntity
  8
Defpoints
 62
     0
100
AcDbPoint
 10
196.6673364725076
 20
-38.94994057244666
 30
0.0
  0
ENDBLK
  5
26F
330
26D
100
AcDbEntity
  8
0
100
AcDbBlockEnd
  0
BLOCK
  5
2DC
330
2DB
100
AcDbEntity
  8
0
100
AcDbBlockBegin
  2
*D15
 70
     1
 10
0.0
 20
0.0
 30
0.0
  3
*D15
  1
*D15
  0
LINE
  5
2DE
330
2DB
100
AcDbEntity
  8
치수문자_일반주서
 62
     0
370
    -2
100
AcDbLine
 10
25.31297233974305
 20
5.557324928723897
 30
0.0
 11
46.02842288968866
 21
5.557324928723894
 31
0.0
  0
LINE
  5
2DF
330
2DB
100
AcDbEntity
  8
치수문자_일반주서
 62
     0
370
    -2
100
AcDbLine
 10
25.31297233974305
 20
-5.555175071276103
 30
0.0
 11
46.02842288968866
 21
-5.555175071276107
 31
0.0
  0
LINE
  5
2E0
330
2DB
100
AcDbEntity
  8
치수문자_일반주서
 62
     0
370
    -2
100
AcDbLine
 10
46.02842288968866
 20
5.557324928723894
 30
0.0
 11
46.02842288968866
 21
35.98432492872389
 31
0.0
  0
LINE
  5
2E1
330
2DB
100
AcDbEntity
  8
치수문자_일반주서
 62
     0
370
    -2
100
AcDbLine
 10
46.02842288968866
 20
2.255324928723894
 30
0.0
 11
46.02842288968866
 21
-2.253175071276107
 31
0.0
  0
SOLID
  5
2E2
330
2DB
100
AcDbEntity
  8
치수문자_일반주서
 62
     0
100
AcDbTrace
 10
46.57875622302199
 20
2.255324928723894
 30
0.0
 11
45.47808955635532
 21
2.255324928723894
 31
0.0
 12
46.02842288968866
 22
5.557324928723894
 32
0.0
 13
46.02842288968866
 23
5.557324928723894
 33
0.0
  0
SOLID
  5
2E3
330
2DB
100
AcDbEntity
  8
치수문자_일반주서
 62
     0
100
AcDbTrace
 10
45.47808955635532
 20
-2.253175071276107
 30
0.0
 11
46.57875622302199
 21
-2.253175071276107
 31
0.0
 12
46.02842288968866
 22
-5.555175071276107
 32
0.0
 13
46.02842288968866
 23
-5.555175071276107
 33
0.0
  0
MTEXT
  5
2E4
330
2DB
100
AcDbEntity
  8
치수문자_일반주서
 62
     0
100
AcDbMText
 10
43.40342288968866
 20
22.4218249287239
 30
0.0
 40
3.5
 41
0.0
 71
     5
 72
     1
  1
\A1;{%%C11.11 [7/16]}
  7
SLDTEXTSTYLE0
 11
0.0
 21
1.0
 31
0.0
 73
     1
 44
1.0
  0
POINT
  5
2E5
330
2DB
100
AcDbEntity
  8
Defpoints
 62
     0
100
AcDbPoint
 10
25.25047233974305
 20
5.557324928723897
 30
0.0
  0
POINT
  5
2E6
330
2DB
100
AcDbEntity
  8
Defpoints
 62
     0
100
AcDbPoint
 10
25.25047233974305
 20
-5.555175071276103
 30
0.0
  0
POINT
  5
2E7
330
2DB
100
AcDbEntity
  8
Defpoints
 62
     0
100
AcDbPoint
 10
46.02842288968866
 20
-5.555175071276104
 30
0.0
  0
ENDBLK
  5
2DD
330
2DB
100
AcDbEntity
  8
0
100
AcDbBlockEnd
  0
ENDSEC
  0
SECTION
  2
ENTITIES
  0
LINE
  5
96
330
1F
100
AcDbEntity
  8
외형선
  6
Continuous
370
    15
100
AcDbLine
 10
-61.30018467149221
 20
6.351074928723887
 30
0.0
 11
-62.30018467149222
 21
5.351074928723888
 31
0.0
  0
LINE
  5
97
330
1F
100
AcDbEntity
  8
외형선
  6
Continuous
370
    15
100
AcDbLine
 10
-62.30018467149222
 20
-5.348925071276112
 30
0.0
 11
-61.30018467149221
 21
-6.348925071276111
 31
0.0
  0
LINE
  5
98
330
1F
100
AcDbEntity
  8
외형선
  6
Continuous
370
    15
100
AcDbLine
 10
2.000000000000004
 20
6.351074928723896
 30
0.0
 11
-32.5663096714922
 21
6.351074928723891
 31
0.0
  0
LINE
  5
99
330
1F
100
AcDbEntity
  8
외형선
  6
Continuous
370
    15
100
AcDbLine
 10
-61.30018467149221
 20
-6.348925071276112
 30
0.0
 11
2.000000000000007
 21
-6.348925071276104
 31
0.0
  0
LINE
  5
9A
330
1F
100
AcDbEntity
  8
외형선
  6
Continuous
370
    15
100
AcDbLine
 10
2.000000000000007
 20
-6.348925071276103
 30
0.0
 11
4.96231532850779
 21
-5.555175071276103
 31
0.0
  0
LINE
  5
9B
330
1F
100
AcDbEntity
  8
외형선
  6
Continuous
370
    15
100
AcDbLine
 10
4.96231532850779
 20
5.557324928723897
 30
0.0
 11
2.000000000000004
 21
6.351074928723896
 31
0.0
  0
LINE
  5
9C
330
1F
100
AcDbEntity
  8
외형선
  6
Continuous
370
    15
100
AcDbLine
 10
5.962315328507787
 20
5.557324928723897
 30
0.0
 11
4.96231532850779
 21
5.557324928723897
 31
0.0
  0
LINE
  5
9D
330
1F
100
AcDbEntity
  8
외형선
  6
Continuous
370
    15
100
AcDbLine
 10
4.96231532850779
 20
-5.555175071276103
 30
0.0
 11
5.96231532850779
 21
-5.555175071276103
 31
0.0
  0
LINE
  5
9E
102
{ACAD_REACTORS
102
}
330
1F
100
AcDbEntity
  8
0
  6
Continuous
 62
     1
370
    15
100
AcDbLine
 10
24.6948793509783
 20
-5.555175071276103
 30
0.0
 11
25.8060653285078
 21
-5.555175071276103
 31
0.0
  0
LINE
  5
9F
330
1F
100
AcDbEntity
  8
외형선
  6
Continuous
370
    15
100
AcDbLine
 10
6.537007780864196
 20
5.557324928723897
 30
0.0
 11
5.96231532850779
 21
5.557324928723897
 31
0.0
  0
ARC
  5
A0
330
1F
100
AcDbEntity
  8
0
  6
Continuous
 62
     1
370
    15
100
AcDbCircle
 10
25.8060653285078
 20
0.0010749287238966
 30
0.0
 40
5.55625
100
AcDbArc
 50
270.0000000000007
 51
0.0
  0
ARC
  5
A1
330
1F
100
AcDbEntity
  8
0
  6
Continuous
 62
     1
370
    15
100
AcDbCircle
 10
25.8060653285078
 20
0.0010749287238966
 30
0.0
 40
5.55625
100
AcDbArc
 50
0.0
 51
90.0
  0
LINE
  5
A2
330
1F
100
AcDbEntity
  8
외형선
  6
Continuous
370
    15
100
AcDbLine
 10
5.96231532850779
 20
-5.555175071276103
 30
0.0
 11
6.537007780864188
 21
-5.555175071276103
 31
0.0
  0
LINE
  5
A3
102
{ACAD_REACTORS
102
}
330
1F
100
AcDbEntity
  8
0
  6
Continuous
 62
     1
370
    15
100
AcDbLine
 10
25.8060653285078
 20
5.557324928723897
 30
0.0
 11
24.6948793509783
 21
5.557324928723897
 31
0.0
  0
LINE
  5
A4
330
1F
100
AcDbEntity
  8
외형선
  6
Continuous
370
    15
100
AcDbLine
 10
-61.30018467149221
 20
6.351074928723889
 30
0.0
 11
-61.30018467149221
 21
-6.348925071276118
 31
0.0
  0
LINE
  5
A5
330
1F
100
AcDbEntity
  8
외형선
  6
Continuous
370
    15
100
AcDbLine
 10
-62.30018467149222
 20
5.351074928723888
 30
0.0
 11
-62.30018467149222
 21
-5.34892507127612
 31
0.0
  0
LINE
  5
A6
330
1F
100
AcDbEntity
  8
외형선
  6
Continuous
370
    15
100
AcDbLine
 10
2.000000000000004
 20
6.351074928723896
 30
0.0
 11
2.000000000000007
 21
-6.348925071276111
 31
0.0
  0
LINE
  5
A7
330
1F
100
AcDbEntity
  8
외형선
  6
Continuous
370
    15
100
AcDbLine
 10
4.96231532850779
 20
5.557324928723897
 30
0.0
 11
4.96231532850779
 21
2.56533199702154
 31
0.0
  0
SPLINE
  5
A8
330
1F
100
AcDbEntity
  8
외형선
  6
Continuous
370
    15
100
AcDbSpline
210
0.0
220
0.0
230
1.0
 70
     8
 71
     3
 72
     8
 73
     4
 74
     0
 42
0.000000001
 43
0.00000001
 40
0.0
 40
0.0
 40
0.0
 40
0.0
 40
1.0
 40
1.0
 40
1.0
 40
1.0
 10
3.932212934518725
 20
3.233489283122049
 30
0.0
 10
4.275168214507048
 20
3.011533033203518
 30
0.0
 10
4.618510654210676
 20
2.788768531646792
 30
0.0
 10
4.96231532850779
 20
2.565331997021541
 30
0.0
  0
LINE
  5
A9
330
1F
100
AcDbEntity
  8
외형선
  6
Continuous
370
    15
100
AcDbLine
 10
3.931978119889925
 20
-5.617015142486056
 30
0.0
 11
3.931978119889921
 21
3.23358246822153
 31
0.0
  0
SPLINE
  5
AA
330
1F
100
AcDbEntity
  8
외형선
  6
Continuous
370
    15
100
AcDbSpline
210
0.0
220
0.0
230
1.0
 70
     8
 71
     3
 72
     8
 73
     4
 74
     0
 42
0.000000001
 43
0.00000001
 40
0.0
 40
0.0
 40
0.0
 40
0.0
 40
1.0
 40
1.0
 40
1.0
 40
1.0
 10
4.96231532850779
 20
-5.480778645197525
 30
0.0
 10
4.615280285281489
 20
-5.540053994487253
 30
0.0
 10
4.27207715748499
 20
-5.586025575332478
 30
0.0
 10
3.931978119889925
 20
-5.616998469090025
 30
0.0
  0
LINE
  5
AB
330
1F
100
AcDbEntity
  8
외형선
  6
Continuous
370
    15
100
AcDbLine
 10
4.96231532850779
 20
-5.480778645197525
 30
0.0
 11
4.96231532850779
 21
-5.555175071276103
 31
0.0
  0
SPLINE
  5
AC
330
1F
100
AcDbEntity
  8
외형선
  6
Continuous
370
    15
100
AcDbSpline
210
0.0
220
0.0
230
1.0
 70
    24
 71
     3
 72
    14
 73
    10
 74
     0
 42
0.000000001
 43
0.00000001
 40
0.0
 40
0.0
 40
0.0
 40
0.0
 40
0.2499999999999998
 40
0.2499999999999998
 40
0.4999999999999999
 40
0.4999999999999999
 40
0.75
 40
0.75
 40
1.0
 40
1.0
 40
1.0
 40
1.0
 10
5.962315328507787
 20
2.039303916331916
 30
0.0
 10
5.962315328507787
 20
1.859290268015185
 30
0.0
 10
5.962315328507787
 20
1.599661569345803
 30
0.0
 10
5.962315328507787
 20
0.9755867118163223
 30
0.0
 10
5.962315328507787
 20
0.6131040088413903
 30
0.0
 10
5.962315328507787
 20
-0.1269936575398803
 30
0.0
 10
5.962315328507787
 20
-0.5032597730136842
 30
0.0
 10
5.962315328507787
 20
-1.205365219407049
 30
0.0
 10
5.962315328507787
 20
-1.531343980721898
 30
0.0
 10
5.962315328507787
 20
-1.820804336511834
 30
0.0
  0
SPLINE
  5
AD
330
1F
100
AcDbEntity
  8
외형선
  6
Continuous
370
    15
100
AcDbSpline
210
0.0
220
0.0
230
1.0
 70
     8
 71
     3
 72
    10
 73
     6
 74
     0
 42
0.000000001
 43
0.00000001
 40
0.0
 40
0.0
 40
0.0
 40
0.0
 40
0.5
 40
0.5
 40
1.0
 40
1.0
 40
1.0
 40
1.0
 10
5.962315328508852
 20
-1.820804336512198
 30
0.0
 10
5.623709031097825
 20
-1.704167665730727
 30
0.0
 10
5.288221361379705
 20
-1.584518862817213
 30
0.0
 10
4.611113501397908
 20
-1.339069695095333
 30
0.0
 10
4.270938685273141
 20
-1.213428240657655
 30
0.0
 10
3.931978119889921
 20
-1.085914280502708
 30
0.0
  0
SPLINE
  5
AE
330
1F
100
AcDbEntity
  8
외형선
  6
Continuous
370
    15
100
AcDbSpline
210
0.0
220
0.0
230
1.0
 70
     8
 71
     3
 72
     8
 73
     4
 74
     0
 42
0.000000001
 43
0.00000001
 40
0.0
 40
0.0
 40
0.0
 40
0.0
 40
1.0
 40
1.0
 40
1.0
 40
1.0
 10
4.96231532850754
 20
2.565331997022241
 30
0.0
 10
5.29661279566032
 20
2.394142339513438
 30
0.0
 10
5.627925901813953
 20
2.218836659557191
 30
0.0
 10
5.962315328506733
 20
2.039303916333295
 30
0.0
  0
LINE
  5
AF
330
1F
100
AcDbEntity
  8
외형선
  6
Continuous
370
    15
100
AcDbLine
 10
5.962315328507787
 20
5.557324928723897
 30
0.0
 11
5.962315328507787
 21
2.03930391633324
 31
0.0
  0
SPLINE
  5
B0
330
1F
100
AcDbEntity
  8
외형선
  6
Continuous
370
    15
100
AcDbSpline
210
0.0
220
0.0
230
1.0
 70
     8
 71
     3
 72
     8
 73
     4
 74
     0
 42
0.000000001
 43
0.00000001
 40
0.0
 40
0.0
 40
0.0
 40
0.0
 40
1.0
 40
1.0
 40
1.0
 40
1.0
 10
5.962315328508794
 20
-5.545264204362105
 30
0.0
 10
5.6279259018155
 20
-5.533742587841603
 30
0.0
 10
5.296612795661371
 20
-5.512250978073436
 30
0.0
 10
4.962315328508085
 20
-5.480778645196841
 30
0.0
  0
SPLINE
  5
B1
330
1F
100
AcDbEntity
  8
외형선
  6
Continuous
370
    15
100
AcDbSpline
210
0.0
220
0.0
230
1.0
 70
    24
 71
     3
 72
    14
 73
    10
 74
     0
 42
0.000000001
 43
0.00000001
 40
0.0
 40
0.0
 40
0.0
 40
0.0
 40
0.2500000000000001
 40
0.2500000000000001
 40
0.5000000000000001
 40
0.5000000000000001
 40
0.7500000000000002
 40
0.7500000000000002
 40
1.0
 40
1.0
 40
1.0
 40
1.0
 10
5.962315328507787
 20
-1.820804336511832
 30
0.0
 10
5.962315328507787
 20
-1.877612413888724
 30
0.0
 10
5.962315328507787
 20
-1.984549959108199
 30
0.0
 10
5.962315328507787
 20
-2.342528741899144
 30
0.0
 10
5.962315328507787
 20
-2.595151297098762
 30
0.0
 10
5.962315328507787
 20
-3.255411249309039
 30
0.0
 10
5.962315328507787
 20
-3.663663072024962
 30
0.0
 10
5.962315328507787
 20
-4.569752266760212
 30
0.0
 10
5.962315328507787
 20
-5.06530432933677
 30
0.0
 10
5.962315328507787
 20
-5.545264204358954
 30
0.0
  0
LINE
  5
B2
330
1F
100
AcDbEntity
  8
외형선
  6
Continuous
370
    15
100
AcDbLine
 10
5.962315328507787
 20
-5.545264204362073
 30
0.0
 11
5.96231532850779
 21
-5.555175071276103
 31
0.0
  0
SPLINE
  5
B3
330
1F
100
AcDbEntity
  8
0
  6
Continuous
 62
     1
370
    15
100
AcDbSpline
210
0.0
220
0.0
230
1.0
 70
     8
 71
     3
 72
    18
 73
    14
 74
     0
 42
0.000000001
 43
0.00000001
 40
0.0
 40
0.0
 40
0.0
 40
0.0
 40
0.0960706864783691
 40
0.1921514001013216
 40
0.2882625598521958
 40
0.3844244379298552
 40
0.4805888588882485
 40
0.5767017449660633
 40
0.6672811573211855
 40
0.7578536242146016
 40
0.8484687947715357
 40
0.9391680294340429
 40
1.0
 40
1.0
 40
1.0
 40
1.0
 10
25.8060653285078
 20
-2.322109622990984
 30
0.0
 10
25.18904790408757
 20
-1.990094658574943
 30
0.0
 10
23.95494865555193
 20
-1.326030076487281
 30
0.0
 10
22.10353925779322
 20
-0.2578941146046146
 30
0.0
 10
20.25144317758662
 20
0.8138045575734433
 30
0.0
 10
18.39854184529639
 20
1.85701232321704
 30
0.0
 10
16.54562971173927
 20
2.83120849939873
 30
0.0
 10
14.72878272446942
 20
3.684694911992361
 30
0.0
 10
12.94818853694607
 20
4.393353629752886
 30
0.0
 10
11.20288597110428
 20
4.945706198704086
 30
0.0
 10
9.456715277905728
 20
5.328730894349745
 30
0.0
 10
7.90103442605743
 20
5.5372687643245
 30
0.0
 10
6.927736674520888
 20
5.537182222283093
 30
0.0
 10
6.537007780864196
 20
5.537147480112937
 30
0.0
  0
SPLINE
  5
B4
330
1F
100
AcDbEntity
  8
0
  6
Continuous
 62
     1
370
    15
100
AcDbSpline
210
0.0
220
0.0
230
1.0
 70
     8
 71
     3
 72
    15
 73
    11
 74
     0
 42
0.000000001
 43
0.00000001
 40
0.0
 40
0.0
 40
0.0
 40
0.0
 40
0.1173026397410053
 40
0.2346003354553167
 40
0.3519419460968028
 40
0.5017621585270063
 40
0.6515912459044396
 40
0.8014272679134674
 40
0.9512682783745844
 40
1.0
 40
1.0
 40
1.0
 40
1.0
 10
29.87486872985575
 20
0.5832829686423913
 30
0.0
 10
29.27842304598961
 20
0.8131318477535578
 30
0.0
 10
28.08555681702139
 20
1.272819918393443
 30
0.0
 10
26.29606206005398
 20
1.913212440030059
 30
0.0
 10
24.34120904621572
 20
2.54223676557308
 30
0.0
 10
22.22048323588563
 20
3.107268378541174
 30
0.0
 10
19.93462974310513
 20
3.545934995607622
 30
0.0
 10
17.64862093161152
 20
3.770869391491438
 30
0.0
 10
15.87675622893135
 20
3.823562347112754
 30
0.0
 10
14.86689290332367
 20
3.73073616831571
 30
0.0
 10
14.6190624084409
 20
3.707955701646614
 30
0.0
  0
SPLINE
  5
B5
330
1F
100
AcDbEntity
  8
0
  6
Continuous
 62
     1
370
    15
100
AcDbSpline
210
0.0
220
0.0
230
1.0
 70
     8
 71
     3
 72
    32
 73
    28
 74
     0
 42
0.000000001
 43
0.00000001
 40
0.0
 40
0.0
 40
0.0
 40
0.0
 40
0.125
 40
0.125
 40
0.1875
 40
0.1875
 40
0.25
 40
0.25
 40
0.3749999999999999
 40
0.3749999999999999
 40
0.4375
 40
0.4375
 40
0.5
 40
0.5
 40
0.5625
 40
0.5625
 40
0.625
 40
0.625
 40
0.6875
 40
0.6875
 40
0.75
 40
0.75
 40
0.8125000000000001
 40
0.8125000000000001
 40
0.8750000000000001
 40
0.8750000000000001
 40
1.0
 40
1.0
 40
1.0
 40
1.0
 10
25.8060653285078
 20
-2.322109622990984
 30
0.0
 10
26.11480533322358
 20
-2.483713401229926
 30
0.0
 10
26.41868433459808
 20
-2.628351216626786
 30
0.0
 10
26.87292540056364
 20
-2.811888073060643
 30
0.0
 10
27.0240215240073
 20
-2.867547635993593
 30
0.0
 10
27.32727229631749
 20
-2.96474311629339
 30
0.0
 10
27.48014379536258
 20
-3.00634667063161
 30
0.0
 10
27.93260033692732
 20
-3.103029237489326
 30
0.0
 10
28.22838189614665
 20
-3.132178251955921
 30
0.0
 10
28.6729920278718
 20
-3.098943412423433
 30
0.0
 10
28.81852733886914
 20
-3.074925549484796
 30
0.0
 10
29.1042451733023
 20
-2.996340056764351
 30
0.0
 10
29.24615248036643
 20
-2.941091019166798
 30
0.0
 10
29.51861980827731
 20
-2.794081308101882
 30
0.0
 10
29.64837406716747
 20
-2.70339499838576
 30
0.0
 10
29.89407658287599
 20
-2.478370044514192
 30
0.0
 10
30.00448584218864
 20
-2.349013117210373
 30
0.0
 10
30.19705807349445
 20
-2.052490281663274
 30
0.0
 10
30.27441164705765
 20
-1.892313363828463
 30
0.0
 10
30.38886272311735
 20
-1.553667625491242
 30
0.0
 10
30.4238897329565
 20
-1.380877309103693
 30
0.0
 10
30.45310274127371
 20
-1.037308691718373
 30
0.0
 10
30.44713689202043
 20
-0.8712852064567864
 30
0.0
 10
30.4028074253897
 20
-0.5499604201980539
 30
0.0
 10
30.3638631572567
 20
-0.393458088355478
 30
0.0
 10
30.21076156659376
 20
0.0513529187080026
 30
0.0
 10
30.05960439053759
 20
0.3236699746602592
 30
0.0
 10
29.87486872985212
 20
0.5832829686438032
 30
0.0
  0
SPLINE
  5
B6
330
1F
100
AcDbEntity
  8
0
  6
Continuous
 62
     1
370
    15
100
AcDbSpline
210
0.0
220
0.0
230
1.0
 70
     8
 71
     3
 72
    12
 73
     8
 74
     0
 42
0.000000001
 43
0.00000001
 40
0.0
 40
0.0
 40
0.0
 40
0.0
 40
0.1277776012301401
 40
0.339907262366182
 40
0.5520384596103679
 40
0.7760329569660521
 40
1.0
 40
1.0
 40
1.0
 40
1.0
 10
16.73962391897697
 20
-3.752177164148014
 30
0.0
 10
16.28060100429811
 20
-3.763948161118826
 30
0.0
 10
15.05953236010889
 20
-3.795260748905342
 30
0.0
 10
13.07639533608283
 20
-3.607732524775514
 30
0.0
 10
10.74766250812376
 20
-3.214096232714386
 30
0.0
 10
8.37620126185506
 20
-2.61885685794875
 30
0.0
 10
6.766911096644982
 20
-2.086810974451415
 30
0.0
 10
5.96231532850779
 20
-1.820804336511833
 30
0.0
  0
SPLINE
  5
B7
330
1F
100
AcDbEntity
  8
외형선
  6
Continuous
370
    15
100
AcDbSpline
210
0.0
220
0.0
230
1.0
 70
    24
 71
     3
 72
    14
 73
    10
 74
     0
 42
0.000000001
 43
0.00000001
 40
0.0
 40
0.0
 40
0.0
 40
0.0
 40
0.2499999999999998
 40
0.2499999999999998
 40
0.4999999999999999
 40
0.4999999999999999
 40
0.75
 40
0.75
 40
1.0
 40
1.0
 40
1.0
 40
1.0
 10
5.96231532850779
 20
2.039303916331916
 30
0.0
 10
5.96231532850779
 20
1.859290268015184
 30
0.0
 10
5.96231532850779
 20
1.599661569345803
 30
0.0
 10
5.96231532850779
 20
0.9755867118163223
 30
0.0
 10
5.96231532850779
 20
0.6131040088413903
 30
0.0
 10
5.96231532850779
 20
-0.1269936575398804
 30
0.0
 10
5.96231532850779
 20
-0.5032597730136843
 30
0.0
 10
5.96231532850779
 20
-1.205365219407049
 30
0.0
 10
5.96231532850779
 20
-1.531343980721899
 30
0.0
 10
5.96231532850779
 20
-1.820804336511835
 30
0.0
  0
SPLINE
  5
B8
330
1F
100
AcDbEntity
  8
0
  6
Continuous
 62
     1
370
    15
100
AcDbSpline
210
0.0
220
0.0
230
1.0
 70
     8
 71
     3
 72
    19
 73
    15
 74
     0
 42
0.000000001
 43
0.00000001
 40
0.0
 40
0.0
 40
0.0
 40
0.0
 40
0.1046080329869917
 40
0.2103103304602854
 40
0.2956624974380023
 40
0.3816083826627737
 40
0.4668838045247298
 40
0.552749392113866
 40
0.6380250943873338
 40
0.7238933446091239
 40
0.8063860096833175
 40
0.8894123003262205
 40
0.9740815104734364
 40
1.0
 40
1.0
 40
1.0
 40
1.0
 10
5.96231532850779
 20
2.039303916332437
 30
0.0
 10
6.615573769224358
 20
1.680308798242195
 30
0.0
 10
7.928924136496411
 20
0.9585632519075596
 30
0.0
 10
9.775336492898914
 20
-0.1154109889430999
 30
0.0
 10
11.5054296916863
 20
-1.108455182716263
 30
0.0
 10
13.10718225338498
 20
-2.000379296619402
 30
0.0
 10
14.71205175140257
 20
-2.838165633997241
 30
0.0
 10
16.31326871814234
 20
-3.594565059618091
 30
0.0
 10
17.91846346374544
 20
-4.252994637577799
 30
0.0
 10
19.50186865069927
 20
-4.786629547460405
 30
0.0
 10
21.07104422872523
 20
-5.190399315398982
 30
0.0
 10
22.63370516261104
 20
-5.445477912170663
 30
0.0
 10
23.8427064315956
 20
-5.563366082231041
 30
0.0
 10
24.53307690806177
 20
-5.543616373569391
 30
0.0
 10
24.6948793509783
 20
-5.538987625357705
 30
0.0
  0
SPLINE
  5
B9
330
1F
100
AcDbEntity
  8
0
  6
Continuous
 62
     1
370
    15
100
AcDbSpline
210
0.0
220
0.0
230
1.0
 70
     8
 71
     3
 72
    12
 73
     8
 74
     0
 42
0.000000001
 43
0.00000001
 40
0.0
 40
0.0
 40
0.0
 40
0.0
 40
0.2499999999999993
 40
0.2499999999999993
 40
0.4999999999999987
 40
0.4999999999999987
 40
1.0
 40
1.0
 40
1.0
 40
1.0
 10
29.8748687298521
 20
0.583282968643811
 30
0.0
 10
29.93877220566576
 20
0.6218046075795498
 30
0.0
 10
29.99569815341789
 20
0.6695547507134851
 30
0.0
 10
30.09554698919303
 20
0.78405138510357
 30
0.0
 10
30.13879719850807
 20
0.851884642523298
 30
0.0
 10
30.24111344406676
 20
1.074814027851813
 30
0.0
 10
30.27488309372563
 20
1.253876054993827
 30
0.0
 10
30.2779950918822
 20
1.440090276885184
 30
0.0
  0
ARC
  5
BA
330
1F
100
AcDbEntity
  8
0
  6
Continuous
 62
     1
370
    15
100
AcDbCircle
 10
28.70401411326624
 20
-0.9647852683238666
 30
0.0
 40
2.874168142087317
100
AcDbArc
 50
23.84125672760644
 51
56.79542084518445
  0
ARC
  5
BB
330
1F
100
AcDbEntity
  8
0
  6
Continuous
 62
     1
370
    15
100
AcDbCircle
 10
26.36612907550825
 20
0.1048158778451838
 30
0.0
 40
4.967651861489307
100
AcDbArc
 50
1.062888871613454
 51
71.16807011954819
  0
SPLINE
  5
BC
330
1F
100
AcDbEntity
  8
0
  6
Continuous
 62
     1
370
    15
100
AcDbSpline
210
0.0
220
0.0
230
1.0
 70
     8
 71
     3
 72
    10
 73
     6
 74
     0
 42
0.000000001
 43
0.00000001
 40
0.0
 40
0.0
 40
0.0
 40
0.0
 40
0.5
 40
0.5
 40
1.0
 40
1.0
 40
1.0
 40
1.0
 10
27.96965329312728
 20
4.806546952722544
 30
0.0
 10
27.62572794473436
 20
5.01607466122946
 30
0.0
 10
27.27188388650802
 20
5.180810566156185
 30
0.0
 10
26.55057082100779
 20
5.420488232831577
 30
0.0
 10
26.17869877371059
 20
5.49555362938866
 30
0.0
 10
25.8060653285078
 20
5.520300104546543
 30
0.0
  0
SPLINE
  5
BD
330
1F
100
AcDbEntity
  8
0
  6
Continuous
 62
     1
370
    15
100
AcDbSpline
210
0.0
220
0.0
230
1.0
 70
     8
 71
     3
 72
     8
 73
     4
 74
     0
 42
0.000000001
 43
0.00000001
 40
0.0
 40
0.0
 40
0.0
 40
0.0
 40
1.0
 40
1.0
 40
1.0
 40
1.0
 10
26.8424417158275
 20
2.488313113455765
 30
0.0
 10
27.97194461274116
 20
2.174415182128109
 30
0.0
 10
29.12356268856701
 20
1.820698386630649
 30
0.0
 10
30.27799509188223
 20
1.440090276885227
 30
0.0
  0
SPLINE
  5
BE
330
1F
100
AcDbEntity
  8
0
  6
Continuous
 62
     1
370
    15
100
AcDbSpline
210
0.0
220
0.0
230
1.0
 70
     8
 71
     3
 72
    13
 73
     9
 74
     0
 42
0.000000001
 43
0.00000001
 40
0.0
 40
0.0
 40
0.0
 40
0.0
 40
0.1295756741620739
 40
0.3069807977642905
 40
0.4774119106140762
 40
0.6489455020834874
 40
0.8238733904784598
 40
1.0
 40
1.0
 40
1.0
 40
1.0
 10
16.73962391897697
 20
3.75432702159581
 30
0.0
 10
17.13131926972524
 20
3.91926731009336
 30
0.0
 10
18.05929399978814
 20
4.310031253047018
 30
0.0
 10
19.50186792894926
 20
4.786983523482243
 30
0.0
 10
21.07104186147608
 20
5.191802597850718
 30
0.0
 10
22.6337155419378
 20
5.452482202616836
 30
0.0
 10
24.21315181083519
 20
5.582513652339061
 30
0.0
 10
25.27388681685339
 20
5.541085108190265
 30
0.0
 10
25.8060653285078
 20
5.52030010454654
 30
0.0
  0
SPLINE
  5
BF
330
1F
100
AcDbEntity
  8
0
  6
Continuous
 62
     1
370
    15
100
AcDbSpline
210
0.0
220
0.0
230
1.0
 70
     8
 71
     3
 72
    18
 73
    14
 74
     0
 42
0.000000001
 43
0.00000001
 40
0.0
 40
0.0
 40
0.0
 40
0.0
 40
0.25
 40
0.25
 40
0.375
 40
0.375
 40
0.5
 40
0.5
 40
0.625
 40
0.625
 40
0.75
 40
0.75
 40
1.0
 40
1.0
 40
1.0
 40
1.0
 10
27.9696532931273
 20
4.806546952722547
 30
0.0
 10
28.00914737582593
 20
4.573321652221627
 30
0.0
 10
28.02691352829692
 20
4.335938433511036
 30
0.0
 10
28.00107221355431
 20
3.975278177263394
 30
0.0
 10
27.98371707168042
 20
3.857058622559518
 30
0.0
 10
27.92848468100313
 20
3.625316157248916
 30
0.0
 10
27.88990989219273
 20
3.510471283738113
 30
0.0
 10
27.79192064446269
 20
3.294919552912175
 30
0.0
 10
27.73277583006694
 20
3.193926722239714
 30
0.0
 10
27.59385029606355
 20
3.005731350006475
 30
0.0
 10
27.51356284350035
 20
2.91852111626442
 30
0.0
 10
27.25453092369265
 20
2.688457179383168
 30
0.0
 10
27.05219299606295
 20
2.571683303421522
 30
0.0
 10
26.8424417158275
 20
2.488313113455761
 30
0.0
  0
SPLINE
  5
C0
330
1F
100
AcDbEntity
  8
0
  6
Continuous
 62
     1
370
    15
100
AcDbSpline
210
0.0
220
0.0
230
1.0
 70
     8
 71
     3
 72
    12
 73
     8
 74
     0
 42
0.000000001
 43
0.00000001
 40
0.0
 40
0.0
 40
0.0
 40
0.0
 40
0.1930387928558626
 40
0.3946386500077203
 40
0.5963335586996369
 40
0.7982155806750535
 40
1.0
 40
1.0
 40
1.0
 40
1.0
 10
14.61906240844089
 20
-3.705805844198819
 30
0.0
 10
14.06208501203814
 20
-3.935533998901024
 30
0.0
 10
12.92342886655901
 20
-4.40517850661475
 30
0.0
 10
11.20289085085271
 20
-4.941329279415068
 30
0.0
 10
9.456710496176393
 20
-5.329225249991448
 30
0.0
 10
7.709446742082717
 20
-5.552449129748172
 30
0.0
 10
6.544598583351773
 20
-5.547658793405094
 30
0.0
 10
5.962315328508797
 20
-5.545264204362107
 30
0.0
  0
SPLINE
  5
C1
330
1F
100
AcDbEntity
  8
외형선
  6
Continuous
370
    15
100
AcDbSpline
210
0.0
220
0.0
230
1.0
 70
    24
 71
     3
 72
    14
 73
    10
 74
     0
 42
0.000000001
 43
0.00000001
 40
0.0
 40
0.0
 40
0.0
 40
0.0
 40
0.25
 40
0.25
 40
0.5
 40
0.5
 40
0.75
 40
0.75
 40
1.0
 40
1.0
 40
1.0
 40
1.0
 10
5.96231532850779
 20
-1.820804336511833
 30
0.0
 10
5.96231532850779
 20
-1.877612413888725
 30
0.0
 10
5.96231532850779
 20
-1.984549959108201
 30
0.0
 10
5.96231532850779
 20
-2.342528741899146
 30
0.0
 10
5.96231532850779
 20
-2.595151297098763
 30
0.0
 10
5.96231532850779
 20
-3.255411249309042
 30
0.0
 10
5.96231532850779
 20
-3.663663072024967
 30
0.0
 10
5.96231532850779
 20
-4.569752266760219
 30
0.0
 10
5.96231532850779
 20
-5.065304329336775
 30
0.0
 10
5.96231532850779
 20
-5.54526420435896
 30
0.0
  0
LINE
  5
C2
330
1F
100
AcDbEntity
  8
중심선
 48
0.8
100
AcDbLine
 10
-65.30018467149222
 20
0.0010749287238888
 30
0.0
 11
34.3623153285078
 21
0.001074928723901
 31
0.0
  0
LINE
  5
C4
330
1F
100
AcDbEntity
  8
참조1
100
AcDbLine
 10
-6.581988685968835
 20
0.0010749287238892
 30
0.0
 11
-6.581988685968829
 21
-39.99892507127611
 31
0.0
  0
LINE
  5
C5
330
1F
100
AcDbEntity
  8
참조1
100
AcDbLine
 10
-6.581988685968829
 20
-39.99892507127611
 30
0.0
 11
-20.94709550027751
 21
-39.9989250712761
 31
0.0
  0
CIRCLE
  5
C6
330
1F
100
AcDbEntity
  8
해칭선
100
AcDbCircle
 10
0.0
 20
0.0
 30
0.0
 40
3.000000000000003
  0
INSERT
  5
C7
330
1F
100
AcDbEntity
  8
0
  6
Continuous
 62
     7
100
AcDbBlockReference
 66
     1
  2
블럭10
 10
-29.40920760361742
 20
-52.04609937292004
 30
0.0
  0
ATTRIB
  5
C8
330
C7
100
AcDbEntity
  8
FORMAT
 62
     2
100
AcDbText
 10
-38.5905028923587
 20
-49.97073246008785
 30
0.0
 40
4.233333333333333
  1
E1111028 [ 2 FLUTE ]
 41
0.75
  7
SLDTEXTSTYLE0
 11
-38.5905028923587
 21
-52.08739912675452
 31
0.0
100
AcDbAttribute
  2
AUTOATTR0
 70
     0
 74
     1
  0
SEQEND
  5
C9
330
C7
100
AcDbEntity
  8
0
  6
Continuous
 62
     7
  0
HATCH
  5
CA
330
1F
100
AcDbEntity
  8
중심선
100
AcDbHatch
 10
0.0
 20
0.0
 30
0.0
210
0.0
220
0.0
230
1.0
  2
SOLID
 70
     1
 71
     0
 91
        1
 92
        0
 93
        4
 72
     1
 10
-23.69429829923657
 20
-35.7989250712761
 11
-27.14057354307385
 21
-35.7989250712761
 72
     1
 10
-27.14057354307385
 20
-35.7989250712761
 11
-29.26880340227787
 21
-38.33525065184867
 72
     1
 10
-29.26880340227788
 20
-38.33525065184867
 11
-25.82249507332741
 21
-38.33521122254619
 72
     1
 10
-25.82249507332741
 20
-38.33521122254619
 11
-23.69429829923656
 21
-35.7989250712761
 97
        0
 75
     0
 76
     1
 98
        1
 10
-8.886945985523377
 20
0.0
  0
HATCH
  5
CB
330
1F
100
AcDbEntity
  8
중심선
100
AcDbHatch
 10
0.0
 20
0.0
 30
0.0
210
0.0
220
0.0
230
1.0
  2
SOLID
 70
     1
 71
     0
 91
        1
 92
        0
 93
        4
 72
     1
 10
-18.68153430820062
 20
-35.79892507127608
 11
-22.12780955203793
 21
-35.79892507127613
 72
     1
 10
-22.12780955203792
 20
-35.79892507127613
 11
-26.65894756039528
 21
-41.19892507127612
 72
     1
 10
-26.65894756039528
 20
-41.19892507127612
 11
-23.212672316558
 21
-41.19892507127612
 72
     1
 10
-23.21267231655801
 20
-41.19892507127612
 11
-18.68153430820062
 21
-35.79892507127608
 97
        0
 75
     0
 76
     1
 98
        1
 10
-8.886945985523377
 20
0.0
  0
HATCH
  5
CC
330
1F
100
AcDbEntity
  8
중심선
100
AcDbHatch
 10
0.0
 20
0.0
 30
0.0
210
0.0
220
0.0
230
1.0
  2
SOLID
 70
     1
 71
     0
 91
        1
 92
        0
 93
        4
 72
     1
 10
-13.66877031716472
 20
-35.79892507127613
 11
-17.11504556100181
 21
-35.7989250712761
 72
     1
 10
-17.11504556100181
 20
-35.7989250712761
 11
-24.16348246289108
 21
-44.19892507127612
 72
     1
 10
-24.16348246289109
 20
-44.19892507127612
 11
-20.7172072190538
 21
-44.19892507127612
 72
     1
 10
-20.7172072190538
 20
-44.19892507127612
 11
-13.66877031716472
 21
-35.79892507127613
 97
        0
 75
     0
 76
     1
 98
        1
 10
-8.886945985523377
 20
0.0
  0
HATCH
  5
CD
330
1F
100
AcDbEntity
  8
중심선
100
AcDbHatch
 10
0.0
 20
0.0
 30
0.0
210
0.0
220
0.0
230
1.0
  2
SOLID
 70
     1
 71
     0
 91
        1
 92
        0
 93
        6
 72
     3
 10
-8.868879886152522
 20
-39.99892507132738
 11
3.960054785062284
 21
1.540882976769353E-10
 40
0.3939339440162627
 50
17.09539180608436
 51
320.0019657685075
 73
     0
 72
     1
 10
-7.185880230451926
 20
-38.58681907591438
 11
-4.880578356750833
 21
-36.65249236586646
 72
     3
 10
-8.868879886205368
 20
-39.99892507127625
 11
6.600054785286829
 21
-1.278976924368180E-13
 40
0.636358354079598
 50
39.99873849337393
 51
368.4976242363724
 73
     1
 72
     1
 10
-2.443547394304758
 20
-39.03892507120613
 11
-10.18881257936945
 21
-39.0389250712061
 72
     1
 10
-10.18881257936945
 20
-39.0389250712061
 11
-10.18883762381538
 21
-40.95892507120602
 72
     1
 10
-10.18883762381538
 20
-40.95892507120602
 11
-5.747457854343343
 21
-40.95892507120599
 97
        0
 75
     0
 76
     1
 98
        1
 10
-8.886945985523377
 20
0.0
  0
DIMENSION
  5
CE
330
1F
100
AcDbEntity
  8
치수문자_일반주서
100
AcDbDimension
  2
_D
 10
5.962315328507787
 20
14.16741118867725
 30
0.0
 11
-6.089684671492213
 21
14.16741118867725
 31
0.0
 70
   160
  1
<>
 71
     2
 42
25.40000000000004
  3
SLDDIMSTYLE1
100
AcDbAlignedDimension
 13
31.36231532850783
 23
5.557324928723902
 33
0.0
 14
5.962315328507787
 24
5.557324928723906
 34
0.0
 50
0.000000000000004
100
AcDbRotatedDimension
1001
ACAD
1000
DSTYLE
1002
{
1070
   171
1070
     6
1070
   273
1070
     7
1002
}
  0
DIMENSION
  5
E3
330
1F
100
AcDbEntity
  8
치수문자_일반주서
100
AcDbDimension
  2
_D_1
 10
-62.30018467149221
 20
29.96270874461621
 30
0.0
 11
-15.46893467149222
 21
29.96270874461621
 31
0.0
 70
   160
  1
<>
 71
     2
 42
93.66250000000005
  3
SLDDIMSTYLE1
100
AcDbAlignedDimension
 13
31.36231532850783
 23
5.557324928723902
 33
0.0
 14
-62.30018467149222
 24
5.351074928723887
 34
0.0
 50
0.0000000000000043
100
AcDbRotatedDimension
1001
ACAD
1000
DSTYLE
1002
{
1070
   171
1070
     6
1070
   273
1070
     7
1002
}
  0
DIMENSION
  5
F7
330
1F
100
AcDbEntity
  8
치수문자_일반주서
100
AcDbDimension
  2
_D_2
 10
-74.8001846714922
 20
-6.348925071276148
 30
0.0
 11
-74.80018467149223
 21
0.0010749287238906
 31
0.0
 70
   160
  1
%%c<>
 71
     2
 42
12.69999999999999
 52
-270.0
  3
SLDDIMSTYLE1
100
AcDbAlignedDimension
 13
-61.30018467149221
 23
6.351074928723891
 33
0.0
 14
-61.30018467149221
 24
-6.348925071276098
 34
0.0
 50
90.0000000000002
100
AcDbRotatedDimension
1001
ACAD
1000
DSTYLE
1002
{
1070
   171
1070
     6
1070
   273
1070
     7
1002
}
  0
LINE
  5
11F
330
1F
100
AcDbEntity
  8
참조1
100
AcDbLine
 10
77.02524512937676
 20
7.441074928723896
 30
0.0
 11
77.02524512937676
 21
-7.438925071276109
 31
0.0
  0
LINE
  5
120
330
1F
100
AcDbEntity
  8
참조1
100
AcDbLine
 10
89.72524512937676
 20
5.441074928723896
 30
0.0
 11
77.02524512937676
 21
5.441074928723896
 31
0.0
  0
SOLID
  5
121
330
1F
100
AcDbEntity
  8
참조1
100
AcDbTrace
 10
77.02524512937676
 20
5.441074928723896
 30
0.0
 11
83.37524512937675
 21
4.425074928723896
 31
0.0
 12
83.37524512937675
 22
6.457074928723896
 32
0.0
 13
83.37524512937675
 23
6.457074928723896
 33
0.0
  0
LINE
  5
122
330
1F
100
AcDbEntity
  8
참조1
100
AcDbLine
 10
89.72524512937676
 20
-5.438925071276109
 30
0.0
 11
77.02524512937676
 21
-5.438925071276109
 31
0.0
  0
SOLID
  5
123
330
1F
100
AcDbEntity
  8
참조1
100
AcDbTrace
 10
77.02524512937676
 20
-5.438925071276109
 30
0.0
 11
83.37524512937675
 21
-6.454925071276109
 31
0.0
 12
83.37524512937675
 22
-4.422925071276109
 32
0.0
 13
83.37524512937675
 23
-4.422925071276109
 33
0.0
  0
MTEXT
  5
124
330
1F
100
AcDbEntity
  8
참조1
100
AcDbMText
 10
86.62535993993933
 20
11.06679249473997
 30
0.0
 40
3.5
 41
0.0
 71
     1
 72
     1
  1
A
  7
SLDTEXTSTYLE0
 73
     1
 44
1.0
  0
MTEXT
  5
125
330
1F
100
AcDbEntity
  8
참조1
100
AcDbMText
 10
86.62535993993933
 20
0.1867924947399633
 30
0.0
 40
3.5
 41
0.0
 71
     1
 72
     1
  1
A
  7
SLDTEXTSTYLE0
 73
     1
 44
1.0
  0
INSERT
  5
12C
330
1F
100
AcDbEntity
  8
해칭선
100
AcDbBlockReference
  2
SW_DOWELSYMBOL_0
 10
0.0
 20
0.0
 30
0.0
  0
LINE
  5
2B0
330
1F
100
AcDbEntity
  8
외형선
  6
Continuous
370
    15
100
AcDbLine
 10
-45.26630967149219
 20
4.827074928723878
 30
0.0
 11
-34.09030967149232
 21
4.827074928723878
 31
0.0
  0
LINE
  5
2B1
330
1F
100
AcDbEntity
  8
외형선
  6
Continuous
370
    15
100
AcDbLine
 10
-45.26630967149219
 20
4.827074928723878
 30
0.0
 11
-46.7903096714922
 21
6.351074928723879
 31
0.0
  0
LINE
  5
2B2
330
1F
100
AcDbEntity
  8
외형선
  6
Continuous
370
    15
100
AcDbLine
 10
-34.09030967149221
 20
4.827074928723878
 30
0.0
 11
-32.56630967149221
 21
6.351074928723879
 31
0.0
  0
LINE
  5
2B4
330
1F
100
AcDbEntity
  8
외형선
  6
Continuous
370
    15
100
AcDbLine
 10
-46.7903096714922
 20
6.351074928723889
 30
0.0
 11
-61.30018467149221
 21
6.351074928723888
 31
0.0
  0
DIMENSION
  5
2D8
102
{ACAD_REACTORS
102
}
102
{ACAD_XDICTIONARY
360
2D9
102
}
330
1F
100
AcDbEntity
  8
치수문자_일반주서
100
AcDbDimension
  2
*D15
 10
46.02842288968866
 20
-5.555175071276107
 30
0.0
 11
46.02842288968866
 21
22.4218249287239
 31
0.0
 70
   160
  1
{%%C<>[]}
 71
     5
 42
11.1125
  3
SLDDIMSTYLE1
100
AcDbAlignedDimension
 13
25.25047233974305
 23
5.557324928723897
 33
0.0
 14
25.25047233974305
 24
-5.555175071276103
 34
0.0
 50
90.0
100
AcDbRotatedDimension
1001
ACAD
1000
DSTYLE
1002
{
1070
   283
1070
     1
1070
   170
1070
     1
1070
   171
1070
     6
1070
   273
1070
     7
1002
}
  0
ENDSEC
  0
SECTION
  2
OBJECTS
  0
DICTIONARY
  5
C
330
0
100
AcDbDictionary
281
     1
  3
ACAD_GROUP
350
D
  3
ACAD_IMAGE_VARS
350
150
  3
ACAD_LAYOUT
350
1A
  3
ACAD_MLINESTYLE
350
17
  3
ACAD_PLOTSETTINGS
350
19
  3
ACAD_PLOTSTYLENAME
350
E
  3
ACAD_SCALELIST
350
47
  3
APPDATA
350
14E
  3
DWGPROPS
350
2EA
  0
DICTIONARY
  5
1E4
330
2
100
AcDbDictionary
280
     1
281
     1
  3
ACAD_LAYERSTATES
360
1E5
  0
DICTIONARY
  5
2D9
330
2D8
100
AcDbDictionary
280
     1
281
     1
  0
DICTIONARY
  5
D
102
{ACAD_REACTORS
330
C
102
}
330
C
100
AcDbDictionary
281
     1
  0
RASTERVARIABLES
  5
150
102
{ACAD_REACTORS
330
C
102
}
330
C
100
AcDbRasterVariables
 90
        0
 70
     1
 71
     1
 72
     1
  0
DICTIONARY
  5
1A
102
{ACAD_REACTORS
330
C
102
}
330
C
100
AcDbDictionary
281
     1
  3
Layout1
350
1E
  3
Layout2
350
26
  3
Model
350
22
  0
DICTIONARY
  5
17
102
{ACAD_REACTORS
330
C
102
}
330
C
100
AcDbDictionary
281
     1
  3
Standard
350
18
  0
DICTIONARY
  5
19
102
{ACAD_REACTORS
330
C
102
}
330
C
100
AcDbDictionary
281
     1
  0
ACDBDICTIONARYWDFLT
  5
E
102
{ACAD_REACTORS
330
C
102
}
330
C
100
AcDbDictionary
281
     1
  3
Normal
350
F
100
AcDbDictionaryWithDefault
340
F
  0
DICTIONARY
  5
47
102
{ACAD_REACTORS
330
C
102
}
330
C
100
AcDbDictionary
281
     1
  3
A0
350
48
  3
A1
350
49
  3
A2
350
4A
  3
A3
350
4B
  3
A4
350
4C
  3
A5
350
4D
  3
A6
350
4E
  3
A7
350
4F
  3
A8
350
50
  3
A9
350
51
  3
B0
350
52
  3
B1
350
53
  3
B2
350
54
  3
B3
350
55
  3
B4
350
56
  3
B5
350
57
  3
B6
350
58
  3
B7
350
59
  3
B8
350
5A
  3
B9
350
5B
  3
C0
350
5C
  3
C1
350
5D
  3
C2
350
5E
  3
C3
350
5F
  3
C4
350
60
  3
C5
350
61
  3
C6
350
62
  3
C7
350
63
  3
C8
350
64
  3
C9
350
65
  3
D0
350
66
  3
D1
350
67
  3
D2
350
68
  0
DICTIONARY
  5
14E
102
{ACAD_REACTORS
330
C
102
}
330
C
100
AcDbDictionary
281
     1
  0
XRECORD
  5
2EA
102
{ACAD_REACTORS
330
C
102
}
330
C
100
AcDbXrecord
280
     1
  1
DWGPROPS COOKIE
  2

  3

  4

  6

  7

  8
12016016
  9

300
=
301
=
302
=
303
=
304
=
305
=
306
=
307
=
308
=
309
=
 40
0.0
 41
2458323.329119653
 42
2458330.404165451
  1

 90
        0
  0
DICTIONARY
  5
1E5
102
{ACAD_REACTORS
330
1E4
102
}
330
1E4
100
AcDbDictionary
281
     1
  0
LAYOUT
  5
1E
102
{ACAD_REACTORS
330
1A
102
}
330
1A
100
AcDbPlotSettings
  1

  2
none_device
  4

  6

 40
0.0
 41
0.0
 42
0.0
 43
0.0
 44
0.0
 45
0.0
 46
0.0
 47
0.0
 48
0.0
 49
0.0
140
0.0
141
0.0
142
1.0
143
1.0
 70
   688
 72
     1
 73
     0
 74
     5
  7

 75
    16
147
1.0
148
0.0
149
0.0
100
AcDbLayout
  1
Layout1
 70
     1
 71
     1
 10
0.0
 20
0.0
 11
420.0
 21
297.0
 12
0.0
 22
0.0
 32
0.0
 14
1.000000000000000E+20
 24
1.000000000000000E+20
 34
1.000000000000000E+20
 15
-1.000000000000000E+20
 25
-1.000000000000000E+20
 35
-1.000000000000000E+20
146
0.0
 13
0.0
 23
0.0
 33
0.0
 16
1.0
 26
0.0
 36
0.0
 17
0.0
 27
1.0
 37
0.0
 76
     0
330
1B
  0
LAYOUT
  5
26
102
{ACAD_REACTORS
330
1A
102
}
330
1A
100
AcDbPlotSettings
  1

  2
none_device
  4

  6

 40
0.0
 41
0.0
 42
0.0
 43
0.0
 44
0.0
 45
0.0
 46
0.0
 47
0.0
 48
0.0
 49
0.0
140
0.0
141
0.0
142
1.0
143
1.0
 70
   688
 72
     1
 73
     0
 74
     5
  7

 75
    16
147
1.0
148
0.0
149
0.0
100
AcDbLayout
  1
Layout2
 70
     1
 71
     2
 10
0.0
 20
0.0
 11
0.0
 21
0.0
 12
0.0
 22
0.0
 32
0.0
 14
0.0
 24
0.0
 34
0.0
 15
0.0
 25
0.0
 35
0.0
146
0.0
 13
0.0
 23
0.0
 33
0.0
 16
1.0
 26
0.0
 36
0.0
 17
0.0
 27
1.0
 37
0.0
 76
     0
330
23
  0
LAYOUT
  5
22
102
{ACAD_REACTORS
330
1A
102
}
330
1A
100
AcDbPlotSettings
  1

  2
none_device
  4
ANSI_A_(11.00_x_8.50_Inches)
  6

 40
6.35
 41
19.05
 42
6.35000508
 43
19.05000254
 44
279.4
 45
215.9
 46
122.5312193924176
 47
91.46403643211585
 48
0.0
 49
0.0
140
0.0
141
0.0
142
0.0654323778767902
143
1.0
 70
  1696
 72
     0
 73
     0
 74
     0
  7

 75
     0
147
0.0235690232323232
148
0.0
149
0.0
100
AcDbLayout
  1
Model
 70
     1
 71
     0
 10
0.0
 20
0.0
 11
420.0
 21
297.0
 12
0.0
 22
0.0
 32
0.0
 14
-79.17518467149226
 24
-49.97073246008785
 34
0.0
 15
89.72524512937676
 25
35.98432492872389
 35
0.0
146
0.0
 13
0.0
 23
0.0
 33
0.0
 16
1.0
 26
0.0
 36
0.0
 17
0.0
 27
1.0
 37
0.0
 76
     0
330
1F
331
29
  0
MLINESTYLE
  5
18
102
{ACAD_REACTORS
330
17
102
}
330
17
100
AcDbMlineStyle
  2
Standard
 70
     0
  3

 62
   256
 51
90.0
 52
90.0
 71
     2
 49
0.5
 62
   256
  6
BYLAYER
 49
-0.5
 62
   256
  6
BYLAYER
  0
ACDBPLACEHOLDER
  5
F
102
{ACAD_REACTORS
330
E
102
}
330
E
  0
SCALE
  5
48
102
{ACAD_REACTORS
330
47
102
}
330
47
100
AcDbScale
 70
     0
300
1:1
140
1.0
141
1.0
290
     1
  0
SCALE
  5
49
102
{ACAD_REACTORS
330
47
102
}
330
47
100
AcDbScale
 70
     0
300
1:2
140
1.0
141
2.0
290
     0
  0
SCALE
  5
4A
102
{ACAD_REACTORS
330
47
102
}
330
47
100
AcDbScale
 70
     0
300
1:4
140
1.0
141
4.0
290
     0
  0
SCALE
  5
4B
102
{ACAD_REACTORS
330
47
102
}
330
47
100
AcDbScale
 70
     0
300
1:5
140
1.0
141
5.0
290
     0
  0
SCALE
  5
4C
102
{ACAD_REACTORS
330
47
102
}
330
47
100
AcDbScale
 70
     0
300
1:8
140
1.0
141
8.0
290
     0
  0
SCALE
  5
4D
102
{ACAD_REACTORS
330
47
102
}
330
47
100
AcDbScale
 70
     0
300
1:10
140
1.0
141
10.0
290
     0
  0
SCALE
  5
4E
102
{ACAD_REACTORS
330
47
102
}
330
47
100
AcDbScale
 70
     0
300
1:16
140
1.0
141
16.0
290
     0
  0
SCALE
  5
4F
102
{ACAD_REACTORS
330
47
102
}
330
47
100
AcDbScale
 70
     0
300
1:20
140
1.0
141
20.0
290
     0
  0
SCALE
  5
50
102
{ACAD_REACTORS
330
47
102
}
330
47
100
AcDbScale
 70
     0
300
1:30
140
1.0
141
30.0
290
     0
  0
SCALE
  5
51
102
{ACAD_REACTORS
330
47
102
}
330
47
100
AcDbScale
 70
     0
300
1:40
140
1.0
141
40.0
290
     0
  0
SCALE
  5
52
102
{ACAD_REACTORS
330
47
102
}
330
47
100
AcDbScale
 70
     0
300
1:50
140
1.0
141
50.0
290
     0
  0
SCALE
  5
53
102
{ACAD_REACTORS
330
47
102
}
330
47
100
AcDbScale
 70
     0
300
1:100
140
1.0
141
100.0
290
     0
  0
SCALE
  5
54
102
{ACAD_REACTORS
330
47
102
}
330
47
100
AcDbScale
 70
     0
300
2:1
140
2.0
141
1.0
290
     0
  0
SCALE
  5
55
102
{ACAD_REACTORS
330
47
102
}
330
47
100
AcDbScale
 70
     0
300
4:1
140
4.0
141
1.0
290
     0
  0
SCALE
  5
56
102
{ACAD_REACTORS
330
47
102
}
330
47
100
AcDbScale
 70
     0
300
8:1
140
8.0
141
1.0
290
     0
  0
SCALE
  5
57
102
{ACAD_REACTORS
330
47
102
}
330
47
100
AcDbScale
 70
     0
300
10:1
140
10.0
141
1.0
290
     0
  0
SCALE
  5
58
102
{ACAD_REACTORS
330
47
102
}
330
47
100
AcDbScale
 70
     0
300
100:1
140
100.0
141
1.0
290
     0
  0
SCALE
  5
59
102
{ACAD_REACTORS
330
47
102
}
330
47
100
AcDbScale
 70
     0
300
1/128" = 1'-0"
140
0.0078125
141
12.0
290
     0
  0
SCALE
  5
5A
102
{ACAD_REACTORS
330
47
102
}
330
47
100
AcDbScale
 70
     0
300
1/64" = 1'-0"
140
0.015625
141
12.0
290
     0
  0
SCALE
  5
5B
102
{ACAD_REACTORS
330
47
102
}
330
47
100
AcDbScale
 70
     0
300
1/32" = 1'-0"
140
0.03125
141
12.0
290
     0
  0
SCALE
  5
5C
102
{ACAD_REACTORS
330
47
102
}
330
47
100
AcDbScale
 70
     0
300
1/16" = 1'-0"
140
0.0625
141
12.0
290
     0
  0
SCALE
  5
5D
102
{ACAD_REACTORS
330
47
102
}
330
47
100
AcDbScale
 70
     0
300
3/32" = 1'-0"
140
0.09375
141
12.0
290
     0
  0
SCALE
  5
5E
102
{ACAD_REACTORS
330
47
102
}
330
47
100
AcDbScale
 70
     0
300
1/8" = 1'-0"
140
0.125
141
12.0
290
     0
  0
SCALE
  5
5F
102
{ACAD_REACTORS
330
47
102
}
330
47
100
AcDbScale
 70
     0
300
3/16" = 1'-0"
140
0.1875
141
12.0
290
     0
  0
SCALE
  5
60
102
{ACAD_REACTORS
330
47
102
}
330
47
100
AcDbScale
 70
     0
300
1/4" = 1'-0"
140
0.25
141
12.0
290
     0
  0
SCALE
  5
61
102
{ACAD_REACTORS
330
47
102
}
330
47
100
AcDbScale
 70
     0
300
3/8" = 1'-0"
140
0.375
141
12.0
290
     0
  0
SCALE
  5
62
102
{ACAD_REACTORS
330
47
102
}
330
47
100
AcDbScale
 70
     0
300
1/2" = 1'-0"
140
0.5
141
12.0
290
     0
  0
SCALE
  5
63
102
{ACAD_REACTORS
330
47
102
}
330
47
100
AcDbScale
 70
     0
300
3/4" = 1'-0"
140
0.75
141
12.0
290
     0
  0
SCALE
  5
64
102
{ACAD_REACTORS
330
47
102
}
330
47
100
AcDbScale
 70
     0
300
1" = 1'-0"
140
1.0
141
12.0
290
     0
  0
SCALE
  5
65
102
{ACAD_REACTORS
330
47
102
}
330
47
100
AcDbScale
 70
     0
300
1-1/2" = 1'-0"
140
1.5
141
12.0
290
     0
  0
SCALE
  5
66
102
{ACAD_REACTORS
330
47
102
}
330
47
100
AcDbScale
 70
     0
300
3" = 1'-0"
140
3.0
141
12.0
290
     0
  0
SCALE
  5
67
102
{ACAD_REACTORS
330
47
102
}
330
47
100
AcDbScale
 70
     0
300
6" = 1'-0"
140
6.0
141
12.0
290
     0
  0
SCALE
  5
68
102
{ACAD_REACTORS
330
47
102
}
330
47
100
AcDbScale
 70
     0
300
1'-0" = 1'-0"
140
12.0
141
12.0
290
     0
  0
ENDSEC
  0
EOF
