  0
SECTION
  2
HEADER
  9
$ACADVER
  1
AC1015
  9
$ACADMAINTVER
 70
     6
  9
$DWGCODEPAGE
  3
ANSI_949
  9
$INSBASE
 10
0.0
 20
0.0
 30
0.0
  9
$EXTMIN
 10
1.000000000000000E+20
 20
1.000000000000000E+20
 30
1.000000000000000E+20
  9
$EXTMAX
 10
-1.000000000000000E+20
 20
-1.000000000000000E+20
 30
-1.000000000000000E+20
  9
$LIMMIN
 10
0.0
 20
0.0
  9
$LIMMAX
 10
420.0
 20
297.0
  9
$ORTHOMODE
 70
     1
  9
$REGENMODE
 70
     1
  9
$FILLMODE
 70
     1
  9
$QTEXTMODE
 70
     0
  9
$MIRRTEXT
 70
     1
  9
$LTSCALE
 40
1.0
  9
$ATTMODE
 70
     1
  9
$TEXTSIZE
 40
3.5
  9
$TRACEWID
 40
1.0
  9
$TEXTSTYLE
  7
Standard
  9
$CLAYER
  8
0
  9
$CELTYPE
  6
ByLayer
  9
$CECOLOR
 62
   256
  9
$CELTSCALE
 40
1.0
  9
$DISPSILH
 70
     0
  9
$DIMSCALE
 40
1.0
  9
$DIMASZ
 40
3.302
  9
$DIMEXO
 40
1.0
  9
$DIMDLI
 40
3.75
  9
$DIMRND
 40
0.0
  9
$DIMDLE
 40
0.0
  9
$DIMEXE
 40
1.0
  9
$DIMTP
 40
0.0
  9
$DIMTM
 40
0.0
  9
$DIMTXT
 40
3.5
  9
$DIMCEN
 40
2.5
  9
$DIMTSZ
 40
0.0
  9
$DIMTOL
 70
     0
  9
$DIMLIM
 70
     0
  9
$DIMTIH
 70
     1
  9
$DIMTOH
 70
     1
  9
$DIMSE1
 70
     0
  9
$DIMSE2
 70
     0
  9
$DIMTAD
 70
     1
  9
$DIMZIN
 70
     0
  9
$DIMBLK
  1

  9
$DIMASO
 70
     1
  9
$DIMSHO
 70
     1
  9
$DIMPOST
  1

  9
$DIMAPOST
  1

  9
$DIMALT
 70
     0
  9
$DIMALTD
 70
     3
  9
$DIMALTF
 40
0.0393700787401575
  9
$DIMLFAC
 40
1.0
  9
$DIMTOFL
 70
     1
  9
$DIMTVP
 40
0.0
  9
$DIMTIX
 70
     0
  9
$DIMSOXD
 70
     0
  9
$DIMSAH
 70
     0
  9
$DIMBLK1
  1

  9
$DIMBLK2
  1

  9
$DIMSTYLE
  2
ISO-25
  9
$DIMCLRD
 70
     0
  9
$DIMCLRE
 70
     0
  9
$DIMCLRT
 70
     0
  9
$DIMTFAC
 40
1.0
  9
$DIMGAP
 40
1.524
  9
$DIMJUST
 70
     0
  9
$DIMSD1
 70
     0
  9
$DIMSD2
 70
     0
  9
$DIMTOLJ
 70
     0
  9
$DIMTZIN
 70
     0
  9
$DIMALTZ
 70
     0
  9
$DIMALTTZ
 70
     0
  9
$DIMUPT
 70
     0
  9
$DIMDEC
 70
     2
  9
$DIMTDEC
 70
     2
  9
$DIMALTU
 70
     2
  9
$DIMALTTD
 70
     3
  9
$DIMTXSTY
  7
Standard
  9
$DIMAUNIT
 70
     0
  9
$DIMADEC
 70
     2
  9
$DIMALTRND
 40
0.0
  9
$DIMAZIN
 70
     0
  9
$DIMDSEP
 70
    44
  9
$DIMATFIT
 70
     3
  9
$DIMFRAC
 70
     0
  9
$DIMLDRBLK
  1

  9
$DIMLUNIT
 70
     2
  9
$DIMLWD
 70
    -2
  9
$DIMLWE
 70
    -2
  9
$DIMTMOVE
 70
     0
  9
$LUNITS
 70
     2
  9
$LUPREC
 70
     2
  9
$SKETCHINC
 40
1.0
  9
$FILLETRAD
 40
10.0
  9
$AUNITS
 70
     0
  9
$AUPREC
 70
     2
  9
$MENU
  1
.
  9
$ELEVATION
 40
0.0
  9
$PELEVATION
 40
0.0
  9
$THICKNESS
 40
0.0
  9
$LIMCHECK
 70
     0
  9
$CHAMFERA
 40
0.0
  9
$CHAMFERB
 40
0.0
  9
$CHAMFERC
 40
0.0
  9
$CHAMFERD
 40
0.0
  9
$SKPOLY
 70
     0
  9
$TDCREATE
 40
2458323.704066944
  9
$TDUCREATE
 40
2458323.329066944
  9
$TDUPDATE
 40
2458324.420715185
  9
$TDUUPDATE
 40
2458324.045715185
  9
$TDINDWG
 40
0.0012743866
  9
$TDUSRTIMER
 40
2458324.044441123
  9
$USRTIMER
 70
     1
  9
$ANGBASE
 50
0.0
  9
$ANGDIR
 70
     0
  9
$PDMODE
 70
     0
  9
$PDSIZE
 40
-1.0
  9
$PLINEWID
 40
0.0
  9
$SPLFRAME
 70
     0
  9
$SPLINETYPE
 70
     6
  9
$SPLINESEGS
 70
     8
  9
$HANDSEED
  5
28D
  9
$SURFTAB1
 70
     6
  9
$SURFTAB2
 70
     6
  9
$SURFTYPE
 70
     6
  9
$SURFU
 70
     6
  9
$SURFV
 70
     6
  9
$UCSBASE
  2

  9
$UCSNAME
  2

  9
$UCSORG
 10
0.0
 20
0.0
 30
0.0
  9
$UCSXDIR
 10
1.0
 20
0.0
 30
0.0
  9
$UCSYDIR
 10
0.0
 20
1.0
 30
0.0
  9
$UCSORTHOREF
  2

  9
$UCSORTHOVIEW
 70
     0
  9
$UCSORGTOP
 10
0.0
 20
0.0
 30
0.0
  9
$UCSORGBOTTOM
 10
0.0
 20
0.0
 30
0.0
  9
$UCSORGLEFT
 10
0.0
 20
0.0
 30
0.0
  9
$UCSORGRIGHT
 10
0.0
 20
0.0
 30
0.0
  9
$UCSORGFRONT
 10
0.0
 20
0.0
 30
0.0
  9
$UCSORGBACK
 10
0.0
 20
0.0
 30
0.0
  9
$PUCSBASE
  2

  9
$PUCSNAME
  2

  9
$PUCSORG
 10
0.0
 20
0.0
 30
0.0
  9
$PUCSXDIR
 10
1.0
 20
0.0
 30
0.0
  9
$PUCSYDIR
 10
0.0
 20
1.0
 30
0.0
  9
$PUCSORTHOREF
  2

  9
$PUCSORTHOVIEW
 70
     0
  9
$PUCSORGTOP
 10
0.0
 20
0.0
 30
0.0
  9
$PUCSORGBOTTOM
 10
0.0
 20
0.0
 30
0.0
  9
$PUCSORGLEFT
 10
0.0
 20
0.0
 30
0.0
  9
$PUCSORGRIGHT
 10
0.0
 20
0.0
 30
0.0
  9
$PUCSORGFRONT
 10
0.0
 20
0.0
 30
0.0
  9
$PUCSORGBACK
 10
0.0
 20
0.0
 30
0.0
  9
$USERI1
 70
     0
  9
$USERI2
 70
     0
  9
$USERI3
 70
     0
  9
$USERI4
 70
     0
  9
$USERI5
 70
     0
  9
$USERR1
 40
0.0
  9
$USERR2
 40
0.0
  9
$USERR3
 40
0.0
  9
$USERR4
 40
0.0
  9
$USERR5
 40
0.0
  9
$WORLDVIEW
 70
     1
  9
$SHADEDGE
 70
     3
  9
$SHADEDIF
 70
    70
  9
$TILEMODE
 70
     1
  9
$MAXACTVP
 70
    64
  9
$PINSBASE
 10
0.0
 20
0.0
 30
0.0
  9
$PLIMCHECK
 70
     0
  9
$PEXTMIN
 10
1.000000000000000E+20
 20
1.000000000000000E+20
 30
1.000000000000000E+20
  9
$PEXTMAX
 10
-1.000000000000000E+20
 20
-1.000000000000000E+20
 30
-1.000000000000000E+20
  9
$PLIMMIN
 10
0.0
 20
0.0
  9
$PLIMMAX
 10
0.0
 20
0.0
  9
$UNITMODE
 70
     0
  9
$VISRETAIN
 70
     1
  9
$PLINEGEN
 70
     0
  9
$PSLTSCALE
 70
     1
  9
$TREEDEPTH
 70
  3020
  9
$CMLSTYLE
  2
Standard
  9
$CMLJUST
 70
     0
  9
$CMLSCALE
 40
20.0
  9
$PROXYGRAPHICS
 70
     1
  9
$MEASUREMENT
 70
     1
  9
$CELWEIGHT
370
    -1
  9
$ENDCAPS
280
     0
  9
$JOINSTYLE
280
     0
  9
$LWDISPLAY
290
     1
  9
$INSUNITS
 70
     4
  9
$HYPERLINKBASE
  1

  9
$STYLESHEET
  1

  9
$XEDIT
290
     1
  9
$CEPSNTYPE
380
     0
  9
$PSTYLEMODE
290
     1
  9
$FINGERPRINTGUID
  2
{0C7601DF-D0DE-4C21-B17D-CD04FEFA0A07}
  9
$VERSIONGUID
  2
{FAEB1C32-E019-11D5-929B-00C0DF256EC4}
  9
$EXTNAMES
290
     1
  9
$PSVPSCALE
 40
0.0
  9
$OLESTARTUP
290
     0
  0
ENDSEC
  0
SECTION
  2
CLASSES
  0
CLASS
  1
ACDBDICTIONARYWDFLT
  2
AcDbDictionaryWithDefault
  3
ObjectDBX Classes
 90
        0
280
     0
281
     0
  0
CLASS
  1
VISUALSTYLE
  2
AcDbVisualStyle
  3
ObjectDBX Classes
 90
     4095
280
     0
281
     0
  0
CLASS
  1
MATERIAL
  2
AcDbMaterial
  3
ObjectDBX Classes
 90
     1153
280
     0
281
     0
  0
CLASS
  1
SCALE
  2
AcDbScale
  3
ObjectDBX Classes
 90
     1153
280
     0
281
     0
  0
CLASS
  1
SUN
  2
AcDbSun
  3
SCENEOE
 90
     1153
280
     0
281
     0
  0
CLASS
  1
ACDBPLACEHOLDER
  2
AcDbPlaceHolder
  3
ObjectDBX Classes
 90
        0
280
     0
281
     0
  0
CLASS
  1
LAYOUT
  2
AcDbLayout
  3
ObjectDBX Classes
 90
        0
280
     0
281
     0
  0
CLASS
  1
TABLESTYLE
  2
AcDbTableStyle
  3
ObjectDBX Classes
 90
     4095
280
     0
281
     0
  0
CLASS
  1
MLEADERSTYLE
  2
AcDbMLeaderStyle
  3
ACDB_MLEADERSTYLE_CLASS
 90
     4095
280
     0
281
     0
  0
CLASS
  1
RASTERVARIABLES
  2
AcDbRasterVariables
  3
ISM
 90
        0
280
     0
281
     0
  0
ENDSEC
  0
SECTION
  2
TABLES
  0
TABLE
  2
VPORT
  5
8
330
0
100
AcDbSymbolTable
 70
     1
  0
VPORT
  5
29
330
8
100
AcDbSymbolTableRecord
100
AcDbViewportTableRecord
  2
*Active
 70
     0
 10
0.0
 20
0.0
 11
1.0
 21
1.0
 12
-50.07169905696995
 22
17.50691863452558
 13
0.0
 23
0.0
 14
10.0
 24
10.0
 15
10.0
 25
10.0
 16
0.0
 26
0.0
 36
1.0
 17
0.0
 27
0.0
 37
0.0
 40
159.4208686343491
 41
1.632093933463796
 42
50.0
 43
0.0
 44
0.0
 50
0.0
 51
0.0
 71
    16
 72
  2000
 73
     1
 74
     3
 75
     0
 76
     0
 77
     0
 78
     0
281
     0
 65
     1
110
0.0
120
0.0
130
0.0
111
1.0
121
0.0
131
0.0
112
0.0
122
1.0
132
0.0
 79
     0
146
0.0
  0
ENDTAB
  0
TABLE
  2
LTYPE
  5
5
330
0
100
AcDbSymbolTable
 70
     6
  0
LTYPE
  5
14
330
5
100
AcDbSymbolTableRecord
100
AcDbLinetypeTableRecord
  2
ByBlock
 70
     0
  3

 72
    65
 73
     0
 40
0.0
  0
LTYPE
  5
15
330
5
100
AcDbSymbolTableRecord
100
AcDbLinetypeTableRecord
  2
ByLayer
 70
     0
  3

 72
    65
 73
     0
 40
0.0
  0
LTYPE
  5
16
330
5
100
AcDbSymbolTableRecord
100
AcDbLinetypeTableRecord
  2
Continuous
 70
     0
  3
Solid line
 72
    65
 73
     0
 40
0.0
  0
LTYPE
  5
6A
330
5
100
AcDbSymbolTableRecord
100
AcDbLinetypeTableRecord
  2
HIDDEN
 70
     0
  3
Hidden __ __ __ __ __ __ __ __ __ __ __ __ __ __
 72
    65
 73
     2
 40
1.905
 49
1.27
 74
     0
 49
-0.635
 74
     0
  0
LTYPE
  5
6B
330
5
100
AcDbSymbolTableRecord
100
AcDbLinetypeTableRecord
  2
PHANTOM
 70
     0
  3
Phantom ______  __  __  ______  __  __  ______
 72
    65
 73
     6
 40
12.7
 49
6.35
 74
     0
 49
-1.27
 74
     0
 49
1.27
 74
     0
 49
-1.27
 74
     0
 49
1.27
 74
     0
 49
-1.27
 74
     0
  0
LTYPE
  5
6C
330
5
100
AcDbSymbolTableRecord
100
AcDbLinetypeTableRecord
  2
CENTER
 70
     0
  3
Center ____ _ ____ _ ____ _ ____ _ ____ _ ____
 72
    65
 73
     4
 40
10.16
 49
6.35
 74
     0
 49
-1.27
 74
     0
 49
1.27
 74
     0
 49
-1.27
 74
     0
  0
LTYPE
  5
6D
330
5
100
AcDbSymbolTableRecord
100
AcDbLinetypeTableRecord
  2
CENTERX2
 70
     0
  3
Center (2x) ________  __  ________  __  _____
 72
    65
 73
     4
 40
20.32
 49
12.7
 74
     0
 49
-2.54
 74
     0
 49
2.54
 74
     0
 49
-2.54
 74
     0
  0
LTYPE
  5
6E
330
5
100
AcDbSymbolTableRecord
100
AcDbLinetypeTableRecord
  2
DOT2
 70
     0
  3
Dot (.5x) ........................................
 72
    65
 73
     2
 40
0.635
 49
0.0
 74
     0
 49
-0.635
 74
     0
  0
ENDTAB
  0
TABLE
  2
LAYER
  5
2
102
{ACAD_XDICTIONARY
360
1E0
102
}
330
0
100
AcDbSymbolTable
 70
    18
  0
LAYER
  5
10
330
2
100
AcDbSymbolTableRecord
100
AcDbLayerTableRecord
  2
0
 70
     0
 62
     7
  6
Continuous
370
    -3
390
F
  0
LAYER
  5
6F
330
2
100
AcDbSymbolTableRecord
100
AcDbLayerTableRecord
  2
FORMAT
 70
     0
 62
     2
  6
Continuous
370
    -3
390
F
  0
LAYER
  5
70
330
2
100
AcDbSymbolTableRecord
100
AcDbLayerTableRecord
  2
외형선
 70
     0
 62
     4
  6
Continuous
370
    30
390
F
  0
LAYER
  5
71
330
2
100
AcDbSymbolTableRecord
100
AcDbLayerTableRecord
  2
숨은선
 70
     0
 62
     2
  6
HIDDEN
370
    15
390
F
  0
LAYER
  5
72
330
2
100
AcDbSymbolTableRecord
100
AcDbLayerTableRecord
  2
중심선
 70
     0
 62
     1
  6
CENTERX2
370
    -3
390
F
  0
LAYER
  5
73
330
2
100
AcDbSymbolTableRecord
100
AcDbLayerTableRecord
  2
파단선
 70
     0
 62
     4
  6
Continuous
370
    -3
390
F
  0
LAYER
  5
74
330
2
100
AcDbSymbolTableRecord
100
AcDbLayerTableRecord
  2
해칭선
 70
     0
 62
   100
  6
Continuous
370
    -3
390
F
  0
LAYER
  5
75
330
2
100
AcDbSymbolTableRecord
100
AcDbLayerTableRecord
  2
가는실선
 70
     0
 62
     4
  6
Continuous
370
    -3
390
F
  0
LAYER
  5
76
330
2
100
AcDbSymbolTableRecord
100
AcDbLayerTableRecord
  2
치수_보조선
 70
     0
 62
     4
  6
Continuous
370
    -3
390
F
  0
LAYER
  5
77
330
2
100
AcDbSymbolTableRecord
100
AcDbLayerTableRecord
  2
치수문자_일반주서
 70
     0
 62
     7
  6
Continuous
370
    15
390
F
  0
LAYER
  5
78
330
2
100
AcDbSymbolTableRecord
100
AcDbLayerTableRecord
  2
개별주서
 70
     0
 62
   100
  6
Continuous
370
    30
390
F
  0
LAYER
  5
79
330
2
100
AcDbSymbolTableRecord
100
AcDbLayerTableRecord
  2
중간선
 70
     0
 62
     2
  6
Continuous
370
    15
390
F
  0
LAYER
  5
7A
330
2
100
AcDbSymbolTableRecord
100
AcDbLayerTableRecord
  2
윤곽선
 70
     0
 62
     3
  6
Continuous
370
    40
390
F
  0
LAYER
  5
7B
330
2
100
AcDbSymbolTableRecord
100
AcDbLayerTableRecord
  2
중심마크
 70
     0
 62
   100
  6
Continuous
370
    30
390
F
  0
LAYER
  5
7C
330
2
100
AcDbSymbolTableRecord
100
AcDbLayerTableRecord
  2
가상선
 70
     0
 62
     4
  6
PHANTOM
370
    -3
390
F
  0
LAYER
  5
7D
330
2
100
AcDbSymbolTableRecord
100
AcDbLayerTableRecord
  2
특수지정선
 70
     0
 62
     5
  6
CENTERX2
370
    60
390
F
  0
LAYER
  5
7E
330
2
100
AcDbSymbolTableRecord
100
AcDbLayerTableRecord
  2
참조1
 70
     0
 62
    -4
  6
Continuous
370
    -3
390
F
  0
LAYER
  5
147
330
2
100
AcDbSymbolTableRecord
100
AcDbLayerTableRecord
  2
Defpoints
 70
     0
 62
     7
  6
Continuous
290
     0
370
    -3
390
F
  0
ENDTAB
  0
TABLE
  2
STYLE
  5
3
330
0
100
AcDbSymbolTable
 70
     2
  0
STYLE
  5
11
330
3
100
AcDbSymbolTableRecord
100
AcDbTextStyleTableRecord
  2
Standard
 70
     0
 40
0.0
 41
1.0
 50
0.0
 71
     0
 42
3.5
  3
txt
  4

  0
STYLE
  5
94
330
3
100
AcDbSymbolTableRecord
100
AcDbTextStyleTableRecord
  2
SLDTEXTSTYLE0
 70
     0
 40
0.0
 41
0.75
 50
0.0
 71
     0
 42
3.5
  3
TXT
  4

  0
ENDTAB
  0
TABLE
  2
VIEW
  5
6
330
0
100
AcDbSymbolTable
 70
     0
  0
ENDTAB
  0
TABLE
  2
UCS
  5
7
330
0
100
AcDbSymbolTable
 70
     0
  0
ENDTAB
  0
TABLE
  2
APPID
  5
9
330
0
100
AcDbSymbolTable
 70
     1
  0
APPID
  5
12
330
9
100
AcDbSymbolTableRecord
100
AcDbRegAppTableRecord
  2
ACAD
 70
     0
  0
ENDTAB
  0
TABLE
  2
DIMSTYLE
  5
A
330
0
100
AcDbSymbolTable
 70
     3
100
AcDbDimStyleTable
  0
DIMSTYLE
105
27
330
A
100
AcDbSymbolTableRecord
100
AcDbDimStyleTableRecord
  2
ISO-25
 70
     0
 41
2.5
 42
0.625
 43
3.75
 44
1.25
 73
     0
 74
     0
 77
     1
 78
     8
140
2.5
141
2.5
143
0.03937007874016
147
0.625
171
     3
172
     1
178
     0
271
     2
272
     2
274
     3
278
    44
283
     0
284
     8
340
11
  0
DIMSTYLE
105
C5
330
A
100
AcDbSymbolTableRecord
100
AcDbDimStyleTableRecord
  2
SLDDIMSTYLE0
 70
     0
 41
3.302
 44
0.0
 45
0.000000001
 73
     0
 74
     0
 77
     1
 78
    12
 79
     3
140
3.5
143
0.0393700787401575
147
0.875
148
0.000000001
170
     1
173
     1
178
     0
271
     2
272
     2
276
     2
284
    12
340
94
  0
DIMSTYLE
105
ED
102
{ACAD_REACTORS
330
EC
330
19C
330
1AA
330
1B7
330
1C4
330
C4
330
D9
330
101
102
}
330
A
100
AcDbSymbolTableRecord
100
AcDbDimStyleTableRecord
  2
SLDDIMSTYLE1
 70
     0
 41
3.302
 44
0.0
 45
0.000000001
 73
     0
 74
     0
 77
     1
 78
    12
 79
     3
140
3.5
143
0.0393700787401575
147
0.875
148
0.000000001
170
     1
172
     1
173
     1
178
     0
271
     2
272
     2
276
     2
284
    12
289
     0
340
94
  0
ENDTAB
  0
TABLE
  2
BLOCK_RECORD
  5
1
330
0
100
AcDbSymbolTable
 70
    16
  0
BLOCK_RECORD
  5
1F
330
1
100
AcDbSymbolTableRecord
100
AcDbBlockTableRecord
  2
*Model_Space
340
22
  0
BLOCK_RECORD
  5
1B
330
1
100
AcDbSymbolTableRecord
100
AcDbBlockTableRecord
  2
*Paper_Space
340
1E
  0
BLOCK_RECORD
  5
23
330
1
100
AcDbSymbolTableRecord
100
AcDbBlockTableRecord
  2
*Paper_Space0
340
26
  0
BLOCK_RECORD
  5
7F
330
1
100
AcDbSymbolTableRecord
100
AcDbBlockTableRecord
  2
블럭10
340
0
102
{BLKREFS
331
BD
102
}
  0
BLOCK_RECORD
  5
C6
330
1
100
AcDbSymbolTableRecord
100
AcDbBlockTableRecord
  2
_D
340
0
  0
BLOCK_RECORD
  5
DA
330
1
100
AcDbSymbolTableRecord
100
AcDbBlockTableRecord
  2
_D_1
340
0
  0
BLOCK_RECORD
  5
EE
330
1
100
AcDbSymbolTableRecord
100
AcDbBlockTableRecord
  2
_D_2
340
0
  0
BLOCK_RECORD
  5
102
330
1
100
AcDbSymbolTableRecord
100
AcDbBlockTableRecord
  2
_D_3
340
0
  0
BLOCK_RECORD
  5
11B
330
1
100
AcDbSymbolTableRecord
100
AcDbBlockTableRecord
  2
SW_DOWELSYMBOL_0
340
0
102
{BLKREFS
331
121
331
1D4
331
0
102
}
  0
BLOCK_RECORD
  5
1E4
330
1
100
AcDbSymbolTableRecord
100
AcDbBlockTableRecord
  2
*D8
340
0
  0
BLOCK_RECORD
  5
1F1
330
1
100
AcDbSymbolTableRecord
100
AcDbBlockTableRecord
  2
*D9
340
0
  0
BLOCK_RECORD
  5
1FD
330
1
100
AcDbSymbolTableRecord
100
AcDbBlockTableRecord
  2
*D10
340
0
  0
BLOCK_RECORD
  5
209
330
1
100
AcDbSymbolTableRecord
100
AcDbBlockTableRecord
  2
*D11
340
0
  0
BLOCK_RECORD
  5
24F
330
1
100
AcDbSymbolTableRecord
100
AcDbBlockTableRecord
  2
*D12
340
0
  0
BLOCK_RECORD
  5
25C
330
1
100
AcDbSymbolTableRecord
100
AcDbBlockTableRecord
  2
*D13
340
0
  0
BLOCK_RECORD
  5
268
330
1
100
AcDbSymbolTableRecord
100
AcDbBlockTableRecord
  2
*D14
340
0
  0
BLOCK_RECORD
  5
274
330
1
100
AcDbSymbolTableRecord
100
AcDbBlockTableRecord
  2
*D15
340
0
  0
ENDTAB
  0
ENDSEC
  0
SECTION
  2
BLOCKS
  0
BLOCK
  5
20
330
1F
100
AcDbEntity
  8
0
100
AcDbBlockBegin
  2
*Model_Space
 70
     0
 10
0.0
 20
0.0
 30
0.0
  3
*Model_Space
  1
*Model_Space
  0
ENDBLK
  5
21
330
1F
100
AcDbEntity
  8
0
100
AcDbBlockEnd
  0
BLOCK
  5
1C
330
1B
100
AcDbEntity
 67
     1
  8
0
100
AcDbBlockBegin
  2
*Paper_Space
 70
     0
 10
0.0
 20
0.0
 30
0.0
  3
*Paper_Space
  1
*Paper_Space
  0
ENDBLK
  5
1D
330
1B
100
AcDbEntity
 67
     1
  8
0
100
AcDbBlockEnd
  0
BLOCK
  5
24
330
23
100
AcDbEntity
  8
0
100
AcDbBlockBegin
  2
*Paper_Space0
 70
     0
 10
0.0
 20
0.0
 30
0.0
  3
*Paper_Space0
  1
*Paper_Space0
  0
ENDBLK
  5
25
330
23
100
AcDbEntity
  8
0
100
AcDbBlockEnd
  0
BLOCK
  5
80
330
7F
100
AcDbEntity
  8
0
100
AcDbBlockBegin
  2
블럭10
 70
     2
 10
0.0
 20
0.0
 30
0.0
  3
블럭10
  1
블럭10
  0
ELLIPSE
  5
82
330
7F
100
AcDbEntity
  8
중심선
100
AcDbEllipse
 10
20.54032771741204
 20
12.0471743016438
 30
0.0
 11
6.600054785286829
 21
-1.261213355974178E-13
 31
0.0
210
0.0
220
0.0
230
1.0
 40
0.636358354079598
 41
0.9219305317359503
 42
6.513795318482858
  0
ELLIPSE
  5
83
330
7F
100
AcDbEntity
  8
중심선
100
AcDbEllipse
 10
20.54032771746488
 20
12.04717430159265
 30
0.0
 11
3.960054785062283
 21
1.540847449632565E-10
 31
0.0
210
0.0
220
0.0
230
1.0
 40
0.3939339440162632
 41
1.131841032648279
 42
5.62031148352944
  0
LINE
  5
84
330
7F
100
AcDbEntity
  8
중심선
100
AcDbLine
 10
2.268634060543552
 20
16.24717430164393
 30
0.0
 11
5.714909304380834
 21
16.24717430164393
 31
0.0
  0
LINE
  5
85
330
7F
100
AcDbEntity
  8
중심선
100
AcDbLine
 10
5.245725140726316
 20
7.84717430164391
 30
0.0
 11
8.692000384563599
 21
7.84717430164391
 31
0.0
  0
LINE
  5
86
330
7F
100
AcDbEntity
  8
중심선
100
AcDbLine
 10
15.74043728645272
 20
16.24717430164393
 30
0.0
 11
8.692000384563599
 21
7.84717430164391
 31
0.0
  0
LINE
  5
87
330
7F
100
AcDbEntity
  8
중심선
100
AcDbLine
 10
0.1404042013395286
 20
13.71084872107135
 30
0.0
 11
3.58671253028996
 21
13.71088815037384
 31
0.0
  0
LINE
  5
88
330
7F
100
AcDbEntity
  8
중심선
100
AcDbLine
 10
2.750260043222114
 20
10.84717430164391
 30
0.0
 11
6.196535287059397
 21
10.84717430164391
 31
0.0
  0
LINE
  5
89
330
7F
100
AcDbEntity
  8
중심선
100
AcDbLine
 10
12.29416204261559
 20
16.24717430164393
 30
0.0
 11
5.245725140726316
 21
7.84717430164391
 31
0.0
  0
LINE
  5
8A
330
7F
100
AcDbEntity
  8
중심선
100
AcDbLine
 10
10.72767329541681
 20
16.24717430164393
 30
0.0
 11
6.196535287059397
 21
10.84717430164391
 31
0.0
  0
LINE
  5
8B
330
7F
100
AcDbEntity
  8
중심선
100
AcDbLine
 10
7.28139805157953
 20
16.24717430164393
 30
0.0
 11
2.750260043222114
 21
10.84717430164391
 31
0.0
  0
LINE
  5
8C
330
7F
100
AcDbEntity
  8
중심선
100
AcDbLine
 10
5.714909304380834
 20
16.24717430164393
 30
0.0
 11
3.58671253028996
 21
13.71088815037384
 31
0.0
  0
LINE
  5
8D
330
7F
100
AcDbEntity
  8
중심선
100
AcDbLine
 10
2.268634060543552
 20
16.24717430164393
 30
0.0
 11
0.1404042013395286
 21
13.71084872107135
 31
0.0
  0
LINE
  5
8E
330
7F
100
AcDbEntity
  8
중심선
100
AcDbLine
 10
7.28139805157953
 20
16.24717430164393
 30
0.0
 11
10.72767329541681
 21
16.24717430164393
 31
0.0
  0
LINE
  5
8F
330
7F
100
AcDbEntity
  8
중심선
100
AcDbLine
 10
12.29416204261559
 20
16.24717430164393
 30
0.0
 11
15.74043728645272
 21
16.24717430164393
 31
0.0
  0
LINE
  5
90
330
7F
100
AcDbEntity
  8
중심선
100
AcDbLine
 10
19.22036997980202
 20
11.08717430171403
 30
0.0
 11
23.66174974927406
 21
11.08717430171406
 31
0.0
  0
LINE
  5
91
330
7F
100
AcDbEntity
  8
중심선
100
AcDbLine
 10
19.22039502424796
 20
13.00717430171391
 30
0.0
 11
19.22036997980202
 21
11.08717430171403
 31
0.0
  0
LINE
  5
92
330
7F
100
AcDbEntity
  8
중심선
100
AcDbLine
 10
19.22039502424796
 20
13.00717430171391
 30
0.0
 11
26.96566020931264
 21
13.00717430171391
 31
0.0
  0
LINE
  5
93
330
7F
100
AcDbEntity
  8
중심선
100
AcDbLine
 10
22.22332737316547
 20
13.45928029700563
 30
0.0
 11
24.52862924686651
 21
15.39360700705356
 31
0.0
  0
ATTDEF
  5
95
330
7F
100
AcDbEntity
  8
FORMAT
 62
     2
100
AcDbText
 10
4.408487351596664
 20
2.075366912832191
 30
0.0
 40
4.233333333333333
  1
E1111024
 41
0.75
  7
SLDTEXTSTYLE0
 11
4.408487351596664
 21
-0.0412997538344756
 31
0.0
100
AcDbAttributeDefinition
  3

  2
AUTOATTR0
 70
     0
 74
     1
  0
ENDBLK
  5
81
330
7F
100
AcDbEntity
  8
0
100
AcDbBlockEnd
  0
BLOCK
  5
C7
330
C6
100
AcDbEntity
  8
0
100
AcDbBlockBegin
  2
_D
 70
     0
 10
0.0
 20
0.0
 30
0.0
  3
_D
  1
_D
  0
LINE
  5
C9
330
C6
100
AcDbEntity
  8
치수문자_일반주서
 62
     0
370
    -2
100
AcDbLine
 10
29.04999999999999
 20
4.825000000000003
 30
0.0
 11
29.04999999999999
 21
14.76250000000001
 31
0.0
  0
LINE
  5
CA
330
C6
100
AcDbEntity
  8
치수문자_일반주서
 62
     0
370
    -2
100
AcDbLine
 10
9.99999999999999
 20
4.652450487891595
 30
0.0
 11
9.99999999999999
 21
14.76250000000001
 31
0.0
  0
LINE
  5
CB
330
C6
100
AcDbEntity
  8
치수문자_일반주서
 62
     0
370
    -2
100
AcDbLine
 10
9.99999999999999
 20
14.76250000000001
 30
0.0
 11
-21.54150000000001
 21
14.76250000000001
 31
0.0
  0
LINE
  5
CC
330
C6
100
AcDbEntity
  8
치수문자_일반주서
 62
     0
370
    -2
100
AcDbLine
 10
29.04999999999999
 20
14.76250000000001
 30
0.0
 11
9.99999999999999
 21
14.76250000000001
 31
0.0
  0
LINE
  5
CD
330
C6
100
AcDbEntity
  8
치수문자_일반주서
 62
     0
370
    -2
100
AcDbLine
 10
32.35199999999999
 20
14.76250000000001
 30
0.0
 11
35.65399999999999
 21
14.76250000000001
 31
0.0
  0
LINE
  5
CE
330
C6
100
AcDbEntity
  8
치수문자_일반주서
 62
     0
370
    -2
100
AcDbLine
 10
6.69799999999999
 20
14.76250000000001
 30
0.0
 11
3.39599999999999
 21
14.76250000000001
 31
0.0
  0
SOLID
  5
CF
330
C6
100
AcDbEntity
  8
치수문자_일반주서
 62
     0
100
AcDbTrace
 10
32.35199999999999
 20
15.31283333333334
 30
0.0
 11
32.35199999999999
 21
14.21216666666668
 31
0.0
 12
29.04999999999999
 22
14.76250000000001
 32
0.0
 13
29.04999999999999
 23
14.76250000000001
 33
0.0
  0
SOLID
  5
D0
330
C6
100
AcDbEntity
  8
치수문자_일반주서
 62
     0
100
AcDbTrace
 10
6.69799999999999
 20
14.21216666666668
 30
0.0
 11
6.69799999999999
 21
15.31283333333334
 31
0.0
 12
9.99999999999999
 22
14.76250000000001
 32
0.0
 13
9.99999999999999
 23
14.76250000000001
 33
0.0
  0
MTEXT
  5
D1
330
C6
100
AcDbEntity
  8
치수문자_일반주서
 62
     0
100
AcDbMText
 10
-9.07275000000001
 20
19.13750000000001
 30
0.0
 40
3.5
 41
0.0
 71
     2
 72
     1
  1
\A1;19.05 [3/4]
  7
SLDTEXTSTYLE0
 73
     1
 44
1.0
  0
POINT
  5
D2
330
C6
100
AcDbEntity
  8
Defpoints
 62
     0
100
AcDbPoint
 10
29.04999999999999
 20
4.762500000000003
 30
0.0
  0
POINT
  5
283
330
C6
100
AcDbEntity
  8
Defpoints
 62
     0
100
AcDbPoint
 10
9.99999999999999
 20
4.589950487891595
 30
0.0
  0
POINT
  5
284
330
C6
100
AcDbEntity
  8
Defpoints
 62
     0
100
AcDbPoint
 10
9.99999999999999
 20
14.76250000000001
 30
0.0
  0
ENDBLK
  5
C8
330
C6
100
AcDbEntity
  8
0
100
AcDbBlockEnd
  0
BLOCK
  5
DB
330
DA
100
AcDbEntity
  8
0
100
AcDbBlockBegin
  2
_D_1
 70
     0
 10
0.0
 20
0.0
 30
0.0
  3
_D_1
  1
_D_1
  0
LINE
  5
DD
330
DA
100
AcDbEntity
  8
치수문자_일반주서
 62
     0
370
    -2
100
AcDbLine
 10
29.04999999999999
 20
4.825000000000003
 30
0.0
 11
29.04999999999998
 21
29.96163381589231
 31
0.0
  0
LINE
  5
DE
330
DA
100
AcDbEntity
  8
치수문자_일반주서
 62
     0
370
    -2
100
AcDbLine
 10
-55.08750000000001
 20
3.824999999999999
 30
0.0
 11
-55.08750000000001
 21
29.96163381589231
 31
0.0
  0
LINE
  5
DF
330
DA
100
AcDbEntity
  8
치수문자_일반주서
 62
     0
370
    -2
100
AcDbLine
 10
25.74799999999998
 20
29.96163381589231
 30
0.0
 11
-51.78550000000001
 21
29.96163381589231
 31
0.0
  0
SOLID
  5
E0
330
DA
100
AcDbEntity
  8
치수문자_일반주서
 62
     0
100
AcDbTrace
 10
25.74799999999998
 20
29.41130048255898
 30
0.0
 11
25.74799999999998
 21
30.51196714922565
 31
0.0
 12
29.04999999999998
 22
29.96163381589231
 32
0.0
 13
29.04999999999998
 23
29.96163381589231
 33
0.0
  0
SOLID
  5
E1
330
DA
100
AcDbEntity
  8
치수문자_일반주서
 62
     0
100
AcDbTrace
 10
-51.78550000000001
 20
30.51196714922565
 30
0.0
 11
-51.78550000000001
 21
29.41130048255898
 31
0.0
 12
-55.08750000000001
 22
29.96163381589231
 32
0.0
 13
-55.08750000000001
 23
29.96163381589231
 33
0.0
  0
MTEXT
  5
E2
330
DA
100
AcDbEntity
  8
치수문자_일반주서
 62
     0
100
AcDbMText
 10
-13.01875000000002
 20
34.33663381589231
 30
0.0
 40
3.5
 41
0.0
 71
     2
 72
     1
  1
\A1;84.14 [3 5/16]
  7
SLDTEXTSTYLE0
 73
     1
 44
1.0
  0
POINT
  5
E3
330
DA
100
AcDbEntity
  8
Defpoints
 62
     0
100
AcDbPoint
 10
29.04999999999999
 20
4.762500000000003
 30
0.0
  0
POINT
  5
E4
330
DA
100
AcDbEntity
  8
Defpoints
 62
     0
100
AcDbPoint
 10
-55.08750000000001
 20
3.762499999999999
 30
0.0
  0
POINT
  5
E5
330
DA
100
AcDbEntity
  8
Defpoints
 62
     0
100
AcDbPoint
 10
-55.08750000000001
 20
29.96163381589231
 30
0.0
  0
ENDBLK
  5
DC
330
DA
100
AcDbEntity
  8
0
100
AcDbBlockEnd
  0
BLOCK
  5
EF
330
EE
100
AcDbEntity
  8
0
100
AcDbBlockBegin
  2
_D_2
 70
     0
 10
0.0
 20
0.0
 30
0.0
  3
_D_2
  1
_D_2
  0
LINE
  5
F1
330
EE
100
AcDbEntity
  8
치수문자_일반주서
 62
     0
370
    -2
100
AcDbLine
 10
-54.15
 20
4.762500000000004
 30
0.0
 11
-67.58750000000002
 21
4.762499999999953
 31
0.0
  0
LINE
  5
F2
330
EE
100
AcDbEntity
  8
치수문자_일반주서
 62
     0
370
    -2
100
AcDbLine
 10
-54.15
 20
-4.762500000000002
 30
0.0
 11
-67.58749999999999
 21
-4.762500000000053
 31
0.0
  0
LINE
  5
F3
330
EE
100
AcDbEntity
  8
치수문자_일반주서
 62
     0
370
    -2
100
AcDbLine
 10
-67.5875
 20
1.460499999999954
 30
0.0
 11
-67.5875
 21
-1.460500000000053
 31
0.0
  0
SOLID
  5
F4
330
EE
100
AcDbEntity
  8
치수문자_일반주서
 62
     0
100
AcDbTrace
 10
-67.03716666666668
 20
1.460499999999955
 30
0.0
 11
-68.13783333333333
 21
1.460499999999952
 31
0.0
 12
-67.58750000000002
 22
4.762499999999953
 32
0.0
 13
-67.58750000000002
 23
4.762499999999953
 33
0.0
  0
SOLID
  5
F5
330
EE
100
AcDbEntity
  8
치수문자_일반주서
 62
     0
100
AcDbTrace
 10
-68.13783333333333
 20
-1.460500000000055
 30
0.0
 11
-67.03716666666668
 21
-1.460500000000051
 31
0.0
 12
-67.58749999999999
 22
-4.762500000000053
 32
0.0
 13
-67.58749999999999
 23
-4.762500000000053
 33
0.0
  0
MTEXT
  5
F6
330
EE
100
AcDbEntity
  8
치수문자_일반주서
 62
     0
100
AcDbMText
 10
-71.9625
 20
-0.000000000000009
 30
0.0
 40
3.5
 41
0.0
 71
     2
 72
     1
  1
\A1;%%c9.53 [3/8]
  7
SLDTEXTSTYLE0
 11
-2.983906501879684E-15
 21
1.0
 31
0.0
 73
     1
 44
1.0
  0
POINT
  5
F7
330
EE
100
AcDbEntity
  8
Defpoints
 62
     0
100
AcDbPoint
 10
-54.0875
 20
4.762500000000004
 30
0.0
  0
POINT
  5
F8
330
EE
100
AcDbEntity
  8
Defpoints
 62
     0
100
AcDbPoint
 10
-54.0875
 20
-4.762500000000002
 30
0.0
  0
POINT
  5
F9
330
EE
100
AcDbEntity
  8
Defpoints
 62
     0
100
AcDbPoint
 10
-67.58749999999999
 20
-4.762500000000053
 30
0.0
  0
ENDBLK
  5
F0
330
EE
100
AcDbEntity
  8
0
100
AcDbBlockEnd
  0
BLOCK
  5
103
330
102
100
AcDbEntity
  8
0
100
AcDbBlockBegin
  2
_D_3
 70
     0
 10
0.0
 20
0.0
 30
0.0
  3
_D_3
  1
_D_3
  0
LINE
  5
105
330
102
100
AcDbEntity
  8
치수문자_일반주서
 62
     0
370
    -2
100
AcDbLine
 10
29.11249999999999
 20
4.762500000000003
 30
0.0
 11
43.25102067414893
 21
4.762500000000056
 31
0.0
  0
LINE
  5
106
330
102
100
AcDbEntity
  8
치수문자_일반주서
 62
     0
370
    -2
100
AcDbLine
 10
29.11249999999999
 20
-4.762499999999995
 30
0.0
 11
43.25102067414897
 21
-4.762499999999939
 31
0.0
  0
LINE
  5
107
330
102
100
AcDbEntity
  8
치수문자_일반주서
 62
     0
370
    -2
100
AcDbLine
 10
43.25102067414893
 20
4.762500000000056
 30
0.0
 11
43.25102067414878
 21
46.69940318474246
 31
0.0
  0
LINE
  5
108
330
102
100
AcDbEntity
  8
치수문자_일반주서
 62
     0
370
    -2
100
AcDbLine
 10
43.25102067414893
 20
4.762500000000056
 30
0.0
 11
43.25102067414897
 21
-4.762499999999939
 31
0.0
  0
LINE
  5
109
330
102
100
AcDbEntity
  8
치수문자_일반주서
 62
     0
370
    -2
100
AcDbLine
 10
43.25102067414892
 20
8.064500000000056
 30
0.0
 11
43.2510206741489
 21
11.36650000000006
 31
0.0
  0
LINE
  5
10A
330
102
100
AcDbEntity
  8
치수문자_일반주서
 62
     0
370
    -2
100
AcDbLine
 10
43.25102067414898
 20
-8.064499999999938
 30
0.0
 11
43.251020674149
 21
-11.36649999999994
 31
0.0
  0
SOLID
  5
10B
330
102
100
AcDbEntity
  8
치수문자_일반주서
 62
     0
100
AcDbTrace
 10
42.70068734081558
 20
8.064500000000054
 30
0.0
 11
43.80135400748225
 21
8.064500000000058
 31
0.0
 12
43.25102067414893
 22
4.762500000000056
 32
0.0
 13
43.25102067414893
 23
4.762500000000056
 33
0.0
  0
SOLID
  5
10C
330
102
100
AcDbEntity
  8
치수문자_일반주서
 62
     0
100
AcDbTrace
 10
43.80135400748232
 20
-8.064499999999937
 30
0.0
 11
42.70068734081565
 21
-8.06449999999994
 31
0.0
 12
43.25102067414897
 22
-4.762499999999939
 32
0.0
 13
43.25102067414897
 23
-4.762499999999939
 33
0.0
  0
MTEXT
  5
10D
330
102
100
AcDbEntity
  8
치수문자_일반주서
 62
     0
100
AcDbMText
 10
38.87602067414883
 20
33.57440318474244
 30
0.0
 40
3.5
 41
0.0
 71
     2
 72
     1
  1
\A1;%%c9.53 [3/8]
  7
SLDTEXTSTYLE0
 11
-3.729883127349608E-15
 21
1.0
 31
0.0
 73
     1
 44
1.0
  0
POINT
  5
10E
330
102
100
AcDbEntity
  8
Defpoints
 62
     0
100
AcDbPoint
 10
29.04999999999999
 20
4.762500000000003
 30
0.0
  0
POINT
  5
285
330
102
100
AcDbEntity
  8
Defpoints
 62
     0
100
AcDbPoint
 10
29.04999999999999
 20
-4.762499999999995
 30
0.0
  0
POINT
  5
286
330
102
100
AcDbEntity
  8
Defpoints
 62
     0
100
AcDbPoint
 10
43.25102067414897
 20
-4.762499999999942
 30
0.0
  0
ENDBLK
  5
104
330
102
100
AcDbEntity
  8
0
100
AcDbBlockEnd
  0
BLOCK
  5
11C
330
11B
100
AcDbEntity
  8
0
100
AcDbBlockBegin
  2
SW_DOWELSYMBOL_0
 70
     0
 10
0.0
 20
0.0
 30
0.0
  3
SW_DOWELSYMBOL_0
  1
SW_DOWELSYMBOL_0
  0
CIRCLE
  5
11E
330
11B
100
AcDbEntity
  8
해칭선
 62
     0
100
AcDbCircle
 10
0.0
 20
0.0
 30
0.0
 40
3.000000000000003
  0
HATCH
  5
11F
330
11B
100
AcDbEntity
  8
0
  6
Continuous
 62
     0
370
     0
100
AcDbHatch
 10
0.0
 20
0.0
 30
0.0
210
0.0
220
0.0
230
1.0
  2
SOLID
 70
     1
 71
     0
 91
        1
 92
        0
 93
        3
 72
     2
 10
0.0
 20
0.0
 40
3.000000000000003
 50
0.0
 51
90.0
 73
     1
 72
     1
 10
0.0
 20
3.000000000000003
 11
0.0
 21
0.0
 72
     1
 10
0.0
 20
0.0
 11
3.000000000000003
 21
0.0
 97
        0
 75
     0
 76
     1
 98
        1
 10
0.0
 20
0.0
  0
HATCH
  5
120
330
11B
100
AcDbEntity
  8
0
  6
Continuous
 62
     0
370
     0
100
AcDbHatch
 10
0.0
 20
0.0
 30
0.0
210
0.0
220
0.0
230
1.0
  2
SOLID
 70
     1
 71
     0
 91
        1
 92
        0
 93
        3
 72
     2
 10
0.0
 20
0.0
 40
3.000000000000003
 50
180.0
 51
270.0000000000008
 73
     1
 72
     1
 10
0.0
 20
-3.000000000000003
 11
0.0
 21
0.0
 72
     1
 10
0.0
 20
0.0
 11
-3.000000000000003
 21
0.0
 97
        0
 75
     0
 76
     1
 98
        1
 10
0.0
 20
0.0
  0
ENDBLK
  5
11D
330
11B
100
AcDbEntity
  8
0
100
AcDbBlockEnd
  0
BLOCK
  5
1E5
330
1E4
100
AcDbEntity
  8
0
100
AcDbBlockBegin
  2
*D8
 70
     1
 10
0.0
 20
0.0
 30
0.0
  3
*D8
  1
*D8
  0
LINE
  5
1E7
330
1E4
100
AcDbEntity
  8
치수문자_일반주서
 62
     0
370
    -2
100
AcDbLine
 10
101.2025
 20
16.28125000000001
 30
0.0
 11
101.2025
 21
26.46216666666669
 31
0.0
  0
LINE
  5
1E8
330
1E4
100
AcDbEntity
  8
치수문자_일반주서
 62
     0
370
    -2
100
AcDbLine
 10
82.15250000000005
 20
16.28125
 30
0.0
 11
82.15250000000005
 21
26.46216666666669
 31
0.0
  0
LINE
  5
1E9
330
1E4
100
AcDbEntity
  8
치수문자_일반주서
 62
     0
370
    -2
100
AcDbLine
 10
82.15250000000005
 20
26.46216666666669
 30
0.0
 11
50.61100000000005
 21
26.46216666666669
 31
0.0
  0
LINE
  5
1EA
330
1E4
100
AcDbEntity
  8
치수문자_일반주서
 62
     0
370
    -2
100
AcDbLine
 10
97.90050000000005
 20
26.46216666666669
 30
0.0
 11
85.45450000000005
 21
26.46216666666669
 31
0.0
  0
SOLID
  5
1EB
330
1E4
100
AcDbEntity
  8
치수문자_일반주서
 62
     0
100
AcDbTrace
 10
97.90050000000005
 20
25.91183333333336
 30
0.0
 11
97.90050000000005
 21
27.01250000000002
 31
0.0
 12
101.2025
 22
26.46216666666669
 32
0.0
 13
101.2025
 23
26.46216666666669
 33
0.0
  0
SOLID
  5
1EC
330
1E4
100
AcDbEntity
  8
치수문자_일반주서
 62
     0
100
AcDbTrace
 10
85.45450000000005
 20
27.01250000000002
 30
0.0
 11
85.45450000000005
 21
25.91183333333336
 31
0.0
 12
82.15250000000005
 22
26.46216666666669
 32
0.0
 13
82.15250000000005
 23
26.46216666666669
 33
0.0
  0
MTEXT
  5
1ED
330
1E4
100
AcDbEntity
  8
치수문자_일반주서
 62
     0
100
AcDbMText
 10
63.07975000000005
 20
30.83716666666669
 30
0.0
 40
3.5
 41
0.0
 71
     2
 72
     1
  1
\A1;19.05 [3/4]
  7
SLDTEXTSTYLE0
 73
     1
 44
1.0
  0
POINT
  5
1EE
330
1E4
100
AcDbEntity
  8
Defpoints
 62
     0
100
AcDbPoint
 10
101.2025
 20
16.21875000000001
 30
0.0
  0
POINT
  5
1EF
330
1E4
100
AcDbEntity
  8
Defpoints
 62
     0
100
AcDbPoint
 10
82.15250000000005
 20
16.21875
 30
0.0
  0
POINT
  5
1F0
330
1E4
100
AcDbEntity
  8
Defpoints
 62
     0
100
AcDbPoint
 10
82.15250000000005
 20
26.46216666666669
 30
0.0
  0
ENDBLK
  5
1E6
330
1E4
100
AcDbEntity
  8
0
100
AcDbBlockEnd
  0
BLOCK
  5
1F2
330
1F1
100
AcDbEntity
  8
0
100
AcDbBlockBegin
  2
*D9
 70
     1
 10
0.0
 20
0.0
 30
0.0
  3
*D9
  1
*D9
  0
LINE
  5
1F4
330
1F1
100
AcDbEntity
  8
치수문자_일반주서
 62
     0
370
    -2
100
AcDbLine
 10
101.2025
 20
16.28125000000001
 30
0.0
 11
101.2025
 21
42.21163381589233
 31
0.0
  0
LINE
  5
1F5
330
1F1
100
AcDbEntity
  8
치수문자_일반주서
 62
     0
370
    -2
100
AcDbLine
 10
17.06500000000005
 20
16.26500000000001
 30
0.0
 11
17.06500000000005
 21
42.21163381589233
 31
0.0
  0
LINE
  5
1F6
330
1F1
100
AcDbEntity
  8
치수문자_일반주서
 62
     0
370
    -2
100
AcDbLine
 10
97.90050000000005
 20
42.21163381589233
 30
0.0
 11
20.36700000000005
 21
42.21163381589233
 31
0.0
  0
SOLID
  5
1F7
330
1F1
100
AcDbEntity
  8
치수문자_일반주서
 62
     0
100
AcDbTrace
 10
97.90050000000005
 20
41.66130048255899
 30
0.0
 11
97.90050000000005
 21
42.76196714922566
 31
0.0
 12
101.2025
 22
42.21163381589233
 32
0.0
 13
101.2025
 23
42.21163381589233
 33
0.0
  0
SOLID
  5
1F8
330
1F1
100
AcDbEntity
  8
치수문자_일반주서
 62
     0
100
AcDbTrace
 10
20.36700000000005
 20
42.76196714922566
 30
0.0
 11
20.36700000000005
 21
41.66130048255899
 31
0.0
 12
17.06500000000005
 22
42.21163381589233
 32
0.0
 13
17.06500000000005
 23
42.21163381589233
 33
0.0
  0
MTEXT
  5
1F9
330
1F1
100
AcDbEntity
  8
치수문자_일반주서
 62
     0
100
AcDbMText
 10
59.13375000000003
 20
46.58663381589233
 30
0.0
 40
3.5
 41
0.0
 71
     2
 72
     1
  1
\A1;84.14 [3 5/16]
  7
SLDTEXTSTYLE0
 73
     1
 44
1.0
  0
POINT
  5
1FA
330
1F1
100
AcDbEntity
  8
Defpoints
 62
     0
100
AcDbPoint
 10
101.2025
 20
16.21875000000001
 30
0.0
  0
POINT
  5
1FB
330
1F1
100
AcDbEntity
  8
Defpoints
 62
     0
100
AcDbPoint
 10
17.06500000000005
 20
16.20250000000001
 30
0.0
  0
POINT
  5
1FC
330
1F1
100
AcDbEntity
  8
Defpoints
 62
     0
100
AcDbPoint
 10
17.06500000000005
 20
42.21163381589233
 30
0.0
  0
ENDBLK
  5
1F3
330
1F1
100
AcDbEntity
  8
0
100
AcDbBlockEnd
  0
BLOCK
  5
1FE
330
1FD
100
AcDbEntity
  8
0
100
AcDbBlockBegin
  2
*D10
 70
     1
 10
0.0
 20
0.0
 30
0.0
  3
*D10
  1
*D10
  0
LINE
  5
200
330
1FD
100
AcDbEntity
  8
치수문자_일반주서
 62
     0
370
    -2
100
AcDbLine
 10
17.81250000000006
 20
17.01250000000002
 30
0.0
 11
4.375000000000027
 21
17.01249999999997
 31
0.0
  0
LINE
  5
201
330
1FD
100
AcDbEntity
  8
치수문자_일반주서
 62
     0
370
    -2
100
AcDbLine
 10
17.81250000000006
 20
7.48750000000001
 30
0.0
 11
4.37500000000006
 21
7.48749999999996
 31
0.0
  0
LINE
  5
202
330
1FD
100
AcDbEntity
  8
치수문자_일반주서
 62
     0
370
    -2
100
AcDbLine
 10
4.375000000000038
 20
13.71049999999997
 30
0.0
 11
4.375000000000048
 21
10.78949999999996
 31
0.0
  0
SOLID
  5
203
330
1FD
100
AcDbEntity
  8
치수문자_일반주서
 62
     0
100
AcDbTrace
 10
4.925333333333372
 20
13.71049999999997
 30
0.0
 11
3.824666666666705
 21
13.71049999999997
 31
0.0
 12
4.375000000000027
 22
17.01249999999997
 32
0.0
 13
4.375000000000027
 23
17.01249999999997
 33
0.0
  0
SOLID
  5
204
330
1FD
100
AcDbEntity
  8
치수문자_일반주서
 62
     0
100
AcDbTrace
 10
3.824666666666715
 20
10.78949999999996
 30
0.0
 11
4.925333333333382
 21
10.78949999999996
 31
0.0
 12
4.37500000000006
 22
7.48749999999996
 32
0.0
 13
4.37500000000006
 23
7.48749999999996
 33
0.0
  0
MTEXT
  5
205
330
1FD
100
AcDbEntity
  8
치수문자_일반주서
 62
     0
100
AcDbMText
 10
0.0000000000000426
 20
12.25
 30
0.0
 40
3.5
 41
0.0
 71
     2
 72
     1
  1
\A1;%%c9.53 [3/8]
  7
SLDTEXTSTYLE0
 11
-3.450141892798383E-15
 21
1.0
 31
0.0
 73
     1
 44
1.0
  0
POINT
  5
206
330
1FD
100
AcDbEntity
  8
Defpoints
 62
     0
100
AcDbPoint
 10
17.87500000000006
 20
17.01250000000002
 30
0.0
  0
POINT
  5
207
330
1FD
100
AcDbEntity
  8
Defpoints
 62
     0
100
AcDbPoint
 10
17.87500000000006
 20
7.48750000000001
 30
0.0
  0
POINT
  5
208
330
1FD
100
AcDbEntity
  8
Defpoints
 62
     0
100
AcDbPoint
 10
4.375000000000057
 20
7.487499999999959
 30
0.0
  0
ENDBLK
  5
1FF
330
1FD
100
AcDbEntity
  8
0
100
AcDbBlockEnd
  0
BLOCK
  5
20A
330
209
100
AcDbEntity
  8
0
100
AcDbBlockBegin
  2
*D11
 70
     1
 10
0.0
 20
0.0
 30
0.0
  3
*D11
  1
*D11
  0
LINE
  5
20C
330
209
100
AcDbEntity
  8
치수문자_일반주서
 62
     0
370
    -2
100
AcDbLine
 10
101.265
 20
16.21875000000001
 30
0.0
 11
113.1434379027179
 21
16.21875000000006
 31
0.0
  0
LINE
  5
20D
330
209
100
AcDbEntity
  8
치수문자_일반주서
 62
     0
370
    -2
100
AcDbLine
 10
101.265
 20
8.281250000000014
 30
0.0
 11
113.1434379027179
 21
8.28125000000006
 31
0.0
  0
LINE
  5
20E
330
209
100
AcDbEntity
  8
치수문자_일반주서
 62
     0
370
    -2
100
AcDbLine
 10
113.1434379027179
 20
16.21875000000006
 30
0.0
 11
113.1434379027178
 21
54.22866932061871
 31
0.0
  0
LINE
  5
20F
330
209
100
AcDbEntity
  8
치수문자_일반주서
 62
     0
370
    -2
100
AcDbLine
 10
113.1434379027179
 20
16.21875000000006
 30
0.0
 11
113.1434379027179
 21
8.28125000000006
 31
0.0
  0
LINE
  5
210
330
209
100
AcDbEntity
  8
치수문자_일반주서
 62
     0
370
    -2
100
AcDbLine
 10
113.1434379027179
 20
19.52075000000006
 30
0.0
 11
113.1434379027179
 21
22.82275000000006
 31
0.0
  0
LINE
  5
211
330
209
100
AcDbEntity
  8
치수문자_일반주서
 62
     0
370
    -2
100
AcDbLine
 10
113.143437902718
 20
4.979250000000061
 30
0.0
 11
113.143437902718
 21
1.677250000000061
 31
0.0
  0
SOLID
  5
212
330
209
100
AcDbEntity
  8
치수문자_일반주서
 62
     0
100
AcDbTrace
 10
112.5931045693846
 20
19.52075000000005
 30
0.0
 11
113.6937712360512
 21
19.52075000000006
 31
0.0
 12
113.1434379027179
 22
16.21875000000006
 32
0.0
 13
113.1434379027179
 23
16.21875000000006
 33
0.0
  0
SOLID
  5
213
330
209
100
AcDbEntity
  8
치수문자_일반주서
 62
     0
100
AcDbTrace
 10
113.6937712360513
 20
4.979250000000063
 30
0.0
 11
112.5931045693846
 21
4.979250000000059
 31
0.0
 12
113.1434379027179
 22
8.28125000000006
 32
0.0
 13
113.1434379027179
 23
8.28125000000006
 33
0.0
  0
MTEXT
  5
214
330
209
100
AcDbEntity
  8
치수문자_일반주서
 62
     0
100
AcDbMText
 10
108.7684379027178
 20
40.22866932061869
 30
0.0
 40
3.5
 41
0.0
 71
     2
 72
     1
  1
\A1;%%c7.94 [5/16]
  7
SLDTEXTSTYLE0
 11
-3.580687802255624E-15
 21
1.0
 31
0.0
 73
     1
 44
1.0
  0
POINT
  5
215
330
209
100
AcDbEntity
  8
Defpoints
 62
     0
100
AcDbPoint
 10
101.2025
 20
16.21875000000001
 30
0.0
  0
POINT
  5
216
330
209
100
AcDbEntity
  8
Defpoints
 62
     0
100
AcDbPoint
 10
101.2025
 20
8.281250000000014
 30
0.0
  0
POINT
  5
217
330
209
100
AcDbEntity
  8
Defpoints
 62
     0
100
AcDbPoint
 10
113.1434379027179
 20
8.281250000000059
 30
0.0
  0
ENDBLK
  5
20B
330
209
100
AcDbEntity
  8
0
100
AcDbBlockEnd
  0
BLOCK
  5
250
330
24F
100
AcDbEntity
  8
0
100
AcDbBlockBegin
  2
*D12
 70
     1
 10
0.0
 20
0.0
 30
0.0
  3
*D12
  1
*D12
  0
LINE
  5
252
330
24F
100
AcDbEntity
  8
치수문자_일반주서
 62
     0
370
    -2
100
AcDbLine
 10
178.0283634598609
 20
-13.70959587398748
 30
0.0
 11
178.0283634598609
 21
-3.528679207320806
 31
0.0
  0
LINE
  5
253
330
24F
100
AcDbEntity
  8
치수문자_일반주서
 62
     0
370
    -2
100
AcDbLine
 10
158.978363459861
 20
-13.7095958739875
 30
0.0
 11
158.978363459861
 21
-3.528679207320806
 31
0.0
  0
LINE
  5
254
330
24F
100
AcDbEntity
  8
치수문자_일반주서
 62
     0
370
    -2
100
AcDbLine
 10
158.978363459861
 20
-3.528679207320806
 30
0.0
 11
127.4368634598609
 21
-3.528679207320806
 31
0.0
  0
LINE
  5
255
330
24F
100
AcDbEntity
  8
치수문자_일반주서
 62
     0
370
    -2
100
AcDbLine
 10
174.7263634598609
 20
-3.528679207320806
 30
0.0
 11
162.280363459861
 21
-3.528679207320806
 31
0.0
  0
SOLID
  5
256
330
24F
100
AcDbEntity
  8
치수문자_일반주서
 62
     0
100
AcDbTrace
 10
174.7263634598609
 20
-4.07901254065414
 30
0.0
 11
174.7263634598609
 21
-2.978345873987473
 31
0.0
 12
178.0283634598609
 22
-3.528679207320806
 32
0.0
 13
178.0283634598609
 23
-3.528679207320806
 33
0.0
  0
SOLID
  5
257
330
24F
100
AcDbEntity
  8
치수문자_일반주서
 62
     0
100
AcDbTrace
 10
162.280363459861
 20
-2.978345873987473
 30
0.0
 11
162.280363459861
 21
-4.07901254065414
 31
0.0
 12
158.978363459861
 22
-3.528679207320806
 32
0.0
 13
158.978363459861
 23
-3.528679207320806
 33
0.0
  0
MTEXT
  5
258
330
24F
100
AcDbEntity
  8
치수문자_일반주서
 62
     0
100
AcDbMText
 10
139.9056134598609
 20
0.8463207926791938
 30
0.0
 40
3.5
 41
0.0
 71
     2
 72
     1
  1
\A1;19.05 [3/4]
  7
SLDTEXTSTYLE0
 73
     1
 44
1.0
  0
POINT
  5
259
330
24F
100
AcDbEntity
  8
Defpoints
 62
     0
100
AcDbPoint
 10
178.0283634598609
 20
-13.77209587398748
 30
0.0
  0
POINT
  5
25A
330
24F
100
AcDbEntity
  8
Defpoints
 62
     0
100
AcDbPoint
 10
158.978363459861
 20
-13.7720958739875
 30
0.0
  0
POINT
  5
25B
330
24F
100
AcDbEntity
  8
Defpoints
 62
     0
100
AcDbPoint
 10
158.978363459861
 20
-3.528679207320806
 30
0.0
  0
ENDBLK
  5
251
330
24F
100
AcDbEntity
  8
0
100
AcDbBlockEnd
  0
BLOCK
  5
25D
330
25C
100
AcDbEntity
  8
0
100
AcDbBlockBegin
  2
*D13
 70
     1
 10
0.0
 20
0.0
 30
0.0
  3
*D13
  1
*D13
  0
LINE
  5
25F
330
25C
100
AcDbEntity
  8
치수문자_일반주서
 62
     0
370
    -2
100
AcDbLine
 10
178.0283634598609
 20
-13.70959587398748
 30
0.0
 11
178.0283634598609
 21
12.22078794190483
 31
0.0
  0
LINE
  5
260
330
25C
100
AcDbEntity
  8
치수문자_일반주서
 62
     0
370
    -2
100
AcDbLine
 10
93.89086345986097
 20
-13.72584587398749
 30
0.0
 11
93.89086345986097
 21
12.22078794190483
 31
0.0
  0
LINE
  5
261
330
25C
100
AcDbEntity
  8
치수문자_일반주서
 62
     0
370
    -2
100
AcDbLine
 10
174.7263634598609
 20
12.22078794190483
 30
0.0
 11
97.19286345986097
 21
12.22078794190483
 31
0.0
  0
SOLID
  5
262
330
25C
100
AcDbEntity
  8
치수문자_일반주서
 62
     0
100
AcDbTrace
 10
174.7263634598609
 20
11.6704546085715
 30
0.0
 11
174.7263634598609
 21
12.77112127523816
 31
0.0
 12
178.0283634598609
 22
12.22078794190483
 32
0.0
 13
178.0283634598609
 23
12.22078794190483
 33
0.0
  0
SOLID
  5
263
330
25C
100
AcDbEntity
  8
치수문자_일반주서
 62
     0
100
AcDbTrace
 10
97.19286345986097
 20
12.77112127523816
 30
0.0
 11
97.19286345986097
 21
11.6704546085715
 31
0.0
 12
93.89086345986097
 22
12.22078794190483
 32
0.0
 13
93.89086345986097
 23
12.22078794190483
 33
0.0
  0
MTEXT
  5
264
330
25C
100
AcDbEntity
  8
치수문자_일반주서
 62
     0
100
AcDbMText
 10
135.9596134598609
 20
16.59578794190483
 30
0.0
 40
3.5
 41
0.0
 71
     2
 72
     1
  1
\A1;84.14 [3 5/16]
  7
SLDTEXTSTYLE0
 73
     1
 44
1.0
  0
POINT
  5
265
330
25C
100
AcDbEntity
  8
Defpoints
 62
     0
100
AcDbPoint
 10
178.0283634598609
 20
-13.77209587398748
 30
0.0
  0
POINT
  5
266
330
25C
100
AcDbEntity
  8
Defpoints
 62
     0
100
AcDbPoint
 10
93.89086345986097
 20
-13.78834587398749
 30
0.0
  0
POINT
  5
267
330
25C
100
AcDbEntity
  8
Defpoints
 62
     0
100
AcDbPoint
 10
93.89086345986097
 20
12.22078794190483
 30
0.0
  0
ENDBLK
  5
25E
330
25C
100
AcDbEntity
  8
0
100
AcDbBlockEnd
  0
BLOCK
  5
269
330
268
100
AcDbEntity
  8
0
100
AcDbBlockBegin
  2
*D14
 70
     1
 10
0.0
 20
0.0
 30
0.0
  3
*D14
  1
*D14
  0
LINE
  5
26B
330
268
100
AcDbEntity
  8
치수문자_일반주서
 62
     0
370
    -2
100
AcDbLine
 10
94.63836345986098
 20
-12.97834587398748
 30
0.0
 11
81.20086345986094
 21
-12.97834587398753
 31
0.0
  0
LINE
  5
26C
330
268
100
AcDbEntity
  8
치수문자_일반주서
 62
     0
370
    -2
100
AcDbLine
 10
94.63836345986098
 20
-22.50334587398748
 30
0.0
 11
81.20086345986097
 21
-22.50334587398753
 31
0.0
  0
LINE
  5
26D
330
268
100
AcDbEntity
  8
치수문자_일반주서
 62
     0
370
    -2
100
AcDbLine
 10
81.20086345986095
 20
-16.28034587398753
 30
0.0
 11
81.20086345986095
 21
-19.20134587398753
 31
0.0
  0
SOLID
  5
26E
330
268
100
AcDbEntity
  8
치수문자_일반주서
 62
     0
100
AcDbTrace
 10
81.75119679319428
 20
-16.28034587398753
 30
0.0
 11
80.65053012652763
 21
-16.28034587398753
 31
0.0
 12
81.20086345986094
 22
-12.97834587398753
 32
0.0
 13
81.20086345986094
 23
-12.97834587398753
 33
0.0
  0
SOLID
  5
26F
330
268
100
AcDbEntity
  8
치수문자_일반주서
 62
     0
100
AcDbTrace
 10
80.65053012652763
 20
-19.20134587398753
 30
0.0
 11
81.75119679319428
 21
-19.20134587398753
 31
0.0
 12
81.20086345986097
 22
-22.50334587398753
 32
0.0
 13
81.20086345986097
 23
-22.50334587398753
 33
0.0
  0
MTEXT
  5
270
330
268
100
AcDbEntity
  8
치수문자_일반주서
 62
     0
100
AcDbMText
 10
76.82586345986095
 20
-17.7408458739875
 30
0.0
 40
3.5
 41
0.0
 71
     2
 72
     1
  1
\A1;%%c9.53 [3/8]
  7
SLDTEXTSTYLE0
 11
-2.983906501879684E-15
 21
1.0
 31
0.0
 73
     1
 44
1.0
  0
POINT
  5
271
330
268
100
AcDbEntity
  8
Defpoints
 62
     0
100
AcDbPoint
 10
94.70086345986098
 20
-12.97834587398748
 30
0.0
  0
POINT
  5
272
330
268
100
AcDbEntity
  8
Defpoints
 62
     0
100
AcDbPoint
 10
94.70086345986098
 20
-22.50334587398748
 30
0.0
  0
POINT
  5
273
330
268
100
AcDbEntity
  8
Defpoints
 62
     0
100
AcDbPoint
 10
81.20086345986097
 20
-22.50334587398753
 30
0.0
  0
ENDBLK
  5
26A
330
268
100
AcDbEntity
  8
0
100
AcDbBlockEnd
  0
BLOCK
  5
275
330
274
100
AcDbEntity
  8
0
100
AcDbBlockBegin
  2
*D15
 70
     1
 10
0.0
 20
0.0
 30
0.0
  3
*D15
  1
*D15
  0
LINE
  5
277
330
274
100
AcDbEntity
  8
치수문자_일반주서
 62
     0
370
    -2
100
AcDbLine
 10
178.0908634598609
 20
-13.77209587398749
 30
0.0
 11
189.9693013625788
 21
-13.77209587398744
 31
0.0
  0
LINE
  5
278
330
274
100
AcDbEntity
  8
치수문자_일반주서
 62
     0
370
    -2
100
AcDbLine
 10
178.0908634598609
 20
-21.70959587398748
 30
0.0
 11
189.9693013625788
 21
-21.70959587398744
 31
0.0
  0
LINE
  5
279
330
274
100
AcDbEntity
  8
치수문자_일반주서
 62
     0
370
    -2
100
AcDbLine
 10
189.9693013625788
 20
-13.77209587398744
 30
0.0
 11
189.9693013625787
 21
24.23782344663121
 31
0.0
  0
LINE
  5
27A
330
274
100
AcDbEntity
  8
치수문자_일반주서
 62
     0
370
    -2
100
AcDbLine
 10
189.9693013625788
 20
-13.77209587398744
 30
0.0
 11
189.9693013625788
 21
-21.70959587398744
 31
0.0
  0
LINE
  5
27B
330
274
100
AcDbEntity
  8
치수문자_일반주서
 62
     0
370
    -2
100
AcDbLine
 10
189.9693013625788
 20
-10.47009587398744
 30
0.0
 11
189.9693013625788
 21
-7.168095873987443
 31
0.0
  0
LINE
  5
27C
330
274
100
AcDbEntity
  8
치수문자_일반주서
 62
     0
370
    -2
100
AcDbLine
 10
189.9693013625788
 20
-25.01159587398744
 30
0.0
 11
189.9693013625788
 21
-28.31359587398744
 31
0.0
  0
SOLID
  5
27D
330
274
100
AcDbEntity
  8
치수문자_일반주서
 62
     0
100
AcDbTrace
 10
189.4189680292455
 20
-10.47009587398744
 30
0.0
 11
190.5196346959121
 21
-10.47009587398744
 31
0.0
 12
189.9693013625788
 22
-13.77209587398744
 32
0.0
 13
189.9693013625788
 23
-13.77209587398744
 33
0.0
  0
SOLID
  5
27E
330
274
100
AcDbEntity
  8
치수문자_일반주서
 62
     0
100
AcDbTrace
 10
190.5196346959122
 20
-25.01159587398744
 30
0.0
 11
189.4189680292455
 21
-25.01159587398744
 31
0.0
 12
189.9693013625788
 22
-21.70959587398744
 32
0.0
 13
189.9693013625788
 23
-21.70959587398744
 33
0.0
  0
MTEXT
  5
27F
330
274
100
AcDbEntity
  8
치수문자_일반주서
 62
     0
100
AcDbMText
 10
185.5943013625787
 20
10.2378234466312
 30
0.0
 40
3.5
 41
0.0
 71
     2
 72
     1
  1
\A1;%%c7.94 [5/16]
  7
SLDTEXTSTYLE0
 11
-3.580687802255625E-15
 21
1.0
 31
0.0
 73
     1
 44
1.0
  0
POINT
  5
280
330
274
100
AcDbEntity
  8
Defpoints
 62
     0
100
AcDbPoint
 10
178.0283634598609
 20
-13.77209587398749
 30
0.0
  0
POINT
  5
281
330
274
100
AcDbEntity
  8
Defpoints
 62
     0
100
AcDbPoint
 10
178.0283634598609
 20
-21.70959587398748
 30
0.0
  0
POINT
  5
282
330
274
100
AcDbEntity
  8
Defpoints
 62
     0
100
AcDbPoint
 10
189.9693013625788
 20
-21.70959587398744
 30
0.0
  0
ENDBLK
  5
276
330
274
100
AcDbEntity
  8
0
100
AcDbBlockEnd
  0
ENDSEC
  0
SECTION
  2
ENTITIES
  0
LINE
  5
96
330
1F
100
AcDbEntity
  8
외형선
  6
Continuous
370
    15
100
AcDbLine
 10
8.480265801183112
 20
4.7625
 30
0.0
 11
-30.40504999999991
 21
4.762499999999995
 31
0.0
  0
LINE
  5
97
330
1F
100
AcDbEntity
  8
외형선
  6
Continuous
370
    15
100
AcDbLine
 10
-54.0875
 20
-4.762500000000006
 30
0.0
 11
8.480265801183116
 21
-4.762499999999998
 31
0.0
  0
LINE
  5
98
330
1F
100
AcDbEntity
  8
외형선
  6
Continuous
370
    15
100
AcDbLine
 10
-54.0875
 20
4.762499999999992
 30
0.0
 11
-55.08750000000001
 21
3.762499999999992
 31
0.0
  0
LINE
  5
99
330
1F
100
AcDbEntity
  8
외형선
  6
Continuous
370
    15
100
AcDbLine
 10
-55.08750000000001
 20
-3.762500000000008
 30
0.0
 11
-54.0875
 21
-4.762500000000008
 31
0.0
  0
LINE
  5
9A
330
1F
100
AcDbEntity
  8
0
  6
Continuous
 62
     1
370
    15
100
AcDbLine
 10
23.33479356993596
 20
-4.762499999999998
 30
0.0
 11
24.28749999999999
 21
-4.762499999999998
 31
0.0
  0
ARC
  5
9B
330
1F
100
AcDbEntity
  8
0
  6
Continuous
 62
     1
370
    15
100
AcDbCircle
 10
24.28749999999999
 20
0.0000000000000007
 30
0.0
 40
4.762499999999999
100
AcDbArc
 50
270.0000000000008
 51
0.0
  0
ARC
  5
9C
330
1F
100
AcDbEntity
  8
0
  6
Continuous
 62
     1
370
    15
100
AcDbCircle
 10
24.28749999999999
 20
0.0000000000000007
 30
0.0
 40
4.762499999999999
100
AcDbArc
 50
0.0
 51
90.0
  0
LINE
  5
9D
330
1F
100
AcDbEntity
  8
0
  6
Continuous
 62
     1
370
    15
100
AcDbLine
 10
24.28749999999999
 20
4.7625
 30
0.0
 11
23.33479356993596
 21
4.7625
 31
0.0
  0
SPLINE
  5
9E
330
1F
100
AcDbEntity
  8
외형선
  6
Continuous
370
    15
100
AcDbSpline
210
0.0
220
0.0
230
1.0
 70
     8
 71
     3
 72
    10
 73
     6
 74
     0
 42
0.000000001
 43
0.00000001
 40
0.0
 40
0.0
 40
0.0
 40
0.0
 40
0.5
 40
0.5
 40
1.0
 40
1.0
 40
1.0
 40
1.0
 10
9.999999999999966
 20
-2.397882574414954
 30
0.0
 10
9.746344359385184
 20
-2.330800528117738
 30
0.0
 10
9.49186868756449
 20
-2.260244973146579
 30
0.0
 10
8.984514141118128
 20
-2.113083740531995
 30
0.0
 10
8.732901237696053
 20
-2.036613778628643
 30
0.0
 10
8.480265801183116
 20
-1.957279688742398
 30
0.0
  0
SPLINE
  5
9F
330
1F
100
AcDbEntity
  8
외형선
  6
Continuous
370
    15
100
AcDbSpline
210
0.0
220
0.0
230
1.0
 70
     8
 71
     3
 72
    10
 73
     6
 74
     0
 42
0.000000001
 43
0.00000001
 40
0.0
 40
0.0
 40
0.0
 40
0.0
 40
0.5
 40
0.5
 40
1.0
 40
1.0
 40
1.0
 40
1.0
 10
9.999999999999712
 20
0.2183372748946494
 30
0.0
 10
9.746313409322001
 20
0.3645019470838861
 30
0.0
 10
9.491806587442799
 20
0.5105138648488065
 30
0.0
 10
8.98439052509587
 20
0.8003744034654354
 30
0.0
 10
8.73274785039148
 20
0.9439846150168334
 30
0.0
 10
8.480080847421855
 20
1.086255394553317
 30
0.0
  0
SPLINE
  5
A0
330
1F
100
AcDbEntity
  8
외형선
  6
Continuous
370
    15
100
AcDbSpline
210
0.0
220
0.0
230
1.0
 70
    24
 71
     3
 72
    14
 73
    10
 74
     0
 42
0.000000001
 43
0.00000001
 40
0.0
 40
0.0
 40
0.0
 40
0.0
 40
0.2500000000000002
 40
0.2500000000000002
 40
0.5000000000000001
 40
0.5000000000000001
 40
0.75
 40
0.75
 40
1.0
 40
1.0
 40
1.0
 40
1.0
 10
9.999999999999993
 20
0.218337274894581
 30
0.0
 10
9.99999999999999
 20
0.1798576570877601
 30
0.0
 10
9.999999999999993
 20
0.0689306717688776
 30
0.0
 10
9.999999999999993
 20
-0.2748427498481654
 30
0.0
 10
9.999999999999993
 20
-0.5063246903655267
 30
0.0
 10
9.999999999999993
 20
-1.023712022637837
 30
0.0
 10
9.999999999999993
 20
-1.30821362275949
 30
0.0
 10
9.999999999999993
 20
-1.868175535177823
 30
0.0
 10
9.999999999999993
 20
-2.143412409707766
 30
0.0
 10
9.999999999999993
 20
-2.397882574414965
 30
0.0
  0
LINE
  5
A1
330
1F
100
AcDbEntity
  8
외형선
  6
Continuous
370
    15
100
AcDbLine
 10
8.480265801183112
 20
4.744965957706125
 30
0.0
 11
8.480265801183112
 21
4.7625
 31
0.0
  0
SPLINE
  5
A2
330
1F
100
AcDbEntity
  8
외형선
  6
Continuous
370
    15
100
AcDbSpline
210
0.0
220
0.0
230
1.0
 70
     8
 71
     3
 72
    10
 73
     6
 74
     0
 42
0.000000001
 43
0.00000001
 40
0.0
 40
0.0
 40
0.0
 40
0.0
 40
0.5
 40
0.5
 40
1.0
 40
1.0
 40
1.0
 40
1.0
 10
10.00000000000008
 20
4.589950487891511
 30
0.0
 10
9.746344359385278
 20
4.628974407805639
 30
0.0
 10
9.491868687564564
 20
4.661529310938027
 30
0.0
 10
8.984514141118163
 20
4.713285875827741
 30
0.0
 10
8.73290123769607
 20
4.73247167964761
 30
0.0
 10
8.480265801183112
 20
4.74498911455941
 30
0.0
  0
SPLINE
  5
A3
330
1F
100
AcDbEntity
  8
외형선
  6
Continuous
370
    15
100
AcDbSpline
210
0.0
220
0.0
230
1.0
 70
     8
 71
     3
 72
    10
 73
     6
 74
     0
 42
0.000000001
 43
0.00000001
 40
0.0
 40
0.0
 40
0.0
 40
0.0
 40
0.5
 40
0.5
 40
1.0
 40
1.0
 40
1.0
 40
1.0
 10
10.00000000000008
 20
-4.58995048789151
 30
0.0
 10
9.746344359385278
 20
-4.628974407805638
 30
0.0
 10
9.491868687564567
 20
-4.661529310938026
 30
0.0
 10
8.984514141118163
 20
-4.71328587582774
 30
0.0
 10
8.732901237696074
 20
-4.732471679647609
 30
0.0
 10
8.480265801183116
 20
-4.744989114559409
 30
0.0
  0
LINE
  5
A4
330
1F
100
AcDbEntity
  8
외형선
  6
Continuous
370
    15
100
AcDbLine
 10
-54.0875
 20
4.762499999999993
 30
0.0
 11
-54.0875
 21
-4.762500000000015
 31
0.0
  0
LINE
  5
A5
330
1F
100
AcDbEntity
  8
외형선
  6
Continuous
370
    15
100
AcDbLine
 10
8.480265801183116
 20
-4.762499999999998
 30
0.0
 11
8.480265801183112
 21
1.086495187186144
 31
0.0
  0
LINE
  5
A6
330
1F
100
AcDbEntity
  8
외형선
  6
Continuous
370
    15
100
AcDbLine
 10
9.99999999999999
 20
4.589950487891523
 30
0.0
 11
9.999999999999993
 21
0.2183372748944885
 31
0.0
  0
LINE
  5
A7
330
1F
100
AcDbEntity
  8
외형선
  6
Continuous
370
    15
100
AcDbLine
 10
-55.08750000000001
 20
3.762499999999993
 30
0.0
 11
-55.08750000000001
 21
-3.762500000000005
 31
0.0
  0
SPLINE
  5
A8
330
1F
100
AcDbEntity
  8
외형선
  6
Continuous
370
    15
100
AcDbSpline
210
0.0
220
0.0
230
1.0
 70
    24
 71
     3
 72
    15
 73
    11
 74
     0
 42
0.000000001
 43
0.00000001
 40
0.0
 40
0.0
 40
0.0
 40
0.0
 40
0.1057285834210285
 40
0.2686592270610555
 40
0.4269980345570665
 40
0.5899286781970946
 40
0.7482674856931065
 40
0.9111981293331337
 40
0.9555508895884848
 40
1.0
 40
1.0
 40
1.0
 40
1.0
 10
9.999999999999993
 20
-2.456074194709607
 30
0.0
 10
9.999999999999993
 20
-2.482971483751861
 30
0.0
 10
9.999999999999993
 20
-2.551318232098558
 30
0.0
 10
9.999999999999993
 20
-2.755249989539577
 30
0.0
 10
9.999999999999993
 20
-3.051024972026309
 30
0.0
 10
9.999999999999993
 20
-3.415370799245702
 30
0.0
 10
9.999999999999993
 20
-3.840170252273834
 30
0.0
 10
9.999999999999993
 20
-4.196523138186749
 30
0.0
 10
9.999999999999993
 20
-4.452017480975492
 30
0.0
 10
9.999999999999993
 20
-4.543939573719046
 30
0.0
 10
9.999999999999993
 20
-4.589950487891606
 30
0.0
  0
SPLINE
  5
A9
330
1F
100
AcDbEntity
  8
0
  6
Continuous
 62
     1
370
    15
100
AcDbSpline
210
0.0
220
0.0
230
1.0
 70
     8
 71
     3
 72
    30
 73
    26
 74
     0
 42
0.000000001
 43
0.00000001
 40
0.0
 40
0.0
 40
0.0
 40
0.0
 40
0.1249999999999999
 40
0.1249999999999999
 40
0.2499999999999998
 40
0.2499999999999998
 40
0.3749999999999997
 40
0.3749999999999997
 40
0.4999999999999996
 40
0.4999999999999996
 40
0.5624999999999996
 40
0.5624999999999996
 40
0.6249999999999997
 40
0.6249999999999997
 40
0.6874999999999997
 40
0.6874999999999997
 40
0.7499999999999998
 40
0.7499999999999998
 40
0.8124999999999998
 40
0.8124999999999998
 40
0.8749999999999999
 40
0.8749999999999999
 40
0.9374999999999999
 40
0.9374999999999999
 40
1.0
 40
1.0
 40
1.0
 40
1.0
 10
24.28750000000001
 20
-1.991301044327044
 30
0.0
 10
23.6903699681141
 20
-1.678745276435756
 30
0.0
 10
23.09879961853301
 20
-1.351577841924623
 30
0.0
 10
21.90436481088848
 20
-0.6792154256164173
 30
0.0
 10
21.3129200855603
 20
-0.3361749949393191
 30
0.0
 10
20.11842176590623
 20
0.3520220341210396
 30
0.0
 10
19.5269853568509
 20
0.6949368656264268
 30
0.0
 10
18.33253477676689
 20
1.366810295784411
 30
0.0
 10
17.74098937342277
 20
1.693606925824108
 30
0.0
 10
16.84527067060683
 20
2.16172405875814
 30
0.0
 10
16.54633218991664
 20
2.313887876058229
 30
0.0
 10
15.95295778657269
 20
2.607852134920295
 30
0.0
 10
15.65642073530374
 20
2.750016695985001
 30
0.0
 10
15.05941001529722
 20
3.023656913418582
 30
0.0
 10
14.76034705217652
 20
3.15489463592975
 30
0.0
 10
14.16634686434149
 20
3.403963984919668
 30
0.0
 10
13.87037946023843
 20
3.521969022251879
 30
0.0
 10
13.27355937388768
 20
3.744392536537644
 30
0.0
 10
12.97439987643464
 20
3.848566688472791
 30
0.0
 10
12.37982852461846
 20
4.041067620948451
 30
0.0
 10
12.08428662135923
 20
4.12944950278721
 30
0.0
 10
11.48771266130804
 20
4.290276195776764
 30
0.0
 10
11.18848460780669
 20
4.362514274190846
 30
0.0
 10
10.59339688876002
 20
4.489414059686451
 30
0.0
 10
10.29813620871534
 20
4.544083408002423
 30
0.0
 10
10.00000000000005
 20
4.589950487891552
 30
0.0
  0
SPLINE
  5
AA
330
1F
100
AcDbEntity
  8
0
  6
Continuous
 62
     1
370
    15
100
AcDbSpline
210
0.0
220
0.0
230
1.0
 70
     8
 71
     3
 72
    15
 73
    11
 74
     0
 42
0.000000001
 43
0.00000001
 40
0.0
 40
0.0
 40
0.0
 40
0.0
 40
0.1475000164481328
 40
0.2949954351264957
 40
0.4257038714672973
 40
0.5564014300985475
 40
0.6870920392074267
 40
0.8177796363257427
 40
0.9484681630379164
 40
0.9999999999999999
 40
0.9999999999999999
 40
0.9999999999999999
 40
0.9999999999999999
 10
27.77504577259911
 20
0.4990354627814052
 30
0.0
 10
27.13023353442484
 20
0.7468742768712264
 30
0.0
 10
25.84062915772298
 20
1.242544179588631
 30
0.0
 10
23.97956589998159
 20
1.885299561147728
 30
0.0
 10
22.19218083796325
 20
2.413549793808675
 30
0.0
 10
20.47821810918652
 20
2.815242352715115
 30
0.0
 10
18.76436857201351
 20
3.098210919343765
 30
0.0
 10
17.05055835455787
 20
3.239256416795715
 30
0.0
 10
15.68277001558288
 20
3.266192393436633
 30
0.0
 10
14.88624084560691
 20
3.197477611601664
 30
0.0
 10
14.66098275427678
 20
3.178045102177335
 30
0.0
  0
SPLINE
  5
AB
330
1F
100
AcDbEntity
  8
0
  6
Continuous
 62
     1
370
    15
100
AcDbSpline
210
0.0
220
0.0
230
1.0
 70
     8
 71
     3
 72
    30
 73
    26
 74
     0
 42
0.000000001
 43
0.00000001
 40
0.0
 40
0.0
 40
0.0
 40
0.0
 40
0.1249999999999991
 40
0.1249999999999991
 40
0.1874999999999988
 40
0.1874999999999988
 40
0.2499999999999983
 40
0.2499999999999983
 40
0.3749999999999987
 40
0.3749999999999987
 40
0.4374999999999989
 40
0.4374999999999989
 40
0.499999999999999
 40
0.499999999999999
 40
0.5624999999999991
 40
0.5624999999999991
 40
0.6249999999999992
 40
0.6249999999999992
 40
0.6874999999999993
 40
0.6874999999999993
 40
0.7499999999999994
 40
0.7499999999999994
 40
0.8749999999999998
 40
0.8749999999999998
 40
1.0
 40
1.0
 40
1.0
 40
1.0
 10
24.28749999999999
 20
-1.991301044327178
 30
0.0
 10
24.55213428975638
 20
-2.129818568531987
 30
0.0
 10
24.8126020052203
 20
-2.253793838872036
 30
0.0
 10
25.20195149033363
 20
-2.411111144386765
 30
0.0
 10
25.33146245328532
 20
-2.458819341186434
 30
0.0
 10
25.59139168669406
 20
-2.542129752871974
 30
0.0
 10
25.72242440016129
 20
-2.577789942304729
 30
0.0
 10
26.11024429293107
 20
-2.660660713897052
 30
0.0
 10
26.36377134369048
 20
-2.685645583439848
 30
0.0
 10
26.74486574231203
 20
-2.657158578126282
 30
0.0
 10
26.86961029459547
 20
-2.636571838464588
 30
0.0
 10
27.11451129553816
 20
-2.569212844704203
 30
0.0
 10
27.23614613016458
 20
-2.521856526763448
 30
0.0
 10
27.46968955408819
 20
-2.395848202993517
 30
0.0
 10
27.58090749027974
 20
-2.318117080379689
 30
0.0
 10
27.79150964660133
 20
-2.125238548489772
 30
0.0
 10
27.88614615458358
 20
-2.014361182229348
 30
0.0
 10
28.0512080671314
 20
-1.760198751760407
 30
0.0
 10
28.11751113018562
 20
-1.622904250759148
 30
0.0
 10
28.21561205252249
 20
-1.332636475041531
 30
0.0
 10
28.24563520381317
 20
-1.184530489566488
 30
0.0
 10
28.28319478593528
 20
-0.7427994100710825
 30
0.0
 10
28.23792716483133
 20
-0.465260016657591
 30
0.0
 10
28.0629539183594
 20
0.0430954199863815
 30
0.0
 10
27.93339062459697
 20
0.2765100393740291
 30
0.0
 10
27.77504577258085
 20
0.4990354627884959
 30
0.0
  0
SPLINE
  5
AC
330
1F
100
AcDbEntity
  8
0
  6
Continuous
 62
     1
370
    15
100
AcDbSpline
210
0.0
220
0.0
230
1.0
 70
     8
 71
     3
 72
    11
 73
     7
 74
     0
 42
0.000000001
 43
0.00000001
 40
0.0
 40
0.0
 40
0.0
 40
0.0
 40
0.1816624238707719
 40
0.444475535017172
 40
0.7222369331959015
 40
1.0
 40
1.0
 40
1.0
 40
1.0
 10
16.52142268388384
 20
-3.223911355494801
 30
0.0
 10
16.12653337711946
 20
-3.231502057864859
 30
0.0
 10
15.16035318334688
 20
-3.25007431637159
 30
0.0
 10
13.59040668802561
 20
-3.11400311890419
 30
0.0
 10
11.81143735595652
 20
-2.844799388338984
 30
0.0
 10
10.60381366109607
 20
-2.546855144034055
 30
0.0
 10
9.999999999999966
 20
-2.397882574414956
 30
0.0
  0
SPLINE
  5
AD
330
1F
100
AcDbEntity
  8
0
  6
Continuous
 62
     1
370
    15
100
AcDbSpline
210
0.0
220
0.0
230
1.0
 70
     8
 71
     3
 72
    16
 73
    12
 74
     0
 42
0.000000001
 43
0.00000001
 40
0.0
 40
0.0
 40
0.0
 40
0.0
 40
0.1199749557254833
 40
0.2399382309586174
 40
0.3599116290161635
 40
0.4799169089543044
 40
0.599975690647312
 40
0.7179248982711253
 40
0.8358027518661089
 40
0.9536349252597661
 40
0.9999999999999999
 40
0.9999999999999999
 40
0.9999999999999999
 40
0.9999999999999999
 10
9.999999999999165
 20
0.2183372748949663
 30
0.0
 10
10.53325973306308
 20
-0.0900750421605143
 30
0.0
 10
11.59972728222047
 20
-0.7068696499406637
 30
0.0
 10
13.19939220788795
 20
-1.607858808552018
 30
0.0
 10
14.79922659090181
 20
-2.447900226074527
 30
0.0
 10
16.39956435697922
 20
-3.1965575628459
 30
0.0
 10
17.99106400930496
 20
-3.820701334942954
 30
0.0
 10
19.57323921315695
 20
-4.303374056825307
 30
0.0
 10
21.14522181909312
 20
-4.616686350167929
 30
0.0
 10
22.39894341703747
 20
-4.765498696099809
 30
0.0
 10
23.12872269413765
 20
-4.747089358312947
 30
0.0
 10
23.33479356993596
 20
-4.741891035368401
 30
0.0
  0
SPLINE
  5
AE
330
1F
100
AcDbEntity
  8
외형선
  6
Continuous
370
    15
100
AcDbSpline
210
0.0
220
0.0
230
1.0
 70
    24
 71
     3
 72
    14
 73
    10
 74
     0
 42
0.000000001
 43
0.00000001
 40
0.0
 40
0.0
 40
0.0
 40
0.0
 40
0.2500000000000002
 40
0.2500000000000002
 40
0.5000000000000001
 40
0.5000000000000001
 40
0.75
 40
0.75
 40
1.0
 40
1.0
 40
1.0
 40
1.0
 10
9.999999999999993
 20
0.218337274894581
 30
0.0
 10
9.99999999999999
 20
0.1798576570877601
 30
0.0
 10
9.999999999999993
 20
0.0689306717688776
 30
0.0
 10
9.999999999999993
 20
-0.2748427498481654
 30
0.0
 10
9.999999999999993
 20
-0.5063246903655267
 30
0.0
 10
9.999999999999993
 20
-1.023712022637837
 30
0.0
 10
9.999999999999993
 20
-1.30821362275949
 30
0.0
 10
9.999999999999993
 20
-1.868175535177823
 30
0.0
 10
9.999999999999993
 20
-2.143412409707766
 30
0.0
 10
9.999999999999993
 20
-2.397882574414965
 30
0.0
  0
SPLINE
  5
AF
330
1F
100
AcDbEntity
  8
0
  6
Continuous
 62
     1
370
    15
100
AcDbSpline
210
0.0
220
0.0
230
1.0
 70
     8
 71
     3
 72
    12
 73
     8
 74
     0
 42
0.000000001
 43
0.00000001
 40
0.0
 40
0.0
 40
0.0
 40
0.0
 40
0.2499999999999999
 40
0.2499999999999999
 40
0.4999999999999999
 40
0.4999999999999999
 40
1.0
 40
1.0
 40
1.0
 40
1.0
 10
27.77504577258082
 20
0.4990354627884966
 30
0.0
 10
27.82982018042112
 20
0.5320540104477016
 30
0.0
 10
27.87861384992295
 20
0.5729827045625092
 30
0.0
 10
27.96419856630163
 20
0.6711226768968677
 30
0.0
 10
28.00127017428596
 20
0.7292654689709183
 30
0.0
 10
28.08896981333627
 20
0.9203477992525023
 30
0.0
 10
28.11791522732956
 20
1.0738295368028
 30
0.0
 10
28.12058265432091
 20
1.233441726995389
 30
0.0
  0
ARC
  5
B0
330
1F
100
AcDbEntity
  8
0
  6
Continuous
 62
     1
370
    15
100
AcDbCircle
 10
26.77145610122136
 20
-0.8278801688981829
 30
0.0
 40
2.463572693217876
100
AcDbArc
 50
23.84125672760718
 51
56.79542084518243
  0
ARC
  5
B1
330
1F
100
AcDbEntity
  8
0
  6
Continuous
 62
     1
370
    15
100
AcDbCircle
 10
24.7675546402861
 20
0.0889208135325393
 30
0.0
 40
4.257987309847971
100
AcDbArc
 50
1.06288887161337
 51
71.16807011954806
  0
SPLINE
  5
B2
330
1F
100
AcDbEntity
  8
0
  6
Continuous
 62
     1
370
    15
100
AcDbSpline
210
0.0
220
0.0
230
1.0
 70
     8
 71
     3
 72
    10
 73
     6
 74
     0
 42
0.000000001
 43
0.00000001
 40
0.0
 40
0.0
 40
0.0
 40
0.0
 40
0.5
 40
0.5
 40
1.0
 40
1.0
 40
1.0
 40
1.0
 10
26.14200396967384
 20
4.118976020570268
 30
0.0
 10
25.84721081390838
 20
4.298571199290549
 30
0.0
 10
25.54391590685711
 20
4.439773403513491
 30
0.0
 10
24.92564756499953
 20
4.645211403520988
 30
0.0
 10
24.60690009588753
 20
4.709553171998472
 30
0.0
 10
24.28749999999931
 20
4.730764436419462
 30
0.0
  0
SPLINE
  5
B3
330
1F
100
AcDbEntity
  8
0
  6
Continuous
 62
     1
370
    15
100
AcDbSpline
210
0.0
220
0.0
230
1.0
 70
     8
 71
     3
 72
     8
 73
     4
 74
     0
 42
0.000000001
 43
0.00000001
 40
0.0
 40
0.0
 40
0.0
 40
0.0
 40
1.0
 40
1.0
 40
1.0
 40
1.0
 10
25.17582261770261
 20
2.131918444055884
 30
0.0
 10
26.14396334233323
 20
1.862864357053537
 30
0.0
 10
27.1310522087757
 20
1.559682840232502
 30
0.0
 10
28.12058265432095
 20
1.233441726995421
 30
0.0
  0
SPLINE
  5
B4
330
1F
100
AcDbEntity
  8
0
  6
Continuous
 62
     1
370
    15
100
AcDbSpline
210
0.0
220
0.0
230
1.0
 70
     8
 71
     3
 72
    12
 73
     8
 74
     0
 42
0.000000001
 43
0.00000001
 40
0.0
 40
0.0
 40
0.0
 40
0.0
 40
0.1904344438275952
 40
0.3929636502009634
 40
0.5953703354050802
 40
0.7976985836691952
 40
1.0
 40
1.0
 40
1.0
 40
1.0
 10
16.52142268388383
 20
3.223911355494804
 30
0.0
 10
17.01442777209142
 20
3.424920355252933
 30
0.0
 10
18.03174940328276
 20
3.839704722411375
 30
0.0
 10
19.57324119235696
 20
4.300385208353383
 30
0.0
 10
21.14522204076054
 20
4.621858142069229
 30
0.0
 10
22.71651645261504
 20
4.785501535899376
 30
0.0
 10
23.76386196817664
 20
4.749009329618401
 30
0.0
 10
24.28749999999999
 20
4.730764436419411
 30
0.0
  0
SPLINE
  5
B5
330
1F
100
AcDbEntity
  8
0
  6
Continuous
 62
     1
370
    15
100
AcDbSpline
210
0.0
220
0.0
230
1.0
 70
     8
 71
     3
 72
    18
 73
    14
 74
     0
 42
0.000000001
 43
0.00000001
 40
0.0
 40
0.0
 40
0.0
 40
0.0
 40
0.2500000000000004
 40
0.2500000000000004
 40
0.3750000000000008
 40
0.3750000000000008
 40
0.5000000000000012
 40
0.5000000000000012
 40
0.6250000000000017
 40
0.6250000000000017
 40
0.7500000000000021
 40
0.7500000000000021
 40
1.0
 40
1.0
 40
1.0
 40
1.0
 10
26.14200396967385
 20
4.11897602057027
 30
0.0
 10
26.1758560405584
 20
3.919068620140912
 30
0.0
 10
26.19108417124783
 20
3.715597289817626
 30
0.0
 10
26.16893447289701
 20
3.406459927319597
 30
0.0
 10
26.15405863700511
 20
3.305128880430555
 30
0.0
 10
26.10671658785315
 20
3.106492481592902
 30
0.0
 10
26.07365248315853
 20
3.008054018583651
 30
0.0
 10
25.98966169938991
 20
2.823295392161389
 30
0.0
 10
25.93896614419355
 20
2.736730108727849
 30
0.0
 10
25.81988711504778
 20
2.575419789670799
 30
0.0
 10
25.75106929856505
 20
2.500668160749033
 30
0.0
 10
25.52904193872988
 20
2.303470500565092
 30
0.0
 10
25.35560942933299
 20
2.203378606883681
 30
0.0
 10
25.17582261770261
 20
2.131918444055885
 30
0.0
  0
SPLINE
  5
B6
330
1F
100
AcDbEntity
  8
0
  6
Continuous
 62
     1
370
    15
100
AcDbSpline
210
0.0
220
0.0
230
1.0
 70
     8
 71
     3
 72
    13
 73
     9
 74
     0
 42
0.000000001
 43
0.00000001
 40
0.0
 40
0.0
 40
0.0
 40
0.0
 40
0.0447767174311146
 40
0.2351862914085254
 40
0.4249910559327081
 40
0.6153498928820001
 40
0.8073879468808207
 40
1.0
 40
1.0
 40
1.0
 40
1.0
 10
14.68977300343608
 20
-3.180241200664316
 30
0.0
 10
14.61974437351657
 20
-3.211254518497804
 30
0.0
 10
14.25192433872892
 20
-3.374149603800853
 30
0.0
 10
13.5882330774877
 20
-3.632738788125785
 30
0.0
 10
12.69528796019286
 20
-3.946862878464277
 30
0.0
 10
11.80169980962118
 20
-4.213469930082719
 30
0.0
 10
10.90185780680257
 20
-4.434714531034099
 30
0.0
 10
10.30091818891858
 20
-4.53815371611644
 30
0.0
 10
9.999999999999993
 20
-4.589950487891606
 30
0.0
  0
SPLINE
  5
B7
330
1F
100
AcDbEntity
  8
외형선
  6
Continuous
370
    15
100
AcDbSpline
210
0.0
220
0.0
230
1.0
 70
    24
 71
     3
 72
    14
 73
    10
 74
     0
 42
0.000000001
 43
0.00000001
 40
0.0
 40
0.0
 40
0.0
 40
0.0
 40
0.1057311291872166
 40
0.2686656959226849
 40
0.4270083159504572
 40
0.5899428826859261
 40
0.7482855027136984
 40
0.9112200694491676
 40
1.0
 40
1.0
 40
1.0
 40
1.0
 10
9.999999999999993
 20
-2.456074194709607
 30
0.0
 10
9.999999999999993
 20
-2.48297171638523
 30
0.0
 10
9.999999999999993
 20
-2.551319055859689
 30
0.0
 10
9.999999999999993
 20
-2.755244590790514
 30
0.0
 10
9.999999999999993
 20
-3.051044545319455
 30
0.0
 10
9.999999999999993
 20
-3.41529626885711
 30
0.0
 10
9.999999999999993
 20
-3.840442735936098
 30
0.0
 10
9.999999999999993
 20
-4.238973788543194
 30
0.0
 10
9.999999999999993
 20
-4.498437427924538
 30
0.0
 10
9.999999999999993
 20
-4.589950487891606
 30
0.0
  0
LINE
  5
B8
330
1F
100
AcDbEntity
  8
중심선
 48
0.8
100
AcDbLine
 10
-58.08750000000001
 20
-0.0000000000000071
 30
0.0
 11
32.04999999999999
 21
0.0000000000000039
 31
0.0
  0
LINE
  5
BA
330
1F
100
AcDbEntity
  8
참조1
100
AcDbLine
 10
-8.169488685968833
 20
0.0010749287238892
 30
0.0
 11
-8.169488685968828
 21
-39.99892507127611
 31
0.0
  0
LINE
  5
BB
330
1F
100
AcDbEntity
  8
참조1
100
AcDbLine
 10
-8.169488685968828
 20
-39.99892507127611
 30
0.0
 11
-20.94709550027751
 21
-39.9989250712761
 31
0.0
  0
CIRCLE
  5
BC
330
1F
100
AcDbEntity
  8
해칭선
100
AcDbCircle
 10
0.0
 20
0.0
 30
0.0
 40
3.000000000000003
  0
INSERT
  5
BD
330
1F
100
AcDbEntity
  8
0
  6
Continuous
 62
     7
100
AcDbBlockReference
 66
     1
  2
블럭10
 10
-26.95902293212522
 20
-52.04717430164393
 30
0.0
  0
ATTRIB
  5
BE
330
BD
100
AcDbEntity
  8
FORMAT
 62
     2
100
AcDbText
 10
-36.14031822086649
 20
-49.97180738881175
 30
0.0
 40
4.233333333333333
  1
E1111024 [ 2 FLUTE ]
 41
0.75
  7
SLDTEXTSTYLE0
 11
-36.14031822086649
 21
-52.08847405547841
 31
0.0
100
AcDbAttribute
  2
AUTOATTR0
 70
     0
 74
     1
  0
SEQEND
  5
BF
330
BD
100
AcDbEntity
  8
0
  6
Continuous
 62
     7
  0
HATCH
  5
C0
330
1F
100
AcDbEntity
  8
중심선
100
AcDbHatch
 10
0.0
 20
0.0
 30
0.0
210
0.0
220
0.0
230
1.0
  2
SOLID
 70
     1
 71
     0
 91
        1
 92
        0
 93
        4
 72
     1
 10
-21.24411362774435
 20
-35.8
 11
-24.69038887158164
 21
-35.8
 72
     1
 10
-24.69038887158164
 20
-35.8
 11
-26.81861873078569
 21
-38.3363255805726
 72
     1
 10
-26.81861873078569
 20
-38.3363255805726
 11
-23.37231040183523
 21
-38.33628615127011
 72
     1
 10
-23.37231040183523
 20
-38.33628615127011
 11
-21.24411362774435
 21
-35.8
 97
        0
 75
     0
 76
     1
 98
        1
 10
-4.849261314031175
 20
-0.0010749287238959
  0
HATCH
  5
C1
330
1F
100
AcDbEntity
  8
중심선
100
AcDbHatch
 10
0.0
 20
0.0
 30
0.0
210
0.0
220
0.0
230
1.0
  2
SOLID
 70
     1
 71
     0
 91
        1
 92
        0
 93
        4
 72
     1
 10
-16.23134963670835
 20
-35.8
 11
-19.67762488054564
 21
-35.8
 72
     1
 10
-19.67762488054563
 20
-35.8
 11
-24.20876288890308
 21
-41.20000000000002
 72
     1
 10
-24.20876288890308
 20
-41.20000000000002
 11
-20.76248764506579
 21
-41.20000000000002
 72
     1
 10
-20.76248764506579
 20
-41.20000000000002
 11
-16.23134963670835
 21
-35.8
 97
        0
 75
     0
 76
     1
 98
        1
 10
-4.849261314031175
 20
-0.0010749287238959
  0
HATCH
  5
C2
330
1F
100
AcDbEntity
  8
중심선
100
AcDbHatch
 10
0.0
 20
0.0
 30
0.0
210
0.0
220
0.0
230
1.0
  2
SOLID
 70
     1
 71
     0
 91
        1
 92
        0
 93
        4
 72
     1
 10
-11.21858564567254
 20
-35.8
 11
-14.66486088950963
 21
-35.8
 72
     1
 10
-14.66486088950963
 20
-35.8
 11
-21.71329779139888
 21
-44.20000000000002
 72
     1
 10
-21.71329779139888
 20
-44.20000000000002
 11
-18.26702254756159
 21
-44.20000000000002
 72
     1
 10
-18.26702254756159
 20
-44.20000000000002
 11
-11.21858564567254
 21
-35.8
 97
        0
 75
     0
 76
     1
 98
        1
 10
-4.849261314031175
 20
-0.0010749287238959
  0
HATCH
  5
C3
330
1F
100
AcDbEntity
  8
중심선
100
AcDbHatch
 10
0.0
 20
0.0
 30
0.0
210
0.0
220
0.0
230
1.0
  2
SOLID
 70
     1
 71
     0
 91
        1
 92
        0
 93
        6
 72
     3
 10
-6.41869521466031
 20
-40.00000000005127
 11
3.960054785062284
 21
1.540882976769353E-10
 40
0.3939339440162627
 50
17.09539180608437
 51
320.0019657685082
 73
     0
 72
     1
 10
-4.735695558959742
 20
-38.58789400463833
 11
-2.430393685258676
 21
-36.65356729459038
 72
     3
 10
-6.418695214713157
 20
-40.00000000000015
 11
6.600054785286829
 21
-1.278976924368180E-13
 40
0.636358354079598
 50
39.9987384933741
 51
368.4976242363725
 73
     1
 72
     1
 10
0.0066372771874521
 20
-39.03999999993002
 11
-7.738627907877235
 21
-39.03999999993
 72
     1
 10
-7.738627907877235
 20
-39.03999999993
 11
-7.738652952323168
 21
-40.95999999992991
 72
     1
 10
-7.738652952323168
 20
-40.95999999992991
 11
-3.297273182851131
 21
-40.95999999992988
 97
        0
 75
     0
 76
     1
 98
        1
 10
-4.849261314031175
 20
-0.0010749287238959
  0
DIMENSION
  5
C4
330
1F
100
AcDbEntity
  8
치수문자_일반주서
100
AcDbDimension
  2
_D
 10
9.99999999999999
 20
14.76250000000001
 30
0.0
 11
-9.07275000000001
 21
14.76250000000001
 31
0.0
 70
   160
  1
<>
 71
     2
 42
19.05
  3
SLDDIMSTYLE1
100
AcDbAlignedDimension
 13
29.04999999999999
 23
4.762500000000003
 33
0.0
 14
9.99999999999999
 24
4.589950487891595
 34
0.0
 50
0.0000000000000053
100
AcDbRotatedDimension
1001
ACAD
1000
DSTYLE
1002
{
1070
   171
1070
     6
1070
   273
1070
     7
1002
}
  0
DIMENSION
  5
D9
330
1F
100
AcDbEntity
  8
치수문자_일반주서
100
AcDbDimension
  2
_D_1
 10
-55.08750000000001
 20
29.96163381589231
 30
0.0
 11
-13.01875000000002
 21
29.96163381589231
 31
0.0
 70
   160
  1
<>
 71
     2
 42
84.13749999999999
  3
SLDDIMSTYLE1
100
AcDbAlignedDimension
 13
29.04999999999999
 23
4.762500000000003
 33
0.0
 14
-55.08750000000001
 24
3.762499999999999
 34
0.0
 50
0.0000000000000048
100
AcDbRotatedDimension
1001
ACAD
1000
DSTYLE
1002
{
1070
   171
1070
     6
1070
   273
1070
     7
1002
}
  0
DIMENSION
  5
EC
330
1F
100
AcDbEntity
  8
치수문자_일반주서
100
AcDbDimension
  2
_D_2
 10
-67.58749999999999
 20
-4.762500000000053
 30
0.0
 11
-67.5875
 21
0.0000000000000042
 31
0.0
 70
   160
  1
%%c<>
 71
     2
 42
9.525000000000006
 52
-270.0
  3
SLDDIMSTYLE1
100
AcDbAlignedDimension
 13
-54.0875
 23
4.762500000000004
 33
0.0
 14
-54.0875
 24
-4.762500000000002
 34
0.0
 50
90.0000000000002
100
AcDbRotatedDimension
1001
ACAD
1000
DSTYLE
1002
{
1070
   171
1070
     6
1070
   273
1070
     7
1002
}
  0
DIMENSION
  5
101
330
1F
100
AcDbEntity
  8
치수문자_일반주서
100
AcDbDimension
  2
_D_3
 10
43.25102067414897
 20
-4.762499999999939
 30
0.0
 11
43.25102067414883
 21
33.57440318474246
 31
0.0
 70
   160
  1
%%c<>
 71
     2
 42
9.524999999999999
 52
-270.0
  3
SLDDIMSTYLE1
100
AcDbAlignedDimension
 13
29.04999999999999
 23
4.762500000000003
 33
0.0
 14
29.04999999999999
 24
-4.762499999999995
 34
0.0
 50
90.0000000000002
100
AcDbRotatedDimension
1001
ACAD
1000
DSTYLE
1002
{
1070
   171
1070
     6
1070
   273
1070
     7
1002
}
  0
LINE
  5
114
330
1F
100
AcDbEntity
  8
참조1
100
AcDbLine
 10
77.02524512937676
 20
7.441074928723896
 30
0.0
 11
77.02524512937676
 21
-7.438925071276109
 31
0.0
  0
LINE
  5
115
330
1F
100
AcDbEntity
  8
참조1
100
AcDbLine
 10
89.72524512937676
 20
5.441074928723896
 30
0.0
 11
77.02524512937676
 21
5.441074928723896
 31
0.0
  0
SOLID
  5
116
330
1F
100
AcDbEntity
  8
참조1
100
AcDbTrace
 10
77.02524512937676
 20
5.441074928723896
 30
0.0
 11
83.37524512937675
 21
4.425074928723896
 31
0.0
 12
83.37524512937675
 22
6.457074928723896
 32
0.0
 13
83.37524512937675
 23
6.457074928723896
 33
0.0
  0
LINE
  5
117
330
1F
100
AcDbEntity
  8
참조1
100
AcDbLine
 10
89.72524512937676
 20
-5.438925071276109
 30
0.0
 11
77.02524512937676
 21
-5.438925071276109
 31
0.0
  0
SOLID
  5
118
330
1F
100
AcDbEntity
  8
참조1
100
AcDbTrace
 10
77.02524512937676
 20
-5.438925071276109
 30
0.0
 11
83.37524512937675
 21
-6.454925071276109
 31
0.0
 12
83.37524512937675
 22
-4.422925071276109
 32
0.0
 13
83.37524512937675
 23
-4.422925071276109
 33
0.0
  0
MTEXT
  5
119
330
1F
100
AcDbEntity
  8
참조1
100
AcDbMText
 10
86.62535993993933
 20
11.06679249473997
 30
0.0
 40
3.5
 41
0.0
 71
     1
 72
     1
  1
A
  7
SLDTEXTSTYLE0
 73
     1
 44
1.0
  0
MTEXT
  5
11A
330
1F
100
AcDbEntity
  8
참조1
100
AcDbMText
 10
86.62535993993933
 20
0.1867924947399633
 30
0.0
 40
3.5
 41
0.0
 71
     1
 72
     1
  1
A
  7
SLDTEXTSTYLE0
 73
     1
 44
1.0
  0
INSERT
  5
121
330
1F
100
AcDbEntity
  8
해칭선
100
AcDbBlockReference
  2
SW_DOWELSYMBOL_0
 10
0.0
 20
0.0
 30
0.0
  0
LINE
  5
24A
330
1F
100
AcDbEntity
  8
외형선
  6
Continuous
370
    15
100
AcDbLine
 10
-38.81245000000013
 20
3.492500000000006
 30
0.0
 11
-31.67505000000001
 21
3.492500000000006
 31
0.0
  0
LINE
  5
24B
330
1F
100
AcDbEntity
  8
외형선
  6
Continuous
370
    15
100
AcDbLine
 10
-38.81245000000013
 20
3.492500000000006
 30
0.0
 11
-40.08245000000012
 21
4.762499999999988
 31
0.0
  0
LINE
  5
24C
330
1F
100
AcDbEntity
  8
외형선
  6
Continuous
370
    15
100
AcDbLine
 10
-31.67505000000001
 20
3.492500000000006
 30
0.0
 11
-30.40504999999991
 21
4.762499999999988
 31
0.0
  0
LINE
  5
289
330
1F
100
AcDbEntity
  8
외형선
  6
Continuous
370
    15
100
AcDbLine
 10
-40.08245000000012
 20
4.762499999999994
 30
0.0
 11
-54.0875
 21
4.762499999999992
 31
0.0
  0
ENDSEC
  0
SECTION
  2
OBJECTS
  0
DICTIONARY
  5
C
330
0
100
AcDbDictionary
281
     1
  3
ACAD_GROUP
350
D
  3
ACAD_IMAGE_VARS
350
145
  3
ACAD_LAYOUT
350
1A
  3
ACAD_MLINESTYLE
350
17
  3
ACAD_PLOTSETTINGS
350
19
  3
ACAD_PLOTSTYLENAME
350
E
  3
ACAD_SCALELIST
350
47
  3
APPDATA
350
143
  3
DWGPROPS
350
28C
  0
DICTIONARY
  5
1E0
330
2
100
AcDbDictionary
280
     1
281
     1
  3
ACAD_LAYERSTATES
360
1E1
  0
DICTIONARY
  5
D
102
{ACAD_REACTORS
330
C
102
}
330
C
100
AcDbDictionary
281
     1
  0
RASTERVARIABLES
  5
145
102
{ACAD_REACTORS
330
C
102
}
330
C
100
AcDbRasterVariables
 90
        0
 70
     1
 71
     1
 72
     1
  0
DICTIONARY
  5
1A
102
{ACAD_REACTORS
330
C
102
}
330
C
100
AcDbDictionary
281
     1
  3
Layout1
350
1E
  3
Layout2
350
26
  3
Model
350
22
  0
DICTIONARY
  5
17
102
{ACAD_REACTORS
330
C
102
}
330
C
100
AcDbDictionary
281
     1
  3
Standard
350
18
  0
DICTIONARY
  5
19
102
{ACAD_REACTORS
330
C
102
}
330
C
100
AcDbDictionary
281
     1
  0
ACDBDICTIONARYWDFLT
  5
E
102
{ACAD_REACTORS
330
C
102
}
330
C
100
AcDbDictionary
281
     1
  3
Normal
350
F
100
AcDbDictionaryWithDefault
340
F
  0
DICTIONARY
  5
47
102
{ACAD_REACTORS
330
C
102
}
330
C
100
AcDbDictionary
281
     1
  3
A0
350
48
  3
A1
350
49
  3
A2
350
4A
  3
A3
350
4B
  3
A4
350
4C
  3
A5
350
4D
  3
A6
350
4E
  3
A7
350
4F
  3
A8
350
50
  3
A9
350
51
  3
B0
350
52
  3
B1
350
53
  3
B2
350
54
  3
B3
350
55
  3
B4
350
56
  3
B5
350
57
  3
B6
350
58
  3
B7
350
59
  3
B8
350
5A
  3
B9
350
5B
  3
C0
350
5C
  3
C1
350
5D
  3
C2
350
5E
  3
C3
350
5F
  3
C4
350
60
  3
C5
350
61
  3
C6
350
62
  3
C7
350
63
  3
C8
350
64
  3
C9
350
65
  3
D0
350
66
  3
D1
350
67
  3
D2
350
68
  0
DICTIONARY
  5
143
102
{ACAD_REACTORS
330
C
102
}
330
C
100
AcDbDictionary
281
     1
  0
XRECORD
  5
28C
102
{ACAD_REACTORS
330
C
102
}
330
C
100
AcDbXrecord
280
     1
  1
DWGPROPS COOKIE
  2

  3

  4

  6

  7

  8
12017012
  9

300
=
301
=
302
=
303
=
304
=
305
=
306
=
307
=
308
=
309
=
 40
0.0
 41
2458323.329066944
 42
2458324.045715185
  1

 90
        0
  0
DICTIONARY
  5
1E1
102
{ACAD_REACTORS
330
1E0
102
}
330
1E0
100
AcDbDictionary
281
     1
  0
LAYOUT
  5
1E
102
{ACAD_REACTORS
330
1A
102
}
330
1A
100
AcDbPlotSettings
  1

  2
none_device
  4

  6

 40
0.0
 41
0.0
 42
0.0
 43
0.0
 44
0.0
 45
0.0
 46
0.0
 47
0.0
 48
0.0
 49
0.0
140
0.0
141
0.0
142
1.0
143
1.0
 70
   688
 72
     1
 73
     0
 74
     5
  7

 75
    16
147
1.0
148
0.0
149
0.0
100
AcDbLayout
  1
Layout1
 70
     1
 71
     1
 10
0.0
 20
0.0
 11
420.0
 21
297.0
 12
0.0
 22
0.0
 32
0.0
 14
1.000000000000000E+20
 24
1.000000000000000E+20
 34
1.000000000000000E+20
 15
-1.000000000000000E+20
 25
-1.000000000000000E+20
 35
-1.000000000000000E+20
146
0.0
 13
0.0
 23
0.0
 33
0.0
 16
1.0
 26
0.0
 36
0.0
 17
0.0
 27
1.0
 37
0.0
 76
     0
330
1B
  0
LAYOUT
  5
26
102
{ACAD_REACTORS
330
1A
102
}
330
1A
100
AcDbPlotSettings
  1

  2
none_device
  4

  6

 40
0.0
 41
0.0
 42
0.0
 43
0.0
 44
0.0
 45
0.0
 46
0.0
 47
0.0
 48
0.0
 49
0.0
140
0.0
141
0.0
142
1.0
143
1.0
 70
   688
 72
     1
 73
     0
 74
     5
  7

 75
    16
147
1.0
148
0.0
149
0.0
100
AcDbLayout
  1
Layout2
 70
     1
 71
     2
 10
0.0
 20
0.0
 11
0.0
 21
0.0
 12
0.0
 22
0.0
 32
0.0
 14
0.0
 24
0.0
 34
0.0
 15
0.0
 25
0.0
 35
0.0
146
0.0
 13
0.0
 23
0.0
 33
0.0
 16
1.0
 26
0.0
 36
0.0
 17
0.0
 27
1.0
 37
0.0
 76
     0
330
23
  0
LAYOUT
  5
22
102
{ACAD_REACTORS
330
1A
102
}
330
1A
100
AcDbPlotSettings
  1

  2
none_device
  4
ANSI_A_(11.00_x_8.50_Inches)
  6

 40
6.35
 41
19.05
 42
6.35000508
 43
19.05000254
 44
279.4
 45
215.9
 46
119.6311080012109
 47
97.3368794170651
 48
0.0
 49
0.0
140
0.0
141
0.0
142
0.0667049028352052
143
1.0
 70
  1696
 72
     0
 73
     0
 74
     0
  7

 75
     0
147
0.0235690232323232
148
0.0
149
0.0
100
AcDbLayout
  1
Model
 70
     1
 71
     0
 10
0.0
 20
0.0
 11
420.0
 21
297.0
 12
0.0
 22
0.0
 32
0.0
 14
1.000000000000000E+20
 24
1.000000000000000E+20
 34
1.000000000000000E+20
 15
-1.000000000000000E+20
 25
-1.000000000000000E+20
 35
-1.000000000000000E+20
146
0.0
 13
0.0
 23
0.0
 33
0.0
 16
1.0
 26
0.0
 36
0.0
 17
0.0
 27
1.0
 37
0.0
 76
     0
330
1F
331
29
  0
MLINESTYLE
  5
18
102
{ACAD_REACTORS
330
17
102
}
330
17
100
AcDbMlineStyle
  2
Standard
 70
     0
  3

 62
   256
 51
90.0
 52
90.0
 71
     2
 49
0.5
 62
   256
  6
BYLAYER
 49
-0.5
 62
   256
  6
BYLAYER
  0
ACDBPLACEHOLDER
  5
F
102
{ACAD_REACTORS
330
E
102
}
330
E
  0
SCALE
  5
48
102
{ACAD_REACTORS
330
47
102
}
330
47
100
AcDbScale
 70
     0
300
1:1
140
1.0
141
1.0
290
     1
  0
SCALE
  5
49
102
{ACAD_REACTORS
330
47
102
}
330
47
100
AcDbScale
 70
     0
300
1:2
140
1.0
141
2.0
290
     0
  0
SCALE
  5
4A
102
{ACAD_REACTORS
330
47
102
}
330
47
100
AcDbScale
 70
     0
300
1:4
140
1.0
141
4.0
290
     0
  0
SCALE
  5
4B
102
{ACAD_REACTORS
330
47
102
}
330
47
100
AcDbScale
 70
     0
300
1:5
140
1.0
141
5.0
290
     0
  0
SCALE
  5
4C
102
{ACAD_REACTORS
330
47
102
}
330
47
100
AcDbScale
 70
     0
300
1:8
140
1.0
141
8.0
290
     0
  0
SCALE
  5
4D
102
{ACAD_REACTORS
330
47
102
}
330
47
100
AcDbScale
 70
     0
300
1:10
140
1.0
141
10.0
290
     0
  0
SCALE
  5
4E
102
{ACAD_REACTORS
330
47
102
}
330
47
100
AcDbScale
 70
     0
300
1:16
140
1.0
141
16.0
290
     0
  0
SCALE
  5
4F
102
{ACAD_REACTORS
330
47
102
}
330
47
100
AcDbScale
 70
     0
300
1:20
140
1.0
141
20.0
290
     0
  0
SCALE
  5
50
102
{ACAD_REACTORS
330
47
102
}
330
47
100
AcDbScale
 70
     0
300
1:30
140
1.0
141
30.0
290
     0
  0
SCALE
  5
51
102
{ACAD_REACTORS
330
47
102
}
330
47
100
AcDbScale
 70
     0
300
1:40
140
1.0
141
40.0
290
     0
  0
SCALE
  5
52
102
{ACAD_REACTORS
330
47
102
}
330
47
100
AcDbScale
 70
     0
300
1:50
140
1.0
141
50.0
290
     0
  0
SCALE
  5
53
102
{ACAD_REACTORS
330
47
102
}
330
47
100
AcDbScale
 70
     0
300
1:100
140
1.0
141
100.0
290
     0
  0
SCALE
  5
54
102
{ACAD_REACTORS
330
47
102
}
330
47
100
AcDbScale
 70
     0
300
2:1
140
2.0
141
1.0
290
     0
  0
SCALE
  5
55
102
{ACAD_REACTORS
330
47
102
}
330
47
100
AcDbScale
 70
     0
300
4:1
140
4.0
141
1.0
290
     0
  0
SCALE
  5
56
102
{ACAD_REACTORS
330
47
102
}
330
47
100
AcDbScale
 70
     0
300
8:1
140
8.0
141
1.0
290
     0
  0
SCALE
  5
57
102
{ACAD_REACTORS
330
47
102
}
330
47
100
AcDbScale
 70
     0
300
10:1
140
10.0
141
1.0
290
     0
  0
SCALE
  5
58
102
{ACAD_REACTORS
330
47
102
}
330
47
100
AcDbScale
 70
     0
300
100:1
140
100.0
141
1.0
290
     0
  0
SCALE
  5
59
102
{ACAD_REACTORS
330
47
102
}
330
47
100
AcDbScale
 70
     0
300
1/128" = 1'-0"
140
0.0078125
141
12.0
290
     0
  0
SCALE
  5
5A
102
{ACAD_REACTORS
330
47
102
}
330
47
100
AcDbScale
 70
     0
300
1/64" = 1'-0"
140
0.015625
141
12.0
290
     0
  0
SCALE
  5
5B
102
{ACAD_REACTORS
330
47
102
}
330
47
100
AcDbScale
 70
     0
300
1/32" = 1'-0"
140
0.03125
141
12.0
290
     0
  0
SCALE
  5
5C
102
{ACAD_REACTORS
330
47
102
}
330
47
100
AcDbScale
 70
     0
300
1/16" = 1'-0"
140
0.0625
141
12.0
290
     0
  0
SCALE
  5
5D
102
{ACAD_REACTORS
330
47
102
}
330
47
100
AcDbScale
 70
     0
300
3/32" = 1'-0"
140
0.09375
141
12.0
290
     0
  0
SCALE
  5
5E
102
{ACAD_REACTORS
330
47
102
}
330
47
100
AcDbScale
 70
     0
300
1/8" = 1'-0"
140
0.125
141
12.0
290
     0
  0
SCALE
  5
5F
102
{ACAD_REACTORS
330
47
102
}
330
47
100
AcDbScale
 70
     0
300
3/16" = 1'-0"
140
0.1875
141
12.0
290
     0
  0
SCALE
  5
60
102
{ACAD_REACTORS
330
47
102
}
330
47
100
AcDbScale
 70
     0
300
1/4" = 1'-0"
140
0.25
141
12.0
290
     0
  0
SCALE
  5
61
102
{ACAD_REACTORS
330
47
102
}
330
47
100
AcDbScale
 70
     0
300
3/8" = 1'-0"
140
0.375
141
12.0
290
     0
  0
SCALE
  5
62
102
{ACAD_REACTORS
330
47
102
}
330
47
100
AcDbScale
 70
     0
300
1/2" = 1'-0"
140
0.5
141
12.0
290
     0
  0
SCALE
  5
63
102
{ACAD_REACTORS
330
47
102
}
330
47
100
AcDbScale
 70
     0
300
3/4" = 1'-0"
140
0.75
141
12.0
290
     0
  0
SCALE
  5
64
102
{ACAD_REACTORS
330
47
102
}
330
47
100
AcDbScale
 70
     0
300
1" = 1'-0"
140
1.0
141
12.0
290
     0
  0
SCALE
  5
65
102
{ACAD_REACTORS
330
47
102
}
330
47
100
AcDbScale
 70
     0
300
1-1/2" = 1'-0"
140
1.5
141
12.0
290
     0
  0
SCALE
  5
66
102
{ACAD_REACTORS
330
47
102
}
330
47
100
AcDbScale
 70
     0
300
3" = 1'-0"
140
3.0
141
12.0
290
     0
  0
SCALE
  5
67
102
{ACAD_REACTORS
330
47
102
}
330
47
100
AcDbScale
 70
     0
300
6" = 1'-0"
140
6.0
141
12.0
290
     0
  0
SCALE
  5
68
102
{ACAD_REACTORS
330
47
102
}
330
47
100
AcDbScale
 70
     0
300
1'-0" = 1'-0"
140
12.0
141
12.0
290
     0
  0
ENDSEC
  0
EOF
