  0
SECTION
  2
HEADER
  9
$ACADVER
  1
AC1015
  9
$ACADMAINTVER
 70
     6
  9
$DWGCODEPAGE
  3
ANSI_949
  9
$INSBASE
 10
0.0
 20
0.0
 30
0.0
  9
$EXTMIN
 10
1.000000000000000E+20
 20
1.000000000000000E+20
 30
1.000000000000000E+20
  9
$EXTMAX
 10
-1.000000000000000E+20
 20
-1.000000000000000E+20
 30
-1.000000000000000E+20
  9
$LIMMIN
 10
0.0
 20
0.0
  9
$LIMMAX
 10
420.0
 20
297.0
  9
$ORTHOMODE
 70
     1
  9
$REGENMODE
 70
     1
  9
$FILLMODE
 70
     1
  9
$QTEXTMODE
 70
     0
  9
$MIRRTEXT
 70
     1
  9
$LTSCALE
 40
1.0
  9
$ATTMODE
 70
     1
  9
$TEXTSIZE
 40
3.5
  9
$TRACEWID
 40
1.0
  9
$TEXTSTYLE
  7
Standard
  9
$CLAYER
  8
0
  9
$CELTYPE
  6
ByLayer
  9
$CECOLOR
 62
   256
  9
$CELTSCALE
 40
1.0
  9
$DISPSILH
 70
     0
  9
$DIMSCALE
 40
1.0
  9
$DIMASZ
 40
3.302
  9
$DIMEXO
 40
1.0
  9
$DIMDLI
 40
3.75
  9
$DIMRND
 40
0.0
  9
$DIMDLE
 40
0.0
  9
$DIMEXE
 40
1.0
  9
$DIMTP
 40
0.0
  9
$DIMTM
 40
0.0
  9
$DIMTXT
 40
3.5
  9
$DIMCEN
 40
2.5
  9
$DIMTSZ
 40
0.0
  9
$DIMTOL
 70
     0
  9
$DIMLIM
 70
     0
  9
$DIMTIH
 70
     1
  9
$DIMTOH
 70
     1
  9
$DIMSE1
 70
     0
  9
$DIMSE2
 70
     0
  9
$DIMTAD
 70
     1
  9
$DIMZIN
 70
     0
  9
$DIMBLK
  1

  9
$DIMASO
 70
     1
  9
$DIMSHO
 70
     1
  9
$DIMPOST
  1

  9
$DIMAPOST
  1

  9
$DIMALT
 70
     0
  9
$DIMALTD
 70
     3
  9
$DIMALTF
 40
0.0393700787401575
  9
$DIMLFAC
 40
1.0
  9
$DIMTOFL
 70
     1
  9
$DIMTVP
 40
0.0
  9
$DIMTIX
 70
     0
  9
$DIMSOXD
 70
     0
  9
$DIMSAH
 70
     0
  9
$DIMBLK1
  1

  9
$DIMBLK2
  1

  9
$DIMSTYLE
  2
ISO-25
  9
$DIMCLRD
 70
     0
  9
$DIMCLRE
 70
     0
  9
$DIMCLRT
 70
     0
  9
$DIMTFAC
 40
1.0
  9
$DIMGAP
 40
1.524
  9
$DIMJUST
 70
     0
  9
$DIMSD1
 70
     0
  9
$DIMSD2
 70
     0
  9
$DIMTOLJ
 70
     0
  9
$DIMTZIN
 70
     0
  9
$DIMALTZ
 70
     0
  9
$DIMALTTZ
 70
     0
  9
$DIMUPT
 70
     0
  9
$DIMDEC
 70
     2
  9
$DIMTDEC
 70
     2
  9
$DIMALTU
 70
     2
  9
$DIMALTTD
 70
     3
  9
$DIMTXSTY
  7
Standard
  9
$DIMAUNIT
 70
     0
  9
$DIMADEC
 70
     2
  9
$DIMALTRND
 40
0.0
  9
$DIMAZIN
 70
     0
  9
$DIMDSEP
 70
    44
  9
$DIMATFIT
 70
     3
  9
$DIMFRAC
 70
     0
  9
$DIMLDRBLK
  1

  9
$DIMLUNIT
 70
     2
  9
$DIMLWD
 70
    -2
  9
$DIMLWE
 70
    -2
  9
$DIMTMOVE
 70
     0
  9
$LUNITS
 70
     2
  9
$LUPREC
 70
     2
  9
$SKETCHINC
 40
1.0
  9
$FILLETRAD
 40
10.0
  9
$AUNITS
 70
     0
  9
$AUPREC
 70
     2
  9
$MENU
  1
.
  9
$ELEVATION
 40
0.0
  9
$PELEVATION
 40
0.0
  9
$THICKNESS
 40
0.0
  9
$LIMCHECK
 70
     0
  9
$CHAMFERA
 40
0.0
  9
$CHAMFERB
 40
0.0
  9
$CHAMFERC
 40
0.0
  9
$CHAMFERD
 40
0.0
  9
$SKPOLY
 70
     0
  9
$TDCREATE
 40
2458316.584724745
  9
$TDUCREATE
 40
2458316.209724745
  9
$TDUPDATE
 40
2458320.719227477
  9
$TDUUPDATE
 40
2458320.344227477
  9
$TDINDWG
 40
0.0027366088
  9
$TDUSRTIMER
 40
2458320.342139606
  9
$USRTIMER
 70
     1
  9
$ANGBASE
 50
0.0
  9
$ANGDIR
 70
     0
  9
$PDMODE
 70
     0
  9
$PDSIZE
 40
-1.0
  9
$PLINEWID
 40
0.0
  9
$SPLFRAME
 70
     0
  9
$SPLINETYPE
 70
     6
  9
$SPLINESEGS
 70
     8
  9
$HANDSEED
  5
35E
  9
$SURFTAB1
 70
     6
  9
$SURFTAB2
 70
     6
  9
$SURFTYPE
 70
     6
  9
$SURFU
 70
     6
  9
$SURFV
 70
     6
  9
$UCSBASE
  2

  9
$UCSNAME
  2

  9
$UCSORG
 10
0.0
 20
0.0
 30
0.0
  9
$UCSXDIR
 10
1.0
 20
0.0
 30
0.0
  9
$UCSYDIR
 10
0.0
 20
1.0
 30
0.0
  9
$UCSORTHOREF
  2

  9
$UCSORTHOVIEW
 70
     0
  9
$UCSORGTOP
 10
0.0
 20
0.0
 30
0.0
  9
$UCSORGBOTTOM
 10
0.0
 20
0.0
 30
0.0
  9
$UCSORGLEFT
 10
0.0
 20
0.0
 30
0.0
  9
$UCSORGRIGHT
 10
0.0
 20
0.0
 30
0.0
  9
$UCSORGFRONT
 10
0.0
 20
0.0
 30
0.0
  9
$UCSORGBACK
 10
0.0
 20
0.0
 30
0.0
  9
$PUCSBASE
  2

  9
$PUCSNAME
  2

  9
$PUCSORG
 10
0.0
 20
0.0
 30
0.0
  9
$PUCSXDIR
 10
1.0
 20
0.0
 30
0.0
  9
$PUCSYDIR
 10
0.0
 20
1.0
 30
0.0
  9
$PUCSORTHOREF
  2

  9
$PUCSORTHOVIEW
 70
     0
  9
$PUCSORGTOP
 10
0.0
 20
0.0
 30
0.0
  9
$PUCSORGBOTTOM
 10
0.0
 20
0.0
 30
0.0
  9
$PUCSORGLEFT
 10
0.0
 20
0.0
 30
0.0
  9
$PUCSORGRIGHT
 10
0.0
 20
0.0
 30
0.0
  9
$PUCSORGFRONT
 10
0.0
 20
0.0
 30
0.0
  9
$PUCSORGBACK
 10
0.0
 20
0.0
 30
0.0
  9
$USERI1
 70
     0
  9
$USERI2
 70
     0
  9
$USERI3
 70
     0
  9
$USERI4
 70
     0
  9
$USERI5
 70
     0
  9
$USERR1
 40
0.0
  9
$USERR2
 40
0.0
  9
$USERR3
 40
0.0
  9
$USERR4
 40
0.0
  9
$USERR5
 40
0.0
  9
$WORLDVIEW
 70
     1
  9
$SHADEDGE
 70
     3
  9
$SHADEDIF
 70
    70
  9
$TILEMODE
 70
     1
  9
$MAXACTVP
 70
    64
  9
$PINSBASE
 10
0.0
 20
0.0
 30
0.0
  9
$PLIMCHECK
 70
     0
  9
$PEXTMIN
 10
1.000000000000000E+20
 20
1.000000000000000E+20
 30
1.000000000000000E+20
  9
$PEXTMAX
 10
-1.000000000000000E+20
 20
-1.000000000000000E+20
 30
-1.000000000000000E+20
  9
$PLIMMIN
 10
0.0
 20
0.0
  9
$PLIMMAX
 10
0.0
 20
0.0
  9
$UNITMODE
 70
     0
  9
$VISRETAIN
 70
     1
  9
$PLINEGEN
 70
     0
  9
$PSLTSCALE
 70
     1
  9
$TREEDEPTH
 70
  3020
  9
$CMLSTYLE
  2
Standard
  9
$CMLJUST
 70
     0
  9
$CMLSCALE
 40
20.0
  9
$PROXYGRAPHICS
 70
     1
  9
$MEASUREMENT
 70
     1
  9
$CELWEIGHT
370
    -1
  9
$ENDCAPS
280
     0
  9
$JOINSTYLE
280
     0
  9
$LWDISPLAY
290
     1
  9
$INSUNITS
 70
     4
  9
$HYPERLINKBASE
  1

  9
$STYLESHEET
  1

  9
$XEDIT
290
     1
  9
$CEPSNTYPE
380
     0
  9
$PSTYLEMODE
290
     1
  9
$FINGERPRINTGUID
  2
{9648D08E-1B20-4D42-A086-29EE045E8A51}
  9
$VERSIONGUID
  2
{FAEB1C32-E019-11D5-929B-00C0DF256EC4}
  9
$EXTNAMES
290
     1
  9
$PSVPSCALE
 40
0.0
  9
$OLESTARTUP
290
     0
  0
ENDSEC
  0
SECTION
  2
CLASSES
  0
CLASS
  1
ACDBDICTIONARYWDFLT
  2
AcDbDictionaryWithDefault
  3
ObjectDBX Classes
 90
        0
280
     0
281
     0
  0
CLASS
  1
VISUALSTYLE
  2
AcDbVisualStyle
  3
ObjectDBX Classes
 90
     4095
280
     0
281
     0
  0
CLASS
  1
MATERIAL
  2
AcDbMaterial
  3
ObjectDBX Classes
 90
     1153
280
     0
281
     0
  0
CLASS
  1
SCALE
  2
AcDbScale
  3
ObjectDBX Classes
 90
     1153
280
     0
281
     0
  0
CLASS
  1
SUN
  2
AcDbSun
  3
SCENEOE
 90
     1153
280
     0
281
     0
  0
CLASS
  1
ACDBPLACEHOLDER
  2
AcDbPlaceHolder
  3
ObjectDBX Classes
 90
        0
280
     0
281
     0
  0
CLASS
  1
LAYOUT
  2
AcDbLayout
  3
ObjectDBX Classes
 90
        0
280
     0
281
     0
  0
CLASS
  1
TABLESTYLE
  2
AcDbTableStyle
  3
ObjectDBX Classes
 90
     4095
280
     0
281
     0
  0
CLASS
  1
MLEADERSTYLE
  2
AcDbMLeaderStyle
  3
ACDB_MLEADERSTYLE_CLASS
 90
     4095
280
     0
281
     0
  0
CLASS
  1
RASTERVARIABLES
  2
AcDbRasterVariables
  3
ISM
 90
        0
280
     0
281
     0
  0
ENDSEC
  0
SECTION
  2
TABLES
  0
TABLE
  2
VPORT
  5
8
330
0
100
AcDbSymbolTable
 70
     1
  0
VPORT
  5
29
330
8
100
AcDbSymbolTableRecord
100
AcDbViewportTableRecord
  2
*Active
 70
     0
 10
0.0
 20
0.0
 11
1.0
 21
1.0
 12
-1.828836832995584
 22
3.193456486457396
 13
0.0
 23
0.0
 14
10.0
 24
10.0
 15
10.0
 25
10.0
 16
0.0
 26
0.0
 36
1.0
 17
0.0
 27
0.0
 37
0.0
 40
145.2701114890521
 41
1.358943577430972
 42
50.0
 43
0.0
 44
0.0
 50
0.0
 51
0.0
 71
    16
 72
  2000
 73
     1
 74
     3
 75
     0
 76
     0
 77
     0
 78
     0
281
     0
 65
     1
110
0.0
120
0.0
130
0.0
111
1.0
121
0.0
131
0.0
112
0.0
122
1.0
132
0.0
 79
     0
146
0.0
  0
ENDTAB
  0
TABLE
  2
LTYPE
  5
5
330
0
100
AcDbSymbolTable
 70
     6
  0
LTYPE
  5
14
330
5
100
AcDbSymbolTableRecord
100
AcDbLinetypeTableRecord
  2
ByBlock
 70
     0
  3

 72
    65
 73
     0
 40
0.0
  0
LTYPE
  5
15
330
5
100
AcDbSymbolTableRecord
100
AcDbLinetypeTableRecord
  2
ByLayer
 70
     0
  3

 72
    65
 73
     0
 40
0.0
  0
LTYPE
  5
16
330
5
100
AcDbSymbolTableRecord
100
AcDbLinetypeTableRecord
  2
Continuous
 70
     0
  3
Solid line
 72
    65
 73
     0
 40
0.0
  0
LTYPE
  5
6A
330
5
100
AcDbSymbolTableRecord
100
AcDbLinetypeTableRecord
  2
HIDDEN
 70
     0
  3
Hidden __ __ __ __ __ __ __ __ __ __ __ __ __ __
 72
    65
 73
     2
 40
1.905
 49
1.27
 74
     0
 49
-0.635
 74
     0
  0
LTYPE
  5
6B
330
5
100
AcDbSymbolTableRecord
100
AcDbLinetypeTableRecord
  2
PHANTOM
 70
     0
  3
Phantom ______  __  __  ______  __  __  ______
 72
    65
 73
     6
 40
12.7
 49
6.35
 74
     0
 49
-1.27
 74
     0
 49
1.27
 74
     0
 49
-1.27
 74
     0
 49
1.27
 74
     0
 49
-1.27
 74
     0
  0
LTYPE
  5
6C
330
5
100
AcDbSymbolTableRecord
100
AcDbLinetypeTableRecord
  2
CENTER
 70
     0
  3
Center ____ _ ____ _ ____ _ ____ _ ____ _ ____
 72
    65
 73
     4
 40
10.16
 49
6.35
 74
     0
 49
-1.27
 74
     0
 49
1.27
 74
     0
 49
-1.27
 74
     0
  0
LTYPE
  5
6D
330
5
100
AcDbSymbolTableRecord
100
AcDbLinetypeTableRecord
  2
CENTERX2
 70
     0
  3
Center (2x) ________  __  ________  __  _____
 72
    65
 73
     4
 40
20.32
 49
12.7
 74
     0
 49
-2.54
 74
     0
 49
2.54
 74
     0
 49
-2.54
 74
     0
  0
LTYPE
  5
6E
330
5
100
AcDbSymbolTableRecord
100
AcDbLinetypeTableRecord
  2
DOT2
 70
     0
  3
Dot (.5x) ........................................
 72
    65
 73
     2
 40
0.635
 49
0.0
 74
     0
 49
-0.635
 74
     0
  0
ENDTAB
  0
TABLE
  2
LAYER
  5
2
102
{ACAD_XDICTIONARY
360
1AF
102
}
330
0
100
AcDbSymbolTable
 70
    18
  0
LAYER
  5
10
330
2
100
AcDbSymbolTableRecord
100
AcDbLayerTableRecord
  2
0
 70
     0
 62
     7
  6
Continuous
370
    -3
390
F
  0
LAYER
  5
6F
330
2
100
AcDbSymbolTableRecord
100
AcDbLayerTableRecord
  2
FORMAT
 70
     0
 62
     2
  6
Continuous
370
    -3
390
F
  0
LAYER
  5
70
330
2
100
AcDbSymbolTableRecord
100
AcDbLayerTableRecord
  2
외형선
 70
     0
 62
     4
  6
Continuous
370
    30
390
F
  0
LAYER
  5
71
330
2
100
AcDbSymbolTableRecord
100
AcDbLayerTableRecord
  2
숨은선
 70
     0
 62
     2
  6
HIDDEN
370
    15
390
F
  0
LAYER
  5
72
330
2
100
AcDbSymbolTableRecord
100
AcDbLayerTableRecord
  2
중심선
 70
     0
 62
     1
  6
CENTERX2
370
    -3
390
F
  0
LAYER
  5
73
330
2
100
AcDbSymbolTableRecord
100
AcDbLayerTableRecord
  2
파단선
 70
     0
 62
     4
  6
Continuous
370
    -3
390
F
  0
LAYER
  5
74
330
2
100
AcDbSymbolTableRecord
100
AcDbLayerTableRecord
  2
해칭선
 70
     0
 62
   100
  6
Continuous
370
    -3
390
F
  0
LAYER
  5
75
330
2
100
AcDbSymbolTableRecord
100
AcDbLayerTableRecord
  2
가는실선
 70
     0
 62
     4
  6
Continuous
370
    -3
390
F
  0
LAYER
  5
76
330
2
100
AcDbSymbolTableRecord
100
AcDbLayerTableRecord
  2
치수_보조선
 70
     0
 62
     4
  6
Continuous
370
    -3
390
F
  0
LAYER
  5
77
330
2
100
AcDbSymbolTableRecord
100
AcDbLayerTableRecord
  2
치수문자_일반주서
 70
     0
 62
     7
  6
Continuous
370
    15
390
F
  0
LAYER
  5
78
330
2
100
AcDbSymbolTableRecord
100
AcDbLayerTableRecord
  2
개별주서
 70
     0
 62
   100
  6
Continuous
370
    30
390
F
  0
LAYER
  5
79
330
2
100
AcDbSymbolTableRecord
100
AcDbLayerTableRecord
  2
중간선
 70
     0
 62
     2
  6
Continuous
370
    15
390
F
  0
LAYER
  5
7A
330
2
100
AcDbSymbolTableRecord
100
AcDbLayerTableRecord
  2
윤곽선
 70
     0
 62
     3
  6
Continuous
370
    40
390
F
  0
LAYER
  5
7B
330
2
100
AcDbSymbolTableRecord
100
AcDbLayerTableRecord
  2
중심마크
 70
     0
 62
   100
  6
Continuous
370
    30
390
F
  0
LAYER
  5
7C
330
2
100
AcDbSymbolTableRecord
100
AcDbLayerTableRecord
  2
가상선
 70
     0
 62
     4
  6
PHANTOM
370
    -3
390
F
  0
LAYER
  5
7D
330
2
100
AcDbSymbolTableRecord
100
AcDbLayerTableRecord
  2
특수지정선
 70
     0
 62
     5
  6
CENTERX2
370
    60
390
F
  0
LAYER
  5
7E
330
2
100
AcDbSymbolTableRecord
100
AcDbLayerTableRecord
  2
참조1
 70
     0
 62
    -4
  6
Continuous
370
    -3
390
F
  0
LAYER
  5
130
330
2
100
AcDbSymbolTableRecord
100
AcDbLayerTableRecord
  2
Defpoints
 70
     0
 62
     7
  6
Continuous
290
     0
370
    -3
390
F
  0
ENDTAB
  0
TABLE
  2
STYLE
  5
3
330
0
100
AcDbSymbolTable
 70
     2
  0
STYLE
  5
11
330
3
100
AcDbSymbolTableRecord
100
AcDbTextStyleTableRecord
  2
Standard
 70
     0
 40
0.0
 41
1.0
 50
0.0
 71
     0
 42
3.5
  3
txt
  4

  0
STYLE
  5
94
330
3
100
AcDbSymbolTableRecord
100
AcDbTextStyleTableRecord
  2
SLDTEXTSTYLE0
 70
     0
 40
0.0
 41
0.75
 50
0.0
 71
     0
 42
3.5
  3
TXT
  4

  0
ENDTAB
  0
TABLE
  2
VIEW
  5
6
330
0
100
AcDbSymbolTable
 70
     0
  0
ENDTAB
  0
TABLE
  2
UCS
  5
7
330
0
100
AcDbSymbolTable
 70
     0
  0
ENDTAB
  0
TABLE
  2
APPID
  5
9
330
0
100
AcDbSymbolTable
 70
     1
  0
APPID
  5
12
330
9
100
AcDbSymbolTableRecord
100
AcDbRegAppTableRecord
  2
ACAD
 70
     0
  0
ENDTAB
  0
TABLE
  2
DIMSTYLE
  5
A
330
0
100
AcDbSymbolTable
 70
     3
100
AcDbDimStyleTable
  0
DIMSTYLE
105
27
330
A
100
AcDbSymbolTableRecord
100
AcDbDimStyleTableRecord
  2
ISO-25
 70
     0
 41
2.5
 42
0.625
 43
3.75
 44
1.25
 73
     0
 74
     0
 77
     1
 78
     8
140
2.5
141
2.5
143
0.03937007874016
147
0.625
171
     3
172
     1
178
     0
271
     2
272
     2
274
     3
278
    44
283
     0
284
     8
340
11
  0
DIMSTYLE
105
B1
330
A
100
AcDbSymbolTableRecord
100
AcDbDimStyleTableRecord
  2
SLDDIMSTYLE0
 70
     0
 41
3.302
 44
0.0
 45
0.000000001
 73
     0
 74
     0
 77
     1
 78
    12
 79
     3
140
3.5
143
0.0393700787401575
147
0.875
148
0.000000001
170
     1
173
     1
178
     0
271
     2
272
     2
276
     2
284
    12
340
94
  0
DIMSTYLE
105
139
102
{ACAD_REACTORS
330
1E2
330
1E3
330
EA
330
B0
330
286
330
293
330
2A0
330
2BB
330
2E9
330
2EA
330
2F4
330
342
102
}
330
A
100
AcDbSymbolTableRecord
100
AcDbDimStyleTableRecord
  2
SLDDIMSTYLE1
 70
     0
 41
3.302
 44
0.0
 45
0.000000001
 73
     0
 74
     0
 77
     1
 78
     4
 79
     1
140
3.5
143
0.0393700787401575
147
0.875
148
0.000000001
170
     1
173
     1
178
     0
271
     2
272
     2
276
     2
284
    12
340
94
  0
ENDTAB
  0
TABLE
  2
BLOCK_RECORD
  5
1
330
0
100
AcDbSymbolTable
 70
    25
  0
BLOCK_RECORD
  5
1F
330
1
100
AcDbSymbolTableRecord
100
AcDbBlockTableRecord
  2
*Model_Space
340
22
  0
BLOCK_RECORD
  5
1B
330
1
100
AcDbSymbolTableRecord
100
AcDbBlockTableRecord
  2
*Paper_Space
340
1E
  0
BLOCK_RECORD
  5
23
330
1
100
AcDbSymbolTableRecord
100
AcDbBlockTableRecord
  2
*Paper_Space0
340
26
  0
BLOCK_RECORD
  5
7F
330
1
100
AcDbSymbolTableRecord
100
AcDbBlockTableRecord
  2
블럭10
340
0
102
{BLKREFS
331
A9
102
}
  0
BLOCK_RECORD
  5
B2
330
1
100
AcDbSymbolTableRecord
100
AcDbBlockTableRecord
  2
_D
340
0
  0
BLOCK_RECORD
  5
C6
330
1
100
AcDbSymbolTableRecord
100
AcDbBlockTableRecord
  2
_D_1
340
0
  0
BLOCK_RECORD
  5
D9
330
1
100
AcDbSymbolTableRecord
100
AcDbBlockTableRecord
  2
_D_2
340
0
  0
BLOCK_RECORD
  5
EB
330
1
100
AcDbSymbolTableRecord
100
AcDbBlockTableRecord
  2
_D_3
340
0
  0
BLOCK_RECORD
  5
104
330
1
100
AcDbSymbolTableRecord
100
AcDbBlockTableRecord
  2
SW_DOWELSYMBOL_0
340
0
102
{BLKREFS
331
1E4
331
2AD
331
2EC
331
0
102
}
  0
BLOCK_RECORD
  5
188
330
1
100
AcDbSymbolTableRecord
100
AcDbBlockTableRecord
  2
*D7
340
0
  0
BLOCK_RECORD
  5
195
330
1
100
AcDbSymbolTableRecord
100
AcDbBlockTableRecord
  2
*D8
340
0
  0
BLOCK_RECORD
  5
1B3
330
1
100
AcDbSymbolTableRecord
100
AcDbBlockTableRecord
  2
*D9
340
0
  0
BLOCK_RECORD
  5
1BF
330
1
100
AcDbSymbolTableRecord
100
AcDbBlockTableRecord
  2
*D10
340
0
  0
BLOCK_RECORD
  5
1EC
330
1
100
AcDbSymbolTableRecord
100
AcDbBlockTableRecord
  2
*D11
340
0
  0
BLOCK_RECORD
  5
1F8
330
1
100
AcDbSymbolTableRecord
100
AcDbBlockTableRecord
  2
*D12
340
0
  0
BLOCK_RECORD
  5
205
330
1
100
AcDbSymbolTableRecord
100
AcDbBlockTableRecord
  2
*D13
340
0
  0
BLOCK_RECORD
  5
211
330
1
100
AcDbSymbolTableRecord
100
AcDbBlockTableRecord
  2
*D14
340
0
  0
BLOCK_RECORD
  5
287
330
1
100
AcDbSymbolTableRecord
100
AcDbBlockTableRecord
  2
*D16
340
0
  0
BLOCK_RECORD
  5
294
330
1
100
AcDbSymbolTableRecord
100
AcDbBlockTableRecord
  2
*D17
340
0
  0
BLOCK_RECORD
  5
2A1
330
1
100
AcDbSymbolTableRecord
100
AcDbBlockTableRecord
  2
*D18
340
0
  0
BLOCK_RECORD
  5
2BD
330
1
100
AcDbSymbolTableRecord
100
AcDbBlockTableRecord
  2
*D19
340
0
  0
BLOCK_RECORD
  5
301
330
1
100
AcDbSymbolTableRecord
100
AcDbBlockTableRecord
  2
*D20
340
0
  0
BLOCK_RECORD
  5
30D
330
1
100
AcDbSymbolTableRecord
100
AcDbBlockTableRecord
  2
*D21
340
0
  0
BLOCK_RECORD
  5
319
330
1
100
AcDbSymbolTableRecord
100
AcDbBlockTableRecord
  2
*D22
340
0
  0
BLOCK_RECORD
  5
325
330
1
100
AcDbSymbolTableRecord
100
AcDbBlockTableRecord
  2
*D23
340
0
  0
BLOCK_RECORD
  5
34A
330
1
100
AcDbSymbolTableRecord
100
AcDbBlockTableRecord
  2
*D24
340
0
  0
ENDTAB
  0
ENDSEC
  0
SECTION
  2
BLOCKS
  0
BLOCK
  5
20
330
1F
100
AcDbEntity
  8
0
100
AcDbBlockBegin
  2
*Model_Space
 70
     0
 10
0.0
 20
0.0
 30
0.0
  3
*Model_Space
  1
*Model_Space
  0
ENDBLK
  5
21
330
1F
100
AcDbEntity
  8
0
100
AcDbBlockEnd
  0
BLOCK
  5
1C
330
1B
100
AcDbEntity
 67
     1
  8
0
100
AcDbBlockBegin
  2
*Paper_Space
 70
     0
 10
0.0
 20
0.0
 30
0.0
  3
*Paper_Space
  1
*Paper_Space
  0
ENDBLK
  5
1D
330
1B
100
AcDbEntity
 67
     1
  8
0
100
AcDbBlockEnd
  0
BLOCK
  5
24
330
23
100
AcDbEntity
  8
0
100
AcDbBlockBegin
  2
*Paper_Space0
 70
     0
 10
0.0
 20
0.0
 30
0.0
  3
*Paper_Space0
  1
*Paper_Space0
  0
ENDBLK
  5
25
330
23
100
AcDbEntity
  8
0
100
AcDbBlockEnd
  0
BLOCK
  5
80
330
7F
100
AcDbEntity
  8
0
100
AcDbBlockBegin
  2
블럭10
 70
     2
 10
0.0
 20
0.0
 30
0.0
  3
블럭10
  1
블럭10
  0
ELLIPSE
  5
82
330
7F
100
AcDbEntity
  8
중심선
100
AcDbEllipse
 10
20.54032771741204
 20
12.0471743016438
 30
0.0
 11
6.600054785286829
 21
-1.261213355974178E-13
 31
0.0
210
0.0
220
0.0
230
1.0
 40
0.636358354079598
 41
0.9219305317359503
 42
6.513795318482858
  0
ELLIPSE
  5
83
330
7F
100
AcDbEntity
  8
중심선
100
AcDbEllipse
 10
20.54032771746488
 20
12.04717430159265
 30
0.0
 11
3.960054785062283
 21
1.540847449632565E-10
 31
0.0
210
0.0
220
0.0
230
1.0
 40
0.3939339440162632
 41
1.131841032648279
 42
5.62031148352944
  0
LINE
  5
84
330
7F
100
AcDbEntity
  8
중심선
100
AcDbLine
 10
2.268634060543552
 20
16.24717430164393
 30
0.0
 11
5.714909304380834
 21
16.24717430164393
 31
0.0
  0
LINE
  5
85
330
7F
100
AcDbEntity
  8
중심선
100
AcDbLine
 10
5.245725140726316
 20
7.84717430164391
 30
0.0
 11
8.692000384563599
 21
7.84717430164391
 31
0.0
  0
LINE
  5
86
330
7F
100
AcDbEntity
  8
중심선
100
AcDbLine
 10
15.74043728645272
 20
16.24717430164393
 30
0.0
 11
8.692000384563599
 21
7.84717430164391
 31
0.0
  0
LINE
  5
87
330
7F
100
AcDbEntity
  8
중심선
100
AcDbLine
 10
0.1404042013395286
 20
13.71084872107135
 30
0.0
 11
3.58671253028996
 21
13.71088815037384
 31
0.0
  0
LINE
  5
88
330
7F
100
AcDbEntity
  8
중심선
100
AcDbLine
 10
2.750260043222114
 20
10.84717430164391
 30
0.0
 11
6.196535287059397
 21
10.84717430164391
 31
0.0
  0
LINE
  5
89
330
7F
100
AcDbEntity
  8
중심선
100
AcDbLine
 10
12.29416204261559
 20
16.24717430164393
 30
0.0
 11
5.245725140726316
 21
7.84717430164391
 31
0.0
  0
LINE
  5
8A
330
7F
100
AcDbEntity
  8
중심선
100
AcDbLine
 10
10.72767329541681
 20
16.24717430164393
 30
0.0
 11
6.196535287059397
 21
10.84717430164391
 31
0.0
  0
LINE
  5
8B
330
7F
100
AcDbEntity
  8
중심선
100
AcDbLine
 10
7.28139805157953
 20
16.24717430164393
 30
0.0
 11
2.750260043222114
 21
10.84717430164391
 31
0.0
  0
LINE
  5
8C
330
7F
100
AcDbEntity
  8
중심선
100
AcDbLine
 10
5.714909304380834
 20
16.24717430164393
 30
0.0
 11
3.58671253028996
 21
13.71088815037384
 31
0.0
  0
LINE
  5
8D
330
7F
100
AcDbEntity
  8
중심선
100
AcDbLine
 10
2.268634060543552
 20
16.24717430164393
 30
0.0
 11
0.1404042013395286
 21
13.71084872107135
 31
0.0
  0
LINE
  5
8E
330
7F
100
AcDbEntity
  8
중심선
100
AcDbLine
 10
7.28139805157953
 20
16.24717430164393
 30
0.0
 11
10.72767329541681
 21
16.24717430164393
 31
0.0
  0
LINE
  5
8F
330
7F
100
AcDbEntity
  8
중심선
100
AcDbLine
 10
12.29416204261559
 20
16.24717430164393
 30
0.0
 11
15.74043728645272
 21
16.24717430164393
 31
0.0
  0
LINE
  5
90
330
7F
100
AcDbEntity
  8
중심선
100
AcDbLine
 10
19.22036997980202
 20
11.08717430171403
 30
0.0
 11
23.66174974927406
 21
11.08717430171406
 31
0.0
  0
LINE
  5
91
330
7F
100
AcDbEntity
  8
중심선
100
AcDbLine
 10
19.22039502424796
 20
13.00717430171391
 30
0.0
 11
19.22036997980202
 21
11.08717430171403
 31
0.0
  0
LINE
  5
92
330
7F
100
AcDbEntity
  8
중심선
100
AcDbLine
 10
19.22039502424796
 20
13.00717430171391
 30
0.0
 11
26.96566020931264
 21
13.00717430171391
 31
0.0
  0
LINE
  5
93
330
7F
100
AcDbEntity
  8
중심선
100
AcDbLine
 10
22.22332737316547
 20
13.45928029700563
 30
0.0
 11
24.52862924686651
 21
15.39360700705356
 31
0.0
  0
ATTDEF
  5
95
330
7F
100
AcDbEntity
  8
FORMAT
 62
     2
100
AcDbText
 10
4.408487351596664
 20
2.075366912832191
 30
0.0
 40
4.233333333333333
  1
E1110924
 41
0.75
  7
SLDTEXTSTYLE0
 11
4.408487351596664
 21
-0.0412997538344756
 31
0.0
100
AcDbAttributeDefinition
  3

  2
AUTOATTR0
 70
     0
 74
     1
  0
ENDBLK
  5
81
330
7F
100
AcDbEntity
  8
0
100
AcDbBlockEnd
  0
BLOCK
  5
B3
330
B2
100
AcDbEntity
  8
0
100
AcDbBlockBegin
  2
_D
 70
     0
 10
0.0
 20
0.0
 30
0.0
  3
_D
  1
_D
  0
LINE
  5
B5
330
B2
100
AcDbEntity
  8
치수문자_일반주서
 62
     0
370
    -2
100
AcDbLine
 10
-262.670695812177
 20
17.52500000000005
 30
0.0
 11
-262.670695812177
 21
31.1971291992607
 31
0.0
  0
LINE
  5
B6
330
B2
100
AcDbEntity
  8
치수문자_일반주서
 62
     0
370
    -2
100
AcDbLine
 10
-303.9456958121771
 20
16.75817956769681
 30
0.0
 11
-303.9456958121771
 21
31.1971291992607
 31
0.0
  0
LINE
  5
B7
330
B2
100
AcDbEntity
  8
치수문자_일반주서
 62
     0
370
    -2
100
AcDbLine
 10
-265.9726958121771
 20
31.1971291992607
 30
0.0
 11
-300.643695812177
 21
31.1971291992607
 31
0.0
  0
SOLID
  5
B8
330
B2
100
AcDbEntity
  8
치수문자_일반주서
 62
     0
100
AcDbTrace
 10
-265.9726958121771
 20
30.64679586592737
 30
0.0
 11
-265.9726958121771
 21
31.74746253259404
 31
0.0
 12
-262.670695812177
 22
31.1971291992607
 32
0.0
 13
-262.670695812177
 23
31.1971291992607
 33
0.0
  0
SOLID
  5
B9
330
B2
100
AcDbEntity
  8
치수문자_일반주서
 62
     0
100
AcDbTrace
 10
-300.643695812177
 20
31.74746253259404
 30
0.0
 11
-300.643695812177
 21
30.64679586592737
 31
0.0
 12
-303.9456958121771
 22
31.1971291992607
 32
0.0
 13
-303.9456958121771
 23
31.1971291992607
 33
0.0
  0
MTEXT
  5
BA
330
B2
100
AcDbEntity
  8
치수문자_일반주서
 62
     0
100
AcDbMText
 10
-285.780388072072
 20
35.5721291992607
 30
0.0
 40
3.5
 41
0.0
 71
     2
 72
     1
  1
\A1;41.28 [1 5/8]
  7
SLDTEXTSTYLE0
 73
     1
 44
1.0
  0
POINT
  5
BB
330
B2
100
AcDbEntity
  8
Defpoints
 62
     0
100
AcDbPoint
 10
-262.670695812177
 20
17.46250000000005
 30
0.0
  0
POINT
  5
BC
330
B2
100
AcDbEntity
  8
Defpoints
 62
     0
100
AcDbPoint
 10
-303.9456958121771
 20
16.69567956769681
 30
0.0
  0
POINT
  5
BD
330
B2
100
AcDbEntity
  8
Defpoints
 62
     0
100
AcDbPoint
 10
-303.9456958121771
 20
31.1971291992607
 30
0.0
  0
ENDBLK
  5
B4
330
B2
100
AcDbEntity
  8
0
100
AcDbBlockEnd
  0
BLOCK
  5
C7
330
C6
100
AcDbEntity
  8
0
100
AcDbBlockBegin
  2
_D_1
 70
     0
 10
0.0
 20
0.0
 30
0.0
  3
_D_1
  1
_D_1
  0
LINE
  5
C9
330
C6
100
AcDbEntity
  8
치수문자_일반주서
 62
     0
370
    -2
100
AcDbLine
 10
78.34926131403117
 20
4.337226723198786
 30
0.0
 11
78.34926131403117
 21
38.76357492872395
 31
0.0
  0
LINE
  5
CA
330
C6
100
AcDbEntity
  8
치수문자_일반주서
 62
     0
370
    -2
100
AcDbLine
 10
-48.65073868596884
 20
14.93857492872389
 30
0.0
 11
-48.65073868596884
 21
38.76357492872395
 31
0.0
  0
LINE
  5
CB
330
C6
100
AcDbEntity
  8
치수문자_일반주서
 62
     0
370
    -2
100
AcDbLine
 10
75.04726131403118
 20
38.76357492872395
 30
0.0
 11
-45.34873868596884
 21
38.76357492872395
 31
0.0
  0
SOLID
  5
CC
330
C6
100
AcDbEntity
  8
치수문자_일반주서
 62
     0
100
AcDbTrace
 10
75.04726131403118
 20
38.21324159539062
 30
0.0
 11
75.04726131403118
 21
39.31390826205729
 31
0.0
 12
78.34926131403117
 22
38.76357492872395
 32
0.0
 13
78.34926131403117
 23
38.76357492872395
 33
0.0
  0
SOLID
  5
CD
330
C6
100
AcDbEntity
  8
치수문자_일반주서
 62
     0
100
AcDbTrace
 10
-45.34873868596884
 20
39.31390826205729
 30
0.0
 11
-45.34873868596884
 21
38.21324159539062
 31
0.0
 12
-48.65073868596884
 22
38.76357492872395
 32
0.0
 13
-48.65073868596884
 23
38.76357492872395
 33
0.0
  0
MTEXT
  5
CE
330
C6
100
AcDbEntity
  8
치수문자_일반주서
 62
     0
100
AcDbMText
 10
14.84926131403116
 20
43.13857492872395
 30
0.0
 40
3.5
 41
0.0
 71
     2
 72
     1
  1
\A1;127.00 [5]
  7
SLDTEXTSTYLE0
 73
     1
 44
1.0
  0
POINT
  5
CF
330
C6
100
AcDbEntity
  8
Defpoints
 62
     0
100
AcDbPoint
 10
78.34926131403117
 20
4.274726723198786
 30
0.0
  0
POINT
  5
D0
330
C6
100
AcDbEntity
  8
Defpoints
 62
     0
100
AcDbPoint
 10
-48.65073868596884
 20
14.87607492872389
 30
0.0
  0
POINT
  5
D1
330
C6
100
AcDbEntity
  8
Defpoints
 62
     0
100
AcDbPoint
 10
-48.65073868596884
 20
38.76357492872395
 30
0.0
  0
ENDBLK
  5
C8
330
C6
100
AcDbEntity
  8
0
100
AcDbBlockEnd
  0
BLOCK
  5
DA
330
D9
100
AcDbEntity
  8
0
100
AcDbBlockBegin
  2
_D_2
 70
     0
 10
0.0
 20
0.0
 30
0.0
  3
_D_2
  1
_D_2
  0
SOLID
  5
DC
330
D9
100
AcDbEntity
  8
치수문자_일반주서
100
AcDbTrace
 10
-61.15073868596883
 20
15.8760749287239
 30
0.0
 11
-61.65873868596884
 21
12.5740749287239
 31
0.0
 12
-60.64273868596883
 22
12.5740749287239
 32
0.0
 13
-60.64273868596883
 23
12.5740749287239
 33
0.0
  0
SOLID
  5
DD
330
D9
100
AcDbEntity
  8
치수문자_일반주서
100
AcDbTrace
 10
-61.15073868596883
 20
-15.8739250712761
 30
0.0
 11
-60.64273868596883
 21
-12.5719250712761
 31
0.0
 12
-61.65873868596884
 22
-12.5719250712761
 32
0.0
 13
-61.65873868596884
 23
-12.5719250712761
 33
0.0
  0
LINE
  5
DE
330
D9
100
AcDbEntity
  8
치수문자_일반주서
100
AcDbLine
 10
-71.94362040201153
 20
-5.413291502344814
 30
0.0
 11
-71.94362040201153
 21
-6.124228987909314
 31
0.0
  0
LINE
  5
DF
330
D9
100
AcDbEntity
  8
치수문자_일반주서
100
AcDbLine
 10
-71.94362040201153
 20
-6.124228987909314
 30
0.0
 11
-66.38737041095223
 21
-6.124228987909275
 31
0.0
  0
LINE
  5
E0
330
D9
100
AcDbEntity
  8
치수문자_일반주서
100
AcDbLine
 10
-66.38737041095223
 20
-6.124228987909275
 30
0.0
 11
-66.38737041095223
 21
-5.413291502344775
 31
0.0
  0
LINE
  5
E1
330
D9
100
AcDbEntity
  8
치수문자_일반주서
100
AcDbLine
 10
-71.94362040201162
 20
5.415441359792444
 30
0.0
 11
-71.94362040201162
 21
6.126378845356944
 31
0.0
  0
LINE
  5
E2
330
D9
100
AcDbEntity
  8
치수문자_일반주서
100
AcDbLine
 10
-71.94362040201162
 20
6.126378845356944
 30
0.0
 11
-66.38737041095231
 21
6.126378845356983
 31
0.0
  0
LINE
  5
E3
330
D9
100
AcDbEntity
  8
치수문자_일반주서
100
AcDbLine
 10
-66.38737041095231
 20
6.126378845356983
 30
0.0
 11
-66.38737041095231
 21
5.415441359792483
 31
0.0
  0
LINE
  5
E4
330
D9
100
AcDbEntity
  8
치수문자_일반주서
100
AcDbLine
 10
-48.65073868596884
 20
15.8760749287239
 30
0.0
 11
-62.15073868596883
 21
15.8760749287239
 31
0.0
  0
LINE
  5
E5
330
D9
100
AcDbEntity
  8
치수문자_일반주서
100
AcDbLine
 10
-48.65073868596884
 20
-15.8739250712761
 30
0.0
 11
-62.15073868596883
 21
-15.8739250712761
 31
0.0
  0
LINE
  5
E6
330
D9
100
AcDbEntity
  8
치수문자_일반주서
100
AcDbLine
 10
-61.15073868596883
 20
15.8760749287239
 30
0.0
 11
-61.15073868596883
 21
-15.8739250712761
 31
0.0
  0
MTEXT
  5
E7
330
D9
100
AcDbEntity
  8
치수문자_일반주서
100
AcDbMText
 10
-70.89910732553115
 20
-4.524619601733436
 30
0.0
 40
3.5
 41
0.0
 71
     1
 72
     1
  1
1.25
  7
SLDTEXTSTYLE0
 11
-7.044195017643634E-15
 21
1.0
 31
0.0
 73
     1
 44
1.0
  0
MTEXT
  5
E8
330
D9
100
AcDbEntity
  8
치수문자_일반주서
100
AcDbMText
 10
-65.66247577517065
 20
-8.456894014097168
 30
0.0
 40
3.5
 41
0.0
 71
     1
 72
     1
  1
%%c
  7
SLDTEXTSTYLE0
 11
-7.044195017643634E-15
 21
1.0
 31
0.0
 73
     1
 44
1.0
  0
MTEXT
  5
E9
330
D9
100
AcDbEntity
  8
치수문자_일반주서
100
AcDbMText
 10
-65.66247577517068
 20
-3.178456615723087
 30
0.0
 40
3.5
 41
0.0
 71
     1
 72
     1
  1
31.75
  7
SLDTEXTSTYLE0
 11
-7.044195017643634E-15
 21
1.0
 31
0.0
 73
     1
 44
1.0
  0
ENDBLK
  5
DB
330
D9
100
AcDbEntity
  8
0
100
AcDbBlockEnd
  0
BLOCK
  5
EC
330
EB
100
AcDbEntity
  8
0
100
AcDbBlockBegin
  2
_D_3
 70
     0
 10
0.0
 20
0.0
 30
0.0
  3
_D_3
  1
_D_3
  0
LINE
  5
EE
330
EB
100
AcDbEntity
  8
치수문자_일반주서
 62
     0
370
    -2
100
AcDbLine
 10
-262.608195812177
 20
17.4625
 30
0.0
 11
-244.5175722047733
 21
17.46250000000007
 31
0.0
  0
LINE
  5
EF
330
EB
100
AcDbEntity
  8
치수문자_일반주서
 62
     0
370
    -2
100
AcDbLine
 10
-262.608195812177
 20
-17.4625
 30
0.0
 11
-244.5175722047732
 21
-17.46249999999992
 31
0.0
  0
LINE
  5
F0
330
EB
100
AcDbEntity
  8
치수문자_일반주서
 62
     0
370
    -2
100
AcDbLine
 10
-244.5175722047733
 20
17.46250000000007
 30
0.0
 11
-244.5175722047734
 21
54.01450000000014
 31
0.0
  0
LINE
  5
F1
330
EB
100
AcDbEntity
  8
치수문자_일반주서
 62
     0
370
    -2
100
AcDbLine
 10
-244.5175722047733
 20
14.16050000000007
 30
0.0
 11
-244.5175722047732
 21
-14.16049999999992
 31
0.0
  0
SOLID
  5
F2
330
EB
100
AcDbEntity
  8
치수문자_일반주서
 62
     0
100
AcDbTrace
 10
-243.96723887144
 20
14.16050000000007
 30
0.0
 11
-245.0679055381066
 21
14.16050000000007
 31
0.0
 12
-244.5175722047733
 22
17.46250000000007
 32
0.0
 13
-244.5175722047733
 23
17.46250000000007
 33
0.0
  0
SOLID
  5
F3
330
EB
100
AcDbEntity
  8
치수문자_일반주서
 62
     0
100
AcDbTrace
 10
-245.0679055381065
 20
-14.16049999999992
 30
0.0
 11
-243.9672388714399
 21
-14.16049999999992
 31
0.0
 12
-244.5175722047732
 22
-17.46249999999992
 32
0.0
 13
-244.5175722047732
 23
-17.46249999999992
 33
0.0
  0
MTEXT
  5
F4
330
EB
100
AcDbEntity
  8
치수문자_일반주서
 62
     0
100
AcDbMText
 10
-248.8925722047734
 20
37.38950000000011
 30
0.0
 40
3.5
 41
0.0
 71
     2
 72
     1
  1
\A1;%%c34.93 [1 3/8]
  7
SLDTEXTSTYLE0
 11
-3.255170729323294E-15
 21
1.0
 31
0.0
 73
     1
 44
1.0
  0
POINT
  5
F5
330
EB
100
AcDbEntity
  8
Defpoints
 62
     0
100
AcDbPoint
 10
-262.670695812177
 20
17.4625
 30
0.0
  0
POINT
  5
F6
330
EB
100
AcDbEntity
  8
Defpoints
 62
     0
100
AcDbPoint
 10
-262.670695812177
 20
-17.4625
 30
0.0
  0
POINT
  5
F7
330
EB
100
AcDbEntity
  8
Defpoints
 62
     0
100
AcDbPoint
 10
-244.5175722047732
 20
-17.46249999999993
 30
0.0
  0
ENDBLK
  5
ED
330
EB
100
AcDbEntity
  8
0
100
AcDbBlockEnd
  0
BLOCK
  5
105
330
104
100
AcDbEntity
  8
0
100
AcDbBlockBegin
  2
SW_DOWELSYMBOL_0
 70
     0
 10
0.0
 20
0.0
 30
0.0
  3
SW_DOWELSYMBOL_0
  1
SW_DOWELSYMBOL_0
  0
CIRCLE
  5
107
330
104
100
AcDbEntity
  8
해칭선
 62
     0
100
AcDbCircle
 10
0.0
 20
0.0
 30
0.0
 40
3.000000000000003
  0
HATCH
  5
108
330
104
100
AcDbEntity
  8
0
  6
Continuous
 62
     0
370
     0
100
AcDbHatch
 10
0.0
 20
0.0
 30
0.0
210
0.0
220
0.0
230
1.0
  2
SOLID
 70
     1
 71
     0
 91
        1
 92
        0
 93
        3
 72
     2
 10
0.0
 20
0.0
 40
3.000000000000003
 50
0.0
 51
90.0
 73
     1
 72
     1
 10
0.0
 20
3.000000000000003
 11
0.0
 21
0.0
 72
     1
 10
0.0
 20
0.0
 11
3.000000000000003
 21
0.0
 97
        0
 75
     0
 76
     1
 98
        1
 10
0.0
 20
0.0
  0
HATCH
  5
109
330
104
100
AcDbEntity
  8
0
  6
Continuous
 62
     0
370
     0
100
AcDbHatch
 10
0.0
 20
0.0
 30
0.0
210
0.0
220
0.0
230
1.0
  2
SOLID
 70
     1
 71
     0
 91
        1
 92
        0
 93
        3
 72
     2
 10
0.0
 20
0.0
 40
3.000000000000003
 50
180.0
 51
270.0000000000007
 73
     1
 72
     1
 10
0.0
 20
-3.000000000000003
 11
0.0
 21
0.0
 72
     1
 10
0.0
 20
0.0
 11
-3.000000000000003
 21
0.0
 97
        0
 75
     0
 76
     1
 98
        1
 10
0.0
 20
0.0
  0
ENDBLK
  5
106
330
104
100
AcDbEntity
  8
0
100
AcDbBlockEnd
  0
BLOCK
  5
189
330
188
100
AcDbEntity
  8
0
100
AcDbBlockBegin
  2
*D7
 70
     1
 10
0.0
 20
0.0
 30
0.0
  3
*D7
  1
*D8
  0
LINE
  5
18A
330
188
100
AcDbEntity
  8
치수문자_일반주서
 62
     0
370
    -2
100
AcDbLine
 10
115.3000000000018
 20
31.81250000000001
 30
0.0
 11
115.3000000000018
 21
54.63750000000007
 31
0.0
  0
LINE
  5
18B
330
188
100
AcDbEntity
  8
치수문자_일반주서
 62
     0
370
    -2
100
AcDbLine
 10
16.87500000000004
 20
24.46250000000001
 30
0.0
 11
16.87500000000004
 21
54.63750000000007
 31
0.0
  0
LINE
  5
18C
330
188
100
AcDbEntity
  8
치수문자_일반주서
 62
     0
370
    -2
100
AcDbLine
 10
111.9980000000018
 20
54.63750000000007
 30
0.0
 11
20.17700000000004
 21
54.63750000000007
 31
0.0
  0
SOLID
  5
18D
330
188
100
AcDbEntity
  8
치수문자_일반주서
 62
     0
100
AcDbTrace
 10
111.9980000000018
 20
54.08716666666673
 30
0.0
 11
111.9980000000018
 21
55.1878333333334
 31
0.0
 12
115.3000000000018
 22
54.63750000000007
 32
0.0
 13
115.3000000000018
 23
54.63750000000007
 33
0.0
  0
SOLID
  5
18E
330
188
100
AcDbEntity
  8
치수문자_일반주서
 62
     0
100
AcDbTrace
 10
20.17700000000004
 20
55.1878333333334
 30
0.0
 11
20.17700000000004
 21
54.08716666666673
 31
0.0
 12
16.87500000000004
 22
54.63750000000007
 32
0.0
 13
16.87500000000004
 23
54.63750000000007
 33
0.0
  0
MTEXT
  5
18F
330
188
100
AcDbEntity
  8
치수문자_일반주서
 62
     0
100
AcDbMText
 10
66.08750000000002
 20
59.01250000000007
 30
0.0
 40
3.5
 41
0.0
 71
     2
 72
     1
  1
\A1;98.43 [3 7/8]
  7
SLDTEXTSTYLE0
 73
     1
 44
1.0
  0
POINT
  5
190
330
188
100
AcDbEntity
  8
Defpoints
 62
     0
100
AcDbPoint
 10
115.3000000000018
 20
31.75000000000001
 30
0.0
  0
POINT
  5
191
330
188
100
AcDbEntity
  8
Defpoints
 62
     0
100
AcDbPoint
 10
16.87500000000004
 20
24.40000000000001
 30
0.0
  0
POINT
  5
192
330
188
100
AcDbEntity
  8
Defpoints
 62
     0
100
AcDbPoint
 10
16.87500000000004
 20
54.63750000000007
 30
0.0
  0
ENDBLK
  5
193
330
188
100
AcDbEntity
  8
0
100
AcDbBlockEnd
  0
BLOCK
  5
196
330
195
100
AcDbEntity
  8
0
100
AcDbBlockBegin
  2
*D8
 70
     1
 10
0.0
 20
0.0
 30
0.0
  3
*D8
  1
*D9
  0
LINE
  5
197
330
195
100
AcDbEntity
  8
치수문자_일반주서
 62
     0
370
    -2
100
AcDbLine
 10
17.81250000000004
 20
25.40000000000001
 30
0.0
 11
4.375000000000024
 21
25.39999999999996
 31
0.0
  0
LINE
  5
198
330
195
100
AcDbEntity
  8
치수문자_일반주서
 62
     0
370
    -2
100
AcDbLine
 10
17.81250000000004
 20
6.35
 30
0.0
 11
4.375000000000091
 21
6.34999999999995
 31
0.0
  0
LINE
  5
199
330
195
100
AcDbEntity
  8
치수문자_일반주서
 62
     0
370
    -2
100
AcDbLine
 10
4.375000000000036
 20
22.09799999999996
 30
0.0
 11
4.375000000000079
 21
9.65199999999995
 31
0.0
  0
SOLID
  5
19A
330
195
100
AcDbEntity
  8
치수문자_일반주서
 62
     0
100
AcDbTrace
 10
4.925333333333369
 20
22.09799999999997
 30
0.0
 11
3.824666666666702
 21
22.09799999999996
 31
0.0
 12
4.375000000000024
 22
25.39999999999996
 32
0.0
 13
4.375000000000024
 23
25.39999999999996
 33
0.0
  0
SOLID
  5
19B
330
195
100
AcDbEntity
  8
치수문자_일반주서
 62
     0
100
AcDbTrace
 10
3.824666666666746
 20
9.651999999999948
 30
0.0
 11
4.925333333333413
 21
9.651999999999951
 31
0.0
 12
4.375000000000091
 22
6.34999999999995
 32
0.0
 13
4.375000000000091
 23
6.34999999999995
 33
0.0
  0
MTEXT
  5
19C
330
195
100
AcDbEntity
  8
치수문자_일반주서
 62
     0
100
AcDbMText
 10
0.000000000000056
 20
15.875
 30
0.0
 40
3.5
 41
0.0
 71
     2
 72
     1
  1
\A1;%%c19.05 [3/4]
  7
SLDTEXTSTYLE0
 11
-3.496765431890254E-15
 21
1.0
 31
0.0
 73
     1
 44
1.0
  0
POINT
  5
19D
330
195
100
AcDbEntity
  8
Defpoints
 62
     0
100
AcDbPoint
 10
17.87500000000004
 20
25.40000000000001
 30
0.0
  0
POINT
  5
19E
330
195
100
AcDbEntity
  8
Defpoints
 62
     0
100
AcDbPoint
 10
17.87500000000004
 20
6.35
 30
0.0
  0
POINT
  5
19F
330
195
100
AcDbEntity
  8
Defpoints
 62
     0
100
AcDbPoint
 10
4.375000000000099
 20
6.349999999999949
 30
0.0
  0
ENDBLK
  5
1A0
330
195
100
AcDbEntity
  8
0
100
AcDbBlockEnd
  0
BLOCK
  5
1B4
330
1B3
100
AcDbEntity
  8
0
100
AcDbBlockBegin
  2
*D9
 70
     1
 10
0.0
 20
0.0
 30
0.0
  3
*D9
  1
*D10
  0
LINE
  5
1B6
330
1B3
100
AcDbEntity
  8
치수문자_일반주서
 62
     0
370
    -2
100
AcDbLine
 10
115.3000000000018
 20
31.81250000000001
 30
0.0
 11
115.3000000000018
 21
43.58815063168968
 31
0.0
  0
LINE
  5
1B7
330
1B3
100
AcDbEntity
  8
치수문자_일반주서
 62
     0
370
    -2
100
AcDbLine
 10
74.02500000000178
 20
31.0151761376129
 30
0.0
 11
74.02500000000178
 21
43.58815063168968
 31
0.0
  0
LINE
  5
1B8
330
1B3
100
AcDbEntity
  8
치수문자_일반주서
 62
     0
370
    -2
100
AcDbLine
 10
111.9980000000018
 20
43.58815063168968
 30
0.0
 11
77.32700000000179
 21
43.58815063168968
 31
0.0
  0
SOLID
  5
1B9
330
1B3
100
AcDbEntity
  8
치수문자_일반주서
 62
     0
100
AcDbTrace
 10
111.9980000000018
 20
43.03781729835634
 30
0.0
 11
111.9980000000018
 21
44.13848396502301
 31
0.0
 12
115.3000000000018
 22
43.58815063168968
 32
0.0
 13
115.3000000000018
 23
43.58815063168968
 33
0.0
  0
SOLID
  5
1BA
330
1B3
100
AcDbEntity
  8
치수문자_일반주서
 62
     0
100
AcDbTrace
 10
77.32700000000179
 20
44.13848396502301
 30
0.0
 11
77.32700000000179
 21
43.03781729835634
 31
0.0
 12
74.02500000000178
 22
43.58815063168968
 32
0.0
 13
74.02500000000178
 23
43.58815063168968
 33
0.0
  0
MTEXT
  5
1BB
330
1B3
100
AcDbEntity
  8
치수문자_일반주서
 62
     0
100
AcDbMText
 10
94.03420790976385
 20
47.96315063168968
 30
0.0
 40
3.5
 41
0.0
 71
     2
 72
     1
  1
\A1;41.28 [1 5/8]
  7
SLDTEXTSTYLE0
 73
     1
 44
1.0
  0
POINT
  5
1BC
330
1B3
100
AcDbEntity
  8
Defpoints
 62
     0
100
AcDbPoint
 10
115.3000000000018
 20
31.75000000000001
 30
0.0
  0
POINT
  5
1BD
330
1B3
100
AcDbEntity
  8
Defpoints
 62
     0
100
AcDbPoint
 10
74.02500000000178
 20
30.9526761376129
 30
0.0
  0
POINT
  5
1BE
330
1B3
100
AcDbEntity
  8
Defpoints
 62
     0
100
AcDbPoint
 10
74.02500000000178
 20
43.58815063168968
 30
0.0
  0
ENDBLK
  5
1B5
330
1B3
100
AcDbEntity
  8
0
100
AcDbBlockEnd
  0
BLOCK
  5
1C0
330
1BF
100
AcDbEntity
  8
0
100
AcDbBlockBegin
  2
*D10
 70
     1
 10
0.0
 20
0.0
 30
0.0
  3
*D10
  1
*D11
  0
LINE
  5
1C2
330
1BF
100
AcDbEntity
  8
치수문자_일반주서
 62
     0
370
    -2
100
AcDbLine
 10
115.3625000000018
 20
31.75000000000001
 30
0.0
 11
127.6400446089995
 21
31.75000000000005
 31
0.0
  0
LINE
  5
1C3
330
1BF
100
AcDbEntity
  8
치수문자_일반주서
 62
     0
370
    -2
100
AcDbLine
 10
115.3625000000018
 20
0.0000000000000038
 30
0.0
 11
127.6400446089996
 21
0.0000000000000426
 31
0.0
  0
LINE
  5
1C4
330
1BF
100
AcDbEntity
  8
치수문자_일반주서
 62
     0
370
    -2
100
AcDbLine
 10
127.6400446089995
 20
31.75000000000005
 30
0.0
 11
127.6400446089994
 21
66.55200000000009
 31
0.0
  0
LINE
  5
1C5
330
1BF
100
AcDbEntity
  8
치수문자_일반주서
 62
     0
370
    -2
100
AcDbLine
 10
127.6400446089995
 20
28.44800000000005
 30
0.0
 11
127.6400446089996
 21
3.302000000000042
 31
0.0
  0
SOLID
  5
1C6
330
1BF
100
AcDbEntity
  8
치수문자_일반주서
 62
     0
100
AcDbTrace
 10
128.1903779423329
 20
28.44800000000006
 30
0.0
 11
127.0897112756662
 21
28.44800000000005
 31
0.0
 12
127.6400446089995
 22
31.75000000000005
 32
0.0
 13
127.6400446089995
 23
31.75000000000005
 33
0.0
  0
SOLID
  5
1C7
330
1BF
100
AcDbEntity
  8
치수문자_일반주서
 62
     0
100
AcDbTrace
 10
127.0897112756663
 20
3.30200000000004
 30
0.0
 11
128.190377942333
 21
3.302000000000044
 31
0.0
 12
127.6400446089996
 22
0.0000000000000426
 32
0.0
 13
127.6400446089996
 23
0.0000000000000426
 33
0.0
  0
MTEXT
  5
1C8
330
1BF
100
AcDbEntity
  8
치수문자_일반주서
 62
     0
100
AcDbMText
 10
123.2650446089995
 20
50.80200000000008
 30
0.0
 40
3.5
 41
0.0
 71
     2
 72
     1
  1
\A1;%%c31.75 [1 1/4]
  7
SLDTEXTSTYLE0
 11
-3.580687802255623E-15
 21
1.0
 31
0.0
 73
     1
 44
1.0
  0
POINT
  5
1C9
330
1BF
100
AcDbEntity
  8
Defpoints
 62
     0
100
AcDbPoint
 10
115.3000000000018
 20
31.75000000000001
 30
0.0
  0
POINT
  5
1CA
330
1BF
100
AcDbEntity
  8
Defpoints
 62
     0
100
AcDbPoint
 10
115.3000000000018
 20
0.0000000000000036
 30
0.0
  0
POINT
  5
1CB
330
1BF
100
AcDbEntity
  8
Defpoints
 62
     0
100
AcDbPoint
 10
127.6400446089996
 20
0.0000000000000497
 30
0.0
  0
ENDBLK
  5
1C1
330
1BF
100
AcDbEntity
  8
0
100
AcDbBlockEnd
  0
BLOCK
  5
1ED
330
1EC
100
AcDbEntity
  8
0
100
AcDbBlockBegin
  2
*D11
 70
     1
 10
0.0
 20
0.0
 30
0.0
  3
*D11
  1
*D12
  0
LINE
  5
1EF
330
1EC
100
AcDbEntity
  8
치수문자_일반주서
 62
     0
370
    -2
100
AcDbLine
 10
220.0103161297741
 20
-38.03157236993516
 30
0.0
 11
220.0103161297741
 21
-26.25592173824548
 31
0.0
  0
LINE
  5
1F0
330
1EC
100
AcDbEntity
  8
치수문자_일반주서
 62
     0
370
    -2
100
AcDbLine
 10
178.7353161297741
 20
-38.82889623232226
 30
0.0
 11
178.7353161297741
 21
-26.25592173824548
 31
0.0
  0
LINE
  5
1F1
330
1EC
100
AcDbEntity
  8
치수문자_일반주서
 62
     0
370
    -2
100
AcDbLine
 10
216.7083161297741
 20
-26.25592173824548
 30
0.0
 11
182.0373161297741
 21
-26.25592173824548
 31
0.0
  0
SOLID
  5
1F2
330
1EC
100
AcDbEntity
  8
치수문자_일반주서
 62
     0
100
AcDbTrace
 10
216.7083161297741
 20
-26.80625507157882
 30
0.0
 11
216.7083161297741
 21
-25.70558840491215
 31
0.0
 12
220.0103161297741
 22
-26.25592173824548
 32
0.0
 13
220.0103161297741
 23
-26.25592173824548
 33
0.0
  0
SOLID
  5
1F3
330
1EC
100
AcDbEntity
  8
치수문자_일반주서
 62
     0
100
AcDbTrace
 10
182.0373161297741
 20
-25.70558840491215
 30
0.0
 11
182.0373161297741
 21
-26.80625507157882
 31
0.0
 12
178.7353161297741
 22
-26.25592173824548
 32
0.0
 13
178.7353161297741
 23
-26.25592173824548
 33
0.0
  0
MTEXT
  5
1F4
330
1EC
100
AcDbEntity
  8
치수문자_일반주서
 62
     0
100
AcDbMText
 10
198.7445240395362
 20
-21.88092173824548
 30
0.0
 40
3.5
 41
0.0
 71
     2
 72
     1
  1
\A1;41.28 [1 5/8]
  7
SLDTEXTSTYLE0
 73
     1
 44
1.0
  0
POINT
  5
1F5
330
1EC
100
AcDbEntity
  8
Defpoints
 62
     0
100
AcDbPoint
 10
220.0103161297741
 20
-38.09407236993516
 30
0.0
  0
POINT
  5
1F6
330
1EC
100
AcDbEntity
  8
Defpoints
 62
     0
100
AcDbPoint
 10
178.7353161297741
 20
-38.89139623232226
 30
0.0
  0
POINT
  5
1F7
330
1EC
100
AcDbEntity
  8
Defpoints
 62
     0
100
AcDbPoint
 10
178.7353161297741
 20
-26.25592173824548
 30
0.0
  0
ENDBLK
  5
1EE
330
1EC
100
AcDbEntity
  8
0
100
AcDbBlockEnd
  0
BLOCK
  5
1F9
330
1F8
100
AcDbEntity
  8
0
100
AcDbBlockBegin
  2
*D12
 70
     1
 10
0.0
 20
0.0
 30
0.0
  3
*D12
  1
*D13
  0
LINE
  5
1FB
330
1F8
100
AcDbEntity
  8
치수문자_일반주서
 62
     0
370
    -2
100
AcDbLine
 10
220.0728161297741
 20
-38.09407236993516
 30
0.0
 11
232.3503607387719
 21
-38.09407236993511
 31
0.0
  0
LINE
  5
1FC
330
1F8
100
AcDbEntity
  8
치수문자_일반주서
 62
     0
370
    -2
100
AcDbLine
 10
220.0728161297741
 20
-69.84407236993516
 30
0.0
 11
232.350360738772
 21
-69.8440723699351
 31
0.0
  0
LINE
  5
1FD
330
1F8
100
AcDbEntity
  8
치수문자_일반주서
 62
     0
370
    -2
100
AcDbLine
 10
232.3503607387719
 20
-38.09407236993511
 30
0.0
 11
232.3503607387718
 21
-3.29207236993507
 31
0.0
  0
LINE
  5
1FE
330
1F8
100
AcDbEntity
  8
치수문자_일반주서
 62
     0
370
    -2
100
AcDbLine
 10
232.3503607387719
 20
-41.3960723699351
 30
0.0
 11
232.350360738772
 21
-66.54207236993511
 31
0.0
  0
SOLID
  5
1FF
330
1F8
100
AcDbEntity
  8
치수문자_일반주서
 62
     0
100
AcDbTrace
 10
232.9006940721052
 20
-41.3960723699351
 30
0.0
 11
231.8000274054386
 21
-41.3960723699351
 31
0.0
 12
232.3503607387719
 22
-38.09407236993511
 32
0.0
 13
232.3503607387719
 23
-38.09407236993511
 33
0.0
  0
SOLID
  5
200
330
1F8
100
AcDbEntity
  8
치수문자_일반주서
 62
     0
100
AcDbTrace
 10
231.8000274054387
 20
-66.54207236993511
 30
0.0
 11
232.9006940721053
 21
-66.54207236993511
 31
0.0
 12
232.350360738772
 22
-69.8440723699351
 32
0.0
 13
232.350360738772
 23
-69.8440723699351
 33
0.0
  0
MTEXT
  5
201
330
1F8
100
AcDbEntity
  8
치수문자_일반주서
 62
     0
100
AcDbMText
 10
227.9753607387718
 20
-19.04207236993509
 30
0.0
 40
3.5
 41
0.0
 71
     2
 72
     1
  1
\A1;%%c31.75 [1 1/4]
  7
SLDTEXTSTYLE0
 11
-3.580687802255621E-15
 21
1.0
 31
0.0
 73
     1
 44
1.0
  0
POINT
  5
202
330
1F8
100
AcDbEntity
  8
Defpoints
 62
     0
100
AcDbPoint
 10
220.0103161297741
 20
-38.09407236993516
 30
0.0
  0
POINT
  5
203
330
1F8
100
AcDbEntity
  8
Defpoints
 62
     0
100
AcDbPoint
 10
220.0103161297741
 20
-69.84407236993516
 30
0.0
  0
POINT
  5
204
330
1F8
100
AcDbEntity
  8
Defpoints
 62
     0
100
AcDbPoint
 10
232.350360738772
 20
-69.84407236993512
 30
0.0
  0
ENDBLK
  5
1FA
330
1F8
100
AcDbEntity
  8
0
100
AcDbBlockEnd
  0
BLOCK
  5
206
330
205
100
AcDbEntity
  8
0
100
AcDbBlockBegin
  2
*D13
 70
     1
 10
0.0
 20
0.0
 30
0.0
  3
*D13
  1
*D14
  0
LINE
  5
208
330
205
100
AcDbEntity
  8
치수문자_일반주서
 62
     0
370
    -2
100
AcDbLine
 10
-262.670695812177
 20
17.52500000000006
 30
0.0
 11
-262.670695812177
 21
47.10414180571031
 31
0.0
  0
LINE
  5
209
330
205
100
AcDbEntity
  8
치수문자_일반주서
 62
     0
370
    -2
100
AcDbLine
 10
-367.445695812177
 20
8.587500000000013
 30
0.0
 11
-367.445695812177
 21
47.10414180571031
 31
0.0
  0
LINE
  5
20A
330
205
100
AcDbEntity
  8
치수문자_일반주서
 62
     0
370
    -2
100
AcDbLine
 10
-265.9726958121771
 20
47.10414180571031
 30
0.0
 11
-364.143695812177
 21
47.10414180571031
 31
0.0
  0
SOLID
  5
20B
330
205
100
AcDbEntity
  8
치수문자_일반주서
 62
     0
100
AcDbTrace
 10
-265.9726958121771
 20
46.55380847237698
 30
0.0
 11
-265.9726958121771
 21
47.65447513904365
 31
0.0
 12
-262.670695812177
 22
47.10414180571031
 32
0.0
 13
-262.670695812177
 23
47.10414180571031
 33
0.0
  0
SOLID
  5
20C
330
205
100
AcDbEntity
  8
치수문자_일반주서
 62
     0
100
AcDbTrace
 10
-364.143695812177
 20
47.65447513904365
 30
0.0
 11
-364.143695812177
 21
46.55380847237698
 31
0.0
 12
-367.445695812177
 22
47.10414180571031
 32
0.0
 13
-367.445695812177
 23
47.10414180571031
 33
0.0
  0
MTEXT
  5
20D
330
205
100
AcDbEntity
  8
치수문자_일반주서
 62
     0
100
AcDbMText
 10
-318.233195812177
 20
51.47914180571031
 30
0.0
 40
3.5
 41
0.0
 71
     2
 72
     1
  1
\A1;104.78 [4 1/8]
  7
SLDTEXTSTYLE0
 73
     1
 44
1.0
  0
POINT
  5
20E
330
205
100
AcDbEntity
  8
Defpoints
 62
     0
100
AcDbPoint
 10
-262.670695812177
 20
17.46250000000006
 30
0.0
  0
POINT
  5
20F
330
205
100
AcDbEntity
  8
Defpoints
 62
     0
100
AcDbPoint
 10
-367.445695812177
 20
8.525000000000013
 30
0.0
  0
POINT
  5
210
330
205
100
AcDbEntity
  8
Defpoints
 62
     0
100
AcDbPoint
 10
-367.445695812177
 20
47.10414180571031
 30
0.0
  0
ENDBLK
  5
207
330
205
100
AcDbEntity
  8
0
100
AcDbBlockEnd
  0
BLOCK
  5
212
330
211
100
AcDbEntity
  8
0
100
AcDbBlockBegin
  2
*D14
 70
     1
 10
0.0
 20
0.0
 30
0.0
  3
*D14
  1
*D15
  0
LINE
  5
214
330
211
100
AcDbEntity
  8
치수문자_일반주서
 62
     0
370
    -2
100
AcDbLine
 10
-366.508195812177
 20
9.52500000000002
 30
0.0
 11
-379.945695812177
 21
9.52499999999997
 31
0.0
  0
LINE
  5
215
330
211
100
AcDbEntity
  8
치수문자_일반주서
 62
     0
370
    -2
100
AcDbLine
 10
-366.508195812177
 20
-9.524999999999991
 30
0.0
 11
-379.945695812177
 21
-9.525000000000041
 31
0.0
  0
LINE
  5
216
330
211
100
AcDbEntity
  8
치수문자_일반주서
 62
     0
370
    -2
100
AcDbLine
 10
-379.945695812177
 20
6.222999999999971
 30
0.0
 11
-379.945695812177
 21
-6.223000000000042
 31
0.0
  0
SOLID
  5
217
330
211
100
AcDbEntity
  8
치수문자_일반주서
 62
     0
100
AcDbTrace
 10
-379.3953624788437
 20
6.222999999999972
 30
0.0
 11
-380.4960291455104
 21
6.222999999999969
 31
0.0
 12
-379.945695812177
 22
9.52499999999997
 32
0.0
 13
-379.945695812177
 23
9.52499999999997
 33
0.0
  0
SOLID
  5
218
330
211
100
AcDbEntity
  8
치수문자_일반주서
 62
     0
100
AcDbTrace
 10
-380.4960291455103
 20
-6.223000000000043
 30
0.0
 11
-379.3953624788436
 21
-6.22300000000004
 31
0.0
 12
-379.945695812177
 22
-9.525000000000041
 32
0.0
 13
-379.945695812177
 23
-9.525000000000041
 33
0.0
  0
MTEXT
  5
219
330
211
100
AcDbEntity
  8
치수문자_일반주서
 62
     0
100
AcDbMText
 10
-384.320695812177
 20
0.000000000000008
 30
0.0
 40
3.5
 41
0.0
 71
     2
 72
     1
  1
\A1;%%c19.05 [3/4]
  7
SLDTEXTSTYLE0
 11
-2.983906501879684E-15
 21
1.0
 31
0.0
 73
     1
 44
1.0
  0
POINT
  5
21A
330
211
100
AcDbEntity
  8
Defpoints
 62
     0
100
AcDbPoint
 10
-366.445695812177
 20
9.52500000000002
 30
0.0
  0
POINT
  5
21B
330
211
100
AcDbEntity
  8
Defpoints
 62
     0
100
AcDbPoint
 10
-366.445695812177
 20
-9.524999999999991
 30
0.0
  0
POINT
  5
21C
330
211
100
AcDbEntity
  8
Defpoints
 62
     0
100
AcDbPoint
 10
-379.945695812177
 20
-9.525000000000041
 30
0.0
  0
ENDBLK
  5
213
330
211
100
AcDbEntity
  8
0
100
AcDbBlockEnd
  0
BLOCK
  5
288
330
287
100
AcDbEntity
  8
0
100
AcDbBlockBegin
  2
*D16
 70
     1
 10
0.0
 20
0.0
 30
0.0
  3
*D16
  1
*D16
  0
LINE
  5
289
330
287
100
AcDbEntity
  8
치수문자_일반주서
 62
     0
370
    -2
100
AcDbLine
 10
143.8750000000001
 20
33.43790382627432
 30
0.0
 11
143.8750000000001
 21
47.17517321680562
 31
0.0
  0
LINE
  5
28A
330
287
100
AcDbEntity
  8
치수문자_일반주서
 62
     0
370
    -2
100
AcDbLine
 10
80.37500000000004
 20
32.86227951015989
 30
0.0
 11
80.37500000000004
 21
47.17517321680562
 31
0.0
  0
LINE
  5
28B
330
287
100
AcDbEntity
  8
치수문자_일반주서
 62
     0
370
    -2
100
AcDbLine
 10
140.5730000000001
 20
47.17517321680562
 30
0.0
 11
83.67700000000005
 21
47.17517321680562
 31
0.0
  0
SOLID
  5
28C
330
287
100
AcDbEntity
  8
치수문자_일반주서
 62
     0
100
AcDbTrace
 10
140.5730000000001
 20
46.62483988347228
 30
0.0
 11
140.5730000000001
 21
47.72550655013895
 31
0.0
 12
143.8750000000001
 22
47.17517321680562
 32
0.0
 13
143.8750000000001
 23
47.17517321680562
 33
0.0
  0
SOLID
  5
28D
330
287
100
AcDbEntity
  8
치수문자_일반주서
 62
     0
100
AcDbTrace
 10
83.67700000000005
 20
47.72550655013895
 30
0.0
 11
83.67700000000005
 21
46.62483988347228
 31
0.0
 12
80.37500000000004
 22
47.17517321680562
 32
0.0
 13
80.37500000000004
 23
47.17517321680562
 33
0.0
  0
MTEXT
  5
28E
330
287
100
AcDbEntity
  8
치수문자_일반주서
 62
     0
100
AcDbMText
 10
114.7604069093419
 20
51.55017321680562
 30
0.0
 40
3.5
 41
0.0
 71
     2
 72
     1
  1
\A1;63.50 [2 1/2]
  7
SLDTEXTSTYLE0
 73
     1
 44
1.0
  0
POINT
  5
28F
330
287
100
AcDbEntity
  8
Defpoints
 62
     0
100
AcDbPoint
 10
143.8750000000001
 20
33.37540382627432
 30
0.0
  0
POINT
  5
290
330
287
100
AcDbEntity
  8
Defpoints
 62
     0
100
AcDbPoint
 10
80.37500000000004
 20
32.79977951015989
 30
0.0
  0
POINT
  5
291
330
287
100
AcDbEntity
  8
Defpoints
 62
     0
100
AcDbPoint
 10
80.37500000000004
 20
47.17517321680562
 30
0.0
  0
ENDBLK
  5
292
330
287
100
AcDbEntity
  8
0
100
AcDbBlockEnd
  0
BLOCK
  5
295
330
294
100
AcDbEntity
  8
0
100
AcDbBlockBegin
  2
*D17
 70
     1
 10
0.0
 20
0.0
 30
0.0
  3
*D17
  1
*D17
  0
LINE
  5
296
330
294
100
AcDbEntity
  8
치수문자_일반주서
 62
     0
370
    -2
100
AcDbLine
 10
143.8750000000001
 20
33.43790382627432
 30
0.0
 11
143.8750000000001
 21
62.71013113123706
 31
0.0
  0
LINE
  5
297
330
294
100
AcDbEntity
  8
치수문자_일반주서
 62
     0
370
    -2
100
AcDbLine
 10
16.87500000000004
 20
32.43790382627431
 30
0.0
 11
16.87500000000004
 21
62.71013113123706
 31
0.0
  0
LINE
  5
298
330
294
100
AcDbEntity
  8
치수문자_일반주서
 62
     0
370
    -2
100
AcDbLine
 10
140.5730000000001
 20
62.71013113123706
 30
0.0
 11
20.17700000000004
 21
62.71013113123706
 31
0.0
  0
SOLID
  5
299
330
294
100
AcDbEntity
  8
치수문자_일반주서
 62
     0
100
AcDbTrace
 10
140.5730000000001
 20
62.15979779790373
 30
0.0
 11
140.5730000000001
 21
63.2604644645704
 31
0.0
 12
143.8750000000001
 22
62.71013113123706
 32
0.0
 13
143.8750000000001
 23
62.71013113123706
 33
0.0
  0
SOLID
  5
29A
330
294
100
AcDbEntity
  8
치수문자_일반주서
 62
     0
100
AcDbTrace
 10
20.17700000000004
 20
63.2604644645704
 30
0.0
 11
20.17700000000004
 21
62.15979779790373
 31
0.0
 12
16.87500000000004
 22
62.71013113123706
 32
0.0
 13
16.87500000000004
 23
62.71013113123706
 33
0.0
  0
MTEXT
  5
29B
330
294
100
AcDbEntity
  8
치수문자_일반주서
 62
     0
100
AcDbMText
 10
80.37500000000004
 20
67.08513113123706
 30
0.0
 40
3.5
 41
0.0
 71
     2
 72
     1
  1
\A1;127.00 [5]
  7
SLDTEXTSTYLE0
 73
     1
 44
1.0
  0
POINT
  5
29C
330
294
100
AcDbEntity
  8
Defpoints
 62
     0
100
AcDbPoint
 10
143.8750000000001
 20
33.37540382627432
 30
0.0
  0
POINT
  5
29D
330
294
100
AcDbEntity
  8
Defpoints
 62
     0
100
AcDbPoint
 10
16.87500000000004
 20
32.37540382627431
 30
0.0
  0
POINT
  5
29E
330
294
100
AcDbEntity
  8
Defpoints
 62
     0
100
AcDbPoint
 10
16.87500000000004
 20
62.71013113123706
 30
0.0
  0
ENDBLK
  5
29F
330
294
100
AcDbEntity
  8
0
100
AcDbBlockEnd
  0
BLOCK
  5
2A2
330
2A1
100
AcDbEntity
  8
0
100
AcDbBlockBegin
  2
*D18
 70
     1
 10
0.0
 20
0.0
 30
0.0
  3
*D18
  1
*D18
  0
LINE
  5
2A3
330
2A1
100
AcDbEntity
  8
치수문자_일반주서
 62
     0
370
    -2
100
AcDbLine
 10
17.81250000000004
 20
33.37540382627432
 30
0.0
 11
4.374999999999988
 21
33.37540382627427
 31
0.0
  0
LINE
  5
2A4
330
2A1
100
AcDbEntity
  8
치수문자_일반주서
 62
     0
370
    -2
100
AcDbLine
 10
17.81250000000004
 20
1.62540382627431
 30
0.0
 11
4.375000000000099
 21
1.62540382627426
 31
0.0
  0
LINE
  5
2A5
330
2A1
100
AcDbEntity
  8
치수문자_일반주서
 62
     0
370
    -2
100
AcDbLine
 10
4.374999999999999
 20
30.07340382627427
 30
0.0
 11
4.375000000000087
 21
4.92740382627426
 31
0.0
  0
SOLID
  5
2A6
330
2A1
100
AcDbEntity
  8
치수문자_일반주서
 62
     0
100
AcDbTrace
 10
4.925333333333333
 20
30.07340382627427
 30
0.0
 11
3.824666666666666
 21
30.07340382627426
 31
0.0
 12
4.374999999999988
 22
33.37540382627427
 32
0.0
 13
4.374999999999988
 23
33.37540382627427
 33
0.0
  0
SOLID
  5
2A7
330
2A1
100
AcDbEntity
  8
치수문자_일반주서
 62
     0
100
AcDbTrace
 10
3.824666666666753
 20
4.927403826274258
 30
0.0
 11
4.925333333333421
 21
4.927403826274261
 31
0.0
 12
4.375000000000099
 22
1.62540382627426
 32
0.0
 13
4.375000000000099
 23
1.62540382627426
 33
0.0
  0
MTEXT
  5
2A8
330
2A1
100
AcDbEntity
  8
치수문자_일반주서
 62
     0
100
AcDbMText
 10
0.0000000000000426
 20
17.50040382627429
 30
0.0
 40
3.5
 41
0.0
 71
     2
 72
     1
  1
\A1;%%c31.75 [1 1/4]
  7
SLDTEXTSTYLE0
 11
-3.496765431890256E-15
 21
1.0
 31
0.0
 73
     1
 44
1.0
  0
POINT
  5
2A9
330
2A1
100
AcDbEntity
  8
Defpoints
 62
     0
100
AcDbPoint
 10
17.87500000000004
 20
33.37540382627432
 30
0.0
  0
POINT
  5
2AA
330
2A1
100
AcDbEntity
  8
Defpoints
 62
     0
100
AcDbPoint
 10
17.87500000000004
 20
1.62540382627431
 30
0.0
  0
POINT
  5
2AB
330
2A1
100
AcDbEntity
  8
Defpoints
 62
     0
100
AcDbPoint
 10
4.375000000000099
 20
1.625403826274259
 30
0.0
  0
ENDBLK
  5
2AC
330
2A1
100
AcDbEntity
  8
0
100
AcDbBlockEnd
  0
BLOCK
  5
2BE
330
2BD
100
AcDbEntity
  8
0
100
AcDbBlockBegin
  2
*D19
 70
     1
 10
0.0
 20
0.0
 30
0.0
  3
*D19
  1
*D19
  0
LINE
  5
2BF
330
2BD
100
AcDbEntity
  8
치수문자_일반주서
 62
     0
370
    -2
100
AcDbLine
 10
143.9375000000001
 20
33.37540382627431
 30
0.0
 11
159.2706883703808
 21
33.37540382627431
 31
0.0
  0
LINE
  5
2C0
330
2BD
100
AcDbEntity
  8
치수문자_일반주서
 62
     0
370
    -2
100
AcDbLine
 10
143.9375000000001
 20
1.62540382627431
 30
0.0
 11
159.2706883703808
 21
1.625403826274309
 31
0.0
  0
LINE
  5
2C1
330
2BD
100
AcDbEntity
  8
치수문자_일반주서
 62
     0
370
    -2
100
AcDbLine
 10
159.2706883703808
 20
30.07340382627431
 30
0.0
 11
159.2706883703808
 21
4.927403826274309
 31
0.0
  0
SOLID
  5
2C2
330
2BD
100
AcDbEntity
  8
치수문자_일반주서
 62
     0
100
AcDbTrace
 10
159.8210217037141
 20
30.07340382627431
 30
0.0
 11
158.7203550370474
 21
30.07340382627431
 31
0.0
 12
159.2706883703808
 22
33.37540382627431
 32
0.0
 13
159.2706883703808
 23
33.37540382627431
 33
0.0
  0
SOLID
  5
2C3
330
2BD
100
AcDbEntity
  8
치수문자_일반주서
 62
     0
100
AcDbTrace
 10
158.7203550370474
 20
4.927403826274309
 30
0.0
 11
159.8210217037141
 21
4.927403826274309
 31
0.0
 12
159.2706883703808
 22
1.625403826274309
 32
0.0
 13
159.2706883703808
 23
1.625403826274309
 33
0.0
  0
MTEXT
  5
2C4
330
2BD
100
AcDbEntity
  8
치수문자_일반주서
 62
     0
100
AcDbMText
 10
156.6456883703808
 20
17.50040382627431
 30
0.0
 40
3.5
 41
0.0
 71
     5
 72
     1
  1
\A1;{%%c31.75 [1 1/4]}
  7
SLDTEXTSTYLE0
 11
0.0
 21
1.0
 31
0.0
 73
     1
 44
1.0
  0
POINT
  5
2C5
330
2BD
100
AcDbEntity
  8
Defpoints
 62
     0
100
AcDbPoint
 10
143.8750000000001
 20
33.37540382627431
 30
0.0
  0
POINT
  5
2C6
330
2BD
100
AcDbEntity
  8
Defpoints
 62
     0
100
AcDbPoint
 10
143.8750000000001
 20
1.62540382627431
 30
0.0
  0
POINT
  5
2C7
330
2BD
100
AcDbEntity
  8
Defpoints
 62
     0
100
AcDbPoint
 10
159.2706883703808
 20
1.625403826274309
 30
0.0
  0
ENDBLK
  5
2C8
330
2BD
100
AcDbEntity
  8
0
100
AcDbBlockEnd
  0
BLOCK
  5
302
330
301
100
AcDbEntity
  8
0
100
AcDbBlockBegin
  2
*D20
 70
     1
 10
0.0
 20
0.0
 30
0.0
  3
*D20
  1
*D20
  0
LINE
  5
304
330
301
100
AcDbEntity
  8
치수문자_일반주서
 62
     0
370
    -2
100
AcDbLine
 10
53.27500000000008
 20
15.9375
 30
0.0
 11
53.27500000000008
 21
29.67476939053131
 31
0.0
  0
LINE
  5
305
330
301
100
AcDbEntity
  8
치수문자_일반주서
 62
     0
370
    -2
100
AcDbLine
 10
12.00000000000006
 20
17.52499999999999
 30
0.0
 11
12.00000000000006
 21
29.67476939053131
 31
0.0
  0
LINE
  5
306
330
301
100
AcDbEntity
  8
치수문자_일반주서
 62
     0
370
    -2
100
AcDbLine
 10
49.97300000000008
 20
29.67476939053131
 30
0.0
 11
15.30200000000006
 21
29.67476939053131
 31
0.0
  0
SOLID
  5
307
330
301
100
AcDbEntity
  8
치수문자_일반주서
 62
     0
100
AcDbTrace
 10
49.97300000000008
 20
29.12443605719797
 30
0.0
 11
49.97300000000008
 21
30.22510272386464
 31
0.0
 12
53.27500000000008
 22
29.67476939053131
 32
0.0
 13
53.27500000000008
 23
29.67476939053131
 33
0.0
  0
SOLID
  5
308
330
301
100
AcDbEntity
  8
치수문자_일반주서
 62
     0
100
AcDbTrace
 10
15.30200000000006
 20
30.22510272386464
 30
0.0
 11
15.30200000000006
 21
29.12443605719797
 31
0.0
 12
12.00000000000006
 22
29.67476939053131
 32
0.0
 13
12.00000000000006
 23
29.67476939053131
 33
0.0
  0
MTEXT
  5
309
330
301
100
AcDbEntity
  8
치수문자_일반주서
 62
     0
100
AcDbMText
 10
32.63750000000007
 20
34.04976939053131
 30
0.0
 40
3.5
 41
0.0
 71
     2
 72
     1
  1
\A1;41.28 [1 5/8]
  7
SLDTEXTSTYLE0
 73
     1
 44
1.0
  0
POINT
  5
30A
330
301
100
AcDbEntity
  8
Defpoints
 62
     0
100
AcDbPoint
 10
53.27500000000008
 20
15.875
 30
0.0
  0
POINT
  5
30B
330
301
100
AcDbEntity
  8
Defpoints
 62
     0
100
AcDbPoint
 10
12.00000000000006
 20
17.46249999999999
 30
0.0
  0
POINT
  5
30C
330
301
100
AcDbEntity
  8
Defpoints
 62
     0
100
AcDbPoint
 10
12.00000000000006
 20
29.67476939053131
 30
0.0
  0
ENDBLK
  5
303
330
301
100
AcDbEntity
  8
0
100
AcDbBlockEnd
  0
BLOCK
  5
30E
330
30D
100
AcDbEntity
  8
0
100
AcDbBlockBegin
  2
*D21
 70
     1
 10
0.0
 20
0.0
 30
0.0
  3
*D21
  1
*D21
  0
LINE
  5
310
330
30D
100
AcDbEntity
  8
치수문자_일반주서
 62
     0
370
    -2
100
AcDbLine
 10
53.27500000000008
 20
15.9375
 30
0.0
 11
53.27500000000008
 21
45.20972730496275
 31
0.0
  0
LINE
  5
311
330
30D
100
AcDbEntity
  8
치수문자_일반주서
 62
     0
370
    -2
100
AcDbLine
 10
-51.49999999999994
 20
8.587499999999991
 30
0.0
 11
-51.49999999999994
 21
45.20972730496275
 31
0.0
  0
LINE
  5
312
330
30D
100
AcDbEntity
  8
치수문자_일반주서
 62
     0
370
    -2
100
AcDbLine
 10
49.97300000000008
 20
45.20972730496275
 30
0.0
 11
-48.19799999999994
 21
45.20972730496275
 31
0.0
  0
SOLID
  5
313
330
30D
100
AcDbEntity
  8
치수문자_일반주서
 62
     0
100
AcDbTrace
 10
49.97300000000008
 20
44.65939397162942
 30
0.0
 11
49.97300000000008
 21
45.76006063829609
 31
0.0
 12
53.27500000000008
 22
45.20972730496275
 32
0.0
 13
53.27500000000008
 23
45.20972730496275
 33
0.0
  0
SOLID
  5
314
330
30D
100
AcDbEntity
  8
치수문자_일반주서
 62
     0
100
AcDbTrace
 10
-48.19799999999994
 20
45.76006063829609
 30
0.0
 11
-48.19799999999994
 21
44.65939397162942
 31
0.0
 12
-51.49999999999994
 22
45.20972730496275
 32
0.0
 13
-51.49999999999994
 23
45.20972730496275
 33
0.0
  0
MTEXT
  5
315
330
30D
100
AcDbEntity
  8
치수문자_일반주서
 62
     0
100
AcDbMText
 10
0.8875000000000739
 20
49.58472730496275
 30
0.0
 40
3.5
 41
0.0
 71
     2
 72
     1
  1
\A1;104.78 [4 1/8]
  7
SLDTEXTSTYLE0
 73
     1
 44
1.0
  0
POINT
  5
316
330
30D
100
AcDbEntity
  8
Defpoints
 62
     0
100
AcDbPoint
 10
53.27500000000008
 20
15.875
 30
0.0
  0
POINT
  5
317
330
30D
100
AcDbEntity
  8
Defpoints
 62
     0
100
AcDbPoint
 10
-51.49999999999994
 20
8.524999999999991
 30
0.0
  0
POINT
  5
318
330
30D
100
AcDbEntity
  8
Defpoints
 62
     0
100
AcDbPoint
 10
-51.49999999999994
 20
45.20972730496275
 30
0.0
  0
ENDBLK
  5
30F
330
30D
100
AcDbEntity
  8
0
100
AcDbBlockEnd
  0
BLOCK
  5
31A
330
319
100
AcDbEntity
  8
0
100
AcDbBlockBegin
  2
*D22
 70
     1
 10
0.0
 20
0.0
 30
0.0
  3
*D22
  1
*D22
  0
LINE
  5
31C
330
319
100
AcDbEntity
  8
치수문자_일반주서
 62
     0
370
    -2
100
AcDbLine
 10
-58.97499999999999
 20
15.875
 30
0.0
 11
-72.41250000000005
 21
15.87499999999995
 31
0.0
  0
LINE
  5
31D
330
319
100
AcDbEntity
  8
치수문자_일반주서
 62
     0
370
    -2
100
AcDbLine
 10
-58.97499999999999
 20
-15.87500000000001
 30
0.0
 11
-72.41249999999994
 21
-15.87500000000006
 31
0.0
  0
LINE
  5
31E
330
319
100
AcDbEntity
  8
치수문자_일반주서
 62
     0
370
    -2
100
AcDbLine
 10
-72.41250000000004
 20
12.57299999999995
 30
0.0
 11
-72.41249999999995
 21
-12.57300000000006
 31
0.0
  0
SOLID
  5
31F
330
319
100
AcDbEntity
  8
치수문자_일반주서
 62
     0
100
AcDbTrace
 10
-71.86216666666671
 20
12.57299999999995
 30
0.0
 11
-72.96283333333336
 21
12.57299999999995
 31
0.0
 12
-72.41250000000005
 22
15.87499999999995
 32
0.0
 13
-72.41250000000005
 23
15.87499999999995
 33
0.0
  0
SOLID
  5
320
330
319
100
AcDbEntity
  8
치수문자_일반주서
 62
     0
100
AcDbTrace
 10
-72.96283333333328
 20
-12.57300000000006
 30
0.0
 11
-71.86216666666662
 21
-12.57300000000006
 31
0.0
 12
-72.41249999999994
 22
-15.87500000000006
 32
0.0
 13
-72.41249999999994
 23
-15.87500000000006
 33
0.0
  0
MTEXT
  5
321
330
319
100
AcDbEntity
  8
치수문자_일반주서
 62
     0
100
AcDbMText
 10
-76.7875
 20
-0.0000000000000226
 30
0.0
 40
3.5
 41
0.0
 71
     2
 72
     1
  1
\A1;%%c31.75 [1 1/4]
  7
SLDTEXTSTYLE0
 11
-3.580687802255622E-15
 21
1.0
 31
0.0
 73
     1
 44
1.0
  0
POINT
  5
322
330
319
100
AcDbEntity
  8
Defpoints
 62
     0
100
AcDbPoint
 10
-58.91249999999999
 20
15.875
 30
0.0
  0
POINT
  5
323
330
319
100
AcDbEntity
  8
Defpoints
 62
     0
100
AcDbPoint
 10
-58.91249999999999
 20
-15.87500000000001
 30
0.0
  0
POINT
  5
324
330
319
100
AcDbEntity
  8
Defpoints
 62
     0
100
AcDbPoint
 10
-72.41249999999994
 20
-15.87500000000006
 30
0.0
  0
ENDBLK
  5
31B
330
319
100
AcDbEntity
  8
0
100
AcDbBlockEnd
  0
BLOCK
  5
326
330
325
100
AcDbEntity
  8
0
100
AcDbBlockBegin
  2
*D23
 70
     1
 10
0.0
 20
0.0
 30
0.0
  3
*D23
  1
*D23
  0
LINE
  5
328
330
325
100
AcDbEntity
  8
치수문자_일반주서
 62
     0
370
    -2
100
AcDbLine
 10
53.33750000000006
 20
17.46249999999999
 30
0.0
 11
68.67068837038077
 21
17.46249999999999
 31
0.0
  0
LINE
  5
329
330
325
100
AcDbEntity
  8
치수문자_일반주서
 62
     0
370
    -2
100
AcDbLine
 10
53.33750000000006
 20
-17.46250000000001
 30
0.0
 11
68.67068837038077
 21
-17.46250000000001
 31
0.0
  0
LINE
  5
32A
330
325
100
AcDbEntity
  8
치수문자_일반주서
 62
     0
370
    -2
100
AcDbLine
 10
68.67068837038077
 20
14.16049999999999
 30
0.0
 11
68.67068837038077
 21
-14.16050000000001
 31
0.0
  0
SOLID
  5
32B
330
325
100
AcDbEntity
  8
치수문자_일반주서
 62
     0
100
AcDbTrace
 10
69.2210217037141
 20
14.16049999999999
 30
0.0
 11
68.12035503704745
 21
14.16049999999999
 31
0.0
 12
68.67068837038077
 22
17.46249999999999
 32
0.0
 13
68.67068837038077
 23
17.46249999999999
 33
0.0
  0
SOLID
  5
32C
330
325
100
AcDbEntity
  8
치수문자_일반주서
 62
     0
100
AcDbTrace
 10
68.12035503704745
 20
-14.16050000000001
 30
0.0
 11
69.2210217037141
 21
-14.16050000000001
 31
0.0
 12
68.67068837038077
 22
-17.46250000000001
 32
0.0
 13
68.67068837038077
 23
-17.46250000000001
 33
0.0
  0
MTEXT
  5
32D
330
325
100
AcDbEntity
  8
치수문자_일반주서
 62
     0
100
AcDbMText
 10
66.04568837038077
 20
-0.0000000000000107
 30
0.0
 40
3.5
 41
0.0
 71
     5
 72
     1
  1
\A1;{%%c34.93 [1 3/8]}
  7
SLDTEXTSTYLE0
 11
0.0
 21
1.0
 31
0.0
 73
     1
 44
1.0
  0
POINT
  5
32E
330
325
100
AcDbEntity
  8
Defpoints
 62
     0
100
AcDbPoint
 10
53.27500000000006
 20
17.46249999999999
 30
0.0
  0
POINT
  5
32F
330
325
100
AcDbEntity
  8
Defpoints
 62
     0
100
AcDbPoint
 10
53.27500000000006
 20
-17.46250000000001
 30
0.0
  0
POINT
  5
330
330
325
100
AcDbEntity
  8
Defpoints
 62
     0
100
AcDbPoint
 10
68.67068837038077
 20
-17.46250000000001
 30
0.0
  0
ENDBLK
  5
327
330
325
100
AcDbEntity
  8
0
100
AcDbBlockEnd
  0
BLOCK
  5
34B
330
34A
100
AcDbEntity
  8
0
100
AcDbBlockBegin
  2
*D24
 70
     1
 10
0.0
 20
0.0
 30
0.0
  3
*D24
  1
*D24
  0
LINE
  5
34D
330
34A
100
AcDbEntity
  8
치수문자_일반주서
 62
     0
370
    -2
100
AcDbLine
 10
-50.56249999999994
 20
9.525000000000006
 30
0.0
 11
-63.99999999999997
 21
9.524999999999956
 31
0.0
  0
LINE
  5
34E
330
34A
100
AcDbEntity
  8
치수문자_일반주서
 62
     0
370
    -2
100
AcDbLine
 10
-50.56249999999994
 20
-9.525000000000006
 30
0.0
 11
-63.99999999999991
 21
-9.525000000000055
 31
0.0
  0
LINE
  5
34F
330
34A
100
AcDbEntity
  8
치수문자_일반주서
 62
     0
370
    -2
100
AcDbLine
 10
-63.99999999999996
 20
6.222999999999956
 30
0.0
 11
-63.99999999999992
 21
-6.223000000000056
 31
0.0
  0
SOLID
  5
350
330
34A
100
AcDbEntity
  8
치수문자_일반주서
 62
     0
100
AcDbTrace
 10
-63.44966666666662
 20
6.222999999999958
 30
0.0
 11
-64.55033333333328
 21
6.222999999999955
 31
0.0
 12
-63.99999999999997
 22
9.524999999999956
 32
0.0
 13
-63.99999999999997
 23
9.524999999999956
 33
0.0
  0
SOLID
  5
351
330
34A
100
AcDbEntity
  8
치수문자_일반주서
 62
     0
100
AcDbTrace
 10
-64.55033333333326
 20
-6.223000000000058
 30
0.0
 11
-63.44966666666659
 21
-6.223000000000054
 31
0.0
 12
-63.99999999999991
 22
-9.525000000000055
 32
0.0
 13
-63.99999999999991
 23
-9.525000000000055
 33
0.0
  0
MTEXT
  5
352
330
34A
100
AcDbEntity
  8
치수문자_일반주서
 62
     0
100
AcDbMText
 10
-68.37499999999994
 20
-0.0000000000000076
 30
0.0
 40
3.5
 41
0.0
 71
     2
 72
     1
  1
\A1;%%c19.05 [3/4]
  7
SLDTEXTSTYLE0
 11
-3.356894814614645E-15
 21
1.0
 31
0.0
 73
     1
 44
1.0
  0
POINT
  5
353
330
34A
100
AcDbEntity
  8
Defpoints
 62
     0
100
AcDbPoint
 10
-50.49999999999994
 20
9.525000000000006
 30
0.0
  0
POINT
  5
354
330
34A
100
AcDbEntity
  8
Defpoints
 62
     0
100
AcDbPoint
 10
-50.49999999999994
 20
-9.525000000000006
 30
0.0
  0
POINT
  5
355
330
34A
100
AcDbEntity
  8
Defpoints
 62
     0
100
AcDbPoint
 10
-63.99999999999991
 20
-9.525000000000055
 30
0.0
  0
ENDBLK
  5
34C
330
34A
100
AcDbEntity
  8
0
100
AcDbBlockEnd
  0
ENDSEC
  0
SECTION
  2
ENTITIES
  0
LINE
  5
96
330
1F
100
AcDbEntity
  8
0
  6
Continuous
 62
     1
370
    15
100
AcDbLine
 10
-303.9456958121771
 20
-17.46250000000001
 30
0.0
 11
-280.1331958121771
 21
-17.46250000000001
 31
0.0
  0
LINE
  5
97
330
1F
100
AcDbEntity
  8
0
  6
Continuous
 62
     1
370
    15
100
AcDbLine
 10
-280.1331958121771
 20
17.4625
 30
0.0
 11
-303.9456958121771
 21
17.4625
 31
0.0
  0
ARC
  5
98
330
1F
100
AcDbEntity
  8
0
  6
Continuous
 62
     1
370
    15
100
AcDbCircle
 10
-280.1331958121771
 20
-0.000000000000002
 30
0.0
 40
17.46250000000001
100
AcDbArc
 50
270.0000000000009
 51
0.0
  0
ARC
  5
99
330
1F
100
AcDbEntity
  8
0
  6
Continuous
 62
     1
370
    15
100
AcDbCircle
 10
-280.1331958121771
 20
-0.000000000000002
 30
0.0
 40
17.46250000000001
100
AcDbArc
 50
0.0
 51
90.0
  0
LINE
  5
9A
330
1F
100
AcDbEntity
  8
외형선
  6
Continuous
370
    15
100
AcDbLine
 10
-303.9456958121771
 20
16.69567956769681
 30
0.0
 11
-303.9456958121771
 21
17.4625
 31
0.0
  0
LINE
  5
9B
330
1F
100
AcDbEntity
  8
외형선
  6
Continuous
370
    15
100
AcDbLine
 10
-303.9456958121771
 20
-17.46250000000001
 30
0.0
 11
-303.9456958121771
 21
-11.16600275360799
 31
0.0
  0
SPLINE
  5
9C
330
1F
100
AcDbEntity
  8
0
  6
Continuous
 62
     1
370
    15
100
AcDbSpline
210
0.0
220
0.0
230
1.0
 70
     8
 71
     3
 72
    14
 73
    10
 74
     0
 42
0.000000001
 43
0.00000001
 40
0.0
 40
0.0
 40
0.0
 40
0.0
 40
0.25
 40
0.25
 40
0.5
 40
0.5
 40
0.75
 40
0.75
 40
1.0
 40
1.0
 40
1.0
 40
1.0
 10
-294.420695812177
 20
-14.77564487060293
 30
0.0
 10
-295.2123045528992
 20
-14.5316044856772
 30
0.0
 10
-296.0074168266676
 20
-14.27194214356466
 30
0.0
 10
-297.5972780273468
 20
-13.72365926183839
 30
0.0
 10
-298.390829805399
 20
-13.43519319732936
 30
0.0
 10
-299.9753737858229
 20
-12.83146828557959
 30
0.0
 10
-300.7707829657869
 20
-12.51563436916711
 30
0.0
 10
-302.3604961390901
 20
-11.85887095808295
 30
0.0
 10
-303.1528337627442
 20
-11.51823752383915
 30
0.0
 10
-303.9456958121771
 20
-11.16600275361836
 30
0.0
  0
LINE
  5
9D
330
1F
100
AcDbEntity
  8
0
  6
Continuous
 62
     1
370
    15
100
AcDbLine
 10
-294.420695812177
 20
17.384266910979
 30
0.0
 11
-294.420695812177
 21
-14.77564487059458
 31
0.0
  0
ELLIPSE
  5
9E
330
1F
100
AcDbEntity
  8
0
  6
Continuous
 62
     1
370
    15
100
AcDbEllipse
 10
-289.884303389953
 20
-0.000000000000002
 30
0.0
 11
47.97782443722623
 21
-4.969982758673552E-16
 31
0.0
210
0.0
220
0.0
230
1.0
 40
0.3639702342662032
 41
1.665489637280634
 42
1.868244167793188
  0
SPLINE
  5
9F
330
1F
100
AcDbEntity
  8
0
  6
Continuous
 62
     1
370
    15
100
AcDbSpline
210
0.0
220
0.0
230
1.0
 70
     8
 71
     3
 72
    14
 73
    10
 74
     0
 42
0.000000001
 43
0.00000001
 40
0.0
 40
0.0
 40
0.0
 40
0.0
 40
0.25
 40
0.25
 40
0.5
 40
0.5
 40
0.75
 40
0.75
 40
1.0
 40
1.0
 40
1.0
 40
1.0
 10
-294.420695812177
 20
-0.0000000000000038
 30
0.0
 10
-295.2123045528992
 20
0.3118182004621464
 30
0.0
 10
-296.0074168266676
 20
0.6240959403721685
 30
0.0
 10
-297.5972780273468
 20
1.246668117507554
 30
0.0
 10
-298.390829805399
 20
1.55680556977279
 30
0.0
 10
-299.9753737858229
 20
2.172897811482907
 30
0.0
 10
-300.7707829657867
 20
2.479422725120866
 30
0.0
 10
-302.3604961390899
 20
3.086568513767636
 30
0.0
 10
-303.1528337627441
 20
3.386943054673826
 30
0.0
 10
-303.945695812177
 20
3.683580821821892
 30
0.0
  0
SPLINE
  5
A0
330
1F
100
AcDbEntity
  8
외형선
  6
Continuous
370
    15
100
AcDbSpline
210
0.0
220
0.0
230
1.0
 70
    24
 71
     3
 72
    22
 73
    18
 74
     0
 42
0.000000001
 43
0.00000001
 40
0.0
 40
0.0
 40
0.0
 40
0.0
 40
0.125
 40
0.125
 40
0.25
 40
0.25
 40
0.375
 40
0.375
 40
0.5
 40
0.5
 40
0.625
 40
0.625
 40
0.75
 40
0.75
 40
0.875
 40
0.875
 40
1.0
 40
1.0
 40
1.0
 40
1.0
 10
-303.945695812177
 20
3.683580821821891
 30
0.0
 10
-303.945695812177
 20
3.250845497333156
 30
0.0
 10
-303.945695812177
 20
2.777987060129198
 30
0.0
 10
-303.945695812177
 20
1.750212068751556
 30
0.0
 10
-303.945695812177
 20
1.195187455059415
 30
0.0
 10
-303.945695812177
 20
0.0090641463506378
 30
0.0
 10
-303.945695812177
 20
-0.622117025274746
 30
0.0
 10
-303.945695812177
 20
-1.943556212382956
 30
0.0
 10
-303.945695812177
 20
-2.633816632760095
 30
0.0
 10
-303.945695812177
 20
-4.043909503604592
 30
0.0
 10
-303.945695812177
 20
-4.763616268003926
 30
0.0
 10
-303.945695812177
 20
-6.192280985673565
 30
0.0
 10
-303.945695812177
 20
-6.900985756465475
 30
0.0
 10
-303.945695812177
 20
-8.262265825313223
 30
0.0
 10
-303.945695812177
 20
-8.914536208107906
 30
0.0
 10
-303.945695812177
 20
-10.12124296577506
 30
0.0
 10
-303.945695812177
 20
-10.6754444485901
 30
0.0
 10
-303.945695812177
 20
-11.16600275360719
 30
0.0
  0
SPLINE
  5
A1
330
1F
100
AcDbEntity
  8
0
  6
Continuous
 62
     1
370
    15
100
AcDbSpline
210
0.0
220
0.0
230
1.0
 70
     8
 71
     3
 72
     8
 73
     4
 74
     0
 42
0.000000001
 43
0.00000001
 40
0.0
 40
0.0
 40
0.0
 40
0.0
 40
1.0
 40
1.0
 40
1.0
 40
1.0
 10
-303.9456958121771
 20
6.45755029061836
 30
0.0
 10
-300.7821672612591
 20
5.501110541917437
 30
0.0
 10
-297.6066726820599
 20
4.47044621263114
 30
0.0
 10
-294.420695812177
 20
3.374760841166847
 30
0.0
  0
SPLINE
  5
A2
330
1F
100
AcDbEntity
  8
외형선
  6
Continuous
370
    15
100
AcDbSpline
210
0.0
220
0.0
230
1.0
 70
    24
 71
     3
 72
    10
 73
     6
 74
     0
 42
0.000000001
 43
0.00000001
 40
0.0
 40
0.0
 40
0.0
 40
0.0
 40
0.5
 40
0.5
 40
1.0
 40
1.0
 40
1.0
 40
1.0
 10
-303.9456958121771
 20
6.457550290618372
 30
0.0
 10
-303.9456958121771
 20
5.834343559153321
 30
0.0
 10
-303.9456958121771
 20
5.293953010257099
 30
0.0
 10
-303.9456958121771
 20
4.374301495634285
 30
0.0
 10
-303.9456958121771
 20
3.994584759313953
 30
0.0
 10
-303.9456958121771
 20
3.683580821821892
 30
0.0
  0
LINE
  5
A3
330
1F
100
AcDbEntity
  8
외형선
  6
Continuous
370
    15
100
AcDbLine
 10
-303.9456958121771
 20
6.47952683931145
 30
0.0
 11
-303.9456958121771
 21
16.69567956769681
 31
0.0
  0
LINE
  5
A5
330
1F
100
AcDbEntity
  8
참조1
100
AcDbLine
 10
-10.07573868596878
 20
0.0010749287238928
 30
0.0
 11
-10.07573868596878
 21
-39.9989250712761
 31
0.0
  0
LINE
  5
A6
330
1F
100
AcDbEntity
  8
참조1
100
AcDbLine
 10
42.31176131403123
 20
0.0010749287238928
 30
0.0
 11
42.31176131403123
 21
4.274726723198792
 31
0.0
  0
LINE
  5
A7
330
1F
100
AcDbEntity
  8
참조1
100
AcDbLine
 10
-10.07573868596878
 20
-39.9989250712761
 30
0.0
 11
-33.96584550027744
 21
-39.99892507127609
 31
0.0
  0
INSERT
  5
A9
330
1F
100
AcDbEntity
  8
0
  6
Continuous
 62
     7
100
AcDbBlockReference
 66
     1
  2
블럭10
 10
-24.01601161809398
 20
-52.04609937292004
 30
0.0
  0
ATTRIB
  5
AA
330
A9
100
AcDbEntity
  8
FORMAT
 62
     2
100
AcDbText
 10
-33.19730690683527
 20
-49.97073246008785
 30
0.0
 40
4.233333333333333
  1
E1110924 [ 2 FLUTE ]
 41
0.75
  7
SLDTEXTSTYLE0
 11
-33.19730690683527
 21
-52.08739912675452
 31
0.0
100
AcDbAttribute
  2
AUTOATTR0
 70
     0
 74
     1
  0
SEQEND
  5
AB
330
A9
100
AcDbEntity
  8
0
  6
Continuous
 62
     7
  0
HATCH
  5
AC
330
1F
100
AcDbEntity
  8
중심선
100
AcDbHatch
 10
0.0
 20
0.0
 30
0.0
210
0.0
220
0.0
230
1.0
  2
SOLID
 70
     1
 71
     0
 91
        1
 92
        0
 93
        4
 72
     1
 10
-18.30110231371314
 20
-35.7989250712761
 11
-21.74737755755043
 21
-35.7989250712761
 72
     1
 10
-21.74737755755043
 20
-35.7989250712761
 11
-23.87560741675446
 21
-38.3352506518487
 72
     1
 10
-23.87560741675446
 20
-38.3352506518487
 11
-20.42929908780402
 21
-38.3352112225462
 72
     1
 10
-20.42929908780402
 20
-38.33521122254621
 11
-18.30110231371314
 21
-35.7989250712761
 97
        0
 75
     0
 76
     1
 98
        1
 10
-13.81249999999994
 20
0.0000000000000036
  0
HATCH
  5
AD
330
1F
100
AcDbEntity
  8
중심선
100
AcDbHatch
 10
0.0
 20
0.0
 30
0.0
210
0.0
220
0.0
230
1.0
  2
SOLID
 70
     1
 71
     0
 91
        1
 92
        0
 93
        4
 72
     1
 10
-13.28833832267714
 20
-35.79892507127607
 11
-16.73461356651448
 21
-35.79892507127612
 72
     1
 10
-16.73461356651448
 20
-35.79892507127613
 11
-21.26575157487186
 21
-41.19892507127612
 72
     1
 10
-21.26575157487186
 20
-41.19892507127612
 11
-17.81947633103458
 21
-41.19892507127612
 72
     1
 10
-17.81947633103458
 20
-41.19892507127612
 11
-13.28833832267714
 21
-35.79892507127608
 97
        0
 75
     0
 76
     1
 98
        1
 10
-13.81249999999994
 20
0.0000000000000036
  0
HATCH
  5
AE
330
1F
100
AcDbEntity
  8
중심선
100
AcDbHatch
 10
0.0
 20
0.0
 30
0.0
210
0.0
220
0.0
230
1.0
  2
SOLID
 70
     1
 71
     0
 91
        1
 92
        0
 93
        4
 72
     1
 10
-8.275574331641298
 20
-35.7989250712761
 11
-11.72184957547836
 21
-35.7989250712761
 72
     1
 10
-11.72184957547836
 20
-35.7989250712761
 11
-18.77028647736766
 21
-44.19892507127612
 72
     1
 10
-18.77028647736766
 20
-44.19892507127612
 11
-15.32401123353038
 21
-44.19892507127612
 72
     1
 10
-15.32401123353038
 20
-44.19892507127612
 11
-8.275574331641298
 21
-35.7989250712761
 97
        0
 75
     0
 76
     1
 98
        1
 10
-13.81249999999994
 20
0.0000000000000036
  0
HATCH
  5
AF
330
1F
100
AcDbEntity
  8
중심선
100
AcDbHatch
 10
0.0
 20
0.0
 30
0.0
210
0.0
220
0.0
230
1.0
  2
SOLID
 70
     1
 71
     0
 91
        1
 92
        0
 93
        6
 72
     3
 10
-3.475683900629104
 20
-39.99892507132738
 11
3.960054785062283
 21
1.540882976769353E-10
 40
0.3939339440162628
 50
17.09539180608437
 51
320.0019657685082
 73
     0
 72
     1
 10
-1.792684244928504
 20
-38.58681907591441
 11
0.5126176287725563
 21
-36.65249236586649
 72
     3
 10
-3.475683900681943
 20
-39.99892507127625
 11
6.600054785286829
 21
-1.278976924368180E-13
 40
0.636358354079598
 50
39.9987384933739
 51
368.4976242363725
 73
     1
 72
     1
 10
2.949648591218658
 20
-39.03892507120612
 11
-4.795616593845995
 21
-39.03892507120612
 72
     1
 10
-4.795616593845995
 20
-39.03892507120612
 11
-4.795641638291958
 21
-40.95892507120601
 72
     1
 10
-4.795641638291958
 20
-40.95892507120601
 11
-0.3542618688199237
 21
-40.95892507120598
 97
        0
 75
     0
 76
     1
 98
        1
 10
-13.81249999999994
 20
0.0000000000000036
  0
DIMENSION
  5
B0
330
1F
100
AcDbEntity
  8
치수문자_일반주서
100
AcDbDimension
  2
_D
 10
-303.9456958121771
 20
31.1971291992607
 30
0.0
 11
-285.780388072072
 21
31.1971291992607
 31
0.0
 70
   160
  1
<>
 71
     2
 42
41.27500000000003
  3
SLDDIMSTYLE1
100
AcDbAlignedDimension
 13
-262.670695812177
 23
17.46250000000005
 33
0.0
 14
-303.9456958121771
 24
16.69567956769681
 34
0.0
 50
0.0000000000000049
100
AcDbRotatedDimension
1001
ACAD
1000
DSTYLE
1002
{
1070
   171
1070
     6
1070
   273
1070
     7
1002
}
  0
DIMENSION
  5
EA
330
1F
100
AcDbEntity
  8
치수문자_일반주서
100
AcDbDimension
  2
_D_3
 10
-244.5175722047732
 20
-17.46249999999992
 30
0.0
 11
-244.5175722047734
 21
37.38950000000013
 31
0.0
 70
   160
  1
%%c<>
 71
     2
 42
34.92499999999999
 52
-270.0
  3
SLDDIMSTYLE1
100
AcDbAlignedDimension
 13
-262.670695812177
 23
17.4625
 33
0.0
 14
-262.670695812177
 24
-17.4625
 34
0.0
 50
90.0000000000002
100
AcDbRotatedDimension
1001
ACAD
1000
DSTYLE
1002
{
1070
   171
1070
     6
1070
   273
1070
     7
1002
}
  0
LINE
  5
FD
330
1F
100
AcDbEntity
  8
참조1
100
AcDbLine
 10
64.00649512937682
 20
7.4410749287239
 30
0.0
 11
64.00649512937682
 21
-7.438925071276105
 31
0.0
  0
LINE
  5
FE
330
1F
100
AcDbEntity
  8
참조1
100
AcDbLine
 10
76.70649512937682
 20
5.4410749287239
 30
0.0
 11
64.00649512937682
 21
5.4410749287239
 31
0.0
  0
SOLID
  5
FF
330
1F
100
AcDbEntity
  8
참조1
100
AcDbTrace
 10
64.00649512937682
 20
5.4410749287239
 30
0.0
 11
70.35649512937681
 21
4.4250749287239
 31
0.0
 12
70.35649512937681
 22
6.4570749287239
 32
0.0
 13
70.35649512937681
 23
6.4570749287239
 33
0.0
  0
LINE
  5
100
330
1F
100
AcDbEntity
  8
참조1
100
AcDbLine
 10
76.70649512937682
 20
-5.438925071276105
 30
0.0
 11
64.00649512937682
 21
-5.438925071276105
 31
0.0
  0
SOLID
  5
101
330
1F
100
AcDbEntity
  8
참조1
100
AcDbTrace
 10
64.00649512937682
 20
-5.438925071276105
 30
0.0
 11
70.35649512937681
 21
-6.454925071276105
 31
0.0
 12
70.35649512937681
 22
-4.422925071276105
 32
0.0
 13
70.35649512937681
 23
-4.422925071276105
 33
0.0
  0
MTEXT
  5
102
330
1F
100
AcDbEntity
  8
참조1
100
AcDbMText
 10
73.39084526200281
 20
11.01136670591222
 30
0.0
 40
3.5
 41
0.0
 71
     1
 72
     1
  1
A
  7
SLDTEXTSTYLE0
 73
     1
 44
1.0
  0
MTEXT
  5
103
330
1F
100
AcDbEntity
  8
참조1
100
AcDbMText
 10
73.39084526200281
 20
0.1313667059122227
 30
0.0
 40
3.5
 41
0.0
 71
     1
 72
     1
  1
A
  7
SLDTEXTSTYLE0
 73
     1
 44
1.0
  0
LINE
  5
1DD
330
1F
100
AcDbEntity
  8
외형선
  6
Continuous
370
    15
100
AcDbLine
 10
-366.445695812177
 20
9.525000000000006
 30
0.0
 11
-367.445695812177
 21
8.525000000000006
 31
0.0
  0
LINE
  5
1DE
330
1F
100
AcDbEntity
  8
외형선
  6
Continuous
370
    15
100
AcDbLine
 10
-367.445695812177
 20
-8.524999999999999
 30
0.0
 11
-366.445695812177
 21
-9.524999999999991
 31
0.0
  0
LINE
  5
1DF
330
1F
100
AcDbEntity
  8
외형선
  6
Continuous
370
    15
100
AcDbLine
 10
-366.445695812177
 20
9.525000000000006
 30
0.0
 11
-366.445695812177
 21
-9.524999999999991
 31
0.0
  0
LINE
  5
1E0
330
1F
100
AcDbEntity
  8
외형선
  6
Continuous
370
    15
100
AcDbLine
 10
-367.445695812177
 20
8.525000000000006
 30
0.0
 11
-367.445695812177
 21
-8.524999999999999
 31
0.0
  0
CIRCLE
  5
1E1
330
1F
100
AcDbEntity
  8
해칭선
100
AcDbCircle
 10
-305.9456958121752
 20
0.0000000000000036
 30
0.0
 40
3.000000000000003
  0
DIMENSION
  5
1E2
330
1F
100
AcDbEntity
  8
치수문자_일반주서
100
AcDbDimension
  2
*D13
 10
-367.445695812177
 20
47.10414180571031
 30
0.0
 11
-318.233195812177
 21
47.10414180571031
 31
0.0
 70
   160
  1
<>
 71
     2
 42
104.775
  3
SLDDIMSTYLE1
100
AcDbAlignedDimension
 13
-262.670695812177
 23
17.46250000000006
 33
0.0
 14
-367.445695812177
 24
8.525000000000013
 34
0.0
100
AcDbRotatedDimension
1001
ACAD
1000
DSTYLE
1002
{
1070
   171
1070
     6
1070
   273
1070
     7
1002
}
  0
DIMENSION
  5
1E3
330
1F
100
AcDbEntity
  8
치수문자_일반주서
100
AcDbDimension
  2
*D14
 10
-379.945695812177
 20
-9.525000000000041
 30
0.0
 11
-379.945695812177
 21
0.0000000000000212
 31
0.0
 70
   160
  1
%%c<>
 71
     2
 42
19.05000000000001
 52
-270.0
  3
SLDDIMSTYLE1
100
AcDbAlignedDimension
 13
-366.445695812177
 23
9.52500000000002
 33
0.0
 14
-366.445695812177
 24
-9.524999999999991
 34
0.0
 50
90.0000000000002
100
AcDbRotatedDimension
1001
ACAD
1000
DSTYLE
1002
{
1070
   171
1070
     6
1070
   273
1070
     7
1002
}
  0
INSERT
  5
1E4
330
1F
100
AcDbEntity
  8
해칭선
100
AcDbBlockReference
  2
SW_DOWELSYMBOL_0
 10
-305.9456958121752
 20
0.0000000000000036
 30
0.0
  0
LINE
  5
1E5
330
1F
100
AcDbEntity
  8
외형선
  6
Continuous
370
    15
100
AcDbLine
 10
-346.440020812177
 20
7.620000000000005
 30
0.0
 11
-334.8576208121769
 21
7.620000000000005
 31
0.0
  0
LINE
  5
1E6
330
1F
100
AcDbEntity
  8
외형선
  6
Continuous
370
    15
100
AcDbLine
 10
-346.440020812177
 20
7.61999999999999
 30
0.0
 11
-348.3450208121771
 21
9.52500000000002
 31
0.0
  0
LINE
  5
1E7
330
1F
100
AcDbEntity
  8
외형선
  6
Continuous
370
    15
100
AcDbLine
 10
-334.8576208121769
 20
7.61999999999999
 30
0.0
 11
-332.952620812177
 21
9.52500000000002
 31
0.0
  0
LINE
  5
1E8
330
1F
100
AcDbEntity
  8
외형선
  6
Continuous
370
    15
100
AcDbLine
 10
-366.445695812177
 20
9.525000000000006
 30
0.0
 11
-348.3450208121771
 21
9.525000000000006
 31
0.0
  0
LINE
  5
1E9
330
1F
100
AcDbEntity
  8
외형선
  6
Continuous
370
    15
100
AcDbLine
 10
-303.9456958121771
 20
9.525000000000022
 30
0.0
 11
-332.952620812177
 21
9.525000000000013
 31
0.0
  0
LINE
  5
1EA
330
1F
100
AcDbEntity
  8
외형선
  6
Continuous
370
    15
100
AcDbLine
 10
-366.445695812177
 20
-9.524999999999991
 30
0.0
 11
-303.945695812177
 21
-9.524999999999984
 31
0.0
  0
LINE
  5
1EB
330
1F
100
AcDbEntity
  8
중심선
100
AcDbLine
 10
-374.445695812177
 20
-0.0000000000000001
 30
0.0
 11
-255.670695812177
 21
0.0000000000000074
 31
0.0
  0
LINE
  5
2DA
330
1F
100
AcDbEntity
  8
0
  6
Continuous
 62
     1
370
    15
100
AcDbLine
 10
32.31952245383748
 20
-17.4625
 30
0.0
 11
35.81250000000006
 21
-17.4625
 31
0.0
  0
ARC
  5
2DB
330
1F
100
AcDbEntity
  8
0
  6
Continuous
 62
     1
370
    15
100
AcDbCircle
 10
35.81250000000006
 20
-0.0000000000000036
 30
0.0
 40
17.4625
100
AcDbArc
 50
270.0000000000008
 51
0.0
  0
ARC
  5
2DC
330
1F
100
AcDbEntity
  8
0
  6
Continuous
 62
     1
370
    15
100
AcDbCircle
 10
35.81250000000006
 20
-0.0000000000000036
 30
0.0
 40
17.4625
100
AcDbArc
 50
0.0
 51
90.0
  0
LINE
  5
2DD
330
1F
100
AcDbEntity
  8
0
  6
Continuous
 62
     1
370
    15
100
AcDbLine
 10
35.81250000000006
 20
17.46250000000001
 30
0.0
 11
32.31952245383751
 21
17.46250000000001
 31
0.0
  0
SPLINE
  5
2DF
330
1F
100
AcDbEntity
  8
0
  6
Continuous
 62
     1
370
    15
100
AcDbSpline
210
0.0
220
0.0
230
1.0
 70
     8
 71
     3
 72
    42
 73
    38
 74
     0
 42
0.000000001
 43
0.00000001
 40
0.0
 40
0.0
 40
0.0
 40
0.0
 40
0.1249999999999986
 40
0.1249999999999986
 40
0.1874999999999984
 40
0.1874999999999984
 40
0.2499999999999981
 40
0.2499999999999981
 40
0.3124999999999978
 40
0.3124999999999978
 40
0.3749999999999976
 40
0.3749999999999976
 40
0.4374999999999973
 40
0.4374999999999973
 40
0.4687499999999972
 40
0.4687499999999972
 40
0.499999999999997
 40
0.499999999999997
 40
0.5624999999999973
 40
0.5624999999999973
 40
0.6249999999999977
 40
0.6249999999999977
 40
0.6562499999999979
 40
0.6562499999999979
 40
0.6874999999999981
 40
0.6874999999999981
 40
0.7187499999999983
 40
0.7187499999999983
 40
0.7499999999999984
 40
0.7499999999999984
 40
0.8124999999999989
 40
0.8124999999999989
 40
0.8749999999999992
 40
0.8749999999999992
 40
0.9374999999999996
 40
0.9374999999999996
 40
1.0
 40
1.0
 40
1.0
 40
1.0
 10
35.81250000000006
 20
-7.301299020326731
 30
0.0
 10
36.7824590718126
 20
-7.809675831358025
 30
0.0
 10
37.73727890653997
 20
-8.26452500064072
 30
0.0
 10
39.16473768641846
 20
-8.841481972868497
 30
0.0
 10
39.63988529828042
 20
-9.015916268556097
 30
0.0
 10
40.59356358291869
 20
-9.320306309900001
 30
0.0
 10
41.07414086835082
 20
-9.450770569952578
 30
0.0
 10
42.02219630098993
 20
-9.653289826962595
 30
0.0
 10
42.49167438218733
 20
-9.726254569165288
 30
0.0
 10
43.42607468339123
 20
-9.80613464628065
 30
0.0
 10
43.89086456175299
 20
-9.813419682980228
 30
0.0
 10
44.82228671726993
 20
-9.744492954175069
 30
0.0
 10
45.27963124419735
 20
-9.668931835005726
 30
0.0
 10
45.95319004598012
 20
-9.483066614745052
 30
0.0
 10
46.17580154525648
 20
-9.408941627142514
 30
0.0
 10
46.61772948141807
 20
-9.233112930363685
 30
0.0
 10
46.83794449956274
 20
-9.130802016332922
 30
0.0
 10
47.48020646911588
 20
-8.78375746407691
 30
0.0
 10
47.88802028907783
 20
-8.498805801867054
 30
0.0
 10
48.66024362178523
 20
-7.792203734947702
 30
0.0
 10
49.00751541985186
 20
-7.385761263765161
 30
0.0
 10
49.46152274213064
 20
-6.686960608506784
 30
0.0
 10
49.59860777999863
 20
-6.443228691069518
 30
0.0
 10
49.84043243862133
 20
-5.942559246857396
 30
0.0
 10
49.94597354585544
 20
-5.684397330445957
 30
0.0
 10
50.12582113493703
 20
-5.15218941532347
 30
0.0
 10
50.19882257142034
 20
-4.881142787663915
 30
0.0
 10
50.30991805167876
 20
-4.342601933719035
 30
0.0
 10
50.34870306795999
 20
-4.073073046556985
 30
0.0
 10
50.41748499216818
 20
-3.263164556419962
 30
0.0
 10
50.39867719077078
 20
-2.741468193389554
 30
0.0
 10
50.25925644620877
 20
-1.731568551208323
 30
0.0
 10
50.13682159177436
 20
-1.23972156698979
 30
0.0
 10
49.81600782571211
 20
-0.3077264510259603
 30
0.0
 10
49.61706574500145
 20
0.1376518676955776
 30
0.0
 10
49.15475718239718
 20
1.002244342952348
 30
0.0
 10
48.89035753368678
 20
1.422460392966055
 30
0.0
 10
48.60016783279654
 20
1.83063423065239
 30
0.0
  0
SPLINE
  5
2E0
330
1F
100
AcDbEntity
  8
0
  6
Continuous
 62
     1
370
    15
100
AcDbSpline
210
0.0
220
0.0
230
1.0
 70
     8
 71
     3
 72
    14
 73
    10
 74
     0
 42
0.000000001
 43
0.00000001
 40
0.0
 40
0.0
 40
0.0
 40
0.0
 40
0.25
 40
0.25
 40
0.5
 40
0.5
 40
0.75
 40
0.75
 40
1.0
 40
1.0
 40
1.0
 40
1.0
 10
48.60016783279646
 20
1.830634230652418
 30
0.0
 10
48.80105617873487
 20
1.951475212564933
 30
0.0
 10
48.97999260686062
 20
2.101392747223027
 30
0.0
 10
49.29383631266124
 20
2.46102767599967
 30
0.0
 10
49.42977129876674
 20
2.674164812188859
 30
0.0
 10
49.64412933683006
 20
3.141172657326745
 30
0.0
 10
49.72432055740011
 20
3.39565073793678
 30
0.0
 10
49.83403549317005
 20
3.942330959984854
 30
0.0
 10
49.86226419254221
 20
4.230019522871221
 30
0.0
 10
49.86714062104197
 20
4.522616395523311
 30
0.0
  0
ARC
  5
2E1
330
1F
100
AcDbEntity
  8
0
  6
Continuous
 62
     1
370
    15
100
AcDbCircle
 10
44.92034485145074
 20
-3.035556666451637
 30
0.0
 40
9.033092959823321
100
AcDbArc
 50
23.84124869977956
 51
56.79540420373074
  0
ARC
  5
2E2
330
1F
100
AcDbEntity
  8
0
  6
Continuous
 62
     1
370
    15
100
AcDbCircle
 10
37.54098075819438
 20
0.3029309693997355
 30
0.0
 40
15.64477919994821
100
AcDbArc
 50
1.145362452544694
 51
71.08085203482851
  0
SPLINE
  5
2E3
330
1F
100
AcDbEntity
  8
0
  6
Continuous
 62
     1
370
    15
100
AcDbSpline
210
0.0
220
0.0
230
1.0
 70
     8
 71
     3
 72
    14
 73
    10
 74
     0
 42
0.000000001
 43
0.00000001
 40
0.0
 40
0.0
 40
0.0
 40
0.0
 40
0.25
 40
0.25
 40
0.5
 40
0.5
 40
0.75
 40
0.75
 40
1.0
 40
1.0
 40
1.0
 40
1.0
 10
42.61354348168821
 20
15.10253311375997
 30
0.0
 10
42.07318509070596
 20
15.43195067437473
 30
0.0
 10
41.52302463832636
 20
15.72654498238331
 30
0.0
 10
40.41365431557115
 20
16.24372540337105
 30
0.0
 10
39.85297501567804
 20
16.46719740748577
 30
0.0
 10
38.71891948725091
 20
16.84386674990872
 30
0.0
 10
38.14528518736351
 20
16.99701219282917
 30
0.0
 10
36.98101450120998
 20
17.22943143952292
 30
0.0
 10
36.39795772023044
 20
17.30722540367645
 30
0.0
 10
35.81250000000006
 20
17.34615379284381
 30
0.0
  0
SPLINE
  5
2E4
330
1F
100
AcDbEntity
  8
0
  6
Continuous
 62
     1
370
    15
100
AcDbSpline
210
0.0
220
0.0
230
1.0
 70
     8
 71
     3
 72
    10
 73
     6
 74
     0
 42
0.000000001
 43
0.00000001
 40
0.0
 40
0.0
 40
0.0
 40
0.0
 40
0.5
 40
0.5
 40
1.0
 40
1.0
 40
1.0
 40
1.0
 10
39.06960779701227
 20
7.817072633593948
 30
0.0
 10
40.8445398615434
 20
7.323796715834444
 30
0.0
 10
42.6345850547663
 20
6.799560110476289
 30
0.0
 10
46.24086388551494
 20
5.697437370314727
 30
0.0
 10
48.05296106131532
 20
5.120746001442267
 30
0.0
 10
49.867140621042
 20
4.522616395523283
 30
0.0
  0
SPLINE
  5
2E5
330
1F
100
AcDbEntity
  8
0
  6
Continuous
 62
     1
370
    15
100
AcDbSpline
210
0.0
220
0.0
230
1.0
 70
     8
 71
     3
 72
     8
 73
     4
 74
     0
 42
0.000000001
 43
0.00000001
 40
0.0
 40
0.0
 40
0.0
 40
0.0
 40
0.0001238107501258
 40
0.0001238107501258
 40
0.0001238107501258
 40
0.0001238107501258
 10
7.470670482537074
 20
11.87138870345402
 30
0.0
 10
7.471840170881553
 20
11.8719035825015
 30
0.0
 10
7.473009859226032
 20
11.87241846154899
 30
0.0
 10
7.474179547570539
 20
11.87293334041662
 30
0.0
  0
SPLINE
  5
2E6
330
1F
100
AcDbEntity
  8
0
  6
Continuous
 62
     1
370
    15
100
AcDbSpline
210
0.0
220
0.0
230
1.0
 70
     8
 71
     3
 72
    24
 73
    20
 74
     0
 42
0.000000001
 43
0.00000001
 40
0.0
 40
0.0
 40
0.0
 40
0.0
 40
0.125
 40
0.125
 40
0.25
 40
0.25
 40
0.375
 40
0.375
 40
0.4375
 40
0.4375
 40
0.5
 40
0.5
 40
0.625
 40
0.625
 40
0.75
 40
0.75
 40
0.875
 40
0.875
 40
1.0
 40
1.0
 40
1.0
 40
1.0
 10
42.61354348168821
 20
15.10253311375999
 30
0.0
 10
42.67551571968959
 20
14.73601932704358
 30
0.0
 10
42.71985526421086
 20
14.3669462023613
 30
0.0
 10
42.7651543303714
 20
13.62250345951731
 30
0.0
 10
42.76612051773286
 20
13.2457775648112
 30
0.0
 10
42.71195190588422
 20
12.48995045465285
 30
0.0
 10
42.6574086463625
 20
12.11835057496087
 30
0.0
 10
42.52723300572542
 20
11.57207041023597
 30
0.0
 10
42.475752296327
 20
11.39183689773803
 30
0.0
 10
42.35496877834406
 20
11.0354677327928
 30
0.0
 10
42.28561530332102
 20
10.8596471334441
 30
0.0
 10
42.05457920851522
 20
10.35148291257764
 30
0.0
 10
41.86863381316944
 20
10.03408382114194
 30
0.0
 10
41.43186337223857
 20
9.442734197931163
 30
0.0
 10
41.17940375724207
 20
9.16871223399762
 30
0.0
 10
40.63642280588481
 20
8.686861679668464
 30
0.0
 10
40.34263179513117
 20
8.474594707239373
 30
0.0
 10
39.72060359542273
 20
8.103370276253063
 30
0.0
 10
39.39922687298984
 20
7.948139048266146
 30
0.0
 10
39.06960779701227
 20
7.81707263359397
 30
0.0
  0
LINE
  5
2E7
330
1F
100
AcDbEntity
  8
중심선
100
AcDbLine
 10
-58.49999999999994
 20
-0.000000000000012
 30
0.0
 11
56.27500000000008
 21
0.0000000000000107
 31
0.0
  0
CIRCLE
  5
2E8
330
1F
100
AcDbEntity
  8
해칭선
100
AcDbCircle
 10
0.0
 20
0.0
 30
0.0
 40
3.000000000000003
  0
DIMENSION
  5
2E9
330
1F
100
AcDbEntity
  8
치수문자_일반주서
100
AcDbDimension
  2
*D20
 10
12.00000000000006
 20
29.67476939053131
 30
0.0
 11
32.63750000000007
 21
29.67476939053131
 31
0.0
 70
   160
  1
<>
 71
     2
 42
41.27500000000002
  3
SLDDIMSTYLE1
100
AcDbAlignedDimension
 13
53.27500000000008
 23
15.875
 33
0.0
 14
12.00000000000006
 24
17.46249999999999
 34
0.0
 50
0.0000000000000032
100
AcDbRotatedDimension
1001
ACAD
1000
DSTYLE
1002
{
1070
   171
1070
     6
1070
   273
1070
     7
1002
}
  0
DIMENSION
  5
2EA
330
1F
100
AcDbEntity
  8
치수문자_일반주서
100
AcDbDimension
  2
*D21
 10
-51.49999999999994
 20
45.20972730496275
 30
0.0
 11
0.8875000000000739
 21
45.20972730496275
 31
0.0
 70
   160
  1
<>
 71
     2
 42
104.775
  3
SLDDIMSTYLE1
100
AcDbAlignedDimension
 13
53.27500000000008
 23
15.875
 33
0.0
 14
-51.49999999999994
 24
8.524999999999991
 34
0.0
 50
0.0000000000000064
100
AcDbRotatedDimension
1001
ACAD
1000
DSTYLE
1002
{
1070
   171
1070
     6
1070
   273
1070
     7
1002
}
  0
INSERT
  5
2EC
330
1F
100
AcDbEntity
  8
해칭선
100
AcDbBlockReference
  2
SW_DOWELSYMBOL_0
 10
0.0
 20
0.0
 30
0.0
  0
DIMENSION
  5
2F4
102
{ACAD_XDICTIONARY
360
2F5
102
}
330
1F
100
AcDbEntity
  8
치수문자_일반주서
100
AcDbDimension
  2
*D23
 10
68.67068837038077
 20
-17.46250000000001
 30
0.0
 11
66.04568837038077
 21
-0.0000000000000107
 31
0.0
 70
    32
  1
{%%c<>[]}
 71
     5
 42
34.925
  3
SLDDIMSTYLE1
100
AcDbAlignedDimension
 13
53.27500000000006
 23
17.46249999999999
 33
0.0
 14
53.27500000000006
 24
-17.46250000000001
 34
0.0
 50
90.0
100
AcDbRotatedDimension
1001
ACAD
1000
DSTYLE
1002
{
1070
   283
1070
     1
1070
   170
1070
     1
1070
   171
1070
     6
1070
   273
1070
     7
1002
}
  0
SPLINE
  5
2F7
330
1F
100
AcDbEntity
  8
0
  6
Continuous
 62
     1
370
    15
100
AcDbSpline
210
0.0
220
0.0
230
1.0
 70
     8
 71
     3
 72
     8
 73
     4
 74
     0
 42
0.000000001
 43
0.00000001
 40
0.0
 40
0.0
 40
0.0
 40
0.0
 40
0.0020944963064214
 40
0.0020944963064214
 40
0.0020944963064214
 40
0.0020944963064214
 10
7.470670482537074
 20
-11.87138870345401
 30
0.0
 10
7.453882928768881
 20
-11.87148169692267
 30
0.0
 10
7.437095375000688
 20
-11.87157469039133
 30
0.0
 10
7.420307821247963
 20
-11.87166760627373
 30
0.0
  0
SPLINE
  5
2F8
330
1F
100
AcDbEntity
  8
0
  6
Continuous
 62
     1
370
    15
100
AcDbSpline
210
0.0
220
0.0
230
1.0
 70
     8
 71
     3
 72
     9
 73
     5
 74
     0
 42
0.000000001
 43
0.00000001
 40
0.9815287697858536
 40
0.9815287697858536
 40
0.9815287697858536
 40
0.9815287697858536
 40
0.9928919263047559
 40
0.9999999999999999
 40
0.9999999999999999
 40
0.9999999999999999
 40
0.9999999999999999
 10
31.41645101538765
 20
-17.46794585792716
 30
0.0
 10
31.60163508706299
 20
-17.46799729027946
 30
0.0
 10
31.90265869860468
 20
-17.46456484518971
 30
0.0
 10
32.20368277721583
 20
-17.45471252042431
 30
0.0
 10
32.31952245383751
 20
-17.45092116220452
 30
0.0
  0
SPLINE
  5
2FB
330
1F
100
AcDbEntity
  8
0
  6
Continuous
 62
     1
370
    15
100
AcDbSpline
210
0.0
220
0.0
230
1.0
 70
     8
 71
     3
 72
    26
 73
    22
 74
     0
 42
0.000000001
 43
0.00000001
 40
0.0
 40
0.0
 40
0.0
 40
0.0
 40
0.0624999999999997
 40
0.0624999999999997
 40
0.1249999999999994
 40
0.1249999999999994
 40
0.1874999999999991
 40
0.1874999999999991
 40
0.2499999999999987
 40
0.2499999999999987
 40
0.2812499999999987
 40
0.2812499999999987
 40
0.3124999999999987
 40
0.3124999999999987
 40
0.3749999999999987
 40
0.3749999999999987
 40
0.4062499999999988
 40
0.4062499999999988
 40
0.4374999999999989
 40
0.4374999999999989
 40
0.4545454019008492
 40
0.4545454019008492
 40
0.4545454019008492
 40
0.4545454019008492
 10
35.81250000000009
 20
-7.301299020326731
 30
0.0
 10
34.72003323319956
 20
-6.728713240984607
 30
0.0
 10
33.63305334232808
 20
-6.142834816255426
 30
0.0
 10
31.44761983615356
 20
-4.947336246675352
 30
0.0
 10
30.35492946943695
 20
-4.338738353501807
 30
0.0
 10
28.17680532216426
 20
-3.108357614954951
 30
0.0
 10
27.08152782628108
 20
-2.48471693832629
 30
0.0
 10
24.89773568663298
 20
-1.231438207783402
 30
0.0
 10
23.81026514589676
 20
-0.6020182026983356
 30
0.0
 10
22.17077277267191
 20
0.343623179515486
 30
0.0
 10
21.624038149814
 20
0.6588684943253575
 30
0.0
 10
20.53249634940842
 20
1.288037589398879
 30
0.0
 10
19.98884332794474
 20
1.601740365817928
 30
0.0
 10
18.35356465192187
 20
2.540875188273116
 30
0.0
 10
17.25809979310456
 20
3.164223853742126
 30
0.0
 10
15.62138732131611
 20
4.086931563259018
 30
0.0
 10
15.07791444745504
 20
4.392264081544976
 30
0.0
 10
13.98723530995636
 20
4.999043718101422
 30
0.0
 10
13.44069360286855
 20
5.300362900562629
 30
0.0
 10
12.59603504617644
 20
5.761806098318866
 30
0.0
 10
12.29792041475053
 20
5.923853291275983
 30
0.0
 10
12.00000000000005
 20
6.084981301829071
 30
0.0
  0
SPLINE
  5
2FD
330
1F
100
AcDbEntity
  8
0
  6
Continuous
 62
     1
370
    15
100
AcDbSpline
210
0.0
220
0.0
230
1.0
 70
     8
 71
     3
 72
    16
 73
    12
 74
     0
 42
0.000000001
 43
0.00000001
 40
0.0
 40
0.0
 40
0.0
 40
0.0
 40
0.094590181554264
 40
0.189177533994808
 40
0.2837623379927635
 40
0.3790335293044731
 40
0.4743032830472499
 40
0.5695717673529712
 40
0.6648391505628932
 40
0.7601056011999651
 40
0.7621012340685561
 40
0.7621012340685561
 40
0.7621012340685561
 40
0.7621012340685561
 10
48.60016783287334
 20
1.830634230622497
 30
0.0
 10
47.08591513779142
 20
2.41486719067866
 30
0.0
 10
44.0574550376672
 20
3.583315636868686
 30
0.0
 10
39.51484474281069
 20
5.244297990512418
 30
0.0
 10
34.96134667781121
 20
6.793905832298083
 30
0.0
 10
30.39692332743144
 20
8.192327416731128
 30
0.0
 10
25.82156439091405
 20
9.407145833119525
 30
0.0
 10
21.24627176508169
 20
10.40731099115252
 30
0.0
 10
16.67103736942965
 20
11.16881729890845
 30
0.0
 10
13.58895387912961
 20
11.51241881059516
 30
0.0
 10
12.03194682164417
 20
11.6373010295435
 30
0.0
 10
12.00000000000005
 20
11.63984296384416
 30
0.0
  0
LINE
  5
333
330
1F
100
AcDbEntity
  8
외형선
  6
Continuous
370
    15
100
AcDbLine
 10
12.00000000000006
 20
17.46249999999999
 30
0.0
 11
12.00000000000006
 21
-17.46250000000001
 31
0.0
  0
SPLINE
  5
336
330
1F
100
AcDbEntity
  8
0
  6
Continuous
 62
     1
370
    15
100
AcDbSpline
210
0.0
220
0.0
230
1.0
 70
     8
 71
     3
 72
     8
 73
     4
 74
     0
 42
0.000000001
 43
0.00000001
 40
0.8767494282730273
 40
0.8767494282730273
 40
0.8767494282730273
 40
0.8767494282730273
 40
0.9999999999999999
 40
0.9999999999999999
 40
0.9999999999999999
 40
0.9999999999999999
 10
32.31952245383763
 20
17.46027630700719
 30
0.0
 10
33.48384613076841
 20
17.45209359495799
 30
0.0
 10
34.64817306538423
 20
17.3991236939009
 30
0.0
 10
35.81250000000006
 20
17.34615379284381
 30
0.0
  0
LINE
  5
338
330
1F
100
AcDbEntity
  8
외형선
  6
Continuous
370
    15
100
AcDbLine
 10
12.0
 20
16.6956795676968
 30
0.0
 11
12.0
 21
17.46249999999998
 31
0.0
  0
LINE
  5
339
330
1F
100
AcDbEntity
  8
외형선
  6
Continuous
370
    15
100
AcDbLine
 10
12.0
 20
-17.46250000000002
 30
0.0
 11
12.0
 21
-11.166002753608
 31
0.0
  0
SPLINE
  5
33A
330
1F
100
AcDbEntity
  8
외형선
  6
Continuous
370
    15
100
AcDbSpline
210
0.0
220
0.0
230
1.0
 70
    24
 71
     3
 72
    22
 73
    18
 74
     0
 42
0.000000001
 43
0.00000001
 40
0.0
 40
0.0
 40
0.0
 40
0.0
 40
0.125
 40
0.125
 40
0.25
 40
0.25
 40
0.375
 40
0.375
 40
0.5
 40
0.5
 40
0.625
 40
0.625
 40
0.75
 40
0.75
 40
0.875
 40
0.875
 40
1.0
 40
1.0
 40
1.0
 40
1.0
 10
12.00000000000006
 20
3.683580821821876
 30
0.0
 10
12.00000000000006
 20
3.250845497333141
 30
0.0
 10
12.00000000000006
 20
2.777987060129184
 30
0.0
 10
12.00000000000006
 20
1.750212068751541
 30
0.0
 10
12.00000000000006
 20
1.195187455059401
 30
0.0
 10
12.00000000000006
 20
0.0090641463506235
 30
0.0
 10
12.00000000000006
 20
-0.6221170252747602
 30
0.0
 10
12.00000000000006
 20
-1.94355621238297
 30
0.0
 10
12.00000000000006
 20
-2.63381663276011
 30
0.0
 10
12.00000000000006
 20
-4.043909503604606
 30
0.0
 10
12.00000000000006
 20
-4.76361626800394
 30
0.0
 10
12.00000000000006
 20
-6.192280985673579
 30
0.0
 10
12.00000000000006
 20
-6.900985756465489
 30
0.0
 10
12.00000000000006
 20
-8.262265825313237
 30
0.0
 10
12.00000000000006
 20
-8.91453620810792
 30
0.0
 10
12.00000000000006
 20
-10.12124296577507
 30
0.0
 10
12.00000000000006
 20
-10.67544444859011
 30
0.0
 10
12.00000000000006
 20
-11.1660027536072
 30
0.0
  0
SPLINE
  5
33B
330
1F
100
AcDbEntity
  8
외형선
  6
Continuous
370
    15
100
AcDbSpline
210
0.0
220
0.0
230
1.0
 70
    24
 71
     3
 72
    10
 73
     6
 74
     0
 42
0.000000001
 43
0.00000001
 40
0.0
 40
0.0
 40
0.0
 40
0.0
 40
0.5
 40
0.5
 40
1.0
 40
1.0
 40
1.0
 40
1.0
 10
12.0
 20
6.457550290618358
 30
0.0
 10
12.0
 20
5.834343559153307
 30
0.0
 10
12.0
 20
5.293953010257085
 30
0.0
 10
12.0
 20
4.374301495634271
 30
0.0
 10
12.0
 20
3.994584759313939
 30
0.0
 10
12.0
 20
3.683580821821877
 30
0.0
  0
LINE
  5
33C
330
1F
100
AcDbEntity
  8
외형선
  6
Continuous
370
    15
100
AcDbLine
 10
12.0
 20
6.479526839311436
 30
0.0
 11
12.0
 21
16.6956795676968
 31
0.0
  0
LINE
  5
33D
330
1F
100
AcDbEntity
  8
외형선
  6
Continuous
370
    15
100
AcDbLine
 10
-50.49999999999994
 20
9.524999999999991
 30
0.0
 11
-51.49999999999994
 21
8.524999999999991
 31
0.0
  0
LINE
  5
33E
330
1F
100
AcDbEntity
  8
외형선
  6
Continuous
370
    15
100
AcDbLine
 10
-51.49999999999994
 20
-8.525000000000013
 30
0.0
 11
-50.49999999999994
 21
-9.525000000000006
 31
0.0
  0
LINE
  5
33F
330
1F
100
AcDbEntity
  8
외형선
  6
Continuous
370
    15
100
AcDbLine
 10
-50.49999999999994
 20
9.524999999999991
 30
0.0
 11
-50.49999999999994
 21
-9.525000000000006
 31
0.0
  0
LINE
  5
340
330
1F
100
AcDbEntity
  8
외형선
  6
Continuous
370
    15
100
AcDbLine
 10
-51.49999999999994
 20
8.524999999999991
 30
0.0
 11
-51.49999999999994
 21
-8.525000000000013
 31
0.0
  0
DIMENSION
  5
342
330
1F
100
AcDbEntity
  8
치수문자_일반주서
100
AcDbDimension
  2
*D24
 10
-63.99999999999991
 20
-9.525000000000055
 30
0.0
 11
-63.99999999999994
 21
0.0000000000000069
 31
0.0
 70
   160
  1
%%c<>
 71
     2
 42
19.05000000000001
 52
-270.0
  3
SLDDIMSTYLE1
100
AcDbAlignedDimension
 13
-50.49999999999994
 23
9.525000000000006
 33
0.0
 14
-50.49999999999994
 24
-9.525000000000006
 34
0.0
 50
90.0000000000002
100
AcDbRotatedDimension
1001
ACAD
1000
DSTYLE
1002
{
1070
   171
1070
     6
1070
   273
1070
     7
1002
}
  0
LINE
  5
344
330
1F
100
AcDbEntity
  8
외형선
  6
Continuous
370
    15
100
AcDbLine
 10
-30.49432499999989
 20
7.61999999999999
 30
0.0
 11
-18.91192499999988
 21
7.61999999999999
 31
0.0
  0
LINE
  5
345
330
1F
100
AcDbEntity
  8
외형선
  6
Continuous
370
    15
100
AcDbLine
 10
-30.49432499999989
 20
7.619999999999976
 30
0.0
 11
-32.39932500000003
 21
9.525000000000006
 31
0.0
  0
LINE
  5
346
330
1F
100
AcDbEntity
  8
외형선
  6
Continuous
370
    15
100
AcDbLine
 10
-18.91192499999988
 20
7.619999999999976
 30
0.0
 11
-17.00692499999991
 21
9.525000000000006
 31
0.0
  0
LINE
  5
347
330
1F
100
AcDbEntity
  8
외형선
  6
Continuous
370
    15
100
AcDbLine
 10
-50.49999999999994
 20
9.524999999999991
 30
0.0
 11
-32.39932500000003
 21
9.524999999999991
 31
0.0
  0
LINE
  5
348
330
1F
100
AcDbEntity
  8
외형선
  6
Continuous
370
    15
100
AcDbLine
 10
12.0
 20
9.525000000000007
 30
0.0
 11
-17.00692499999997
 21
9.524999999999999
 31
0.0
  0
LINE
  5
349
330
1F
100
AcDbEntity
  8
외형선
  6
Continuous
370
    15
100
AcDbLine
 10
-50.49999999999994
 20
-9.525000000000006
 30
0.0
 11
12.00000000000006
 21
-9.524999999999999
 31
0.0
  0
LINE
  5
358
330
1F
100
AcDbEntity
  8
0
  6
Continuous
 62
     1
370
    15
100
AcDbLine
 10
12.00000000000006
 20
17.52499999999999
 30
0.0
 11
32.31952245383751
 21
17.46250000000001
 31
0.0
  0
LINE
  5
35A
330
1F
100
AcDbEntity
  8
0
  6
Continuous
 62
     1
370
    15
100
AcDbLine
 10
12.00000000000006
 20
-17.46250000000001
 30
0.0
 11
31.41645101538616
 21
-17.46794585792715
 31
0.0
  0
ENDSEC
  0
SECTION
  2
OBJECTS
  0
DICTIONARY
  5
C
330
0
100
AcDbDictionary
281
     1
  3
ACAD_GROUP
350
D
  3
ACAD_IMAGE_VARS
350
12E
  3
ACAD_LAYOUT
350
1A
  3
ACAD_MLINESTYLE
350
17
  3
ACAD_PLOTSETTINGS
350
19
  3
ACAD_PLOTSTYLENAME
350
E
  3
ACAD_SCALELIST
350
47
  3
APPDATA
350
12C
  3
DWGPROPS
350
35D
  0
DICTIONARY
  5
1AF
330
2
100
AcDbDictionary
280
     1
281
     1
  3
ACAD_LAYERSTATES
360
1B0
  0
DICTIONARY
  5
2F5
330
2F4
100
AcDbDictionary
280
     1
281
     1
  0
DICTIONARY
  5
D
102
{ACAD_REACTORS
330
C
102
}
330
C
100
AcDbDictionary
281
     1
  0
RASTERVARIABLES
  5
12E
102
{ACAD_REACTORS
330
C
102
}
330
C
100
AcDbRasterVariables
 90
        0
 70
     1
 71
     1
 72
     1
  0
DICTIONARY
  5
1A
102
{ACAD_REACTORS
330
C
102
}
330
C
100
AcDbDictionary
281
     1
  3
Layout1
350
1E
  3
Layout2
350
26
  3
Model
350
22
  0
DICTIONARY
  5
17
102
{ACAD_REACTORS
330
C
102
}
330
C
100
AcDbDictionary
281
     1
  3
Standard
350
18
  0
DICTIONARY
  5
19
102
{ACAD_REACTORS
330
C
102
}
330
C
100
AcDbDictionary
281
     1
  0
ACDBDICTIONARYWDFLT
  5
E
102
{ACAD_REACTORS
330
C
102
}
330
C
100
AcDbDictionary
281
     1
  3
Normal
350
F
100
AcDbDictionaryWithDefault
340
F
  0
DICTIONARY
  5
47
102
{ACAD_REACTORS
330
C
102
}
330
C
100
AcDbDictionary
281
     1
  3
A0
350
48
  3
A1
350
49
  3
A2
350
4A
  3
A3
350
4B
  3
A4
350
4C
  3
A5
350
4D
  3
A6
350
4E
  3
A7
350
4F
  3
A8
350
50
  3
A9
350
51
  3
B0
350
52
  3
B1
350
53
  3
B2
350
54
  3
B3
350
55
  3
B4
350
56
  3
B5
350
57
  3
B6
350
58
  3
B7
350
59
  3
B8
350
5A
  3
B9
350
5B
  3
C0
350
5C
  3
C1
350
5D
  3
C2
350
5E
  3
C3
350
5F
  3
C4
350
60
  3
C5
350
61
  3
C6
350
62
  3
C7
350
63
  3
C8
350
64
  3
C9
350
65
  3
D0
350
66
  3
D1
350
67
  3
D2
350
68
  0
DICTIONARY
  5
12C
102
{ACAD_REACTORS
330
C
102
}
330
C
100
AcDbDictionary
281
     1
  0
XRECORD
  5
35D
102
{ACAD_REACTORS
330
C
102
}
330
C
100
AcDbXrecord
280
     1
  1
DWGPROPS COOKIE
  2

  3

  4

  6

  7

  8
12016016
  9

300
=
301
=
302
=
303
=
304
=
305
=
306
=
307
=
308
=
309
=
 40
0.0
 41
2458316.209724745
 42
2458320.344227477
  1

 90
        0
  0
DICTIONARY
  5
1B0
102
{ACAD_REACTORS
330
1AF
102
}
330
1AF
100
AcDbDictionary
281
     1
  0
LAYOUT
  5
1E
102
{ACAD_REACTORS
330
1A
102
}
330
1A
100
AcDbPlotSettings
  1

  2
none_device
  4

  6

 40
0.0
 41
0.0
 42
0.0
 43
0.0
 44
0.0
 45
0.0
 46
0.0
 47
0.0
 48
0.0
 49
0.0
140
0.0
141
0.0
142
1.0
143
1.0
 70
   688
 72
     1
 73
     0
 74
     5
  7

 75
    16
147
1.0
148
0.0
149
0.0
100
AcDbLayout
  1
Layout1
 70
     1
 71
     1
 10
0.0
 20
0.0
 11
420.0
 21
297.0
 12
0.0
 22
0.0
 32
0.0
 14
1.000000000000000E+20
 24
1.000000000000000E+20
 34
1.000000000000000E+20
 15
-1.000000000000000E+20
 25
-1.000000000000000E+20
 35
-1.000000000000000E+20
146
0.0
 13
0.0
 23
0.0
 33
0.0
 16
1.0
 26
0.0
 36
0.0
 17
0.0
 27
1.0
 37
0.0
 76
     0
330
1B
  0
LAYOUT
  5
26
102
{ACAD_REACTORS
330
1A
102
}
330
1A
100
AcDbPlotSettings
  1

  2
none_device
  4

  6

 40
0.0
 41
0.0
 42
0.0
 43
0.0
 44
0.0
 45
0.0
 46
0.0
 47
0.0
 48
0.0
 49
0.0
140
0.0
141
0.0
142
1.0
143
1.0
 70
   688
 72
     1
 73
     0
 74
     5
  7

 75
    16
147
1.0
148
0.0
149
0.0
100
AcDbLayout
  1
Layout2
 70
     1
 71
     2
 10
0.0
 20
0.0
 11
0.0
 21
0.0
 12
0.0
 22
0.0
 32
0.0
 14
0.0
 24
0.0
 34
0.0
 15
0.0
 25
0.0
 35
0.0
146
0.0
 13
0.0
 23
0.0
 33
0.0
 16
1.0
 26
0.0
 36
0.0
 17
0.0
 27
1.0
 37
0.0
 76
     0
330
23
  0
LAYOUT
  5
22
102
{ACAD_REACTORS
330
1A
102
}
330
1A
100
AcDbPlotSettings
  1

  2
none_device
  4
ANSI_A_(11.00_x_8.50_Inches)
  6

 40
6.35
 41
19.05
 42
6.35000508
 43
19.05000254
 44
279.4
 45
215.9
 46
122.5562457509402
 47
40.9679447514707
 48
0.0
 49
0.0
140
0.0
141
0.0
142
0.0457542160978703
143
1.0
 70
  1696
 72
     0
 73
     0
 74
     0
  7

 75
     0
147
0.0235690232323232
148
0.0
149
0.0
100
AcDbLayout
  1
Model
 70
     1
 71
     0
 10
0.0
 20
0.0
 11
420.0
 21
297.0
 12
0.0
 22
0.0
 32
0.0
 14
1.000000000000000E+20
 24
1.000000000000000E+20
 34
1.000000000000000E+20
 15
-1.000000000000000E+20
 25
-1.000000000000000E+20
 35
-1.000000000000000E+20
146
0.0
 13
0.0
 23
0.0
 33
0.0
 16
1.0
 26
0.0
 36
0.0
 17
0.0
 27
1.0
 37
0.0
 76
     0
330
1F
331
29
  0
MLINESTYLE
  5
18
102
{ACAD_REACTORS
330
17
102
}
330
17
100
AcDbMlineStyle
  2
Standard
 70
     0
  3

 62
   256
 51
90.0
 52
90.0
 71
     2
 49
0.5
 62
   256
  6
BYLAYER
 49
-0.5
 62
   256
  6
BYLAYER
  0
ACDBPLACEHOLDER
  5
F
102
{ACAD_REACTORS
330
E
102
}
330
E
  0
SCALE
  5
48
102
{ACAD_REACTORS
330
47
102
}
330
47
100
AcDbScale
 70
     0
300
1:1
140
1.0
141
1.0
290
     1
  0
SCALE
  5
49
102
{ACAD_REACTORS
330
47
102
}
330
47
100
AcDbScale
 70
     0
300
1:2
140
1.0
141
2.0
290
     0
  0
SCALE
  5
4A
102
{ACAD_REACTORS
330
47
102
}
330
47
100
AcDbScale
 70
     0
300
1:4
140
1.0
141
4.0
290
     0
  0
SCALE
  5
4B
102
{ACAD_REACTORS
330
47
102
}
330
47
100
AcDbScale
 70
     0
300
1:5
140
1.0
141
5.0
290
     0
  0
SCALE
  5
4C
102
{ACAD_REACTORS
330
47
102
}
330
47
100
AcDbScale
 70
     0
300
1:8
140
1.0
141
8.0
290
     0
  0
SCALE
  5
4D
102
{ACAD_REACTORS
330
47
102
}
330
47
100
AcDbScale
 70
     0
300
1:10
140
1.0
141
10.0
290
     0
  0
SCALE
  5
4E
102
{ACAD_REACTORS
330
47
102
}
330
47
100
AcDbScale
 70
     0
300
1:16
140
1.0
141
16.0
290
     0
  0
SCALE
  5
4F
102
{ACAD_REACTORS
330
47
102
}
330
47
100
AcDbScale
 70
     0
300
1:20
140
1.0
141
20.0
290
     0
  0
SCALE
  5
50
102
{ACAD_REACTORS
330
47
102
}
330
47
100
AcDbScale
 70
     0
300
1:30
140
1.0
141
30.0
290
     0
  0
SCALE
  5
51
102
{ACAD_REACTORS
330
47
102
}
330
47
100
AcDbScale
 70
     0
300
1:40
140
1.0
141
40.0
290
     0
  0
SCALE
  5
52
102
{ACAD_REACTORS
330
47
102
}
330
47
100
AcDbScale
 70
     0
300
1:50
140
1.0
141
50.0
290
     0
  0
SCALE
  5
53
102
{ACAD_REACTORS
330
47
102
}
330
47
100
AcDbScale
 70
     0
300
1:100
140
1.0
141
100.0
290
     0
  0
SCALE
  5
54
102
{ACAD_REACTORS
330
47
102
}
330
47
100
AcDbScale
 70
     0
300
2:1
140
2.0
141
1.0
290
     0
  0
SCALE
  5
55
102
{ACAD_REACTORS
330
47
102
}
330
47
100
AcDbScale
 70
     0
300
4:1
140
4.0
141
1.0
290
     0
  0
SCALE
  5
56
102
{ACAD_REACTORS
330
47
102
}
330
47
100
AcDbScale
 70
     0
300
8:1
140
8.0
141
1.0
290
     0
  0
SCALE
  5
57
102
{ACAD_REACTORS
330
47
102
}
330
47
100
AcDbScale
 70
     0
300
10:1
140
10.0
141
1.0
290
     0
  0
SCALE
  5
58
102
{ACAD_REACTORS
330
47
102
}
330
47
100
AcDbScale
 70
     0
300
100:1
140
100.0
141
1.0
290
     0
  0
SCALE
  5
59
102
{ACAD_REACTORS
330
47
102
}
330
47
100
AcDbScale
 70
     0
300
1/128" = 1'-0"
140
0.0078125
141
12.0
290
     0
  0
SCALE
  5
5A
102
{ACAD_REACTORS
330
47
102
}
330
47
100
AcDbScale
 70
     0
300
1/64" = 1'-0"
140
0.015625
141
12.0
290
     0
  0
SCALE
  5
5B
102
{ACAD_REACTORS
330
47
102
}
330
47
100
AcDbScale
 70
     0
300
1/32" = 1'-0"
140
0.03125
141
12.0
290
     0
  0
SCALE
  5
5C
102
{ACAD_REACTORS
330
47
102
}
330
47
100
AcDbScale
 70
     0
300
1/16" = 1'-0"
140
0.0625
141
12.0
290
     0
  0
SCALE
  5
5D
102
{ACAD_REACTORS
330
47
102
}
330
47
100
AcDbScale
 70
     0
300
3/32" = 1'-0"
140
0.09375
141
12.0
290
     0
  0
SCALE
  5
5E
102
{ACAD_REACTORS
330
47
102
}
330
47
100
AcDbScale
 70
     0
300
1/8" = 1'-0"
140
0.125
141
12.0
290
     0
  0
SCALE
  5
5F
102
{ACAD_REACTORS
330
47
102
}
330
47
100
AcDbScale
 70
     0
300
3/16" = 1'-0"
140
0.1875
141
12.0
290
     0
  0
SCALE
  5
60
102
{ACAD_REACTORS
330
47
102
}
330
47
100
AcDbScale
 70
     0
300
1/4" = 1'-0"
140
0.25
141
12.0
290
     0
  0
SCALE
  5
61
102
{ACAD_REACTORS
330
47
102
}
330
47
100
AcDbScale
 70
     0
300
3/8" = 1'-0"
140
0.375
141
12.0
290
     0
  0
SCALE
  5
62
102
{ACAD_REACTORS
330
47
102
}
330
47
100
AcDbScale
 70
     0
300
1/2" = 1'-0"
140
0.5
141
12.0
290
     0
  0
SCALE
  5
63
102
{ACAD_REACTORS
330
47
102
}
330
47
100
AcDbScale
 70
     0
300
3/4" = 1'-0"
140
0.75
141
12.0
290
     0
  0
SCALE
  5
64
102
{ACAD_REACTORS
330
47
102
}
330
47
100
AcDbScale
 70
     0
300
1" = 1'-0"
140
1.0
141
12.0
290
     0
  0
SCALE
  5
65
102
{ACAD_REACTORS
330
47
102
}
330
47
100
AcDbScale
 70
     0
300
1-1/2" = 1'-0"
140
1.5
141
12.0
290
     0
  0
SCALE
  5
66
102
{ACAD_REACTORS
330
47
102
}
330
47
100
AcDbScale
 70
     0
300
3" = 1'-0"
140
3.0
141
12.0
290
     0
  0
SCALE
  5
67
102
{ACAD_REACTORS
330
47
102
}
330
47
100
AcDbScale
 70
     0
300
6" = 1'-0"
140
6.0
141
12.0
290
     0
  0
SCALE
  5
68
102
{ACAD_REACTORS
330
47
102
}
330
47
100
AcDbScale
 70
     0
300
1'-0" = 1'-0"
140
12.0
141
12.0
290
     0
  0
ENDSEC
  0
EOF
