  0
SECTION
  2
HEADER
  9
$ACADVER
  1
AC1015
  9
$ACADMAINTVER
 70
     6
  9
$DWGCODEPAGE
  3
ANSI_949
  9
$INSBASE
 10
0.0
 20
0.0
 30
0.0
  9
$EXTMIN
 10
-100.125
 20
-49.97073246008785
 30
0.0
  9
$EXTMAX
 10
152.2003333333336
 20
82.95572736996918
 30
0.0
  9
$LIMMIN
 10
0.0
 20
0.0
  9
$LIMMAX
 10
420.0
 20
297.0
  9
$ORTHOMODE
 70
     0
  9
$REGENMODE
 70
     1
  9
$FILLMODE
 70
     1
  9
$QTEXTMODE
 70
     0
  9
$MIRRTEXT
 70
     1
  9
$LTSCALE
 40
1.0
  9
$ATTMODE
 70
     1
  9
$TEXTSIZE
 40
3.5
  9
$TRACEWID
 40
1.0
  9
$TEXTSTYLE
  7
Standard
  9
$CLAYER
  8
0
  9
$CELTYPE
  6
ByLayer
  9
$CECOLOR
 62
   256
  9
$CELTSCALE
 40
1.0
  9
$DISPSILH
 70
     0
  9
$DIMSCALE
 40
1.0
  9
$DIMASZ
 40
3.302
  9
$DIMEXO
 40
1.0
  9
$DIMDLI
 40
3.75
  9
$DIMRND
 40
0.0
  9
$DIMDLE
 40
0.0
  9
$DIMEXE
 40
1.0
  9
$DIMTP
 40
0.0
  9
$DIMTM
 40
0.0
  9
$DIMTXT
 40
3.5
  9
$DIMCEN
 40
2.5
  9
$DIMTSZ
 40
0.0
  9
$DIMTOL
 70
     0
  9
$DIMLIM
 70
     0
  9
$DIMTIH
 70
     1
  9
$DIMTOH
 70
     1
  9
$DIMSE1
 70
     0
  9
$DIMSE2
 70
     0
  9
$DIMTAD
 70
     1
  9
$DIMZIN
 70
     0
  9
$DIMBLK
  1

  9
$DIMASO
 70
     1
  9
$DIMSHO
 70
     1
  9
$DIMPOST
  1

  9
$DIMAPOST
  1

  9
$DIMALT
 70
     0
  9
$DIMALTD
 70
     3
  9
$DIMALTF
 40
0.0393700787401575
  9
$DIMLFAC
 40
1.0
  9
$DIMTOFL
 70
     1
  9
$DIMTVP
 40
0.0
  9
$DIMTIX
 70
     0
  9
$DIMSOXD
 70
     0
  9
$DIMSAH
 70
     0
  9
$DIMBLK1
  1

  9
$DIMBLK2
  1

  9
$DIMSTYLE
  2
ISO-25
  9
$DIMCLRD
 70
     0
  9
$DIMCLRE
 70
     0
  9
$DIMCLRT
 70
     0
  9
$DIMTFAC
 40
1.0
  9
$DIMGAP
 40
1.524
  9
$DIMJUST
 70
     0
  9
$DIMSD1
 70
     0
  9
$DIMSD2
 70
     0
  9
$DIMTOLJ
 70
     0
  9
$DIMTZIN
 70
     0
  9
$DIMALTZ
 70
     0
  9
$DIMALTTZ
 70
     0
  9
$DIMUPT
 70
     0
  9
$DIMDEC
 70
     2
  9
$DIMTDEC
 70
     2
  9
$DIMALTU
 70
     2
  9
$DIMALTTD
 70
     3
  9
$DIMTXSTY
  7
Standard
  9
$DIMAUNIT
 70
     0
  9
$DIMADEC
 70
     2
  9
$DIMALTRND
 40
0.0
  9
$DIMAZIN
 70
     0
  9
$DIMDSEP
 70
    44
  9
$DIMATFIT
 70
     3
  9
$DIMFRAC
 70
     0
  9
$DIMLDRBLK
  1

  9
$DIMLUNIT
 70
     2
  9
$DIMLWD
 70
    -2
  9
$DIMLWE
 70
    -2
  9
$DIMTMOVE
 70
     0
  9
$LUNITS
 70
     2
  9
$LUPREC
 70
     2
  9
$SKETCHINC
 40
1.0
  9
$FILLETRAD
 40
10.0
  9
$AUNITS
 70
     0
  9
$AUPREC
 70
     2
  9
$MENU
  1
.
  9
$ELEVATION
 40
0.0
  9
$PELEVATION
 40
0.0
  9
$THICKNESS
 40
0.0
  9
$LIMCHECK
 70
     0
  9
$CHAMFERA
 40
0.0
  9
$CHAMFERB
 40
0.0
  9
$CHAMFERC
 40
0.0
  9
$CHAMFERD
 40
0.0
  9
$SKPOLY
 70
     0
  9
$TDCREATE
 40
2458323.439203356
  9
$TDUCREATE
 40
2458323.064203356
  9
$TDUPDATE
 40
2458323.694535879
  9
$TDUUPDATE
 40
2458323.319535879
  9
$TDINDWG
 40
0.0008581019
  9
$TDUSRTIMER
 40
2458323.319335578
  9
$USRTIMER
 70
     1
  9
$ANGBASE
 50
0.0
  9
$ANGDIR
 70
     0
  9
$PDMODE
 70
     0
  9
$PDSIZE
 40
-1.0
  9
$PLINEWID
 40
0.0
  9
$SPLFRAME
 70
     0
  9
$SPLINETYPE
 70
     6
  9
$SPLINESEGS
 70
     8
  9
$HANDSEED
  5
5B5
  9
$SURFTAB1
 70
     6
  9
$SURFTAB2
 70
     6
  9
$SURFTYPE
 70
     6
  9
$SURFU
 70
     6
  9
$SURFV
 70
     6
  9
$UCSBASE
  2

  9
$UCSNAME
  2

  9
$UCSORG
 10
0.0
 20
0.0
 30
0.0
  9
$UCSXDIR
 10
1.0
 20
0.0
 30
0.0
  9
$UCSYDIR
 10
0.0
 20
1.0
 30
0.0
  9
$UCSORTHOREF
  2

  9
$UCSORTHOVIEW
 70
     0
  9
$UCSORGTOP
 10
0.0
 20
0.0
 30
0.0
  9
$UCSORGBOTTOM
 10
0.0
 20
0.0
 30
0.0
  9
$UCSORGLEFT
 10
0.0
 20
0.0
 30
0.0
  9
$UCSORGRIGHT
 10
0.0
 20
0.0
 30
0.0
  9
$UCSORGFRONT
 10
0.0
 20
0.0
 30
0.0
  9
$UCSORGBACK
 10
0.0
 20
0.0
 30
0.0
  9
$PUCSBASE
  2

  9
$PUCSNAME
  2

  9
$PUCSORG
 10
0.0
 20
0.0
 30
0.0
  9
$PUCSXDIR
 10
1.0
 20
0.0
 30
0.0
  9
$PUCSYDIR
 10
0.0
 20
1.0
 30
0.0
  9
$PUCSORTHOREF
  2

  9
$PUCSORTHOVIEW
 70
     0
  9
$PUCSORGTOP
 10
0.0
 20
0.0
 30
0.0
  9
$PUCSORGBOTTOM
 10
0.0
 20
0.0
 30
0.0
  9
$PUCSORGLEFT
 10
0.0
 20
0.0
 30
0.0
  9
$PUCSORGRIGHT
 10
0.0
 20
0.0
 30
0.0
  9
$PUCSORGFRONT
 10
0.0
 20
0.0
 30
0.0
  9
$PUCSORGBACK
 10
0.0
 20
0.0
 30
0.0
  9
$USERI1
 70
     0
  9
$USERI2
 70
     0
  9
$USERI3
 70
     0
  9
$USERI4
 70
     0
  9
$USERI5
 70
     0
  9
$USERR1
 40
0.0
  9
$USERR2
 40
0.0
  9
$USERR3
 40
0.0
  9
$USERR4
 40
0.0
  9
$USERR5
 40
0.0
  9
$WORLDVIEW
 70
     1
  9
$SHADEDGE
 70
     3
  9
$SHADEDIF
 70
    70
  9
$TILEMODE
 70
     1
  9
$MAXACTVP
 70
    64
  9
$PINSBASE
 10
0.0
 20
0.0
 30
0.0
  9
$PLIMCHECK
 70
     0
  9
$PEXTMIN
 10
1.000000000000000E+20
 20
1.000000000000000E+20
 30
1.000000000000000E+20
  9
$PEXTMAX
 10
-1.000000000000000E+20
 20
-1.000000000000000E+20
 30
-1.000000000000000E+20
  9
$PLIMMIN
 10
0.0
 20
0.0
  9
$PLIMMAX
 10
0.0
 20
0.0
  9
$UNITMODE
 70
     0
  9
$VISRETAIN
 70
     1
  9
$PLINEGEN
 70
     0
  9
$PSLTSCALE
 70
     1
  9
$TREEDEPTH
 70
  3020
  9
$CMLSTYLE
  2
Standard
  9
$CMLJUST
 70
     0
  9
$CMLSCALE
 40
20.0
  9
$PROXYGRAPHICS
 70
     1
  9
$MEASUREMENT
 70
     1
  9
$CELWEIGHT
370
    -1
  9
$ENDCAPS
280
     0
  9
$JOINSTYLE
280
     0
  9
$LWDISPLAY
290
     1
  9
$INSUNITS
 70
     4
  9
$HYPERLINKBASE
  1

  9
$STYLESHEET
  1

  9
$XEDIT
290
     1
  9
$CEPSNTYPE
380
     0
  9
$PSTYLEMODE
290
     1
  9
$FINGERPRINTGUID
  2
{A1E20F6F-D252-4E14-B5E9-28BEDD110771}
  9
$VERSIONGUID
  2
{FAEB1C32-E019-11D5-929B-00C0DF256EC4}
  9
$EXTNAMES
290
     1
  9
$PSVPSCALE
 40
0.0
  9
$OLESTARTUP
290
     0
  0
ENDSEC
  0
SECTION
  2
CLASSES
  0
CLASS
  1
ACDBDICTIONARYWDFLT
  2
AcDbDictionaryWithDefault
  3
ObjectDBX Classes
 90
        0
280
     0
281
     0
  0
CLASS
  1
VISUALSTYLE
  2
AcDbVisualStyle
  3
ObjectDBX Classes
 90
     4095
280
     0
281
     0
  0
CLASS
  1
MATERIAL
  2
AcDbMaterial
  3
ObjectDBX Classes
 90
     1153
280
     0
281
     0
  0
CLASS
  1
SCALE
  2
AcDbScale
  3
ObjectDBX Classes
 90
     1153
280
     0
281
     0
  0
CLASS
  1
SUN
  2
AcDbSun
  3
SCENEOE
 90
     1153
280
     0
281
     0
  0
CLASS
  1
ACDBPLACEHOLDER
  2
AcDbPlaceHolder
  3
ObjectDBX Classes
 90
        0
280
     0
281
     0
  0
CLASS
  1
LAYOUT
  2
AcDbLayout
  3
ObjectDBX Classes
 90
        0
280
     0
281
     0
  0
CLASS
  1
TABLESTYLE
  2
AcDbTableStyle
  3
ObjectDBX Classes
 90
     4095
280
     0
281
     0
  0
CLASS
  1
MLEADERSTYLE
  2
AcDbMLeaderStyle
  3
ACDB_MLEADERSTYLE_CLASS
 90
     4095
280
     0
281
     0
  0
CLASS
  1
RASTERVARIABLES
  2
AcDbRasterVariables
  3
ISM
 90
        0
280
     0
281
     0
  0
ENDSEC
  0
SECTION
  2
TABLES
  0
TABLE
  2
VPORT
  5
8
330
0
100
AcDbSymbolTable
 70
     1
  0
VPORT
  5
29
330
8
100
AcDbSymbolTableRecord
100
AcDbViewportTableRecord
  2
*Active
 70
     0
 10
0.0
 20
0.0
 11
1.0
 21
1.0
 12
33.7545979130623
 22
33.32878914888254
 13
0.0
 23
0.0
 14
10.0
 24
10.0
 15
10.0
 25
10.0
 16
0.0
 26
0.0
 36
1.0
 17
0.0
 27
0.0
 37
0.0
 40
200.1450284143221
 41
1.632093933463797
 42
50.0
 43
0.0
 44
0.0
 50
0.0
 51
0.0
 71
    16
 72
  2000
 73
     1
 74
     3
 75
     0
 76
     0
 77
     0
 78
     0
281
     0
 65
     1
110
0.0
120
0.0
130
0.0
111
1.0
121
0.0
131
0.0
112
0.0
122
1.0
132
0.0
 79
     0
146
0.0
  0
ENDTAB
  0
TABLE
  2
LTYPE
  5
5
330
0
100
AcDbSymbolTable
 70
     6
  0
LTYPE
  5
14
330
5
100
AcDbSymbolTableRecord
100
AcDbLinetypeTableRecord
  2
ByBlock
 70
     0
  3

 72
    65
 73
     0
 40
0.0
  0
LTYPE
  5
15
330
5
100
AcDbSymbolTableRecord
100
AcDbLinetypeTableRecord
  2
ByLayer
 70
     0
  3

 72
    65
 73
     0
 40
0.0
  0
LTYPE
  5
16
330
5
100
AcDbSymbolTableRecord
100
AcDbLinetypeTableRecord
  2
Continuous
 70
     0
  3
Solid line
 72
    65
 73
     0
 40
0.0
  0
LTYPE
  5
6A
330
5
100
AcDbSymbolTableRecord
100
AcDbLinetypeTableRecord
  2
HIDDEN
 70
     0
  3
Hidden __ __ __ __ __ __ __ __ __ __ __ __ __ __
 72
    65
 73
     2
 40
1.905
 49
1.27
 74
     0
 49
-0.635
 74
     0
  0
LTYPE
  5
6B
330
5
100
AcDbSymbolTableRecord
100
AcDbLinetypeTableRecord
  2
PHANTOM
 70
     0
  3
Phantom ______  __  __  ______  __  __  ______
 72
    65
 73
     6
 40
12.7
 49
6.35
 74
     0
 49
-1.27
 74
     0
 49
1.27
 74
     0
 49
-1.27
 74
     0
 49
1.27
 74
     0
 49
-1.27
 74
     0
  0
LTYPE
  5
6C
330
5
100
AcDbSymbolTableRecord
100
AcDbLinetypeTableRecord
  2
CENTER
 70
     0
  3
Center ____ _ ____ _ ____ _ ____ _ ____ _ ____
 72
    65
 73
     4
 40
10.16
 49
6.35
 74
     0
 49
-1.27
 74
     0
 49
1.27
 74
     0
 49
-1.27
 74
     0
  0
LTYPE
  5
6D
330
5
100
AcDbSymbolTableRecord
100
AcDbLinetypeTableRecord
  2
CENTERX2
 70
     0
  3
Center (2x) ________  __  ________  __  _____
 72
    65
 73
     4
 40
20.32
 49
12.7
 74
     0
 49
-2.54
 74
     0
 49
2.54
 74
     0
 49
-2.54
 74
     0
  0
LTYPE
  5
6E
330
5
100
AcDbSymbolTableRecord
100
AcDbLinetypeTableRecord
  2
DOT2
 70
     0
  3
Dot (.5x) ........................................
 72
    65
 73
     2
 40
0.635
 49
0.0
 74
     0
 49
-0.635
 74
     0
  0
ENDTAB
  0
TABLE
  2
LAYER
  5
2
330
0
100
AcDbSymbolTable
 70
    18
  0
LAYER
  5
10
330
2
100
AcDbSymbolTableRecord
100
AcDbLayerTableRecord
  2
0
 70
     0
 62
     7
  6
Continuous
370
    -3
390
F
  0
LAYER
  5
6F
330
2
100
AcDbSymbolTableRecord
100
AcDbLayerTableRecord
  2
FORMAT
 70
     0
 62
     2
  6
Continuous
370
    -3
390
F
  0
LAYER
  5
70
330
2
100
AcDbSymbolTableRecord
100
AcDbLayerTableRecord
  2
외형선
 70
     0
 62
     4
  6
Continuous
370
    30
390
F
  0
LAYER
  5
71
330
2
100
AcDbSymbolTableRecord
100
AcDbLayerTableRecord
  2
숨은선
 70
     0
 62
     2
  6
HIDDEN
370
    15
390
F
  0
LAYER
  5
72
330
2
100
AcDbSymbolTableRecord
100
AcDbLayerTableRecord
  2
중심선
 70
     0
 62
     1
  6
CENTERX2
370
    -3
390
F
  0
LAYER
  5
73
330
2
100
AcDbSymbolTableRecord
100
AcDbLayerTableRecord
  2
파단선
 70
     0
 62
     4
  6
Continuous
370
    -3
390
F
  0
LAYER
  5
74
330
2
100
AcDbSymbolTableRecord
100
AcDbLayerTableRecord
  2
해칭선
 70
     0
 62
   100
  6
Continuous
370
    -3
390
F
  0
LAYER
  5
75
330
2
100
AcDbSymbolTableRecord
100
AcDbLayerTableRecord
  2
가는실선
 70
     0
 62
     4
  6
Continuous
370
    -3
390
F
  0
LAYER
  5
76
330
2
100
AcDbSymbolTableRecord
100
AcDbLayerTableRecord
  2
치수_보조선
 70
     0
 62
     4
  6
Continuous
370
    -3
390
F
  0
LAYER
  5
77
330
2
100
AcDbSymbolTableRecord
100
AcDbLayerTableRecord
  2
치수문자_일반주서
 70
     0
 62
     7
  6
Continuous
370
    15
390
F
  0
LAYER
  5
78
330
2
100
AcDbSymbolTableRecord
100
AcDbLayerTableRecord
  2
개별주서
 70
     0
 62
   100
  6
Continuous
370
    30
390
F
  0
LAYER
  5
79
330
2
100
AcDbSymbolTableRecord
100
AcDbLayerTableRecord
  2
중간선
 70
     0
 62
     2
  6
Continuous
370
    15
390
F
  0
LAYER
  5
7A
330
2
100
AcDbSymbolTableRecord
100
AcDbLayerTableRecord
  2
윤곽선
 70
     0
 62
     3
  6
Continuous
370
    40
390
F
  0
LAYER
  5
7B
330
2
100
AcDbSymbolTableRecord
100
AcDbLayerTableRecord
  2
중심마크
 70
     0
 62
   100
  6
Continuous
370
    30
390
F
  0
LAYER
  5
7C
330
2
100
AcDbSymbolTableRecord
100
AcDbLayerTableRecord
  2
가상선
 70
     0
 62
     4
  6
PHANTOM
370
    -3
390
F
  0
LAYER
  5
7D
330
2
100
AcDbSymbolTableRecord
100
AcDbLayerTableRecord
  2
특수지정선
 70
     0
 62
     5
  6
CENTERX2
370
    60
390
F
  0
LAYER
  5
7E
330
2
100
AcDbSymbolTableRecord
100
AcDbLayerTableRecord
  2
참조1
 70
     0
 62
    -4
  6
Continuous
370
    -3
390
F
  0
LAYER
  5
161
330
2
100
AcDbSymbolTableRecord
100
AcDbLayerTableRecord
  2
Defpoints
 70
     0
 62
     7
  6
Continuous
290
     0
370
    -3
390
F
  0
ENDTAB
  0
TABLE
  2
STYLE
  5
3
330
0
100
AcDbSymbolTable
 70
     2
  0
STYLE
  5
11
330
3
100
AcDbSymbolTableRecord
100
AcDbTextStyleTableRecord
  2
Standard
 70
     0
 40
0.0
 41
1.0
 50
0.0
 71
     0
 42
3.5
  3
txt
  4

  0
STYLE
  5
94
330
3
100
AcDbSymbolTableRecord
100
AcDbTextStyleTableRecord
  2
SLDTEXTSTYLE0
 70
     0
 40
0.0
 41
0.75
 50
0.0
 71
     0
 42
3.5
  3
TXT
  4

  0
ENDTAB
  0
TABLE
  2
VIEW
  5
6
330
0
100
AcDbSymbolTable
 70
     0
  0
ENDTAB
  0
TABLE
  2
UCS
  5
7
330
0
100
AcDbSymbolTable
 70
     0
  0
ENDTAB
  0
TABLE
  2
APPID
  5
9
330
0
100
AcDbSymbolTable
 70
     1
  0
APPID
  5
12
330
9
100
AcDbSymbolTableRecord
100
AcDbRegAppTableRecord
  2
ACAD
 70
     0
  0
ENDTAB
  0
TABLE
  2
DIMSTYLE
  5
A
330
0
100
AcDbSymbolTable
 70
     3
100
AcDbDimStyleTable
  0
DIMSTYLE
105
27
330
A
100
AcDbSymbolTableRecord
100
AcDbDimStyleTableRecord
  2
ISO-25
 70
     0
 41
2.5
 42
0.625
 43
3.75
 44
1.25
 73
     0
 74
     0
 77
     1
 78
     8
140
2.5
141
2.5
143
0.03937007874016
147
0.625
171
     3
172
     1
178
     0
271
     2
272
     2
274
     3
278
    44
283
     0
284
     8
340
11
  0
DIMSTYLE
105
E2
102
{ACAD_REACTORS
330
11B
330
542
330
F4
330
108
102
}
330
A
100
AcDbSymbolTableRecord
100
AcDbDimStyleTableRecord
  2
SLDDIMSTYLE0
 70
     0
 41
3.302
 44
0.0
 45
0.000000001
 73
     0
 74
     0
 77
     1
 78
     4
 79
     1
140
3.5
143
0.0393700787401575
147
0.875
148
0.000000001
170
     1
173
     1
178
     0
271
     2
272
     2
276
     2
284
    12
340
94
  0
DIMSTYLE
105
F5
330
A
100
AcDbSymbolTableRecord
100
AcDbDimStyleTableRecord
  2
SLDDIMSTYLE1
 70
     0
 41
3.302
 44
0.0
 45
0.000000001
 73
     0
 74
     0
 77
     1
 78
    12
 79
     3
140
3.5
143
0.0393700787401575
147
0.875
148
0.000000001
170
     1
173
     1
178
     0
271
     2
272
     2
276
     2
284
    12
340
94
  0
ENDTAB
  0
TABLE
  2
BLOCK_RECORD
  5
1
330
0
100
AcDbSymbolTable
 70
    15
  0
BLOCK_RECORD
  5
1F
330
1
100
AcDbSymbolTableRecord
100
AcDbBlockTableRecord
  2
*Model_Space
340
22
  0
BLOCK_RECORD
  5
1B
330
1
100
AcDbSymbolTableRecord
100
AcDbBlockTableRecord
  2
*Paper_Space
340
1E
  0
BLOCK_RECORD
  5
23
330
1
100
AcDbSymbolTableRecord
100
AcDbBlockTableRecord
  2
*Paper_Space0
340
26
  0
BLOCK_RECORD
  5
7F
330
1
100
AcDbSymbolTableRecord
100
AcDbBlockTableRecord
  2
블럭10
340
0
102
{BLKREFS
331
DA
102
}
  0
BLOCK_RECORD
  5
E3
330
1
100
AcDbSymbolTableRecord
100
AcDbBlockTableRecord
  2
_D
340
0
  0
BLOCK_RECORD
  5
F6
330
1
100
AcDbSymbolTableRecord
100
AcDbBlockTableRecord
  2
_D_1
340
0
  0
BLOCK_RECORD
  5
109
330
1
100
AcDbSymbolTableRecord
100
AcDbBlockTableRecord
  2
_D_2
340
0
  0
BLOCK_RECORD
  5
11C
330
1
100
AcDbSymbolTableRecord
100
AcDbBlockTableRecord
  2
_D_3
340
0
  0
BLOCK_RECORD
  5
135
330
1
100
AcDbSymbolTableRecord
100
AcDbBlockTableRecord
  2
SW_DOWELSYMBOL_0
340
0
102
{BLKREFS
331
13B
102
}
  0
BLOCK_RECORD
  5
4B0
330
1
100
AcDbSymbolTableRecord
100
AcDbBlockTableRecord
  2
*D7
340
0
  0
BLOCK_RECORD
  5
4D8
330
1
100
AcDbSymbolTableRecord
100
AcDbBlockTableRecord
  2
*D8
340
0
  0
BLOCK_RECORD
  5
4E4
330
1
100
AcDbSymbolTableRecord
100
AcDbBlockTableRecord
  2
*D9
340
0
  0
BLOCK_RECORD
  5
4F0
330
1
100
AcDbSymbolTableRecord
100
AcDbBlockTableRecord
  2
*D10
340
0
  0
BLOCK_RECORD
  5
55D
330
1
100
AcDbSymbolTableRecord
100
AcDbBlockTableRecord
  2
*D11
340
0
  0
BLOCK_RECORD
  5
569
330
1
100
AcDbSymbolTableRecord
100
AcDbBlockTableRecord
  2
*D12
340
0
  0
BLOCK_RECORD
  5
575
330
1
100
AcDbSymbolTableRecord
100
AcDbBlockTableRecord
  2
*D13
340
0
  0
BLOCK_RECORD
  5
582
330
1
100
AcDbSymbolTableRecord
100
AcDbBlockTableRecord
  2
*D14
340
0
  0
ENDTAB
  0
ENDSEC
  0
SECTION
  2
BLOCKS
  0
BLOCK
  5
20
330
1F
100
AcDbEntity
  8
0
100
AcDbBlockBegin
  2
*Model_Space
 70
     0
 10
0.0
 20
0.0
 30
0.0
  3
*Model_Space
  1
*Model_Space
  0
ENDBLK
  5
21
330
1F
100
AcDbEntity
  8
0
100
AcDbBlockEnd
  0
BLOCK
  5
1C
330
1B
100
AcDbEntity
 67
     1
  8
0
100
AcDbBlockBegin
  2
*Paper_Space
 70
     0
 10
0.0
 20
0.0
 30
0.0
  3
*Paper_Space
  1
*Paper_Space
  0
ENDBLK
  5
1D
330
1B
100
AcDbEntity
 67
     1
  8
0
100
AcDbBlockEnd
  0
BLOCK
  5
24
330
23
100
AcDbEntity
  8
0
100
AcDbBlockBegin
  2
*Paper_Space0
 70
     0
 10
0.0
 20
0.0
 30
0.0
  3
*Paper_Space0
  1
*Paper_Space0
  0
ENDBLK
  5
25
330
23
100
AcDbEntity
  8
0
100
AcDbBlockEnd
  0
BLOCK
  5
80
330
7F
100
AcDbEntity
  8
0
100
AcDbBlockBegin
  2
블럭10
 70
     2
 10
0.0
 20
0.0
 30
0.0
  3
블럭10
  1
블럭10
  0
ELLIPSE
  5
82
330
7F
100
AcDbEntity
  8
중심선
100
AcDbEllipse
 10
20.54032771741204
 20
12.0471743016438
 30
0.0
 11
6.600054785286829
 21
-1.261213355974178E-13
 31
0.0
210
0.0
220
0.0
230
1.0
 40
0.636358354079598
 41
0.9219305317359503
 42
6.513795318482858
  0
ELLIPSE
  5
83
330
7F
100
AcDbEntity
  8
중심선
100
AcDbEllipse
 10
20.54032771746488
 20
12.04717430159265
 30
0.0
 11
3.960054785062283
 21
1.540847449632565E-10
 31
0.0
210
0.0
220
0.0
230
1.0
 40
0.3939339440162632
 41
1.131841032648279
 42
5.62031148352944
  0
LINE
  5
84
330
7F
100
AcDbEntity
  8
중심선
100
AcDbLine
 10
2.268634060543552
 20
16.24717430164393
 30
0.0
 11
5.714909304380834
 21
16.24717430164393
 31
0.0
  0
LINE
  5
85
330
7F
100
AcDbEntity
  8
중심선
100
AcDbLine
 10
5.245725140726316
 20
7.84717430164391
 30
0.0
 11
8.692000384563599
 21
7.84717430164391
 31
0.0
  0
LINE
  5
86
330
7F
100
AcDbEntity
  8
중심선
100
AcDbLine
 10
15.74043728645272
 20
16.24717430164393
 30
0.0
 11
8.692000384563599
 21
7.84717430164391
 31
0.0
  0
LINE
  5
87
330
7F
100
AcDbEntity
  8
중심선
100
AcDbLine
 10
0.1404042013395286
 20
13.71084872107135
 30
0.0
 11
3.58671253028996
 21
13.71088815037384
 31
0.0
  0
LINE
  5
88
330
7F
100
AcDbEntity
  8
중심선
100
AcDbLine
 10
2.750260043222114
 20
10.84717430164391
 30
0.0
 11
6.196535287059397
 21
10.84717430164391
 31
0.0
  0
LINE
  5
89
330
7F
100
AcDbEntity
  8
중심선
100
AcDbLine
 10
12.29416204261559
 20
16.24717430164393
 30
0.0
 11
5.245725140726316
 21
7.84717430164391
 31
0.0
  0
LINE
  5
8A
330
7F
100
AcDbEntity
  8
중심선
100
AcDbLine
 10
10.72767329541681
 20
16.24717430164393
 30
0.0
 11
6.196535287059397
 21
10.84717430164391
 31
0.0
  0
LINE
  5
8B
330
7F
100
AcDbEntity
  8
중심선
100
AcDbLine
 10
7.28139805157953
 20
16.24717430164393
 30
0.0
 11
2.750260043222114
 21
10.84717430164391
 31
0.0
  0
LINE
  5
8C
330
7F
100
AcDbEntity
  8
중심선
100
AcDbLine
 10
5.714909304380834
 20
16.24717430164393
 30
0.0
 11
3.58671253028996
 21
13.71088815037384
 31
0.0
  0
LINE
  5
8D
330
7F
100
AcDbEntity
  8
중심선
100
AcDbLine
 10
2.268634060543552
 20
16.24717430164393
 30
0.0
 11
0.1404042013395286
 21
13.71084872107135
 31
0.0
  0
LINE
  5
8E
330
7F
100
AcDbEntity
  8
중심선
100
AcDbLine
 10
7.28139805157953
 20
16.24717430164393
 30
0.0
 11
10.72767329541681
 21
16.24717430164393
 31
0.0
  0
LINE
  5
8F
330
7F
100
AcDbEntity
  8
중심선
100
AcDbLine
 10
12.29416204261559
 20
16.24717430164393
 30
0.0
 11
15.74043728645272
 21
16.24717430164393
 31
0.0
  0
LINE
  5
90
330
7F
100
AcDbEntity
  8
중심선
100
AcDbLine
 10
19.22036997980202
 20
11.08717430171403
 30
0.0
 11
23.66174974927406
 21
11.08717430171406
 31
0.0
  0
LINE
  5
91
330
7F
100
AcDbEntity
  8
중심선
100
AcDbLine
 10
19.22039502424796
 20
13.00717430171391
 30
0.0
 11
19.22036997980202
 21
11.08717430171403
 31
0.0
  0
LINE
  5
92
330
7F
100
AcDbEntity
  8
중심선
100
AcDbLine
 10
19.22039502424796
 20
13.00717430171391
 30
0.0
 11
26.96566020931264
 21
13.00717430171391
 31
0.0
  0
LINE
  5
93
330
7F
100
AcDbEntity
  8
중심선
100
AcDbLine
 10
22.22332737316547
 20
13.45928029700563
 30
0.0
 11
24.52862924686651
 21
15.39360700705356
 31
0.0
  0
ATTDEF
  5
95
330
7F
100
AcDbEntity
  8
FORMAT
 62
     2
100
AcDbText
 10
4.408487351596664
 20
2.075366912832191
 30
0.0
 40
4.233333333333333
  1
E1100202
 41
0.75
  7
SLDTEXTSTYLE0
 11
4.408487351596664
 21
-0.0412997538344756
 31
0.0
100
AcDbAttributeDefinition
  3

  2
AUTOATTR0
 70
     0
 74
     1
  0
ENDBLK
  5
81
330
7F
100
AcDbEntity
  8
0
100
AcDbBlockEnd
  0
BLOCK
  5
E4
330
E3
100
AcDbEntity
  8
0
100
AcDbBlockBegin
  2
_D
 70
     0
 10
0.0
 20
0.0
 30
0.0
  3
_D
  1
_D
  0
SOLID
  5
E6
330
E3
100
AcDbEntity
  8
치수문자_일반주서
100
AcDbTrace
 10
-51.48249999999997
 20
25.4010749287239
 30
0.0
 11
-51.99049999999998
 21
22.0990749287239
 31
0.0
 12
-50.97449999999997
 22
22.0990749287239
 32
0.0
 13
-50.97449999999997
 23
22.0990749287239
 33
0.0
  0
SOLID
  5
E7
330
E3
100
AcDbEntity
  8
치수문자_일반주서
100
AcDbTrace
 10
-51.48249999999997
 20
-25.39892507127611
 30
0.0
 11
-50.97449999999997
 21
-22.09692507127611
 31
0.0
 12
-51.99049999999998
 22
-22.09692507127611
 32
0.0
 13
-51.99049999999998
 23
-22.09692507127611
 33
0.0
  0
LINE
  5
E8
330
E3
100
AcDbEntity
  8
치수문자_일반주서
100
AcDbLine
 10
-62.2753817160427
 20
-5.413291502344814
 30
0.0
 11
-62.27538171604269
 21
-6.124228987909314
 31
0.0
  0
LINE
  5
E9
330
E3
100
AcDbEntity
  8
치수문자_일반주서
100
AcDbLine
 10
-62.27538171604269
 20
-6.124228987909314
 30
0.0
 11
-56.71913172498339
 21
-6.124228987909275
 31
0.0
  0
LINE
  5
EA
330
E3
100
AcDbEntity
  8
치수문자_일반주서
100
AcDbLine
 10
-56.71913172498339
 20
-6.124228987909275
 30
0.0
 11
-56.7191317249834
 21
-5.413291502344775
 31
0.0
  0
LINE
  5
EB
330
E3
100
AcDbEntity
  8
치수문자_일반주서
100
AcDbLine
 10
-62.27538171604277
 20
5.415441359792444
 30
0.0
 11
-62.27538171604278
 21
6.126378845356944
 31
0.0
  0
LINE
  5
EC
330
E3
100
AcDbEntity
  8
치수문자_일반주서
100
AcDbLine
 10
-62.27538171604278
 20
6.126378845356944
 30
0.0
 11
-56.71913172498348
 21
6.126378845356983
 31
0.0
  0
LINE
  5
ED
330
E3
100
AcDbEntity
  8
치수문자_일반주서
100
AcDbLine
 10
-56.71913172498348
 20
6.126378845356983
 30
0.0
 11
-56.71913172498347
 21
5.415441359792483
 31
0.0
  0
LINE
  5
EE
330
E3
100
AcDbEntity
  8
치수문자_일반주서
100
AcDbLine
 10
-37.89499999999996
 20
25.4010749287239
 30
0.0
 11
-52.48249999999997
 21
25.4010749287239
 31
0.0
  0
LINE
  5
EF
330
E3
100
AcDbEntity
  8
치수문자_일반주서
100
AcDbLine
 10
-37.89499999999996
 20
-25.39892507127611
 30
0.0
 11
-52.48249999999997
 21
-25.39892507127611
 31
0.0
  0
LINE
  5
F0
330
E3
100
AcDbEntity
  8
치수문자_일반주서
100
AcDbLine
 10
-51.48249999999997
 20
25.4010749287239
 30
0.0
 11
-51.48249999999997
 21
-25.39892507127611
 31
0.0
  0
MTEXT
  5
F1
330
E3
100
AcDbEntity
  8
치수문자_일반주서
100
AcDbMText
 10
-61.2308686395623
 20
-4.524619601733436
 30
0.0
 40
3.5
 41
0.0
 71
     1
 72
     1
  1
2.00
  7
SLDTEXTSTYLE0
 11
-7.044195017643634E-15
 21
1.0
 31
0.0
 73
     1
 44
1.0
  0
MTEXT
  5
F2
330
E3
100
AcDbEntity
  8
치수문자_일반주서
100
AcDbMText
 10
-55.99423708920179
 20
-8.456894014097168
 30
0.0
 40
3.5
 41
0.0
 71
     1
 72
     1
  1
%%c
  7
SLDTEXTSTYLE0
 11
-7.044195017643634E-15
 21
1.0
 31
0.0
 73
     1
 44
1.0
  0
MTEXT
  5
F3
330
E3
100
AcDbEntity
  8
치수문자_일반주서
100
AcDbMText
 10
-55.99423708920182
 20
-3.178456615723087
 30
0.0
 40
3.5
 41
0.0
 71
     1
 72
     1
  1
50.80
  7
SLDTEXTSTYLE0
 11
-7.044195017643634E-15
 21
1.0
 31
0.0
 73
     1
 44
1.0
  0
ENDBLK
  5
E5
330
E3
100
AcDbEntity
  8
0
100
AcDbBlockEnd
  0
BLOCK
  5
F7
330
F6
100
AcDbEntity
  8
0
100
AcDbBlockBegin
  2
_D_1
 70
     0
 10
0.0
 20
0.0
 30
0.0
  3
_D_1
  1
_D_1
  0
LINE
  5
F9
330
F6
100
AcDbEntity
  8
치수문자_일반주서
 62
     0
370
    -2
100
AcDbLine
 10
139.0
 20
25.46357492872389
 30
0.0
 11
139.0
 21
47.75570626228482
 31
0.0
  0
LINE
  5
FA
330
F6
100
AcDbEntity
  8
치수문자_일반주서
 62
     0
370
    -2
100
AcDbLine
 10
12.00000000000003
 20
25.2954091109789
 30
0.0
 11
12.00000000000003
 21
47.75570626228482
 31
0.0
  0
LINE
  5
FB
330
F6
100
AcDbEntity
  8
치수문자_일반주서
 62
     0
370
    -2
100
AcDbLine
 10
135.698
 20
47.75570626228482
 30
0.0
 11
15.30200000000003
 21
47.75570626228482
 31
0.0
  0
SOLID
  5
FC
330
F6
100
AcDbEntity
  8
치수문자_일반주서
 62
     0
100
AcDbTrace
 10
135.698
 20
47.20537292895148
 30
0.0
 11
135.698
 21
48.30603959561815
 31
0.0
 12
139.0
 22
47.75570626228482
 32
0.0
 13
139.0
 23
47.75570626228482
 33
0.0
  0
SOLID
  5
FD
330
F6
100
AcDbEntity
  8
치수문자_일반주서
 62
     0
100
AcDbTrace
 10
15.30200000000003
 20
48.30603959561815
 30
0.0
 11
15.30200000000003
 21
47.20537292895148
 31
0.0
 12
12.00000000000003
 22
47.75570626228482
 32
0.0
 13
12.00000000000003
 23
47.75570626228482
 33
0.0
  0
MTEXT
  5
FE
330
F6
100
AcDbEntity
  8
치수문자_일반주서
 62
     0
100
AcDbMText
 10
75.50000000000001
 20
52.13070626228482
 30
0.0
 40
3.5
 41
0.0
 71
     2
 72
     1
  1
\A1;127.00 [5]
  7
SLDTEXTSTYLE0
 73
     1
 44
1.0
  0
POINT
  5
FF
330
F6
100
AcDbEntity
  8
Defpoints
 62
     0
100
AcDbPoint
 10
139.0
 20
25.40107492872389
 30
0.0
  0
POINT
  5
100
330
F6
100
AcDbEntity
  8
Defpoints
 62
     0
100
AcDbPoint
 10
12.00000000000003
 20
25.2329091109789
 30
0.0
  0
POINT
  5
101
330
F6
100
AcDbEntity
  8
Defpoints
 62
     0
100
AcDbPoint
 10
12.00000000000003
 20
47.75570626228482
 30
0.0
  0
ENDBLK
  5
F8
330
F6
100
AcDbEntity
  8
0
100
AcDbBlockEnd
  0
BLOCK
  5
10A
330
109
100
AcDbEntity
  8
0
100
AcDbBlockBegin
  2
_D_2
 70
     0
 10
0.0
 20
0.0
 30
0.0
  3
_D_2
  1
_D_2
  0
LINE
  5
10C
330
109
100
AcDbEntity
  8
치수문자_일반주서
 62
     0
370
    -2
100
AcDbLine
 10
139.0
 20
25.46357492872389
 30
0.0
 11
139.0
 21
59.75570626228484
 31
0.0
  0
LINE
  5
10D
330
109
100
AcDbEntity
  8
치수문자_일반주서
 62
     0
370
    -2
100
AcDbLine
 10
-83.25
 20
20.38357492872391
 30
0.0
 11
-83.25
 21
59.75570626228484
 31
0.0
  0
LINE
  5
10E
330
109
100
AcDbEntity
  8
치수문자_일반주서
 62
     0
370
    -2
100
AcDbLine
 10
135.698
 20
59.75570626228484
 30
0.0
 11
-79.948
 21
59.75570626228484
 31
0.0
  0
SOLID
  5
10F
330
109
100
AcDbEntity
  8
치수문자_일반주서
 62
     0
100
AcDbTrace
 10
135.698
 20
59.2053729289515
 30
0.0
 11
135.698
 21
60.30603959561817
 31
0.0
 12
139.0
 22
59.75570626228484
 32
0.0
 13
139.0
 23
59.75570626228484
 33
0.0
  0
SOLID
  5
110
330
109
100
AcDbEntity
  8
치수문자_일반주서
 62
     0
100
AcDbTrace
 10
-79.948
 20
60.30603959561817
 30
0.0
 11
-79.948
 21
59.2053729289515
 31
0.0
 12
-83.25
 22
59.75570626228484
 32
0.0
 13
-83.25
 23
59.75570626228484
 33
0.0
  0
MTEXT
  5
111
330
109
100
AcDbEntity
  8
치수문자_일반주서
 62
     0
100
AcDbMText
 10
27.87500000000001
 20
64.13070626228483
 30
0.0
 40
3.5
 41
0.0
 71
     2
 72
     1
  1
\A1;222.25 [8 3/4]
  7
SLDTEXTSTYLE0
 73
     1
 44
1.0
  0
POINT
  5
112
330
109
100
AcDbEntity
  8
Defpoints
 62
     0
100
AcDbPoint
 10
139.0
 20
25.40107492872389
 30
0.0
  0
POINT
  5
113
330
109
100
AcDbEntity
  8
Defpoints
 62
     0
100
AcDbPoint
 10
-83.25
 20
20.32107492872391
 30
0.0
  0
POINT
  5
114
330
109
100
AcDbEntity
  8
Defpoints
 62
     0
100
AcDbPoint
 10
-83.25
 20
59.75570626228484
 30
0.0
  0
ENDBLK
  5
10B
330
109
100
AcDbEntity
  8
0
100
AcDbBlockEnd
  0
BLOCK
  5
11D
330
11C
100
AcDbEntity
  8
0
100
AcDbBlockBegin
  2
_D_3
 70
     0
 10
0.0
 20
0.0
 30
0.0
  3
_D_3
  1
_D_3
  0
LINE
  5
11F
330
11C
100
AcDbEntity
  8
치수문자_일반주서
 62
     0
370
    -2
100
AcDbLine
 10
139.0625
 20
25.40107492872389
 30
0.0
 11
151.6500000000001
 21
25.40107492872394
 31
0.0
  0
LINE
  5
120
330
11C
100
AcDbEntity
  8
치수문자_일반주서
 62
     0
370
    -2
100
AcDbLine
 10
139.0625
 20
-25.39892507127611
 30
0.0
 11
151.6500000000003
 21
-25.39892507127607
 31
0.0
  0
LINE
  5
121
330
11C
100
AcDbEntity
  8
치수문자_일반주서
 62
     0
370
    -2
100
AcDbLine
 10
151.6500000000001
 20
25.40107492872394
 30
0.0
 11
151.6499999999999
 21
82.95572736996918
 31
0.0
  0
LINE
  5
122
330
11C
100
AcDbEntity
  8
치수문자_일반주서
 62
     0
370
    -2
100
AcDbLine
 10
151.6500000000001
 20
22.09907492872394
 30
0.0
 11
151.6500000000003
 21
-22.09692507127607
 31
0.0
  0
SOLID
  5
123
330
11C
100
AcDbEntity
  8
치수문자_일반주서
 62
     0
100
AcDbTrace
 10
152.2003333333334
 20
22.09907492872395
 30
0.0
 11
151.0996666666668
 21
22.09907492872394
 31
0.0
 12
151.6500000000001
 22
25.40107492872394
 32
0.0
 13
151.6500000000001
 23
25.40107492872394
 33
0.0
  0
SOLID
  5
124
330
11C
100
AcDbEntity
  8
치수문자_일반주서
 62
     0
100
AcDbTrace
 10
151.0996666666669
 20
-22.09692507127607
 30
0.0
 11
152.2003333333336
 21
-22.09692507127606
 31
0.0
 12
151.6500000000003
 22
-25.39892507127607
 32
0.0
 13
151.6500000000003
 23
-25.39892507127607
 33
0.0
  0
MTEXT
  5
125
330
11C
100
AcDbEntity
  8
치수문자_일반주서
 62
     0
100
AcDbMText
 10
147.2749999999999
 20
71.58072736996917
 30
0.0
 40
3.5
 41
0.0
 71
     2
 72
     1
  1
\A1;%%c50.80 [2]
  7
SLDTEXTSTYLE0
 11
-3.356894814614646E-15
 21
1.0
 31
0.0
 73
     1
 44
1.0
  0
POINT
  5
126
330
11C
100
AcDbEntity
  8
Defpoints
 62
     0
100
AcDbPoint
 10
139.0
 20
25.40107492872389
 30
0.0
  0
POINT
  5
127
330
11C
100
AcDbEntity
  8
Defpoints
 62
     0
100
AcDbPoint
 10
139.0
 20
-25.39892507127611
 30
0.0
  0
POINT
  5
128
330
11C
100
AcDbEntity
  8
Defpoints
 62
     0
100
AcDbPoint
 10
151.6500000000003
 20
-25.39892507127606
 30
0.0
  0
ENDBLK
  5
11E
330
11C
100
AcDbEntity
  8
0
100
AcDbBlockEnd
  0
BLOCK
  5
136
330
135
100
AcDbEntity
  8
0
100
AcDbBlockBegin
  2
SW_DOWELSYMBOL_0
 70
     0
 10
0.0
 20
0.0
 30
0.0
  3
SW_DOWELSYMBOL_0
  1
SW_DOWELSYMBOL_0
  0
CIRCLE
  5
138
330
135
100
AcDbEntity
  8
해칭선
 62
     0
100
AcDbCircle
 10
0.0
 20
0.0
 30
0.0
 40
3.000000000000001
  0
HATCH
  5
139
330
135
100
AcDbEntity
  8
0
  6
Continuous
 62
     0
370
     0
100
AcDbHatch
 10
0.0
 20
0.0
 30
0.0
210
0.0
220
0.0
230
1.0
  2
SOLID
 70
     1
 71
     0
 91
        1
 92
        0
 93
        3
 72
     2
 10
0.0
 20
0.0
 40
3.000000000000001
 50
0.0
 51
90.0
 73
     1
 72
     1
 10
0.0
 20
3.000000000000001
 11
0.0
 21
0.0
 72
     1
 10
0.0
 20
0.0
 11
3.000000000000003
 21
0.0
 97
        0
 75
     0
 76
     1
 98
        1
 10
0.0
 20
0.0
  0
HATCH
  5
13A
330
135
100
AcDbEntity
  8
0
  6
Continuous
 62
     0
370
     0
100
AcDbHatch
 10
0.0
 20
0.0
 30
0.0
210
0.0
220
0.0
230
1.0
  2
SOLID
 70
     1
 71
     0
 91
        1
 92
        0
 93
        3
 72
     2
 10
0.0
 20
0.0
 40
3.000000000000001
 50
180.0
 51
270.0000000000007
 73
     1
 72
     1
 10
0.0
 20
-3.000000000000001
 11
0.0
 21
0.0
 72
     1
 10
0.0
 20
0.0
 11
-3.000000000000003
 21
0.0
 97
        0
 75
     0
 76
     1
 98
        1
 10
0.0
 20
0.0
  0
ENDBLK
  5
137
330
135
100
AcDbEntity
  8
0
100
AcDbBlockEnd
  0
BLOCK
  5
4B1
330
4B0
100
AcDbEntity
  8
0
100
AcDbBlockBegin
  2
*D7
 70
     1
 10
0.0
 20
0.0
 30
0.0
  3
*D7
  1
*D15
  0
LINE
  5
4B2
330
4B0
100
AcDbEntity
  8
치수문자_일반주서
 62
     0
370
    -2
100
AcDbLine
 10
16.81250000000003
 20
50.88636130152701
 30
0.0
 11
4.374999999999954
 21
50.88636130152696
 31
0.0
  0
LINE
  5
4B3
330
4B0
100
AcDbEntity
  8
치수문자_일반주서
 62
     0
370
    -2
100
AcDbLine
 10
17.81250000000006
 20
0.0863613015269988
 30
0.0
 11
4.375000000000131
 21
0.0863613015269458
 31
0.0
  0
LINE
  5
4B4
330
4B0
100
AcDbEntity
  8
치수문자_일반주서
 62
     0
370
    -2
100
AcDbLine
 10
4.374999999999965
 20
47.58436130152696
 30
0.0
 11
4.37500000000012
 21
3.388361301526945
 31
0.0
  0
SOLID
  5
4B5
330
4B0
100
AcDbEntity
  8
치수문자_일반주서
 62
     0
100
AcDbTrace
 10
4.925333333333299
 20
47.58436130152696
 30
0.0
 11
3.824666666666632
 21
47.58436130152696
 31
0.0
 12
4.374999999999954
 22
50.88636130152696
 32
0.0
 13
4.374999999999954
 23
50.88636130152696
 33
0.0
  0
SOLID
  5
4B6
330
4B0
100
AcDbEntity
  8
치수문자_일반주서
 62
     0
100
AcDbTrace
 10
3.824666666666787
 20
3.388361301526944
 30
0.0
 11
4.925333333333453
 21
3.388361301526947
 31
0.0
 12
4.375000000000131
 22
0.0863613015269458
 32
0.0
 13
4.375000000000131
 23
0.0863613015269458
 33
0.0
  0
MTEXT
  5
4B7
330
4B0
100
AcDbEntity
  8
치수문자_일반주서
 62
     0
100
AcDbMText
 10
0.0000000000000426
 20
25.486361301527
 30
0.0
 40
3.5
 41
0.0
 71
     2
 72
     1
  1
\A1;%%c50.80 [2]
  7
SLDTEXTSTYLE0
 11
-3.496765431890256E-15
 21
1.0
 31
0.0
 73
     1
 44
1.0
  0
POINT
  5
4B8
330
4B0
100
AcDbEntity
  8
Defpoints
 62
     0
100
AcDbPoint
 10
16.87500000000003
 20
50.88636130152701
 30
0.0
  0
POINT
  5
4B9
330
4B0
100
AcDbEntity
  8
Defpoints
 62
     0
100
AcDbPoint
 10
17.87500000000006
 20
0.0863613015269991
 30
0.0
  0
POINT
  5
4BA
330
4B0
100
AcDbEntity
  8
Defpoints
 62
     0
100
AcDbPoint
 10
4.375000000000128
 20
0.0863613015269486
 30
0.0
  0
ENDBLK
  5
4BB
330
4B0
100
AcDbEntity
  8
0
100
AcDbBlockEnd
  0
BLOCK
  5
4D9
330
4D8
100
AcDbEntity
  8
0
100
AcDbBlockBegin
  2
*D8
 70
     1
 10
0.0
 20
0.0
 30
0.0
  3
*D8
  1
*D9
  0
LINE
  5
4DB
330
4D8
100
AcDbEntity
  8
치수문자_일반주서
 62
     0
370
    -2
100
AcDbLine
 10
213.725
 20
50.76350609449717
 30
0.0
 11
213.725
 21
73.24099263508792
 31
0.0
  0
LINE
  5
4DC
330
4D8
100
AcDbEntity
  8
치수문자_일반주서
 62
     0
370
    -2
100
AcDbLine
 10
112.125
 20
50.89032880421544
 30
0.0
 11
112.125
 21
73.24099263508792
 31
0.0
  0
LINE
  5
4DD
330
4D8
100
AcDbEntity
  8
치수문자_일반주서
 62
     0
370
    -2
100
AcDbLine
 10
210.423
 20
73.24099263508792
 30
0.0
 11
115.427
 21
73.24099263508792
 31
0.0
  0
SOLID
  5
4DE
330
4D8
100
AcDbEntity
  8
치수문자_일반주서
 62
     0
100
AcDbTrace
 10
210.423
 20
72.6906593017546
 30
0.0
 11
210.423
 21
73.79132596842125
 31
0.0
 12
213.725
 22
73.24099263508792
 32
0.0
 13
213.725
 23
73.24099263508792
 33
0.0
  0
SOLID
  5
4DF
330
4D8
100
AcDbEntity
  8
치수문자_일반주서
 62
     0
100
AcDbTrace
 10
115.427
 20
73.79132596842125
 30
0.0
 11
115.427
 21
72.6906593017546
 31
0.0
 12
112.125
 22
73.24099263508792
 32
0.0
 13
112.125
 23
73.24099263508792
 33
0.0
  0
MTEXT
  5
4E0
330
4D8
100
AcDbEntity
  8
치수문자_일반주서
 62
     0
100
AcDbMText
 10
162.9250000000001
 20
77.61599263508792
 30
0.0
 40
3.5
 41
0.0
 71
     2
 72
     1
  1
\A1;101.60 [4]
  7
SLDTEXTSTYLE0
 73
     1
 44
1.0
  0
POINT
  5
4E1
330
4D8
100
AcDbEntity
  8
Defpoints
 62
     0
100
AcDbPoint
 10
213.725
 20
50.70100609449717
 30
0.0
  0
POINT
  5
4E2
330
4D8
100
AcDbEntity
  8
Defpoints
 62
     0
100
AcDbPoint
 10
112.125
 20
50.82782880421544
 30
0.0
  0
POINT
  5
4E3
330
4D8
100
AcDbEntity
  8
Defpoints
 62
     0
100
AcDbPoint
 10
112.125
 20
73.24099263508792
 30
0.0
  0
ENDBLK
  5
4DA
330
4D8
100
AcDbEntity
  8
0
100
AcDbBlockEnd
  0
BLOCK
  5
4E5
330
4E4
100
AcDbEntity
  8
0
100
AcDbBlockBegin
  2
*D9
 70
     1
 10
0.0
 20
0.0
 30
0.0
  3
*D9
  1
*D10
  0
LINE
  5
4E7
330
4E4
100
AcDbEntity
  8
치수문자_일반주서
 62
     0
370
    -2
100
AcDbLine
 10
213.725
 20
50.76350609449717
 30
0.0
 11
213.725
 21
85.24099263508793
 31
0.0
  0
LINE
  5
4E8
330
4E4
100
AcDbEntity
  8
치수문자_일반주서
 62
     0
370
    -2
100
AcDbLine
 10
16.87500000000003
 20
45.86886130152701
 30
0.0
 11
16.87500000000003
 21
85.24099263508793
 31
0.0
  0
LINE
  5
4E9
330
4E4
100
AcDbEntity
  8
치수문자_일반주서
 62
     0
370
    -2
100
AcDbLine
 10
210.423
 20
85.24099263508793
 30
0.0
 11
20.17700000000003
 21
85.24099263508793
 31
0.0
  0
SOLID
  5
4EA
330
4E4
100
AcDbEntity
  8
치수문자_일반주서
 62
     0
100
AcDbTrace
 10
210.423
 20
84.69065930175461
 30
0.0
 11
210.423
 21
85.79132596842126
 31
0.0
 12
213.725
 22
85.24099263508793
 32
0.0
 13
213.725
 23
85.24099263508793
 33
0.0
  0
SOLID
  5
4EB
330
4E4
100
AcDbEntity
  8
치수문자_일반주서
 62
     0
100
AcDbTrace
 10
20.17700000000003
 20
85.79132596842126
 30
0.0
 11
20.17700000000003
 21
84.69065930175461
 31
0.0
 12
16.87500000000003
 22
85.24099263508793
 32
0.0
 13
16.87500000000003
 23
85.24099263508793
 33
0.0
  0
MTEXT
  5
4EC
330
4E4
100
AcDbEntity
  8
치수문자_일반주서
 62
     0
100
AcDbMText
 10
115.3
 20
89.61599263508793
 30
0.0
 40
3.5
 41
0.0
 71
     2
 72
     1
  1
\A1;196.85 [7 3/4]
  7
SLDTEXTSTYLE0
 73
     1
 44
1.0
  0
POINT
  5
4ED
330
4E4
100
AcDbEntity
  8
Defpoints
 62
     0
100
AcDbPoint
 10
213.725
 20
50.70100609449717
 30
0.0
  0
POINT
  5
4EE
330
4E4
100
AcDbEntity
  8
Defpoints
 62
     0
100
AcDbPoint
 10
16.87500000000003
 20
45.80636130152701
 30
0.0
  0
POINT
  5
4EF
330
4E4
100
AcDbEntity
  8
Defpoints
 62
     0
100
AcDbPoint
 10
16.87500000000003
 20
85.24099263508793
 30
0.0
  0
ENDBLK
  5
4E6
330
4E4
100
AcDbEntity
  8
0
100
AcDbBlockEnd
  0
BLOCK
  5
4F1
330
4F0
100
AcDbEntity
  8
0
100
AcDbBlockBegin
  2
*D10
 70
     1
 10
0.0
 20
0.0
 30
0.0
  3
*D10
  1
*D11
  0
LINE
  5
4F3
330
4F0
100
AcDbEntity
  8
치수문자_일반주서
 62
     0
370
    -2
100
AcDbLine
 10
213.7875
 20
50.88636130152699
 30
0.0
 11
251.7750000000001
 21
50.88636130152713
 31
0.0
  0
LINE
  5
4F4
330
4F0
100
AcDbEntity
  8
치수문자_일반주서
 62
     0
370
    -2
100
AcDbLine
 10
213.7875
 20
0.0863613015269886
 30
0.0
 11
251.7750000000002
 21
0.0863613015271341
 31
0.0
  0
LINE
  5
4F5
330
4F0
100
AcDbEntity
  8
치수문자_일반주서
 62
     0
370
    -2
100
AcDbLine
 10
251.7750000000001
 20
50.88636130152713
 30
0.0
 11
251.7749999999999
 21
108.4410137427723
 31
0.0
  0
LINE
  5
4F6
330
4F0
100
AcDbEntity
  8
치수문자_일반주서
 62
     0
370
    -2
100
AcDbLine
 10
251.7750000000001
 20
47.58436130152713
 30
0.0
 11
251.7750000000002
 21
3.388361301527134
 31
0.0
  0
SOLID
  5
4F7
330
4F0
100
AcDbEntity
  8
치수문자_일반주서
 62
     0
100
AcDbTrace
 10
252.3253333333334
 20
47.58436130152713
 30
0.0
 11
251.2246666666667
 21
47.58436130152713
 31
0.0
 12
251.7750000000001
 22
50.88636130152713
 32
0.0
 13
251.7750000000001
 23
50.88636130152713
 33
0.0
  0
SOLID
  5
4F8
330
4F0
100
AcDbEntity
  8
치수문자_일반주서
 62
     0
100
AcDbTrace
 10
251.2246666666669
 20
3.388361301527132
 30
0.0
 11
252.3253333333336
 21
3.388361301527135
 31
0.0
 12
251.7750000000002
 22
0.0863613015271341
 32
0.0
 13
251.7750000000002
 23
0.0863613015271341
 33
0.0
  0
MTEXT
  5
4F9
330
4F0
100
AcDbEntity
  8
치수문자_일반주서
 62
     0
100
AcDbMText
 10
247.3999999999999
 20
97.06601374277227
 30
0.0
 40
3.5
 41
0.0
 71
     2
 72
     1
  1
\A1;%%c50.80 [2]
  7
SLDTEXTSTYLE0
 11
-3.356894814614647E-15
 21
1.0
 31
0.0
 73
     1
 44
1.0
  0
POINT
  5
4FA
330
4F0
100
AcDbEntity
  8
Defpoints
 62
     0
100
AcDbPoint
 10
213.725
 20
50.88636130152699
 30
0.0
  0
POINT
  5
4FB
330
4F0
100
AcDbEntity
  8
Defpoints
 62
     0
100
AcDbPoint
 10
213.725
 20
0.0863613015269884
 30
0.0
  0
POINT
  5
4FC
330
4F0
100
AcDbEntity
  8
Defpoints
 62
     0
100
AcDbPoint
 10
251.7750000000003
 20
0.0863613015271306
 30
0.0
  0
ENDBLK
  5
4F2
330
4F0
100
AcDbEntity
  8
0
100
AcDbBlockEnd
  0
BLOCK
  5
55E
330
55D
100
AcDbEntity
  8
0
100
AcDbBlockBegin
  2
*D11
 70
     1
 10
0.0
 20
0.0
 30
0.0
  3
*D11
  1
*D12
  0
LINE
  5
560
330
55D
100
AcDbEntity
  8
치수문자_일반주서
 62
     0
370
    -2
100
AcDbLine
 10
286.0148656493444
 20
-107.516290694464
 30
0.0
 11
286.0148656493444
 21
-85.03880415387324
 31
0.0
  0
LINE
  5
561
330
55D
100
AcDbEntity
  8
치수문자_일반주서
 62
     0
370
    -2
100
AcDbLine
 10
184.4148656493444
 20
-107.3894679847457
 30
0.0
 11
184.4148656493444
 21
-85.03880415387324
 31
0.0
  0
LINE
  5
562
330
55D
100
AcDbEntity
  8
치수문자_일반주서
 62
     0
370
    -2
100
AcDbLine
 10
282.7128656493444
 20
-85.03880415387324
 30
0.0
 11
187.7168656493444
 21
-85.03880415387324
 31
0.0
  0
SOLID
  5
563
330
55D
100
AcDbEntity
  8
치수문자_일반주서
 62
     0
100
AcDbTrace
 10
282.7128656493444
 20
-85.58913748720657
 30
0.0
 11
282.7128656493444
 21
-84.48847082053992
 31
0.0
 12
286.0148656493444
 22
-85.03880415387324
 32
0.0
 13
286.0148656493444
 23
-85.03880415387324
 33
0.0
  0
SOLID
  5
564
330
55D
100
AcDbEntity
  8
치수문자_일반주서
 62
     0
100
AcDbTrace
 10
187.7168656493444
 20
-84.48847082053992
 30
0.0
 11
187.7168656493444
 21
-85.58913748720657
 31
0.0
 12
184.4148656493444
 22
-85.03880415387324
 32
0.0
 13
184.4148656493444
 23
-85.03880415387324
 33
0.0
  0
MTEXT
  5
565
330
55D
100
AcDbEntity
  8
치수문자_일반주서
 62
     0
100
AcDbMText
 10
235.2148656493444
 20
-80.66380415387324
 30
0.0
 40
3.5
 41
0.0
 71
     2
 72
     1
  1
\A1;101.60 [4]
  7
SLDTEXTSTYLE0
 73
     1
 44
1.0
  0
POINT
  5
566
330
55D
100
AcDbEntity
  8
Defpoints
 62
     0
100
AcDbPoint
 10
286.0148656493444
 20
-107.578790694464
 30
0.0
  0
POINT
  5
567
330
55D
100
AcDbEntity
  8
Defpoints
 62
     0
100
AcDbPoint
 10
184.4148656493444
 20
-107.4519679847457
 30
0.0
  0
POINT
  5
568
330
55D
100
AcDbEntity
  8
Defpoints
 62
     0
100
AcDbPoint
 10
184.4148656493444
 20
-85.03880415387324
 30
0.0
  0
ENDBLK
  5
55F
330
55D
100
AcDbEntity
  8
0
100
AcDbBlockEnd
  0
BLOCK
  5
56A
330
569
100
AcDbEntity
  8
0
100
AcDbBlockBegin
  2
*D12
 70
     1
 10
0.0
 20
0.0
 30
0.0
  3
*D12
  1
*D13
  0
LINE
  5
56C
330
569
100
AcDbEntity
  8
치수문자_일반주서
 62
     0
370
    -2
100
AcDbLine
 10
286.0148656493444
 20
-107.516290694464
 30
0.0
 11
286.0148656493444
 21
-73.03880415387323
 31
0.0
  0
LINE
  5
56D
330
569
100
AcDbEntity
  8
치수문자_일반주서
 62
     0
370
    -2
100
AcDbLine
 10
89.16486564934439
 20
-112.4109354874342
 30
0.0
 11
89.16486564934439
 21
-73.03880415387323
 31
0.0
  0
LINE
  5
56E
330
569
100
AcDbEntity
  8
치수문자_일반주서
 62
     0
370
    -2
100
AcDbLine
 10
282.7128656493444
 20
-73.03880415387323
 30
0.0
 11
92.46686564934438
 21
-73.03880415387323
 31
0.0
  0
SOLID
  5
56F
330
569
100
AcDbEntity
  8
치수문자_일반주서
 62
     0
100
AcDbTrace
 10
282.7128656493444
 20
-73.58913748720656
 30
0.0
 11
282.7128656493444
 21
-72.4884708205399
 31
0.0
 12
286.0148656493444
 22
-73.03880415387323
 32
0.0
 13
286.0148656493444
 23
-73.03880415387323
 33
0.0
  0
SOLID
  5
570
330
569
100
AcDbEntity
  8
치수문자_일반주서
 62
     0
100
AcDbTrace
 10
92.46686564934438
 20
-72.4884708205399
 30
0.0
 11
92.46686564934438
 21
-73.58913748720656
 31
0.0
 12
89.16486564934439
 22
-73.03880415387323
 32
0.0
 13
89.16486564934439
 23
-73.03880415387323
 33
0.0
  0
MTEXT
  5
571
330
569
100
AcDbEntity
  8
치수문자_일반주서
 62
     0
100
AcDbMText
 10
187.5898656493444
 20
-68.66380415387323
 30
0.0
 40
3.5
 41
0.0
 71
     2
 72
     1
  1
\A1;196.85 [7 3/4]
  7
SLDTEXTSTYLE0
 73
     1
 44
1.0
  0
POINT
  5
572
330
569
100
AcDbEntity
  8
Defpoints
 62
     0
100
AcDbPoint
 10
286.0148656493444
 20
-107.578790694464
 30
0.0
  0
POINT
  5
573
330
569
100
AcDbEntity
  8
Defpoints
 62
     0
100
AcDbPoint
 10
89.16486564934439
 20
-112.4734354874342
 30
0.0
  0
POINT
  5
574
330
569
100
AcDbEntity
  8
Defpoints
 62
     0
100
AcDbPoint
 10
89.16486564934439
 20
-73.03880415387323
 30
0.0
  0
ENDBLK
  5
56B
330
569
100
AcDbEntity
  8
0
100
AcDbBlockEnd
  0
BLOCK
  5
576
330
575
100
AcDbEntity
  8
0
100
AcDbBlockBegin
  2
*D13
 70
     1
 10
0.0
 20
0.0
 30
0.0
  3
*D13
  1
*D14
  0
LINE
  5
578
330
575
100
AcDbEntity
  8
치수문자_일반주서
 62
     0
370
    -2
100
AcDbLine
 10
286.0773656493444
 20
-107.578790694464
 30
0.0
 11
324.0648656493444
 21
-107.5787906944638
 31
0.0
  0
LINE
  5
579
330
575
100
AcDbEntity
  8
치수문자_일반주서
 62
     0
370
    -2
100
AcDbLine
 10
286.0773656493444
 20
-158.1934354874342
 30
0.0
 11
324.0648656493446
 21
-158.193435487434
 31
0.0
  0
LINE
  5
57A
330
575
100
AcDbEntity
  8
치수문자_일반주서
 62
     0
370
    -2
100
AcDbLine
 10
324.0648656493444
 20
-107.5787906944638
 30
0.0
 11
324.0648656493442
 21
-50.05753304618888
 31
0.0
  0
LINE
  5
57B
330
575
100
AcDbEntity
  8
치수문자_일반주서
 62
     0
370
    -2
100
AcDbLine
 10
324.0648656493444
 20
-110.8807906944639
 30
0.0
 11
324.0648656493446
 21
-154.8914354874341
 31
0.0
  0
SOLID
  5
57C
330
575
100
AcDbEntity
  8
치수문자_일반주서
 62
     0
100
AcDbTrace
 10
324.6151989826778
 20
-110.8807906944639
 30
0.0
 11
323.5145323160111
 21
-110.8807906944639
 31
0.0
 12
324.0648656493444
 22
-107.5787906944638
 32
0.0
 13
324.0648656493444
 23
-107.5787906944638
 33
0.0
  0
SOLID
  5
57D
330
575
100
AcDbEntity
  8
치수문자_일반주서
 62
     0
100
AcDbTrace
 10
323.5145323160112
 20
-154.8914354874341
 30
0.0
 11
324.615198982678
 21
-154.8914354874341
 31
0.0
 12
324.0648656493446
 22
-158.193435487434
 32
0.0
 13
324.0648656493446
 23
-158.193435487434
 33
0.0
  0
MTEXT
  5
57E
330
575
100
AcDbEntity
  8
치수문자_일반주서
 62
     0
100
AcDbMText
 10
319.6898656493443
 20
-61.21378304618889
 30
0.0
 40
3.5
 41
0.0
 71
     2
 72
     1
  1
\A1;%%c50.61 [2]
  7
SLDTEXTSTYLE0
 11
-3.369188053772705E-15
 21
1.0
 31
0.0
 73
     1
 44
1.0
  0
POINT
  5
57F
330
575
100
AcDbEntity
  8
Defpoints
 62
     0
100
AcDbPoint
 10
286.0148656493444
 20
-107.578790694464
 30
0.0
  0
POINT
  5
580
330
575
100
AcDbEntity
  8
Defpoints
 62
     0
100
AcDbPoint
 10
286.0148656493444
 20
-158.1934354874342
 30
0.0
  0
POINT
  5
581
330
575
100
AcDbEntity
  8
Defpoints
 62
     0
100
AcDbPoint
 10
324.0648656493446
 20
-158.193435487434
 30
0.0
  0
ENDBLK
  5
577
330
575
100
AcDbEntity
  8
0
100
AcDbBlockEnd
  0
BLOCK
  5
583
330
582
100
AcDbEntity
  8
0
100
AcDbBlockBegin
  2
*D14
 70
     1
 10
0.0
 20
0.0
 30
0.0
  3
*D14
  1
*D15
  0
LINE
  5
585
330
582
100
AcDbEntity
  8
치수문자_일반주서
 62
     0
370
    -2
100
AcDbLine
 10
-83.3125
 20
25.40107492872392
 30
0.0
 11
-95.75000000000007
 21
25.40107492872387
 31
0.0
  0
LINE
  5
586
330
582
100
AcDbEntity
  8
치수문자_일반주서
 62
     0
370
    -2
100
AcDbLine
 10
-82.31249999999997
 20
-25.3989250712761
 30
0.0
 11
-95.7499999999999
 21
-25.39892507127615
 31
0.0
  0
LINE
  5
587
330
582
100
AcDbEntity
  8
치수문자_일반주서
 62
     0
370
    -2
100
AcDbLine
 10
-95.75000000000006
 20
22.09907492872387
 30
0.0
 11
-95.74999999999991
 21
-22.09692507127615
 31
0.0
  0
SOLID
  5
588
330
582
100
AcDbEntity
  8
치수문자_일반주서
 62
     0
100
AcDbTrace
 10
-95.19966666666673
 20
22.09907492872387
 30
0.0
 11
-96.30033333333338
 21
22.09907492872386
 31
0.0
 12
-95.75000000000007
 22
25.40107492872387
 32
0.0
 13
-95.75000000000007
 23
25.40107492872387
 33
0.0
  0
SOLID
  5
589
330
582
100
AcDbEntity
  8
치수문자_일반주서
 62
     0
100
AcDbTrace
 10
-96.30033333333324
 20
-22.09692507127615
 30
0.0
 11
-95.19966666666659
 21
-22.09692507127615
 31
0.0
 12
-95.7499999999999
 22
-25.39892507127615
 32
0.0
 13
-95.7499999999999
 23
-25.39892507127615
 33
0.0
  0
MTEXT
  5
58A
330
582
100
AcDbEntity
  8
치수문자_일반주서
 62
     0
100
AcDbMText
 10
-100.125
 20
0.0010749287238948
 30
0.0
 40
3.5
 41
0.0
 71
     2
 72
     1
  1
\A1;%%c50.80 [2]
  7
SLDTEXTSTYLE0
 11
-3.356894814614646E-15
 21
1.0
 31
0.0
 73
     1
 44
1.0
  0
POINT
  5
58B
330
582
100
AcDbEntity
  8
Defpoints
 62
     0
100
AcDbPoint
 10
-83.25
 20
25.40107492872392
 30
0.0
  0
POINT
  5
58C
330
582
100
AcDbEntity
  8
Defpoints
 62
     0
100
AcDbPoint
 10
-82.24999999999997
 20
-25.3989250712761
 30
0.0
  0
POINT
  5
58D
330
582
100
AcDbEntity
  8
Defpoints
 62
     0
100
AcDbPoint
 10
-95.7499999999999
 20
-25.39892507127615
 30
0.0
  0
ENDBLK
  5
584
330
582
100
AcDbEntity
  8
0
100
AcDbBlockEnd
  0
ENDSEC
  0
SECTION
  2
ENTITIES
  0
LINE
  5
96
330
1F
100
AcDbEntity
  8
외형선
  6
Continuous
370
    15
100
AcDbLine
 10
13.21422853015704
 20
3.008520675336665
 30
0.0
 11
11.99999999999998
 21
4.155610050975043
 31
0.0
  0
LINE
  5
97
330
1F
100
AcDbEntity
  8
외형선
  6
Continuous
 62
     1
370
    15
100
AcDbLine
 10
91.04495988199008
 20
4.956878993918469
 30
0.0
 11
90.91744004180904
 21
5.080854033317505
 31
0.0
  0
LINE
  5
98
330
1F
100
AcDbEntity
  8
외형선
  6
Continuous
 62
     1
370
    15
100
AcDbLine
 10
37.84718771596854
 20
4.957095244822348
 30
0.0
 11
37.71961841728836
 21
5.081123285453816
 31
0.0
  0
LINE
  5
99
330
1F
100
AcDbEntity
  8
외형선
  6
Continuous
 62
     1
370
    15
100
AcDbLine
 10
109.3316861203934
 20
-25.39892507127611
 30
0.0
 11
115.4719633367691
 21
-25.39892507127611
 31
0.0
  0
LINE
  5
9A
330
1F
100
AcDbEntity
  8
외형선
  6
Continuous
 62
     1
370
    15
100
AcDbLine
 10
35.67486940214629
 20
25.40107492872389
 30
0.0
 11
29.53363919182934
 21
25.40107492872389
 31
0.0
  0
LINE
  5
9B
330
1F
100
AcDbEntity
  8
외형선
  6
Continuous
 62
     1
370
    15
100
AcDbLine
 10
56.13362697536239
 20
-25.39892507127611
 30
0.0
 11
62.27323799012918
 21
-25.39892507127611
 31
0.0
  0
LINE
  5
9C
330
1F
100
AcDbEntity
  8
외형선
  6
Continuous
 62
     1
370
    15
100
AcDbLine
 10
139.0
 20
25.40107492872389
 30
0.0
 11
135.928540617672
 21
25.40107492872389
 31
0.0
  0
LINE
  5
9D
330
1F
100
AcDbEntity
  8
외형선
  6
Continuous
 62
     1
370
    15
100
AcDbLine
 10
135.928540617672
 20
-25.39892507127611
 30
0.0
 11
139.0
 21
-25.39892507127611
 31
0.0
  0
LINE
  5
9E
330
1F
100
AcDbEntity
  8
외형선
  6
Continuous
 62
     1
370
    15
100
AcDbLine
 10
62.27323799012932
 20
25.40107492872389
 30
0.0
 11
56.13362697536239
 21
25.40107492872389
 31
0.0
  0
LINE
  5
9F
330
1F
100
AcDbEntity
  8
외형선
  6
Continuous
 62
     1
370
    15
100
AcDbLine
 10
88.87354606365483
 20
25.40107492872389
 30
0.0
 11
82.73206950032223
 21
25.40107492872389
 31
0.0
  0
LINE
  5
A0
330
1F
100
AcDbEntity
  8
외형선
  6
Continuous
 62
     1
370
    15
100
AcDbLine
 10
82.73206950032203
 20
-25.39892507127611
 30
0.0
 11
88.87354606365466
 21
-25.39892507127611
 31
0.0
  0
LINE
  5
A1
330
1F
100
AcDbEntity
  8
외형선
  6
Continuous
 62
     1
370
    15
100
AcDbLine
 10
29.53363919182947
 20
-25.39892507127611
 30
0.0
 11
35.67486940214629
 21
-25.39892507127611
 31
0.0
  0
LINE
  5
A2
330
1F
100
AcDbEntity
  8
외형선
  6
Continuous
 62
     1
370
    15
100
AcDbLine
 10
115.4719633367691
 20
25.40107492872389
 30
0.0
 11
109.3316861203936
 21
25.40107492872389
 31
0.0
  0
LINE
  5
A3
330
1F
100
AcDbEntity
  8
외형선
  6
Continuous
370
    15
100
AcDbLine
 10
-78.17
 20
-25.3989250712761
 30
0.0
 11
-73.72499999999997
 21
-25.3989250712761
 31
0.0
  0
LINE
  5
A4
330
1F
100
AcDbEntity
  8
외형선
  6
Continuous
370
    15
100
AcDbLine
 10
11.00022260296953
 20
25.40107492872389
 30
0.0
 11
-28.18280000000001
 21
25.40107492872389
 31
0.0
  0
SPLINE
  5
A7
330
1F
100
AcDbEntity
  8
외형선
  6
Continuous
 62
     1
370
    15
100
AcDbSpline
210
0.0
220
0.0
230
1.0
 70
     8
 71
     3
 72
    32
 73
    28
 74
     0
 42
0.000000001
 43
0.00000001
 40
0.0
 40
0.0
 40
0.0
 40
0.0
 40
0.039868285850524
 40
0.079740727060273
 40
0.1196062491258191
 40
0.1594664363539195
 40
0.1993237611875456
 40
0.2384687935620687
 40
0.2776168223134984
 40
0.316771319300152
 40
0.3559336211326817
 40
0.3970874292520266
 40
0.4382372967333612
 40
0.4793844101162199
 40
0.5205299590434401
 40
0.5616751349220854
 40
0.6020864400360632
 40
0.6425006901601495
 40
0.6829197284893769
 40
0.7233444485891932
 40
0.7644991914931852
 40
0.8056497557896855
 40
0.8467973272335613
 40
0.8879430949512912
 40
0.9290882501031485
 40
0.969499232105154
 40
1.0
 40
1.0
 40
1.0
 40
1.0
 10
11.99999999999998
 20
25.2329091109789
 30
0.0
 10
13.15749164446832
 20
25.05450538812445
 30
0.0
 10
15.47259557550134
 20
24.69767934789765
 30
0.0
 10
18.94550739892117
 20
23.57568159342427
 30
0.0
 10
22.41768312260886
 20
22.04760533885815
 30
0.0
 10
25.88922056320652
 20
20.09931325522118
 30
0.0
 10
29.33974688880612
 20
17.79244611140726
 30
0.0
 10
32.76943643834251
 20
15.17404681542764
 30
0.0
 10
36.17889911256678
 20
12.29848654458603
 30
0.0
 10
39.58910774146379
 20
9.201328595220117
 30
0.0
 10
43.0580940125912
 20
5.883538180461709
 30
0.0
 10
46.58464152442541
 20
2.396180818421712
 30
0.0
 10
50.1686876018393
 20
-1.195773454041204
 30
0.0
 10
53.75236453240653
 20
-4.763862874320199
 30
0.0
 10
57.33582966915218
 20
-8.237164895626767
 30
0.0
 10
60.89795640089839
 20
-11.52702589415773
 30
0.0
 10
64.43874284574824
 20
-14.57246036793523
 30
0.0
 10
67.95862666664354
 20
-17.32022357688862
 30
0.0
 10
71.47907048431829
 20
-19.73598338428087
 30
0.0
 10
75.02140731397321
 20
-21.78547591809607
 30
0.0
 10
78.58472374931138
 20
-23.42095684853368
 30
0.0
 10
82.1688529394313
 20
-24.60081677831848
 30
0.0
 10
85.75259217475597
 20
-25.29054712448219
 30
0.0
 10
89.33608397700905
 20
-25.48165554801611
 30
0.0
 10
92.89821137577349
 20
-25.15301751287451
 30
0.0
 10
96.15117413740265
 20
-24.45430031057421
 30
0.0
 10
98.2098322074043
 20
-23.66621244547512
 30
0.0
 10
99.09530819776285
 20
-23.3272378032036
 30
0.0
  0
SPLINE
  5
A8
330
1F
100
AcDbEntity
  8
외형선
  6
Continuous
 62
     1
370
    15
100
AcDbSpline
210
0.0
220
0.0
230
1.0
 70
     8
 71
     3
 72
    33
 73
    29
 74
     0
 42
0.000000001
 43
0.00000001
 40
0.0
 40
0.0
 40
0.0
 40
0.0
 40
0.0258993224884047
 40
0.0657206130347648
 40
0.1055373990141293
 40
0.1453505971387642
 40
0.1851613561142214
 40
0.2249708273949981
 40
0.2640691289188921
 40
0.3031690388277996
 40
0.3422723437355343
 40
0.3813808251462754
 40
0.4212025206348158
 40
0.4610201659674912
 40
0.5008339930330941
 40
0.540645149828769
 40
0.5804547873604916
 40
0.6195529918903325
 40
0.6586524943358347
 40
0.6977550819244429
 40
0.7368625372394638
 40
0.7754406994262171
 40
0.8140129689954214
 40
0.8525796750692634
 40
0.8911432085350687
 40
0.9297059660712412
 40
0.9675818674147441
 40
1.0
 40
1.0
 40
1.0
 40
1.0
 10
109.3316861203934
 20
-25.34438725023375
 30
0.0
 10
108.5544974060207
 20
-25.34524422352945
 30
0.0
 10
106.5823485679518
 20
-25.34741882907651
 30
0.0
 10
103.415154672853
 20
-24.7832215796443
 30
0.0
 10
99.8307520242785
 20
-23.72513804727993
 30
0.0
 10
96.24678770260672
 20
-22.17586217876431
 30
0.0
 10
92.66317381480056
 20
-20.19109965148247
 30
0.0
 10
89.10102337323698
 20
-17.81783925229962
 30
0.0
 10
85.56036376244724
 20
-15.11264795210727
 30
0.0
 10
82.04077794805615
 20
-12.13382413537189
 30
0.0
 10
78.52074760531765
 20
-8.922198631622935
 30
0.0
 10
74.97881074562946
 20
-5.518925051577565
 30
0.0
 10
71.41516259930263
 20
-1.986635631082309
 30
0.0
 10
67.83065333141941
 20
1.606403576406066
 30
0.0
 10
64.24660706210055
 20
5.16737777331335
 30
0.0
 10
60.66293868727679
 20
8.625545797469638
 30
0.0
 10
57.10076687722068
 20
11.89266638564992
 30
0.0
 10
53.5601206211383
 20
14.90837445653246
 30
0.0
 10
50.04059210563119
 20
17.62015633589548
 30
0.0
 10
46.52065067982281
 20
19.99419884381028
 30
0.0
 10
43.01615725004807
 20
21.97593217808508
 30
0.0
 10
39.52718821261384
 20
23.53349467247389
 30
0.0
 10
36.05488452246247
 20
24.64523800620377
 30
0.0
 10
32.5832459675694
 20
25.29633770157749
 30
0.0
 10
29.11205357695007
 20
25.47870845063516
 30
0.0
 10
25.66157597540361
 20
25.17604033998637
 30
0.0
 10
22.39557221257951
 20
24.49220569416131
 30
0.0
 10
20.28631767360711
 20
23.70757837629107
 30
0.0
 10
19.31357376521569
 20
23.34572473098015
 30
0.0
  0
LINE
  5
A9
330
1F
100
AcDbEntity
  8
외형선
  6
Continuous
 62
     1
370
    15
100
AcDbLine
 10
139.0
 20
-9.953651385946701
 30
0.0
 11
139.0
 21
9.955801243394967
 31
0.0
  0
SPLINE
  5
AA
330
1F
100
AcDbEntity
  8
외형선
  6
Continuous
 62
     1
370
    15
100
AcDbSpline
210
0.0
220
0.0
230
1.0
 70
     8
 71
     3
 72
    10
 73
     6
 74
     0
 42
0.000000001
 43
0.00000001
 40
0.0
 40
0.0
 40
0.0
 40
0.0
 40
0.474818595345767
 40
0.9496866796973488
 40
1.0
 40
1.0
 40
1.0
 40
1.0
 10
12.0
 20
-25.23075925353113
 30
0.0
 10
13.15748389180878
 20
-25.04423793990802
 30
0.0
 10
15.47257231671467
 20
-24.67117587207024
 30
0.0
 10
17.91068780516313
 20
-23.96900369231012
 30
0.0
 10
19.1909247684566
 20
-23.39825374220145
 30
0.0
 10
19.31357376521589
 20
-23.34357487353236
 30
0.0
  0
SPLINE
  5
AB
330
1F
100
AcDbEntity
  8
외형선
  6
Continuous
 62
     1
370
    15
100
AcDbSpline
210
0.0
220
0.0
230
1.0
 70
     8
 71
     3
 72
    22
 73
    18
 74
     0
 42
0.000000001
 43
0.00000001
 40
0.0
 40
0.0
 40
0.0
 40
0.0
 40
0.0092282040431822
 40
0.0807186661591541
 40
0.1509334889547166
 40
0.2211528718869337
 40
0.2913800192239844
 40
0.3616177141813027
 40
0.4331265422898966
 40
0.504627696844939
 40
0.5761232366605736
 40
0.6476152268747877
 40
0.7191057366273618
 40
0.7893200947898419
 40
0.8595384560095511
 40
0.9297640260926107
 40
1.0
 40
1.0
 40
1.0
 40
1.0
 10
88.87354606365483
 20
25.3726829536592
 30
0.0
 10
89.02773238702943
 20
25.38185334345954
 30
0.0
 10
90.37639289611062
 20
25.46206631115935
 30
0.0
 10
92.8982066856804
 20
25.13411253347865
 30
0.0
 10
96.4389518284934
 20
24.36823204136125
 30
0.0
 10
99.95875202297486
 20
23.09124737708904
 30
0.0
 10
103.479087221495
 20
21.38438483395628
 30
0.0
 10
107.0213648359978
 20
19.25128130861815
 30
0.0
 10
110.5847832544861
 20
16.72882074463485
 30
0.0
 10
114.1690027855852
 20
13.85856592579476
 30
0.0
 10
117.752809760947
 20
10.71306610792199
 30
0.0
 10
121.3363368964204
 20
7.35464697769085
 30
0.0
 10
124.8984628256887
 20
3.871236946201272
 30
0.0
 10
128.4391709295869
 20
0.3327685632899623
 30
0.0
 10
131.9588932599042
 20
-3.187169476643066
 30
0.0
 10
135.479122168134
 20
-6.659876610931581
 30
0.0
 10
137.82631610473
 20
-8.855672247592775
 30
0.0
 10
138.9999999999999
 20
-9.9536513859467
 30
0.0
  0
SPLINE
  5
AC
330
1F
100
AcDbEntity
  8
외형선
  6
Continuous
 62
     1
370
    15
100
AcDbSpline
210
0.0
220
0.0
230
1.0
 70
     8
 71
     3
 72
    19
 73
    15
 74
     0
 42
0.000000001
 43
0.00000001
 40
0.0
 40
0.0
 40
0.0
 40
0.0
 40
0.0898297466469614
 40
0.1796493354333906
 40
0.2694613506402315
 40
0.3592683850763808
 40
0.4490730371651098
 40
0.5372739944084299
 40
0.6254792801696412
 40
0.7136929232471289
 40
0.8019189398636398
 40
0.891750524642405
 40
0.9815719477115317
 40
0.9999999999999999
 40
0.9999999999999999
 40
0.9999999999999999
 40
0.9999999999999999
 10
139.0000000000001
 20
9.955801243394971
 30
0.0
 10
137.8050145715054
 20
11.03586961535573
 30
0.0
 10
135.415178842308
 20
13.19588422619442
 30
0.0
 10
131.8308649318133
 20
16.12067631563194
 30
0.0
 10
128.2469830890919
 20
18.73912355027188
 30
0.0
 10
124.663415551604
 20
20.9812447671785
 30
0.0
 10
121.1012806110902
 20
22.79655036386408
 30
0.0
 10
117.5606002845286
 20
24.15664163483763
 30
0.0
 10
114.0409500576857
 20
25.04624877111741
 30
0.0
 10
110.5208232102303
 20
25.45285241713074
 30
0.0
 10
106.9787656812746
 20
25.38134978569283
 30
0.0
 10
103.4151677654504
 20
24.77277896484514
 30
0.0
 10
100.7802916996469
 20
24.06993064003239
 30
0.0
 10
99.34042637029859
 20
23.43711603994231
 30
0.0
 10
99.09530819776302
 20
23.3293876606514
 30
0.0
  0
SPLINE
  5
AD
330
1F
100
AcDbEntity
  8
외형선
  6
Continuous
 62
     1
370
    15
100
AcDbSpline
210
0.0
220
0.0
230
1.0
 70
     8
 71
     3
 72
    13
 73
     9
 74
     0
 42
0.000000001
 43
0.00000001
 40
0.0
 40
0.0
 40
0.0
 40
0.0
 40
0.024047500409788
 40
0.22202812652611
 40
0.4164824431208921
 40
0.6109644586424776
 40
0.8054897642036706
 40
1.0
 40
1.0
 40
1.0
 40
1.0
 10
29.53363919182947
 20
-25.37363583752847
 30
0.0
 10
29.3931021673838
 20
-25.38182959674969
 30
0.0
 10
28.09553810818873
 20
-25.45748174263154
 30
0.0
 10
25.66158833578774
 20
-25.15177229882927
 30
0.0
 10
22.23162914871901
 20
-24.43823699413119
 30
0.0
 10
18.82164371646576
 20
-23.23621257039871
 30
0.0
 10
15.41073014980572
 20
-21.65375076434711
 30
0.0
 10
13.13688068982769
 20
-20.2737485859735
 30
0.0
 10
12.0000000000009
 20
-19.58377422481811
 30
0.0
  0
SPLINE
  5
AE
330
1F
100
AcDbEntity
  8
외형선
  6
Continuous
370
    15
100
AcDbSpline
210
0.0
220
0.0
230
1.0
 70
    24
 71
     3
 72
    11
 73
     7
 74
     0
 42
0.000000001
 43
0.00000001
 40
0.0
 40
0.0
 40
0.0
 40
0.0
 40
0.2089441830987273
 40
0.5064046916353567
 40
0.812491575070955
 40
0.9999999999999999
 40
0.9999999999999999
 40
0.9999999999999999
 40
0.9999999999999999
 10
11.99999999999998
 20
-19.74428098865719
 30
0.0
 10
11.99999999999996
 20
-20.09698734739679
 30
0.0
 10
11.99999999999996
 20
-20.9518192560265
 30
0.0
 10
12.00000000000006
 20
-22.45051991171081
 30
0.0
 10
12.0
 20
-23.94339941401229
 30
0.0
 10
12.0
 20
-24.87634801773043
 30
0.0
 10
12.00000000000001
 20
-25.23075925353112
 30
0.0
  0
LINE
  5
AF
330
1F
100
AcDbEntity
  8
외형선
  6
Continuous
 62
     1
370
    15
100
AcDbLine
 10
139.0
 20
15.21440787319391
 30
0.0
 11
139.0
 21
25.21571972169407
 31
0.0
  0
SPLINE
  5
B0
330
1F
100
AcDbEntity
  8
외형선
  6
Continuous
 62
     1
370
    15
100
AcDbSpline
210
0.0
220
0.0
230
1.0
 70
     8
 71
     3
 72
    17
 73
    13
 74
     0
 42
0.000000001
 43
0.00000001
 40
0.0
 40
0.0
 40
0.0
 40
0.0
 40
0.1024313113196299
 40
0.2048732987665457
 40
0.3072975092511775
 40
0.4097080132424504
 40
0.5121111630469731
 40
0.6126842604910175
 40
0.713265056355227
 40
0.8138624706870174
 40
0.91447993756385
 40
1.0
 40
1.0
 40
1.0
 40
1.0
 10
12.00000000000003
 20
-15.14187754984708
 30
0.0
 10
13.15749164457649
 20
-16.04380375827598
 30
0.0
 10
15.47259557582576
 20
-17.84775018036402
 30
0.0
 10
18.94550739762377
 20
-20.14458545219886
 30
0.0
 10
22.41768312747316
 20
-22.08607276895518
 30
0.0
 10
25.88922054504988
 20
-23.60988990098686
 30
0.0
 10
29.33974695605259
 20
-24.6885049044402
 30
0.0
 10
32.76943619235387
 20
-25.30826938107812
 30
0.0
 10
36.17890003130367
 20
-25.47245927982422
 30
0.0
 10
39.58910431163207
 20
-25.1653537550075
 30
0.0
 10
42.82965658278337
 20
-24.48892438056154
 30
0.0
 10
44.93305447133281
 20
-23.69664854436616
 30
0.0
 10
45.8994513039368
 20
-23.33264092468752
 30
0.0
  0
SPLINE
  5
B1
330
1F
100
AcDbEntity
  8
외형선
  6
Continuous
 62
     1
370
    15
100
AcDbSpline
210
0.0
220
0.0
230
1.0
 70
     8
 71
     3
 72
    14
 73
    10
 74
     0
 42
0.000000001
 43
0.00000001
 40
0.0
 40
0.0
 40
0.0
 40
0.0
 40
0.0969432276999416
 40
0.2492547755647556
 40
0.4015631693503049
 40
0.551152760324309
 40
0.7007508796920666
 40
0.8503643573276796
 40
1.0
 40
1.0
 40
1.0
 40
1.0
 10
115.4719633367691
 20
25.34260051784296
 30
0.0
 10
116.2322634149566
 20
25.34587278568843
 30
0.0
 10
118.1871026527944
 20
25.35428625000936
 30
0.0
 10
121.336333842803
 20
24.79635044461752
 30
0.0
 10
124.8984636276304
 20
23.75210002409178
 30
0.0
 10
128.4391707164057
 20
22.23294761051179
 30
0.0
 10
131.9588933167601
 20
20.29644017517308
 30
0.0
 10
135.479122153917
 20
17.99020046838393
 30
0.0
 10
137.8263160999908
 20
16.1707740150821
 30
0.0
 10
138.9999999999999
 20
15.26099340702321
 30
0.0
  0
SPLINE
  5
B2
330
1F
100
AcDbEntity
  8
외형선
  6
Continuous
 62
     1
370
    15
100
AcDbSpline
210
0.0
220
0.0
230
1.0
 70
     8
 71
     3
 72
    11
 73
     7
 74
     0
 42
0.000000001
 43
0.00000001
 40
0.0
 40
0.0
 40
0.0
 40
0.0
 40
0.2697843169330622
 40
0.5395381269175079
 40
0.8092691912851366
 40
1.0
 40
1.0
 40
1.0
 40
1.0
 10
139.0000000000001
 20
25.21571972169407
 30
0.0
 10
137.8050144868936
 20
25.31227686473563
 30
0.0
 10
135.4151785884824
 20
25.50538023223076
 30
0.0
 10
131.8308659469462
 20
25.13803997916766
 30
0.0
 10
128.5967988696169
 20
24.44483475375669
 30
0.0
 10
126.5575171810989
 20
23.6533420960688
 30
0.0
 10
125.7128134859923
 20
23.32549294390751
 30
0.0
  0
SPLINE
  5
B3
330
1F
100
AcDbEntity
  8
외형선
  6
Continuous
 62
     1
370
    15
100
AcDbSpline
210
0.0
220
0.0
230
1.0
 70
     8
 71
     3
 72
    20
 73
    16
 74
     0
 42
0.000000001
 43
0.00000001
 40
0.0
 40
0.0
 40
0.0
 40
0.0
 40
0.058314894895886
 40
0.1380646896132249
 40
0.2178207769817228
 40
0.2975867928699681
 40
0.3762732293343202
 40
0.4549476468467551
 40
0.5336107167055035
 40
0.6122673155141407
 40
0.6909223316880884
 40
0.7681763929408807
 40
0.8454414586014197
 40
0.9227237228072522
 40
1.0
 40
1.0
 40
1.0
 40
1.0
 10
56.13362697536242
 20
-25.35102909283973
 30
0.0
 10
55.27580091841399
 20
-25.34498758581033
 30
0.0
 10
53.24483629940593
 20
-25.33068388528408
 30
0.0
 10
50.04059375412467
 20
-24.74017520210422
 30
0.0
 10
46.52065024093832
 20
-23.6798196479439
 30
0.0
 10
43.01615735435199
 20
-22.1554308251866
 30
0.0
 10
39.5271882271532
 20
-20.22470328885879
 30
0.0
 10
36.05488436046572
 20
-17.92419513150286
 30
0.0
 10
32.58324660090007
 20
-15.28975727180713
 30
0.0
 10
29.11205120581825
 20
-12.37010004125634
 30
0.0
 10
25.66158475986229
 20
-9.238588202625019
 30
0.0
 10
22.2316300994152
 20
-5.956939024548543
 30
0.0
 10
18.82164346286785
 20
-2.589023115439924
 30
0.0
 10
15.41073021320536
 20
0.8306717865078665
 30
0.0
 10
13.13688071096037
 20
3.08733459016163
 30
0.0
 10
12.0000000000009
 20
4.215622284699315
 30
0.0
  0
SPLINE
  5
B4
330
1F
100
AcDbEntity
  8
외형선
  6
Continuous
370
    15
100
AcDbSpline
210
0.0
220
0.0
230
1.0
 70
    24
 71
     3
 72
    23
 73
    19
 74
     0
 42
0.000000001
 43
0.00000001
 40
0.0
 40
0.0
 40
0.0
 40
0.0
 40
0.011989538766638
 40
0.0795625114946039
 40
0.1471354842225696
 40
0.2147084569505329
 40
0.2822814296784961
 40
0.349854402406461
 40
0.4174273751344261
 40
0.4850003478623904
 40
0.5525733205903549
 40
0.6201462933183194
 40
0.6877192660462839
 40
0.7552922387742478
 40
0.8228652115022116
 40
0.8904381842301766
 40
0.9580111569581417
 40
1.0
 40
1.0
 40
1.0
 40
1.0
 10
11.99999999999998
 20
3.986790639980384
 30
0.0
 10
11.99999999999998
 20
3.970714929491033
 30
0.0
 10
11.99999999999994
 20
3.864036605538157
 30
0.0
 10
12.0
 20
3.423357086251793
 30
0.0
 10
11.99999999999998
 20
2.631185591730674
 30
0.0
 10
12.0
 20
1.570580980969615
 30
0.0
 10
12.00000000000009
 20
0.3066163875492163
 30
0.0
 10
12.00000000000004
 20
-1.139720622693523
 30
0.0
 10
12.00000000000004
 20
-2.719080795080867
 30
0.0
 10
12.00000000000001
 20
-4.391808958754918
 30
0.0
 10
11.99999999999999
 20
-6.107509810315192
 30
0.0
 10
11.99999999999999
 20
-7.818295519604755
 30
0.0
 10
11.99999999999998
 20
-9.476883600322408
 30
0.0
 10
11.99999999999999
 20
-11.03267971597346
 30
0.0
 10
11.99999999999998
 20
-12.447859107856
 30
0.0
 10
12.00000000000003
 20
-13.67064122203185
 30
0.0
 10
11.99999999999999
 20
-14.56366278063479
 30
0.0
 10
12.00000000000004
 20
-14.98167653601244
 30
0.0
 10
12.00000000000003
 20
-15.14187754984708
 30
0.0
  0
SPLINE
  5
B5
330
1F
100
AcDbEntity
  8
외형선
  6
Continuous
 62
     1
370
    15
100
AcDbSpline
210
0.0
220
0.0
230
1.0
 70
     8
 71
     3
 72
    34
 73
    30
 74
     0
 42
0.000000001
 43
0.00000001
 40
0.0
 40
0.0
 40
0.0
 40
0.0
 40
0.0055967783436256
 40
0.0434719831316207
 40
0.0813547377582973
 40
0.1211639303232627
 40
0.1609693110024134
 40
0.2007720275675592
 40
0.2405732307924185
 40
0.2803740731572935
 40
0.3194650224667377
 40
0.3585588205641769
 40
0.3976572504220586
 40
0.4367611764104278
 40
0.4765712732178854
 40
0.5163773279452075
 40
0.5561804876051742
 40
0.5959819024720159
 40
0.6357827247873078
 40
0.674873361541795
 40
0.7139665370571652
 40
0.7530640352428332
 40
0.792167405595888
 40
0.8319784527941554
 40
0.8717852279016796
 40
0.9115888771202543
 40
0.9513905501723411
 40
0.9911913990083168
 40
1.0
 40
1.0
 40
1.0
 40
1.0
 10
35.67486940214629
 20
25.37227727615161
 30
0.0
 10
35.84282965152136
 20
25.38150319493504
 30
0.0
 10
37.1474310988757
 20
25.45316388276334
 30
0.0
 10
39.58912075591343
 20
25.14831222056159
 30
0.0
 10
43.05809032710761
 20
24.42057323821122
 30
0.0
 10
46.58464253246238
 20
23.16900669781996
 30
0.0
 10
50.16868733176602
 20
21.44901791355078
 30
0.0
 10
53.75236460477208
 20
19.29939763387722
 30
0.0
 10
57.33582964974489
 20
16.76716289299651
 30
0.0
 10
60.89795640601703
 20
13.91851447200549
 30
0.0
 10
64.43874284430814
 20
10.81641931111761
 30
0.0
 10
67.95862666732464
 20
7.525519802190878
 30
0.0
 10
71.4790704830339
 20
4.090126078561235
 30
0.0
 10
75.02140731846463
 20
0.5552944820042237
 30
0.0
 10
78.58472373230671
 20
-3.012439833039623
 30
0.0
 10
82.16885300282176
 20
-6.541408881506615
 30
0.0
 10
85.75259193821897
 20
-9.940221457688638
 30
0.0
 10
89.33608485972633
 20
-13.14136475963006
 30
0.0
 10
92.89820810632193
 20
-16.06377954878014
 30
0.0
 10
96.43895145082604
 20
-18.65570656248846
 30
0.0
 10
99.95875212374631
 20
-20.87436688831825
 30
0.0
 10
103.4790871961259
 20
-22.69290379847396
 30
0.0
 10
107.0213648368373
 20
-24.0843647030828
 30
0.0
 10
110.5847832775109
 20
-25.01346788203774
 30
0.0
 10
114.1690026927937
 20
-25.44810402642381
 30
0.0
 10
117.7528101090553
 20
-25.38703403666614
 30
0.0
 10
121.3363355968484
 20
-24.78345196679693
 30
0.0
 10
123.9896711695349
 20
-24.07653879122234
 30
0.0
 10
125.4484632877364
 20
-23.43889212264658
 30
0.0
 10
125.7128134859923
 20
-23.32334308645972
 30
0.0
  0
SPLINE
  5
B6
330
1F
100
AcDbEntity
  8
외형선
  6
Continuous
 62
     1
370
    15
100
AcDbSpline
210
0.0
220
0.0
230
1.0
 70
     8
 71
     3
 72
    34
 73
    30
 74
     0
 42
0.000000001
 43
0.00000001
 40
0.0
 40
0.0
 40
0.0
 40
0.0
 40
0.005702624947891
 40
0.0455137556891792
 40
0.0853215295595304
 40
0.1251270957810172
 40
0.1649316060641957
 40
0.2040253036391186
 40
0.243120919762033
 40
0.2822202401349382
 40
0.3213250448858777
 40
0.3611414926635241
 40
0.4009534364219868
 40
0.4407617927620479
 40
0.4805677102495626
 40
0.5203723401989967
 40
0.559465886878716
 40
0.5985610417478491
 40
0.6376595912029349
 40
0.6767633165314995
 40
0.71658016920208
 40
0.7563929722093454
 40
0.7962019574138874
 40
0.83600827267324
 40
0.8758130688534017
 40
0.9149065185508637
 40
0.9540012660061442
 40
0.9930990982293386
 40
1.0
 40
1.0
 40
1.0
 40
1.0
 10
135.928540617672
 20
-25.3679236983065
 30
0.0
 10
135.7573894898709
 20
-25.37787615154388
 30
0.0
 10
134.3913991454516
 20
-25.4573086110328
 30
0.0
 10
131.8308752190516
 20
-25.12208614589546
 30
0.0
 10
128.2469803334308
 20
-24.33482899461756
 30
0.0
 10
124.6634162879641
 20
-23.01530582705971
 30
0.0
 10
121.1012804266806
 20
-21.26186327500919
 30
0.0
 10
117.5606003007947
 20
-19.10184639043768
 30
0.0
 10
114.0409501758423
 20
-16.5894383394717
 30
0.0
 10
110.5208227212553
 20
-13.75852022322026
 30
0.0
 10
106.9787675333966
 20
-10.64509673998718
 30
0.0
 10
103.4151607098407
 20
-7.303965856618582
 30
0.0
 10
99.83075040690355
 20
-3.79757638845929
 30
0.0
 10
96.24678813595463
 20
-0.2158423238245394
 30
0.0
 10
92.66317369862082
 20
3.370094676716069
 30
0.0
 10
89.10102340375576
 20
6.868066731745762
 30
0.0
 10
85.56036375430465
 20
10.21102006953911
 30
0.0
 10
82.0407779503397
 20
13.33814840143769
 30
0.0
 10
78.52074760432673
 20
16.20968568750612
 30
0.0
 10
74.97881074732571
 20
18.78596323958426
 30
0.0
 10
71.41516259340705
 20
21.0101450222733
 30
0.0
 10
67.83065335325638
 20
22.83010836649635
 30
0.0
 10
64.24660698065814
 20
24.19598500040431
 30
0.0
 10
60.6629389911858
 20
25.08170562566314
 30
0.0
 10
57.10076575163161
 20
25.4636595791621
 30
0.0
 10
53.56012473847204
 20
25.35855602781956
 30
0.0
 10
50.04057672921134
 20
24.72770181896423
 30
0.0
 10
47.4870393625135
 20
24.03499760900163
 30
0.0
 10
46.10655649636728
 20
23.42613467253299
 30
0.0
 10
45.8994513039368
 20
23.33479078213531
 30
0.0
  0
SPLINE
  5
B7
330
1F
100
AcDbEntity
  8
외형선
  6
Continuous
 62
     1
370
    15
100
AcDbSpline
210
0.0
220
0.0
230
1.0
 70
     8
 71
     3
 72
    25
 73
    21
 74
     0
 42
0.000000001
 43
0.00000001
 40
0.0
 40
0.0
 40
0.0
 40
0.0
 40
0.0573870323501932
 40
0.1147800459892525
 40
0.1721631001042507
 40
0.2295384751710393
 40
0.286909730062586
 40
0.3432557000811739
 40
0.399605983131406
 40
0.4559655766602834
 40
0.5123364046060219
 40
0.5715738377560968
 40
0.63080559869037
 40
0.6900333953323504
 40
0.7492589400724889
 40
0.8084839478406917
 40
0.8666526105864184
 40
0.9248255124256194
 40
0.9830053064819667
 40
0.9999999999999999
 40
0.9999999999999999
 40
0.9999999999999999
 40
0.9999999999999999
 10
11.99999999999999
 20
10.08995663240799
 30
0.0
 10
13.15749164446834
 20
9.009626953366235
 30
0.0
 10
15.47259557550137
 20
6.848854995560858
 30
0.0
 10
18.94550739892122
 20
3.430018185348043
 30
0.0
 10
22.41768312260866
 20
-0.0395310098756503
 30
0.0
 10
25.88922056320736
 20
-3.511693936520789
 30
0.0
 10
29.33974688880322
 20
-6.896976826539766
 30
0.0
 10
32.76943643835305
 20
-10.13587141941259
 30
0.0
 10
36.17889911252756
 20
-13.17290412569763
 30
0.0
 10
39.58910774161018
 20
-15.97310235281896
 30
0.0
 10
43.05809401203304
 20
-18.52826117533613
 30
0.0
 10
46.58464152662675
 20
-20.77384938361731
 30
0.0
 10
50.16868759363835
 20
-22.64318153521918
 30
0.0
 10
53.75236456300658
 20
-24.06222699849089
 30
0.0
 10
57.3358295549572
 20
-25.00362203352763
 30
0.0
 10
60.89795682386313
 20
-25.44295855677851
 30
0.0
 10
64.43874129848462
 20
-25.39335324562202
 30
0.0
 10
67.9586324453334
 20
-24.82393622337757
 30
0.0
 10
70.6481967168562
 20
-24.11991345493701
 30
0.0
 10
72.16458161084222
 20
-23.4667490389641
 30
0.0
 10
72.50739068557216
 20
-23.31908818453711
 30
0.0
  0
SPLINE
  5
B8
330
1F
100
AcDbEntity
  8
외형선
  6
Continuous
 62
     1
370
    15
100
AcDbSpline
210
0.0
220
0.0
230
1.0
 70
     8
 71
     3
 72
    28
 73
    24
 74
     0
 42
0.000000001
 43
0.00000001
 40
0.0
 40
0.0
 40
0.0
 40
0.0
 40
0.0097727757891242
 40
0.059538381550811
 40
0.1093105752929369
 40
0.1599904552447885
 40
0.2106651806844952
 40
0.2613350467299825
 40
0.3120015144028561
 40
0.3626660485539703
 40
0.4124251632173704
 40
0.4621859296991848
 40
0.5119506225502893
 40
0.5617215104111041
 40
0.6108187827497555
 40
0.6599085557304235
 40
0.7089912482170637
 40
0.7580699030204143
 40
0.8071475703213458
 40
0.8553510963040426
 40
0.9035614886086666
 40
0.9517826121358499
 40
0.9999999999999999
 40
0.9999999999999999
 40
0.9999999999999999
 40
0.9999999999999999
 10
82.73206950032203
 20
-25.36046674911444
 30
0.0
 10
82.50166585034277
 20
-25.3724733419105
 30
0.0
 10
81.09798477557237
 20
-25.44562073815104
 30
0.0
 10
78.52074051992334
 20
-25.10411928169694
 30
0.0
 10
74.97881268285248
 20
-24.31110839800432
 30
0.0
 10
71.41516207632303
 20
-22.99374520918222
 30
0.0
 10
67.83065347153236
 20
-21.22312203300939
 30
0.0
 10
64.24660702455562
 20
-19.0275238369008
 30
0.0
 10
60.66293869735875
 20
-16.45462666978494
 30
0.0
 10
57.10076687451199
 20
-13.57174587461579
 30
0.0
 10
53.5601206220811
 20
-10.44238758752035
 30
0.0
 10
50.04059210454676
 20
-7.131572430369097
 30
0.0
 10
46.52065068321824
 20
-3.683883796519829
 30
0.0
 10
43.01615723762094
 20
-0.1813247773088959
 30
0.0
 10
39.52718825824569
 20
3.307949747145581
 30
0.0
 10
36.05488435213633
 20
6.71978141665656
 30
0.0
 10
32.58324660313164
 20
10.00601828122573
 30
0.0
 10
29.11205120522001
 20
13.10566903263229
 30
0.0
 10
25.66158476001939
 20
15.94326983270454
 30
0.0
 10
22.23163009937348
 20
18.47466007954841
 30
0.0
 10
18.82164346287897
 20
20.65032177561496
 30
0.0
 10
15.41073021320258
 20
22.48498313038924
 30
0.0
 10
13.13688071095942
 20
23.36198665955688
 30
0.0
 10
12.0000000000009
 20
23.80047143824152
 30
0.0
  0
SPLINE
  5
B9
330
1F
100
AcDbEntity
  8
외형선
  6
Continuous
370
    15
100
AcDbSpline
210
0.0
220
0.0
230
1.0
 70
    24
 71
     3
 72
    17
 73
    13
 74
     0
 42
0.000000001
 43
0.00000001
 40
0.0
 40
0.0
 40
0.0
 40
0.0
 40
0.0902703044178436
 40
0.1822379978734373
 40
0.2933665057473778
 40
0.4077177478780415
 40
0.5188462557519775
 40
0.6331974978826372
 40
0.7443260057565763
 40
0.8586772478872388
 40
0.9698057557611782
 40
1.0
 40
1.0
 40
1.0
 40
1.0
 10
11.99999999999998
 20
23.8004714382495
 30
0.0
 10
11.99999999999998
 20
23.40318153189058
 30
0.0
 10
11.99999999999998
 20
22.60113131640619
 30
0.0
 10
11.99999999999996
 20
21.19847856455943
 30
0.0
 10
11.99999999999995
 20
19.61914514219329
 30
0.0
 10
11.99999999999996
 20
17.90762851972299
 30
0.0
 10
12.00000000000003
 20
16.19535569565789
 30
0.0
 10
12.00000000000004
 20
14.56254538220267
 30
0.0
 10
12.00000000000009
 20
13.01985174596815
 30
0.0
 10
12.00000000000001
 20
11.66242307930935
 30
0.0
 10
12.00000000000003
 20
10.72418897426432
 30
0.0
 10
12.0
 20
10.33385089066743
 30
0.0
 10
12.0
 20
10.25045339623968
 30
0.0
  0
LINE
  5
BA
330
1F
100
AcDbEntity
  8
외형선
  6
Continuous
 62
     1
370
    15
100
AcDbLine
 10
139.0
 20
-25.21356986424626
 30
0.0
 11
139.0
 21
-15.25884354957529
 31
0.0
  0
SPLINE
  5
BB
330
1F
100
AcDbEntity
  8
외형선
  6
Continuous
 62
     1
370
    15
100
AcDbSpline
210
0.0
220
0.0
230
1.0
 70
     8
 71
     3
 72
    29
 73
    25
 74
     0
 42
0.000000001
 43
0.00000001
 40
0.0
 40
0.0
 40
0.0
 40
0.0
 40
0.0282246604759253
 40
0.07410076704989
 40
0.1199823089395832
 40
0.1658703004729605
 40
0.2125869750540985
 40
0.259298906302327
 40
0.3060074402234856
 40
0.3527139266506875
 40
0.3994197177257012
 40
0.4452921145013542
 40
0.4911674904826741
 40
0.537047939066118
 40
0.5829352785680701
 40
0.6296530684215068
 40
0.6763658450273248
 40
0.7230749534396805
 40
0.7697817428441934
 40
0.8164875650409138
 40
0.8623596582648058
 40
0.9082343667460211
 40
0.9541137848857778
 40
1.0
 40
1.0
 40
1.0
 40
1.0
 10
62.27323799012932
 20
25.34337251562694
 30
0.0
 10
62.99505035811573
 20
25.34821735372602
 30
0.0
 10
64.89008998771598
 20
25.36093694763151
 30
0.0
 10
67.95862708404864
 20
24.83381610059557
 30
0.0
 10
71.47907037141657
 20
23.83067014496017
 30
0.0
 10
75.02140734897606
 20
22.34088052061533
 30
0.0
 10
78.58472372407054
 20
20.40989796060782
 30
0.0
 10
82.16885300502771
 20
18.06023105547432
 30
0.0
 10
85.7525919376303
 20
15.35210163080692
 30
0.0
 10
89.33608485987557
 20
12.33881345671743
 30
0.0
 10
92.8982081063146
 20
9.099749062237139
 30
0.0
 10
96.43895145071161
 20
5.703344358880615
 30
0.0
 10
99.95875212421157
 20
2.217969896973969
 30
0.0
 10
103.479087194379
 20
-1.310143988433845
 30
0.0
 10
107.0213648434105
 20
-4.834119219192935
 30
0.0
 10
110.5847832524851
 20
-8.28530816802959
 30
0.0
 10
114.1690027861212
 20
-11.59230522002664
 30
0.0
 10
117.7528097608034
 20
-14.66868859498159
 30
0.0
 10
121.3363368964589
 20
-17.45360350390949
 30
0.0
 10
124.8984628256786
 20
-19.87638066061136
 30
0.0
 10
128.4391709295895
 20
-21.90000993548522
 30
0.0
 10
131.9588932599036
 20
-23.48229313958196
 30
0.0
 10
135.4791221681342
 20
-24.64906255949219
 30
0.0
 10
137.8263161047301
 20
-25.02539147124562
 30
0.0
 10
138.9999999999999
 20
-25.21356986424626
 30
0.0
  0
SPLINE
  5
BC
330
1F
100
AcDbEntity
  8
외형선
  6
Continuous
 62
     1
370
    15
100
AcDbSpline
210
0.0
220
0.0
230
1.0
 70
     8
 71
     3
 72
    26
 73
    22
 74
     0
 42
0.000000001
 43
0.00000001
 40
0.0
 40
0.0
 40
0.0
 40
0.0
 40
0.0539096834091113
 40
0.1078132707635655
 40
0.1617123129724178
 40
0.2156083660626191
 40
0.2695029894304847
 40
0.3224351845980283
 40
0.3753699774466057
 40
0.4283097857860583
 40
0.4812570198791868
 40
0.5351678064095615
 40
0.589072494575308
 40
0.6429723254381449
 40
0.6968688541365159
 40
0.7507636395304363
 40
0.8036956303884657
 40
0.8566297987073442
 40
0.9095685632373081
 40
0.9625143358110777
 40
0.9999999999999999
 40
0.9999999999999999
 40
0.9999999999999999
 40
0.9999999999999999
 10
139.0000000000001
 20
-15.25884354957529
 30
0.0
 10
137.8050145715209
 20
-14.27445683031038
 30
0.0
 10
135.4151788423546
 20
-12.305794705275
 30
0.0
 10
131.830864931627
 20
-9.026792467995065
 30
0.0
 10
128.2469830897907
 20
-5.590269773922601
 30
0.0
 10
124.6634155489955
 20
-2.036872929791519
 30
0.0
 10
121.1012806207518
 20
1.534036722799508
 30
0.0
 10
117.5606002491866
 20
5.053722787245464
 30
0.0
 10
114.0409501896751
 20
8.455303534103678
 30
0.0
 10
110.5208227175378
 20
11.69498295311899
 30
0.0
 10
106.9787675344601
 20
14.72865668534086
 30
0.0
 10
103.415160709374
 20
17.49257725156362
 30
0.0
 10
99.83075040769785
 20
19.92535189411817
 30
0.0
 10
96.24678813324402
 20
21.96198865131087
 30
0.0
 10
92.66317370866815
 20
23.56197815306165
 30
0.0
 10
89.10102336656092
 20
24.68724816352579
 30
0.0
 10
85.56036389035776
 20
25.32397528307987
 30
0.0
 10
82.0407774422369
 20
25.47585734670216
 30
0.0
 10
78.52074950096058
 20
25.12248587035732
 30
0.0
 10
75.34288583662446
 20
24.42523604545656
 30
0.0
 10
73.3383227364938
 20
23.64476084007452
 30
0.0
 10
72.50739068557233
 20
23.32123804198489
 30
0.0
  0
LINE
  5
BD
330
1F
100
AcDbEntity
  8
외형선
  6
Continuous
 62
     1
370
    15
100
AcDbLine
 10
139.0
 20
25.21571972169407
 30
0.0
 11
139.0
 21
25.40107492872389
 31
0.0
  0
LINE
  5
BE
330
1F
100
AcDbEntity
  8
외형선
  6
Continuous
370
    15
100
AcDbLine
 10
11.99999999999998
 20
4.215622284699893
 30
0.0
 11
12.00000000000001
 21
10.08995663240799
 31
0.0
  0
LINE
  5
BF
330
1F
100
AcDbEntity
  8
외형선
  6
Continuous
 62
     1
370
    15
100
AcDbLine
 10
139.0
 20
-25.39892507127611
 30
0.0
 11
139.0
 21
-25.21356986424626
 31
0.0
  0
LINE
  5
C0
330
1F
100
AcDbEntity
  8
외형선
  6
Continuous
 62
     1
370
    15
100
AcDbLine
 10
139.0
 20
-15.25884354957529
 30
0.0
 11
139.0
 21
-9.953651385946701
 31
0.0
  0
LINE
  5
C1
330
1F
100
AcDbEntity
  8
외형선
  6
Continuous
370
    15
100
AcDbLine
 10
11.99999999999998
 20
23.8004714382495
 30
0.0
 11
12.00000000000001
 21
25.23290911097889
 31
0.0
  0
LINE
  5
C2
330
1F
100
AcDbEntity
  8
외형선
  6
Continuous
 62
     1
370
    15
100
AcDbLine
 10
139.0
 20
9.955801243394967
 30
0.0
 11
139.0
 21
15.2609934070232
 31
0.0
  0
LINE
  5
C3
330
1F
100
AcDbEntity
  8
외형선
  6
Continuous
370
    15
100
AcDbLine
 10
11.99999999999998
 20
-19.5837742248255
 30
0.0
 11
12.00000000000003
 21
-15.14187754984708
 31
0.0
  0
LINE
  5
C4
330
1F
100
AcDbEntity
  8
외형선
  6
Continuous
370
    15
100
AcDbLine
 10
11.00022260296953
 20
-25.3989250712761
 30
0.0
 11
11.00022260296956
 21
-18.93128999196495
 31
0.0
  0
SPLINE
  5
C5
330
1F
100
AcDbEntity
  8
외형선
  6
Continuous
370
    15
100
AcDbSpline
210
0.0
220
0.0
230
1.0
 70
     8
 71
     3
 72
     8
 73
     4
 74
     0
 42
0.000000001
 43
0.00000001
 40
0.0
 40
0.0
 40
0.0
 40
0.0
 40
1.0
 40
1.0
 40
1.0
 40
1.0
 10
12.00000000000003
 20
-25.23075925353112
 30
0.0
 10
11.66626288529338
 20
-25.26911155766714
 30
0.0
 10
11.33355478306087
 20
-25.30089254324572
 30
0.0
 10
11.00022260296957
 20
-25.32613797560909
 30
0.0
  0
LINE
  5
C6
330
1F
100
AcDbEntity
  8
외형선
  6
Continuous
370
    15
100
AcDbLine
 10
11.00022260296953
 20
25.32828794020039
 30
0.0
 11
11.00022260296953
 21
25.40107492872389
 31
0.0
  0
SPLINE
  5
C7
330
1F
100
AcDbEntity
  8
외형선
  6
Continuous
370
    15
100
AcDbSpline
210
0.0
220
0.0
230
1.0
 70
     8
 71
     3
 72
     8
 73
     4
 74
     0
 42
0.000000001
 43
0.00000001
 40
0.0
 40
0.0
 40
0.0
 40
0.0
 40
1.0
 40
1.0
 40
1.0
 40
1.0
 10
12.00000000000003
 20
25.2329091109789
 30
0.0
 10
11.66626288529338
 20
25.27126141511492
 30
0.0
 10
11.33355478306087
 20
25.3030424006935
 30
0.0
 10
11.00022260296957
 20
25.32828783305688
 30
0.0
  0
SPLINE
  5
C8
330
1F
100
AcDbEntity
  8
외형선
  6
Continuous
370
    15
100
AcDbSpline
210
0.0
220
0.0
230
1.0
 70
     8
 71
     3
 72
     8
 73
     4
 74
     0
 42
0.000000001
 43
0.00000001
 40
0.0
 40
0.0
 40
0.0
 40
0.0
 40
1.0
 40
1.0
 40
1.0
 40
1.0
 10
12.0
 20
23.80047143824184
 30
0.0
 10
11.66626288529337
 20
23.91710741653714
 30
0.0
 10
11.33355478306095
 20
24.02746244286144
 30
0.0
 10
11.00022260296954
 20
24.13164064830586
 30
0.0
  0
LINE
  5
C9
330
1F
100
AcDbEntity
  8
외형선
  6
Continuous
370
    15
100
AcDbLine
 10
11.00022260296953
 20
11.00058684476126
 30
0.0
 11
11.00022260296956
 21
24.13164175672591
 31
0.0
  0
SPLINE
  5
CA
330
1F
100
AcDbEntity
  8
외형선
  6
Continuous
370
    15
100
AcDbSpline
210
0.0
220
0.0
230
1.0
 70
     8
 71
     3
 72
     8
 73
     4
 74
     0
 42
0.000000001
 43
0.00000001
 40
0.0
 40
0.0
 40
0.0
 40
0.0
 40
1.0
 40
1.0
 40
1.0
 40
1.0
 10
12.00000000000003
 20
10.08995663240799
 30
0.0
 10
11.66626288529338
 20
10.39633661132264
 30
0.0
 10
11.33355478306087
 20
10.69978994355814
 30
0.0
 10
11.00022260296957
 20
11.00058556816161
 30
0.0
  0
SPLINE
  5
CB
330
1F
100
AcDbEntity
  8
외형선
  6
Continuous
370
    15
100
AcDbSpline
210
0.0
220
0.0
230
1.0
 70
     8
 71
     3
 72
     8
 73
     4
 74
     0
 42
0.000000001
 43
0.00000001
 40
0.0
 40
0.0
 40
0.0
 40
0.0
 40
1.0
 40
1.0
 40
1.0
 40
1.0
 10
12.0
 20
4.215622284700224
 30
0.0
 10
11.66626288529337
 20
4.544839238417848
 30
0.0
 10
11.33355478306095
 20
4.872626795483999
 30
0.0
 10
11.00022260296954
 20
5.199273360629764
 30
0.0
  0
SPLINE
  5
CC
330
1F
100
AcDbEntity
  8
외형선
  6
Continuous
370
    15
100
AcDbSpline
210
0.0
220
0.0
230
1.0
 70
     8
 71
     3
 72
     8
 73
     4
 74
     0
 42
0.000000001
 43
0.00000001
 40
0.0
 40
0.0
 40
0.0
 40
0.0
 40
1.0
 40
1.0
 40
1.0
 40
1.0
 10
12.00000000000003
 20
-15.14187754984705
 30
0.0
 10
11.66626288529338
 20
-14.87384987506842
 30
0.0
 10
11.33355478306087
 20
-14.60217752841151
 30
0.0
 10
11.00022260296957
 20
-14.32662733617141
 30
0.0
  0
SPLINE
  5
CD
330
1F
100
AcDbEntity
  8
외형선
  6
Continuous
370
    15
100
AcDbSpline
210
0.0
220
0.0
230
1.0
 70
     8
 71
     3
 72
     8
 73
     4
 74
     0
 42
0.000000001
 43
0.00000001
 40
0.0
 40
0.0
 40
0.0
 40
0.0
 40
1.0
 40
1.0
 40
1.0
 40
1.0
 10
12.0
 20
-19.58377422481751
 30
0.0
 10
11.66626288529337
 20
-19.37119324939519
 30
0.0
 10
11.33355478306095
 20
-19.15376071865333
 30
0.0
 10
11.00022260296954
 20
-18.93129235895199
 30
0.0
  0
LINE
  5
D0
330
1F
100
AcDbEntity
  8
외형선
  6
Continuous
370
    15
100
AcDbLine
 10
11.00022260296953
 20
-14.32662616671528
 30
0.0
 11
11.00022260296956
 21
5.199276836036853
 31
0.0
  0
LINE
  5
D1
330
1F
100
AcDbEntity
  8
외형선
  6
Continuous
370
    15
100
AcDbLine
 10
-83.25
 20
0.0010749287238949
 30
0.0
 11
-83.25
 21
20.32107492872391
 31
0.0
  0
SPLINE
  5
D3
330
1F
100
AcDbEntity
  8
외형선
  6
Continuous
370
    15
100
AcDbSpline
210
0.0
220
0.0
230
1.0
 70
    24
 71
     3
 72
    23
 73
    19
 74
     0
 42
0.000000001
 43
0.00000001
 40
0.0
 40
0.0
 40
0.0
 40
0.0
 40
0.0510042062498536
 40
0.1133711059311239
 40
0.1757380056123942
 40
0.2381049052936632
 40
0.3004718049749321
 40
0.3628387046562027
 40
0.4252056043374733
 40
0.4875725040187435
 40
0.5499394037000136
 40
0.6123063033812837
 40
0.6746732030625536
 40
0.7370401027438235
 40
0.799407002425093
 40
0.8617739021063643
 40
0.9241408017876356
 40
1.0
 40
1.0
 40
1.0
 40
1.0
 10
12.00000000000004
 20
-15.14187754984704
 30
0.0
 10
12.00000000000004
 20
-14.92708705808476
 30
0.0
 10
12.00000000000001
 20
-14.44965514834593
 30
0.0
 10
12.00000000000006
 20
-13.44529498152065
 30
0.0
 10
12.00000000000004
 20
-12.18366008313392
 30
0.0
 10
11.99999999999999
 20
-10.73669877099978
 30
0.0
 10
12.00000000000006
 20
-9.157506111144459
 30
0.0
 10
12.00000000000001
 20
-7.484732199233828
 30
0.0
 10
12.00000000000001
 20
-5.769046828087871
 30
0.0
 10
12.00000000000001
 20
-4.058244945377542
 30
0.0
 10
11.99999999999995
 20
-2.399706077928557
 30
0.0
 10
12.0
 20
-0.8437292826234783
 30
0.0
 10
12.00000000000004
 20
0.5707766039116822
 30
0.0
 10
12.0
 20
1.796072059823083
 30
0.0
 10
11.99999999999995
 20
2.808695644361885
 30
0.0
 10
12.00000000000001
 20
3.559096714514256
 30
0.0
 10
12.00000000000004
 20
4.115771059963967
 30
0.0
 10
12.00000000000004
 20
4.161347706814543
 30
0.0
 10
12.00000000000004
 20
4.186360406586716
 30
0.0
  0
SPLINE
  5
D4
330
1F
100
AcDbEntity
  8
외형선
  6
Continuous
370
    15
100
AcDbSpline
210
0.0
220
0.0
230
1.0
 70
    24
 71
     3
 72
    16
 73
    12
 74
     0
 42
0.000000001
 43
0.00000001
 40
0.0
 40
0.0
 40
0.0
 40
0.0
 40
0.0513527286868982
 40
0.1640508029425023
 40
0.2767488771981061
 40
0.3894469514537101
 40
0.5021450257093134
 40
0.6148430999649166
 40
0.7275411742205228
 40
0.8402392484761291
 40
0.9999999999999999
 40
0.9999999999999999
 40
0.9999999999999999
 40
0.9999999999999999
 10
12.00000000000001
 20
10.25046339623967
 30
0.0
 10
12.00000000000004
 20
10.3979922791643
 30
0.0
 10
12.00000000000004
 20
10.86928625554788
 30
0.0
 10
11.99999999999995
 20
11.90270314393915
 30
0.0
 10
12.00000000000001
 20
13.30470739614813
 30
0.0
 10
12.00000000000001
 20
14.86214832682393
 30
0.0
 10
12.00000000000003
 20
16.51886425873462
 30
0.0
 10
11.99999999999998
 20
18.23018969767067
 30
0.0
 10
12.00000000000001
 20
19.94356925438857
 30
0.0
 10
12.00000000000003
 20
21.86062945462706
 30
0.0
 10
12.00000000000003
 20
23.08345020779824
 30
0.0
 10
12.00000000000004
 20
23.80047143824182
 30
0.0
  0
SPLINE
  5
D5
330
1F
100
AcDbEntity
  8
외형선
  6
Continuous
370
    15
100
AcDbSpline
210
0.0
220
0.0
230
1.0
 70
    24
 71
     3
 72
    12
 73
     8
 74
     0
 42
0.000000001
 43
0.00000001
 40
0.0
 40
0.0
 40
0.0
 40
0.0
 40
0.123109072039548
 40
0.2468051944479731
 40
0.5441181075959513
 40
0.8500531153666305
 40
1.0
 40
1.0
 40
1.0
 40
1.0
 10
12.00000000000003
 20
-25.23075925353113
 30
0.0
 10
12.00000000000001
 20
-24.99829877693541
 30
0.0
 10
12.0
 20
-24.53226932697543
 30
0.0
 10
12.00000000000009
 20
-23.50165436163764
 30
0.0
 10
12.00000000000004
 20
-22.13691155027642
 30
0.0
 10
11.99999999999994
 20
-20.75364223441153
 30
0.0
 10
12.00000000000004
 20
-19.99410499835617
 30
0.0
 10
12.00000000000006
 20
-19.74428098865719
 30
0.0
  0
LINE
  5
D6
330
1F
100
AcDbEntity
  8
중심선
 62
     1
100
AcDbLine
 10
-86.25
 20
0.0010749287238888
 30
0.0
 11
142.0
 21
0.0010749287239176
 31
0.0
  0
LINE
  5
D7
330
1F
100
AcDbEntity
  8
참조1
100
AcDbLine
 10
69.15000000000005
 20
0.0010749287238892
 30
0.0
 11
69.15000000000005
 21
-39.99892507127611
 31
0.0
  0
LINE
  5
D8
330
1F
100
AcDbEntity
  8
참조1
100
AcDbLine
 10
69.15000000000005
 20
-39.99892507127611
 30
0.0
 11
-9.508856814308633
 21
-39.9989250712761
 31
0.0
  0
CIRCLE
  5
D9
330
1F
100
AcDbEntity
  8
해칭선
100
AcDbCircle
 10
0.0
 20
0.0
 30
0.0
 40
3.000000000000004
  0
INSERT
  5
DA
330
1F
100
AcDbEntity
  8
0
  6
Continuous
 62
     7
100
AcDbBlockReference
 66
     1
  2
블럭10
 10
13.9347270678748
 20
-52.04609937292004
 30
0.0
  0
ATTRIB
  5
DB
330
DA
100
AcDbEntity
  8
FORMAT
 62
     2
100
AcDbText
 10
4.753431779133514
 20
-49.97073246008785
 30
0.0
 40
4.233333333333333
  1
E1100202 [ 6 FLUTE ]
 41
0.75
  7
SLDTEXTSTYLE0
 11
4.753431779133514
 21
-52.08739912675452
 31
0.0
100
AcDbAttribute
  2
AUTOATTR0
 70
     0
 74
     1
  0
SEQEND
  5
DC
330
DA
100
AcDbEntity
  8
0
  6
Continuous
 62
     7
  0
HATCH
  5
DD
330
1F
100
AcDbEntity
  8
중심선
100
AcDbHatch
 10
0.0
 20
0.0
 30
0.0
210
0.0
220
0.0
230
1.0
  2
SOLID
 70
     1
 71
     0
 91
        1
 92
        0
 93
        4
 72
     1
 10
19.64963637225561
 20
-35.7989250712761
 11
16.20336112841833
 21
-35.7989250712761
 72
     1
 10
16.20336112841833
 20
-35.7989250712761
 11
14.07513126921437
 21
-38.3352506518487
 72
     1
 10
14.07513126921437
 20
-38.3352506518487
 11
17.52143959816468
 21
-38.33521122254621
 72
     1
 10
17.52143959816468
 20
-38.33521122254621
 11
19.64963637225561
 21
-35.7989250712761
 97
        0
 75
     0
 76
     1
 98
        1
 10
-41.27500000000003
 20
0.0
  0
HATCH
  5
DE
330
1F
100
AcDbEntity
  8
중심선
100
AcDbHatch
 10
0.0
 20
0.0
 30
0.0
210
0.0
220
0.0
230
1.0
  2
SOLID
 70
     1
 71
     0
 91
        1
 92
        0
 93
        4
 72
     1
 10
24.66240036329162
 20
-35.79892507127608
 11
21.21612511945428
 21
-35.79892507127608
 72
     1
 10
21.21612511945428
 20
-35.79892507127608
 11
16.68498711109687
 21
-41.19892507127612
 72
     1
 10
16.68498711109687
 20
-41.19892507127612
 11
20.13126235493415
 21
-41.19892507127612
 72
     1
 10
20.13126235493415
 20
-41.19892507127612
 11
24.66240036329162
 21
-35.79892507127608
 97
        0
 75
     0
 76
     1
 98
        1
 10
-41.27500000000003
 20
0.0
  0
HATCH
  5
DF
330
1F
100
AcDbEntity
  8
중심선
100
AcDbHatch
 10
0.0
 20
0.0
 30
0.0
210
0.0
220
0.0
230
1.0
  2
SOLID
 70
     1
 71
     0
 91
        1
 92
        0
 93
        4
 72
     1
 10
29.67516435432752
 20
-35.7989250712761
 11
26.22888911049034
 21
-35.7989250712761
 72
     1
 10
26.22888911049034
 20
-35.7989250712761
 11
19.18045220860107
 21
-44.19892507127612
 72
     1
 10
19.18045220860107
 20
-44.19892507127612
 11
22.62672745243835
 21
-44.19892507127612
 72
     1
 10
22.62672745243835
 20
-44.19892507127612
 11
29.67516435432752
 21
-35.7989250712761
 97
        0
 75
     0
 76
     1
 98
        1
 10
-41.27500000000003
 20
0.0
  0
HATCH
  5
E0
330
1F
100
AcDbEntity
  8
중심선
100
AcDbHatch
 10
0.0
 20
0.0
 30
0.0
210
0.0
220
0.0
230
1.0
  2
SOLID
 70
     1
 71
     0
 91
        1
 92
        0
 93
        6
 72
     3
 10
34.47505478533967
 20
-39.99892507132738
 11
3.960054785062283
 21
1.540882976769353E-10
 40
0.3939339440162628
 50
17.09539180608451
 51
320.0019657685075
 73
     0
 72
     1
 10
36.15805444104022
 20
-38.58681907591441
 11
38.4633563147412
 21
-36.65249236586649
 72
     3
 10
34.47505478528682
 20
-39.99892507127625
 11
6.600054785286829
 21
-1.278976924368180E-13
 40
0.636358354079598
 50
39.99873849337483
 51
368.4976242363724
 73
     1
 72
     1
 10
40.90038727718739
 20
-39.03892507120613
 11
33.15512209212265
 21
-39.03892507120613
 72
     1
 10
33.15512209212265
 20
-39.03892507120613
 11
33.1550970476768
 21
-40.95892507120602
 72
     1
 10
33.1550970476768
 20
-40.95892507120602
 11
37.59647681714881
 21
-40.95892507120599
 97
        0
 75
     0
 76
     1
 98
        1
 10
-41.27500000000003
 20
0.0
  0
DIMENSION
  5
F4
330
1F
100
AcDbEntity
  8
치수문자_일반주서
100
AcDbDimension
  2
_D_1
 10
12.00000000000003
 20
47.75570626228482
 30
0.0
 11
75.50000000000001
 21
47.75570626228482
 31
0.0
 70
   160
  1
<>
 71
     2
 42
127.0
  3
SLDDIMSTYLE0
100
AcDbAlignedDimension
 13
139.0
 23
25.40107492872389
 33
0.0
 14
12.00000000000003
 24
25.2329091109789
 34
0.0
 50
0.0000000000000064
100
AcDbRotatedDimension
1001
ACAD
1000
DSTYLE
1002
{
1070
   171
1070
     6
1070
   273
1070
     7
1002
}
  0
DIMENSION
  5
108
330
1F
100
AcDbEntity
  8
치수문자_일반주서
100
AcDbDimension
  2
_D_2
 10
-83.25
 20
59.75570626228484
 30
0.0
 11
27.87500000000001
 21
59.75570626228484
 31
0.0
 70
   160
  1
<>
 71
     2
 42
222.25
  3
SLDDIMSTYLE0
100
AcDbAlignedDimension
 13
139.0
 23
25.40107492872389
 33
0.0
 14
-83.25
 24
20.32107492872391
 34
0.0
 50
0.0000000000000037
100
AcDbRotatedDimension
1001
ACAD
1000
DSTYLE
1002
{
1070
   171
1070
     6
1070
   273
1070
     7
1002
}
  0
DIMENSION
  5
11B
330
1F
100
AcDbEntity
  8
치수문자_일반주서
100
AcDbDimension
  2
_D_3
 10
151.6500000000003
 20
-25.39892507127607
 30
0.0
 11
151.6499999999999
 21
71.58072736996918
 31
0.0
 70
   160
  1
%%c<>
 71
     2
 42
50.8
 52
-270.0
  3
SLDDIMSTYLE0
100
AcDbAlignedDimension
 13
139.0
 23
25.40107492872389
 33
0.0
 14
139.0
 24
-25.39892507127611
 34
0.0
 50
90.0000000000002
100
AcDbRotatedDimension
1001
ACAD
1000
DSTYLE
1002
{
1070
   171
1070
     6
1070
   273
1070
     7
1002
}
  0
LINE
  5
12E
330
1F
100
AcDbEntity
  8
참조1
100
AcDbLine
 10
88.46348381534564
 20
7.441074928723896
 30
0.0
 11
88.46348381534564
 21
-7.438925071276109
 31
0.0
  0
LINE
  5
12F
330
1F
100
AcDbEntity
  8
참조1
100
AcDbLine
 10
101.1634838153456
 20
5.441074928723896
 30
0.0
 11
88.46348381534564
 21
5.441074928723896
 31
0.0
  0
SOLID
  5
130
330
1F
100
AcDbEntity
  8
참조1
100
AcDbTrace
 10
88.46348381534564
 20
5.441074928723896
 30
0.0
 11
94.81348381534563
 21
4.425074928723896
 31
0.0
 12
94.81348381534563
 22
6.457074928723896
 32
0.0
 13
94.81348381534563
 23
6.457074928723896
 33
0.0
  0
LINE
  5
131
330
1F
100
AcDbEntity
  8
참조1
100
AcDbLine
 10
101.1634838153456
 20
-5.438925071276109
 30
0.0
 11
88.46348381534564
 21
-5.438925071276109
 31
0.0
  0
SOLID
  5
132
330
1F
100
AcDbEntity
  8
참조1
100
AcDbTrace
 10
88.46348381534564
 20
-5.438925071276109
 30
0.0
 11
94.81348381534563
 21
-6.454925071276109
 31
0.0
 12
94.81348381534563
 22
-4.422925071276109
 32
0.0
 13
94.81348381534563
 23
-4.422925071276109
 33
0.0
  0
MTEXT
  5
133
330
1F
100
AcDbEntity
  8
참조1
100
AcDbMText
 10
97.8609739078159
 20
10.98929157337383
 30
0.0
 40
3.5
 41
0.0
 71
     1
 72
     1
  1
A
  7
SLDTEXTSTYLE0
 73
     1
 44
1.0
  0
MTEXT
  5
134
330
1F
100
AcDbEntity
  8
참조1
100
AcDbMText
 10
97.8609739078159
 20
0.1092915733738251
 30
0.0
 40
3.5
 41
0.0
 71
     1
 72
     1
  1
A
  7
SLDTEXTSTYLE0
 73
     1
 44
1.0
  0
INSERT
  5
13B
330
1F
100
AcDbEntity
  8
해칭선
100
AcDbBlockReference
  2
SW_DOWELSYMBOL_0
 10
0.0
 20
0.0
 30
0.0
  0
LINE
  5
509
330
1F
100
AcDbEntity
  8
외형선
  6
Continuous
370
    15
100
AcDbLine
 10
-78.17
 20
-25.3989250712761
 30
0.0
 11
-73.72499999999997
 21
-25.3989250712761
 31
0.0
  0
LINE
  5
50A
330
1F
100
AcDbEntity
  8
외형선
  6
Continuous
370
    15
100
AcDbLine
 10
10.99968921090579
 20
25.40107492872389
 30
0.0
 11
-28.18279999999999
 21
25.40107492872389
 31
0.0
  0
LINE
  5
53B
330
1F
100
AcDbEntity
  8
외형선
  6
Continuous
370
    15
100
AcDbLine
 10
-83.25
 20
-20.31892507127611
 30
0.0
 11
-83.25
 21
0.0010749287238809
 31
0.0
  0
LINE
  5
53D
330
1F
100
AcDbEntity
  8
외형선
  6
Continuous
370
    15
100
AcDbLine
 10
8.949890311373736
 20
25.4010749287239
 30
0.0
 11
-28.18279999999999
 21
25.4010749287239
 31
0.0
  0
LINE
  5
53E
330
1F
100
AcDbEntity
  8
외형선
  6
Continuous
370
    15
100
AcDbLine
 10
-82.24999999999997
 20
-25.3989250712761
 30
0.0
 11
-73.72499999999997
 21
-25.3989250712761
 31
0.0
  0
LINE
  5
53F
330
1F
100
AcDbEntity
  8
외형선
  6
Continuous
370
    15
100
AcDbLine
 10
-83.24999999999997
 20
-24.3989250712761
 30
0.0
 11
-82.24999999999997
 21
-25.3989250712761
 31
0.0
  0
LINE
  5
540
330
1F
100
AcDbEntity
  8
외형선
  6
Continuous
370
    15
100
AcDbLine
 10
-82.24999999999997
 20
19.86387492872392
 30
0.0
 11
-82.24999999999997
 21
-25.3989250712761
 31
0.0
  0
LINE
  5
541
330
1F
100
AcDbEntity
  8
외형선
  6
Continuous
370
    15
100
AcDbLine
 10
-83.24999999999997
 20
19.86387492872392
 30
0.0
 11
-83.24999999999997
 21
-24.3989250712761
 31
0.0
  0
DIMENSION
  5
542
330
1F
100
AcDbEntity
  8
치수문자_일반주서
100
AcDbDimension
  2
*D14
 10
-95.7499999999999
 20
-25.39892507127615
 30
0.0
 11
-95.74999999999999
 21
0.0010749287239094
 31
0.0
 70
   160
  1
%%c<>
 71
     2
 42
50.80000000000001
 52
-270.0
  3
SLDDIMSTYLE0
100
AcDbAlignedDimension
 13
-83.25
 23
25.40107492872392
 33
0.0
 14
-82.24999999999997
 24
-25.3989250712761
 34
0.0
 50
90.0000000000002
100
AcDbRotatedDimension
1001
ACAD
1000
DSTYLE
1002
{
1070
   171
1070
     6
1070
   273
1070
     7
1002
}
  0
LINE
  5
543
330
1F
100
AcDbEntity
  8
외형선
  6
Continuous
370
    15
100
AcDbLine
 10
-47.69
 20
-14.82382388914331
 30
0.0
 11
-47.69
 21
14.82597374659109
 31
0.0
  0
LINE
  5
544
330
1F
100
AcDbEntity
  8
외형선
  6
Continuous
370
    15
100
AcDbLine
 10
-47.69
 20
14.82597374659109
 30
0.0
 11
-29.90999999999997
 21
14.82597374659109
 31
0.0
  0
LINE
  5
545
330
1F
100
AcDbEntity
  8
외형선
  6
Continuous
370
    15
100
AcDbLine
 10
-47.69
 20
-14.82382388914331
 30
0.0
 11
-29.90999999999997
 21
-14.82382388914331
 31
0.0
  0
LINE
  5
546
330
1F
100
AcDbEntity
  8
외형선
  6
Continuous
370
    15
100
AcDbLine
 10
-29.90999999999997
 20
14.82597374659109
 30
0.0
 11
-29.90999999999997
 21
-14.82382388914331
 31
0.0
  0
SPLINE
  5
547
330
1F
100
AcDbEntity
  8
외형선
  6
Continuous
370
    15
100
AcDbSpline
210
0.0
220
0.0
230
1.0
 70
  1064
 71
     3
 72
     9
 73
     5
 74
     3
 42
0.000000001
 43
0.0000000001
 44
0.0
 40
0.0
 40
0.0
 40
0.0
 40
0.0
 40
15.44052883416385
 40
30.88105766832773
 40
30.88105766832773
 40
30.88105766832773
 40
30.88105766832773
 10
-47.69
 20
14.82597374659109
 30
0.0
 10
-49.84825773012895
 20
9.884340807302031
 30
0.0
 10
-54.16477319038686
 20
0.0010749287238996
 30
0.0
 10
-49.84825773012895
 20
-9.882190949854238
 30
0.0
 10
-47.69
 20
-14.82382388914331
 30
0.0
 11
-47.69
 21
14.82597374659109
 31
0.0
 11
-52.0065154602579
 21
0.0010749287239094
 31
0.0
 11
-47.69
 21
-14.82382388914331
 31
0.0
  0
SPLINE
  5
548
330
1F
100
AcDbEntity
  8
외형선
  6
Continuous
370
    15
100
AcDbSpline
210
0.0
220
0.0
230
1.0
 70
  1064
 71
     3
 72
     9
 73
     5
 74
     3
 42
0.000000001
 43
0.0000000001
 44
0.0
 40
0.0
 40
0.0
 40
0.0
 40
0.0
 40
15.44052883416385
 40
30.88105766832774
 40
30.88105766832774
 40
30.88105766832774
 40
30.88105766832774
 10
-29.90999999999997
 20
14.82597374659109
 30
0.0
 10
-27.75174226987102
 20
9.884340807302031
 30
0.0
 10
-23.43522680961311
 20
0.0010749287238996
 30
0.0
 10
-27.75174226987102
 20
-9.882190949854238
 30
0.0
 10
-29.90999999999997
 20
-14.82382388914331
 30
0.0
 11
-29.90999999999997
 21
14.82597374659109
 31
0.0
 11
-25.59348453974206
 21
0.0010749287239094
 31
0.0
 11
-29.90999999999997
 21
-14.82382388914331
 31
0.0
  0
LINE
  5
549
330
1F
100
AcDbEntity
  8
외형선
  6
Continuous
370
    15
100
AcDbLine
 10
-61.02499999999998
 20
25.4010749287239
 30
0.0
 11
-61.02499999999998
 21
-25.3989250712761
 31
0.0
  0
LINE
  5
54A
330
1F
100
AcDbEntity
  8
외형선
  6
Continuous
370
    15
100
AcDbLine
 10
-73.72499999999997
 20
19.86387492872392
 30
0.0
 11
-73.72499999999997
 21
-25.3989250712761
 31
0.0
  0
LINE
  5
54B
330
1F
100
AcDbEntity
  8
외형선
  6
Continuous
370
    15
100
AcDbLine
 10
-61.02499999999998
 20
-25.3989250712761
 30
0.0
 11
8.949890311373736
 21
-25.39892507127607
 31
0.0
  0
LINE
  5
54C
330
1F
100
AcDbEntity
  8
외형선
  6
Continuous
370
    15
100
AcDbLine
 10
-61.02499999999998
 20
25.02007492872389
 30
0.0
 11
-61.02499999999998
 21
-25.0179250712761
 31
0.0
  0
LINE
  5
54D
330
1F
100
AcDbEntity
  8
외형선
  6
Continuous
370
    15
100
AcDbLine
 10
-61.02499999999998
 20
25.02007492872389
 30
0.0
 11
-61.5968037668174
 21
25.02007492872389
 31
0.0
  0
LINE
  5
54E
330
1F
100
AcDbEntity
  8
외형선
  6
Continuous
370
    15
100
AcDbLine
 10
-61.02499999999998
 20
-25.0179250712761
 30
0.0
 11
-73.72499999999997
 21
-25.0179250712761
 31
0.0
  0
LINE
  5
54F
330
1F
100
AcDbEntity
  8
외형선
  6
Continuous
370
    15
100
AcDbLine
 10
-48.45199999999994
 20
22.9118749287239
 30
0.0
 11
-30.67199999999997
 21
22.9118749287239
 31
0.0
  0
LINE
  5
550
330
1F
100
AcDbEntity
  8
외형선
  6
Continuous
370
    15
100
AcDbLine
 10
-48.45199999999994
 20
22.9118749287239
 30
0.0
 11
-50.94119999999998
 21
25.4010749287239
 31
0.0
  0
LINE
  5
551
330
1F
100
AcDbEntity
  8
외형선
  6
Continuous
370
    15
100
AcDbLine
 10
-30.67199999999997
 20
22.9118749287239
 30
0.0
 11
-28.18279999999999
 21
25.4010749287239
 31
0.0
  0
LINE
  5
552
330
1F
100
AcDbEntity
  8
외형선
  6
Continuous
370
    15
100
AcDbLine
 10
-62.09179999999998
 20
23.07312647568634
 30
0.0
 11
-62.09179999999998
 21
-6.9409650436275
 31
0.0
  0
LINE
  5
553
330
1F
100
AcDbEntity
  8
외형선
  6
Continuous
370
    15
100
AcDbLine
 10
-82.24999999999997
 20
19.86387492872392
 30
0.0
 11
-82.24999999999997
 21
-25.3989250712761
 31
0.0
  0
LINE
  5
554
330
1F
100
AcDbEntity
  8
외형선
  6
Continuous
370
    15
100
AcDbLine
 10
-67.92357134821702
 20
19.86387492872392
 30
0.0
 11
-83.24999999999997
 21
19.86387492872392
 31
0.0
  0
ARC
  5
555
330
1F
100
AcDbEntity
  8
외형선
  6
Continuous
370
    15
100
AcDbCircle
 10
-67.17179999999996
 20
25.4010749287239
 30
0.0
 40
5.588
100
AcDbArc
 50
262.2683738127859
 51
356.0904364753406
  0
LINE
  5
556
330
1F
100
AcDbEntity
  8
외형선
  6
Continuous
370
    15
100
AcDbLine
 10
-71.87515845852454
 20
19.86387492872392
 30
0.0
 11
-71.87515845852454
 21
-6.9409650436275
 31
0.0
  0
ARC
  5
557
330
1F
100
AcDbEntity
  8
외형선
  6
Continuous
370
    15
100
AcDbCircle
 10
-66.98347922926229
 20
-6.9409650436275
 30
0.0
 40
4.891679229262294
100
AcDbArc
 50
180.0
 51
0.0
  0
LINE
  5
558
330
1F
100
AcDbEntity
  8
외형선
  6
Continuous
370
    15
100
AcDbLine
 10
-50.94119999999995
 20
25.40107492872389
 30
0.0
 11
-61.02499999999998
 21
25.40107492872389
 31
0.0
  0
LINE
  5
559
330
1F
100
AcDbEntity
  8
외형선
  6
Continuous
370
    15
100
AcDbLine
 10
-61.02499999999998
 20
-25.3989250712761
 30
0.0
 11
12.00000000000003
 21
-25.3989250712761
 31
0.0
  0
LINE
  5
55A
330
1F
100
AcDbEntity
  8
외형선
  6
Continuous
370
    15
100
AcDbLine
 10
12.00000000000003
 20
25.40107492872389
 30
0.0
 11
-28.18279999999999
 21
25.40107492872389
 31
0.0
  0
LINE
  5
55B
330
1F
100
AcDbEntity
  8
외형선
  6
Continuous
370
    15
100
AcDbLine
 10
-78.16999999999999
 20
-25.3989250712761
 30
0.0
 11
-73.72499999999997
 21
-25.3989250712761
 31
0.0
  0
LINE
  5
55C
330
1F
100
AcDbEntity
  8
외형선
  6
Continuous
370
    15
100
AcDbLine
 10
-50.94119999999995
 20
25.40107492872389
 30
0.0
 11
-61.02499999999998
 21
25.40107492872389
 31
0.0
  0
LINE
  5
58E
330
1F
100
AcDbEntity
  8
외형선
  6
Continuous
370
    15
100
AcDbLine
 10
-61.02499999999998
 20
-25.3989250712761
 30
0.0
 11
10.99968921090579
 21
-25.3989250712761
 31
0.0
  0
LINE
  5
58F
330
1F
100
AcDbEntity
  8
외형선
  6
Continuous
370
    15
100
AcDbLine
 10
-61.02499999999998
 20
-25.3989250712761
 30
0.0
 11
11.00022260296953
 21
-25.3989250712761
 31
0.0
  0
LINE
  5
590
330
1F
100
AcDbEntity
  8
외형선
  6
Continuous
370
    15
100
AcDbLine
 10
-50.94119999999996
 20
25.40107492872389
 30
0.0
 11
-61.02499999999998
 21
25.40107492872389
 31
0.0
  0
ENDSEC
  0
SECTION
  2
OBJECTS
  0
DICTIONARY
  5
C
330
0
100
AcDbDictionary
281
     1
  3
ACAD_GROUP
350
D
  3
ACAD_IMAGE_VARS
350
15F
  3
ACAD_LAYOUT
350
1A
  3
ACAD_MLINESTYLE
350
17
  3
ACAD_PLOTSETTINGS
350
19
  3
ACAD_PLOTSTYLENAME
350
E
  3
ACAD_SCALELIST
350
47
  3
APPDATA
350
15D
  3
DWGPROPS
350
5B4
  0
DICTIONARY
  5
D
102
{ACAD_REACTORS
330
C
102
}
330
C
100
AcDbDictionary
281
     1
  0
RASTERVARIABLES
  5
15F
102
{ACAD_REACTORS
330
C
102
}
330
C
100
AcDbRasterVariables
 90
        0
 70
     1
 71
     1
 72
     1
  0
DICTIONARY
  5
1A
102
{ACAD_REACTORS
330
C
102
}
330
C
100
AcDbDictionary
281
     1
  3
Layout1
350
1E
  3
Layout2
350
26
  3
Model
350
22
  0
DICTIONARY
  5
17
102
{ACAD_REACTORS
330
C
102
}
330
C
100
AcDbDictionary
281
     1
  3
Standard
350
18
  0
DICTIONARY
  5
19
102
{ACAD_REACTORS
330
C
102
}
330
C
100
AcDbDictionary
281
     1
  0
ACDBDICTIONARYWDFLT
  5
E
102
{ACAD_REACTORS
330
C
102
}
330
C
100
AcDbDictionary
281
     1
  3
Normal
350
F
100
AcDbDictionaryWithDefault
340
F
  0
DICTIONARY
  5
47
102
{ACAD_REACTORS
330
C
102
}
330
C
100
AcDbDictionary
281
     1
  3
A0
350
48
  3
A1
350
49
  3
A2
350
4A
  3
A3
350
4B
  3
A4
350
4C
  3
A5
350
4D
  3
A6
350
4E
  3
A7
350
4F
  3
A8
350
50
  3
A9
350
51
  3
B0
350
52
  3
B1
350
53
  3
B2
350
54
  3
B3
350
55
  3
B4
350
56
  3
B5
350
57
  3
B6
350
58
  3
B7
350
59
  3
B8
350
5A
  3
B9
350
5B
  3
C0
350
5C
  3
C1
350
5D
  3
C2
350
5E
  3
C3
350
5F
  3
C4
350
60
  3
C5
350
61
  3
C6
350
62
  3
C7
350
63
  3
C8
350
64
  3
C9
350
65
  3
D0
350
66
  3
D1
350
67
  3
D2
350
68
  0
DICTIONARY
  5
15D
102
{ACAD_REACTORS
330
C
102
}
330
C
100
AcDbDictionary
281
     1
  0
XRECORD
  5
5B4
102
{ACAD_REACTORS
330
C
102
}
330
C
100
AcDbXrecord
280
     1
  1
DWGPROPS COOKIE
  2

  3

  4

  6

  7

  8
12017012
  9

300
=
301
=
302
=
303
=
304
=
305
=
306
=
307
=
308
=
309
=
 40
0.0
 41
2458323.064203356
 42
2458323.319535879
  1

 90
        0
  0
LAYOUT
  5
1E
102
{ACAD_REACTORS
330
1A
102
}
330
1A
100
AcDbPlotSettings
  1

  2
none_device
  4

  6

 40
0.0
 41
0.0
 42
0.0
 43
0.0
 44
0.0
 45
0.0
 46
0.0
 47
0.0
 48
0.0
 49
0.0
140
0.0
141
0.0
142
1.0
143
1.0
 70
   688
 72
     1
 73
     0
 74
     5
  7

 75
    16
147
1.0
148
0.0
149
0.0
100
AcDbLayout
  1
Layout1
 70
     1
 71
     1
 10
0.0
 20
0.0
 11
420.0
 21
297.0
 12
0.0
 22
0.0
 32
0.0
 14
1.000000000000000E+20
 24
1.000000000000000E+20
 34
1.000000000000000E+20
 15
-1.000000000000000E+20
 25
-1.000000000000000E+20
 35
-1.000000000000000E+20
146
0.0
 13
0.0
 23
0.0
 33
0.0
 16
1.0
 26
0.0
 36
0.0
 17
0.0
 27
1.0
 37
0.0
 76
     0
330
1B
  0
LAYOUT
  5
26
102
{ACAD_REACTORS
330
1A
102
}
330
1A
100
AcDbPlotSettings
  1

  2
none_device
  4

  6

 40
0.0
 41
0.0
 42
0.0
 43
0.0
 44
0.0
 45
0.0
 46
0.0
 47
0.0
 48
0.0
 49
0.0
140
0.0
141
0.0
142
1.0
143
1.0
 70
   688
 72
     1
 73
     0
 74
     5
  7

 75
    16
147
1.0
148
0.0
149
0.0
100
AcDbLayout
  1
Layout2
 70
     1
 71
     2
 10
0.0
 20
0.0
 11
0.0
 21
0.0
 12
0.0
 22
0.0
 32
0.0
 14
0.0
 24
0.0
 34
0.0
 15
0.0
 25
0.0
 35
0.0
146
0.0
 13
0.0
 23
0.0
 33
0.0
 16
1.0
 26
0.0
 36
0.0
 17
0.0
 27
1.0
 37
0.0
 76
     0
330
23
  0
LAYOUT
  5
22
102
{ACAD_REACTORS
330
1A
102
}
330
1A
100
AcDbPlotSettings
  1

  2
none_device
  4
ANSI_A_(11.00_x_8.50_Inches)
  6

 40
6.35
 41
19.05
 42
6.35000508
 43
19.05000254
 44
279.4
 45
215.9
 46
62.28243294049711
 47
73.07021391816438
 48
0.0
 49
0.0
140
0.0
141
0.0
142
0.0425057914709504
143
1.0
 70
  1696
 72
     0
 73
     0
 74
     0
  7

 75
     0
147
0.0235690232323232
148
0.0
149
0.0
100
AcDbLayout
  1
Model
 70
     1
 71
     0
 10
0.0
 20
0.0
 11
420.0
 21
297.0
 12
0.0
 22
0.0
 32
0.0
 14
-100.125
 24
-49.97073246008785
 34
0.0
 15
152.2003333333336
 25
82.95572736996918
 35
0.0
146
0.0
 13
0.0
 23
0.0
 33
0.0
 16
1.0
 26
0.0
 36
0.0
 17
0.0
 27
1.0
 37
0.0
 76
     0
330
1F
331
29
  0
MLINESTYLE
  5
18
102
{ACAD_REACTORS
330
17
102
}
330
17
100
AcDbMlineStyle
  2
Standard
 70
     0
  3

 62
   256
 51
90.0
 52
90.0
 71
     2
 49
0.5
 62
   256
  6
BYLAYER
 49
-0.5
 62
   256
  6
BYLAYER
  0
ACDBPLACEHOLDER
  5
F
102
{ACAD_REACTORS
330
E
102
}
330
E
  0
SCALE
  5
48
102
{ACAD_REACTORS
330
47
102
}
330
47
100
AcDbScale
 70
     0
300
1:1
140
1.0
141
1.0
290
     1
  0
SCALE
  5
49
102
{ACAD_REACTORS
330
47
102
}
330
47
100
AcDbScale
 70
     0
300
1:2
140
1.0
141
2.0
290
     0
  0
SCALE
  5
4A
102
{ACAD_REACTORS
330
47
102
}
330
47
100
AcDbScale
 70
     0
300
1:4
140
1.0
141
4.0
290
     0
  0
SCALE
  5
4B
102
{ACAD_REACTORS
330
47
102
}
330
47
100
AcDbScale
 70
     0
300
1:5
140
1.0
141
5.0
290
     0
  0
SCALE
  5
4C
102
{ACAD_REACTORS
330
47
102
}
330
47
100
AcDbScale
 70
     0
300
1:8
140
1.0
141
8.0
290
     0
  0
SCALE
  5
4D
102
{ACAD_REACTORS
330
47
102
}
330
47
100
AcDbScale
 70
     0
300
1:10
140
1.0
141
10.0
290
     0
  0
SCALE
  5
4E
102
{ACAD_REACTORS
330
47
102
}
330
47
100
AcDbScale
 70
     0
300
1:16
140
1.0
141
16.0
290
     0
  0
SCALE
  5
4F
102
{ACAD_REACTORS
330
47
102
}
330
47
100
AcDbScale
 70
     0
300
1:20
140
1.0
141
20.0
290
     0
  0
SCALE
  5
50
102
{ACAD_REACTORS
330
47
102
}
330
47
100
AcDbScale
 70
     0
300
1:30
140
1.0
141
30.0
290
     0
  0
SCALE
  5
51
102
{ACAD_REACTORS
330
47
102
}
330
47
100
AcDbScale
 70
     0
300
1:40
140
1.0
141
40.0
290
     0
  0
SCALE
  5
52
102
{ACAD_REACTORS
330
47
102
}
330
47
100
AcDbScale
 70
     0
300
1:50
140
1.0
141
50.0
290
     0
  0
SCALE
  5
53
102
{ACAD_REACTORS
330
47
102
}
330
47
100
AcDbScale
 70
     0
300
1:100
140
1.0
141
100.0
290
     0
  0
SCALE
  5
54
102
{ACAD_REACTORS
330
47
102
}
330
47
100
AcDbScale
 70
     0
300
2:1
140
2.0
141
1.0
290
     0
  0
SCALE
  5
55
102
{ACAD_REACTORS
330
47
102
}
330
47
100
AcDbScale
 70
     0
300
4:1
140
4.0
141
1.0
290
     0
  0
SCALE
  5
56
102
{ACAD_REACTORS
330
47
102
}
330
47
100
AcDbScale
 70
     0
300
8:1
140
8.0
141
1.0
290
     0
  0
SCALE
  5
57
102
{ACAD_REACTORS
330
47
102
}
330
47
100
AcDbScale
 70
     0
300
10:1
140
10.0
141
1.0
290
     0
  0
SCALE
  5
58
102
{ACAD_REACTORS
330
47
102
}
330
47
100
AcDbScale
 70
     0
300
100:1
140
100.0
141
1.0
290
     0
  0
SCALE
  5
59
102
{ACAD_REACTORS
330
47
102
}
330
47
100
AcDbScale
 70
     0
300
1/128" = 1'-0"
140
0.0078125
141
12.0
290
     0
  0
SCALE
  5
5A
102
{ACAD_REACTORS
330
47
102
}
330
47
100
AcDbScale
 70
     0
300
1/64" = 1'-0"
140
0.015625
141
12.0
290
     0
  0
SCALE
  5
5B
102
{ACAD_REACTORS
330
47
102
}
330
47
100
AcDbScale
 70
     0
300
1/32" = 1'-0"
140
0.03125
141
12.0
290
     0
  0
SCALE
  5
5C
102
{ACAD_REACTORS
330
47
102
}
330
47
100
AcDbScale
 70
     0
300
1/16" = 1'-0"
140
0.0625
141
12.0
290
     0
  0
SCALE
  5
5D
102
{ACAD_REACTORS
330
47
102
}
330
47
100
AcDbScale
 70
     0
300
3/32" = 1'-0"
140
0.09375
141
12.0
290
     0
  0
SCALE
  5
5E
102
{ACAD_REACTORS
330
47
102
}
330
47
100
AcDbScale
 70
     0
300
1/8" = 1'-0"
140
0.125
141
12.0
290
     0
  0
SCALE
  5
5F
102
{ACAD_REACTORS
330
47
102
}
330
47
100
AcDbScale
 70
     0
300
3/16" = 1'-0"
140
0.1875
141
12.0
290
     0
  0
SCALE
  5
60
102
{ACAD_REACTORS
330
47
102
}
330
47
100
AcDbScale
 70
     0
300
1/4" = 1'-0"
140
0.25
141
12.0
290
     0
  0
SCALE
  5
61
102
{ACAD_REACTORS
330
47
102
}
330
47
100
AcDbScale
 70
     0
300
3/8" = 1'-0"
140
0.375
141
12.0
290
     0
  0
SCALE
  5
62
102
{ACAD_REACTORS
330
47
102
}
330
47
100
AcDbScale
 70
     0
300
1/2" = 1'-0"
140
0.5
141
12.0
290
     0
  0
SCALE
  5
63
102
{ACAD_REACTORS
330
47
102
}
330
47
100
AcDbScale
 70
     0
300
3/4" = 1'-0"
140
0.75
141
12.0
290
     0
  0
SCALE
  5
64
102
{ACAD_REACTORS
330
47
102
}
330
47
100
AcDbScale
 70
     0
300
1" = 1'-0"
140
1.0
141
12.0
290
     0
  0
SCALE
  5
65
102
{ACAD_REACTORS
330
47
102
}
330
47
100
AcDbScale
 70
     0
300
1-1/2" = 1'-0"
140
1.5
141
12.0
290
     0
  0
SCALE
  5
66
102
{ACAD_REACTORS
330
47
102
}
330
47
100
AcDbScale
 70
     0
300
3" = 1'-0"
140
3.0
141
12.0
290
     0
  0
SCALE
  5
67
102
{ACAD_REACTORS
330
47
102
}
330
47
100
AcDbScale
 70
     0
300
6" = 1'-0"
140
6.0
141
12.0
290
     0
  0
SCALE
  5
68
102
{ACAD_REACTORS
330
47
102
}
330
47
100
AcDbScale
 70
     0
300
1'-0" = 1'-0"
140
12.0
141
12.0
290
     0
  0
ENDSEC
  0
EOF
