  0
SECTION
  2
HEADER
  9
$ACADVER
  1
AC1015
  9
$ACADMAINTVER
 70
     6
  9
$DWGCODEPAGE
  3
ANSI_949
  9
$INSBASE
 10
0.0
 20
0.0
 30
0.0
  9
$EXTMIN
 10
-100.125
 20
-49.97073246008785
 30
0.0
  9
$EXTMAX
 10
152.2003333333336
 20
82.95572736996918
 30
0.0
  9
$LIMMIN
 10
0.0
 20
0.0
  9
$LIMMAX
 10
420.0
 20
297.0
  9
$ORTHOMODE
 70
     0
  9
$REGENMODE
 70
     1
  9
$FILLMODE
 70
     1
  9
$QTEXTMODE
 70
     0
  9
$MIRRTEXT
 70
     1
  9
$LTSCALE
 40
1.0
  9
$ATTMODE
 70
     1
  9
$TEXTSIZE
 40
3.5
  9
$TRACEWID
 40
1.0
  9
$TEXTSTYLE
  7
Standard
  9
$CLAYER
  8
0
  9
$CELTYPE
  6
ByLayer
  9
$CECOLOR
 62
   256
  9
$CELTSCALE
 40
1.0
  9
$DISPSILH
 70
     0
  9
$DIMSCALE
 40
1.0
  9
$DIMASZ
 40
3.302
  9
$DIMEXO
 40
1.0
  9
$DIMDLI
 40
3.75
  9
$DIMRND
 40
0.0
  9
$DIMDLE
 40
0.0
  9
$DIMEXE
 40
1.0
  9
$DIMTP
 40
0.0
  9
$DIMTM
 40
0.0
  9
$DIMTXT
 40
3.5
  9
$DIMCEN
 40
2.5
  9
$DIMTSZ
 40
0.0
  9
$DIMTOL
 70
     0
  9
$DIMLIM
 70
     0
  9
$DIMTIH
 70
     1
  9
$DIMTOH
 70
     1
  9
$DIMSE1
 70
     0
  9
$DIMSE2
 70
     0
  9
$DIMTAD
 70
     1
  9
$DIMZIN
 70
     0
  9
$DIMBLK
  1

  9
$DIMASO
 70
     1
  9
$DIMSHO
 70
     1
  9
$DIMPOST
  1

  9
$DIMAPOST
  1

  9
$DIMALT
 70
     0
  9
$DIMALTD
 70
     3
  9
$DIMALTF
 40
0.0393700787401575
  9
$DIMLFAC
 40
1.0
  9
$DIMTOFL
 70
     1
  9
$DIMTVP
 40
0.0
  9
$DIMTIX
 70
     0
  9
$DIMSOXD
 70
     0
  9
$DIMSAH
 70
     0
  9
$DIMBLK1
  1

  9
$DIMBLK2
  1

  9
$DIMSTYLE
  2
ISO-25
  9
$DIMCLRD
 70
     0
  9
$DIMCLRE
 70
     0
  9
$DIMCLRT
 70
     0
  9
$DIMTFAC
 40
1.0
  9
$DIMGAP
 40
1.524
  9
$DIMJUST
 70
     0
  9
$DIMSD1
 70
     0
  9
$DIMSD2
 70
     0
  9
$DIMTOLJ
 70
     0
  9
$DIMTZIN
 70
     0
  9
$DIMALTZ
 70
     0
  9
$DIMALTTZ
 70
     0
  9
$DIMUPT
 70
     0
  9
$DIMDEC
 70
     2
  9
$DIMTDEC
 70
     2
  9
$DIMALTU
 70
     2
  9
$DIMALTTD
 70
     3
  9
$DIMTXSTY
  7
Standard
  9
$DIMAUNIT
 70
     0
  9
$DIMADEC
 70
     2
  9
$DIMALTRND
 40
0.0
  9
$DIMAZIN
 70
     0
  9
$DIMDSEP
 70
    44
  9
$DIMATFIT
 70
     3
  9
$DIMFRAC
 70
     0
  9
$DIMLDRBLK
  1

  9
$DIMLUNIT
 70
     2
  9
$DIMLWD
 70
    -2
  9
$DIMLWE
 70
    -2
  9
$DIMTMOVE
 70
     0
  9
$LUNITS
 70
     2
  9
$LUPREC
 70
     2
  9
$SKETCHINC
 40
1.0
  9
$FILLETRAD
 40
10.0
  9
$AUNITS
 70
     0
  9
$AUPREC
 70
     2
  9
$MENU
  1
.
  9
$ELEVATION
 40
0.0
  9
$PELEVATION
 40
0.0
  9
$THICKNESS
 40
0.0
  9
$LIMCHECK
 70
     0
  9
$CHAMFERA
 40
0.0
  9
$CHAMFERB
 40
0.0
  9
$CHAMFERC
 40
0.0
  9
$CHAMFERD
 40
0.0
  9
$SKPOLY
 70
     0
  9
$TDCREATE
 40
2458323.438991574
  9
$TDUCREATE
 40
2458323.063991574
  9
$TDUPDATE
 40
2458323.694667118
  9
$TDUUPDATE
 40
2458323.319667118
  9
$TDINDWG
 40
0.0024192708
  9
$TDUSRTIMER
 40
2458323.319541956
  9
$USRTIMER
 70
     1
  9
$ANGBASE
 50
0.0
  9
$ANGDIR
 70
     0
  9
$PDMODE
 70
     0
  9
$PDSIZE
 40
-1.0
  9
$PLINEWID
 40
0.0
  9
$SPLFRAME
 70
     0
  9
$SPLINETYPE
 70
     6
  9
$SPLINESEGS
 70
     8
  9
$HANDSEED
  5
2FF
  9
$SURFTAB1
 70
     6
  9
$SURFTAB2
 70
     6
  9
$SURFTYPE
 70
     6
  9
$SURFU
 70
     6
  9
$SURFV
 70
     6
  9
$UCSBASE
  2

  9
$UCSNAME
  2

  9
$UCSORG
 10
0.0
 20
0.0
 30
0.0
  9
$UCSXDIR
 10
1.0
 20
0.0
 30
0.0
  9
$UCSYDIR
 10
0.0
 20
1.0
 30
0.0
  9
$UCSORTHOREF
  2

  9
$UCSORTHOVIEW
 70
     0
  9
$UCSORGTOP
 10
0.0
 20
0.0
 30
0.0
  9
$UCSORGBOTTOM
 10
0.0
 20
0.0
 30
0.0
  9
$UCSORGLEFT
 10
0.0
 20
0.0
 30
0.0
  9
$UCSORGRIGHT
 10
0.0
 20
0.0
 30
0.0
  9
$UCSORGFRONT
 10
0.0
 20
0.0
 30
0.0
  9
$UCSORGBACK
 10
0.0
 20
0.0
 30
0.0
  9
$PUCSBASE
  2

  9
$PUCSNAME
  2

  9
$PUCSORG
 10
0.0
 20
0.0
 30
0.0
  9
$PUCSXDIR
 10
1.0
 20
0.0
 30
0.0
  9
$PUCSYDIR
 10
0.0
 20
1.0
 30
0.0
  9
$PUCSORTHOREF
  2

  9
$PUCSORTHOVIEW
 70
     0
  9
$PUCSORGTOP
 10
0.0
 20
0.0
 30
0.0
  9
$PUCSORGBOTTOM
 10
0.0
 20
0.0
 30
0.0
  9
$PUCSORGLEFT
 10
0.0
 20
0.0
 30
0.0
  9
$PUCSORGRIGHT
 10
0.0
 20
0.0
 30
0.0
  9
$PUCSORGFRONT
 10
0.0
 20
0.0
 30
0.0
  9
$PUCSORGBACK
 10
0.0
 20
0.0
 30
0.0
  9
$USERI1
 70
     0
  9
$USERI2
 70
     0
  9
$USERI3
 70
     0
  9
$USERI4
 70
     0
  9
$USERI5
 70
     0
  9
$USERR1
 40
0.0
  9
$USERR2
 40
0.0
  9
$USERR3
 40
0.0
  9
$USERR4
 40
0.0
  9
$USERR5
 40
0.0
  9
$WORLDVIEW
 70
     1
  9
$SHADEDGE
 70
     3
  9
$SHADEDIF
 70
    70
  9
$TILEMODE
 70
     1
  9
$MAXACTVP
 70
    64
  9
$PINSBASE
 10
0.0
 20
0.0
 30
0.0
  9
$PLIMCHECK
 70
     0
  9
$PEXTMIN
 10
1.000000000000000E+20
 20
1.000000000000000E+20
 30
1.000000000000000E+20
  9
$PEXTMAX
 10
-1.000000000000000E+20
 20
-1.000000000000000E+20
 30
-1.000000000000000E+20
  9
$PLIMMIN
 10
0.0
 20
0.0
  9
$PLIMMAX
 10
0.0
 20
0.0
  9
$UNITMODE
 70
     0
  9
$VISRETAIN
 70
     1
  9
$PLINEGEN
 70
     0
  9
$PSLTSCALE
 70
     1
  9
$TREEDEPTH
 70
  3020
  9
$CMLSTYLE
  2
Standard
  9
$CMLJUST
 70
     0
  9
$CMLSCALE
 40
20.0
  9
$PROXYGRAPHICS
 70
     1
  9
$MEASUREMENT
 70
     1
  9
$CELWEIGHT
370
    -1
  9
$ENDCAPS
280
     0
  9
$JOINSTYLE
280
     0
  9
$LWDISPLAY
290
     1
  9
$INSUNITS
 70
     4
  9
$HYPERLINKBASE
  1

  9
$STYLESHEET
  1

  9
$XEDIT
290
     1
  9
$CEPSNTYPE
380
     0
  9
$PSTYLEMODE
290
     1
  9
$FINGERPRINTGUID
  2
{A833D20A-496C-4747-BCF4-2C43BFDF40C5}
  9
$VERSIONGUID
  2
{FAEB1C32-E019-11D5-929B-00C0DF256EC4}
  9
$EXTNAMES
290
     1
  9
$PSVPSCALE
 40
0.0
  9
$OLESTARTUP
290
     0
  0
ENDSEC
  0
SECTION
  2
CLASSES
  0
CLASS
  1
ACDBDICTIONARYWDFLT
  2
AcDbDictionaryWithDefault
  3
ObjectDBX Classes
 90
        0
280
     0
281
     0
  0
CLASS
  1
VISUALSTYLE
  2
AcDbVisualStyle
  3
ObjectDBX Classes
 90
     4095
280
     0
281
     0
  0
CLASS
  1
MATERIAL
  2
AcDbMaterial
  3
ObjectDBX Classes
 90
     1153
280
     0
281
     0
  0
CLASS
  1
SCALE
  2
AcDbScale
  3
ObjectDBX Classes
 90
     1153
280
     0
281
     0
  0
CLASS
  1
SUN
  2
AcDbSun
  3
SCENEOE
 90
     1153
280
     0
281
     0
  0
CLASS
  1
ACDBPLACEHOLDER
  2
AcDbPlaceHolder
  3
ObjectDBX Classes
 90
        0
280
     0
281
     0
  0
CLASS
  1
LAYOUT
  2
AcDbLayout
  3
ObjectDBX Classes
 90
        0
280
     0
281
     0
  0
CLASS
  1
TABLESTYLE
  2
AcDbTableStyle
  3
ObjectDBX Classes
 90
     4095
280
     0
281
     0
  0
CLASS
  1
MLEADERSTYLE
  2
AcDbMLeaderStyle
  3
ACDB_MLEADERSTYLE_CLASS
 90
     4095
280
     0
281
     0
  0
CLASS
  1
RASTERVARIABLES
  2
AcDbRasterVariables
  3
ISM
 90
        0
280
     0
281
     0
  0
ENDSEC
  0
SECTION
  2
TABLES
  0
TABLE
  2
VPORT
  5
8
330
0
100
AcDbSymbolTable
 70
     1
  0
VPORT
  5
29
330
8
100
AcDbSymbolTableRecord
100
AcDbViewportTableRecord
  2
*Active
 70
     0
 10
0.0
 20
0.0
 11
1.0
 21
1.0
 12
4.256916278537943
 22
31.93042051031378
 13
0.0
 23
0.0
 14
10.0
 24
10.0
 15
10.0
 25
10.0
 16
0.0
 26
0.0
 36
1.0
 17
0.0
 27
0.0
 37
0.0
 40
200.1450284143221
 41
1.632093933463797
 42
50.0
 43
0.0
 44
0.0
 50
0.0
 51
0.0
 71
    16
 72
  2000
 73
     1
 74
     3
 75
     0
 76
     0
 77
     0
 78
     0
281
     0
 65
     1
110
0.0
120
0.0
130
0.0
111
1.0
121
0.0
131
0.0
112
0.0
122
1.0
132
0.0
 79
     0
146
0.0
  0
ENDTAB
  0
TABLE
  2
LTYPE
  5
5
330
0
100
AcDbSymbolTable
 70
     6
  0
LTYPE
  5
14
330
5
100
AcDbSymbolTableRecord
100
AcDbLinetypeTableRecord
  2
ByBlock
 70
     0
  3

 72
    65
 73
     0
 40
0.0
  0
LTYPE
  5
15
330
5
100
AcDbSymbolTableRecord
100
AcDbLinetypeTableRecord
  2
ByLayer
 70
     0
  3

 72
    65
 73
     0
 40
0.0
  0
LTYPE
  5
16
330
5
100
AcDbSymbolTableRecord
100
AcDbLinetypeTableRecord
  2
Continuous
 70
     0
  3
Solid line
 72
    65
 73
     0
 40
0.0
  0
LTYPE
  5
6A
330
5
100
AcDbSymbolTableRecord
100
AcDbLinetypeTableRecord
  2
HIDDEN
 70
     0
  3
Hidden __ __ __ __ __ __ __ __ __ __ __ __ __ __
 72
    65
 73
     2
 40
1.905
 49
1.27
 74
     0
 49
-0.635
 74
     0
  0
LTYPE
  5
6B
330
5
100
AcDbSymbolTableRecord
100
AcDbLinetypeTableRecord
  2
PHANTOM
 70
     0
  3
Phantom ______  __  __  ______  __  __  ______
 72
    65
 73
     6
 40
12.7
 49
6.35
 74
     0
 49
-1.27
 74
     0
 49
1.27
 74
     0
 49
-1.27
 74
     0
 49
1.27
 74
     0
 49
-1.27
 74
     0
  0
LTYPE
  5
6C
330
5
100
AcDbSymbolTableRecord
100
AcDbLinetypeTableRecord
  2
CENTER
 70
     0
  3
Center ____ _ ____ _ ____ _ ____ _ ____ _ ____
 72
    65
 73
     4
 40
10.16
 49
6.35
 74
     0
 49
-1.27
 74
     0
 49
1.27
 74
     0
 49
-1.27
 74
     0
  0
LTYPE
  5
6D
330
5
100
AcDbSymbolTableRecord
100
AcDbLinetypeTableRecord
  2
CENTERX2
 70
     0
  3
Center (2x) ________  __  ________  __  _____
 72
    65
 73
     4
 40
20.32
 49
12.7
 74
     0
 49
-2.54
 74
     0
 49
2.54
 74
     0
 49
-2.54
 74
     0
  0
LTYPE
  5
6E
330
5
100
AcDbSymbolTableRecord
100
AcDbLinetypeTableRecord
  2
DOT2
 70
     0
  3
Dot (.5x) ........................................
 72
    65
 73
     2
 40
0.635
 49
0.0
 74
     0
 49
-0.635
 74
     0
  0
ENDTAB
  0
TABLE
  2
LAYER
  5
2
330
0
100
AcDbSymbolTable
 70
    18
  0
LAYER
  5
10
330
2
100
AcDbSymbolTableRecord
100
AcDbLayerTableRecord
  2
0
 70
     0
 62
     7
  6
Continuous
370
    -3
390
F
  0
LAYER
  5
6F
330
2
100
AcDbSymbolTableRecord
100
AcDbLayerTableRecord
  2
FORMAT
 70
     0
 62
     2
  6
Continuous
370
    -3
390
F
  0
LAYER
  5
70
330
2
100
AcDbSymbolTableRecord
100
AcDbLayerTableRecord
  2
외형선
 70
     0
 62
     4
  6
Continuous
370
    30
390
F
  0
LAYER
  5
71
330
2
100
AcDbSymbolTableRecord
100
AcDbLayerTableRecord
  2
숨은선
 70
     0
 62
     2
  6
HIDDEN
370
    15
390
F
  0
LAYER
  5
72
330
2
100
AcDbSymbolTableRecord
100
AcDbLayerTableRecord
  2
중심선
 70
     0
 62
     1
  6
CENTERX2
370
    -3
390
F
  0
LAYER
  5
73
330
2
100
AcDbSymbolTableRecord
100
AcDbLayerTableRecord
  2
파단선
 70
     0
 62
     4
  6
Continuous
370
    -3
390
F
  0
LAYER
  5
74
330
2
100
AcDbSymbolTableRecord
100
AcDbLayerTableRecord
  2
해칭선
 70
     0
 62
   100
  6
Continuous
370
    -3
390
F
  0
LAYER
  5
75
330
2
100
AcDbSymbolTableRecord
100
AcDbLayerTableRecord
  2
가는실선
 70
     0
 62
     4
  6
Continuous
370
    -3
390
F
  0
LAYER
  5
76
330
2
100
AcDbSymbolTableRecord
100
AcDbLayerTableRecord
  2
치수_보조선
 70
     0
 62
     4
  6
Continuous
370
    -3
390
F
  0
LAYER
  5
77
330
2
100
AcDbSymbolTableRecord
100
AcDbLayerTableRecord
  2
치수문자_일반주서
 70
     0
 62
     7
  6
Continuous
370
    15
390
F
  0
LAYER
  5
78
330
2
100
AcDbSymbolTableRecord
100
AcDbLayerTableRecord
  2
개별주서
 70
     0
 62
   100
  6
Continuous
370
    30
390
F
  0
LAYER
  5
79
330
2
100
AcDbSymbolTableRecord
100
AcDbLayerTableRecord
  2
중간선
 70
     0
 62
     2
  6
Continuous
370
    15
390
F
  0
LAYER
  5
7A
330
2
100
AcDbSymbolTableRecord
100
AcDbLayerTableRecord
  2
윤곽선
 70
     0
 62
     3
  6
Continuous
370
    40
390
F
  0
LAYER
  5
7B
330
2
100
AcDbSymbolTableRecord
100
AcDbLayerTableRecord
  2
중심마크
 70
     0
 62
   100
  6
Continuous
370
    30
390
F
  0
LAYER
  5
7C
330
2
100
AcDbSymbolTableRecord
100
AcDbLayerTableRecord
  2
가상선
 70
     0
 62
     4
  6
PHANTOM
370
    -3
390
F
  0
LAYER
  5
7D
330
2
100
AcDbSymbolTableRecord
100
AcDbLayerTableRecord
  2
특수지정선
 70
     0
 62
     5
  6
CENTERX2
370
    60
390
F
  0
LAYER
  5
7E
330
2
100
AcDbSymbolTableRecord
100
AcDbLayerTableRecord
  2
참조1
 70
     0
 62
    -4
  6
Continuous
370
    -3
390
F
  0
LAYER
  5
15D
330
2
100
AcDbSymbolTableRecord
100
AcDbLayerTableRecord
  2
Defpoints
 70
     0
 62
     7
  6
Continuous
290
     0
370
    -3
390
F
  0
ENDTAB
  0
TABLE
  2
STYLE
  5
3
330
0
100
AcDbSymbolTable
 70
     2
  0
STYLE
  5
11
330
3
100
AcDbSymbolTableRecord
100
AcDbTextStyleTableRecord
  2
Standard
 70
     0
 40
0.0
 41
1.0
 50
0.0
 71
     0
 42
3.5
  3
txt
  4

  0
STYLE
  5
94
330
3
100
AcDbSymbolTableRecord
100
AcDbTextStyleTableRecord
  2
SLDTEXTSTYLE0
 70
     0
 40
0.0
 41
0.75
 50
0.0
 71
     0
 42
3.5
  3
TXT
  4

  0
ENDTAB
  0
TABLE
  2
VIEW
  5
6
330
0
100
AcDbSymbolTable
 70
     0
  0
ENDTAB
  0
TABLE
  2
UCS
  5
7
330
0
100
AcDbSymbolTable
 70
     0
  0
ENDTAB
  0
TABLE
  2
APPID
  5
9
330
0
100
AcDbSymbolTable
 70
     1
  0
APPID
  5
12
330
9
100
AcDbSymbolTableRecord
100
AcDbRegAppTableRecord
  2
ACAD
 70
     0
  0
ENDTAB
  0
TABLE
  2
DIMSTYLE
  5
A
330
0
100
AcDbSymbolTable
 70
     3
100
AcDbDimStyleTable
  0
DIMSTYLE
105
27
330
A
100
AcDbSymbolTableRecord
100
AcDbDimStyleTableRecord
  2
ISO-25
 70
     0
 41
2.5
 42
0.625
 43
3.75
 44
1.25
 73
     0
 74
     0
 77
     1
 78
     8
140
2.5
141
2.5
143
0.03937007874016
147
0.625
171
     3
172
     1
178
     0
271
     2
272
     2
274
     3
278
    44
283
     0
284
     8
340
11
  0
DIMSTYLE
105
DE
102
{ACAD_REACTORS
330
F0
330
117
330
26B
330
103
102
}
330
A
100
AcDbSymbolTableRecord
100
AcDbDimStyleTableRecord
  2
SLDDIMSTYLE0
 70
     0
 41
3.302
 44
0.0
 45
0.000000001
 73
     0
 74
     0
 77
     1
 78
     4
 79
     1
140
3.5
143
0.0393700787401575
147
0.875
148
0.000000001
170
     1
173
     1
178
     0
271
     2
272
     2
276
     2
284
    12
340
94
  0
DIMSTYLE
105
104
330
A
100
AcDbSymbolTableRecord
100
AcDbDimStyleTableRecord
  2
SLDDIMSTYLE1
 70
     0
 41
3.302
 44
0.0
 45
0.000000001
 73
     0
 74
     0
 77
     1
 78
    12
 79
     3
140
3.5
143
0.0393700787401575
147
0.875
148
0.000000001
170
     1
173
     1
178
     0
271
     2
272
     2
276
     2
284
    12
340
94
  0
ENDTAB
  0
TABLE
  2
BLOCK_RECORD
  5
1
330
0
100
AcDbSymbolTable
 70
    15
  0
BLOCK_RECORD
  5
1F
330
1
100
AcDbSymbolTableRecord
100
AcDbBlockTableRecord
  2
*Model_Space
340
22
  0
BLOCK_RECORD
  5
1B
330
1
100
AcDbSymbolTableRecord
100
AcDbBlockTableRecord
  2
*Paper_Space
340
1E
  0
BLOCK_RECORD
  5
23
330
1
100
AcDbSymbolTableRecord
100
AcDbBlockTableRecord
  2
*Paper_Space0
340
26
  0
BLOCK_RECORD
  5
7F
330
1
100
AcDbSymbolTableRecord
100
AcDbBlockTableRecord
  2
블럭10
340
0
102
{BLKREFS
331
D6
102
}
  0
BLOCK_RECORD
  5
DF
330
1
100
AcDbSymbolTableRecord
100
AcDbBlockTableRecord
  2
_D
340
0
  0
BLOCK_RECORD
  5
F1
330
1
100
AcDbSymbolTableRecord
100
AcDbBlockTableRecord
  2
_D_1
340
0
  0
BLOCK_RECORD
  5
105
330
1
100
AcDbSymbolTableRecord
100
AcDbBlockTableRecord
  2
_D_2
340
0
  0
BLOCK_RECORD
  5
118
330
1
100
AcDbSymbolTableRecord
100
AcDbBlockTableRecord
  2
_D_3
340
0
  0
BLOCK_RECORD
  5
131
330
1
100
AcDbSymbolTableRecord
100
AcDbBlockTableRecord
  2
SW_DOWELSYMBOL_0
340
0
102
{BLKREFS
331
137
102
}
  0
BLOCK_RECORD
  5
1E8
330
1
100
AcDbSymbolTableRecord
100
AcDbBlockTableRecord
  2
*D7
340
0
  0
BLOCK_RECORD
  5
20F
330
1
100
AcDbSymbolTableRecord
100
AcDbBlockTableRecord
  2
*D8
340
0
  0
BLOCK_RECORD
  5
21B
330
1
100
AcDbSymbolTableRecord
100
AcDbBlockTableRecord
  2
*D9
340
0
  0
BLOCK_RECORD
  5
227
330
1
100
AcDbSymbolTableRecord
100
AcDbBlockTableRecord
  2
*D10
340
0
  0
BLOCK_RECORD
  5
285
330
1
100
AcDbSymbolTableRecord
100
AcDbBlockTableRecord
  2
*D11
340
0
  0
BLOCK_RECORD
  5
291
330
1
100
AcDbSymbolTableRecord
100
AcDbBlockTableRecord
  2
*D12
340
0
  0
BLOCK_RECORD
  5
29D
330
1
100
AcDbSymbolTableRecord
100
AcDbBlockTableRecord
  2
*D13
340
0
  0
BLOCK_RECORD
  5
2AA
330
1
100
AcDbSymbolTableRecord
100
AcDbBlockTableRecord
  2
*D14
340
0
  0
ENDTAB
  0
ENDSEC
  0
SECTION
  2
BLOCKS
  0
BLOCK
  5
20
330
1F
100
AcDbEntity
  8
0
100
AcDbBlockBegin
  2
*Model_Space
 70
     0
 10
0.0
 20
0.0
 30
0.0
  3
*Model_Space
  1
*Model_Space
  0
ENDBLK
  5
21
330
1F
100
AcDbEntity
  8
0
100
AcDbBlockEnd
  0
BLOCK
  5
1C
330
1B
100
AcDbEntity
 67
     1
  8
0
100
AcDbBlockBegin
  2
*Paper_Space
 70
     0
 10
0.0
 20
0.0
 30
0.0
  3
*Paper_Space
  1
*Paper_Space
  0
ENDBLK
  5
1D
330
1B
100
AcDbEntity
 67
     1
  8
0
100
AcDbBlockEnd
  0
BLOCK
  5
24
330
23
100
AcDbEntity
  8
0
100
AcDbBlockBegin
  2
*Paper_Space0
 70
     0
 10
0.0
 20
0.0
 30
0.0
  3
*Paper_Space0
  1
*Paper_Space0
  0
ENDBLK
  5
25
330
23
100
AcDbEntity
  8
0
100
AcDbBlockEnd
  0
BLOCK
  5
80
330
7F
100
AcDbEntity
  8
0
100
AcDbBlockBegin
  2
블럭10
 70
     2
 10
0.0
 20
0.0
 30
0.0
  3
블럭10
  1
블럭10
  0
ELLIPSE
  5
82
330
7F
100
AcDbEntity
  8
중심선
100
AcDbEllipse
 10
20.54032771741204
 20
12.0471743016438
 30
0.0
 11
6.600054785286829
 21
-1.261213355974178E-13
 31
0.0
210
0.0
220
0.0
230
1.0
 40
0.636358354079598
 41
0.9219305317359503
 42
6.513795318482858
  0
ELLIPSE
  5
83
330
7F
100
AcDbEntity
  8
중심선
100
AcDbEllipse
 10
20.54032771746488
 20
12.04717430159265
 30
0.0
 11
3.960054785062283
 21
1.540847449632565E-10
 31
0.0
210
0.0
220
0.0
230
1.0
 40
0.3939339440162632
 41
1.131841032648279
 42
5.62031148352944
  0
LINE
  5
84
330
7F
100
AcDbEntity
  8
중심선
100
AcDbLine
 10
2.268634060543552
 20
16.24717430164393
 30
0.0
 11
5.714909304380834
 21
16.24717430164393
 31
0.0
  0
LINE
  5
85
330
7F
100
AcDbEntity
  8
중심선
100
AcDbLine
 10
5.245725140726316
 20
7.84717430164391
 30
0.0
 11
8.692000384563599
 21
7.84717430164391
 31
0.0
  0
LINE
  5
86
330
7F
100
AcDbEntity
  8
중심선
100
AcDbLine
 10
15.74043728645272
 20
16.24717430164393
 30
0.0
 11
8.692000384563599
 21
7.84717430164391
 31
0.0
  0
LINE
  5
87
330
7F
100
AcDbEntity
  8
중심선
100
AcDbLine
 10
0.1404042013395286
 20
13.71084872107135
 30
0.0
 11
3.58671253028996
 21
13.71088815037384
 31
0.0
  0
LINE
  5
88
330
7F
100
AcDbEntity
  8
중심선
100
AcDbLine
 10
2.750260043222114
 20
10.84717430164391
 30
0.0
 11
6.196535287059397
 21
10.84717430164391
 31
0.0
  0
LINE
  5
89
330
7F
100
AcDbEntity
  8
중심선
100
AcDbLine
 10
12.29416204261559
 20
16.24717430164393
 30
0.0
 11
5.245725140726316
 21
7.84717430164391
 31
0.0
  0
LINE
  5
8A
330
7F
100
AcDbEntity
  8
중심선
100
AcDbLine
 10
10.72767329541681
 20
16.24717430164393
 30
0.0
 11
6.196535287059397
 21
10.84717430164391
 31
0.0
  0
LINE
  5
8B
330
7F
100
AcDbEntity
  8
중심선
100
AcDbLine
 10
7.28139805157953
 20
16.24717430164393
 30
0.0
 11
2.750260043222114
 21
10.84717430164391
 31
0.0
  0
LINE
  5
8C
330
7F
100
AcDbEntity
  8
중심선
100
AcDbLine
 10
5.714909304380834
 20
16.24717430164393
 30
0.0
 11
3.58671253028996
 21
13.71088815037384
 31
0.0
  0
LINE
  5
8D
330
7F
100
AcDbEntity
  8
중심선
100
AcDbLine
 10
2.268634060543552
 20
16.24717430164393
 30
0.0
 11
0.1404042013395286
 21
13.71084872107135
 31
0.0
  0
LINE
  5
8E
330
7F
100
AcDbEntity
  8
중심선
100
AcDbLine
 10
7.28139805157953
 20
16.24717430164393
 30
0.0
 11
10.72767329541681
 21
16.24717430164393
 31
0.0
  0
LINE
  5
8F
330
7F
100
AcDbEntity
  8
중심선
100
AcDbLine
 10
12.29416204261559
 20
16.24717430164393
 30
0.0
 11
15.74043728645272
 21
16.24717430164393
 31
0.0
  0
LINE
  5
90
330
7F
100
AcDbEntity
  8
중심선
100
AcDbLine
 10
19.22036997980202
 20
11.08717430171403
 30
0.0
 11
23.66174974927406
 21
11.08717430171406
 31
0.0
  0
LINE
  5
91
330
7F
100
AcDbEntity
  8
중심선
100
AcDbLine
 10
19.22039502424796
 20
13.00717430171391
 30
0.0
 11
19.22036997980202
 21
11.08717430171403
 31
0.0
  0
LINE
  5
92
330
7F
100
AcDbEntity
  8
중심선
100
AcDbLine
 10
19.22039502424796
 20
13.00717430171391
 30
0.0
 11
26.96566020931264
 21
13.00717430171391
 31
0.0
  0
LINE
  5
93
330
7F
100
AcDbEntity
  8
중심선
100
AcDbLine
 10
22.22332737316547
 20
13.45928029700563
 30
0.0
 11
24.52862924686651
 21
15.39360700705356
 31
0.0
  0
ATTDEF
  5
95
330
7F
100
AcDbEntity
  8
FORMAT
 62
     2
100
AcDbText
 10
4.408487351596664
 20
2.075366912832191
 30
0.0
 40
4.233333333333333
  1
E1100201
 41
0.75
  7
SLDTEXTSTYLE0
 11
4.408487351596664
 21
-0.0412997538344756
 31
0.0
100
AcDbAttributeDefinition
  3

  2
AUTOATTR0
 70
     0
 74
     1
  0
ENDBLK
  5
81
330
7F
100
AcDbEntity
  8
0
100
AcDbBlockEnd
  0
BLOCK
  5
E0
330
DF
100
AcDbEntity
  8
0
100
AcDbBlockBegin
  2
_D
 70
     0
 10
0.0
 20
0.0
 30
0.0
  3
_D
  1
_D
  0
LINE
  5
E2
330
DF
100
AcDbEntity
  8
치수문자_일반주서
 62
     0
370
    -2
100
AcDbLine
 10
-36.95749999999996
 20
25.4010749287239
 30
0.0
 11
-51.48250000000006
 21
25.40107492872385
 31
0.0
  0
LINE
  5
E3
330
DF
100
AcDbEntity
  8
치수문자_일반주서
 62
     0
370
    -2
100
AcDbLine
 10
-36.95749999999996
 20
-25.39892507127611
 30
0.0
 11
-51.48249999999988
 21
-25.39892507127616
 31
0.0
  0
LINE
  5
E4
330
DF
100
AcDbEntity
  8
치수문자_일반주서
 62
     0
370
    -2
100
AcDbLine
 10
-51.48250000000004
 20
22.09907492872386
 30
0.0
 11
-51.4824999999999
 21
-22.09692507127616
 31
0.0
  0
SOLID
  5
E5
330
DF
100
AcDbEntity
  8
치수문자_일반주서
 62
     0
100
AcDbTrace
 10
-50.93216666666671
 20
22.09907492872386
 30
0.0
 11
-52.03283333333338
 21
22.09907492872385
 31
0.0
 12
-51.48250000000006
 22
25.40107492872385
 32
0.0
 13
-51.48250000000006
 23
25.40107492872385
 33
0.0
  0
SOLID
  5
E6
330
DF
100
AcDbEntity
  8
치수문자_일반주서
 62
     0
100
AcDbTrace
 10
-52.03283333333323
 20
-22.09692507127616
 30
0.0
 11
-50.93216666666656
 21
-22.09692507127616
 31
0.0
 12
-51.48249999999988
 22
-25.39892507127616
 32
0.0
 13
-51.48249999999988
 23
-25.39892507127616
 33
0.0
  0
MTEXT
  5
E7
330
DF
100
AcDbEntity
  8
치수문자_일반주서
 62
     0
100
AcDbMText
 10
-55.85749999999997
 20
0.0010749287238891
 30
0.0
 40
3.5
 41
0.0
 71
     2
 72
     1
  1
\A1;%%c50.80 [2]
  7
SLDTEXTSTYLE0
 11
-3.496765431890256E-15
 21
1.0
 31
0.0
 73
     1
 44
1.0
  0
POINT
  5
E8
330
DF
100
AcDbEntity
  8
Defpoints
 62
     0
100
AcDbPoint
 10
-36.89499999999996
 20
25.4010749287239
 30
0.0
  0
POINT
  5
E9
330
DF
100
AcDbEntity
  8
Defpoints
 62
     0
100
AcDbPoint
 10
-36.89499999999996
 20
-25.39892507127611
 30
0.0
  0
POINT
  5
EA
330
DF
100
AcDbEntity
  8
Defpoints
 62
     0
100
AcDbPoint
 10
-51.48249999999997
 20
-25.39892507127616
 30
0.0
  0
ENDBLK
  5
E1
330
DF
100
AcDbEntity
  8
0
100
AcDbBlockEnd
  0
BLOCK
  5
F2
330
F1
100
AcDbEntity
  8
0
100
AcDbBlockBegin
  2
_D_1
 70
     0
 10
0.0
 20
0.0
 30
0.0
  3
_D_1
  1
_D_1
  0
LINE
  5
F4
330
F1
100
AcDbEntity
  8
치수문자_일반주서
 62
     0
370
    -2
100
AcDbLine
 10
113.6
 20
25.46357492872389
 30
0.0
 11
113.6
 21
47.75570626228482
 31
0.0
  0
LINE
  5
F5
330
F1
100
AcDbEntity
  8
치수문자_일반주서
 62
     0
370
    -2
100
AcDbLine
 10
12.0
 20
25.40504243141234
 30
0.0
 11
12.0
 21
47.75570626228482
 31
0.0
  0
LINE
  5
F6
330
F1
100
AcDbEntity
  8
치수문자_일반주서
 62
     0
370
    -2
100
AcDbLine
 10
110.298
 20
47.75570626228482
 30
0.0
 11
15.302
 21
47.75570626228482
 31
0.0
  0
SOLID
  5
F7
330
F1
100
AcDbEntity
  8
치수문자_일반주서
 62
     0
100
AcDbTrace
 10
110.298
 20
47.20537292895148
 30
0.0
 11
110.298
 21
48.30603959561815
 31
0.0
 12
113.6
 22
47.75570626228482
 32
0.0
 13
113.6
 23
47.75570626228482
 33
0.0
  0
SOLID
  5
F8
330
F1
100
AcDbEntity
  8
치수문자_일반주서
 62
     0
100
AcDbTrace
 10
15.302
 20
48.30603959561815
 30
0.0
 11
15.302
 21
47.20537292895148
 31
0.0
 12
12.0
 22
47.75570626228482
 32
0.0
 13
12.0
 23
47.75570626228482
 33
0.0
  0
MTEXT
  5
F9
330
F1
100
AcDbEntity
  8
치수문자_일반주서
 62
     0
100
AcDbMText
 10
62.80000000000003
 20
52.13070626228482
 30
0.0
 40
3.5
 41
0.0
 71
     2
 72
     1
  1
\A1;101.60 [4]
  7
SLDTEXTSTYLE0
 73
     1
 44
1.0
  0
POINT
  5
FA
330
F1
100
AcDbEntity
  8
Defpoints
 62
     0
100
AcDbPoint
 10
113.6
 20
25.40107492872389
 30
0.0
  0
POINT
  5
FB
330
F1
100
AcDbEntity
  8
Defpoints
 62
     0
100
AcDbPoint
 10
12.0
 20
25.34254243141234
 30
0.0
  0
POINT
  5
FC
330
F1
100
AcDbEntity
  8
Defpoints
 62
     0
100
AcDbPoint
 10
12.0
 20
47.75570626228482
 30
0.0
  0
ENDBLK
  5
F3
330
F1
100
AcDbEntity
  8
0
100
AcDbBlockEnd
  0
BLOCK
  5
106
330
105
100
AcDbEntity
  8
0
100
AcDbBlockBegin
  2
_D_2
 70
     0
 10
0.0
 20
0.0
 30
0.0
  3
_D_2
  1
_D_2
  0
LINE
  5
108
330
105
100
AcDbEntity
  8
치수문자_일반주서
 62
     0
370
    -2
100
AcDbLine
 10
113.6
 20
25.46357492872389
 30
0.0
 11
113.6
 21
59.75570626228484
 31
0.0
  0
LINE
  5
109
330
105
100
AcDbEntity
  8
치수문자_일반주서
 62
     0
370
    -2
100
AcDbLine
 10
-83.25
 20
20.38357492872391
 30
0.0
 11
-83.25
 21
59.75570626228484
 31
0.0
  0
LINE
  5
10A
330
105
100
AcDbEntity
  8
치수문자_일반주서
 62
     0
370
    -2
100
AcDbLine
 10
110.298
 20
59.75570626228484
 30
0.0
 11
-79.948
 21
59.75570626228484
 31
0.0
  0
SOLID
  5
10B
330
105
100
AcDbEntity
  8
치수문자_일반주서
 62
     0
100
AcDbTrace
 10
110.298
 20
59.2053729289515
 30
0.0
 11
110.298
 21
60.30603959561817
 31
0.0
 12
113.6
 22
59.75570626228484
 32
0.0
 13
113.6
 23
59.75570626228484
 33
0.0
  0
SOLID
  5
10C
330
105
100
AcDbEntity
  8
치수문자_일반주서
 62
     0
100
AcDbTrace
 10
-79.948
 20
60.30603959561817
 30
0.0
 11
-79.948
 21
59.2053729289515
 31
0.0
 12
-83.25
 22
59.75570626228484
 32
0.0
 13
-83.25
 23
59.75570626228484
 33
0.0
  0
MTEXT
  5
10D
330
105
100
AcDbEntity
  8
치수문자_일반주서
 62
     0
100
AcDbMText
 10
15.17500000000001
 20
64.13070626228483
 30
0.0
 40
3.5
 41
0.0
 71
     2
 72
     1
  1
\A1;196.85 [7 3/4]
  7
SLDTEXTSTYLE0
 73
     1
 44
1.0
  0
POINT
  5
10E
330
105
100
AcDbEntity
  8
Defpoints
 62
     0
100
AcDbPoint
 10
113.6
 20
25.40107492872389
 30
0.0
  0
POINT
  5
10F
330
105
100
AcDbEntity
  8
Defpoints
 62
     0
100
AcDbPoint
 10
-83.25
 20
20.32107492872391
 30
0.0
  0
POINT
  5
110
330
105
100
AcDbEntity
  8
Defpoints
 62
     0
100
AcDbPoint
 10
-83.25
 20
59.75570626228484
 30
0.0
  0
ENDBLK
  5
107
330
105
100
AcDbEntity
  8
0
100
AcDbBlockEnd
  0
BLOCK
  5
119
330
118
100
AcDbEntity
  8
0
100
AcDbBlockBegin
  2
_D_3
 70
     0
 10
0.0
 20
0.0
 30
0.0
  3
_D_3
  1
_D_3
  0
LINE
  5
11B
330
118
100
AcDbEntity
  8
치수문자_일반주서
 62
     0
370
    -2
100
AcDbLine
 10
113.6625
 20
25.40107492872389
 30
0.0
 11
151.6500000000001
 21
25.40107492872403
 31
0.0
  0
LINE
  5
11C
330
118
100
AcDbEntity
  8
치수문자_일반주서
 62
     0
370
    -2
100
AcDbLine
 10
113.6625
 20
-25.39892507127611
 30
0.0
 11
151.6500000000003
 21
-25.39892507127597
 31
0.0
  0
LINE
  5
11D
330
118
100
AcDbEntity
  8
치수문자_일반주서
 62
     0
370
    -2
100
AcDbLine
 10
151.6500000000001
 20
25.40107492872403
 30
0.0
 11
151.6499999999999
 21
82.95572736996918
 31
0.0
  0
LINE
  5
11E
330
118
100
AcDbEntity
  8
치수문자_일반주서
 62
     0
370
    -2
100
AcDbLine
 10
151.6500000000001
 20
22.09907492872403
 30
0.0
 11
151.6500000000003
 21
-22.09692507127597
 31
0.0
  0
SOLID
  5
11F
330
118
100
AcDbEntity
  8
치수문자_일반주서
 62
     0
100
AcDbTrace
 10
152.2003333333334
 20
22.09907492872403
 30
0.0
 11
151.0996666666668
 21
22.09907492872403
 31
0.0
 12
151.6500000000001
 22
25.40107492872403
 32
0.0
 13
151.6500000000001
 23
25.40107492872403
 33
0.0
  0
SOLID
  5
120
330
118
100
AcDbEntity
  8
치수문자_일반주서
 62
     0
100
AcDbTrace
 10
151.0996666666669
 20
-22.09692507127597
 30
0.0
 11
152.2003333333336
 21
-22.09692507127597
 31
0.0
 12
151.6500000000003
 22
-25.39892507127597
 32
0.0
 13
151.6500000000003
 23
-25.39892507127597
 33
0.0
  0
MTEXT
  5
121
330
118
100
AcDbEntity
  8
치수문자_일반주서
 62
     0
100
AcDbMText
 10
147.2749999999999
 20
71.58072736996917
 30
0.0
 40
3.5
 41
0.0
 71
     2
 72
     1
  1
\A1;%%c50.80 [2]
  7
SLDTEXTSTYLE0
 11
-3.356894814614647E-15
 21
1.0
 31
0.0
 73
     1
 44
1.0
  0
POINT
  5
122
330
118
100
AcDbEntity
  8
Defpoints
 62
     0
100
AcDbPoint
 10
113.6
 20
25.40107492872389
 30
0.0
  0
POINT
  5
123
330
118
100
AcDbEntity
  8
Defpoints
 62
     0
100
AcDbPoint
 10
113.6
 20
-25.39892507127611
 30
0.0
  0
POINT
  5
124
330
118
100
AcDbEntity
  8
Defpoints
 62
     0
100
AcDbPoint
 10
151.6500000000003
 20
-25.39892507127596
 30
0.0
  0
ENDBLK
  5
11A
330
118
100
AcDbEntity
  8
0
100
AcDbBlockEnd
  0
BLOCK
  5
132
330
131
100
AcDbEntity
  8
0
100
AcDbBlockBegin
  2
SW_DOWELSYMBOL_0
 70
     0
 10
0.0
 20
0.0
 30
0.0
  3
SW_DOWELSYMBOL_0
  1
SW_DOWELSYMBOL_0
  0
CIRCLE
  5
134
330
131
100
AcDbEntity
  8
해칭선
 62
     0
100
AcDbCircle
 10
0.0
 20
0.0
 30
0.0
 40
3.000000000000001
  0
HATCH
  5
135
330
131
100
AcDbEntity
  8
0
  6
Continuous
 62
     0
370
     0
100
AcDbHatch
 10
0.0
 20
0.0
 30
0.0
210
0.0
220
0.0
230
1.0
  2
SOLID
 70
     1
 71
     0
 91
        1
 92
        0
 93
        3
 72
     2
 10
0.0
 20
0.0
 40
3.000000000000001
 50
0.0
 51
90.0
 73
     1
 72
     1
 10
0.0
 20
3.000000000000001
 11
0.0
 21
0.0
 72
     1
 10
0.0
 20
0.0
 11
3.000000000000003
 21
0.0
 97
        0
 75
     0
 76
     1
 98
        1
 10
0.0
 20
0.0
  0
HATCH
  5
136
330
131
100
AcDbEntity
  8
0
  6
Continuous
 62
     0
370
     0
100
AcDbHatch
 10
0.0
 20
0.0
 30
0.0
210
0.0
220
0.0
230
1.0
  2
SOLID
 70
     1
 71
     0
 91
        1
 92
        0
 93
        3
 72
     2
 10
0.0
 20
0.0
 40
3.000000000000001
 50
180.0
 51
270.0000000000007
 73
     1
 72
     1
 10
0.0
 20
-3.000000000000001
 11
0.0
 21
0.0
 72
     1
 10
0.0
 20
0.0
 11
-3.000000000000003
 21
0.0
 97
        0
 75
     0
 76
     1
 98
        1
 10
0.0
 20
0.0
  0
ENDBLK
  5
133
330
131
100
AcDbEntity
  8
0
100
AcDbBlockEnd
  0
BLOCK
  5
1E9
330
1E8
100
AcDbEntity
  8
0
100
AcDbBlockBegin
  2
*D7
 70
     1
 10
0.0
 20
0.0
 30
0.0
  3
*D7
  1
*D8
  0
LINE
  5
1EA
330
1E8
100
AcDbEntity
  8
치수문자_일반주서
 62
     0
370
    -2
100
AcDbLine
 10
17.81250000000006
 20
50.86143577035133
 30
0.0
 11
4.374999999999954
 21
50.86143577035129
 31
0.0
  0
LINE
  5
1EB
330
1E8
100
AcDbEntity
  8
치수문자_일반주서
 62
     0
370
    -2
100
AcDbLine
 10
17.81250000000006
 20
0.0614357703513269
 30
0.0
 11
4.375000000000131
 21
0.0614357703512773
 31
0.0
  0
LINE
  5
1EC
330
1E8
100
AcDbEntity
  8
치수문자_일반주서
 62
     0
370
    -2
100
AcDbLine
 10
4.374999999999965
 20
47.55943577035129
 30
0.0
 11
4.37500000000012
 21
3.363435770351277
 31
0.0
  0
SOLID
  5
1ED
330
1E8
100
AcDbEntity
  8
치수문자_일반주서
 62
     0
100
AcDbTrace
 10
4.925333333333299
 20
47.55943577035129
 30
0.0
 11
3.824666666666632
 21
47.55943577035129
 31
0.0
 12
4.374999999999954
 22
50.86143577035129
 32
0.0
 13
4.374999999999954
 23
50.86143577035129
 33
0.0
  0
SOLID
  5
1EE
330
1E8
100
AcDbEntity
  8
치수문자_일반주서
 62
     0
100
AcDbTrace
 10
3.824666666666787
 20
3.363435770351275
 30
0.0
 11
4.925333333333453
 21
3.363435770351279
 31
0.0
 12
4.375000000000131
 22
0.0614357703512773
 32
0.0
 13
4.375000000000131
 23
0.0614357703512773
 33
0.0
  0
MTEXT
  5
1EF
330
1E8
100
AcDbEntity
  8
치수문자_일반주서
 62
     0
100
AcDbMText
 10
0.0000000000000426
 20
25.46143577035133
 30
0.0
 40
3.5
 41
0.0
 71
     2
 72
     1
  1
\A1;%%c50.80 [2]
  7
SLDTEXTSTYLE0
 11
-3.496765431890256E-15
 21
1.0
 31
0.0
 73
     1
 44
1.0
  0
POINT
  5
1F0
330
1E8
100
AcDbEntity
  8
Defpoints
 62
     0
100
AcDbPoint
 10
17.87500000000006
 20
50.86143577035133
 30
0.0
  0
POINT
  5
1F1
330
1E8
100
AcDbEntity
  8
Defpoints
 62
     0
100
AcDbPoint
 10
17.87500000000006
 20
0.0614357703513271
 30
0.0
  0
POINT
  5
1F2
330
1E8
100
AcDbEntity
  8
Defpoints
 62
     0
100
AcDbPoint
 10
4.375000000000128
 20
0.0614357703512766
 30
0.0
  0
ENDBLK
  5
1F3
330
1E8
100
AcDbEntity
  8
0
100
AcDbBlockEnd
  0
BLOCK
  5
210
330
20F
100
AcDbEntity
  8
0
100
AcDbBlockBegin
  2
*D8
 70
     1
 10
0.0
 20
0.0
 30
0.0
  3
*D8
  1
*D9
  0
LINE
  5
212
330
20F
100
AcDbEntity
  8
치수문자_일반주서
 62
     0
370
    -2
100
AcDbLine
 10
162.9250000000001
 20
50.73858056332149
 30
0.0
 11
162.9250000000001
 21
73.21606710391225
 31
0.0
  0
LINE
  5
213
330
20F
100
AcDbEntity
  8
치수문자_일반주서
 62
     0
370
    -2
100
AcDbLine
 10
112.1250000000001
 20
50.92393577035132
 30
0.0
 11
112.1250000000001
 21
73.21606710391225
 31
0.0
  0
LINE
  5
214
330
20F
100
AcDbEntity
  8
치수문자_일반주서
 62
     0
370
    -2
100
AcDbLine
 10
159.6230000000001
 20
73.21606710391225
 30
0.0
 11
115.427
 21
73.21606710391225
 31
0.0
  0
SOLID
  5
215
330
20F
100
AcDbEntity
  8
치수문자_일반주서
 62
     0
100
AcDbTrace
 10
159.6230000000001
 20
72.66573377057892
 30
0.0
 11
159.6230000000001
 21
73.76640043724558
 31
0.0
 12
162.9250000000001
 22
73.21606710391225
 32
0.0
 13
162.9250000000001
 23
73.21606710391225
 33
0.0
  0
SOLID
  5
216
330
20F
100
AcDbEntity
  8
치수문자_일반주서
 62
     0
100
AcDbTrace
 10
115.427
 20
73.76640043724558
 30
0.0
 11
115.427
 21
72.66573377057892
 31
0.0
 12
112.1250000000001
 22
73.21606710391225
 32
0.0
 13
112.1250000000001
 23
73.21606710391225
 33
0.0
  0
MTEXT
  5
217
330
20F
100
AcDbEntity
  8
치수문자_일반주서
 62
     0
100
AcDbMText
 10
137.5250000000001
 20
77.59106710391225
 30
0.0
 40
3.5
 41
0.0
 71
     2
 72
     1
  1
\A1;50.80 [2]
  7
SLDTEXTSTYLE0
 73
     1
 44
1.0
  0
POINT
  5
218
330
20F
100
AcDbEntity
  8
Defpoints
 62
     0
100
AcDbPoint
 10
162.9250000000001
 20
50.67608056332149
 30
0.0
  0
POINT
  5
219
330
20F
100
AcDbEntity
  8
Defpoints
 62
     0
100
AcDbPoint
 10
112.1250000000001
 20
50.86143577035132
 30
0.0
  0
POINT
  5
21A
330
20F
100
AcDbEntity
  8
Defpoints
 62
     0
100
AcDbPoint
 10
112.1250000000001
 20
73.21606710391225
 30
0.0
  0
ENDBLK
  5
211
330
20F
100
AcDbEntity
  8
0
100
AcDbBlockEnd
  0
BLOCK
  5
21C
330
21B
100
AcDbEntity
  8
0
100
AcDbBlockBegin
  2
*D9
 70
     1
 10
0.0
 20
0.0
 30
0.0
  3
*D9
  1
*D10
  0
LINE
  5
21E
330
21B
100
AcDbEntity
  8
치수문자_일반주서
 62
     0
370
    -2
100
AcDbLine
 10
162.9250000000001
 20
50.73858056332149
 30
0.0
 11
162.9250000000001
 21
85.21606710391225
 31
0.0
  0
LINE
  5
21F
330
21B
100
AcDbEntity
  8
치수문자_일반주서
 62
     0
370
    -2
100
AcDbLine
 10
16.87500000000004
 20
45.84393577035133
 30
0.0
 11
16.87500000000004
 21
85.21606710391225
 31
0.0
  0
LINE
  5
220
330
21B
100
AcDbEntity
  8
치수문자_일반주서
 62
     0
370
    -2
100
AcDbLine
 10
159.6230000000001
 20
85.21606710391225
 30
0.0
 11
20.17700000000004
 21
85.21606710391225
 31
0.0
  0
SOLID
  5
221
330
21B
100
AcDbEntity
  8
치수문자_일반주서
 62
     0
100
AcDbTrace
 10
159.6230000000001
 20
84.66573377057892
 30
0.0
 11
159.6230000000001
 21
85.76640043724558
 31
0.0
 12
162.9250000000001
 22
85.21606710391225
 32
0.0
 13
162.9250000000001
 23
85.21606710391225
 33
0.0
  0
SOLID
  5
222
330
21B
100
AcDbEntity
  8
치수문자_일반주서
 62
     0
100
AcDbTrace
 10
20.17700000000004
 20
85.76640043724558
 30
0.0
 11
20.17700000000004
 21
84.66573377057892
 31
0.0
 12
16.87500000000004
 22
85.21606710391225
 32
0.0
 13
16.87500000000004
 23
85.21606710391225
 33
0.0
  0
MTEXT
  5
223
330
21B
100
AcDbEntity
  8
치수문자_일반주서
 62
     0
100
AcDbMText
 10
89.90000000000005
 20
89.59106710391225
 30
0.0
 40
3.5
 41
0.0
 71
     2
 72
     1
  1
\A1;146.05 [5 3/4]
  7
SLDTEXTSTYLE0
 73
     1
 44
1.0
  0
POINT
  5
224
330
21B
100
AcDbEntity
  8
Defpoints
 62
     0
100
AcDbPoint
 10
162.9250000000001
 20
50.67608056332149
 30
0.0
  0
POINT
  5
225
330
21B
100
AcDbEntity
  8
Defpoints
 62
     0
100
AcDbPoint
 10
16.87500000000004
 20
45.78143577035133
 30
0.0
  0
POINT
  5
226
330
21B
100
AcDbEntity
  8
Defpoints
 62
     0
100
AcDbPoint
 10
16.87500000000004
 20
85.21606710391225
 30
0.0
  0
ENDBLK
  5
21D
330
21B
100
AcDbEntity
  8
0
100
AcDbBlockEnd
  0
BLOCK
  5
228
330
227
100
AcDbEntity
  8
0
100
AcDbBlockBegin
  2
*D10
 70
     1
 10
0.0
 20
0.0
 30
0.0
  3
*D10
  1
*D11
  0
LINE
  5
22A
330
227
100
AcDbEntity
  8
치수문자_일반주서
 62
     0
370
    -2
100
AcDbLine
 10
162.9875000000001
 20
50.86143577035131
 30
0.0
 11
188.0467131897149
 21
50.8614357703514
 31
0.0
  0
LINE
  5
22B
330
227
100
AcDbEntity
  8
치수문자_일반주서
 62
     0
370
    -2
100
AcDbLine
 10
162.9875000000001
 20
0.0614357703513237
 30
0.0
 11
188.0467131897151
 21
0.0614357703514088
 31
0.0
  0
LINE
  5
22C
330
227
100
AcDbEntity
  8
치수문자_일반주서
 62
     0
370
    -2
100
AcDbLine
 10
188.0467131897149
 20
50.8614357703514
 30
0.0
 11
188.0467131897147
 21
113.1748142306167
 31
0.0
  0
LINE
  5
22D
330
227
100
AcDbEntity
  8
치수문자_일반주서
 62
     0
370
    -2
100
AcDbLine
 10
188.0467131897149
 20
47.5594357703514
 30
0.0
 11
188.0467131897151
 21
3.363435770351408
 31
0.0
  0
SOLID
  5
22E
330
227
100
AcDbEntity
  8
치수문자_일반주서
 62
     0
100
AcDbTrace
 10
188.5970465230482
 20
47.5594357703514
 30
0.0
 11
187.4963798563816
 21
47.5594357703514
 31
0.0
 12
188.0467131897149
 22
50.8614357703514
 32
0.0
 13
188.0467131897149
 23
50.8614357703514
 33
0.0
  0
SOLID
  5
22F
330
227
100
AcDbEntity
  8
치수문자_일반주서
 62
     0
100
AcDbTrace
 10
187.4963798563818
 20
3.363435770351407
 30
0.0
 11
188.5970465230484
 21
3.36343577035141
 31
0.0
 12
188.0467131897151
 22
0.0614357703514088
 32
0.0
 13
188.0467131897151
 23
0.0614357703514088
 33
0.0
  0
MTEXT
  5
230
330
227
100
AcDbEntity
  8
치수문자_일반주서
 62
     0
100
AcDbMText
 10
183.6717131897148
 20
101.7998142306166
 30
0.0
 40
3.5
 41
0.0
 71
     2
 72
     1
  1
\A1;%%c50.80 [2]
  7
SLDTEXTSTYLE0
 11
-3.356894814614648E-15
 21
1.0
 31
0.0
 73
     1
 44
1.0
  0
POINT
  5
231
330
227
100
AcDbEntity
  8
Defpoints
 62
     0
100
AcDbPoint
 10
162.9250000000001
 20
50.86143577035131
 30
0.0
  0
POINT
  5
232
330
227
100
AcDbEntity
  8
Defpoints
 62
     0
100
AcDbPoint
 10
162.9250000000001
 20
0.0614357703513235
 30
0.0
  0
POINT
  5
233
330
227
100
AcDbEntity
  8
Defpoints
 62
     0
100
AcDbPoint
 10
188.0467131897151
 20
0.0614357703514174
 30
0.0
  0
ENDBLK
  5
229
330
227
100
AcDbEntity
  8
0
100
AcDbBlockEnd
  0
BLOCK
  5
286
330
285
100
AcDbEntity
  8
0
100
AcDbBlockBegin
  2
*D11
 70
     1
 10
0.0
 20
0.0
 30
0.0
  3
*D11
  1
*D12
  0
LINE
  5
288
330
285
100
AcDbEntity
  8
치수문자_일반주서
 62
     0
370
    -2
100
AcDbLine
 10
285.3612808532019
 20
-81.67364632282487
 30
0.0
 11
285.3612808532019
 21
-59.1961597822341
 31
0.0
  0
LINE
  5
289
330
285
100
AcDbEntity
  8
치수문자_일반주서
 62
     0
370
    -2
100
AcDbLine
 10
234.561280853202
 20
-81.48829111579504
 30
0.0
 11
234.561280853202
 21
-59.1961597822341
 31
0.0
  0
LINE
  5
28A
330
285
100
AcDbEntity
  8
치수문자_일반주서
 62
     0
370
    -2
100
AcDbLine
 10
282.0592808532019
 20
-59.1961597822341
 30
0.0
 11
237.863280853202
 21
-59.1961597822341
 31
0.0
  0
SOLID
  5
28B
330
285
100
AcDbEntity
  8
치수문자_일반주서
 62
     0
100
AcDbTrace
 10
282.0592808532019
 20
-59.74649311556744
 30
0.0
 11
282.0592808532019
 21
-58.64582644890077
 31
0.0
 12
285.3612808532019
 22
-59.1961597822341
 32
0.0
 13
285.3612808532019
 23
-59.1961597822341
 33
0.0
  0
SOLID
  5
28C
330
285
100
AcDbEntity
  8
치수문자_일반주서
 62
     0
100
AcDbTrace
 10
237.863280853202
 20
-58.64582644890077
 30
0.0
 11
237.863280853202
 21
-59.74649311556744
 31
0.0
 12
234.561280853202
 22
-59.1961597822341
 32
0.0
 13
234.561280853202
 23
-59.1961597822341
 33
0.0
  0
MTEXT
  5
28D
330
285
100
AcDbEntity
  8
치수문자_일반주서
 62
     0
100
AcDbMText
 10
259.961280853202
 20
-54.8211597822341
 30
0.0
 40
3.5
 41
0.0
 71
     2
 72
     1
  1
\A1;50.80 [2]
  7
SLDTEXTSTYLE0
 73
     1
 44
1.0
  0
POINT
  5
28E
330
285
100
AcDbEntity
  8
Defpoints
 62
     0
100
AcDbPoint
 10
285.3612808532019
 20
-81.73614632282487
 30
0.0
  0
POINT
  5
28F
330
285
100
AcDbEntity
  8
Defpoints
 62
     0
100
AcDbPoint
 10
234.561280853202
 20
-81.55079111579504
 30
0.0
  0
POINT
  5
290
330
285
100
AcDbEntity
  8
Defpoints
 62
     0
100
AcDbPoint
 10
234.561280853202
 20
-59.1961597822341
 30
0.0
  0
ENDBLK
  5
287
330
285
100
AcDbEntity
  8
0
100
AcDbBlockEnd
  0
BLOCK
  5
292
330
291
100
AcDbEntity
  8
0
100
AcDbBlockBegin
  2
*D12
 70
     1
 10
0.0
 20
0.0
 30
0.0
  3
*D12
  1
*D13
  0
LINE
  5
294
330
291
100
AcDbEntity
  8
치수문자_일반주서
 62
     0
370
    -2
100
AcDbLine
 10
285.3612808532019
 20
-81.67364632282487
 30
0.0
 11
285.3612808532019
 21
-47.1961597822341
 31
0.0
  0
LINE
  5
295
330
291
100
AcDbEntity
  8
치수문자_일반주서
 62
     0
370
    -2
100
AcDbLine
 10
139.3112808532019
 20
-86.56829111579503
 30
0.0
 11
139.3112808532019
 21
-47.1961597822341
 31
0.0
  0
LINE
  5
296
330
291
100
AcDbEntity
  8
치수문자_일반주서
 62
     0
370
    -2
100
AcDbLine
 10
282.0592808532019
 20
-47.1961597822341
 30
0.0
 11
142.6132808532019
 21
-47.1961597822341
 31
0.0
  0
SOLID
  5
297
330
291
100
AcDbEntity
  8
치수문자_일반주서
 62
     0
100
AcDbTrace
 10
282.0592808532019
 20
-47.74649311556744
 30
0.0
 11
282.0592808532019
 21
-46.64582644890077
 31
0.0
 12
285.3612808532019
 22
-47.1961597822341
 32
0.0
 13
285.3612808532019
 23
-47.1961597822341
 33
0.0
  0
SOLID
  5
298
330
291
100
AcDbEntity
  8
치수문자_일반주서
 62
     0
100
AcDbTrace
 10
142.6132808532019
 20
-46.64582644890077
 30
0.0
 11
142.6132808532019
 21
-47.74649311556744
 31
0.0
 12
139.3112808532019
 22
-47.1961597822341
 32
0.0
 13
139.3112808532019
 23
-47.1961597822341
 33
0.0
  0
MTEXT
  5
299
330
291
100
AcDbEntity
  8
치수문자_일반주서
 62
     0
100
AcDbMText
 10
212.336280853202
 20
-42.8211597822341
 30
0.0
 40
3.5
 41
0.0
 71
     2
 72
     1
  1
\A1;146.05 [5 3/4]
  7
SLDTEXTSTYLE0
 73
     1
 44
1.0
  0
POINT
  5
29A
330
291
100
AcDbEntity
  8
Defpoints
 62
     0
100
AcDbPoint
 10
285.3612808532019
 20
-81.73614632282487
 30
0.0
  0
POINT
  5
29B
330
291
100
AcDbEntity
  8
Defpoints
 62
     0
100
AcDbPoint
 10
139.3112808532019
 20
-86.63079111579503
 30
0.0
  0
POINT
  5
29C
330
291
100
AcDbEntity
  8
Defpoints
 62
     0
100
AcDbPoint
 10
139.3112808532019
 20
-47.1961597822341
 30
0.0
  0
ENDBLK
  5
293
330
291
100
AcDbEntity
  8
0
100
AcDbBlockEnd
  0
BLOCK
  5
29E
330
29D
100
AcDbEntity
  8
0
100
AcDbBlockBegin
  2
*D13
 70
     1
 10
0.0
 20
0.0
 30
0.0
  3
*D13
  1
*D14
  0
LINE
  5
2A0
330
29D
100
AcDbEntity
  8
치수문자_일반주서
 62
     0
370
    -2
100
AcDbLine
 10
285.4237808532019
 20
-81.55079111579505
 30
0.0
 11
310.4829940429168
 21
-81.55079111579496
 31
0.0
  0
LINE
  5
2A1
330
29D
100
AcDbEntity
  8
치수문자_일반주서
 62
     0
370
    -2
100
AcDbLine
 10
285.4237808532019
 20
-132.350791115795
 30
0.0
 11
310.482994042917
 21
-132.3507911157949
 31
0.0
  0
LINE
  5
2A2
330
29D
100
AcDbEntity
  8
치수문자_일반주서
 62
     0
370
    -2
100
AcDbLine
 10
310.4829940429168
 20
-81.55079111579496
 30
0.0
 11
310.4829940429166
 21
-19.2374126555297
 31
0.0
  0
LINE
  5
2A3
330
29D
100
AcDbEntity
  8
치수문자_일반주서
 62
     0
370
    -2
100
AcDbLine
 10
310.4829940429168
 20
-84.85279111579496
 30
0.0
 11
310.482994042917
 21
-129.048791115795
 31
0.0
  0
SOLID
  5
2A4
330
29D
100
AcDbEntity
  8
치수문자_일반주서
 62
     0
100
AcDbTrace
 10
311.0333273762502
 20
-84.85279111579496
 30
0.0
 11
309.9326607095834
 21
-84.85279111579496
 31
0.0
 12
310.4829940429168
 22
-81.55079111579496
 32
0.0
 13
310.4829940429168
 23
-81.55079111579496
 33
0.0
  0
SOLID
  5
2A5
330
29D
100
AcDbEntity
  8
치수문자_일반주서
 62
     0
100
AcDbTrace
 10
309.9326607095836
 20
-129.048791115795
 30
0.0
 11
311.0333273762503
 21
-129.048791115795
 31
0.0
 12
310.482994042917
 22
-132.3507911157949
 32
0.0
 13
310.482994042917
 23
-132.3507911157949
 33
0.0
  0
MTEXT
  5
2A6
330
29D
100
AcDbEntity
  8
치수문자_일반주서
 62
     0
100
AcDbMText
 10
306.1079940429166
 20
-30.61241265552971
 30
0.0
 40
3.5
 41
0.0
 71
     2
 72
     1
  1
\A1;%%c50.80 [2]
  7
SLDTEXTSTYLE0
 11
-3.356894814614648E-15
 21
1.0
 31
0.0
 73
     1
 44
1.0
  0
POINT
  5
2A7
330
29D
100
AcDbEntity
  8
Defpoints
 62
     0
100
AcDbPoint
 10
285.3612808532019
 20
-81.55079111579505
 30
0.0
  0
POINT
  5
2A8
330
29D
100
AcDbEntity
  8
Defpoints
 62
     0
100
AcDbPoint
 10
285.3612808532019
 20
-132.350791115795
 30
0.0
  0
POINT
  5
2A9
330
29D
100
AcDbEntity
  8
Defpoints
 62
     0
100
AcDbPoint
 10
310.482994042917
 20
-132.3507911157949
 30
0.0
  0
ENDBLK
  5
29F
330
29D
100
AcDbEntity
  8
0
100
AcDbBlockEnd
  0
BLOCK
  5
2AB
330
2AA
100
AcDbEntity
  8
0
100
AcDbBlockBegin
  2
*D14
 70
     1
 10
0.0
 20
0.0
 30
0.0
  3
*D14
  1
*D15
  0
LINE
  5
2AD
330
2AA
100
AcDbEntity
  8
치수문자_일반주서
 62
     0
370
    -2
100
AcDbLine
 10
-83.3125
 20
25.40107492872391
 30
0.0
 11
-95.75000000000007
 21
25.40107492872386
 31
0.0
  0
LINE
  5
2AE
330
2AA
100
AcDbEntity
  8
치수문자_일반주서
 62
     0
370
    -2
100
AcDbLine
 10
-82.31249999999997
 20
-25.3989250712761
 30
0.0
 11
-95.7499999999999
 21
-25.39892507127615
 31
0.0
  0
LINE
  5
2AF
330
2AA
100
AcDbEntity
  8
치수문자_일반주서
 62
     0
370
    -2
100
AcDbLine
 10
-95.75000000000006
 20
22.09907492872386
 30
0.0
 11
-95.74999999999991
 21
-22.09692507127615
 31
0.0
  0
SOLID
  5
2B0
330
2AA
100
AcDbEntity
  8
치수문자_일반주서
 62
     0
100
AcDbTrace
 10
-95.19966666666673
 20
22.09907492872386
 30
0.0
 11
-96.30033333333338
 21
22.09907492872386
 31
0.0
 12
-95.75000000000007
 22
25.40107492872386
 32
0.0
 13
-95.75000000000007
 23
25.40107492872386
 33
0.0
  0
SOLID
  5
2B1
330
2AA
100
AcDbEntity
  8
치수문자_일반주서
 62
     0
100
AcDbTrace
 10
-96.30033333333324
 20
-22.09692507127616
 30
0.0
 11
-95.19966666666659
 21
-22.09692507127615
 31
0.0
 12
-95.7499999999999
 22
-25.39892507127615
 32
0.0
 13
-95.7499999999999
 23
-25.39892507127615
 33
0.0
  0
MTEXT
  5
2B2
330
2AA
100
AcDbEntity
  8
치수문자_일반주서
 62
     0
100
AcDbMText
 10
-100.125
 20
0.001074928723909
 30
0.0
 40
3.5
 41
0.0
 71
     2
 72
     1
  1
\A1;%%c50.80 [2]
  7
SLDTEXTSTYLE0
 11
-3.356894814614646E-15
 21
1.0
 31
0.0
 73
     1
 44
1.0
  0
POINT
  5
2B3
330
2AA
100
AcDbEntity
  8
Defpoints
 62
     0
100
AcDbPoint
 10
-83.25
 20
25.40107492872391
 30
0.0
  0
POINT
  5
2B4
330
2AA
100
AcDbEntity
  8
Defpoints
 62
     0
100
AcDbPoint
 10
-82.24999999999997
 20
-25.3989250712761
 30
0.0
  0
POINT
  5
2B5
330
2AA
100
AcDbEntity
  8
Defpoints
 62
     0
100
AcDbPoint
 10
-95.74999999999989
 20
-25.39892507127615
 30
0.0
  0
ENDBLK
  5
2AC
330
2AA
100
AcDbEntity
  8
0
100
AcDbBlockEnd
  0
ENDSEC
  0
SECTION
  2
ENTITIES
  0
LINE
  5
96
330
1F
100
AcDbEntity
  8
외형선
  6
Continuous
 62
     1
370
    15
100
AcDbLine
 10
39.02235585635441
 20
4.979069542149231
 30
0.0
 11
38.91725590026147
 21
5.081130733896319
 31
0.0
  0
LINE
  5
97
330
1F
100
AcDbEntity
  8
외형선
  6
Continuous
 62
     1
370
    15
100
AcDbLine
 10
108.3772852126028
 20
-4.973303345840254
 30
0.0
 11
108.4863578898645
 21
-5.079046681131939
 31
0.0
  0
LINE
  5
98
330
1F
100
AcDbEntity
  8
외형선
  6
Continuous
 62
     1
370
    15
100
AcDbLine
 10
81.76242480961938
 20
-4.958941863541557
 30
0.0
 11
81.88630913465583
 21
-5.078902950074923
 31
0.0
  0
LINE
  5
99
330
1F
100
AcDbEntity
  8
외형선
  6
Continuous
 62
     1
370
    15
100
AcDbLine
 10
63.47167383169236
 20
25.40107492872389
 30
0.0
 11
57.33160962033796
 21
25.40107492872389
 31
0.0
  0
LINE
  5
9A
330
1F
100
AcDbEntity
  8
외형선
  6
Continuous
 62
     1
370
    15
100
AcDbLine
 10
57.33160962033776
 20
-25.39892507127611
 30
0.0
 11
63.47167383169221
 21
-25.39892507127611
 31
0.0
  0
LINE
  5
9B
330
1F
100
AcDbEntity
  8
외형선
  6
Continuous
 62
     1
370
    15
100
AcDbLine
 10
110.5285586200976
 20
-25.39892507127611
 30
0.0
 11
113.6
 21
-25.39892507127611
 31
0.0
  0
LINE
  5
9C
330
1F
100
AcDbEntity
  8
외형선
  6
Continuous
 62
     1
370
    15
100
AcDbLine
 10
36.87435789369225
 20
25.40107492872389
 30
0.0
 11
30.7331662241247
 21
25.40107492872389
 31
0.0
  0
LINE
  5
9D
330
1F
100
AcDbEntity
  8
외형선
  6
Continuous
 62
     1
370
    15
100
AcDbLine
 10
83.93179095189352
 20
-25.39892507127611
 30
0.0
 11
90.07194925241336
 21
-25.39892507127611
 31
0.0
  0
LINE
  5
9E
330
1F
100
AcDbEntity
  8
외형선
  6
Continuous
 62
     1
370
    15
100
AcDbLine
 10
90.07194925241333
 20
25.40107492872389
 30
0.0
 11
83.93179095189373
 21
25.40107492872389
 31
0.0
  0
LINE
  5
9F
330
1F
100
AcDbEntity
  8
외형선
  6
Continuous
 62
     1
370
    15
100
AcDbLine
 10
30.7331662241247
 20
-25.39892507127611
 30
0.0
 11
36.87435789369209
 21
-25.39892507127611
 31
0.0
  0
LINE
  5
A0
330
1F
100
AcDbEntity
  8
외형선
  6
Continuous
 62
     1
370
    15
100
AcDbLine
 10
113.6
 20
25.40107492872389
 30
0.0
 11
110.5285586200976
 21
25.40107492872389
 31
0.0
  0
LINE
  5
A1
330
1F
100
AcDbEntity
  8
외형선
  6
Continuous
370
    15
100
AcDbLine
 10
-78.17
 20
-25.3989250712761
 30
0.0
 11
-73.72499999999997
 21
-25.3989250712761
 31
0.0
  0
LINE
  5
A2
330
1F
100
AcDbEntity
  8
외형선
  6
Continuous
370
    15
100
AcDbLine
 10
10.99968921090578
 20
25.40107492872389
 30
0.0
 11
-28.18279999999999
 21
25.40107492872389
 31
0.0
  0
SPLINE
  5
A5
330
1F
100
AcDbEntity
  8
외형선
  6
Continuous
 62
     1
370
    15
100
AcDbSpline
210
0.0
220
0.0
230
1.0
 70
     8
 71
     3
 72
    25
 73
    21
 74
     0
 42
0.000000001
 43
0.00000001
 40
0.0
 40
0.0
 40
0.0
 40
0.0
 40
0.0570658155180384
 40
0.1141334416576412
 40
0.1712054606406237
 40
0.22828444811829
 40
0.2853708427850415
 40
0.3424508322712861
 40
0.3995235468623539
 40
0.4589046005530538
 40
0.5182842495957846
 40
0.5776633623277226
 40
0.6370428074770996
 40
0.6964234535297529
 40
0.755806168096069
 40
0.8151918172793137
 40
0.8745812650463612
 40
0.9339750277525133
 40
0.9933666505255293
 40
0.9999999999999999
 40
0.9999999999999999
 40
0.9999999999999999
 40
0.9999999999999999
 10
11.99999999999998
 20
11.17932129062783
 30
0.0
 10
13.17360853576741
 20
10.10462407585304
 30
0.0
 10
15.52086284432252
 20
7.955195547606468
 30
0.0
 10
19.04190138386075
 20
4.520883360448456
 30
0.0
 10
22.56335383995134
 20
1.015108149621511
 30
0.0
 10
26.08538580724016
 20
-2.514450114271993
 30
0.0
 10
29.60795476562849
 20
-5.994411730923078
 30
0.0
 10
33.13007922957217
 20
-9.35980533976288
 30
0.0
 10
36.69910134397747
 20
-12.58832400731012
 30
0.0
 10
40.31557993175655
 20
-15.60756234313499
 30
0.0
 10
43.97938921930213
 20
-18.34213234813526
 30
0.0
 10
47.64316578086807
 20
-20.6956278226777
 30
0.0
 10
51.30696852179132
 20
-22.61924162560067
 30
0.0
 10
54.97088388088036
 20
-24.07270564747022
 30
0.0
 10
58.63498949638016
 20
-25.02699899734574
 30
0.0
 10
62.29937012771877
 20
-25.45784926640191
 30
0.0
 10
65.96408281224528
 20
-25.37276793765632
 30
0.0
 10
69.62910822978724
 20
-24.71189631153737
 30
0.0
 10
72.20890338037155
 20
-24.01292545216699
 30
0.0
 10
73.56693490101269
 20
-23.4040034157094
 30
0.0
 10
73.70337263611675
 20
-23.34282667404582
 30
0.0
  0
SPLINE
  5
A6
330
1F
100
AcDbEntity
  8
외형선
  6
Continuous
370
    15
100
AcDbSpline
210
0.0
220
0.0
230
1.0
 70
    24
 71
     3
 72
    16
 73
    12
 74
     0
 42
0.000000001
 43
0.00000001
 40
0.0
 40
0.0
 40
0.0
 40
0.0
 40
0.107671619294072
 40
0.2179085259204825
 40
0.3361740907577431
 40
0.4578693649871626
 40
0.5761349298244252
 40
0.6978302040538471
 40
0.816095768891107
 40
0.9377910431205255
 40
0.9999999999999999
 40
0.9999999999999999
 40
0.9999999999999999
 40
0.9999999999999999
 10
12.00000000000003
 20
24.19292277317006
 30
0.0
 10
12.0
 20
23.7348611041595
 30
0.0
 10
11.99999999999992
 20
22.80782440006618
 30
0.0
 10
12.00000000000004
 20
21.25943589983449
 30
0.0
 10
12.00000000000013
 20
19.60060979848127
 30
0.0
 10
12.00000000000006
 20
17.88973464727318
 30
0.0
 10
11.99999999999998
 20
16.20277529251197
 30
0.0
 10
11.99999999999991
 20
14.61325402847303
 30
0.0
 10
12.00000000000009
 20
13.1518930829179
 30
0.0
 10
11.99999999999995
 20
12.03997439009214
 30
0.0
 10
11.99999999999999
 20
11.50592419622103
 30
0.0
 10
12.00000000000001
 20
11.32527198783148
 30
0.0
  0
SPLINE
  5
A7
330
1F
100
AcDbEntity
  8
외형선
  6
Continuous
 62
     1
370
    15
100
AcDbSpline
210
0.0
220
0.0
230
1.0
 70
     8
 71
     3
 72
    27
 73
    23
 74
     0
 42
0.000000001
 43
0.00000001
 40
0.0
 40
0.0
 40
0.0
 40
0.0
 40
0.0460025253348315
 40
0.0969424473427738
 40
0.147885249948177
 40
0.1988316731722976
 40
0.2497799320414824
 40
0.3007244895348918
 40
0.3516657885846185
 40
0.4026045703056534
 40
0.4535415776455956
 40
0.504477554844859
 40
0.5554132468948251
 40
0.6063493989948004
 40
0.6572867560086436
 40
0.7062440085022905
 40
0.7552075014364458
 40
0.8041764887656302
 40
0.8531391221719472
 40
0.9020957779695916
 40
0.9510486655647936
 40
1.0
 40
1.0
 40
1.0
 40
1.0
 10
83.93179095189355
 20
-25.37582872868261
 30
0.0
 10
82.82879890239106
 20
-25.34366653446114
 30
0.0
 10
80.50443197035584
 20
-25.2758902157254
 30
0.0
 10
76.958532533452
 20
-24.5247564733793
 30
0.0
 10
73.29399575551776
 20
-23.28661252844818
 30
0.0
 10
69.62911621171727
 20
-21.55182374213407
 30
0.0
 10
65.96408067362921
 20
-19.37268729409843
 30
0.0
 10
62.29937070070187
 20
-16.79005125271112
 30
0.0
 10
58.63498934286218
 20
-13.85888689103286
 30
0.0
 10
54.97088392201296
 20
-10.63978239223091
 30
0.0
 10
51.30696851077022
 20
-7.199693338965658
 30
0.0
 10
47.64316578382113
 20
-3.610046489450634
 30
0.0
 10
43.97938921851072
 20
0.0546100070097893
 30
0.0
 10
40.31557993196886
 20
3.718155775507407
 30
0.0
 10
36.69910134392305
 20
7.258065523146468
 30
0.0
 10
33.13007922958653
 20
10.60648251390348
 30
0.0
 10
29.6079547656247
 20
13.70706627187384
 30
0.0
 10
26.0853858072411
 20
16.54377825809593
 30
0.0
 10
22.56335383995109
 20
19.06555195079934
 30
0.0
 10
19.04190138386081
 20
21.21236479142808
 30
0.0
 10
15.52086284432252
 20
22.98538336644786
 30
0.0
 10
13.17360853576747
 20
23.79041389461767
 30
0.0
 10
12.00000000000003
 20
24.19292277316992
 30
0.0
  0
LINE
  5
A8
330
1F
100
AcDbEntity
  8
외형선
  6
Continuous
 62
     1
370
    15
100
AcDbLine
 10
113.6
 20
-9.953651385946701
 30
0.0
 11
113.6
 21
9.955801243394967
 31
0.0
  0
SPLINE
  5
A9
330
1F
100
AcDbEntity
  8
외형선
  6
Continuous
 62
     1
370
    15
100
AcDbSpline
210
0.0
220
0.0
230
1.0
 70
     8
 71
     3
 72
    21
 73
    17
 74
     0
 42
0.000000001
 43
0.00000001
 40
0.0
 40
0.0
 40
0.0
 40
0.0
 40
0.049717666785699
 40
0.1228270783238437
 40
0.1959338557595981
 40
0.2690354377027149
 40
0.3421328860642355
 40
0.4152272657629
 40
0.4883196439524499
 40
0.5614110892453841
 40
0.6345026709343903
 40
0.7075954582126969
 40
0.7806905193945822
 40
0.853788921137284
 40
0.9268917276655411
 40
1.0
 40
1.0
 40
1.0
 40
1.0
 10
63.47167383169239
 20
25.34360052834841
 30
0.0
 10
64.30245065732291
 20
25.34279345436391
 30
0.0
 10
66.3548778291608
 20
25.34079958486204
 30
0.0
 10
69.62911960835078
 20
24.73187164730604
 30
0.0
 10
73.29399464117212
 20
23.61121596236192
 30
0.0
 10
76.95853359440751
 20
21.97998448708222
 30
0.0
 10
80.62276335547094
 20
19.89754025342287
 30
0.0
 10
84.28676193908774
 20
17.40035560162217
 30
0.0
 10
87.95061011801218
 20
14.54212857600721
 30
0.0
 10
91.61438812463157
 20
11.38176267977085
 30
0.0
 10
95.27817633674977
 20
7.984924051678546
 30
0.0
 10
98.94205543674934
 20
4.422478108331055
 30
0.0
 10
102.6061046926606
 20
0.7670584170785706
 30
0.0
 10
106.2704082786372
 20
-2.900378401295953
 30
0.0
 10
109.9350313146761
 20
-6.522502759463939
 30
0.0
 10
112.3783133258359
 20
-8.809906673792282
 30
0.0
 10
113.6
 20
-9.9536513859467
 30
0.0
  0
SPLINE
  5
AA
330
1F
100
AcDbEntity
  8
외형선
  6
Continuous
 62
     1
370
    15
100
AcDbSpline
210
0.0
220
0.0
230
1.0
 70
     8
 71
     3
 72
    18
 73
    14
 74
     0
 42
0.000000001
 43
0.00000001
 40
0.0
 40
0.0
 40
0.0
 40
0.0
 40
0.0918559907154012
 40
0.1837051139857394
 40
0.2755487029173755
 40
0.3673880946424097
 40
0.4592246293492247
 40
0.5510596493081721
 40
0.6428944978939517
 40
0.7347305186062241
 40
0.8265690540900363
 40
0.918411445157599
 40
1.0
 40
1.0
 40
1.0
 40
1.0
 10
113.6
 20
9.955801243394971
 30
0.0
 10
112.3783133258192
 20
11.05960234473781
 30
0.0
 10
109.9350313146262
 20
13.26712202375394
 30
0.0
 10
106.2704082788368
 20
16.24740479801581
 30
0.0
 10
102.6061046919122
 20
18.90489417332317
 30
0.0
 10
98.94205543954337
 20
21.16563538482107
 30
0.0
 10
95.27817632632244
 20
22.98766299738765
 30
0.0
 10
91.61438816354644
 20
24.33210206016662
 30
0.0
 10
87.95060997277966
 20
25.17029259095488
 30
0.0
 10
84.286762481117
 20
25.48886643774214
 30
0.0
 10
80.62276133249333
 20
25.26576910120592
 30
0.0
 10
77.09497473557175
 20
24.5894157747777
 30
0.0
 10
74.78845010305024
 20
23.74311078847856
 30
0.0
 10
73.70337263611692
 20
23.34497653149359
 30
0.0
  0
SPLINE
  5
AB
330
1F
100
AcDbEntity
  8
외형선
  6
Continuous
 62
     1
370
    15
100
AcDbSpline
210
0.0
220
0.0
230
1.0
 70
     8
 71
     3
 72
    32
 73
    28
 74
     0
 42
0.000000001
 43
0.00000001
 40
0.0
 40
0.0
 40
0.0
 40
0.0
 40
0.0398766735065844
 40
0.0797546122463789
 40
0.1196356206344321
 40
0.1595214984944238
 40
0.1994125523789427
 40
0.2392991304264035
 40
0.2791806248941914
 40
0.3206751495760038
 40
0.3621686927124208
 40
0.4036618610834868
 40
0.4451552617425095
 40
0.486649501573415
 40
0.5281451868483791
 40
0.569642922786425
 40
0.6111433131137007
 40
0.652646718650981
 40
0.6941486288374243
 40
0.7356475896000744
 40
0.7771442037741019
 40
0.8186390759021153
 40
0.860132811795508
 40
0.9016260180937948
 40
0.9431193018226253
 40
0.9846132699511875
 40
0.9999999999999999
 40
0.9999999999999999
 40
0.9999999999999999
 40
0.9999999999999999
 10
12.00000000000001
 20
25.34254243141235
 30
0.0
 10
13.17360853576749
 20
25.21596107832295
 30
0.0
 10
15.52086284432257
 20
24.96279435588809
 30
0.0
 10
19.04190138386083
 20
23.97372875947639
 30
0.0
 10
22.56335383995112
 20
22.5594888887369
 30
0.0
 10
26.08538580724115
 20
20.70284384862472
 30
0.0
 10
29.60795476562473
 20
18.45151413232473
 30
0.0
 10
33.13007922958658
 20
15.84525631259749
 30
0.0
 10
36.69910134392268
 20
12.89592542398133
 30
0.0
 10
40.3155799319704
 20
9.647144021179633
 30
0.0
 10
43.97938921850498
 20
6.15537224489504
 30
0.0
 10
47.64316578384282
 20
2.535754120597591
 30
0.0
 10
51.30696851068925
 20
-1.136525757598582
 30
0.0
 10
54.97088392231542
 20
-4.78521097008952
 30
0.0
 10
58.63498934173327
 20
-8.334525957323038
 30
0.0
 10
62.29937070491562
 20
-11.71074745032086
 30
0.0
 10
65.96408065790169
 20
-14.84374375964767
 30
0.0
 10
69.62911627041676
 20
-17.66824617886038
 30
0.0
 10
73.29399553646415
 20
-20.12567108470159
 30
0.0
 10
76.9585333508877
 20
-22.16492413272703
 30
0.0
 10
80.62276343433447
 20
-23.74343751295226
 30
0.0
 10
84.28676186714031
 20
-24.82923641190085
 30
0.0
 10
87.95061032693508
 20
-25.39692100302688
 30
0.0
 10
91.61438736089463
 20
-25.44545198976975
 30
0.0
 10
95.2781791828042
 20
-24.9337666812209
 30
0.0
 10
98.17359837882464
 20
-24.2132222683962
 30
0.0
 10
99.84779268292058
 20
-23.5024854608139
 30
0.0
 10
100.3006769939755
 20
-23.31022489186094
 30
0.0
  0
SPLINE
  5
AC
330
1F
100
AcDbEntity
  8
외형선
  6
Continuous
 62
     1
370
    15
100
AcDbSpline
210
0.0
220
0.0
230
1.0
 70
     8
 71
     3
 72
    33
 73
    29
 74
     0
 42
0.000000001
 43
0.00000001
 40
0.0
 40
0.0
 40
0.0
 40
0.0
 40
0.0065931287245661
 40
0.0472984430211206
 40
0.0880013046323553
 40
0.1287023061429398
 40
0.1694020414920149
 40
0.2101011055413994
 40
0.2508000936423328
 40
0.2914996012014339
 40
0.3322002232465776
 40
0.37290255399337
 40
0.4136071864129168
 40
0.454314711801568
 40
0.495023703918663
 40
0.535729738539651
 40
0.5764331695788655
 40
0.6171345892065783
 40
0.6578345910573636
 40
0.6985337697987888
 40
0.7392327206984631
 40
0.7799320391901342
 40
0.8206323204395173
 40
0.8597504463593009
 40
0.8988735585543587
 40
0.9380010609148293
 40
0.9771234863246511
 40
1.0
 40
1.0
 40
1.0
 40
1.0
 10
110.5285586200976
 20
-25.36308276768614
 30
0.0
 10
110.3306953014101
 20
-25.37448775011117
 30
0.0
 10
108.9112437335922
 20
-25.45630594810523
 30
0.0
 10
106.270414857209
 20
-25.09912683040633
 30
0.0
 10
102.6061029300923
 20
-24.26552604711628
 30
0.0
 10
98.94205590892065
 20
-22.87863488809012
 30
0.0
 10
95.27817621054294
 20
-21.02962762180578
 30
0.0
 10
91.61438815730216
 20
-18.74021493684607
 30
0.0
 10
87.9506101135357
 20
-16.0624215141262
 30
0.0
 10
84.28676192432249
 20
-13.0506539107655
 30
0.0
 10
80.62276341901168
 20
-9.767769027760282
 30
0.0
 10
76.95853335499383
 20
-6.281846609384648
 30
0.0
 10
73.29399553536356
 20
-2.665290125644339
 30
0.0
 10
69.6291162707123
 20
1.006725836331523
 30
0.0
 10
65.96408065782016
 20
4.657776083201608
 30
0.0
 10
62.29937070494634
 20
8.212150078329882
 30
0.0
 10
58.63498934169226
 20
11.59580397431884
 30
0.0
 10
54.97088392244872
 20
14.7384931777474
 30
0.0
 10
51.30696851019695
 20
17.57496537362448
 30
0.0
 10
47.64316578567818
 20
20.04632042624924
 30
0.0
 10
43.97938921165564
 20
22.10128131892113
 30
0.0
 10
40.31557995753268
 20
23.6970319111225
 30
0.0
 10
36.69910125008802
 20
24.78662845077732
 30
0.0
 10
33.13007956468026
 20
25.36837629690417
 30
0.0
 10
29.60795351314668
 20
25.4609661540835
 30
0.0
 10
26.08539048230359
 20
25.0446107186442
 30
0.0
 10
23.05071254384799
 20
24.33702488725967
 30
0.0
 10
21.19032678836421
 20
23.5901513073033
 30
0.0
 10
20.50387729737722
 20
23.31456814543407
 30
0.0
  0
LINE
  5
AD
330
1F
100
AcDbEntity
  8
외형선
  6
Continuous
 62
     1
370
    15
100
AcDbLine
 10
113.6
 20
-25.21356986424626
 30
0.0
 11
113.6
 21
-15.21150027186475
 31
0.0
  0
SPLINE
  5
AE
330
1F
100
AcDbEntity
  8
외형선
  6
Continuous
 62
     1
370
    15
100
AcDbSpline
210
0.0
220
0.0
230
1.0
 70
     8
 71
     3
 72
    28
 73
    24
 74
     0
 42
0.000000001
 43
0.00000001
 40
0.0
 40
0.0
 40
0.0
 40
0.0
 40
0.0448522445940303
 40
0.0926060596612277
 40
0.1403594434209514
 40
0.1881130945147056
 40
0.2358677113890578
 40
0.2836239917865281
 40
0.3313826322375918
 40
0.3791443275546132
 40
0.4269094929966243
 40
0.4746729374791335
 40
0.5224329875482535
 40
0.5701903369909473
 40
0.6179456815592218
 40
0.6656997184652954
 40
0.7134531458744486
 40
0.761206662396355
 40
0.8089609665757075
 40
0.856716756382948
 40
0.9044747287059098
 40
0.9522355788431826
 40
1.0
 40
1.0
 40
1.0
 40
1.0
 10
36.87435789369225
 20
25.38600854747941
 30
0.0
 10
38.02143877115063
 20
25.34721574335904
 30
0.0
 10
40.38980720255572
 20
25.26712056049107
 30
0.0
 10
43.97939110303037
 20
24.49123912668379
 30
0.0
 10
47.64316527888504
 20
23.23443414634289
 30
0.0
 10
51.30696864599507
 20
21.48322209343459
 30
0.0
 10
54.97088388606008
 20
19.28886711059999
 30
0.0
 10
58.63498935144348
 20
16.69292664262437
 30
0.0
 10
62.29937070233233
 20
13.75036470301262
 30
0.0
 10
65.96408065852368
 20
10.52196783601698
 30
0.0
 10
69.62911627051216
 20
7.075063890015723
 30
0.0
 10
73.29399553546071
 20
3.481110515225723
 30
0.0
 10
76.95853335480554
 20
-0.1850891192050136
 30
0.0
 10
80.62276341966762
 20
-3.847314857968974
 30
0.0
 10
84.2867619218871
 20
-7.429510475075688
 30
0.0
 10
87.95061012262093
 20
-10.857305709743
 30
0.0
 10
91.61438812339662
 20
-14.05945613767364
 30
0.0
 10
95.27817633708065
 20
-16.96971181514297
 30
0.0
 10
98.94205543666067
 20
-19.52671485702033
 30
0.0
 10
102.6061046926843
 20
-21.68077385974271
 30
0.0
 10
106.2704082786309
 20
-23.37435249966192
 30
0.0
 10
109.9350313146777
 20
-24.6199285502997
 30
0.0
 10
112.3783133258364
 20
-25.01568449475156
 30
0.0
 10
113.6
 20
-25.21356986424626
 30
0.0
  0
SPLINE
  5
AF
330
1F
100
AcDbEntity
  8
외형선
  6
Continuous
 62
     1
370
    15
100
AcDbSpline
210
0.0
220
0.0
230
1.0
 70
     8
 71
     3
 72
    26
 73
    22
 74
     0
 42
0.000000001
 43
0.00000001
 40
0.0
 40
0.0
 40
0.0
 40
0.0
 40
0.055110845754811
 40
0.1102175712480838
 40
0.1653209763037435
 40
0.2204218631610381
 40
0.2755210358928939
 40
0.330619299821356
 40
0.3857174609310455
 40
0.4408163252815563
 40
0.4959166984197396
 40
0.5510193847927998
 40
0.6061251871631408
 40
0.6612349060258867
 40
0.7163466105409518
 40
0.77145431120716
 40
0.826558487152614
 40
0.8816599400555519
 40
0.9367594735765784
 40
0.9918578927747616
 40
1.0
 40
1.0
 40
1.0
 40
1.0
 10
113.6
 20
-15.25884354957529
 30
0.0
 10
112.3783133258364
 20
-14.25175346875897
 30
0.0
 10
109.9350313146777
 20
-12.23764860037339
 30
0.0
 10
106.2704082786309
 20
-8.877199279410673
 30
0.0
 10
102.6061046926843
 20
-5.355166100771746
 30
0.0
 10
98.94205543666075
 20
-1.71583666313571
 30
0.0
 10
95.27817633708068
 20
1.957469002607186
 30
0.0
 10
91.61438812339671
 20
5.590540151005898
 30
0.0
 10
87.9506101226211
 20
9.107375774479843
 30
0.0
 10
84.28676192188655
 20
12.43509108542164
 30
0.0
 10
80.62276341966981
 20
15.50453191807332
 30
0.0
 10
76.95853335479715
 20
18.25195449284504
 30
0.0
 10
73.29399553549216
 20
20.62025183347783
 30
0.0
 10
69.62911627039468
 20
22.56023603157254
 30
0.0
 10
65.96408065896206
 20
24.03123787150169
 30
0.0
 10
62.29937070069688
 20
25.00386644533448
 30
0.0
 10
58.63498935754643
 20
25.45370563973436
 30
0.0
 10
54.97088386328514
 20
25.38700046721573
 30
0.0
 10
51.30696873098825
 20
24.74719508172517
 30
0.0
 10
48.6839494733497
 20
24.04325818556646
 30
0.0
 10
47.2822192087464
 20
23.41887568976825
 30
0.0
 10
47.10174888756582
 20
23.33848753492726
 30
0.0
  0
SPLINE
  5
B0
330
1F
100
AcDbEntity
  8
외형선
  6
Continuous
 62
     1
370
    15
100
AcDbSpline
210
0.0
220
0.0
230
1.0
 70
     8
 71
     3
 72
    17
 73
    13
 74
     0
 42
0.000000001
 43
0.00000001
 40
0.0
 40
0.0
 40
0.0
 40
0.0
 40
0.1003110492632072
 40
0.2006252812610743
 40
0.3009472350574415
 40
0.4012814381664166
 40
0.5016286617308515
 40
0.6019646261838285
 40
0.7022878027293366
 40
0.8066686084357948
 40
0.9110469450333768
 40
1.0
 40
1.0
 40
1.0
 40
1.0
 10
11.99999999999999
 20
-14.16214621206068
 30
0.0
 10
13.17360853576528
 20
-15.11026231146655
 30
0.0
 10
15.52086284431602
 20
-17.00652459272676
 30
0.0
 10
19.04190138388677
 20
-19.45176761743125
 30
0.0
 10
22.56335383985364
 20
-21.54331651012475
 30
0.0
 10
26.08538580760495
 20
-23.21617908098602
 30
0.0
 10
29.60795476426686
 20
-24.44500005936019
 30
0.0
 10
33.13007923465285
 20
-25.20343028325323
 30
0.0
 10
36.69910132469457
 20
-25.4852863728031
 30
0.0
 10
40.31558000696891
 20
-25.24539416714291
 30
0.0
 10
43.79891868370231
 20
-24.56251003083046
 30
0.0
 10
46.06096594581896
 20
-23.72272728585724
 30
0.0
 10
47.10174888756561
 20
-23.33633767747946
 30
0.0
  0
SPLINE
  5
B1
330
1F
100
AcDbEntity
  8
외형선
  6
Continuous
370
    15
100
AcDbSpline
210
0.0
220
0.0
230
1.0
 70
    24
 71
     3
 72
    36
 73
    32
 74
     0
 42
0.000000001
 43
0.00000001
 40
0.0
 40
0.0
 40
0.0
 40
0.0
 40
0.1249999999999974
 40
0.1249999999999974
 40
0.1562499999999972
 40
0.1562499999999972
 40
0.187499999999997
 40
0.187499999999997
 40
0.2499999999999972
 40
0.2499999999999972
 40
0.3749999999999974
 40
0.3749999999999974
 40
0.4374999999999977
 40
0.4374999999999977
 40
0.4999999999999978
 40
0.4999999999999978
 40
0.5624999999999981
 40
0.5624999999999981
 40
0.6249999999999984
 40
0.6249999999999984
 40
0.6874999999999987
 40
0.6874999999999987
 40
0.7499999999999989
 40
0.7499999999999989
 40
0.8124999999999992
 40
0.8124999999999992
 40
0.8749999999999994
 40
0.8749999999999994
 40
0.9374999999999998
 40
0.9374999999999998
 40
1.0
 40
1.0
 40
1.0
 40
1.0
 10
12.00000000000001
 20
5.393576336784467
 30
0.0
 10
12.0
 20
5.381454284162399
 30
0.0
 10
11.99999999999999
 20
5.235627585535933
 30
0.0
 10
11.99999999999998
 20
4.97612238231436
 30
0.0
 10
11.99999999999999
 20
4.920217361496199
 30
0.0
 10
11.99999999999999
 20
4.802066922721013
 30
0.0
 10
12.00000000000001
 20
4.738702426537757
 30
0.0
 10
12.00000000000004
 20
4.525407762490524
 30
0.0
 10
12.00000000000001
 20
4.355485060893477
 30
0.0
 10
12.00000000000001
 20
3.742498756131418
 30
0.0
 10
12.0
 20
3.194955179063727
 30
0.0
 10
11.99999999999999
 20
2.090164445060141
 30
0.0
 10
11.99999999999998
 20
1.674818213671227
 30
0.0
 10
11.99999999999999
 20
0.7446918232060272
 30
0.0
 10
12.00000000000004
 20
0.2297535147007532
 30
0.0
 10
12.0
 20
-0.8945379769363451
 30
0.0
 10
12.00000000000003
 20
-1.503995383634485
 30
0.0
 10
12.00000000000003
 20
-2.797492717693022
 30
0.0
 10
12.00000000000003
 20
-3.481493097707255
 30
0.0
 10
12.00000000000003
 20
-4.888116021782378
 30
0.0
 10
12.0
 20
-5.610503780724039
 30
0.0
 10
12.00000000000003
 20
-7.045811559061347
 30
0.0
 10
12.00000000000004
 20
-7.758357732852675
 30
0.0
 10
12.00000000000003
 20
-9.123235377236451
 30
0.0
 10
12.00000000000006
 20
-9.775213532259334
 30
0.0
 10
12.00000000000003
 20
-10.97713294375489
 30
0.0
 10
12.00000000000003
 20
-11.52689820221471
 30
0.0
 10
11.99999999999998
 20
-12.49996570390062
 30
0.0
 10
12.00000000000001
 20
-12.92331218435983
 30
0.0
 10
12.00000000000001
 20
-13.63852143203992
 30
0.0
 10
12.00000000000001
 20
-13.93057216349559
 30
0.0
 10
12.00000000000001
 20
-14.16214621206047
 30
0.0
  0
SPLINE
  5
B2
330
1F
100
AcDbEntity
  8
외형선
  6
Continuous
 62
     1
370
    15
100
AcDbSpline
210
0.0
220
0.0
230
1.0
 70
     8
 71
     3
 72
    20
 73
    16
 74
     0
 42
0.000000001
 43
0.00000001
 40
0.0
 40
0.0
 40
0.0
 40
0.0
 40
0.0520768535180156
 40
0.1329016571070859
 40
0.213724826110177
 40
0.2945475426497813
 40
0.3753709891783187
 40
0.4561963476159334
 40
0.5338797554897347
 40
0.6115730654446504
 40
0.6892750936855876
 40
0.7669670397761472
 40
0.8446495008366253
 40
0.9223259826643567
 40
1.0
 40
1.0
 40
1.0
 40
1.0
 10
57.33160962033776
 20
-25.3383861417793
 30
0.0
 10
56.54468783713595
 20
-25.34109410282782
 30
0.0
 10
54.53644037331787
 20
-25.34800489882296
 30
0.0
 10
51.30697057005671
 20
-24.76021921506749
 30
0.0
 10
47.64316523204154
 20
-23.65887748869887
 30
0.0
 10
43.97938936637466
 20
-22.04461873618935
 30
0.0
 10
40.31557989229536
 20
-19.97812627759217
 30
0.0
 10
36.69910135409454
 20
-17.52717377771824
 30
0.0
 10
33.1300792269065
 20
-14.76172265012581
 30
0.0
 10
29.60795476634293
 20
-11.74950718237657
 30
0.0
 10
26.0853858070487
 20
-8.512125463295595
 30
0.0
 10
22.56335384000261
 20
-5.110613618515427
 30
0.0
 10
19.04190138384705
 20
-1.613177274812374
 30
0.0
 10
15.52086284432593
 20
1.922538566222992
 30
0.0
 10
13.17360853576859
 20
4.236575983285594
 30
0.0
 10
12.00000000000003
 20
5.393576336784447
 30
0.0
  0
LINE
  5
B3
330
1F
100
AcDbEntity
  8
외형선
  6
Continuous
 62
     1
370
    15
100
AcDbLine
 10
113.6
 20
-15.25884354957529
 30
0.0
 11
113.6
 21
-9.953651385946701
 31
0.0
  0
LINE
  5
B4
330
1F
100
AcDbEntity
  8
외형선
  6
Continuous
370
    15
100
AcDbLine
 10
12.00000000000003
 20
5.393576336784467
 30
0.0
 11
11.99999999999999
 21
11.17932129062783
 31
0.0
  0
LINE
  5
B5
330
1F
100
AcDbEntity
  8
외형선
  6
Continuous
 62
     1
370
    15
100
AcDbLine
 10
113.6
 20
-25.39892507127611
 30
0.0
 11
113.6
 21
-25.21356986424626
 31
0.0
  0
LINE
  5
B6
330
1F
100
AcDbEntity
  8
외형선
  6
Continuous
370
    15
100
AcDbLine
 10
12.00000000000003
 20
24.19292277317006
 30
0.0
 11
12.00000000000001
 21
25.34254243141235
 31
0.0
  0
SPLINE
  5
B7
330
1F
100
AcDbEntity
  8
외형선
  6
Continuous
 62
     1
370
    15
100
AcDbSpline
210
0.0
220
0.0
230
1.0
 70
     8
 71
     3
 72
    10
 73
     6
 74
     0
 42
0.000000001
 43
0.00000001
 40
0.0
 40
0.0
 40
0.0
 40
0.0
 40
0.4140334549371117
 40
0.8280800465988098
 40
1.0
 40
1.0
 40
1.0
 40
1.0
 10
12.00000000000003
 20
-25.34039257396456
 30
0.0
 10
13.17361047720449
 20
-25.20875571507809
 30
0.0
 10
15.52086866869516
 20
-24.94547782064469
 30
0.0
 10
18.35545812555844
 20
-24.21028339210779
 30
0.0
 10
20.01652711413233
 20
-23.51609116931343
 30
0.0
 10
20.50387729737724
 20
-23.31241828798628
 30
0.0
  0
SPLINE
  5
B8
330
1F
100
AcDbEntity
  8
외형선
  6
Continuous
 62
     1
370
    15
100
AcDbSpline
210
0.0
220
0.0
230
1.0
 70
     8
 71
     3
 72
    14
 73
    10
 74
     0
 42
0.000000001
 43
0.00000001
 40
0.0
 40
0.0
 40
0.0
 40
0.0
 40
0.0655601825405627
 40
0.2212861541201524
 40
0.3770146942796083
 40
0.5327480791261803
 40
0.6884885812366931
 40
0.844238468005389
 40
1.0
 40
1.0
 40
1.0
 40
1.0
 10
90.07194925241336
 20
25.33668363350298
 30
0.0
 10
90.58609501220349
 20
25.35209548762285
 30
0.0
 10
92.32149801799522
 20
25.40411532335068
 30
0.0
 10
95.27817599811269
 20
24.93593876541944
 30
0.0
 10
98.94205552748824
 20
23.95556587442702
 30
0.0
 10
102.606104668354
 20
22.44748801589385
 30
0.0
 10
106.2704082851195
 20
20.47542750948843
 30
0.0
 10
109.9350313130554
 20
18.09840608833012
 30
0.0
 10
112.3783133252956
 20
16.2068212051537
 30
0.0
 10
113.6
 20
15.26099340702321
 30
0.0
  0
LINE
  5
B9
330
1F
100
AcDbEntity
  8
외형선
  6
Continuous
 62
     1
370
    15
100
AcDbLine
 10
113.6
 20
9.955801243394967
 30
0.0
 11
113.6
 21
15.2609934070232
 31
0.0
  0
SPLINE
  5
BA
330
1F
100
AcDbEntity
  8
외형선
  6
Continuous
 62
     1
370
    15
100
AcDbSpline
210
0.0
220
0.0
230
1.0
 70
     8
 71
     3
 72
    11
 73
     7
 74
     0
 42
0.000000001
 43
0.00000001
 40
0.0
 40
0.0
 40
0.0
 40
0.0
 40
0.2755679081473942
 40
0.5511152139643841
 40
0.8266459167691238
 40
1.0
 40
1.0
 40
1.0
 40
1.0
 10
113.6
 20
25.21571972169407
 30
0.0
 10
112.3783131764242
 20
25.31348825294383
 30
0.0
 10
109.9350308664525
 20
25.50901800595803
 30
0.0
 10
106.2704100713303
 20
25.11299061912912
 30
0.0
 10
103.0589925281109
 20
24.40811824515884
 30
0.0
 10
101.0691363177159
 20
23.61764595392378
 30
0.0
 10
100.3006769939755
 20
23.31237474930873
 30
0.0
  0
SPLINE
  5
BB
330
1F
100
AcDbEntity
  8
외형선
  6
Continuous
 62
     1
370
    15
100
AcDbSpline
210
0.0
220
0.0
230
1.0
 70
     8
 71
     3
 72
    13
 73
     9
 74
     0
 42
0.000000001
 43
0.00000001
 40
0.0
 40
0.0
 40
0.0
 40
0.0
 40
0.0600580988495172
 40
0.2480867489008892
 40
0.4360910014794022
 40
0.6240723015373398
 40
0.8120391326414144
 40
1.0
 40
1.0
 40
1.0
 40
1.0
 10
30.7331662241247
 20
-25.34587704912111
 30
0.0
 10
30.35812565081456
 20
-25.36077762689013
 30
0.0
 10
28.80891583031112
 20
-25.42232862444542
 30
0.0
 10
26.0853721449095
 20
-25.03312104890075
 30
0.0
 10
22.56335749881575
 20
-24.18090412090246
 30
0.0
 10
19.04190040829667
 20
-22.82291708761592
 30
0.0
 10
15.52086308819673
 20
-21.06215735720416
 30
0.0
 10
13.173608617058
 20
-19.55289214314321
 30
0.0
 10
12.00000000000003
 20
-18.7982715076616
 30
0.0
  0
LINE
  5
BC
330
1F
100
AcDbEntity
  8
외형선
  6
Continuous
 62
     1
370
    15
100
AcDbLine
 10
113.6
 20
25.21571972169407
 30
0.0
 11
113.6
 21
25.40107492872389
 31
0.0
  0
LINE
  5
BD
330
1F
100
AcDbEntity
  8
외형선
  6
Continuous
370
    15
100
AcDbLine
 10
12.00000000000003
 20
-18.79827150766172
 30
0.0
 11
11.99999999999999
 21
-14.16214621206068
 31
0.0
  0
LINE
  5
BE
330
1F
100
AcDbEntity
  8
외형선
  6
Continuous
 62
     1
370
    15
100
AcDbLine
 10
113.6
 20
15.25280722097121
 30
0.0
 11
113.6
 21
25.21571972169407
 31
0.0
  0
SPLINE
  5
BF
330
1F
100
AcDbEntity
  8
외형선
  6
Continuous
370
    15
100
AcDbSpline
210
0.0
220
0.0
230
1.0
 70
    24
 71
     3
 72
    12
 73
     8
 74
     0
 42
0.000000001
 43
0.00000001
 40
0.0
 40
0.0
 40
0.0
 40
0.0
 40
0.1190950934682417
 40
0.3765723749142366
 40
0.6340496563602346
 40
0.8915269378062328
 40
1.0
 40
1.0
 40
1.0
 40
1.0
 10
11.99999999999999
 20
-18.94423220486537
 30
0.0
 10
12.0
 20
-19.16949885915704
 30
0.0
 10
12.00000000000004
 20
-19.8817800835571
 30
0.0
 10
12.00000000000004
 20
-21.22230709407928
 30
0.0
 10
12.00000000000001
 20
-22.90460796883588
 30
0.0
 10
11.99999999999994
 20
-24.29543416630147
 30
0.0
 10
11.99999999999999
 20
-25.10147131301794
 30
0.0
 10
12.00000000000003
 20
-25.34039257396456
 30
0.0
  0
LINE
  5
C0
330
1F
100
AcDbEntity
  8
외형선
  6
Continuous
370
    15
100
AcDbLine
 10
10.99968921090578
 20
25.39072107911458
 30
0.0
 11
10.99968921090578
 21
25.40107492872389
 31
0.0
  0
SPLINE
  5
C1
330
1F
100
AcDbEntity
  8
외형선
  6
Continuous
370
    15
100
AcDbSpline
210
0.0
220
0.0
230
1.0
 70
     8
 71
     3
 72
     8
 73
     4
 74
     0
 42
0.000000001
 43
0.00000001
 40
0.0
 40
0.0
 40
0.0
 40
0.0
 40
1.0
 40
1.0
 40
1.0
 40
1.0
 10
12.0
 20
25.34254243141234
 30
0.0
 10
11.66648836084188
 20
25.36514810031972
 30
0.0
 10
11.33292240334528
 20
25.3812121625647
 30
0.0
 10
10.99968921090581
 20
25.39072143784315
 30
0.0
  0
SPLINE
  5
C2
330
1F
100
AcDbEntity
  8
외형선
  6
Continuous
370
    15
100
AcDbSpline
210
0.0
220
0.0
230
1.0
 70
     8
 71
     3
 72
     8
 73
     4
 74
     0
 42
0.000000001
 43
0.00000001
 40
0.0
 40
0.0
 40
0.0
 40
0.0
 40
1.0
 40
1.0
 40
1.0
 40
1.0
 10
11.99999999999999
 20
24.19292277316992
 30
0.0
 10
11.66648836084187
 20
24.29445485375805
 30
0.0
 10
11.33292240334526
 20
24.38974641548432
 30
0.0
 10
10.99968921090579
 20
24.47869209876928
 30
0.0
  0
LINE
  5
C3
330
1F
100
AcDbEntity
  8
외형선
  6
Continuous
370
    15
100
AcDbLine
 10
10.99968921090578
 20
12.06788425529329
 30
0.0
 11
10.99968921090578
 21
24.47869258037676
 31
0.0
  0
SPLINE
  5
C4
330
1F
100
AcDbEntity
  8
외형선
  6
Continuous
370
    15
100
AcDbSpline
210
0.0
220
0.0
230
1.0
 70
     8
 71
     3
 72
     8
 73
     4
 74
     0
 42
0.000000001
 43
0.00000001
 40
0.0
 40
0.0
 40
0.0
 40
0.0
 40
1.0
 40
1.0
 40
1.0
 40
1.0
 10
12.0
 20
11.17932129062783
 30
0.0
 10
11.66648836084188
 20
11.4784963181965
 30
0.0
 10
11.33292240334528
 20
11.77480146171535
 30
0.0
 10
10.99968921090581
 20
12.06789531189209
 30
0.0
  0
SPLINE
  5
C5
330
1F
100
AcDbEntity
  8
외형선
  6
Continuous
370
    15
100
AcDbSpline
210
0.0
220
0.0
230
1.0
 70
     8
 71
     3
 72
     8
 73
     4
 74
     0
 42
0.000000001
 43
0.00000001
 40
0.0
 40
0.0
 40
0.0
 40
0.0
 40
1.0
 40
1.0
 40
1.0
 40
1.0
 10
11.99999999999999
 20
5.393576336784482
 30
0.0
 10
11.66648836084187
 20
5.719155202884547
 30
0.0
 10
11.33292240334526
 20
6.043359416272108
 30
0.0
 10
10.99968921090579
 20
6.365813948485617
 30
0.0
  0
SPLINE
  5
C6
330
1F
100
AcDbEntity
  8
외형선
  6
Continuous
370
    15
100
AcDbSpline
210
0.0
220
0.0
230
1.0
 70
     8
 71
     3
 72
     8
 73
     4
 74
     0
 42
0.000000001
 43
0.00000001
 40
0.0
 40
0.0
 40
0.0
 40
0.0
 40
1.0
 40
1.0
 40
1.0
 40
1.0
 10
12.0
 20
-14.16214621206068
 30
0.0
 10
11.66648836084188
 20
-13.88557685339939
 30
0.0
 10
11.33292240334528
 20
-13.60533577212551
 30
0.0
 10
10.99968921090581
 20
-13.32175119722722
 30
0.0
  0
SPLINE
  5
C7
330
1F
100
AcDbEntity
  8
외형선
  6
Continuous
370
    15
100
AcDbSpline
210
0.0
220
0.0
230
1.0
 70
     8
 71
     3
 72
     8
 73
     4
 74
     0
 42
0.000000001
 43
0.00000001
 40
0.0
 40
0.0
 40
0.0
 40
0.0
 40
1.0
 40
1.0
 40
1.0
 40
1.0
 10
11.99999999999999
 20
-18.79827150766156
 30
0.0
 10
11.66648836084187
 20
-18.57422472214963
 30
0.0
 10
11.33292240334526
 20
-18.34531207048833
 30
0.0
 10
10.99968921090579
 20
-18.11180322155979
 30
0.0
  0
LINE
  5
C8
330
1F
100
AcDbEntity
  8
외형선
  6
Continuous
370
    15
100
AcDbLine
 10
10.99968921090578
 20
-25.3989250712761
 30
0.0
 11
10.99968921090578
 21
-18.11180195719682
 31
0.0
  0
SPLINE
  5
C9
330
1F
100
AcDbEntity
  8
외형선
  6
Continuous
370
    15
100
AcDbSpline
210
0.0
220
0.0
230
1.0
 70
     8
 71
     3
 72
     8
 73
     4
 74
     0
 42
0.000000001
 43
0.00000001
 40
0.0
 40
0.0
 40
0.0
 40
0.0
 40
1.0
 40
1.0
 40
1.0
 40
1.0
 10
12.0
 20
-25.34039257396455
 30
0.0
 10
11.66648836084188
 20
-25.36299824287193
 30
0.0
 10
11.33292240334528
 20
-25.3790623051169
 30
0.0
 10
10.99968921090581
 20
-25.38857158039535
 30
0.0
  0
LINE
  5
CC
330
1F
100
AcDbEntity
  8
외형선
  6
Continuous
370
    15
100
AcDbLine
 10
10.99968921090578
 20
-13.32176189509745
 30
0.0
 11
10.99968921090578
 21
6.365815694456069
 31
0.0
  0
LINE
  5
CD
330
1F
100
AcDbEntity
  8
외형선
  6
Continuous
370
    15
100
AcDbLine
 10
-83.25
 20
0.0010749287238949
 30
0.0
 11
-83.25
 21
20.32107492872391
 31
0.0
  0
SPLINE
  5
CF
330
1F
100
AcDbEntity
  8
외형선
  6
Continuous
370
    15
100
AcDbSpline
210
0.0
220
0.0
230
1.0
 70
    24
 71
     3
 72
    36
 73
    32
 74
     0
 42
0.000000001
 43
0.00000001
 40
0.0
 40
0.0
 40
0.0
 40
0.0
 40
0.0624999999999998
 40
0.0624999999999998
 40
0.1249999999999996
 40
0.1249999999999996
 40
0.1874999999999994
 40
0.1874999999999994
 40
0.2499999999999992
 40
0.2499999999999992
 40
0.3124999999999989
 40
0.3124999999999989
 40
0.3749999999999988
 40
0.3749999999999988
 40
0.4374999999999986
 40
0.4374999999999986
 40
0.4999999999999983
 40
0.4999999999999983
 40
0.5624999999999982
 40
0.5624999999999982
 40
0.6249999999999981
 40
0.6249999999999981
 40
0.749999999999998
 40
0.749999999999998
 40
0.812499999999998
 40
0.812499999999998
 40
0.8437499999999982
 40
0.8437499999999982
 40
0.8749999999999984
 40
0.8749999999999984
 40
1.0
 40
1.0
 40
1.0
 40
1.0
 10
12.00000000000001
 20
-14.16214621206045
 30
0.0
 10
12.00000000000001
 20
-13.93057216349558
 30
0.0
 10
11.99999999999999
 20
-13.63852143203989
 30
0.0
 10
12.00000000000001
 20
-12.92331218435981
 30
0.0
 10
11.99999999999999
 20
-12.4999657039006
 30
0.0
 10
12.0
 20
-11.5268982022147
 30
0.0
 10
12.00000000000003
 20
-10.97713294375488
 30
0.0
 10
12.00000000000007
 20
-9.775213532259336
 30
0.0
 10
12.00000000000001
 20
-9.123235377236457
 30
0.0
 10
12.00000000000007
 20
-7.75835773285269
 30
0.0
 10
12.00000000000003
 20
-7.045811559061368
 30
0.0
 10
12.00000000000003
 20
-5.610503780724072
 30
0.0
 10
12.00000000000004
 20
-4.888116021782419
 30
0.0
 10
12.00000000000004
 20
-3.481493097707304
 30
0.0
 10
12.00000000000004
 20
-2.797492717693066
 30
0.0
 10
12.00000000000007
 20
-1.503995383634537
 30
0.0
 10
12.00000000000003
 20
-0.8945379769363986
 30
0.0
 10
12.0
 20
0.2297535147006947
 30
0.0
 10
12.0
 20
0.7446918232059715
 30
0.0
 10
12.0
 20
1.67481821367117
 30
0.0
 10
12.00000000000001
 20
2.090164445060085
 30
0.0
 10
12.00000000000004
 20
3.194955179063678
 30
0.0
 10
12.00000000000001
 20
3.742498756131371
 30
0.0
 10
12.00000000000003
 20
4.355485060893441
 30
0.0
 10
12.0
 20
4.525407762490489
 30
0.0
 10
12.00000000000003
 20
4.738702426537729
 30
0.0
 10
12.00000000000003
 20
4.802066922720984
 30
0.0
 10
12.0
 20
4.920217361496176
 30
0.0
 10
12.00000000000006
 20
4.976122382314339
 30
0.0
 10
12.00000000000007
 20
5.235627585535912
 30
0.0
 10
12.00000000000004
 20
5.381454284162387
 30
0.0
 10
12.0
 20
5.393576336784466
 30
0.0
  0
SPLINE
  5
D0
330
1F
100
AcDbEntity
  8
외형선
  6
Continuous
370
    15
100
AcDbSpline
210
0.0
220
0.0
230
1.0
 70
    24
 71
     3
 72
    16
 73
    12
 74
     0
 42
0.000000001
 43
0.00000001
 40
0.0
 40
0.0
 40
0.0
 40
0.0
 40
0.1044777327040043
 40
0.2246562577308702
 40
0.3448347827577329
 40
0.4650133077845958
 40
0.5851918328114624
 40
0.7053703578383291
 40
0.8255488828651926
 40
0.9457274078920566
 40
0.9999999999999999
 40
0.9999999999999999
 40
0.9999999999999999
 40
0.9999999999999999
 10
11.99999999999992
 20
11.32527198783148
 30
0.0
 10
11.99999999999991
 20
11.64864245688686
 30
0.0
 10
11.99999999999996
 20
12.34397913350169
 30
0.0
 10
11.99999999999999
 20
13.65674861657464
 30
0.0
 10
11.99999999999996
 20
15.16870188099774
 30
0.0
 10
12.0
 20
16.79929721912382
 30
0.0
 10
11.99999999999999
 20
18.49843546487973
 30
0.0
 10
12.00000000000011
 20
20.21866279529877
 30
0.0
 10
12.00000000000003
 20
21.9081035359714
 30
0.0
 10
11.99999999999996
 20
23.23341493973619
 30
0.0
 10
12.00000000000003
 20
23.96524643196011
 30
0.0
 10
12.00000000000006
 20
24.19292277316992
 30
0.0
  0
SPLINE
  5
D1
330
1F
100
AcDbEntity
  8
외형선
  6
Continuous
370
    15
100
AcDbSpline
210
0.0
220
0.0
230
1.0
 70
    24
 71
     3
 72
    12
 73
     8
 74
     0
 42
0.000000001
 43
0.00000001
 40
0.0
 40
0.0
 40
0.0
 40
0.0
 40
0.2303975469404308
 40
0.4607950938808609
 40
0.7188000507187781
 40
0.9768050075566949
 40
1.0
 40
1.0
 40
1.0
 40
1.0
 10
12.0
 20
-25.34039257396455
 30
0.0
 10
11.99999999999999
 20
-24.83215574547375
 30
0.0
 10
11.99999999999999
 20
-23.81568208849215
 30
0.0
 10
11.99999999999988
 20
-22.22195609202404
 30
0.0
 10
12.00000000000004
 20
-20.62966501217196
 30
0.0
 10
11.99999999999991
 20
-19.50137076982685
 30
0.0
 10
12.00000000000003
 20
-18.986677104677
 30
0.0
 10
12.00000000000001
 20
-18.94422220486537
 30
0.0
  0
LINE
  5
D2
330
1F
100
AcDbEntity
  8
중심선
 62
     1
100
AcDbLine
 10
-86.25
 20
0.0010749287238888
 30
0.0
 11
116.6
 21
0.0010749287239145
 31
0.0
  0
LINE
  5
D3
330
1F
100
AcDbEntity
  8
참조1
100
AcDbLine
 10
56.45000000000005
 20
0.0010749287238892
 30
0.0
 11
56.45000000000005
 21
-39.99892507127611
 31
0.0
  0
LINE
  5
D4
330
1F
100
AcDbEntity
  8
참조1
100
AcDbLine
 10
56.45000000000005
 20
-39.99892507127611
 30
0.0
 11
-9.508856814308633
 21
-39.9989250712761
 31
0.0
  0
CIRCLE
  5
D5
330
1F
100
AcDbEntity
  8
해칭선
100
AcDbCircle
 10
0.0
 20
0.0
 30
0.0
 40
3.000000000000004
  0
INSERT
  5
D6
330
1F
100
AcDbEntity
  8
0
  6
Continuous
 62
     7
100
AcDbBlockReference
 66
     1
  2
블럭10
 10
1.234727067874807
 20
-52.04609937292004
 30
0.0
  0
ATTRIB
  5
D7
330
D6
100
AcDbEntity
  8
FORMAT
 62
     2
100
AcDbText
 10
-7.946568220866475
 20
-49.97073246008785
 30
0.0
 40
4.233333333333333
  1
E1100201 [ 6 FLUTE ]
 41
0.75
  7
SLDTEXTSTYLE0
 11
-7.946568220866475
 21
-52.08739912675452
 31
0.0
100
AcDbAttribute
  2
AUTOATTR0
 70
     0
 74
     1
  0
SEQEND
  5
D8
330
D6
100
AcDbEntity
  8
0
  6
Continuous
 62
     7
  0
HATCH
  5
D9
330
1F
100
AcDbEntity
  8
중심선
100
AcDbHatch
 10
0.0
 20
0.0
 30
0.0
210
0.0
220
0.0
230
1.0
  2
SOLID
 70
     1
 71
     0
 91
        1
 92
        0
 93
        4
 72
     1
 10
6.949636372255625
 20
-35.7989250712761
 11
3.503361128418369
 21
-35.7989250712761
 72
     1
 10
3.503361128418369
 20
-35.7989250712761
 11
1.37513126921435
 21
-38.3352506518487
 72
     1
 10
1.37513126921435
 20
-38.3352506518487
 11
4.82143959816478
 21
-38.33521122254621
 72
     1
 10
4.82143959816478
 20
-38.33521122254621
 11
6.949636372255625
 21
-35.7989250712761
 97
        0
 75
     0
 76
     1
 98
        1
 10
-41.27500000000003
 20
0.0
  0
HATCH
  5
DA
330
1F
100
AcDbEntity
  8
중심선
100
AcDbHatch
 10
0.0
 20
0.0
 30
0.0
210
0.0
220
0.0
230
1.0
  2
SOLID
 70
     1
 71
     0
 91
        1
 92
        0
 93
        4
 72
     1
 10
11.96240036329163
 20
-35.79892507127608
 11
8.516125119454351
 21
-35.79892507127608
 72
     1
 10
8.516125119454351
 20
-35.79892507127608
 11
3.984987111096935
 21
-41.19892507127612
 72
     1
 10
3.984987111096935
 20
-41.19892507127612
 11
7.431262354934212
 21
-41.19892507127612
 72
     1
 10
7.431262354934212
 20
-41.19892507127612
 11
11.96240036329163
 21
-35.79892507127608
 97
        0
 75
     0
 76
     1
 98
        1
 10
-41.27500000000003
 20
0.0
  0
HATCH
  5
DB
330
1F
100
AcDbEntity
  8
중심선
100
AcDbHatch
 10
0.0
 20
0.0
 30
0.0
210
0.0
220
0.0
230
1.0
  2
SOLID
 70
     1
 71
     0
 91
        1
 92
        0
 93
        4
 72
     1
 10
16.97516435432753
 20
-35.79892507127608
 11
13.52888911049041
 21
-35.7989250712761
 72
     1
 10
13.52888911049041
 20
-35.7989250712761
 11
6.480452208601136
 21
-44.19892507127612
 72
     1
 10
6.480452208601136
 20
-44.19892507127612
 11
9.926727452438413
 21
-44.19892507127612
 72
     1
 10
9.926727452438413
 20
-44.19892507127612
 11
16.97516435432753
 21
-35.79892507127608
 97
        0
 75
     0
 76
     1
 98
        1
 10
-41.27500000000003
 20
0.0
  0
HATCH
  5
DC
330
1F
100
AcDbEntity
  8
중심선
100
AcDbHatch
 10
0.0
 20
0.0
 30
0.0
210
0.0
220
0.0
230
1.0
  2
SOLID
 70
     1
 71
     0
 91
        1
 92
        0
 93
        6
 72
     3
 10
21.77505478533967
 20
-39.99892507132738
 11
3.96005478506229
 21
1.540882976769353E-10
 40
0.3939339440162621
 50
17.09539180608417
 51
320.0019657685079
 73
     0
 72
     1
 10
23.45805444104029
 20
-38.58681907591438
 11
25.76335631474133
 21
-36.65249236586649
 72
     3
 10
21.77505478528683
 20
-39.99892507127625
 11
6.600054785286829
 21
-1.278976924368180E-13
 40
0.636358354079598
 50
39.99873849337402
 51
368.4976242363724
 73
     1
 72
     1
 10
28.20038727718746
 20
-39.03892507120613
 11
20.45512209212277
 21
-39.0389250712061
 72
     1
 10
20.45512209212277
 20
-39.0389250712061
 11
20.45509704767682
 21
-40.95892507120602
 72
     1
 10
20.45509704767682
 20
-40.95892507120602
 11
24.89647681714888
 21
-40.95892507120599
 97
        0
 75
     0
 76
     1
 98
        1
 10
-41.27500000000003
 20
0.0
  0
DIMENSION
  5
F0
330
1F
100
AcDbEntity
  8
치수문자_일반주서
100
AcDbDimension
  2
_D_1
 10
12.0
 20
47.75570626228482
 30
0.0
 11
62.80000000000003
 21
47.75570626228482
 31
0.0
 70
   160
  1
<>
 71
     2
 42
101.6
  3
SLDDIMSTYLE0
100
AcDbAlignedDimension
 13
113.6
 23
25.40107492872389
 33
0.0
 14
12.0
 24
25.34254243141234
 34
0.0
 50
0.000000000000008
100
AcDbRotatedDimension
1001
ACAD
1000
DSTYLE
1002
{
1070
   171
1070
     6
1070
   273
1070
     7
1002
}
  0
DIMENSION
  5
103
330
1F
100
AcDbEntity
  8
치수문자_일반주서
100
AcDbDimension
  2
_D_2
 10
-83.25
 20
59.75570626228484
 30
0.0
 11
15.17500000000001
 21
59.75570626228484
 31
0.0
 70
   160
  1
<>
 71
     2
 42
196.85
  3
SLDDIMSTYLE0
100
AcDbAlignedDimension
 13
113.6
 23
25.40107492872389
 33
0.0
 14
-83.25
 24
20.32107492872391
 34
0.0
 50
0.0000000000000041
100
AcDbRotatedDimension
1001
ACAD
1000
DSTYLE
1002
{
1070
   171
1070
     6
1070
   273
1070
     7
1002
}
  0
DIMENSION
  5
117
330
1F
100
AcDbEntity
  8
치수문자_일반주서
100
AcDbDimension
  2
_D_3
 10
151.6500000000003
 20
-25.39892507127597
 30
0.0
 11
151.6499999999999
 21
71.58072736996918
 31
0.0
 70
   160
  1
%%c<>
 71
     2
 42
50.8
 52
-270.0
  3
SLDDIMSTYLE0
100
AcDbAlignedDimension
 13
113.6
 23
25.40107492872389
 33
0.0
 14
113.6
 24
-25.39892507127611
 34
0.0
 50
90.0000000000002
100
AcDbRotatedDimension
1001
ACAD
1000
DSTYLE
1002
{
1070
   171
1070
     6
1070
   273
1070
     7
1002
}
  0
LINE
  5
12A
330
1F
100
AcDbEntity
  8
참조1
100
AcDbLine
 10
88.46348381534564
 20
7.441074928723896
 30
0.0
 11
88.46348381534564
 21
-7.438925071276109
 31
0.0
  0
LINE
  5
12B
330
1F
100
AcDbEntity
  8
참조1
100
AcDbLine
 10
101.1634838153456
 20
5.441074928723896
 30
0.0
 11
88.46348381534564
 21
5.441074928723896
 31
0.0
  0
SOLID
  5
12C
330
1F
100
AcDbEntity
  8
참조1
100
AcDbTrace
 10
88.46348381534564
 20
5.441074928723896
 30
0.0
 11
94.81348381534563
 21
4.425074928723896
 31
0.0
 12
94.81348381534563
 22
6.457074928723896
 32
0.0
 13
94.81348381534563
 23
6.457074928723896
 33
0.0
  0
LINE
  5
12D
330
1F
100
AcDbEntity
  8
참조1
100
AcDbLine
 10
101.1634838153456
 20
-5.438925071276109
 30
0.0
 11
88.46348381534564
 21
-5.438925071276109
 31
0.0
  0
SOLID
  5
12E
330
1F
100
AcDbEntity
  8
참조1
100
AcDbTrace
 10
88.46348381534564
 20
-5.438925071276109
 30
0.0
 11
94.81348381534563
 21
-6.454925071276109
 31
0.0
 12
94.81348381534563
 22
-4.422925071276109
 32
0.0
 13
94.81348381534563
 23
-4.422925071276109
 33
0.0
  0
MTEXT
  5
12F
330
1F
100
AcDbEntity
  8
참조1
100
AcDbMText
 10
97.8609739078159
 20
10.98929157337383
 30
0.0
 40
3.5
 41
0.0
 71
     1
 72
     1
  1
A
  7
SLDTEXTSTYLE0
 73
     1
 44
1.0
  0
MTEXT
  5
130
330
1F
100
AcDbEntity
  8
참조1
100
AcDbMText
 10
97.8609739078159
 20
0.1092915733738251
 30
0.0
 40
3.5
 41
0.0
 71
     1
 72
     1
  1
A
  7
SLDTEXTSTYLE0
 73
     1
 44
1.0
  0
INSERT
  5
137
330
1F
100
AcDbEntity
  8
해칭선
100
AcDbBlockReference
  2
SW_DOWELSYMBOL_0
 10
0.0
 20
0.0
 30
0.0
  0
LINE
  5
25C
330
1F
100
AcDbEntity
  8
외형선
  6
Continuous
370
    15
100
AcDbLine
 10
-83.25
 20
-20.3189250712761
 30
0.0
 11
-83.25
 21
0.0010749287238951
 31
0.0
  0
LINE
  5
260
330
1F
100
AcDbEntity
  8
중심선
 62
     1
100
AcDbLine
 10
-86.25
 20
0.0010749287238951
 30
0.0
 11
65.80000000000001
 21
0.0010749287239094
 31
0.0
  0
LINE
  5
266
330
1F
100
AcDbEntity
  8
외형선
  6
Continuous
370
    15
100
AcDbLine
 10
8.949890311373736
 20
25.4010749287239
 30
0.0
 11
-28.18279999999999
 21
25.4010749287239
 31
0.0
  0
LINE
  5
267
330
1F
100
AcDbEntity
  8
외형선
  6
Continuous
370
    15
100
AcDbLine
 10
-82.24999999999997
 20
-25.3989250712761
 30
0.0
 11
-73.72499999999997
 21
-25.3989250712761
 31
0.0
  0
LINE
  5
268
330
1F
100
AcDbEntity
  8
외형선
  6
Continuous
370
    15
100
AcDbLine
 10
-83.24999999999997
 20
-24.3989250712761
 30
0.0
 11
-82.24999999999997
 21
-25.3989250712761
 31
0.0
  0
LINE
  5
269
330
1F
100
AcDbEntity
  8
외형선
  6
Continuous
370
    15
100
AcDbLine
 10
-82.24999999999997
 20
19.86387492872392
 30
0.0
 11
-82.24999999999997
 21
-25.3989250712761
 31
0.0
  0
LINE
  5
26A
330
1F
100
AcDbEntity
  8
외형선
  6
Continuous
370
    15
100
AcDbLine
 10
-83.24999999999997
 20
19.86387492872392
 30
0.0
 11
-83.24999999999997
 21
-24.3989250712761
 31
0.0
  0
DIMENSION
  5
26B
330
1F
100
AcDbEntity
  8
치수문자_일반주서
100
AcDbDimension
  2
*D14
 10
-95.7499999999999
 20
-25.39892507127615
 30
0.0
 11
-95.74999999999999
 21
0.0010749287239236
 31
0.0
 70
   160
  1
%%c<>
 71
     2
 42
50.80000000000001
 52
-270.0
  3
SLDDIMSTYLE0
100
AcDbAlignedDimension
 13
-83.25
 23
25.40107492872391
 33
0.0
 14
-82.24999999999997
 24
-25.3989250712761
 34
0.0
 50
90.0000000000002
100
AcDbRotatedDimension
1001
ACAD
1000
DSTYLE
1002
{
1070
   171
1070
     6
1070
   273
1070
     7
1002
}
  0
LINE
  5
26C
330
1F
100
AcDbEntity
  8
외형선
  6
Continuous
370
    15
100
AcDbLine
 10
-47.69
 20
-14.8238238891433
 30
0.0
 11
-47.69
 21
14.82597374659109
 31
0.0
  0
LINE
  5
26D
330
1F
100
AcDbEntity
  8
외형선
  6
Continuous
370
    15
100
AcDbLine
 10
-47.69
 20
14.82597374659109
 30
0.0
 11
-29.90999999999997
 21
14.82597374659109
 31
0.0
  0
LINE
  5
26E
330
1F
100
AcDbEntity
  8
외형선
  6
Continuous
370
    15
100
AcDbLine
 10
-47.69
 20
-14.8238238891433
 30
0.0
 11
-29.90999999999997
 21
-14.8238238891433
 31
0.0
  0
LINE
  5
26F
330
1F
100
AcDbEntity
  8
외형선
  6
Continuous
370
    15
100
AcDbLine
 10
-29.90999999999997
 20
14.82597374659109
 30
0.0
 11
-29.90999999999997
 21
-14.8238238891433
 31
0.0
  0
SPLINE
  5
270
330
1F
100
AcDbEntity
  8
외형선
  6
Continuous
370
    15
100
AcDbSpline
210
0.0
220
0.0
230
1.0
 70
  1064
 71
     3
 72
     9
 73
     5
 74
     3
 42
0.000000001
 43
0.0000000001
 44
0.0
 40
0.0
 40
0.0
 40
0.0
 40
0.0
 40
15.44052883416385
 40
30.88105766832773
 40
30.88105766832773
 40
30.88105766832773
 40
30.88105766832773
 10
-47.69
 20
14.82597374659109
 30
0.0
 10
-49.84825773012895
 20
9.88434080730203
 30
0.0
 10
-54.16477319038685
 20
0.0010749287239005
 30
0.0
 10
-49.84825773012895
 20
-9.88219094985423
 30
0.0
 10
-47.69
 20
-14.8238238891433
 30
0.0
 11
-47.69
 21
14.82597374659109
 31
0.0
 11
-52.0065154602579
 21
0.0010749287239094
 31
0.0
 11
-47.69
 21
-14.8238238891433
 31
0.0
  0
SPLINE
  5
271
330
1F
100
AcDbEntity
  8
외형선
  6
Continuous
370
    15
100
AcDbSpline
210
0.0
220
0.0
230
1.0
 70
  1064
 71
     3
 72
     9
 73
     5
 74
     3
 42
0.000000001
 43
0.0000000001
 44
0.0
 40
0.0
 40
0.0
 40
0.0
 40
0.0
 40
15.44052883416385
 40
30.88105766832773
 40
30.88105766832773
 40
30.88105766832773
 40
30.88105766832773
 10
-29.90999999999997
 20
14.82597374659109
 30
0.0
 10
-27.75174226987102
 20
9.88434080730203
 30
0.0
 10
-23.43522680961311
 20
0.0010749287238996
 30
0.0
 10
-27.75174226987101
 20
-9.882190949854229
 30
0.0
 10
-29.90999999999997
 20
-14.8238238891433
 30
0.0
 11
-29.90999999999997
 21
14.82597374659109
 31
0.0
 11
-25.59348453974206
 21
0.0010749287239094
 31
0.0
 11
-29.90999999999997
 21
-14.8238238891433
 31
0.0
  0
LINE
  5
272
330
1F
100
AcDbEntity
  8
외형선
  6
Continuous
370
    15
100
AcDbLine
 10
-61.02499999999998
 20
25.4010749287239
 30
0.0
 11
-61.02499999999998
 21
-25.3989250712761
 31
0.0
  0
LINE
  5
273
330
1F
100
AcDbEntity
  8
외형선
  6
Continuous
370
    15
100
AcDbLine
 10
-73.72499999999997
 20
19.86387492872392
 30
0.0
 11
-73.72499999999997
 21
-25.3989250712761
 31
0.0
  0
LINE
  5
274
330
1F
100
AcDbEntity
  8
외형선
  6
Continuous
370
    15
100
AcDbLine
 10
-61.02499999999998
 20
-25.3989250712761
 30
0.0
 11
8.949890311373736
 21
-25.39892507127607
 31
0.0
  0
LINE
  5
275
330
1F
100
AcDbEntity
  8
외형선
  6
Continuous
370
    15
100
AcDbLine
 10
-61.02499999999998
 20
25.02007492872389
 30
0.0
 11
-61.02499999999998
 21
-25.0179250712761
 31
0.0
  0
LINE
  5
276
330
1F
100
AcDbEntity
  8
외형선
  6
Continuous
370
    15
100
AcDbLine
 10
-61.02499999999998
 20
25.02007492872389
 30
0.0
 11
-61.5968037668174
 21
25.02007492872389
 31
0.0
  0
LINE
  5
277
330
1F
100
AcDbEntity
  8
외형선
  6
Continuous
370
    15
100
AcDbLine
 10
-61.02499999999998
 20
-25.0179250712761
 30
0.0
 11
-73.72499999999997
 21
-25.0179250712761
 31
0.0
  0
LINE
  5
278
330
1F
100
AcDbEntity
  8
외형선
  6
Continuous
370
    15
100
AcDbLine
 10
-48.45199999999994
 20
22.9118749287239
 30
0.0
 11
-30.67199999999997
 21
22.9118749287239
 31
0.0
  0
LINE
  5
279
330
1F
100
AcDbEntity
  8
외형선
  6
Continuous
370
    15
100
AcDbLine
 10
-48.45199999999994
 20
22.9118749287239
 30
0.0
 11
-50.94119999999998
 21
25.4010749287239
 31
0.0
  0
LINE
  5
27A
330
1F
100
AcDbEntity
  8
외형선
  6
Continuous
370
    15
100
AcDbLine
 10
-30.67199999999997
 20
22.9118749287239
 30
0.0
 11
-28.18279999999999
 21
25.4010749287239
 31
0.0
  0
LINE
  5
27B
330
1F
100
AcDbEntity
  8
외형선
  6
Continuous
370
    15
100
AcDbLine
 10
-62.09179999999998
 20
23.07312647568634
 30
0.0
 11
-62.09179999999998
 21
-6.9409650436275
 31
0.0
  0
LINE
  5
27C
330
1F
100
AcDbEntity
  8
외형선
  6
Continuous
370
    15
100
AcDbLine
 10
-82.24999999999997
 20
19.86387492872392
 30
0.0
 11
-82.24999999999997
 21
-25.3989250712761
 31
0.0
  0
LINE
  5
27D
330
1F
100
AcDbEntity
  8
외형선
  6
Continuous
370
    15
100
AcDbLine
 10
-67.92357134821702
 20
19.86387492872392
 30
0.0
 11
-83.24999999999997
 21
19.86387492872392
 31
0.0
  0
ARC
  5
27E
330
1F
100
AcDbEntity
  8
외형선
  6
Continuous
370
    15
100
AcDbCircle
 10
-67.17179999999996
 20
25.4010749287239
 30
0.0
 40
5.588
100
AcDbArc
 50
262.2683738127859
 51
356.0904364753407
  0
LINE
  5
27F
330
1F
100
AcDbEntity
  8
외형선
  6
Continuous
370
    15
100
AcDbLine
 10
-71.87515845852454
 20
19.86387492872392
 30
0.0
 11
-71.87515845852454
 21
-6.9409650436275
 31
0.0
  0
ARC
  5
280
330
1F
100
AcDbEntity
  8
외형선
  6
Continuous
370
    15
100
AcDbCircle
 10
-66.98347922926229
 20
-6.9409650436275
 30
0.0
 40
4.891679229262294
100
AcDbArc
 50
180.0
 51
0.0
  0
LINE
  5
281
330
1F
100
AcDbEntity
  8
외형선
  6
Continuous
370
    15
100
AcDbLine
 10
-50.94119999999995
 20
25.40107492872389
 30
0.0
 11
-61.02499999999998
 21
25.40107492872389
 31
0.0
  0
LINE
  5
282
330
1F
100
AcDbEntity
  8
외형선
  6
Continuous
370
    15
100
AcDbLine
 10
-61.02499999999998
 20
-25.3989250712761
 30
0.0
 11
12.00000000000003
 21
-25.3989250712761
 31
0.0
  0
LINE
  5
283
330
1F
100
AcDbEntity
  8
외형선
  6
Continuous
370
    15
100
AcDbLine
 10
12.00000000000003
 20
25.40107492872389
 30
0.0
 11
-28.18279999999999
 21
25.40107492872389
 31
0.0
  0
LINE
  5
284
330
1F
100
AcDbEntity
  8
외형선
  6
Continuous
370
    15
100
AcDbLine
 10
-78.16999999999999
 20
-25.3989250712761
 30
0.0
 11
-73.72499999999997
 21
-25.3989250712761
 31
0.0
  0
LINE
  5
2B6
330
1F
100
AcDbEntity
  8
외형선
  6
Continuous
370
    15
100
AcDbLine
 10
-50.94119999999995
 20
25.40107492872389
 30
0.0
 11
-61.02499999999998
 21
25.40107492872389
 31
0.0
  0
LINE
  5
2DA
330
1F
100
AcDbEntity
  8
외형선
  6
Continuous
370
    15
100
AcDbLine
 10
-61.02499999999998
 20
-25.3989250712761
 30
0.0
 11
10.99968921090579
 21
-25.3989250712761
 31
0.0
  0
ENDSEC
  0
SECTION
  2
OBJECTS
  0
DICTIONARY
  5
C
330
0
100
AcDbDictionary
281
     1
  3
ACAD_GROUP
350
D
  3
ACAD_IMAGE_VARS
350
15B
  3
ACAD_LAYOUT
350
1A
  3
ACAD_MLINESTYLE
350
17
  3
ACAD_PLOTSETTINGS
350
19
  3
ACAD_PLOTSTYLENAME
350
E
  3
ACAD_SCALELIST
350
47
  3
APPDATA
350
159
  3
DWGPROPS
350
2FE
  0
DICTIONARY
  5
D
102
{ACAD_REACTORS
330
C
102
}
330
C
100
AcDbDictionary
281
     1
  0
RASTERVARIABLES
  5
15B
102
{ACAD_REACTORS
330
C
102
}
330
C
100
AcDbRasterVariables
 90
        0
 70
     1
 71
     1
 72
     1
  0
DICTIONARY
  5
1A
102
{ACAD_REACTORS
330
C
102
}
330
C
100
AcDbDictionary
281
     1
  3
Layout1
350
1E
  3
Layout2
350
26
  3
Model
350
22
  0
DICTIONARY
  5
17
102
{ACAD_REACTORS
330
C
102
}
330
C
100
AcDbDictionary
281
     1
  3
Standard
350
18
  0
DICTIONARY
  5
19
102
{ACAD_REACTORS
330
C
102
}
330
C
100
AcDbDictionary
281
     1
  0
ACDBDICTIONARYWDFLT
  5
E
102
{ACAD_REACTORS
330
C
102
}
330
C
100
AcDbDictionary
281
     1
  3
Normal
350
F
100
AcDbDictionaryWithDefault
340
F
  0
DICTIONARY
  5
47
102
{ACAD_REACTORS
330
C
102
}
330
C
100
AcDbDictionary
281
     1
  3
A0
350
48
  3
A1
350
49
  3
A2
350
4A
  3
A3
350
4B
  3
A4
350
4C
  3
A5
350
4D
  3
A6
350
4E
  3
A7
350
4F
  3
A8
350
50
  3
A9
350
51
  3
B0
350
52
  3
B1
350
53
  3
B2
350
54
  3
B3
350
55
  3
B4
350
56
  3
B5
350
57
  3
B6
350
58
  3
B7
350
59
  3
B8
350
5A
  3
B9
350
5B
  3
C0
350
5C
  3
C1
350
5D
  3
C2
350
5E
  3
C3
350
5F
  3
C4
350
60
  3
C5
350
61
  3
C6
350
62
  3
C7
350
63
  3
C8
350
64
  3
C9
350
65
  3
D0
350
66
  3
D1
350
67
  3
D2
350
68
  0
DICTIONARY
  5
159
102
{ACAD_REACTORS
330
C
102
}
330
C
100
AcDbDictionary
281
     1
  0
XRECORD
  5
2FE
102
{ACAD_REACTORS
330
C
102
}
330
C
100
AcDbXrecord
280
     1
  1
DWGPROPS COOKIE
  2

  3

  4

  6

  7

  8
12017012
  9

300
=
301
=
302
=
303
=
304
=
305
=
306
=
307
=
308
=
309
=
 40
0.0
 41
2458323.063991574
 42
2458323.319667118
  1

 90
        0
  0
LAYOUT
  5
1E
102
{ACAD_REACTORS
330
1A
102
}
330
1A
100
AcDbPlotSettings
  1

  2
none_device
  4

  6

 40
0.0
 41
0.0
 42
0.0
 43
0.0
 44
0.0
 45
0.0
 46
0.0
 47
0.0
 48
0.0
 49
0.0
140
0.0
141
0.0
142
1.0
143
1.0
 70
   688
 72
     1
 73
     0
 74
     5
  7

 75
    16
147
1.0
148
0.0
149
0.0
100
AcDbLayout
  1
Layout1
 70
     1
 71
     1
 10
0.0
 20
0.0
 11
420.0
 21
297.0
 12
0.0
 22
0.0
 32
0.0
 14
1.000000000000000E+20
 24
1.000000000000000E+20
 34
1.000000000000000E+20
 15
-1.000000000000000E+20
 25
-1.000000000000000E+20
 35
-1.000000000000000E+20
146
0.0
 13
0.0
 23
0.0
 33
0.0
 16
1.0
 26
0.0
 36
0.0
 17
0.0
 27
1.0
 37
0.0
 76
     0
330
1B
  0
LAYOUT
  5
26
102
{ACAD_REACTORS
330
1A
102
}
330
1A
100
AcDbPlotSettings
  1

  2
none_device
  4

  6

 40
0.0
 41
0.0
 42
0.0
 43
0.0
 44
0.0
 45
0.0
 46
0.0
 47
0.0
 48
0.0
 49
0.0
140
0.0
141
0.0
142
1.0
143
1.0
 70
   688
 72
     1
 73
     0
 74
     5
  7

 75
    16
147
1.0
148
0.0
149
0.0
100
AcDbLayout
  1
Layout2
 70
     1
 71
     2
 10
0.0
 20
0.0
 11
0.0
 21
0.0
 12
0.0
 22
0.0
 32
0.0
 14
0.0
 24
0.0
 34
0.0
 15
0.0
 25
0.0
 35
0.0
146
0.0
 13
0.0
 23
0.0
 33
0.0
 16
1.0
 26
0.0
 36
0.0
 17
0.0
 27
1.0
 37
0.0
 76
     0
330
23
  0
LAYOUT
  5
22
102
{ACAD_REACTORS
330
1A
102
}
330
1A
100
AcDbPlotSettings
  1

  2
none_device
  4
ANSI_A_(11.00_x_8.50_Inches)
  6

 40
6.35
 41
19.05
 42
6.35000508
 43
19.05000254
 44
279.4
 45
215.9
 46
62.28243294049711
 47
73.07021391816438
 48
0.0
 49
0.0
140
0.0
141
0.0
142
0.0425057914709504
143
1.0
 70
  1696
 72
     0
 73
     0
 74
     0
  7

 75
     0
147
0.0235690232323232
148
0.0
149
0.0
100
AcDbLayout
  1
Model
 70
     1
 71
     0
 10
0.0
 20
0.0
 11
420.0
 21
297.0
 12
0.0
 22
0.0
 32
0.0
 14
-100.125
 24
-49.97073246008785
 34
0.0
 15
152.2003333333336
 25
82.95572736996918
 35
0.0
146
0.0
 13
0.0
 23
0.0
 33
0.0
 16
1.0
 26
0.0
 36
0.0
 17
0.0
 27
1.0
 37
0.0
 76
     0
330
1F
331
29
  0
MLINESTYLE
  5
18
102
{ACAD_REACTORS
330
17
102
}
330
17
100
AcDbMlineStyle
  2
Standard
 70
     0
  3

 62
   256
 51
90.0
 52
90.0
 71
     2
 49
0.5
 62
   256
  6
BYLAYER
 49
-0.5
 62
   256
  6
BYLAYER
  0
ACDBPLACEHOLDER
  5
F
102
{ACAD_REACTORS
330
E
102
}
330
E
  0
SCALE
  5
48
102
{ACAD_REACTORS
330
47
102
}
330
47
100
AcDbScale
 70
     0
300
1:1
140
1.0
141
1.0
290
     1
  0
SCALE
  5
49
102
{ACAD_REACTORS
330
47
102
}
330
47
100
AcDbScale
 70
     0
300
1:2
140
1.0
141
2.0
290
     0
  0
SCALE
  5
4A
102
{ACAD_REACTORS
330
47
102
}
330
47
100
AcDbScale
 70
     0
300
1:4
140
1.0
141
4.0
290
     0
  0
SCALE
  5
4B
102
{ACAD_REACTORS
330
47
102
}
330
47
100
AcDbScale
 70
     0
300
1:5
140
1.0
141
5.0
290
     0
  0
SCALE
  5
4C
102
{ACAD_REACTORS
330
47
102
}
330
47
100
AcDbScale
 70
     0
300
1:8
140
1.0
141
8.0
290
     0
  0
SCALE
  5
4D
102
{ACAD_REACTORS
330
47
102
}
330
47
100
AcDbScale
 70
     0
300
1:10
140
1.0
141
10.0
290
     0
  0
SCALE
  5
4E
102
{ACAD_REACTORS
330
47
102
}
330
47
100
AcDbScale
 70
     0
300
1:16
140
1.0
141
16.0
290
     0
  0
SCALE
  5
4F
102
{ACAD_REACTORS
330
47
102
}
330
47
100
AcDbScale
 70
     0
300
1:20
140
1.0
141
20.0
290
     0
  0
SCALE
  5
50
102
{ACAD_REACTORS
330
47
102
}
330
47
100
AcDbScale
 70
     0
300
1:30
140
1.0
141
30.0
290
     0
  0
SCALE
  5
51
102
{ACAD_REACTORS
330
47
102
}
330
47
100
AcDbScale
 70
     0
300
1:40
140
1.0
141
40.0
290
     0
  0
SCALE
  5
52
102
{ACAD_REACTORS
330
47
102
}
330
47
100
AcDbScale
 70
     0
300
1:50
140
1.0
141
50.0
290
     0
  0
SCALE
  5
53
102
{ACAD_REACTORS
330
47
102
}
330
47
100
AcDbScale
 70
     0
300
1:100
140
1.0
141
100.0
290
     0
  0
SCALE
  5
54
102
{ACAD_REACTORS
330
47
102
}
330
47
100
AcDbScale
 70
     0
300
2:1
140
2.0
141
1.0
290
     0
  0
SCALE
  5
55
102
{ACAD_REACTORS
330
47
102
}
330
47
100
AcDbScale
 70
     0
300
4:1
140
4.0
141
1.0
290
     0
  0
SCALE
  5
56
102
{ACAD_REACTORS
330
47
102
}
330
47
100
AcDbScale
 70
     0
300
8:1
140
8.0
141
1.0
290
     0
  0
SCALE
  5
57
102
{ACAD_REACTORS
330
47
102
}
330
47
100
AcDbScale
 70
     0
300
10:1
140
10.0
141
1.0
290
     0
  0
SCALE
  5
58
102
{ACAD_REACTORS
330
47
102
}
330
47
100
AcDbScale
 70
     0
300
100:1
140
100.0
141
1.0
290
     0
  0
SCALE
  5
59
102
{ACAD_REACTORS
330
47
102
}
330
47
100
AcDbScale
 70
     0
300
1/128" = 1'-0"
140
0.0078125
141
12.0
290
     0
  0
SCALE
  5
5A
102
{ACAD_REACTORS
330
47
102
}
330
47
100
AcDbScale
 70
     0
300
1/64" = 1'-0"
140
0.015625
141
12.0
290
     0
  0
SCALE
  5
5B
102
{ACAD_REACTORS
330
47
102
}
330
47
100
AcDbScale
 70
     0
300
1/32" = 1'-0"
140
0.03125
141
12.0
290
     0
  0
SCALE
  5
5C
102
{ACAD_REACTORS
330
47
102
}
330
47
100
AcDbScale
 70
     0
300
1/16" = 1'-0"
140
0.0625
141
12.0
290
     0
  0
SCALE
  5
5D
102
{ACAD_REACTORS
330
47
102
}
330
47
100
AcDbScale
 70
     0
300
3/32" = 1'-0"
140
0.09375
141
12.0
290
     0
  0
SCALE
  5
5E
102
{ACAD_REACTORS
330
47
102
}
330
47
100
AcDbScale
 70
     0
300
1/8" = 1'-0"
140
0.125
141
12.0
290
     0
  0
SCALE
  5
5F
102
{ACAD_REACTORS
330
47
102
}
330
47
100
AcDbScale
 70
     0
300
3/16" = 1'-0"
140
0.1875
141
12.0
290
     0
  0
SCALE
  5
60
102
{ACAD_REACTORS
330
47
102
}
330
47
100
AcDbScale
 70
     0
300
1/4" = 1'-0"
140
0.25
141
12.0
290
     0
  0
SCALE
  5
61
102
{ACAD_REACTORS
330
47
102
}
330
47
100
AcDbScale
 70
     0
300
3/8" = 1'-0"
140
0.375
141
12.0
290
     0
  0
SCALE
  5
62
102
{ACAD_REACTORS
330
47
102
}
330
47
100
AcDbScale
 70
     0
300
1/2" = 1'-0"
140
0.5
141
12.0
290
     0
  0
SCALE
  5
63
102
{ACAD_REACTORS
330
47
102
}
330
47
100
AcDbScale
 70
     0
300
3/4" = 1'-0"
140
0.75
141
12.0
290
     0
  0
SCALE
  5
64
102
{ACAD_REACTORS
330
47
102
}
330
47
100
AcDbScale
 70
     0
300
1" = 1'-0"
140
1.0
141
12.0
290
     0
  0
SCALE
  5
65
102
{ACAD_REACTORS
330
47
102
}
330
47
100
AcDbScale
 70
     0
300
1-1/2" = 1'-0"
140
1.5
141
12.0
290
     0
  0
SCALE
  5
66
102
{ACAD_REACTORS
330
47
102
}
330
47
100
AcDbScale
 70
     0
300
3" = 1'-0"
140
3.0
141
12.0
290
     0
  0
SCALE
  5
67
102
{ACAD_REACTORS
330
47
102
}
330
47
100
AcDbScale
 70
     0
300
6" = 1'-0"
140
6.0
141
12.0
290
     0
  0
SCALE
  5
68
102
{ACAD_REACTORS
330
47
102
}
330
47
100
AcDbScale
 70
     0
300
1'-0" = 1'-0"
140
12.0
141
12.0
290
     0
  0
ENDSEC
  0
EOF
