  0
SECTION
  2
HEADER
  9
$ACADVER
  1
AC1015
  9
$ACADMAINTVER
 70
     6
  9
$DWGCODEPAGE
  3
ANSI_949
  9
$INSBASE
 10
0.0
 20
0.0
 30
0.0
  9
$EXTMIN
 10
1.000000000000000E+20
 20
1.000000000000000E+20
 30
1.000000000000000E+20
  9
$EXTMAX
 10
-1.000000000000000E+20
 20
-1.000000000000000E+20
 30
-1.000000000000000E+20
  9
$LIMMIN
 10
0.0
 20
0.0
  9
$LIMMAX
 10
420.0
 20
297.0
  9
$ORTHOMODE
 70
     0
  9
$REGENMODE
 70
     1
  9
$FILLMODE
 70
     1
  9
$QTEXTMODE
 70
     0
  9
$MIRRTEXT
 70
     1
  9
$LTSCALE
 40
1.0
  9
$ATTMODE
 70
     1
  9
$TEXTSIZE
 40
3.5
  9
$TRACEWID
 40
1.0
  9
$TEXTSTYLE
  7
Standard
  9
$CLAYER
  8
0
  9
$CELTYPE
  6
ByLayer
  9
$CECOLOR
 62
   256
  9
$CELTSCALE
 40
1.0
  9
$DISPSILH
 70
     0
  9
$DIMSCALE
 40
1.0
  9
$DIMASZ
 40
3.302
  9
$DIMEXO
 40
1.0
  9
$DIMDLI
 40
3.75
  9
$DIMRND
 40
0.0
  9
$DIMDLE
 40
0.0
  9
$DIMEXE
 40
1.0
  9
$DIMTP
 40
0.0
  9
$DIMTM
 40
0.0
  9
$DIMTXT
 40
3.5
  9
$DIMCEN
 40
2.5
  9
$DIMTSZ
 40
0.0
  9
$DIMTOL
 70
     0
  9
$DIMLIM
 70
     0
  9
$DIMTIH
 70
     1
  9
$DIMTOH
 70
     1
  9
$DIMSE1
 70
     0
  9
$DIMSE2
 70
     0
  9
$DIMTAD
 70
     1
  9
$DIMZIN
 70
     0
  9
$DIMBLK
  1

  9
$DIMASO
 70
     1
  9
$DIMSHO
 70
     1
  9
$DIMPOST
  1

  9
$DIMAPOST
  1

  9
$DIMALT
 70
     0
  9
$DIMALTD
 70
     3
  9
$DIMALTF
 40
0.0393700787401575
  9
$DIMLFAC
 40
1.0
  9
$DIMTOFL
 70
     1
  9
$DIMTVP
 40
0.0
  9
$DIMTIX
 70
     0
  9
$DIMSOXD
 70
     0
  9
$DIMSAH
 70
     0
  9
$DIMBLK1
  1

  9
$DIMBLK2
  1

  9
$DIMSTYLE
  2
ISO-25
  9
$DIMCLRD
 70
     0
  9
$DIMCLRE
 70
     0
  9
$DIMCLRT
 70
     0
  9
$DIMTFAC
 40
1.0
  9
$DIMGAP
 40
1.524
  9
$DIMJUST
 70
     0
  9
$DIMSD1
 70
     0
  9
$DIMSD2
 70
     0
  9
$DIMTOLJ
 70
     0
  9
$DIMTZIN
 70
     0
  9
$DIMALTZ
 70
     0
  9
$DIMALTTZ
 70
     0
  9
$DIMUPT
 70
     0
  9
$DIMDEC
 70
     2
  9
$DIMTDEC
 70
     2
  9
$DIMALTU
 70
     2
  9
$DIMALTTD
 70
     3
  9
$DIMTXSTY
  7
Standard
  9
$DIMAUNIT
 70
     0
  9
$DIMADEC
 70
     2
  9
$DIMALTRND
 40
0.0
  9
$DIMAZIN
 70
     0
  9
$DIMDSEP
 70
    44
  9
$DIMATFIT
 70
     3
  9
$DIMFRAC
 70
     0
  9
$DIMLDRBLK
  1

  9
$DIMLUNIT
 70
     2
  9
$DIMLWD
 70
    -2
  9
$DIMLWE
 70
    -2
  9
$DIMTMOVE
 70
     0
  9
$LUNITS
 70
     2
  9
$LUPREC
 70
     2
  9
$SKETCHINC
 40
1.0
  9
$FILLETRAD
 40
10.0
  9
$AUNITS
 70
     0
  9
$AUPREC
 70
     2
  9
$MENU
  1
.
  9
$ELEVATION
 40
0.0
  9
$PELEVATION
 40
0.0
  9
$THICKNESS
 40
0.0
  9
$LIMCHECK
 70
     0
  9
$CHAMFERA
 40
0.0
  9
$CHAMFERB
 40
0.0
  9
$CHAMFERC
 40
0.0
  9
$CHAMFERD
 40
0.0
  9
$SKPOLY
 70
     0
  9
$TDCREATE
 40
2458311.574955937
  9
$TDUCREATE
 40
2458311.199955937
  9
$TDUPDATE
 40
2458319.494876551
  9
$TDUUPDATE
 40
2458319.119876551
  9
$TDINDWG
 40
0.0016295949
  9
$TDUSRTIMER
 40
2458319.118247489
  9
$USRTIMER
 70
     1
  9
$ANGBASE
 50
0.0
  9
$ANGDIR
 70
     0
  9
$PDMODE
 70
     0
  9
$PDSIZE
 40
-1.0
  9
$PLINEWID
 40
0.0
  9
$SPLFRAME
 70
     0
  9
$SPLINETYPE
 70
     6
  9
$SPLINESEGS
 70
     8
  9
$HANDSEED
  5
263
  9
$SURFTAB1
 70
     6
  9
$SURFTAB2
 70
     6
  9
$SURFTYPE
 70
     6
  9
$SURFU
 70
     6
  9
$SURFV
 70
     6
  9
$UCSBASE
  2

  9
$UCSNAME
  2

  9
$UCSORG
 10
0.0
 20
0.0
 30
0.0
  9
$UCSXDIR
 10
1.0
 20
0.0
 30
0.0
  9
$UCSYDIR
 10
0.0
 20
1.0
 30
0.0
  9
$UCSORTHOREF
  2

  9
$UCSORTHOVIEW
 70
     0
  9
$UCSORGTOP
 10
0.0
 20
0.0
 30
0.0
  9
$UCSORGBOTTOM
 10
0.0
 20
0.0
 30
0.0
  9
$UCSORGLEFT
 10
0.0
 20
0.0
 30
0.0
  9
$UCSORGRIGHT
 10
0.0
 20
0.0
 30
0.0
  9
$UCSORGFRONT
 10
0.0
 20
0.0
 30
0.0
  9
$UCSORGBACK
 10
0.0
 20
0.0
 30
0.0
  9
$PUCSBASE
  2

  9
$PUCSNAME
  2

  9
$PUCSORG
 10
0.0
 20
0.0
 30
0.0
  9
$PUCSXDIR
 10
1.0
 20
0.0
 30
0.0
  9
$PUCSYDIR
 10
0.0
 20
1.0
 30
0.0
  9
$PUCSORTHOREF
  2

  9
$PUCSORTHOVIEW
 70
     0
  9
$PUCSORGTOP
 10
0.0
 20
0.0
 30
0.0
  9
$PUCSORGBOTTOM
 10
0.0
 20
0.0
 30
0.0
  9
$PUCSORGLEFT
 10
0.0
 20
0.0
 30
0.0
  9
$PUCSORGRIGHT
 10
0.0
 20
0.0
 30
0.0
  9
$PUCSORGFRONT
 10
0.0
 20
0.0
 30
0.0
  9
$PUCSORGBACK
 10
0.0
 20
0.0
 30
0.0
  9
$USERI1
 70
     0
  9
$USERI2
 70
     0
  9
$USERI3
 70
     0
  9
$USERI4
 70
     0
  9
$USERI5
 70
     0
  9
$USERR1
 40
0.0
  9
$USERR2
 40
0.0
  9
$USERR3
 40
0.0
  9
$USERR4
 40
0.0
  9
$USERR5
 40
0.0
  9
$WORLDVIEW
 70
     1
  9
$SHADEDGE
 70
     3
  9
$SHADEDIF
 70
    70
  9
$TILEMODE
 70
     1
  9
$MAXACTVP
 70
    64
  9
$PINSBASE
 10
0.0
 20
0.0
 30
0.0
  9
$PLIMCHECK
 70
     0
  9
$PEXTMIN
 10
1.000000000000000E+20
 20
1.000000000000000E+20
 30
1.000000000000000E+20
  9
$PEXTMAX
 10
-1.000000000000000E+20
 20
-1.000000000000000E+20
 30
-1.000000000000000E+20
  9
$PLIMMIN
 10
0.0
 20
0.0
  9
$PLIMMAX
 10
0.0
 20
0.0
  9
$UNITMODE
 70
     0
  9
$VISRETAIN
 70
     1
  9
$PLINEGEN
 70
     0
  9
$PSLTSCALE
 70
     1
  9
$TREEDEPTH
 70
  3020
  9
$CMLSTYLE
  2
Standard
  9
$CMLJUST
 70
     0
  9
$CMLSCALE
 40
20.0
  9
$PROXYGRAPHICS
 70
     1
  9
$MEASUREMENT
 70
     1
  9
$CELWEIGHT
370
    -1
  9
$ENDCAPS
280
     0
  9
$JOINSTYLE
280
     0
  9
$LWDISPLAY
290
     1
  9
$INSUNITS
 70
     4
  9
$HYPERLINKBASE
  1

  9
$STYLESHEET
  1

  9
$XEDIT
290
     1
  9
$CEPSNTYPE
380
     0
  9
$PSTYLEMODE
290
     1
  9
$FINGERPRINTGUID
  2
{F0274540-CB05-4142-8D7F-E73A5145EC90}
  9
$VERSIONGUID
  2
{FAEB1C32-E019-11D5-929B-00C0DF256EC4}
  9
$EXTNAMES
290
     1
  9
$PSVPSCALE
 40
0.0
  9
$OLESTARTUP
290
     0
  0
ENDSEC
  0
SECTION
  2
CLASSES
  0
CLASS
  1
ACDBDICTIONARYWDFLT
  2
AcDbDictionaryWithDefault
  3
ObjectDBX Classes
 90
        0
280
     0
281
     0
  0
CLASS
  1
VISUALSTYLE
  2
AcDbVisualStyle
  3
ObjectDBX Classes
 90
     4095
280
     0
281
     0
  0
CLASS
  1
MATERIAL
  2
AcDbMaterial
  3
ObjectDBX Classes
 90
     1153
280
     0
281
     0
  0
CLASS
  1
SCALE
  2
AcDbScale
  3
ObjectDBX Classes
 90
     1153
280
     0
281
     0
  0
CLASS
  1
SUN
  2
AcDbSun
  3
SCENEOE
 90
     1153
280
     0
281
     0
  0
CLASS
  1
ACDBPLACEHOLDER
  2
AcDbPlaceHolder
  3
ObjectDBX Classes
 90
        0
280
     0
281
     0
  0
CLASS
  1
LAYOUT
  2
AcDbLayout
  3
ObjectDBX Classes
 90
        0
280
     0
281
     0
  0
CLASS
  1
TABLESTYLE
  2
AcDbTableStyle
  3
ObjectDBX Classes
 90
     4095
280
     0
281
     0
  0
CLASS
  1
MLEADERSTYLE
  2
AcDbMLeaderStyle
  3
ACDB_MLEADERSTYLE_CLASS
 90
     4095
280
     0
281
     0
  0
CLASS
  1
RASTERVARIABLES
  2
AcDbRasterVariables
  3
ISM
 90
        0
280
     0
281
     0
  0
ENDSEC
  0
SECTION
  2
TABLES
  0
TABLE
  2
VPORT
  5
8
330
0
100
AcDbSymbolTable
 70
     1
  0
VPORT
  5
29
330
8
100
AcDbSymbolTableRecord
100
AcDbViewportTableRecord
  2
*Active
 70
     0
 10
0.0
 20
0.0
 11
1.0
 21
1.0
 12
33.99185631294625
 22
-5.390393742160533
 13
0.0
 23
0.0
 14
10.0
 24
10.0
 15
10.0
 25
10.0
 16
0.0
 26
0.0
 36
1.0
 17
0.0
 27
0.0
 37
0.0
 40
172.7752909435494
 41
1.632093933463796
 42
50.0
 43
0.0
 44
0.0
 50
0.0
 51
0.0
 71
    16
 72
  2000
 73
     1
 74
     3
 75
     0
 76
     0
 77
     0
 78
     0
281
     0
 65
     1
110
0.0
120
0.0
130
0.0
111
1.0
121
0.0
131
0.0
112
0.0
122
1.0
132
0.0
 79
     0
146
0.0
  0
ENDTAB
  0
TABLE
  2
LTYPE
  5
5
330
0
100
AcDbSymbolTable
 70
     6
  0
LTYPE
  5
14
330
5
100
AcDbSymbolTableRecord
100
AcDbLinetypeTableRecord
  2
ByBlock
 70
     0
  3

 72
    65
 73
     0
 40
0.0
  0
LTYPE
  5
15
330
5
100
AcDbSymbolTableRecord
100
AcDbLinetypeTableRecord
  2
ByLayer
 70
     0
  3

 72
    65
 73
     0
 40
0.0
  0
LTYPE
  5
16
330
5
100
AcDbSymbolTableRecord
100
AcDbLinetypeTableRecord
  2
Continuous
 70
     0
  3
Solid line
 72
    65
 73
     0
 40
0.0
  0
LTYPE
  5
6A
330
5
100
AcDbSymbolTableRecord
100
AcDbLinetypeTableRecord
  2
HIDDEN
 70
     0
  3
Hidden __ __ __ __ __ __ __ __ __ __ __ __ __ __
 72
    65
 73
     2
 40
1.905
 49
1.27
 74
     0
 49
-0.635
 74
     0
  0
LTYPE
  5
6B
330
5
100
AcDbSymbolTableRecord
100
AcDbLinetypeTableRecord
  2
PHANTOM
 70
     0
  3
Phantom ______  __  __  ______  __  __  ______
 72
    65
 73
     6
 40
12.7
 49
6.35
 74
     0
 49
-1.27
 74
     0
 49
1.27
 74
     0
 49
-1.27
 74
     0
 49
1.27
 74
     0
 49
-1.27
 74
     0
  0
LTYPE
  5
6C
330
5
100
AcDbSymbolTableRecord
100
AcDbLinetypeTableRecord
  2
CENTER
 70
     0
  3
Center ____ _ ____ _ ____ _ ____ _ ____ _ ____
 72
    65
 73
     4
 40
10.16
 49
6.35
 74
     0
 49
-1.27
 74
     0
 49
1.27
 74
     0
 49
-1.27
 74
     0
  0
LTYPE
  5
6D
330
5
100
AcDbSymbolTableRecord
100
AcDbLinetypeTableRecord
  2
CENTERX2
 70
     0
  3
Center (2x) ________  __  ________  __  _____
 72
    65
 73
     4
 40
20.32
 49
12.7
 74
     0
 49
-2.54
 74
     0
 49
2.54
 74
     0
 49
-2.54
 74
     0
  0
LTYPE
  5
6E
330
5
100
AcDbSymbolTableRecord
100
AcDbLinetypeTableRecord
  2
DOT2
 70
     0
  3
Dot (.5x) ........................................
 72
    65
 73
     2
 40
0.635
 49
0.0
 74
     0
 49
-0.635
 74
     0
  0
ENDTAB
  0
TABLE
  2
LAYER
  5
2
102
{ACAD_XDICTIONARY
360
1D8
102
}
330
0
100
AcDbSymbolTable
 70
    18
  0
LAYER
  5
10
330
2
100
AcDbSymbolTableRecord
100
AcDbLayerTableRecord
  2
0
 70
     0
 62
     7
  6
Continuous
370
    -3
390
F
  0
LAYER
  5
6F
330
2
100
AcDbSymbolTableRecord
100
AcDbLayerTableRecord
  2
FORMAT
 70
     0
 62
     2
  6
Continuous
370
    -3
390
F
  0
LAYER
  5
70
330
2
100
AcDbSymbolTableRecord
100
AcDbLayerTableRecord
  2
외형선
 70
     0
 62
     4
  6
Continuous
370
    30
390
F
  0
LAYER
  5
71
330
2
100
AcDbSymbolTableRecord
100
AcDbLayerTableRecord
  2
숨은선
 70
     0
 62
     2
  6
HIDDEN
370
    15
390
F
  0
LAYER
  5
72
330
2
100
AcDbSymbolTableRecord
100
AcDbLayerTableRecord
  2
중심선
 70
     0
 62
     1
  6
CENTERX2
370
    -3
390
F
  0
LAYER
  5
73
330
2
100
AcDbSymbolTableRecord
100
AcDbLayerTableRecord
  2
파단선
 70
     0
 62
     4
  6
Continuous
370
    -3
390
F
  0
LAYER
  5
74
330
2
100
AcDbSymbolTableRecord
100
AcDbLayerTableRecord
  2
해칭선
 70
     0
 62
   100
  6
Continuous
370
    -3
390
F
  0
LAYER
  5
75
330
2
100
AcDbSymbolTableRecord
100
AcDbLayerTableRecord
  2
가는실선
 70
     0
 62
     4
  6
Continuous
370
    -3
390
F
  0
LAYER
  5
76
330
2
100
AcDbSymbolTableRecord
100
AcDbLayerTableRecord
  2
치수_보조선
 70
     0
 62
     4
  6
Continuous
370
    -3
390
F
  0
LAYER
  5
77
330
2
100
AcDbSymbolTableRecord
100
AcDbLayerTableRecord
  2
치수문자_일반주서
 70
     0
 62
     7
  6
Continuous
370
    15
390
F
  0
LAYER
  5
78
330
2
100
AcDbSymbolTableRecord
100
AcDbLayerTableRecord
  2
개별주서
 70
     0
 62
   100
  6
Continuous
370
    30
390
F
  0
LAYER
  5
79
330
2
100
AcDbSymbolTableRecord
100
AcDbLayerTableRecord
  2
중간선
 70
     0
 62
     2
  6
Continuous
370
    15
390
F
  0
LAYER
  5
7A
330
2
100
AcDbSymbolTableRecord
100
AcDbLayerTableRecord
  2
윤곽선
 70
     0
 62
     3
  6
Continuous
370
    40
390
F
  0
LAYER
  5
7B
330
2
100
AcDbSymbolTableRecord
100
AcDbLayerTableRecord
  2
중심마크
 70
     0
 62
   100
  6
Continuous
370
    30
390
F
  0
LAYER
  5
7C
330
2
100
AcDbSymbolTableRecord
100
AcDbLayerTableRecord
  2
가상선
 70
     0
 62
     4
  6
PHANTOM
370
    -3
390
F
  0
LAYER
  5
7D
330
2
100
AcDbSymbolTableRecord
100
AcDbLayerTableRecord
  2
특수지정선
 70
     0
 62
     5
  6
CENTERX2
370
    60
390
F
  0
LAYER
  5
7E
330
2
100
AcDbSymbolTableRecord
100
AcDbLayerTableRecord
  2
참조1
 70
     0
 62
    -4
  6
Continuous
370
    -3
390
F
  0
LAYER
  5
141
330
2
100
AcDbSymbolTableRecord
100
AcDbLayerTableRecord
  2
Defpoints
 70
     0
 62
     7
  6
Continuous
290
     0
370
    -3
390
F
  0
ENDTAB
  0
TABLE
  2
STYLE
  5
3
330
0
100
AcDbSymbolTable
 70
     2
  0
STYLE
  5
11
330
3
100
AcDbSymbolTableRecord
100
AcDbTextStyleTableRecord
  2
Standard
 70
     0
 40
0.0
 41
1.0
 50
0.0
 71
     0
 42
3.5
  3
txt
  4

  0
STYLE
  5
94
330
3
100
AcDbSymbolTableRecord
100
AcDbTextStyleTableRecord
  2
SLDTEXTSTYLE0
 70
     0
 40
0.0
 41
0.75
 50
0.0
 71
     0
 42
3.5
  3
TXT
  4

  0
ENDTAB
  0
TABLE
  2
VIEW
  5
6
330
0
100
AcDbSymbolTable
 70
     0
  0
ENDTAB
  0
TABLE
  2
UCS
  5
7
330
0
100
AcDbSymbolTable
 70
     0
  0
ENDTAB
  0
TABLE
  2
APPID
  5
9
330
0
100
AcDbSymbolTable
 70
     1
  0
APPID
  5
12
330
9
100
AcDbSymbolTableRecord
100
AcDbRegAppTableRecord
  2
ACAD
 70
     0
  0
ENDTAB
  0
TABLE
  2
DIMSTYLE
  5
A
330
0
100
AcDbSymbolTable
 70
     5
100
AcDbDimStyleTable
  0
DIMSTYLE
105
27
330
A
100
AcDbSymbolTableRecord
100
AcDbDimStyleTableRecord
  2
ISO-25
 70
     0
 41
2.5
 42
0.625
 43
3.75
 44
1.25
 73
     0
 74
     0
 77
     1
 78
     8
140
2.5
141
2.5
143
0.03937007874016
147
0.625
171
     3
172
     1
178
     0
271
     2
272
     2
274
     3
278
    44
283
     0
284
     8
340
11
  0
DIMSTYLE
105
C3
330
A
100
AcDbSymbolTableRecord
100
AcDbDimStyleTableRecord
  2
SLDDIMSTYLE0
 70
     0
 41
3.302
 44
0.0
 45
0.000000001
 73
     0
 74
     0
 77
     1
 78
     4
 79
     1
140
3.5
147
0.875
172
     1
173
     1
178
     0
271
     2
272
     2
276
     2
284
    12
289
     0
340
94
  0
DIMSTYLE
105
D1
102
{ACAD_REACTORS
330
D0
330
18E
330
1B0
330
1BD
330
223
330
224
330
FA
102
}
330
A
100
AcDbSymbolTableRecord
100
AcDbDimStyleTableRecord
  2
SLDDIMSTYLE1
 70
     0
 41
3.302
 44
0.0
 45
0.000000001
 73
     0
 74
     0
 77
     1
 78
     4
 79
     1
140
3.5
143
0.0393700787401575
147
0.875
148
0.000000001
170
     1
172
     1
173
     1
178
     0
271
     2
272
     2
276
     2
284
    12
289
     0
340
94
  0
DIMSTYLE
105
E7
330
A
100
AcDbSymbolTableRecord
100
AcDbDimStyleTableRecord
  2
SLDDIMSTYLE2
 70
     0
 41
3.302
 44
0.0
 45
0.000000001
 73
     0
 74
     0
 77
     1
 78
     4
 79
     1
140
3.5
143
0.0393700787401575
147
0.875
148
0.000000001
170
     1
173
     1
178
     0
271
     2
272
     2
276
     2
284
    12
340
94
  0
DIMSTYLE
105
FB
102
{ACAD_REACTORS
330
19B
102
}
330
A
100
AcDbSymbolTableRecord
100
AcDbDimStyleTableRecord
  2
SLDDIMSTYLE3
 70
     0
 41
3.302
 44
0.0
 45
0.000000001
 73
     0
 74
     0
 77
     1
 78
    12
 79
     3
140
3.5
143
0.0393700787401575
147
0.875
148
0.000000001
170
     1
173
     1
178
     0
271
     2
272
     2
276
     2
284
    12
340
94
  0
ENDTAB
  0
TABLE
  2
BLOCK_RECORD
  5
1
330
0
100
AcDbSymbolTable
 70
    16
  0
BLOCK_RECORD
  5
1F
330
1
100
AcDbSymbolTableRecord
100
AcDbBlockTableRecord
  2
*Model_Space
340
22
  0
BLOCK_RECORD
  5
1B
330
1
100
AcDbSymbolTableRecord
100
AcDbBlockTableRecord
  2
*Paper_Space
340
1E
  0
BLOCK_RECORD
  5
23
330
1
100
AcDbSymbolTableRecord
100
AcDbBlockTableRecord
  2
*Paper_Space0
340
26
  0
BLOCK_RECORD
  5
7F
330
1
100
AcDbSymbolTableRecord
100
AcDbBlockTableRecord
  2
블럭10
340
0
102
{BLKREFS
331
BB
102
}
  0
BLOCK_RECORD
  5
C4
330
1
100
AcDbSymbolTableRecord
100
AcDbBlockTableRecord
  2
_D
340
0
  0
BLOCK_RECORD
  5
D2
330
1
100
AcDbSymbolTableRecord
100
AcDbBlockTableRecord
  2
_D_1
340
0
  0
BLOCK_RECORD
  5
E8
330
1
100
AcDbSymbolTableRecord
100
AcDbBlockTableRecord
  2
_D_2
340
0
  0
BLOCK_RECORD
  5
FC
330
1
100
AcDbSymbolTableRecord
100
AcDbBlockTableRecord
  2
_D_3
340
0
  0
BLOCK_RECORD
  5
115
330
1
100
AcDbSymbolTableRecord
100
AcDbBlockTableRecord
  2
SW_DOWELSYMBOL_0
340
0
102
{BLKREFS
331
0
331
1CA
331
225
102
}
  0
BLOCK_RECORD
  5
1B1
330
1
100
AcDbSymbolTableRecord
100
AcDbBlockTableRecord
  2
*D8
340
0
  0
BLOCK_RECORD
  5
1BE
330
1
100
AcDbSymbolTableRecord
100
AcDbBlockTableRecord
  2
*D9
340
0
  0
BLOCK_RECORD
  5
1DC
330
1
100
AcDbSymbolTableRecord
100
AcDbBlockTableRecord
  2
*D10
340
0
  0
BLOCK_RECORD
  5
1E8
330
1
100
AcDbSymbolTableRecord
100
AcDbBlockTableRecord
  2
*D11
340
0
  0
BLOCK_RECORD
  5
22D
330
1
100
AcDbSymbolTableRecord
100
AcDbBlockTableRecord
  2
*D12
340
0
  0
BLOCK_RECORD
  5
239
330
1
100
AcDbSymbolTableRecord
100
AcDbBlockTableRecord
  2
*D13
340
0
  0
BLOCK_RECORD
  5
246
330
1
100
AcDbSymbolTableRecord
100
AcDbBlockTableRecord
  2
*D14
340
0
  0
BLOCK_RECORD
  5
252
330
1
100
AcDbSymbolTableRecord
100
AcDbBlockTableRecord
  2
*D15
340
0
  0
ENDTAB
  0
ENDSEC
  0
SECTION
  2
BLOCKS
  0
BLOCK
  5
20
330
1F
100
AcDbEntity
  8
0
100
AcDbBlockBegin
  2
*Model_Space
 70
     0
 10
0.0
 20
0.0
 30
0.0
  3
*Model_Space
  1
*Model_Space
  0
ENDBLK
  5
21
330
1F
100
AcDbEntity
  8
0
100
AcDbBlockEnd
  0
BLOCK
  5
1C
330
1B
100
AcDbEntity
 67
     1
  8
0
100
AcDbBlockBegin
  2
*Paper_Space
 70
     0
 10
0.0
 20
0.0
 30
0.0
  3
*Paper_Space
  1
*Paper_Space
  0
ENDBLK
  5
1D
330
1B
100
AcDbEntity
 67
     1
  8
0
100
AcDbBlockEnd
  0
BLOCK
  5
24
330
23
100
AcDbEntity
  8
0
100
AcDbBlockBegin
  2
*Paper_Space0
 70
     0
 10
0.0
 20
0.0
 30
0.0
  3
*Paper_Space0
  1
*Paper_Space0
  0
ENDBLK
  5
25
330
23
100
AcDbEntity
  8
0
100
AcDbBlockEnd
  0
BLOCK
  5
80
330
7F
100
AcDbEntity
  8
0
100
AcDbBlockBegin
  2
블럭10
 70
     2
 10
0.0
 20
0.0
 30
0.0
  3
블럭10
  1
블럭10
  0
ELLIPSE
  5
82
330
7F
100
AcDbEntity
  8
중심선
100
AcDbEllipse
 10
20.54032771741204
 20
12.0471743016438
 30
0.0
 11
6.600054785286829
 21
-1.261213355974178E-13
 31
0.0
210
0.0
220
0.0
230
1.0
 40
0.636358354079598
 41
0.9219305317359503
 42
6.513795318482858
  0
ELLIPSE
  5
83
330
7F
100
AcDbEntity
  8
중심선
100
AcDbEllipse
 10
20.54032771746488
 20
12.04717430159265
 30
0.0
 11
3.960054785062283
 21
1.540847449632565E-10
 31
0.0
210
0.0
220
0.0
230
1.0
 40
0.3939339440162632
 41
1.131841032648279
 42
5.62031148352944
  0
LINE
  5
84
330
7F
100
AcDbEntity
  8
중심선
100
AcDbLine
 10
2.268634060543552
 20
16.24717430164393
 30
0.0
 11
5.714909304380834
 21
16.24717430164393
 31
0.0
  0
LINE
  5
85
330
7F
100
AcDbEntity
  8
중심선
100
AcDbLine
 10
5.245725140726316
 20
7.84717430164391
 30
0.0
 11
8.692000384563599
 21
7.84717430164391
 31
0.0
  0
LINE
  5
86
330
7F
100
AcDbEntity
  8
중심선
100
AcDbLine
 10
15.74043728645272
 20
16.24717430164393
 30
0.0
 11
8.692000384563599
 21
7.84717430164391
 31
0.0
  0
LINE
  5
87
330
7F
100
AcDbEntity
  8
중심선
100
AcDbLine
 10
0.1404042013395286
 20
13.71084872107135
 30
0.0
 11
3.58671253028996
 21
13.71088815037384
 31
0.0
  0
LINE
  5
88
330
7F
100
AcDbEntity
  8
중심선
100
AcDbLine
 10
2.750260043222114
 20
10.84717430164391
 30
0.0
 11
6.196535287059397
 21
10.84717430164391
 31
0.0
  0
LINE
  5
89
330
7F
100
AcDbEntity
  8
중심선
100
AcDbLine
 10
12.29416204261559
 20
16.24717430164393
 30
0.0
 11
5.245725140726316
 21
7.84717430164391
 31
0.0
  0
LINE
  5
8A
330
7F
100
AcDbEntity
  8
중심선
100
AcDbLine
 10
10.72767329541681
 20
16.24717430164393
 30
0.0
 11
6.196535287059397
 21
10.84717430164391
 31
0.0
  0
LINE
  5
8B
330
7F
100
AcDbEntity
  8
중심선
100
AcDbLine
 10
7.28139805157953
 20
16.24717430164393
 30
0.0
 11
2.750260043222114
 21
10.84717430164391
 31
0.0
  0
LINE
  5
8C
330
7F
100
AcDbEntity
  8
중심선
100
AcDbLine
 10
5.714909304380834
 20
16.24717430164393
 30
0.0
 11
3.58671253028996
 21
13.71088815037384
 31
0.0
  0
LINE
  5
8D
330
7F
100
AcDbEntity
  8
중심선
100
AcDbLine
 10
2.268634060543552
 20
16.24717430164393
 30
0.0
 11
0.1404042013395286
 21
13.71084872107135
 31
0.0
  0
LINE
  5
8E
330
7F
100
AcDbEntity
  8
중심선
100
AcDbLine
 10
7.28139805157953
 20
16.24717430164393
 30
0.0
 11
10.72767329541681
 21
16.24717430164393
 31
0.0
  0
LINE
  5
8F
330
7F
100
AcDbEntity
  8
중심선
100
AcDbLine
 10
12.29416204261559
 20
16.24717430164393
 30
0.0
 11
15.74043728645272
 21
16.24717430164393
 31
0.0
  0
LINE
  5
90
330
7F
100
AcDbEntity
  8
중심선
100
AcDbLine
 10
19.22036997980202
 20
11.08717430171403
 30
0.0
 11
23.66174974927406
 21
11.08717430171406
 31
0.0
  0
LINE
  5
91
330
7F
100
AcDbEntity
  8
중심선
100
AcDbLine
 10
19.22039502424796
 20
13.00717430171391
 30
0.0
 11
19.22036997980202
 21
11.08717430171403
 31
0.0
  0
LINE
  5
92
330
7F
100
AcDbEntity
  8
중심선
100
AcDbLine
 10
19.22039502424796
 20
13.00717430171391
 30
0.0
 11
26.96566020931264
 21
13.00717430171391
 31
0.0
  0
LINE
  5
93
330
7F
100
AcDbEntity
  8
중심선
100
AcDbLine
 10
22.22332737316547
 20
13.45928029700563
 30
0.0
 11
24.52862924686651
 21
15.39360700705356
 31
0.0
  0
ATTDEF
  5
95
330
7F
100
AcDbEntity
  8
FORMAT
 62
     2
100
AcDbText
 10
4.408487351596664
 20
2.075366912832191
 30
0.0
 40
4.233333333333333
  1
E1080901
 41
0.75
  7
SLDTEXTSTYLE0
 11
4.408487351596664
 21
-0.0412997538344756
 31
0.0
100
AcDbAttributeDefinition
  3

  2
AUTOATTR0
 70
     0
 74
     1
  0
ENDBLK
  5
81
330
7F
100
AcDbEntity
  8
0
100
AcDbBlockEnd
  0
BLOCK
  5
C5
330
C4
100
AcDbEntity
  8
0
100
AcDbBlockBegin
  2
_D
 70
     0
 10
0.0
 20
0.0
 30
0.0
  3
_D
  1
_D
  0
SOLID
  5
C7
330
C4
100
AcDbEntity
  8
치수문자_일반주서
100
AcDbTrace
 10
-59.5594211678731
 20
6.351074928723887
 30
0.0
 11
-59.05142116787309
 21
9.653074928723886
 31
0.0
 12
-60.0674211678731
 22
9.653074928723886
 32
0.0
 13
-60.0674211678731
 23
9.653074928723886
 33
0.0
  0
SOLID
  5
C8
330
C4
100
AcDbEntity
  8
치수문자_일반주서
100
AcDbTrace
 10
-59.5594211678731
 20
-6.348925071276102
 30
0.0
 11
-60.0674211678731
 21
-9.650925071276102
 31
0.0
 12
-59.05142116787309
 22
-9.650925071276102
 32
0.0
 13
-59.05142116787309
 23
-9.650925071276102
 33
0.0
  0
LINE
  5
C9
330
C4
100
AcDbEntity
  8
치수문자_일반주서
100
AcDbLine
 10
-47.05942116787307
 20
6.351074928723888
 30
0.0
 11
-60.5594211678731
 21
6.351074928723887
 31
0.0
  0
LINE
  5
CA
330
C4
100
AcDbEntity
  8
치수문자_일반주서
100
AcDbLine
 10
-47.05942116787307
 20
-6.348925071276101
 30
0.0
 11
-60.5594211678731
 21
-6.348925071276102
 31
0.0
  0
LINE
  5
CB
330
C4
100
AcDbEntity
  8
치수문자_일반주서
100
AcDbLine
 10
-59.5594211678731
 20
6.351074928723887
 30
0.0
 11
-59.5594211678731
 21
12.70107492872389
 31
0.0
  0
LINE
  5
CC
330
C4
100
AcDbEntity
  8
치수문자_일반주서
100
AcDbLine
 10
-59.5594211678731
 20
6.351074928723887
 30
0.0
 11
-59.5594211678731
 21
-6.348925071276102
 31
0.0
  0
LINE
  5
CD
330
C4
100
AcDbEntity
  8
치수문자_일반주서
100
AcDbLine
 10
-59.5594211678731
 20
-6.348925071276102
 30
0.0
 11
-59.5594211678731
 21
-12.6989250712761
 31
0.0
  0
MTEXT
  5
CE
330
C4
100
AcDbEntity
  8
치수문자_일반주서
100
AcDbMText
 10
-64.07115825707491
 20
-8.456894014097152
 30
0.0
 40
3.5
 41
0.0
 71
     1
 72
     1
  1
%%c
  7
SLDTEXTSTYLE0
 11
-7.044195017643634E-15
 21
1.0
 31
0.0
 73
     1
 44
1.0
  0
MTEXT
  5
CF
330
C4
100
AcDbEntity
  8
치수문자_일반주서
100
AcDbMText
 10
-64.1246304337348
 20
-3.178456615723071
 30
0.0
 40
3.5
 41
0.0
 71
     1
 72
     1
  1
12.70
  7
SLDTEXTSTYLE0
 11
-7.044195017643634E-15
 21
1.0
 31
0.0
 73
     1
 44
1.0
  0
ENDBLK
  5
C6
330
C4
100
AcDbEntity
  8
0
100
AcDbBlockEnd
  0
BLOCK
  5
D3
330
D2
100
AcDbEntity
  8
0
100
AcDbBlockBegin
  2
_D_1
 70
     0
 10
0.0
 20
0.0
 30
0.0
  3
_D_1
  1
_D_1
  0
LINE
  5
D5
330
D2
100
AcDbEntity
  8
0
  6
Continuous
 62
     0
370
    -2
100
AcDbLine
 10
78.26250000000003
 20
15.92408269177059
 30
0.0
 11
78.26250000000003
 21
29.1509835328956
 31
0.0
  0
LINE
  5
D6
330
D2
100
AcDbEntity
  8
0
  6
Continuous
 62
     0
370
    -2
100
AcDbLine
 10
1.99999999999811
 20
15.91813557177594
 30
0.0
 11
1.99999999999811
 21
29.1509835328956
 31
0.0
  0
LINE
  5
D7
330
D2
100
AcDbEntity
  8
0
  6
Continuous
 62
     0
370
    -2
100
AcDbLine
 10
74.96050000000002
 20
29.1509835328956
 30
0.0
 11
5.30199999999811
 21
29.1509835328956
 31
0.0
  0
SOLID
  5
D8
330
D2
100
AcDbEntity
  8
0
 62
     0
100
AcDbTrace
 10
74.96050000000002
 20
28.60065019956227
 30
0.0
 11
74.96050000000002
 21
29.70131686622894
 31
0.0
 12
78.26250000000003
 22
29.1509835328956
 32
0.0
 13
78.26250000000003
 23
29.1509835328956
 33
0.0
  0
SOLID
  5
D9
330
D2
100
AcDbEntity
  8
0
 62
     0
100
AcDbTrace
 10
5.30199999999811
 20
29.70131686622894
 30
0.0
 11
5.30199999999811
 21
28.60065019956227
 31
0.0
 12
1.99999999999811
 22
29.1509835328956
 32
0.0
 13
1.99999999999811
 23
29.1509835328956
 33
0.0
  0
MTEXT
  5
DA
330
D2
100
AcDbEntity
  8
0
 62
     0
370
    15
100
AcDbMText
 10
39.19328553072322
 20
33.5259835328956
 30
0.0
 40
3.5
 41
0.0
 71
     2
 72
     1
  1
\A1;76.26 [3]
  7
SLDTEXTSTYLE0
 73
     1
 44
1.0
  0
POINT
  5
DB
330
D2
100
AcDbEntity
  8
Defpoints
 62
     0
100
AcDbPoint
 10
78.26250000000003
 20
15.86158269177059
 30
0.0
  0
POINT
  5
DC
330
D2
100
AcDbEntity
  8
Defpoints
 62
     0
100
AcDbPoint
 10
1.99999999999811
 20
15.85563557177594
 30
0.0
  0
POINT
  5
DD
330
D2
100
AcDbEntity
  8
Defpoints
 62
     0
100
AcDbPoint
 10
1.99999999999811
 20
29.1509835328956
 30
0.0
  0
ENDBLK
  5
D4
330
D2
100
AcDbEntity
  8
0
100
AcDbBlockEnd
  0
BLOCK
  5
E9
330
E8
100
AcDbEntity
  8
0
100
AcDbBlockBegin
  2
_D_2
 70
     0
 10
0.0
 20
0.0
 30
0.0
  3
_D_2
  1
_D_2
  0
LINE
  5
EB
330
E8
100
AcDbEntity
  8
0
  6
Continuous
 62
     0
370
    -2
100
AcDbLine
 10
29.14057883212694
 20
6.606477789079263
 30
0.0
 11
29.14057883212693
 21
30.3105321911699
 31
0.0
  0
LINE
  5
EC
330
E8
100
AcDbEntity
  8
0
  6
Continuous
 62
     0
370
    -2
100
AcDbLine
 10
-47.05942116787307
 20
5.413574928723888
 30
0.0
 11
-47.05942116787308
 21
30.3105321911699
 31
0.0
  0
LINE
  5
ED
330
E8
100
AcDbEntity
  8
0
  6
Continuous
 62
     0
370
    -2
100
AcDbLine
 10
25.83857883212693
 20
30.3105321911699
 30
0.0
 11
-43.75742116787308
 21
30.3105321911699
 31
0.0
  0
SOLID
  5
EE
330
E8
100
AcDbEntity
  8
0
 62
     0
100
AcDbTrace
 10
25.83857883212693
 20
29.76019885783656
 30
0.0
 11
25.83857883212693
 21
30.86086552450323
 31
0.0
 12
29.14057883212693
 22
30.3105321911699
 32
0.0
 13
29.14057883212693
 23
30.3105321911699
 33
0.0
  0
SOLID
  5
EF
330
E8
100
AcDbEntity
  8
0
 62
     0
100
AcDbTrace
 10
-43.75742116787308
 20
30.86086552450323
 30
0.0
 11
-43.75742116787308
 21
29.76019885783656
 31
0.0
 12
-47.05942116787308
 22
30.3105321911699
 32
0.0
 13
-47.05942116787308
 23
30.3105321911699
 33
0.0
  0
MTEXT
  5
F0
330
E8
100
AcDbEntity
  8
0
 62
     0
370
    15
100
AcDbMText
 10
-8.959421167873067
 20
34.6855321911699
 30
0.0
 40
3.5
 41
0.0
 71
     2
 72
     1
  1
\A1;76.20 [3.00]
  7
SLDTEXTSTYLE0
 73
     1
 44
1.0
  0
POINT
  5
F1
330
E8
100
AcDbEntity
  8
Defpoints
 62
     0
100
AcDbPoint
 10
29.14057883212694
 20
6.543977789079263
 30
0.0
  0
POINT
  5
F2
330
E8
100
AcDbEntity
  8
Defpoints
 62
     0
100
AcDbPoint
 10
-47.05942116787307
 20
5.351074928723888
 30
0.0
  0
POINT
  5
F3
330
E8
100
AcDbEntity
  8
Defpoints
 62
     0
100
AcDbPoint
 10
-47.05942116787307
 20
30.31053219116989
 30
0.0
  0
ENDBLK
  5
EA
330
E8
100
AcDbEntity
  8
0
100
AcDbBlockEnd
  0
BLOCK
  5
FD
330
FC
100
AcDbEntity
  8
0
100
AcDbBlockBegin
  2
_D_3
 70
     0
 10
0.0
 20
0.0
 30
0.0
  3
_D_3
  1
_D_3
  0
LINE
  5
FF
330
FC
100
AcDbEntity
  8
0
  6
Continuous
 62
     0
370
    -2
100
AcDbLine
 10
78.26250000000003
 20
-15.8615826917706
 30
0.0
 11
97.20000000000026
 21
-15.86158269177054
 31
0.0
  0
LINE
  5
100
330
FC
100
AcDbEntity
  8
0
  6
Continuous
 62
     0
370
    -2
100
AcDbLine
 10
78.26250000000003
 20
15.86158269177059
 30
0.0
 11
97.20000000000014
 21
15.86158269177066
 31
0.0
  0
LINE
  5
101
330
FC
100
AcDbEntity
  8
0
  6
Continuous
 62
     0
370
    -2
100
AcDbLine
 10
97.20000000000014
 20
15.86158269177066
 30
0.0
 11
97.19999999999997
 21
63.61158269177072
 31
0.0
  0
LINE
  5
102
330
FC
100
AcDbEntity
  8
0
  6
Continuous
 62
     0
370
    -2
100
AcDbLine
 10
97.20000000000026
 20
-15.86158269177054
 30
0.0
 11
97.20000000000014
 21
15.86158269177066
 31
0.0
  0
LINE
  5
103
330
FC
100
AcDbEntity
  8
0
  6
Continuous
 62
     0
370
    -2
100
AcDbLine
 10
97.20000000000027
 20
-19.16358269177054
 30
0.0
 11
97.20000000000029
 21
-22.46558269177054
 31
0.0
  0
LINE
  5
104
330
FC
100
AcDbEntity
  8
0
  6
Continuous
 62
     0
370
    -2
100
AcDbLine
 10
97.20000000000013
 20
19.16358269177066
 30
0.0
 11
97.20000000000012
 21
22.46558269177066
 31
0.0
  0
SOLID
  5
105
330
FC
100
AcDbEntity
  8
0
 62
     0
100
AcDbTrace
 10
97.7503333333336
 20
-19.16358269177053
 30
0.0
 11
96.64966666666695
 21
-19.16358269177054
 31
0.0
 12
97.20000000000026
 22
-15.86158269177054
 32
0.0
 13
97.20000000000026
 23
-15.86158269177054
 33
0.0
  0
SOLID
  5
106
330
FC
100
AcDbEntity
  8
0
 62
     0
100
AcDbTrace
 10
96.6496666666668
 20
19.16358269177065
 30
0.0
 11
97.75033333333346
 21
19.16358269177066
 31
0.0
 12
97.20000000000014
 22
15.86158269177066
 32
0.0
 13
97.20000000000014
 23
15.86158269177066
 33
0.0
  0
MTEXT
  5
107
330
FC
100
AcDbEntity
  8
0
 62
     0
370
    15
100
AcDbMText
 10
92.82500000000003
 20
47.86158269177071
 30
0.0
 40
3.5
 41
0.0
 71
     2
 72
     1
  1
\A1;%%c31.72 [1 1/4]
  7
SLDTEXTSTYLE0
 11
-3.583716705035991E-15
 21
1.0
 31
0.0
 73
     1
 44
1.0
  0
POINT
  5
108
330
FC
100
AcDbEntity
  8
Defpoints
 62
     0
100
AcDbPoint
 10
78.20000000000003
 20
-15.8615826917706
 30
0.0
  0
POINT
  5
260
330
FC
100
AcDbEntity
  8
Defpoints
 62
     0
100
AcDbPoint
 10
78.20000000000003
 20
15.86158269177059
 30
0.0
  0
POINT
  5
261
330
FC
100
AcDbEntity
  8
Defpoints
 62
     0
100
AcDbPoint
 10
97.20000000000014
 20
15.86158269177066
 30
0.0
  0
ENDBLK
  5
FE
330
FC
100
AcDbEntity
  8
0
100
AcDbBlockEnd
  0
BLOCK
  5
116
330
115
100
AcDbEntity
  8
0
100
AcDbBlockBegin
  2
SW_DOWELSYMBOL_0
 70
     0
 10
0.0
 20
0.0
 30
0.0
  3
SW_DOWELSYMBOL_0
  1
SW_DOWELSYMBOL_0
  0
CIRCLE
  5
118
330
115
100
AcDbEntity
  8
해칭선
 62
     0
100
AcDbCircle
 10
0.0
 20
0.0
 30
0.0
 40
3.000000000000001
  0
HATCH
  5
119
330
115
100
AcDbEntity
  8
0
  6
Continuous
 62
     0
370
     0
100
AcDbHatch
 10
0.0
 20
0.0
 30
0.0
210
0.0
220
0.0
230
1.0
  2
SOLID
 70
     1
 71
     0
 91
        1
 92
        0
 93
        3
 72
     2
 10
0.0
 20
0.0
 40
3.000000000000001
 50
0.0
 51
90.0
 73
     1
 72
     1
 10
0.0
 20
3.000000000000001
 11
0.0
 21
0.0
 72
     1
 10
0.0
 20
0.0
 11
3.000000000000001
 21
0.0
 97
        0
 75
     0
 76
     1
 98
        1
 10
0.0
 20
0.0
  0
HATCH
  5
11A
330
115
100
AcDbEntity
  8
0
  6
Continuous
 62
     0
370
     0
100
AcDbHatch
 10
0.0
 20
0.0
 30
0.0
210
0.0
220
0.0
230
1.0
  2
SOLID
 70
     1
 71
     0
 91
        1
 92
        0
 93
        3
 72
     2
 10
0.0
 20
0.0
 40
3.000000000000001
 50
180.0
 51
270.0000000000008
 73
     1
 72
     1
 10
0.0
 20
-3.000000000000001
 11
0.0
 21
0.0
 72
     1
 10
0.0
 20
0.0
 11
-3.000000000000001
 21
0.0
 97
        0
 75
     0
 76
     1
 98
        1
 10
0.0
 20
0.0
  0
ENDBLK
  5
117
330
115
100
AcDbEntity
  8
0
100
AcDbBlockEnd
  0
BLOCK
  5
1B2
330
1B1
100
AcDbEntity
  8
0
100
AcDbBlockBegin
  2
*D8
 70
     1
 10
0.0
 20
0.0
 30
0.0
  3
*D8
  1
*D13
  0
LINE
  5
1B3
330
1B1
100
AcDbEntity
  8
0
  6
Continuous
 62
     0
370
    -2
100
AcDbLine
 10
16.81250000000007
 20
27.01611428109094
 30
0.0
 11
4.374999999999998
 21
27.01611428109089
 31
0.0
  0
LINE
  5
1B4
330
1B1
100
AcDbEntity
  8
0
  6
Continuous
 62
     0
370
    -2
100
AcDbLine
 10
17.81250000000005
 20
1.616114281090919
 30
0.0
 11
4.375000000000087
 21
1.616114281090869
 31
0.0
  0
LINE
  5
1B5
330
1B1
100
AcDbEntity
  8
0
  6
Continuous
 62
     0
370
    -2
100
AcDbLine
 10
4.37500000000001
 20
23.71411428109089
 30
0.0
 11
4.375000000000075
 21
4.918114281090869
 31
0.0
  0
SOLID
  5
1B6
330
1B1
100
AcDbEntity
  8
0
 62
     0
100
AcDbTrace
 10
4.925333333333343
 20
23.7141142810909
 30
0.0
 11
3.824666666666677
 21
23.71411428109089
 31
0.0
 12
4.374999999999998
 22
27.01611428109089
 32
0.0
 13
4.374999999999998
 23
27.01611428109089
 33
0.0
  0
SOLID
  5
1B7
330
1B1
100
AcDbEntity
  8
0
 62
     0
100
AcDbTrace
 10
3.824666666666742
 20
4.918114281090867
 30
0.0
 11
4.925333333333409
 21
4.918114281090871
 31
0.0
 12
4.375000000000087
 22
1.616114281090869
 32
0.0
 13
4.375000000000087
 23
1.616114281090869
 33
0.0
  0
MTEXT
  5
1B8
330
1B1
100
AcDbEntity
  8
0
 62
     0
370
    15
100
AcDbMText
 10
0.0000000000000426
 20
14.31611428109092
 30
0.0
 40
3.5
 41
0.0
 71
     2
 72
     1
  1
\A1;%%c25.40 [1]
  7
SLDTEXTSTYLE0
 11
-3.496765431890254E-15
 21
1.0
 31
0.0
 73
     1
 44
1.0
  0
POINT
  5
1B9
330
1B1
100
AcDbEntity
  8
Defpoints
 62
     0
100
AcDbPoint
 10
16.87500000000007
 20
27.01611428109094
 30
0.0
  0
POINT
  5
1BA
330
1B1
100
AcDbEntity
  8
Defpoints
 62
     0
100
AcDbPoint
 10
17.87500000000005
 20
1.616114281090919
 30
0.0
  0
POINT
  5
1BB
330
1B1
100
AcDbEntity
  8
Defpoints
 62
     0
100
AcDbPoint
 10
4.375000000000085
 20
1.616114281090869
 30
0.0
  0
ENDBLK
  5
1BC
330
1B1
100
AcDbEntity
  8
0
100
AcDbBlockEnd
  0
BLOCK
  5
1BF
330
1BE
100
AcDbEntity
  8
0
100
AcDbBlockBegin
  2
*D9
 70
     1
 10
0.0
 20
0.0
 30
0.0
  3
*D9
  1
*D15
  0
LINE
  5
1C0
330
1BE
100
AcDbEntity
  8
0
  6
Continuous
 62
     0
370
    -2
100
AcDbLine
 10
156.575
 20
28.66611428109094
 30
0.0
 11
156.575
 21
56.89319288572018
 31
0.0
  0
LINE
  5
1C1
330
1BE
100
AcDbEntity
  8
0
  6
Continuous
 62
     0
370
    -2
100
AcDbLine
 10
16.87500000000007
 20
27.07861428109094
 30
0.0
 11
16.87500000000007
 21
56.89319288572018
 31
0.0
  0
LINE
  5
1C2
330
1BE
100
AcDbEntity
  8
0
  6
Continuous
 62
     0
370
    -2
100
AcDbLine
 10
153.2730000000001
 20
56.89319288572018
 30
0.0
 11
20.17700000000007
 21
56.89319288572018
 31
0.0
  0
SOLID
  5
1C3
330
1BE
100
AcDbEntity
  8
0
 62
     0
100
AcDbTrace
 10
153.2730000000001
 20
56.34285955238685
 30
0.0
 11
153.2730000000001
 21
57.44352621905352
 31
0.0
 12
156.575
 22
56.89319288572018
 32
0.0
 13
156.575
 23
56.89319288572018
 33
0.0
  0
SOLID
  5
1C4
330
1BE
100
AcDbEntity
  8
0
 62
     0
100
AcDbTrace
 10
20.17700000000007
 20
57.44352621905352
 30
0.0
 11
20.17700000000007
 21
56.34285955238685
 31
0.0
 12
16.87500000000007
 22
56.89319288572018
 32
0.0
 13
16.87500000000007
 23
56.89319288572018
 33
0.0
  0
MTEXT
  5
1C5
330
1BE
100
AcDbEntity
  8
0
 62
     0
370
    15
100
AcDbMText
 10
86.72500000000007
 20
61.26819288572018
 30
0.0
 40
3.5
 41
0.0
 71
     2
 72
     1
  1
\A1;139.70 [5 1/2]
  7
SLDTEXTSTYLE0
 73
     1
 44
1.0
  0
POINT
  5
1C6
330
1BE
100
AcDbEntity
  8
Defpoints
 62
     0
100
AcDbPoint
 10
156.575
 20
28.60361428109094
 30
0.0
  0
POINT
  5
1C7
330
1BE
100
AcDbEntity
  8
Defpoints
 62
     0
100
AcDbPoint
 10
16.87500000000007
 20
27.01611428109094
 30
0.0
  0
POINT
  5
1C8
330
1BE
100
AcDbEntity
  8
Defpoints
 62
     0
100
AcDbPoint
 10
16.87500000000007
 20
56.89319288572018
 30
0.0
  0
ENDBLK
  5
1C9
330
1BE
100
AcDbEntity
  8
0
100
AcDbBlockEnd
  0
BLOCK
  5
1DD
330
1DC
100
AcDbEntity
  8
0
100
AcDbBlockBegin
  2
*D10
 70
     1
 10
0.0
 20
0.0
 30
0.0
  3
*D10
  1
*D10
  0
LINE
  5
1DF
330
1DC
100
AcDbEntity
  8
0
  6
Continuous
 62
     0
370
    -2
100
AcDbLine
 10
156.575
 20
28.66611428109094
 30
0.0
 11
156.575
 21
40.86693385634135
 31
0.0
  0
LINE
  5
1E0
330
1DC
100
AcDbEntity
  8
0
  6
Continuous
 62
     0
370
    -2
100
AcDbLine
 10
80.37500000000006
 20
27.07861428109091
 30
0.0
 11
80.37500000000006
 21
40.86693385634135
 31
0.0
  0
LINE
  5
1E1
330
1DC
100
AcDbEntity
  8
0
  6
Continuous
 62
     0
370
    -2
100
AcDbLine
 10
153.2730000000001
 20
40.86693385634135
 30
0.0
 11
83.67700000000005
 21
40.86693385634135
 31
0.0
  0
SOLID
  5
1E2
330
1DC
100
AcDbEntity
  8
0
 62
     0
100
AcDbTrace
 10
153.2730000000001
 20
40.31660052300801
 30
0.0
 11
153.2730000000001
 21
41.41726718967468
 31
0.0
 12
156.575
 22
40.86693385634135
 32
0.0
 13
156.575
 23
40.86693385634135
 33
0.0
  0
SOLID
  5
1E3
330
1DC
100
AcDbEntity
  8
0
 62
     0
100
AcDbTrace
 10
83.67700000000005
 20
41.41726718967468
 30
0.0
 11
83.67700000000005
 21
40.31660052300801
 31
0.0
 12
80.37500000000006
 22
40.86693385634135
 32
0.0
 13
80.37500000000006
 23
40.86693385634135
 33
0.0
  0
MTEXT
  5
1E4
330
1DC
100
AcDbEntity
  8
0
 62
     0
370
    15
100
AcDbMText
 10
119.4082782079103
 20
45.24193385634135
 30
0.0
 40
3.5
 41
0.0
 71
     2
 72
     1
  1
\A1;76.20 [3]
  7
SLDTEXTSTYLE0
 73
     1
 44
1.0
  0
POINT
  5
1E5
330
1DC
100
AcDbEntity
  8
Defpoints
 62
     0
100
AcDbPoint
 10
156.575
 20
28.60361428109094
 30
0.0
  0
POINT
  5
1E6
330
1DC
100
AcDbEntity
  8
Defpoints
 62
     0
100
AcDbPoint
 10
80.37500000000006
 20
27.01611428109091
 30
0.0
  0
POINT
  5
1E7
330
1DC
100
AcDbEntity
  8
Defpoints
 62
     0
100
AcDbPoint
 10
80.37500000000006
 20
40.86693385634135
 30
0.0
  0
ENDBLK
  5
1DE
330
1DC
100
AcDbEntity
  8
0
100
AcDbBlockEnd
  0
BLOCK
  5
1E9
330
1E8
100
AcDbEntity
  8
0
100
AcDbBlockBegin
  2
*D11
 70
     1
 10
0.0
 20
0.0
 30
0.0
  3
*D11
  1
*D11
  0
LINE
  5
1EB
330
1E8
100
AcDbEntity
  8
0
  6
Continuous
 62
     0
370
    -2
100
AcDbLine
 10
156.6375
 20
0.0286142810909402
 30
0.0
 11
175.5750000000003
 21
0.0286142810910093
 31
0.0
  0
LINE
  5
1EC
330
1E8
100
AcDbEntity
  8
0
  6
Continuous
 62
     0
370
    -2
100
AcDbLine
 10
156.6375
 20
28.60361428109094
 30
0.0
 11
175.5750000000002
 21
28.60361428109101
 31
0.0
  0
LINE
  5
1ED
330
1E8
100
AcDbEntity
  8
0
  6
Continuous
 62
     0
370
    -2
100
AcDbLine
 10
175.5750000000002
 20
28.60361428109101
 30
0.0
 11
175.575
 21
73.57903870368457
 31
0.0
  0
LINE
  5
1EE
330
1E8
100
AcDbEntity
  8
0
  6
Continuous
 62
     0
370
    -2
100
AcDbLine
 10
175.5750000000003
 20
3.330614281091009
 30
0.0
 11
175.5750000000002
 21
25.30161428109101
 31
0.0
  0
SOLID
  5
1EF
330
1E8
100
AcDbEntity
  8
0
 62
     0
100
AcDbTrace
 10
175.0246666666669
 20
3.330614281091007
 30
0.0
 11
176.1253333333336
 21
3.330614281091011
 31
0.0
 12
175.5750000000003
 22
0.0286142810910093
 32
0.0
 13
175.5750000000003
 23
0.0286142810910093
 33
0.0
  0
SOLID
  5
1F0
330
1E8
100
AcDbEntity
  8
0
 62
     0
100
AcDbTrace
 10
176.1253333333335
 20
25.30161428109101
 30
0.0
 11
175.0246666666668
 21
25.30161428109101
 31
0.0
 12
175.5750000000002
 22
28.60361428109101
 32
0.0
 13
175.5750000000002
 23
28.60361428109101
 33
0.0
  0
MTEXT
  5
1F1
330
1E8
100
AcDbEntity
  8
0
 62
     0
370
    15
100
AcDbMText
 10
171.2
 20
57.39153870368457
 30
0.0
 40
3.5
 41
0.0
 71
     2
 72
     1
  1
\A1;%%c28.58 [1 1/8]
  7
SLDTEXTSTYLE0
 11
-3.978542002506247E-15
 21
1.0
 31
0.0
 73
     1
 44
1.0
  0
POINT
  5
1F2
330
1E8
100
AcDbEntity
  8
Defpoints
 62
     0
100
AcDbPoint
 10
156.575
 20
0.02861428109094
 30
0.0
  0
POINT
  5
1F3
330
1E8
100
AcDbEntity
  8
Defpoints
 62
     0
100
AcDbPoint
 10
156.575
 20
28.60361428109094
 30
0.0
  0
POINT
  5
1F4
330
1E8
100
AcDbEntity
  8
Defpoints
 62
     0
100
AcDbPoint
 10
175.5750000000002
 20
28.60361428109101
 30
0.0
  0
ENDBLK
  5
1EA
330
1E8
100
AcDbEntity
  8
0
100
AcDbBlockEnd
  0
BLOCK
  5
22E
330
22D
100
AcDbEntity
  8
0
100
AcDbBlockBegin
  2
*D12
 70
     1
 10
0.0
 20
0.0
 30
0.0
  3
*D12
  1
*D12
  0
LINE
  5
230
330
22D
100
AcDbEntity
  8
0
  6
Continuous
 62
     0
370
    -2
100
AcDbLine
 10
233.3825598014228
 20
-43.37202113906143
 30
0.0
 11
233.3825598014228
 21
-31.17120156381102
 31
0.0
  0
LINE
  5
231
330
22D
100
AcDbEntity
  8
0
  6
Continuous
 62
     0
370
    -2
100
AcDbLine
 10
157.1825598014228
 20
-44.95952113906147
 30
0.0
 11
157.1825598014228
 21
-31.17120156381102
 31
0.0
  0
LINE
  5
232
330
22D
100
AcDbEntity
  8
0
  6
Continuous
 62
     0
370
    -2
100
AcDbLine
 10
230.0805598014228
 20
-31.17120156381102
 30
0.0
 11
160.4845598014228
 21
-31.17120156381102
 31
0.0
  0
SOLID
  5
233
330
22D
100
AcDbEntity
  8
0
 62
     0
100
AcDbTrace
 10
230.0805598014228
 20
-31.72153489714436
 30
0.0
 11
230.0805598014228
 21
-30.62086823047769
 31
0.0
 12
233.3825598014228
 22
-31.17120156381102
 32
0.0
 13
233.3825598014228
 23
-31.17120156381102
 33
0.0
  0
SOLID
  5
234
330
22D
100
AcDbEntity
  8
0
 62
     0
100
AcDbTrace
 10
160.4845598014228
 20
-30.62086823047769
 30
0.0
 11
160.4845598014228
 21
-31.72153489714436
 31
0.0
 12
157.1825598014228
 22
-31.17120156381102
 32
0.0
 13
157.1825598014228
 23
-31.17120156381102
 33
0.0
  0
MTEXT
  5
235
330
22D
100
AcDbEntity
  8
0
 62
     0
370
    15
100
AcDbMText
 10
196.215838009333
 20
-26.79620156381102
 30
0.0
 40
3.5
 41
0.0
 71
     2
 72
     1
  1
\A1;76.20 [3]
  7
SLDTEXTSTYLE0
 73
     1
 44
1.0
  0
POINT
  5
236
330
22D
100
AcDbEntity
  8
Defpoints
 62
     0
100
AcDbPoint
 10
233.3825598014228
 20
-43.43452113906143
 30
0.0
  0
POINT
  5
237
330
22D
100
AcDbEntity
  8
Defpoints
 62
     0
100
AcDbPoint
 10
157.1825598014228
 20
-45.02202113906147
 30
0.0
  0
POINT
  5
238
330
22D
100
AcDbEntity
  8
Defpoints
 62
     0
100
AcDbPoint
 10
157.1825598014228
 20
-31.17120156381102
 30
0.0
  0
ENDBLK
  5
22F
330
22D
100
AcDbEntity
  8
0
100
AcDbBlockEnd
  0
BLOCK
  5
23A
330
239
100
AcDbEntity
  8
0
100
AcDbBlockBegin
  2
*D13
 70
     1
 10
0.0
 20
0.0
 30
0.0
  3
*D13
  1
*D13
  0
LINE
  5
23C
330
239
100
AcDbEntity
  8
0
  6
Continuous
 62
     0
370
    -2
100
AcDbLine
 10
233.4450598014228
 20
-72.00952113906143
 30
0.0
 11
252.382559801423
 21
-72.00952113906136
 31
0.0
  0
LINE
  5
23D
330
239
100
AcDbEntity
  8
0
  6
Continuous
 62
     0
370
    -2
100
AcDbLine
 10
233.4450598014228
 20
-43.43452113906143
 30
0.0
 11
252.3825598014229
 21
-43.43452113906136
 31
0.0
  0
LINE
  5
23E
330
239
100
AcDbEntity
  8
0
  6
Continuous
 62
     0
370
    -2
100
AcDbLine
 10
252.3825598014229
 20
-43.43452113906136
 30
0.0
 11
252.3825598014227
 21
1.540903283532209
 31
0.0
  0
LINE
  5
23F
330
239
100
AcDbEntity
  8
0
  6
Continuous
 62
     0
370
    -2
100
AcDbLine
 10
252.382559801423
 20
-68.70752113906136
 30
0.0
 11
252.3825598014229
 21
-46.73652113906136
 31
0.0
  0
SOLID
  5
240
330
239
100
AcDbEntity
  8
0
 62
     0
100
AcDbTrace
 10
251.8322264680897
 20
-68.70752113906136
 30
0.0
 11
252.9328931347563
 21
-68.70752113906136
 31
0.0
 12
252.382559801423
 22
-72.00952113906136
 32
0.0
 13
252.382559801423
 23
-72.00952113906136
 33
0.0
  0
SOLID
  5
241
330
239
100
AcDbEntity
  8
0
 62
     0
100
AcDbTrace
 10
252.9328931347562
 20
-46.73652113906136
 30
0.0
 11
251.8322264680895
 21
-46.73652113906136
 31
0.0
 12
252.3825598014229
 22
-43.43452113906136
 32
0.0
 13
252.3825598014229
 23
-43.43452113906136
 33
0.0
  0
MTEXT
  5
242
330
239
100
AcDbEntity
  8
0
 62
     0
370
    15
100
AcDbMText
 10
248.0075598014228
 20
-14.64659671646781
 30
0.0
 40
3.5
 41
0.0
 71
     2
 72
     1
  1
\A1;%%c28.58 [1 1/8]
  7
SLDTEXTSTYLE0
 11
-3.978542002506247E-15
 21
1.0
 31
0.0
 73
     1
 44
1.0
  0
POINT
  5
243
330
239
100
AcDbEntity
  8
Defpoints
 62
     0
100
AcDbPoint
 10
233.3825598014228
 20
-72.00952113906143
 30
0.0
  0
POINT
  5
244
330
239
100
AcDbEntity
  8
Defpoints
 62
     0
100
AcDbPoint
 10
233.3825598014228
 20
-43.43452113906143
 30
0.0
  0
POINT
  5
245
330
239
100
AcDbEntity
  8
Defpoints
 62
     0
100
AcDbPoint
 10
252.3825598014229
 20
-43.43452113906136
 30
0.0
  0
ENDBLK
  5
23B
330
239
100
AcDbEntity
  8
0
100
AcDbBlockEnd
  0
BLOCK
  5
247
330
246
100
AcDbEntity
  8
0
100
AcDbBlockBegin
  2
*D14
 70
     1
 10
0.0
 20
0.0
 30
0.0
  3
*D14
  1
*D14
  0
LINE
  5
249
330
246
100
AcDbEntity
  8
0
  6
Continuous
 62
     0
370
    -2
100
AcDbLine
 10
-61.56249999999997
 20
12.7
 30
0.0
 11
-74.00000000000004
 21
12.69999999999995
 31
0.0
  0
LINE
  5
24A
330
246
100
AcDbEntity
  8
0
  6
Continuous
 62
     0
370
    -2
100
AcDbLine
 10
-60.5625
 20
-12.70000000000002
 30
0.0
 11
-73.99999999999996
 21
-12.70000000000007
 31
0.0
  0
LINE
  5
24B
330
246
100
AcDbEntity
  8
0
  6
Continuous
 62
     0
370
    -2
100
AcDbLine
 10
-74.00000000000003
 20
9.39799999999995
 30
0.0
 11
-73.99999999999997
 21
-9.398000000000074
 31
0.0
  0
SOLID
  5
24C
330
246
100
AcDbEntity
  8
0
 62
     0
100
AcDbTrace
 10
-73.4496666666667
 20
9.397999999999952
 30
0.0
 11
-74.55033333333336
 21
9.397999999999948
 31
0.0
 12
-74.00000000000004
 22
12.69999999999995
 32
0.0
 13
-74.00000000000004
 23
12.69999999999995
 33
0.0
  0
SOLID
  5
24D
330
246
100
AcDbEntity
  8
0
 62
     0
100
AcDbTrace
 10
-74.5503333333333
 20
-9.398000000000076
 30
0.0
 11
-73.44966666666664
 21
-9.398000000000073
 31
0.0
 12
-73.99999999999996
 22
-12.70000000000007
 32
0.0
 13
-73.99999999999996
 23
-12.70000000000007
 33
0.0
  0
MTEXT
  5
24E
330
246
100
AcDbEntity
  8
0
 62
     0
370
    15
100
AcDbMText
 10
-78.375
 20
-0.0000000000000216
 30
0.0
 40
3.5
 41
0.0
 71
     2
 72
     1
  1
\A1;%%c25.40 [1]
  7
SLDTEXTSTYLE0
 11
-3.356894814614643E-15
 21
1.0
 31
0.0
 73
     1
 44
1.0
  0
POINT
  5
24F
330
246
100
AcDbEntity
  8
Defpoints
 62
     0
100
AcDbPoint
 10
-61.49999999999997
 20
12.7
 30
0.0
  0
POINT
  5
250
330
246
100
AcDbEntity
  8
Defpoints
 62
     0
100
AcDbPoint
 10
-60.5
 20
-12.70000000000002
 30
0.0
  0
POINT
  5
251
330
246
100
AcDbEntity
  8
Defpoints
 62
     0
100
AcDbPoint
 10
-73.99999999999996
 20
-12.70000000000007
 30
0.0
  0
ENDBLK
  5
248
330
246
100
AcDbEntity
  8
0
100
AcDbBlockEnd
  0
BLOCK
  5
253
330
252
100
AcDbEntity
  8
0
100
AcDbBlockBegin
  2
*D15
 70
     1
 10
0.0
 20
0.0
 30
0.0
  3
*D15
  1
*D15
  0
LINE
  5
255
330
252
100
AcDbEntity
  8
0
  6
Continuous
 62
     0
370
    -2
100
AcDbLine
 10
78.20000000000002
 20
14.35
 30
0.0
 11
78.20000000000002
 21
42.57707860462924
 31
0.0
  0
LINE
  5
256
330
252
100
AcDbEntity
  8
0
  6
Continuous
 62
     0
370
    -2
100
AcDbLine
 10
-61.49999999999997
 20
12.7625
 30
0.0
 11
-61.49999999999997
 21
42.57707860462924
 31
0.0
  0
LINE
  5
257
330
252
100
AcDbEntity
  8
0
  6
Continuous
 62
     0
370
    -2
100
AcDbLine
 10
74.89800000000002
 20
42.57707860462924
 30
0.0
 11
-58.19799999999997
 21
42.57707860462924
 31
0.0
  0
SOLID
  5
258
330
252
100
AcDbEntity
  8
0
 62
     0
100
AcDbTrace
 10
74.89800000000002
 20
42.02674527129591
 30
0.0
 11
74.89800000000002
 21
43.12741193796258
 31
0.0
 12
78.20000000000002
 22
42.57707860462924
 32
0.0
 13
78.20000000000002
 23
42.57707860462924
 33
0.0
  0
SOLID
  5
259
330
252
100
AcDbEntity
  8
0
 62
     0
100
AcDbTrace
 10
-58.19799999999997
 20
43.12741193796258
 30
0.0
 11
-58.19799999999997
 21
42.02674527129591
 31
0.0
 12
-61.49999999999997
 22
42.57707860462924
 32
0.0
 13
-61.49999999999997
 23
42.57707860462924
 33
0.0
  0
MTEXT
  5
25A
330
252
100
AcDbEntity
  8
0
 62
     0
370
    15
100
AcDbMText
 10
8.350000000000023
 20
46.95207860462924
 30
0.0
 40
3.5
 41
0.0
 71
     2
 72
     1
  1
\A1;139.70 [5 1/2]
  7
SLDTEXTSTYLE0
 73
     1
 44
1.0
  0
POINT
  5
25B
330
252
100
AcDbEntity
  8
Defpoints
 62
     0
100
AcDbPoint
 10
78.20000000000002
 20
14.2875
 30
0.0
  0
POINT
  5
25C
330
252
100
AcDbEntity
  8
Defpoints
 62
     0
100
AcDbPoint
 10
-61.49999999999997
 20
12.7
 30
0.0
  0
POINT
  5
25D
330
252
100
AcDbEntity
  8
Defpoints
 62
     0
100
AcDbPoint
 10
-61.49999999999997
 20
42.57707860462924
 30
0.0
  0
ENDBLK
  5
254
330
252
100
AcDbEntity
  8
0
100
AcDbBlockEnd
  0
ENDSEC
  0
SECTION
  2
ENTITIES
  0
LINE
  5
96
330
1F
100
AcDbEntity
  8
0
  6
Continuous
 62
     1
370
    15
100
AcDbLine
 10
28.19106967193754
 20
4.525300610771887
 30
0.0
 11
28.12067904651331
 21
4.564079741703744
 31
0.0
  0
SPLINE
  5
97
330
1F
100
AcDbEntity
  8
0
  6
Continuous
 62
     1
370
    15
100
AcDbSpline
210
0.0
220
0.0
230
1.0
 70
     8
 71
     3
 72
    18
 73
    14
 74
     0
 42
0.000000001
 43
0.00000001
 40
0.0
 40
0.0
 40
0.0
 40
0.0
 40
0.1319689301484325
 40
0.2346867415310944
 40
0.310508445069367
 40
0.3867059928851189
 40
0.471521043466721
 40
0.5770331245810905
 40
0.6601817204542391
 40
0.7067214171611969
 40
0.7788160928706085
 40
0.8765733342947845
 40
1.0
 40
1.0
 40
1.0
 40
1.0
 10
37.07126523617749
 20
4.067971469818024
 30
0.0
 10
36.8811710717511
 20
4.157298519889104
 30
0.0
 10
36.54311741030879
 20
4.316153140353083
 30
0.0
 10
36.09059447350434
 20
4.533452739840811
 30
0.0
 10
35.70992382202133
 20
4.718504708231958
 30
0.0
 10
35.35783005857983
 20
4.891546723677592
 30
0.0
 10
34.96525181079787
 20
5.086735911530316
 30
0.0
 10
34.56417379652463
 20
5.288519287859985
 30
0.0
 10
34.2204216081599
 20
5.46324439812825
 30
0.0
 10
33.92521228800184
 20
5.614375384477883
 30
0.0
 10
33.60704667408948
 20
5.778356606719425
 30
0.0
 10
33.17551364897728
 20
6.002651139796462
 30
0.0
 10
32.84968788239568
 20
6.174650665352852
 30
0.0
 10
32.66786819898407
 20
6.270631101804248
 30
0.0
  0
SPLINE
  5
98
330
1F
100
AcDbEntity
  8
0
  6
Continuous
 62
     1
370
    15
100
AcDbSpline
210
0.0
220
0.0
230
1.0
 70
     8
 71
     3
 72
    23
 73
    19
 74
     0
 42
0.000000001
 43
0.00000001
 40
0.0
 40
0.0
 40
0.0
 40
0.0
 40
0.0768438085002654
 40
0.1391688933280111
 40
0.1874722965935469
 40
0.2239011121880271
 40
0.257358667521246
 40
0.2895626459166527
 40
0.3210843285445057
 40
0.4123700786572215
 40
0.5105462666651339
 40
0.5757065523118865
 40
0.6498249819795432
 40
0.7244339060679618
 40
0.7865602928745897
 40
0.848951739533497
 40
0.9190374136916332
 40
1.0
 40
1.0
 40
1.0
 40
1.0
 10
31.82305542095379
 20
12.61489277355487
 30
0.0
 10
31.50224909466097
 20
12.59821080667834
 30
0.0
 10
30.92124898191094
 20
12.56799873215924
 30
0.0
 10
30.1245052852731
 20
12.53200882672689
 30
0.0
 10
29.48543287815041
 20
12.50667497412767
 30
0.0
 10
28.96752903204746
 20
12.4886421066819
 30
0.0
 10
28.52049840396218
 20
12.47369234625583
 30
0.0
 10
28.09753535353096
 20
12.46078505264924
 30
0.0
 10
27.43961542911557
 20
12.4426581024187
 30
0.0
 10
26.48740568173132
 20
12.4211320605677
 30
0.0
 10
25.39112247993199
 20
12.40540885628057
 30
0.0
 10
24.36811120624827
 20
12.39796290206066
 30
0.0
 10
23.4469892817118
 20
12.39679786855316
 30
0.0
 10
22.53912565939347
 20
12.40149437595248
 30
0.0
 10
21.68149002470102
 20
12.41098530319261
 30
0.0
 10
20.84330145296686
 20
12.42492879339444
 30
0.0
 10
19.92404207919928
 20
12.44467984792885
 30
0.0
 10
19.27352065762691
 20
12.46502387825655
 30
0.0
 10
18.92483808043712
 20
12.47592837531053
 30
0.0
  0
SPLINE
  5
99
330
1F
100
AcDbEntity
  8
0
  6
Continuous
 62
     1
370
    15
100
AcDbSpline
210
0.0
220
0.0
230
1.0
 70
     8
 71
     3
 72
    42
 73
    38
 74
     0
 42
0.000000001
 43
0.00000001
 40
0.0
 40
0.0
 40
0.0
 40
0.0
 40
0.0322840646950249
 40
0.0586779780752276
 40
0.079225186626994
 40
0.0941713512311868
 40
0.106890835966468
 40
0.1342629975464115
 40
0.1649681483599893
 40
0.2045784346761596
 40
0.2470450533273167
 40
0.2921253493172584
 40
0.3235596089763005
 40
0.3526112865486567
 40
0.3876721083080704
 40
0.4227759927015809
 40
0.4511924415705558
 40
0.4749743406743311
 40
0.4984413658194006
 40
0.5348753537660719
 40
0.5678174519944449
 40
0.6022752312696181
 40
0.6394078248227016
 40
0.6779162043651281
 40
0.7015942915258664
 40
0.7294417227590029
 40
0.7588686575810447
 40
0.7853106487950985
 40
0.8089005432598694
 40
0.8223905298206323
 40
0.8349164320846382
 40
0.8483257422292965
 40
0.8672231471119137
 40
0.8918055964875171
 40
0.9221434280090024
 40
0.9582313382946008
 40
0.9999999999999999
 40
0.9999999999999999
 40
0.9999999999999999
 40
0.9999999999999999
 10
72.30158079214984
 20
10.85774692319598
 30
0.0
 10
72.01959680095233
 20
10.83392456138039
 30
0.0
 10
71.50707613140968
 20
10.79062617136908
 30
0.0
 10
70.79951200885229
 20
10.73624606941766
 30
0.0
 10
70.2335483890196
 20
10.69610001063042
 30
0.0
 10
69.77469764439869
 20
10.66700957475448
 30
0.0
 10
69.2493259423193
 20
10.63579887766371
 30
0.0
 10
68.57620218314415
 20
10.59768565389308
 30
0.0
 10
67.66016160326335
 20
10.55259807575319
 30
0.0
 10
66.61443603919355
 20
10.51067289511969
 30
0.0
 10
65.4538430503039
 20
10.47620730609645
 30
0.0
 10
64.35097896746298
 20
10.45556722202298
 30
0.0
 10
63.37358087772512
 20
10.44702992791446
 30
0.0
 10
62.4891764028411
 20
10.44619685508177
 30
0.0
 10
61.58538974139545
 20
10.45269116992997
 30
0.0
 10
60.68601176956962
 20
10.4668917843687
 30
0.0
 10
59.87387571233946
 20
10.48665941068955
 30
0.0
 10
59.15986299722487
 20
10.50902104610092
 30
0.0
 10
58.37820966468947
 20
10.53802606227191
 30
0.0
 10
57.51953775914929
 20
10.57645001450903
 30
0.0
 10
56.55791398740989
 20
10.6280092197034
 30
0.0
 10
55.59017398753127
 20
10.68810693273505
 30
0.0
 10
54.57071587577714
 20
10.76034833472941
 30
0.0
 10
53.65169057498466
 20
10.83400984687557
 30
0.0
 10
52.81820721716965
 20
10.9071590345446
 30
0.0
 10
52.06863104530819
 20
10.97776497154456
 30
0.0
 10
51.29311819776555
 20
11.05601129474274
 30
0.0
 10
50.55763251337449
 20
11.13494948555933
 30
0.0
 10
49.97026384344222
 20
11.20137215362517
 30
0.0
 10
49.51207068739856
 20
11.25513574842894
 30
0.0
 10
49.14840429633779
 20
11.29889120072161
 30
0.0
 10
48.73505371485106
 20
11.34984987009816
 30
0.0
 10
48.20914236806942
 20
11.41664877980119
 30
0.0
 10
47.52619325059451
 20
11.50683135138993
 30
0.0
 10
46.68287029728207
 20
11.62314811287
 30
0.0
 10
45.67911655012607
 20
11.76803213741529
 30
0.0
 10
44.95579372130125
 20
11.88004573416973
 30
0.0
 10
44.56774392963471
 20
11.94013903020879
 30
0.0
  0
SPLINE
  5
9A
330
1F
100
AcDbEntity
  8
0
  6
Continuous
 62
     1
370
    15
100
AcDbSpline
210
0.0
220
0.0
230
1.0
 70
     8
 71
     3
 72
    24
 73
    20
 74
     0
 42
0.000000001
 43
0.00000001
 40
0.0
 40
0.0
 40
0.0
 40
0.0
 40
0.0974777228032491
 40
0.1788937962621098
 40
0.2440736957254347
 40
0.2930100090429457
 40
0.3333475657927572
 40
0.3678876410609526
 40
0.4016431447693545
 40
0.4348872587605428
 40
0.4694234360019847
 40
0.5060257384707748
 40
0.5446984558749308
 40
0.6150696990897426
 40
0.6821531835646784
 40
0.7577285362157317
 40
0.8754430670248528
 40
0.980777284552083
 40
1.0
 40
1.0
 40
1.0
 40
1.0
 10
44.56774392963471
 20
-11.94013903020881
 30
0.0
 10
44.94987964203014
 20
-11.88094244335456
 30
0.0
 10
45.65118560519596
 20
-11.772303240021
 30
0.0
 10
46.60963881227545
 20
-11.63363843007617
 30
0.0
 10
47.38032496726963
 20
-11.5267700350537
 30
0.0
 10
47.99164329919355
 20
-11.44521842175387
 30
0.0
 10
48.48930850837343
 20
-11.38084918107955
 30
0.0
 10
48.92371731859273
 20
-11.326177403589
 30
0.0
 10
49.32490835790237
 20
-11.27722071664629
 30
0.0
 10
49.71482316087906
 20
-11.23110610057809
 30
0.0
 10
50.11734410013926
 20
-11.18467039285455
 30
0.0
 10
50.54535988519264
 20
-11.13669887062074
 30
0.0
 10
51.11747373559283
 20
-11.07465926404002
 30
0.0
 10
51.81074855932415
 20
-11.00318464595888
 30
0.0
 10
52.6485587410459
 20
-10.9224747026785
 30
0.0
 10
53.67355373418933
 20
-10.83119572572326
 30
0.0
 10
54.84936254924369
 20
-10.73960015212945
 30
0.0
 10
55.80358999855623
 20
-10.67273443490695
 30
0.0
 10
56.29380138722765
 20
-10.64562879778667
 30
0.0
 10
56.36945509680989
 20
-10.64144561876201
 30
0.0
  0
SPLINE
  5
9B
330
1F
100
AcDbEntity
  8
0
  6
Continuous
 62
     1
370
    15
100
AcDbSpline
210
0.0
220
0.0
230
1.0
 70
     8
 71
     3
 72
    37
 73
    33
 74
     0
 42
0.000000001
 43
0.00000001
 40
0.0
 40
0.0
 40
0.0
 40
0.0
 40
0.0404305239392711
 40
0.0733685432787758
 40
0.0991003995503432
 40
0.1187915571624202
 40
0.137126991643186
 40
0.155018582175118
 40
0.1726650138972588
 40
0.2212106851558243
 40
0.2744531016367187
 40
0.3100448491095243
 40
0.3494719608958496
 40
0.388631668545914
 40
0.4213879745609599
 40
0.4595839592820791
 40
0.5036123890441874
 40
0.5446152660128212
 40
0.5810806910275638
 40
0.6190043692003281
 40
0.6641407905740644
 40
0.7056620816199949
 40
0.7418864517324351
 40
0.7759561710591467
 40
0.809350094581535
 40
0.840981426710957
 40
0.8731648201753991
 40
0.8892202801259754
 40
0.9084582101786904
 40
0.9332061388260235
 40
0.9636599678306828
 40
1.0
 40
1.0
 40
1.0
 40
1.0
 10
7.948141809817233
 20
-13.21020510678759
 30
0.0
 10
8.260439240407624
 20
-13.17928811554753
 30
0.0
 10
8.827159760441885
 20
-13.12318360863455
 30
0.0
 10
9.606623749151716
 20
-13.05041453596919
 30
0.0
 10
10.23703800775426
 20
-12.9948814574311
 30
0.0
 10
10.75198814168265
 20
-12.95191290650053
 30
0.0
 10
11.20422198886168
 20
-12.91462483299707
 30
0.0
 10
11.63818203151112
 20
-12.87999483502792
 30
0.0
 10
12.30115930483962
 20
-12.82893569587568
 30
0.0
 10
13.25321965759652
 20
-12.75991785153235
 30
0.0
 10
14.34855093152393
 20
-12.68880289946428
 30
0.0
 10
15.37152721840568
 20
-12.62942253752398
 30
0.0
 10
16.28186120241944
 20
-12.58178764869771
 30
0.0
 10
17.1693786223606
 20
-12.54069121457541
 30
0.0
 10
18.04744823653181
 20
-12.50486157698595
 30
0.0
 10
18.96426129739648
 20
-12.47263799690042
 30
0.0
 10
19.94675867432335
 20
-12.44451134511264
 30
0.0
 10
20.91551981607282
 20
-12.42329870985905
 30
0.0
 10
21.8356884227552
 20
-12.408802117488
 30
0.0
 10
22.78866586484483
 20
-12.3994572524838
 30
0.0
 10
23.78177014796919
 20
-12.39635360635315
 30
0.0
 10
24.76157758751863
 20
-12.40007115385239
 30
0.0
 10
25.65362346525605
 20
-12.40901265773119
 30
0.0
 10
26.47953229100617
 20
-12.42193497170153
 30
0.0
 10
27.27178721924448
 20
-12.43868282450013
 30
0.0
 10
28.03330692960055
 20
-12.45842617522593
 30
0.0
 10
28.68073137736491
 20
-12.47883824893905
 30
0.0
 10
29.22705611048762
 20
-12.49760407149304
 30
0.0
 10
29.71449759089077
 20
-12.51544000369138
 30
0.0
 10
30.30800262464268
 20
-12.54011276945184
 30
0.0
 10
31.02630784935115
 20
-12.57333101224549
 30
0.0
 10
31.54231519633637
 20
-12.6002481626124
 30
0.0
 10
31.82305542095379
 20
-12.61489277355489
 30
0.0
  0
SPLINE
  5
9C
330
1F
100
AcDbEntity
  8
0
  6
Continuous
 62
     1
370
    15
100
AcDbSpline
210
0.0
220
0.0
230
1.0
 70
     8
 71
     3
 72
    70
 73
    66
 74
     0
 42
0.000000001
 43
0.00000001
 40
0.0
 40
0.0
 40
0.0
 40
0.0
 40
0.03125
 40
0.03125
 40
0.0625
 40
0.0625
 40
0.09375
 40
0.09375
 40
0.125
 40
0.125
 40
0.15625
 40
0.15625
 40
0.1875
 40
0.1875
 40
0.2187499999999998
 40
0.2187499999999998
 40
0.2499999999999997
 40
0.2499999999999997
 40
0.2812499999999997
 40
0.2812499999999997
 40
0.3124999999999997
 40
0.3124999999999997
 40
0.3437499999999997
 40
0.3437499999999997
 40
0.3749999999999997
 40
0.3749999999999997
 40
0.4062499999999997
 40
0.4062499999999997
 40
0.4374999999999997
 40
0.4374999999999997
 40
0.4687499999999998
 40
0.4687499999999998
 40
0.4999999999999998
 40
0.4999999999999998
 40
0.5312499999999998
 40
0.5312499999999998
 40
0.5624999999999998
 40
0.5624999999999998
 40
0.5937499999999998
 40
0.5937499999999998
 40
0.6249999999999998
 40
0.6249999999999998
 40
0.6562499999999999
 40
0.6562499999999999
 40
0.6874999999999999
 40
0.6874999999999999
 40
0.7187499999999999
 40
0.7187499999999999
 40
0.7499999999999999
 40
0.7499999999999999
 40
0.7812499999999999
 40
0.7812499999999999
 40
0.8124999999999999
 40
0.8124999999999999
 40
0.8437499999999999
 40
0.8437499999999999
 40
0.8749999999999999
 40
0.8749999999999999
 40
0.90625
 40
0.90625
 40
0.9375
 40
0.9375
 40
0.96875
 40
0.96875
 40
1.0
 40
1.0
 40
1.0
 40
1.0
 10
78.20000000000005
 20
-15.8615826917706
 30
0.0
 10
77.40870592103259
 20
-15.84276481572523
 30
0.0
 10
76.61336610412836
 20
-15.80409197306601
 30
0.0
 10
75.02351123068836
 20
-15.6872898044615
 30
0.0
 10
74.231174497899
 20
-15.60925475767797
 30
0.0
 10
72.64588482682726
 20
-15.41442391364457
 30
0.0
 10
71.85001985523915
 20
-15.29746890244051
 30
0.0
 10
70.26078544450866
 20
-15.02569817395005
 30
0.0
 10
69.47007893662983
 20
-14.87109507674423
 30
0.0
 10
67.88270228715827
 20
-14.52476127912951
 30
0.0
 10
67.08662360869563
 20
-14.33301532393771
 30
0.0
 10
65.49862931648218
 20
-13.91450554580046
 30
0.0
 10
64.70817805901767
 20
-13.68792992652091
 30
0.0
 10
63.11933167326565
 20
-13.20038696423619
 30
0.0
 10
62.3233510151147
 20
-12.93961099305794
 30
0.0
 10
60.7372148856243
 20
-12.38703514315976
 30
0.0
 10
59.94564357277092
 20
-12.09511186798094
 30
0.0
 10
58.35594660212107
 20
-11.48094416336093
 30
0.0
 10
57.5603755633156
 20
-11.15899247913232
 30
0.0
 10
55.97671322884865
 20
-10.48907555758657
 30
0.0
 10
55.18264800838298
 20
-10.14028056343564
 30
0.0
 10
53.59272071015817
 20
-9.417919093228248
 30
0.0
 10
52.79942942564355
 20
-9.044751001520506
 30
0.0
 10
51.21507087424541
 20
-8.277140999267818
 30
0.0
 10
50.41936449582477
 20
-7.881935162018942
 30
0.0
 10
48.82982742694691
 20
-7.073094120257318
 30
0.0
 10
48.03867624542167
 20
-6.659942410947857
 30
0.0
 10
46.45200227296745
 20
-5.817291443114141
 30
0.0
 10
45.65596653960172
 20
-5.387679129361352
 30
0.0
 10
44.06743974943243
 20
-4.516690922987334
 30
0.0
 10
43.27705427350318
 20
-4.075721997639264
 30
0.0
 10
41.68868121006146
 20
-3.183297881600007
 30
0.0
 10
40.8926277927878
 20
-2.732190492072188
 30
0.0
 10
39.3057300173548
 20
-1.825259883992324
 30
0.0
 10
38.51473485583114
 20
-1.36941665941514
 30
0.0
 10
36.92528123767869
 20
-0.4540176145493352
 30
0.0
 10
36.12952183065484
 20
0.0050211760942026
 30
0.0
 10
34.54486969046177
 20
0.920620406445548
 30
0.0
 10
33.75189024347581
 20
1.377968418506822
 30
0.0
 10
32.16197601145196
 20
2.288833445540157
 30
0.0
 10
31.36754121399628
 20
2.74186753349947
 30
0.0
 10
29.78419827729475
 20
3.638920654086118
 30
0.0
 10
28.98869337008886
 20
4.08418175489689
 30
0.0
 10
27.39893906411822
 20
4.963135268179915
 30
0.0
 10
26.60715386522725
 20
5.396384546142249
 30
0.0
 10
25.02126747840428
 20
6.248758220308263
 30
0.0
 10
24.22531762749619
 20
6.66819593590426
 30
0.0
 10
22.63634357947574
 20
7.488830222451691
 30
0.0
 10
21.84583440443798
 20
7.889621711518352
 30
0.0
 10
20.25801987588972
 20
8.671645174452777
 30
0.0
 10
19.46193664003961
 20
9.05264166887904
 30
0.0
 10
17.8743621672938
 20
9.790327049341514
 30
0.0
 10
17.08375378548375
 20
10.14691703937421
 30
0.0
 10
15.49462892593124
 20
10.83502991366276
 30
0.0
 10
14.6987240382842
 20
11.16613192196195
 30
0.0
 10
13.11316663978923
 20
11.79876963999273
 30
0.0
 10
12.32108394934962
 20
12.10066053029684
 30
0.0
 10
10.73126827217068
 20
12.67413625385952
 30
0.0
 10
9.935853232710881
 20
12.94540587056784
 30
0.0
 10
8.352927790276047
 20
13.45410210790965
 30
0.0
 10
7.557997602449321
 20
13.69232726071611
 30
0.0
 10
5.968111519367965
 20
14.1339093497625
 30
0.0
 10
5.175503072740219
 20
14.33707508463889
 30
0.0
 10
3.590489039397406
 20
14.70712337777492
 30
0.0
 10
2.794667992838233
 20
14.87423757535121
 30
0.0
 10
2.000000000000041
 20
15.02245316348581
 30
0.0
  0
SPLINE
  5
9D
330
1F
100
AcDbEntity
  8
0
  6
Continuous
 62
     1
370
    15
100
AcDbSpline
210
0.0
220
0.0
230
1.0
 70
     8
 71
     3
 72
    18
 73
    14
 74
     0
 42
0.000000001
 43
0.00000001
 40
0.0
 40
0.0
 40
0.0
 40
0.0
 40
0.0051729591575281
 40
0.1129574823418261
 40
0.2207529581175475
 40
0.3285510417978973
 40
0.4363378468686798
 40
0.5441154054540889
 40
0.6352692255526537
 40
0.726415566745338
 40
0.8175987095598372
 40
0.9088275247839265
 40
1.0
 40
1.0
 40
1.0
 40
1.0
 10
38.76603659743628
 20
-1.512429929420547
 30
0.0
 10
38.70263956873017
 20
-1.487361821144579
 30
0.0
 10
37.31829290514341
 20
-0.939970992859211
 30
0.0
 10
34.61283446693705
 20
0.1638003928427708
 30
0.0
 10
30.64960863560401
 20
1.759760545167039
 30
0.0
 10
26.68632611605331
 20
3.323872526224073
 30
0.0
 10
22.72335436346052
 20
4.817874163858543
 30
0.0
 10
18.964291259762
 20
6.140610264515362
 30
0.0
 10
15.40953125676888
 20
7.28489097282968
 30
0.0
 10
12.05812377674466
 20
8.256479063425738
 30
0.0
 10
8.705670788187197
 20
9.102508900203631
 30
0.0
 10
5.352568642484843
 20
9.824133334196457
 30
0.0
 10
3.117292737240097
 20
10.18084843608315
 30
0.0
 10
2.000000000000015
 20
10.35915089604646
 30
0.0
  0
SPLINE
  5
9E
330
1F
100
AcDbEntity
  8
외형선
  6
Continuous
370
    15
100
AcDbSpline
210
0.0
220
0.0
230
1.0
 70
    24
 71
     3
 72
    14
 73
    10
 74
     0
 42
0.000000001
 43
0.00000001
 40
0.0
 40
0.0
 40
0.0
 40
0.0
 40
0.25
 40
0.25
 40
0.5
 40
0.5
 40
0.75
 40
0.75
 40
1.0
 40
1.0
 40
1.0
 40
1.0
 10
2.000000000000026
 20
15.02245316348579
 30
0.0
 10
2.000000000000026
 20
14.68869454530031
 30
0.0
 10
2.000000000000026
 20
14.32744796282699
 30
0.0
 10
2.000000000000026
 20
13.56858929192953
 30
0.0
 10
2.000000000000026
 20
13.17110924543957
 30
0.0
 10
2.000000000000026
 20
12.3631939445203
 30
0.0
 10
2.000000000000026
 20
11.95290995258553
 30
0.0
 10
2.000000000000026
 20
11.14300692027274
 30
0.0
 10
2.000000000000026
 20
10.74350208859497
 30
0.0
 10
2.000000000000026
 20
10.35915089604646
 30
0.0
  0
SPLINE
  5
9F
330
1F
100
AcDbEntity
  8
0
  6
Continuous
 62
     1
370
    15
100
AcDbSpline
210
0.0
220
0.0
230
1.0
 70
     8
 71
     3
 72
    70
 73
    66
 74
     0
 42
0.000000001
 43
0.00000001
 40
0.0
 40
0.0
 40
0.0
 40
0.0
 40
0.0312500000000002
 40
0.0312500000000002
 40
0.0625000000000003
 40
0.0625000000000003
 40
0.0937500000000005
 40
0.0937500000000005
 40
0.1250000000000007
 40
0.1250000000000007
 40
0.1562500000000009
 40
0.1562500000000009
 40
0.1875000000000011
 40
0.1875000000000011
 40
0.218750000000001
 40
0.218750000000001
 40
0.250000000000001
 40
0.250000000000001
 40
0.2812500000000009
 40
0.2812500000000009
 40
0.3125000000000009
 40
0.3125000000000009
 40
0.3437500000000008
 40
0.3437500000000008
 40
0.3750000000000008
 40
0.3750000000000008
 40
0.4062500000000008
 40
0.4062500000000008
 40
0.4375000000000007
 40
0.4375000000000007
 40
0.4687500000000007
 40
0.4687500000000007
 40
0.5000000000000006
 40
0.5000000000000006
 40
0.5312500000000007
 40
0.5312500000000007
 40
0.5625000000000006
 40
0.5625000000000006
 40
0.5937500000000006
 40
0.5937500000000006
 40
0.6250000000000004
 40
0.6250000000000004
 40
0.6562500000000004
 40
0.6562500000000004
 40
0.6875000000000003
 40
0.6875000000000003
 40
0.7187500000000003
 40
0.7187500000000003
 40
0.7500000000000002
 40
0.7500000000000002
 40
0.7812500000000002
 40
0.7812500000000002
 40
0.8125000000000002
 40
0.8125000000000002
 40
0.8437500000000001
 40
0.8437500000000001
 40
0.8750000000000001
 40
0.8750000000000001
 40
0.90625
 40
0.90625
 40
0.9375
 40
0.9375
 40
0.96875
 40
0.96875
 40
1.0
 40
1.0
 40
1.0
 40
1.0
 10
78.20000000000005
 20
-15.06443629905642
 30
0.0
 10
77.40870592103258
 20
-14.92002286398578
 30
0.0
 10
76.6133661041283
 20
-14.75653691870385
 30
0.0
 10
75.02351123068824
 20
-14.39308567225694
 30
0.0
 10
74.23117449789888
 20
-14.19332514817618
 30
0.0
 10
72.6458848268271
 20
-13.75884775241219
 30
0.0
 10
71.850019855239
 20
-13.52382894824095
 30
0.0
 10
70.26078544450844
 20
-13.02078630375062
 30
0.0
 10
69.47007893662962
 20
-12.7530972409732
 30
0.0
 10
67.88270228715803
 20
-12.1858787347712
 30
0.0
 10
67.08662360869539
 20
-11.886370423621
 30
0.0
 10
65.49862931648187
 20
-11.25890894930028
 30
0.0
 10
64.70817805901734
 20
-10.9311976865155
 30
0.0
 10
63.11933167326529
 20
-10.24818719718708
 30
0.0
 10
62.32335101511434
 20
-9.893190637863357
 30
0.0
 10
60.73721488562388
 20
-9.160245621516408
 30
0.0
 10
59.94564357277051
 20
-8.78210998450651
 30
0.0
 10
58.3559466021206
 20
-8.003780958356614
 30
0.0
 10
57.5603755633151
 20
-7.603979713079005
 30
0.0
 10
55.97671322884808
 20
-6.787666614103066
 30
0.0
 10
55.18264800838241
 20
-6.37013712237504
 30
0.0
 10
53.59272071015753
 20
-5.519862416018515
 30
0.0
 10
52.79942942564288
 20
-5.087582438707114
 30
0.0
 10
51.21507087424474
 20
-4.211818801228038
 30
0.0
 10
50.41936449582407
 20
-3.767472775406913
 30
0.0
 10
48.82982742694617
 20
-2.870809712878196
 30
0.0
 10
48.03867624542095
 20
-2.419010815380631
 30
0.0
 10
46.45200227296667
 20
-1.509675509563604
 30
0.0
 10
45.65596653960094
 20
-1.052034232520095
 30
0.0
 10
44.06743974943159
 20
-0.1359419739262695
 30
0.0
 10
43.2770542735023
 20
0.3221005762804413
 30
0.0
 10
41.68868121006054
 20
1.237698299158163
 30
0.0
 10
40.89262779278688
 20
1.694877499953948
 30
0.0
 10
39.30573001735384
 20
2.602863784431751
 30
0.0
 10
38.51473485583018
 20
3.053707409833797
 30
0.0
 10
36.92528123767769
 20
3.948046114007354
 30
0.0
 10
36.12952183065381
 20
4.39101969558838
 30
0.0
 10
34.54486969046072
 20
5.263631990950946
 30
0.0
 10
33.75189024347472
 20
5.694030184249031
 30
0.0
 10
32.16197601145084
 20
6.540219033240093
 30
0.0
 10
31.36754121399515
 20
6.955555547077004
 30
0.0
 10
29.78419827729356
 20
7.766891411321857
 30
0.0
 10
28.98869337008765
 20
8.164010669075564
 30
0.0
 10
27.39893906411697
 20
8.936613214193423
 30
0.0
 10
26.607153865226
 20
9.311720924037573
 30
0.0
 10
25.02126747840297
 20
10.0381316010215
 30
0.0
 10
24.22531762749486
 20
10.38968721300113
 30
0.0
 10
22.63634357947437
 20
11.06550039294652
 30
0.0
 10
21.84583440443659
 20
11.38944466060533
 30
0.0
 10
20.2580198758883
 20
12.0090069241765
 30
0.0
 10
19.46193664003817
 20
12.30441706571316
 30
0.0
 10
17.87436216729233
 20
12.86318103455322
 30
0.0
 10
17.08375378548225
 20
13.12648206262936
 30
0.0
 10
15.49462892592971
 20
13.62049371929361
 30
0.0
 10
14.69872403828265
 20
13.85087848523686
 30
0.0
 10
13.11316663978764
 20
14.27589507991041
 30
0.0
 10
12.32108394934801
 20
14.47078326800699
 30
0.0
 10
10.73126827216903
 20
14.82433872232947
 30
0.0
 10
9.935853232709201
 20
14.98279208037675
 30
0.0
 10
8.352927790274343
 20
15.26143264421715
 30
0.0
 10
7.557997602447584
 20
15.3820600236804
 30
0.0
 10
5.968111519366189
 20
15.58450876929629
 30
0.0
 10
5.175503072738431
 20
15.66626059292964
 30
0.0
 10
3.59048903939557
 20
15.79047943049743
 30
0.0
 10
2.79466799283638
 20
15.83299876616752
 30
0.0
 10
1.99999999999811
 20
15.85563557177594
 30
0.0
  0
SPLINE
  5
A0
330
1F
100
AcDbEntity
  8
0
  6
Continuous
 62
     1
370
    15
100
AcDbSpline
210
0.0
220
0.0
230
1.0
 70
     8
 71
     3
 72
    20
 73
    16
 74
     0
 42
0.000000001
 43
0.00000001
 40
0.0
 40
0.0
 40
0.0
 40
0.0
 40
0.0802852909679598
 40
0.1605209408533063
 40
0.2407511279770321
 40
0.3210200660637763
 40
0.4013186816545261
 40
0.4815624894320599
 40
0.5617899110857182
 40
0.6420451782667054
 40
0.7223483808950383
 40
0.8026030384693217
 40
0.882830393038678
 40
0.9630746766892017
 40
0.9999999999999999
 40
0.9999999999999999
 40
0.9999999999999999
 40
0.9999999999999999
 10
78.20000000000003
 20
-12.52493469684544
 30
0.0
 10
77.09884685254269
 20
-12.3065468723103
 30
0.0
 10
74.89722141004451
 20
-11.86990625430124
 30
0.0
 10
71.59565274255715
 20
-10.99530125690331
 30
0.0
 10
68.29431221637283
 20
-9.975263038065087
 30
0.0
 10
64.99183912909754
 20
-8.808121810050856
 30
0.0
 10
61.68882948744696
 20
-7.515548521144511
 30
0.0
 10
58.38696963527295
 20
-6.113731813857225
 30
0.0
 10
55.08574179225719
 20
-4.624090427482213
 30
0.0
 10
51.78357072032011
 20
-3.067615353862291
 30
0.0
 10
48.48048100235778
 20
-1.468104239841647
 30
0.0
 10
45.17832622077764
 20
0.1543647573978725
 30
0.0
 10
41.87709545562981
 20
1.771130757171705
 30
0.0
 10
39.1700558099455
 20
3.086110360036773
 30
0.0
 10
37.56298620883933
 20
3.832449700646791
 30
0.0
 10
37.05652752776354
 20
4.06765422310192
 30
0.0
  0
LINE
  5
A1
330
1F
100
AcDbEntity
  8
0
  6
Continuous
 62
     1
370
    15
100
AcDbLine
 10
78.20000000000003
 20
-15.06443629905642
 30
0.0
 11
78.20000000000003
 21
-12.52493469684544
 31
0.0
  0
LINE
  5
A2
330
1F
100
AcDbEntity
  8
외형선
  6
Continuous
370
    15
100
AcDbLine
 10
2.000000000000024
 20
15.0224531634858
 30
0.0
 11
2.000000000000024
 21
15.85563557176603
 31
0.0
  0
LINE
  5
A3
330
1F
100
AcDbEntity
  8
0
  6
Continuous
 62
     1
370
    15
100
AcDbLine
 10
78.20000000000003
 20
-15.8615826917706
 30
0.0
 11
78.20000000000003
 21
-15.06443629905642
 31
0.0
  0
SPLINE
  5
A4
330
1F
100
AcDbEntity
  8
0
  6
Continuous
 62
     1
370
    15
100
AcDbSpline
210
0.0
220
0.0
230
1.0
 70
     8
 71
     3
 72
    21
 73
    17
 74
     0
 42
0.000000001
 43
0.00000001
 40
0.0
 40
0.0
 40
0.0
 40
0.0
 40
0.0780000892735792
 40
0.1560090689801162
 40
0.234058307982953
 40
0.3121145629881729
 40
0.3901269004857228
 40
0.465909117556448
 40
0.541718004606762
 40
0.6175728052033025
 40
0.6933811102514096
 40
0.7691632632728272
 40
0.8449616300418286
 40
0.9208124523529514
 40
0.9966337243748336
 40
0.9999999999999999
 40
0.9999999999999999
 40
0.9999999999999999
 40
0.9999999999999999
 10
75.37944026694932
 20
1.300194242652938
 30
0.0
 10
74.24700898270972
 20
1.818713799670003
 30
0.0
 10
71.98201733996271
 20
2.855812014448785
 30
0.0
 10
68.58388693137886
 20
4.362871632270409
 30
0.0
 10
65.18460785010848
 20
5.804458931276948
 30
0.0
 10
61.7852102281036
 20
7.15700984239384
 30
0.0
 10
58.41909550239449
 20
8.389085314304298
 30
0.0
 10
55.08572122159404
 20
9.485317993695386
 30
0.0
 10
51.78353302989188
 20
10.43440430716529
 30
0.0
 10
48.48047823864648
 20
11.23261901818779
 30
0.0
 10
45.17830819509944
 20
11.86989636503337
 30
0.0
 10
41.87707076299922
 20
12.33460351705154
 30
0.0
 10
38.57517444391029
 20
12.62717742267034
 30
0.0
 10
35.2722000881412
 20
12.71703683898316
 30
0.0
 10
33.0211518549533
 20
12.70622151739876
 30
0.0
 10
31.87149195648795
 20
12.61490613383846
 30
0.0
 10
31.82261972583515
 20
12.6110243019215
 30
0.0
  0
SPLINE
  5
A5
330
1F
100
AcDbEntity
  8
0
  6
Continuous
 62
     1
370
    15
100
AcDbSpline
210
0.0
220
0.0
230
1.0
 70
     8
 71
     3
 72
     8
 73
     4
 74
     0
 42
0.000000001
 43
0.00000001
 40
0.0
 40
0.0
 40
0.0
 40
0.0
 40
1.0
 40
1.0
 40
1.0
 40
1.0
 10
75.37944026693722
 20
1.300194242658499
 30
0.0
 10
75.36240442188101
 20
0.2921095860622934
 30
0.0
 10
75.23660082360081
 20
-0.6903983468759761
 30
0.0
 10
75.0228879835563
 20
-1.652234432534703
 30
0.0
  0
SPLINE
  5
A6
330
1F
100
AcDbEntity
  8
0
  6
Continuous
 62
     1
370
    15
100
AcDbSpline
210
0.0
220
0.0
230
1.0
 70
     8
 71
     3
 72
     8
 73
     4
 74
     0
 42
0.000000001
 43
0.00000001
 40
0.0
 40
0.0
 40
0.0
 40
0.0
 40
1.0
 40
1.0
 40
1.0
 40
1.0
 10
78.20000000000003
 20
-4.242481768220611
 30
0.0
 10
77.13178050400634
 20
-3.402687243110372
 30
0.0
 10
76.07275622848772
 20
-2.539237859000446
 30
0.0
 10
75.02288798355636
 20
-1.652234432534705
 30
0.0
  0
SPLINE
  5
A7
330
1F
100
AcDbEntity
  8
0
  6
Continuous
 62
     1
370
    15
100
AcDbSpline
210
0.0
220
0.0
230
1.0
 70
    24
 71
     3
 72
    14
 73
    10
 74
     0
 42
0.000000001
 43
0.00000001
 40
0.0
 40
0.0
 40
0.0
 40
0.0
 40
0.25
 40
0.25
 40
0.5
 40
0.5
 40
0.75
 40
0.75
 40
1.0
 40
1.0
 40
1.0
 40
1.0
 10
78.20000000000003
 20
-12.52493469684544
 30
0.0
 10
78.20000000000005
 20
-12.04486774864042
 30
0.0
 10
78.20000000000005
 20
-11.50271046987283
 30
0.0
 10
78.20000000000002
 20
-10.30352123776153
 30
0.0
 10
78.20000000000005
 20
-9.646511261890657
 30
0.0
 10
78.20000000000003
 20
-8.236264171641587
 30
0.0
 10
78.20000000000005
 20
-7.483105696757511
 30
0.0
 10
78.20000000000006
 20
-5.907098256972262
 30
0.0
 10
78.20000000000005
 20
-5.084368713330331
 30
0.0
 10
78.20000000000003
 20
-4.24248176822112
 30
0.0
  0
SPLINE
  5
A8
330
1F
100
AcDbEntity
  8
0
  6
Continuous
 62
     1
370
    15
100
AcDbSpline
210
0.0
220
0.0
230
1.0
 70
    24
 71
     3
 72
    10
 73
     6
 74
     0
 42
0.000000001
 43
0.00000001
 40
0.0
 40
0.0
 40
0.0
 40
0.0
 40
0.5000000000000001
 40
0.5000000000000001
 40
1.0
 40
1.0
 40
1.0
 40
1.0
 10
73.20000000000005
 20
4.691538593597893
 30
0.0
 10
73.20000000000005
 20
5.728628384846488
 30
0.0
 10
73.20000000000005
 20
6.684238768094216
 30
0.0
 10
73.20000000000006
 20
8.336748412245079
 30
0.0
 10
73.20000000000003
 20
9.032833253919847
 30
0.0
 10
73.20000000000003
 20
9.570389447124658
 30
0.0
  0
SPLINE
  5
A9
330
1F
100
AcDbEntity
  8
0
  6
Continuous
 62
     1
370
    15
100
AcDbSpline
210
0.0
220
0.0
230
1.0
 70
     8
 71
     3
 72
     9
 73
     5
 74
     0
 42
0.000000001
 43
0.00000001
 40
0.0
 40
0.0
 40
0.0
 40
0.0
 40
0.6711688431833575
 40
1.0
 40
1.0
 40
1.0
 40
1.0
 10
78.20000000000003
 20
11.11249999999999
 30
0.0
 10
76.87886766935696
 20
11.0996066050331
 30
0.0
 10
74.91046233579448
 20
11.08039624522895
 30
0.0
 10
72.94208864889444
 20
10.89129618790505
 30
0.0
 10
72.29482605238366
 20
10.82911419730114
 30
0.0
  0
SPLINE
  5
AA
330
1F
100
AcDbEntity
  8
0
  6
Continuous
 62
     1
370
    15
100
AcDbSpline
210
0.0
220
0.0
230
1.0
 70
     8
 71
     3
 72
     8
 73
     4
 74
     0
 42
0.000000001
 43
0.00000001
 40
0.0
 40
0.0
 40
0.0
 40
0.0
 40
1.0
 40
1.0
 40
1.0
 40
1.0
 10
78.20000000000003
 20
11.1125
 30
0.0
 10
76.52259376193915
 20
10.65780123202016
 30
0.0
 10
74.8556583168523
 20
10.14524943066148
 30
0.0
 10
73.20000000000006
 20
9.570389447124658
 30
0.0
  0
SPLINE
  5
AB
330
1F
100
AcDbEntity
  8
0
  6
Continuous
 62
     1
370
    15
100
AcDbSpline
210
0.0
220
0.0
230
1.0
 70
     8
 71
     3
 72
     8
 73
     4
 74
     0
 42
0.000000001
 43
0.00000001
 40
0.0
 40
0.0
 40
0.0
 40
0.0
 40
1.0
 40
1.0
 40
1.0
 40
1.0
 10
73.20000000000005
 20
4.691538593597895
 30
0.0
 10
74.04256567488973
 20
3.688219129697088
 30
0.0
 10
74.77614495484248
 20
2.565545540272582
 30
0.0
 10
75.37944026693721
 20
1.300194242658494
 30
0.0
  0
LINE
  5
AC
330
1F
100
AcDbEntity
  8
0
  6
Continuous
 62
     1
370
    15
100
AcDbLine
 10
75.11410413707094
 20
1.81309925036563
 30
0.0
 11
78.20000000000003
 21
0.0000000000000004
 31
0.0
  0
LINE
  5
AD
330
1F
100
AcDbEntity
  8
0
  6
Continuous
 62
     1
370
    15
100
AcDbLine
 10
78.20000000000003
 20
0.0000000000000004
 30
0.0
 11
78.20000000000003
 21
-4.242481768220613
 31
0.0
  0
SPLINE
  5
AE
330
1F
100
AcDbEntity
  8
0
  6
Continuous
 62
     1
370
    15
100
AcDbSpline
210
0.0
220
0.0
230
1.0
 70
     8
 71
     3
 72
    20
 73
    16
 74
     0
 42
0.000000001
 43
0.00000001
 40
0.0
 40
0.0
 40
0.0
 40
0.0
 40
0.0633525704458488
 40
0.1409000410376031
 40
0.2185011776222202
 40
0.296072082022642
 40
0.3736055436114793
 40
0.4511448889783142
 40
0.5287333926500448
 40
0.6063201917575198
 40
0.6850367258478967
 40
0.763746970130922
 40
0.8424881664711092
 40
0.921267775920581
 40
1.0
 40
1.0
 40
1.0
 40
1.0
 10
44.57434765477607
 20
-11.92619786100736
 30
0.0
 10
43.67533179290649
 20
-12.06194915169223
 30
0.0
 10
41.67586482669785
 20
-12.36386843126993
 30
0.0
 10
38.5751786955212
 20
-12.62058170081538
 30
0.0
 10
35.27218874507078
 20
-12.73080958543517
 30
0.0
 10
31.9697286726885
 20
-12.65270816944267
 30
0.0
 10
28.66838104737163
 20
-12.39363983793493
 30
0.0
 10
25.3667805981002
 20
-11.95560593203207
 30
0.0
 10
22.06400013355905
 20
-11.34563005500303
 30
0.0
 10
18.74454136604356
 20
-10.56835827012176
 30
0.0
 10
15.40953508214211
 20
-9.631800981078719
 30
0.0
 10
12.05814603190766
 20
-8.547995966883391
 30
0.0
 10
8.705702486411814
 20
-7.335904323239015
 30
0.0
 10
5.352535403333667
 20
-6.020459065656696
 30
0.0
 10
3.117287652784432
 20
-5.071026339451838
 30
0.0
 10
2.000000000000045
 20
-4.596452788543462
 30
0.0
  0
SPLINE
  5
AF
330
1F
100
AcDbEntity
  8
외형선
  6
Continuous
370
    15
100
AcDbSpline
210
0.0
220
0.0
230
1.0
 70
    24
 71
     3
 72
    14
 73
    10
 74
     0
 42
0.000000001
 43
0.00000001
 40
0.0
 40
0.0
 40
0.0
 40
0.0
 40
0.2499999999999998
 40
0.2499999999999998
 40
0.4999999999999999
 40
0.4999999999999999
 40
0.75
 40
0.75
 40
1.0
 40
1.0
 40
1.0
 40
1.0
 10
2.000000000000015
 20
10.35915089604646
 30
0.0
 10
2.000000000000015
 20
9.582756945670182
 30
0.0
 10
2.000000000000017
 20
8.637707314538972
 30
0.0
 10
2.000000000000017
 20
6.454749135365291
 30
0.0
 10
2.000000000000015
 20
5.217332327574892
 30
0.0
 10
2.000000000000015
 20
2.559290366167032
 30
0.0
 10
2.000000000000017
 20
1.140081528434618
 30
0.0
 10
2.000000000000017
 20
-1.735563022997725
 30
0.0
 10
2.000000000000015
 20
-3.190534081060135
 30
0.0
 10
2.000000000000015
 20
-4.596452788543451
 30
0.0
  0
SPLINE
  5
B0
330
1F
100
AcDbEntity
  8
0
  6
Continuous
 62
     1
370
    15
100
AcDbSpline
210
0.0
220
0.0
230
1.0
 70
     8
 71
     3
 72
     9
 73
     5
 74
     0
 42
0.000000001
 43
0.00000001
 40
0.0
 40
0.0
 40
0.0
 40
0.0
 40
0.4367899317916154
 40
1.0
 40
1.0
 40
1.0
 40
1.0
 10
7.951748194586191
 20
-13.19260112380753
 30
0.0
 10
7.085133953723934
 20
-13.27653715347744
 30
0.0
 10
5.101081259771956
 20
-13.46870282296899
 30
0.0
 10
3.117290774513561
 20
-13.48421191278951
 30
0.0
 10
2.000000000000034
 20
-13.49294678832517
 30
0.0
  0
SPLINE
  5
B1
330
1F
100
AcDbEntity
  8
외형선
  6
Continuous
370
    15
100
AcDbSpline
210
0.0
220
0.0
230
1.0
 70
    24
 71
     3
 72
    14
 73
    10
 74
     0
 42
0.000000001
 43
0.00000001
 40
0.0
 40
0.0
 40
0.0
 40
0.0
 40
0.25
 40
0.25
 40
0.5
 40
0.5
 40
0.75
 40
0.75
 40
1.0
 40
1.0
 40
1.0
 40
1.0
 10
2.000000000000026
 20
-4.596452788543453
 30
0.0
 10
2.000000000000026
 20
-5.678900030011944
 30
0.0
 10
2.000000000000026
 20
-6.726217482642271
 30
0.0
 10
2.000000000000026
 20
-8.66544071741199
 30
0.0
 10
2.000000000000026
 20
-9.556656077049963
 30
0.0
 10
2.000000000000026
 20
-11.1115388254417
 30
0.0
 10
2.000000000000026
 20
-11.7747572112579
 30
0.0
 10
2.000000000000026
 20
-12.83409643281527
 30
0.0
 10
2.000000000000026
 20
-13.23021970349086
 30
0.0
 10
2.000000000000026
 20
-13.49294678832517
 30
0.0
  0
LINE
  5
B2
330
1F
100
AcDbEntity
  8
0
  6
Continuous
 62
     1
370
    15
100
AcDbLine
 10
78.20000000000003
 20
0.0000000000000004
 30
0.0
 11
78.20000000000003
 21
11.1125
 31
0.0
  0
SPLINE
  5
B3
330
1F
100
AcDbEntity
  8
0
  6
Continuous
 62
     1
370
    15
100
AcDbSpline
210
0.0
220
0.0
230
1.0
 70
     8
 71
     3
 72
    13
 73
     9
 74
     0
 42
0.000000001
 43
0.00000001
 40
0.0
 40
0.0
 40
0.0
 40
0.0
 40
0.128406359104767
 40
0.302810888187054
 40
0.4770938364479676
 40
0.6513032018815524
 40
0.8256830676430774
 40
1.0
 40
1.0
 40
1.0
 40
1.0
 10
18.92778785572107
 20
-12.47490772388496
 30
0.0
 10
18.20332590521393
 20
-12.73255363943868
 30
0.0
 10
16.49488273915698
 20
-13.3401402813349
 30
0.0
 10
13.8022530463773
 20
-14.11438990639095
 30
0.0
 10
10.8519024339357
 20
-14.82297851918126
 30
0.0
 10
7.902152083224562
 20
-15.35210642064401
 30
0.0
 10
4.951078364861082
 20
-15.71876383670984
 30
0.0
 10
2.983574422107925
 20
-15.81001714993948
 30
0.0
 10
1.999999999998154
 20
-15.85563557177596
 30
0.0
  0
SPLINE
  5
B4
330
1F
100
AcDbEntity
  8
외형선
  6
Continuous
370
    15
100
AcDbSpline
210
0.0
220
0.0
230
1.0
 70
    24
 71
     3
 72
     8
 73
     4
 74
     0
 42
0.000000001
 43
0.00000001
 40
0.0
 40
0.0
 40
0.0
 40
0.0
 40
1.0
 40
1.0
 40
1.0
 40
1.0
 10
2.000000000000026
 20
-13.49294678832517
 30
0.0
 10
2.000000000000026
 20
-14.30102015066554
 30
0.0
 10
2.000000000000026
 20
-15.09373578099009
 30
0.0
 10
2.000000000000026
 20
-15.8556355717671
 30
0.0
  0
SPLINE
  5
B5
330
1F
100
AcDbEntity
  8
0
  6
Continuous
 62
     1
370
    15
100
AcDbSpline
210
0.0
220
0.0
230
1.0
 70
     8
 71
     3
 72
    15
 73
    11
 74
     0
 42
0.000000001
 43
0.00000001
 40
0.0
 40
0.0
 40
0.0
 40
0.0
 40
0.0375380891817207
 40
0.1809630313400146
 40
0.3242772245209574
 40
0.4593587179893924
 40
0.5945752999885404
 40
0.7297341456995005
 40
0.8648109243622328
 40
1.0
 40
1.0
 40
1.0
 40
1.0
 10
56.36874163894723
 20
10.64113300448496
 30
0.0
 10
56.64189626025563
 20
10.76193992866534
 30
0.0
 10
57.95871577275694
 20
11.3443240532465
 30
0.0
 10
60.31911980770584
 20
12.2484000307006
 30
0.0
 10
63.38856304076629
 20
13.30936107406307
 30
0.0
 10
66.39786316625879
 20
14.17816552407141
 30
0.0
 10
69.3489346067407
 20
14.86946932530159
 30
0.0
 10
72.29947665593205
 20
15.38596350832712
 30
0.0
 10
75.2491808364674
 20
15.7388708515585
 30
0.0
 10
77.21612118724785
 20
15.82066741605644
 30
0.0
 10
78.20000000000005
 20
15.86158269177059
 30
0.0
  0
SPLINE
  5
B6
330
1F
100
AcDbEntity
  8
0
  6
Continuous
 62
     1
370
    15
100
AcDbSpline
210
0.0
220
0.0
230
1.0
 70
    24
 71
     3
 72
    14
 73
    10
 74
     0
 42
0.000000001
 43
0.00000001
 40
0.0
 40
0.0
 40
0.0
 40
0.0
 40
0.25
 40
0.25
 40
0.5
 40
0.5
 40
0.75
 40
0.75
 40
1.0
 40
1.0
 40
1.0
 40
1.0
 10
78.20000000000003
 20
11.11249999999999
 30
0.0
 10
78.20000000000005
 20
11.44930603840804
 30
0.0
 10
78.20000000000005
 20
11.81258118427562
 30
0.0
 10
78.20000000000002
 20
12.57771108481403
 30
0.0
 10
78.20000000000005
 20
12.9794895650125
 30
0.0
 10
78.20000000000003
 20
13.80064530850655
 30
0.0
 10
78.20000000000005
 20
14.21988443375763
 30
0.0
 10
78.20000000000006
 20
15.05166832183918
 30
0.0
 10
78.20000000000005
 20
15.46406174255948
 30
0.0
 10
78.20000000000003
 20
15.86158269177059
 30
0.0
  0
LINE
  5
B8
330
1F
100
AcDbEntity
  8
참조1
100
AcDbLine
 10
16.44057883212693
 20
0.0010749287238892
 30
0.0
 11
16.44057883212695
 21
-39.99892507127612
 31
0.0
  0
LINE
  5
B9
330
1F
100
AcDbEntity
  8
참조1
100
AcDbLine
 10
16.44057883212695
 20
-39.99892507127612
 30
0.0
 11
-22.53075298218174
 21
-39.9989250712761
 31
0.0
  0
INSERT
  5
BB
330
1F
100
AcDbEntity
  8
0
  6
Continuous
 62
     7
100
AcDbBlockReference
 66
     1
  2
블럭10
 10
2.500305900001734
 20
-52.04609937292005
 30
0.0
  0
ATTRIB
  5
BC
330
BB
100
AcDbEntity
  8
FORMAT
 62
     2
100
AcDbText
 10
-6.680989388739546
 20
-49.97073246008786
 30
0.0
 40
4.233333333333333
  1
E1080901 [ 2 FLUTE ]
 41
0.75
  7
SLDTEXTSTYLE0
 11
-6.680989388739546
 21
-52.08739912675453
 31
0.0
100
AcDbAttribute
  2
AUTOATTR0
 70
     0
 74
     1
  0
SEQEND
  5
BD
330
BB
100
AcDbEntity
  8
0
  6
Continuous
 62
     7
  0
HATCH
  5
BE
330
1F
100
AcDbEntity
  8
중심선
100
AcDbHatch
 10
0.0
 20
0.0
 30
0.0
210
0.0
220
0.0
230
1.0
  2
SOLID
 70
     1
 71
     0
 91
        1
 92
        0
 93
        4
 72
     1
 10
8.215215204382591
 20
-35.7989250712761
 11
4.76893996054531
 21
-35.7989250712761
 72
     1
 10
4.76893996054531
 20
-35.7989250712761
 11
2.640710101341287
 21
-38.3352506518487
 72
     1
 10
2.640710101341287
 20
-38.3352506518487
 11
6.087018430291718
 21
-38.33521122254621
 72
     1
 10
6.087018430291718
 20
-38.33521122254621
 11
8.215215204382591
 21
-35.7989250712761
 97
        0
 75
     0
 76
     1
 98
        1
 10
0.0
 20
0.0
  0
HATCH
  5
BF
330
1F
100
AcDbEntity
  8
중심선
100
AcDbHatch
 10
0.0
 20
0.0
 30
0.0
210
0.0
220
0.0
230
1.0
  2
SOLID
 70
     1
 71
     0
 91
        1
 92
        0
 93
        4
 72
     1
 10
13.22797919541854
 20
-35.79892507127608
 11
9.781703951581317
 21
-35.79892507127608
 72
     1
 10
9.781703951581317
 20
-35.79892507127608
 11
5.250565943223872
 21
-41.19892507127612
 72
     1
 10
5.250565943223872
 20
-41.19892507127612
 11
8.696841187061155
 21
-41.19892507127612
 72
     1
 10
8.696841187061155
 20
-41.19892507127612
 11
13.22797919541854
 21
-35.79892507127608
 97
        0
 75
     0
 76
     1
 98
        1
 10
0.0
 20
0.0
  0
HATCH
  5
C0
330
1F
100
AcDbEntity
  8
중심선
100
AcDbHatch
 10
0.0
 20
0.0
 30
0.0
210
0.0
220
0.0
230
1.0
  2
SOLID
 70
     1
 71
     0
 91
        1
 92
        0
 93
        4
 72
     1
 10
18.24074318645444
 20
-35.79892507127613
 11
14.79446794261738
 21
-35.79892507127608
 72
     1
 10
14.79446794261738
 20
-35.79892507127608
 11
7.746031040728074
 21
-44.19892507127612
 72
     1
 10
7.746031040728074
 20
-44.19892507127612
 11
11.19230628456536
 21
-44.19892507127612
 72
     1
 10
11.19230628456536
 20
-44.19892507127612
 11
18.24074318645444
 21
-35.79892507127613
 97
        0
 75
     0
 76
     1
 98
        1
 10
0.0
 20
0.0
  0
HATCH
  5
C1
330
1F
100
AcDbEntity
  8
중심선
100
AcDbHatch
 10
0.0
 20
0.0
 30
0.0
210
0.0
220
0.0
230
1.0
  2
SOLID
 70
     1
 71
     0
 91
        1
 92
        0
 93
        6
 72
     3
 10
23.04063361746664
 20
-39.99892507132738
 11
3.960054785062284
 21
1.540850780301639E-10
 40
0.3939339440162633
 50
17.09539180608434
 51
320.0019657685075
 73
     0
 72
     1
 10
24.72363327316721
 20
-38.58681907591441
 11
27.02893514686827
 21
-36.65249236586649
 72
     3
 10
23.04063361741379
 20
-39.99892507127625
 11
6.600054785286829
 21
-1.249000902703301E-13
 40
0.6363583540795982
 50
39.9987384933741
 51
368.4976242363725
 73
     1
 72
     1
 10
29.4659661093144
 20
-39.03892507120613
 11
21.72070092424974
 21
-39.0389250712061
 72
     1
 10
21.72070092424974
 20
-39.0389250712061
 11
21.72067587980378
 21
-40.95892507120602
 72
     1
 10
21.72067587980378
 20
-40.95892507120602
 11
26.16205564927582
 21
-40.95892507120599
 97
        0
 75
     0
 76
     1
 98
        1
 10
0.0
 20
0.0
  0
DIMENSION
  5
D0
330
1F
100
AcDbEntity
  8
0
  6
Continuous
370
    15
100
AcDbDimension
  2
_D_1
 10
1.99999999999811
 20
29.1509835328956
 30
0.0
 11
39.19328553072322
 21
29.1509835328956
 31
0.0
 70
   160
  1
<>
 71
     2
 42
76.26250000000192
  3
SLDDIMSTYLE1
100
AcDbAlignedDimension
 13
78.26250000000003
 23
15.86158269177059
 33
0.0
 14
1.99999999999811
 24
15.85563557177594
 34
0.0
100
AcDbRotatedDimension
1001
ACAD
1000
DSTYLE
1002
{
1070
   171
1070
     6
1070
   273
1070
     7
1002
}
  0
DIMENSION
  5
FA
330
1F
100
AcDbEntity
  8
0
  6
Continuous
370
    15
100
AcDbDimension
  2
_D_3
 10
97.20000000000014
 20
15.86158269177066
 30
0.0
 11
97.20000000000003
 21
47.86158269177072
 31
0.0
 70
   160
  1
%%c<>
 71
     2
 42
31.72316538354119
 52
-270.0
  3
SLDDIMSTYLE1
100
AcDbAlignedDimension
 13
78.20000000000003
 23
-15.8615826917706
 33
0.0
 14
78.20000000000003
 24
15.86158269177059
 34
0.0
 50
90.0000000000002
100
AcDbRotatedDimension
1001
ACAD
1000
DSTYLE
1002
{
1070
   171
1070
     6
1070
   273
1070
     7
1002
}
  0
LINE
  5
10E
330
1F
100
AcDbEntity
  8
참조1
100
AcDbLine
 10
75.44158764747253
 20
7.441074928723896
 30
0.0
 11
75.44158764747253
 21
-7.438925071276109
 31
0.0
  0
LINE
  5
10F
330
1F
100
AcDbEntity
  8
참조1
100
AcDbLine
 10
88.14158764747253
 20
5.441074928723896
 30
0.0
 11
75.44158764747253
 21
5.441074928723896
 31
0.0
  0
SOLID
  5
110
330
1F
100
AcDbEntity
  8
참조1
100
AcDbTrace
 10
75.44158764747253
 20
5.441074928723896
 30
0.0
 11
81.79158764747253
 21
4.425074928723896
 31
0.0
 12
81.79158764747253
 22
6.457074928723896
 32
0.0
 13
81.79158764747253
 23
6.457074928723896
 33
0.0
  0
LINE
  5
111
330
1F
100
AcDbEntity
  8
참조1
100
AcDbLine
 10
88.14158764747253
 20
-5.438925071276109
 30
0.0
 11
75.44158764747253
 21
-5.438925071276109
 31
0.0
  0
SOLID
  5
112
330
1F
100
AcDbEntity
  8
참조1
100
AcDbTrace
 10
75.44158764747253
 20
-5.438925071276109
 30
0.0
 11
81.79158764747253
 21
-6.454925071276109
 31
0.0
 12
81.79158764747253
 22
-4.422925071276109
 32
0.0
 13
81.79158764747253
 23
-4.422925071276109
 33
0.0
  0
MTEXT
  5
113
330
1F
100
AcDbEntity
  8
참조1
100
AcDbMText
 10
84.82593778009851
 20
11.01136670591222
 30
0.0
 40
3.5
 41
0.0
 71
     1
 72
     1
  1
A
  7
SLDTEXTSTYLE0
 73
     1
 44
1.0
  0
MTEXT
  5
114
330
1F
100
AcDbEntity
  8
참조1
100
AcDbMText
 10
84.82593778009851
 20
0.1313667059122201
 30
0.0
 40
3.5
 41
0.0
 71
     1
 72
     1
  1
A
  7
SLDTEXTSTYLE0
 73
     1
 44
1.0
  0
LINE
  5
21C
330
1F
100
AcDbEntity
  8
외형선
  6
Continuous
370
    15
100
AcDbLine
 10
2.000000000000028
 20
12.69999999999999
 30
0.0
 11
-23.06992499999996
 21
12.69999999999999
 31
0.0
  0
LINE
  5
21D
330
1F
100
AcDbEntity
  8
외형선
  6
Continuous
370
    15
100
AcDbLine
 10
-60.49999999999997
 20
-12.7
 30
0.0
 11
2.000000000000028
 21
-12.70000000000002
 31
0.0
  0
LINE
  5
21E
330
1F
100
AcDbEntity
  8
외형선
  6
Continuous
370
    15
100
AcDbLine
 10
-61.49999999999997
 20
-11.7
 30
0.0
 11
-60.49999999999997
 21
-12.7
 31
0.0
  0
LINE
  5
21F
330
1F
100
AcDbEntity
  8
외형선
  6
Continuous
370
    15
100
AcDbLine
 10
-60.49999999999997
 20
10.795
 30
0.0
 11
-60.49999999999997
 21
-12.7
 31
0.0
  0
LINE
  5
220
330
1F
100
AcDbEntity
  8
외형선
  6
Continuous
370
    15
100
AcDbLine
 10
-61.49999999999997
 20
10.795
 30
0.0
 11
-61.49999999999997
 21
-11.69999999999997
 31
0.0
  0
LINE
  5
221
330
1F
100
AcDbEntity
  8
중심선
100
AcDbLine
 10
-68.49999999999997
 20
-0.0000000000000142
 30
0.0
 11
85.20000000000002
 21
0.0000000000000071
 31
0.0
  0
CIRCLE
  5
222
330
1F
100
AcDbEntity
  8
해칭선
100
AcDbCircle
 10
0.0
 20
0.0
 30
0.0
 40
2.999999999999995
  0
DIMENSION
  5
223
330
1F
100
AcDbEntity
  8
0
  6
Continuous
370
    15
100
AcDbDimension
  2
*D14
 10
-73.99999999999996
 20
-12.70000000000007
 30
0.0
 11
-74.0
 21
-0.0000000000000071
 31
0.0
 70
   160
  1
%%c<>
 71
     2
 42
25.40000000000002
 52
-270.0
  3
SLDDIMSTYLE1
100
AcDbAlignedDimension
 13
-61.49999999999997
 23
12.7
 33
0.0
 14
-60.5
 24
-12.70000000000002
 34
0.0
 50
90.0000000000002
100
AcDbRotatedDimension
1001
ACAD
1000
DSTYLE
1002
{
1070
   171
1070
     6
1070
   273
1070
     7
1002
}
  0
DIMENSION
  5
224
330
1F
100
AcDbEntity
  8
0
  6
Continuous
370
    15
100
AcDbDimension
  2
*D15
 10
-61.49999999999997
 20
42.57707860462924
 30
0.0
 11
8.350000000000023
 21
42.57707860462924
 31
0.0
 70
   160
  1
<>
 71
     2
 42
139.7
  3
SLDDIMSTYLE1
100
AcDbAlignedDimension
 13
78.20000000000002
 23
14.2875
 33
0.0
 14
-61.49999999999997
 24
12.7
 34
0.0
100
AcDbRotatedDimension
1001
ACAD
1000
DSTYLE
1002
{
1070
   171
1070
     6
1070
   273
1070
     7
1002
}
  0
INSERT
  5
225
330
1F
100
AcDbEntity
  8
해칭선
100
AcDbBlockReference
  2
SW_DOWELSYMBOL_0
 10
0.0
 20
0.0
 30
0.0
  0
LINE
  5
226
330
1F
100
AcDbEntity
  8
외형선
  6
Continuous
370
    15
100
AcDbLine
 10
-38.08132499999988
 20
10.795
 30
0.0
 11
-24.97492499999998
 21
10.795
 31
0.0
  0
LINE
  5
227
330
1F
100
AcDbEntity
  8
외형선
  6
Continuous
370
    15
100
AcDbLine
 10
-38.08132499999988
 20
10.79500000000001
 30
0.0
 11
-39.98632499999985
 21
12.7
 31
0.0
  0
LINE
  5
228
330
1F
100
AcDbEntity
  8
외형선
  6
Continuous
370
    15
100
AcDbLine
 10
-24.97492499999998
 20
10.79500000000001
 30
0.0
 11
-23.06992499999996
 21
12.7
 31
0.0
  0
LINE
  5
229
330
1F
100
AcDbEntity
  8
외형선
  6
Continuous
370
    15
100
AcDbLine
 10
-61.49999999999997
 20
10.795
 30
0.0
 11
-47.79999999999995
 21
10.795
 31
0.0
  0
LINE
  5
22A
330
1F
100
AcDbEntity
  8
외형선
  6
Continuous
370
    15
100
AcDbLine
 10
-47.79999999999995
 20
10.79500000000001
 30
0.0
 11
-45.89499999999998
 21
12.69999999999999
 31
0.0
  0
LINE
  5
22B
330
1F
100
AcDbEntity
  8
외형선
  6
Continuous
370
    15
100
AcDbLine
 10
-60.49999999999997
 20
10.795
 30
0.0
 11
-60.49999999999997
 21
-12.7
 31
0.0
  0
LINE
  5
22C
330
1F
100
AcDbEntity
  8
외형선
  6
Continuous
370
    15
100
AcDbLine
 10
-45.89499999999998
 20
12.7
 30
0.0
 11
-39.98632499999985
 21
12.7
 31
0.0
  0
ENDSEC
  0
SECTION
  2
OBJECTS
  0
DICTIONARY
  5
C
330
0
100
AcDbDictionary
281
     1
  3
ACAD_GROUP
350
D
  3
ACAD_IMAGE_VARS
350
13F
  3
ACAD_LAYOUT
350
1A
  3
ACAD_MLINESTYLE
350
17
  3
ACAD_PLOTSETTINGS
350
19
  3
ACAD_PLOTSTYLENAME
350
E
  3
ACAD_SCALELIST
350
47
  3
APPDATA
350
13D
  3
DWGPROPS
350
262
  0
DICTIONARY
  5
1D8
330
2
100
AcDbDictionary
280
     1
281
     1
  3
ACAD_LAYERSTATES
360
1D9
  0
DICTIONARY
  5
D
102
{ACAD_REACTORS
330
C
102
}
330
C
100
AcDbDictionary
281
     1
  0
RASTERVARIABLES
  5
13F
102
{ACAD_REACTORS
330
C
102
}
330
C
100
AcDbRasterVariables
 90
        0
 70
     1
 71
     1
 72
     1
  0
DICTIONARY
  5
1A
102
{ACAD_REACTORS
330
C
102
}
330
C
100
AcDbDictionary
281
     1
  3
Layout1
350
1E
  3
Layout2
350
26
  3
Model
350
22
  0
DICTIONARY
  5
17
102
{ACAD_REACTORS
330
C
102
}
330
C
100
AcDbDictionary
281
     1
  3
Standard
350
18
  0
DICTIONARY
  5
19
102
{ACAD_REACTORS
330
C
102
}
330
C
100
AcDbDictionary
281
     1
  0
ACDBDICTIONARYWDFLT
  5
E
102
{ACAD_REACTORS
330
C
102
}
330
C
100
AcDbDictionary
281
     1
  3
Normal
350
F
100
AcDbDictionaryWithDefault
340
F
  0
DICTIONARY
  5
47
102
{ACAD_REACTORS
330
C
102
}
330
C
100
AcDbDictionary
281
     1
  3
A0
350
48
  3
A1
350
49
  3
A2
350
4A
  3
A3
350
4B
  3
A4
350
4C
  3
A5
350
4D
  3
A6
350
4E
  3
A7
350
4F
  3
A8
350
50
  3
A9
350
51
  3
B0
350
52
  3
B1
350
53
  3
B2
350
54
  3
B3
350
55
  3
B4
350
56
  3
B5
350
57
  3
B6
350
58
  3
B7
350
59
  3
B8
350
5A
  3
B9
350
5B
  3
C0
350
5C
  3
C1
350
5D
  3
C2
350
5E
  3
C3
350
5F
  3
C4
350
60
  3
C5
350
61
  3
C6
350
62
  3
C7
350
63
  3
C8
350
64
  3
C9
350
65
  3
D0
350
66
  3
D1
350
67
  3
D2
350
68
  0
DICTIONARY
  5
13D
102
{ACAD_REACTORS
330
C
102
}
330
C
100
AcDbDictionary
281
     1
  0
XRECORD
  5
262
102
{ACAD_REACTORS
330
C
102
}
330
C
100
AcDbXrecord
280
     1
  1
DWGPROPS COOKIE
  2

  3

  4

  6

  7

  8
12017012
  9

300
=
301
=
302
=
303
=
304
=
305
=
306
=
307
=
308
=
309
=
 40
0.0
 41
2458311.199955937
 42
2458319.119876551
  1

 90
        0
  0
DICTIONARY
  5
1D9
102
{ACAD_REACTORS
330
1D8
102
}
330
1D8
100
AcDbDictionary
281
     1
  0
LAYOUT
  5
1E
102
{ACAD_REACTORS
330
1A
102
}
330
1A
100
AcDbPlotSettings
  1

  2
none_device
  4

  6

 40
0.0
 41
0.0
 42
0.0
 43
0.0
 44
0.0
 45
0.0
 46
0.0
 47
0.0
 48
0.0
 49
0.0
140
0.0
141
0.0
142
1.0
143
1.0
 70
   688
 72
     1
 73
     0
 74
     5
  7

 75
    16
147
1.0
148
0.0
149
0.0
100
AcDbLayout
  1
Layout1
 70
     1
 71
     1
 10
0.0
 20
0.0
 11
420.0
 21
297.0
 12
0.0
 22
0.0
 32
0.0
 14
1.000000000000000E+20
 24
1.000000000000000E+20
 34
1.000000000000000E+20
 15
-1.000000000000000E+20
 25
-1.000000000000000E+20
 35
-1.000000000000000E+20
146
0.0
 13
0.0
 23
0.0
 33
0.0
 16
1.0
 26
0.0
 36
0.0
 17
0.0
 27
1.0
 37
0.0
 76
     0
330
1B
  0
LAYOUT
  5
26
102
{ACAD_REACTORS
330
1A
102
}
330
1A
100
AcDbPlotSettings
  1

  2
none_device
  4

  6

 40
0.0
 41
0.0
 42
0.0
 43
0.0
 44
0.0
 45
0.0
 46
0.0
 47
0.0
 48
0.0
 49
0.0
140
0.0
141
0.0
142
1.0
143
1.0
 70
   688
 72
     1
 73
     0
 74
     5
  7

 75
    16
147
1.0
148
0.0
149
0.0
100
AcDbLayout
  1
Layout2
 70
     1
 71
     2
 10
0.0
 20
0.0
 11
0.0
 21
0.0
 12
0.0
 22
0.0
 32
0.0
 14
0.0
 24
0.0
 34
0.0
 15
0.0
 25
0.0
 35
0.0
146
0.0
 13
0.0
 23
0.0
 33
0.0
 16
1.0
 26
0.0
 36
0.0
 17
0.0
 27
1.0
 37
0.0
 76
     0
330
23
  0
LAYOUT
  5
22
102
{ACAD_REACTORS
330
1A
102
}
330
1A
100
AcDbPlotSettings
  1

  2
none_device
  4
ANSI_A_(11.00_x_8.50_Inches)
  6

 40
6.35
 41
19.05
 42
6.35000508
 43
19.05000254
 44
279.4
 45
215.9
 46
103.1580199316263
 47
84.1743368167717
 48
0.0
 49
0.0
140
0.0
141
0.0
142
0.0663760467482972
143
1.0
 70
  1696
 72
     0
 73
     0
 74
     0
  7

 75
     0
147
0.0235690232323232
148
0.0
149
0.0
100
AcDbLayout
  1
Model
 70
     1
 71
     0
 10
0.0
 20
0.0
 11
420.0
 21
297.0
 12
0.0
 22
0.0
 32
0.0
 14
1.000000000000000E+20
 24
1.000000000000000E+20
 34
1.000000000000000E+20
 15
-1.000000000000000E+20
 25
-1.000000000000000E+20
 35
-1.000000000000000E+20
146
0.0
 13
0.0
 23
0.0
 33
0.0
 16
1.0
 26
0.0
 36
0.0
 17
0.0
 27
1.0
 37
0.0
 76
     0
330
1F
331
29
  0
MLINESTYLE
  5
18
102
{ACAD_REACTORS
330
17
102
}
330
17
100
AcDbMlineStyle
  2
Standard
 70
     0
  3

 62
   256
 51
90.0
 52
90.0
 71
     2
 49
0.5
 62
   256
  6
BYLAYER
 49
-0.5
 62
   256
  6
BYLAYER
  0
ACDBPLACEHOLDER
  5
F
102
{ACAD_REACTORS
330
E
102
}
330
E
  0
SCALE
  5
48
102
{ACAD_REACTORS
330
47
102
}
330
47
100
AcDbScale
 70
     0
300
1:1
140
1.0
141
1.0
290
     1
  0
SCALE
  5
49
102
{ACAD_REACTORS
330
47
102
}
330
47
100
AcDbScale
 70
     0
300
1:2
140
1.0
141
2.0
290
     0
  0
SCALE
  5
4A
102
{ACAD_REACTORS
330
47
102
}
330
47
100
AcDbScale
 70
     0
300
1:4
140
1.0
141
4.0
290
     0
  0
SCALE
  5
4B
102
{ACAD_REACTORS
330
47
102
}
330
47
100
AcDbScale
 70
     0
300
1:5
140
1.0
141
5.0
290
     0
  0
SCALE
  5
4C
102
{ACAD_REACTORS
330
47
102
}
330
47
100
AcDbScale
 70
     0
300
1:8
140
1.0
141
8.0
290
     0
  0
SCALE
  5
4D
102
{ACAD_REACTORS
330
47
102
}
330
47
100
AcDbScale
 70
     0
300
1:10
140
1.0
141
10.0
290
     0
  0
SCALE
  5
4E
102
{ACAD_REACTORS
330
47
102
}
330
47
100
AcDbScale
 70
     0
300
1:16
140
1.0
141
16.0
290
     0
  0
SCALE
  5
4F
102
{ACAD_REACTORS
330
47
102
}
330
47
100
AcDbScale
 70
     0
300
1:20
140
1.0
141
20.0
290
     0
  0
SCALE
  5
50
102
{ACAD_REACTORS
330
47
102
}
330
47
100
AcDbScale
 70
     0
300
1:30
140
1.0
141
30.0
290
     0
  0
SCALE
  5
51
102
{ACAD_REACTORS
330
47
102
}
330
47
100
AcDbScale
 70
     0
300
1:40
140
1.0
141
40.0
290
     0
  0
SCALE
  5
52
102
{ACAD_REACTORS
330
47
102
}
330
47
100
AcDbScale
 70
     0
300
1:50
140
1.0
141
50.0
290
     0
  0
SCALE
  5
53
102
{ACAD_REACTORS
330
47
102
}
330
47
100
AcDbScale
 70
     0
300
1:100
140
1.0
141
100.0
290
     0
  0
SCALE
  5
54
102
{ACAD_REACTORS
330
47
102
}
330
47
100
AcDbScale
 70
     0
300
2:1
140
2.0
141
1.0
290
     0
  0
SCALE
  5
55
102
{ACAD_REACTORS
330
47
102
}
330
47
100
AcDbScale
 70
     0
300
4:1
140
4.0
141
1.0
290
     0
  0
SCALE
  5
56
102
{ACAD_REACTORS
330
47
102
}
330
47
100
AcDbScale
 70
     0
300
8:1
140
8.0
141
1.0
290
     0
  0
SCALE
  5
57
102
{ACAD_REACTORS
330
47
102
}
330
47
100
AcDbScale
 70
     0
300
10:1
140
10.0
141
1.0
290
     0
  0
SCALE
  5
58
102
{ACAD_REACTORS
330
47
102
}
330
47
100
AcDbScale
 70
     0
300
100:1
140
100.0
141
1.0
290
     0
  0
SCALE
  5
59
102
{ACAD_REACTORS
330
47
102
}
330
47
100
AcDbScale
 70
     0
300
1/128" = 1'-0"
140
0.0078125
141
12.0
290
     0
  0
SCALE
  5
5A
102
{ACAD_REACTORS
330
47
102
}
330
47
100
AcDbScale
 70
     0
300
1/64" = 1'-0"
140
0.015625
141
12.0
290
     0
  0
SCALE
  5
5B
102
{ACAD_REACTORS
330
47
102
}
330
47
100
AcDbScale
 70
     0
300
1/32" = 1'-0"
140
0.03125
141
12.0
290
     0
  0
SCALE
  5
5C
102
{ACAD_REACTORS
330
47
102
}
330
47
100
AcDbScale
 70
     0
300
1/16" = 1'-0"
140
0.0625
141
12.0
290
     0
  0
SCALE
  5
5D
102
{ACAD_REACTORS
330
47
102
}
330
47
100
AcDbScale
 70
     0
300
3/32" = 1'-0"
140
0.09375
141
12.0
290
     0
  0
SCALE
  5
5E
102
{ACAD_REACTORS
330
47
102
}
330
47
100
AcDbScale
 70
     0
300
1/8" = 1'-0"
140
0.125
141
12.0
290
     0
  0
SCALE
  5
5F
102
{ACAD_REACTORS
330
47
102
}
330
47
100
AcDbScale
 70
     0
300
3/16" = 1'-0"
140
0.1875
141
12.0
290
     0
  0
SCALE
  5
60
102
{ACAD_REACTORS
330
47
102
}
330
47
100
AcDbScale
 70
     0
300
1/4" = 1'-0"
140
0.25
141
12.0
290
     0
  0
SCALE
  5
61
102
{ACAD_REACTORS
330
47
102
}
330
47
100
AcDbScale
 70
     0
300
3/8" = 1'-0"
140
0.375
141
12.0
290
     0
  0
SCALE
  5
62
102
{ACAD_REACTORS
330
47
102
}
330
47
100
AcDbScale
 70
     0
300
1/2" = 1'-0"
140
0.5
141
12.0
290
     0
  0
SCALE
  5
63
102
{ACAD_REACTORS
330
47
102
}
330
47
100
AcDbScale
 70
     0
300
3/4" = 1'-0"
140
0.75
141
12.0
290
     0
  0
SCALE
  5
64
102
{ACAD_REACTORS
330
47
102
}
330
47
100
AcDbScale
 70
     0
300
1" = 1'-0"
140
1.0
141
12.0
290
     0
  0
SCALE
  5
65
102
{ACAD_REACTORS
330
47
102
}
330
47
100
AcDbScale
 70
     0
300
1-1/2" = 1'-0"
140
1.5
141
12.0
290
     0
  0
SCALE
  5
66
102
{ACAD_REACTORS
330
47
102
}
330
47
100
AcDbScale
 70
     0
300
3" = 1'-0"
140
3.0
141
12.0
290
     0
  0
SCALE
  5
67
102
{ACAD_REACTORS
330
47
102
}
330
47
100
AcDbScale
 70
     0
300
6" = 1'-0"
140
6.0
141
12.0
290
     0
  0
SCALE
  5
68
102
{ACAD_REACTORS
330
47
102
}
330
47
100
AcDbScale
 70
     0
300
1'-0" = 1'-0"
140
12.0
141
12.0
290
     0
  0
ENDSEC
  0
EOF
