  0
SECTION
  2
HEADER
  9
$ACADVER
  1
AC1015
  9
$ACADMAINTVER
 70
     6
  9
$DWGCODEPAGE
  3
ANSI_949
  9
$INSBASE
 10
0.0
 20
0.0
 30
0.0
  9
$EXTMIN
 10
-87.7439835223612
 20
-49.97073246008787
 30
0.0
  9
$EXTMAX
 10
97.7503333333337
 20
64.44713796039974
 30
0.0
  9
$LIMMIN
 10
0.0
 20
0.0
  9
$LIMMAX
 10
420.0
 20
297.0
  9
$ORTHOMODE
 70
     0
  9
$REGENMODE
 70
     1
  9
$FILLMODE
 70
     1
  9
$QTEXTMODE
 70
     0
  9
$MIRRTEXT
 70
     1
  9
$LTSCALE
 40
1.0
  9
$ATTMODE
 70
     1
  9
$TEXTSIZE
 40
3.5
  9
$TRACEWID
 40
1.0
  9
$TEXTSTYLE
  7
Standard
  9
$CLAYER
  8
0
  9
$CELTYPE
  6
ByLayer
  9
$CECOLOR
 62
   256
  9
$CELTSCALE
 40
1.0
  9
$DISPSILH
 70
     0
  9
$DIMSCALE
 40
1.0
  9
$DIMASZ
 40
3.302
  9
$DIMEXO
 40
1.0
  9
$DIMDLI
 40
3.75
  9
$DIMRND
 40
0.0
  9
$DIMDLE
 40
0.0
  9
$DIMEXE
 40
1.0
  9
$DIMTP
 40
0.0
  9
$DIMTM
 40
0.0
  9
$DIMTXT
 40
3.5
  9
$DIMCEN
 40
2.5
  9
$DIMTSZ
 40
0.0
  9
$DIMTOL
 70
     0
  9
$DIMLIM
 70
     0
  9
$DIMTIH
 70
     1
  9
$DIMTOH
 70
     1
  9
$DIMSE1
 70
     0
  9
$DIMSE2
 70
     0
  9
$DIMTAD
 70
     1
  9
$DIMZIN
 70
     0
  9
$DIMBLK
  1

  9
$DIMASO
 70
     1
  9
$DIMSHO
 70
     1
  9
$DIMPOST
  1

  9
$DIMAPOST
  1

  9
$DIMALT
 70
     0
  9
$DIMALTD
 70
     3
  9
$DIMALTF
 40
0.0393700787401575
  9
$DIMLFAC
 40
1.0
  9
$DIMTOFL
 70
     1
  9
$DIMTVP
 40
0.0
  9
$DIMTIX
 70
     0
  9
$DIMSOXD
 70
     0
  9
$DIMSAH
 70
     0
  9
$DIMBLK1
  1

  9
$DIMBLK2
  1

  9
$DIMSTYLE
  2
ISO-25
  9
$DIMCLRD
 70
     0
  9
$DIMCLRE
 70
     0
  9
$DIMCLRT
 70
     0
  9
$DIMTFAC
 40
1.0
  9
$DIMGAP
 40
1.524
  9
$DIMJUST
 70
     0
  9
$DIMSD1
 70
     0
  9
$DIMSD2
 70
     0
  9
$DIMTOLJ
 70
     0
  9
$DIMTZIN
 70
     0
  9
$DIMALTZ
 70
     0
  9
$DIMALTTZ
 70
     0
  9
$DIMUPT
 70
     0
  9
$DIMDEC
 70
     2
  9
$DIMTDEC
 70
     2
  9
$DIMALTU
 70
     2
  9
$DIMALTTD
 70
     3
  9
$DIMTXSTY
  7
Standard
  9
$DIMAUNIT
 70
     0
  9
$DIMADEC
 70
     2
  9
$DIMALTRND
 40
0.0
  9
$DIMAZIN
 70
     0
  9
$DIMDSEP
 70
    44
  9
$DIMATFIT
 70
     3
  9
$DIMFRAC
 70
     0
  9
$DIMLDRBLK
  1

  9
$DIMLUNIT
 70
     2
  9
$DIMLWD
 70
    -2
  9
$DIMLWE
 70
    -2
  9
$DIMTMOVE
 70
     0
  9
$LUNITS
 70
     2
  9
$LUPREC
 70
     2
  9
$SKETCHINC
 40
1.0
  9
$FILLETRAD
 40
10.0
  9
$AUNITS
 70
     0
  9
$AUPREC
 70
     2
  9
$MENU
  1
.
  9
$ELEVATION
 40
0.0
  9
$PELEVATION
 40
0.0
  9
$THICKNESS
 40
0.0
  9
$LIMCHECK
 70
     0
  9
$CHAMFERA
 40
0.0
  9
$CHAMFERB
 40
0.0
  9
$CHAMFERC
 40
0.0
  9
$CHAMFERD
 40
0.0
  9
$SKPOLY
 70
     0
  9
$TDCREATE
 40
2458311.574744155
  9
$TDUCREATE
 40
2458311.199744155
  9
$TDUPDATE
 40
2458330.568083114
  9
$TDUUPDATE
 40
2458330.193083114
  9
$TDINDWG
 40
0.0030240741
  9
$TDUSRTIMER
 40
2458330.192811771
  9
$USRTIMER
 70
     1
  9
$ANGBASE
 50
0.0
  9
$ANGDIR
 70
     0
  9
$PDMODE
 70
     0
  9
$PDSIZE
 40
-1.0
  9
$PLINEWID
 40
0.0
  9
$SPLFRAME
 70
     0
  9
$SPLINETYPE
 70
     6
  9
$SPLINESEGS
 70
     8
  9
$HANDSEED
  5
276
  9
$SURFTAB1
 70
     6
  9
$SURFTAB2
 70
     6
  9
$SURFTYPE
 70
     6
  9
$SURFU
 70
     6
  9
$SURFV
 70
     6
  9
$UCSBASE
  2

  9
$UCSNAME
  2

  9
$UCSORG
 10
0.0
 20
0.0
 30
0.0
  9
$UCSXDIR
 10
1.0
 20
0.0
 30
0.0
  9
$UCSYDIR
 10
0.0
 20
1.0
 30
0.0
  9
$UCSORTHOREF
  2

  9
$UCSORTHOVIEW
 70
     0
  9
$UCSORGTOP
 10
0.0
 20
0.0
 30
0.0
  9
$UCSORGBOTTOM
 10
0.0
 20
0.0
 30
0.0
  9
$UCSORGLEFT
 10
0.0
 20
0.0
 30
0.0
  9
$UCSORGRIGHT
 10
0.0
 20
0.0
 30
0.0
  9
$UCSORGFRONT
 10
0.0
 20
0.0
 30
0.0
  9
$UCSORGBACK
 10
0.0
 20
0.0
 30
0.0
  9
$PUCSBASE
  2

  9
$PUCSNAME
  2

  9
$PUCSORG
 10
0.0
 20
0.0
 30
0.0
  9
$PUCSXDIR
 10
1.0
 20
0.0
 30
0.0
  9
$PUCSYDIR
 10
0.0
 20
1.0
 30
0.0
  9
$PUCSORTHOREF
  2

  9
$PUCSORTHOVIEW
 70
     0
  9
$PUCSORGTOP
 10
0.0
 20
0.0
 30
0.0
  9
$PUCSORGBOTTOM
 10
0.0
 20
0.0
 30
0.0
  9
$PUCSORGLEFT
 10
0.0
 20
0.0
 30
0.0
  9
$PUCSORGRIGHT
 10
0.0
 20
0.0
 30
0.0
  9
$PUCSORGFRONT
 10
0.0
 20
0.0
 30
0.0
  9
$PUCSORGBACK
 10
0.0
 20
0.0
 30
0.0
  9
$USERI1
 70
     0
  9
$USERI2
 70
     0
  9
$USERI3
 70
     0
  9
$USERI4
 70
     0
  9
$USERI5
 70
     0
  9
$USERR1
 40
0.0
  9
$USERR2
 40
0.0
  9
$USERR3
 40
0.0
  9
$USERR4
 40
0.0
  9
$USERR5
 40
0.0
  9
$WORLDVIEW
 70
     1
  9
$SHADEDGE
 70
     3
  9
$SHADEDIF
 70
    70
  9
$TILEMODE
 70
     1
  9
$MAXACTVP
 70
    64
  9
$PINSBASE
 10
0.0
 20
0.0
 30
0.0
  9
$PLIMCHECK
 70
     0
  9
$PEXTMIN
 10
1.000000000000000E+20
 20
1.000000000000000E+20
 30
1.000000000000000E+20
  9
$PEXTMAX
 10
-1.000000000000000E+20
 20
-1.000000000000000E+20
 30
-1.000000000000000E+20
  9
$PLIMMIN
 10
0.0
 20
0.0
  9
$PLIMMAX
 10
0.0
 20
0.0
  9
$UNITMODE
 70
     0
  9
$VISRETAIN
 70
     1
  9
$PLINEGEN
 70
     0
  9
$PSLTSCALE
 70
     1
  9
$TREEDEPTH
 70
  3020
  9
$CMLSTYLE
  2
Standard
  9
$CMLJUST
 70
     0
  9
$CMLSCALE
 40
20.0
  9
$PROXYGRAPHICS
 70
     1
  9
$MEASUREMENT
 70
     1
  9
$CELWEIGHT
370
    -1
  9
$ENDCAPS
280
     0
  9
$JOINSTYLE
280
     0
  9
$LWDISPLAY
290
     1
  9
$INSUNITS
 70
     4
  9
$HYPERLINKBASE
  1

  9
$STYLESHEET
  1

  9
$XEDIT
290
     1
  9
$CEPSNTYPE
380
     0
  9
$PSTYLEMODE
290
     1
  9
$FINGERPRINTGUID
  2
{7A1A1E16-15EE-404B-AFFF-CEE6DCB4E62B}
  9
$VERSIONGUID
  2
{FAEB1C32-E019-11D5-929B-00C0DF256EC4}
  9
$EXTNAMES
290
     1
  9
$PSVPSCALE
 40
0.0
  9
$OLESTARTUP
290
     0
  0
ENDSEC
  0
SECTION
  2
CLASSES
  0
CLASS
  1
ACDBDICTIONARYWDFLT
  2
AcDbDictionaryWithDefault
  3
ObjectDBX Classes
 90
        0
280
     0
281
     0
  0
CLASS
  1
VISUALSTYLE
  2
AcDbVisualStyle
  3
ObjectDBX Classes
 90
     4095
280
     0
281
     0
  0
CLASS
  1
MATERIAL
  2
AcDbMaterial
  3
ObjectDBX Classes
 90
     1153
280
     0
281
     0
  0
CLASS
  1
SCALE
  2
AcDbScale
  3
ObjectDBX Classes
 90
     1153
280
     0
281
     0
  0
CLASS
  1
SUN
  2
AcDbSun
  3
SCENEOE
 90
     1153
280
     0
281
     0
  0
CLASS
  1
ACDBPLACEHOLDER
  2
AcDbPlaceHolder
  3
ObjectDBX Classes
 90
        0
280
     0
281
     0
  0
CLASS
  1
LAYOUT
  2
AcDbLayout
  3
ObjectDBX Classes
 90
        0
280
     0
281
     0
  0
CLASS
  1
TABLESTYLE
  2
AcDbTableStyle
  3
ObjectDBX Classes
 90
     4095
280
     0
281
     0
  0
CLASS
  1
MLEADERSTYLE
  2
AcDbMLeaderStyle
  3
ACDB_MLEADERSTYLE_CLASS
 90
     4095
280
     0
281
     0
  0
CLASS
  1
RASTERVARIABLES
  2
AcDbRasterVariables
  3
ISM
 90
        0
280
     0
281
     0
  0
ENDSEC
  0
SECTION
  2
TABLES
  0
TABLE
  2
VPORT
  5
8
330
0
100
AcDbSymbolTable
 70
     1
  0
VPORT
  5
29
330
8
100
AcDbSymbolTableRecord
100
AcDbViewportTableRecord
  2
*Active
 70
     0
 10
0.0
 20
0.0
 11
1.0
 21
1.0
 12
-42.47537811696112
 22
-0.3608445095796817
 13
0.0
 23
0.0
 14
10.0
 24
10.0
 15
10.0
 25
10.0
 16
0.0
 26
0.0
 36
1.0
 17
0.0
 27
0.0
 37
0.0
 40
59.2862669200678
 41
1.261704681872749
 42
50.0
 43
0.0
 44
0.0
 50
0.0
 51
0.0
 71
    16
 72
  2000
 73
     1
 74
     3
 75
     0
 76
     0
 77
     0
 78
     0
281
     0
 65
     1
110
0.0
120
0.0
130
0.0
111
1.0
121
0.0
131
0.0
112
0.0
122
1.0
132
0.0
 79
     0
146
0.0
  0
ENDTAB
  0
TABLE
  2
LTYPE
  5
5
330
0
100
AcDbSymbolTable
 70
     6
  0
LTYPE
  5
14
330
5
100
AcDbSymbolTableRecord
100
AcDbLinetypeTableRecord
  2
ByBlock
 70
     0
  3

 72
    65
 73
     0
 40
0.0
  0
LTYPE
  5
15
330
5
100
AcDbSymbolTableRecord
100
AcDbLinetypeTableRecord
  2
ByLayer
 70
     0
  3

 72
    65
 73
     0
 40
0.0
  0
LTYPE
  5
16
330
5
100
AcDbSymbolTableRecord
100
AcDbLinetypeTableRecord
  2
Continuous
 70
     0
  3
Solid line
 72
    65
 73
     0
 40
0.0
  0
LTYPE
  5
6A
330
5
100
AcDbSymbolTableRecord
100
AcDbLinetypeTableRecord
  2
HIDDEN
 70
     0
  3
Hidden __ __ __ __ __ __ __ __ __ __ __ __ __ __
 72
    65
 73
     2
 40
1.905
 49
1.27
 74
     0
 49
-0.635
 74
     0
  0
LTYPE
  5
6B
330
5
100
AcDbSymbolTableRecord
100
AcDbLinetypeTableRecord
  2
PHANTOM
 70
     0
  3
Phantom ______  __  __  ______  __  __  ______
 72
    65
 73
     6
 40
12.7
 49
6.35
 74
     0
 49
-1.27
 74
     0
 49
1.27
 74
     0
 49
-1.27
 74
     0
 49
1.27
 74
     0
 49
-1.27
 74
     0
  0
LTYPE
  5
6C
330
5
100
AcDbSymbolTableRecord
100
AcDbLinetypeTableRecord
  2
CENTER
 70
     0
  3
Center ____ _ ____ _ ____ _ ____ _ ____ _ ____
 72
    65
 73
     4
 40
10.16
 49
6.35
 74
     0
 49
-1.27
 74
     0
 49
1.27
 74
     0
 49
-1.27
 74
     0
  0
LTYPE
  5
6D
330
5
100
AcDbSymbolTableRecord
100
AcDbLinetypeTableRecord
  2
CENTERX2
 70
     0
  3
Center (2x) ________  __  ________  __  _____
 72
    65
 73
     4
 40
20.32
 49
12.7
 74
     0
 49
-2.54
 74
     0
 49
2.54
 74
     0
 49
-2.54
 74
     0
  0
LTYPE
  5
6E
330
5
100
AcDbSymbolTableRecord
100
AcDbLinetypeTableRecord
  2
DOT2
 70
     0
  3
Dot (.5x) ........................................
 72
    65
 73
     2
 40
0.635
 49
0.0
 74
     0
 49
-0.635
 74
     0
  0
ENDTAB
  0
TABLE
  2
LAYER
  5
2
102
{ACAD_XDICTIONARY
360
1CC
102
}
330
0
100
AcDbSymbolTable
 70
    18
  0
LAYER
  5
10
330
2
100
AcDbSymbolTableRecord
100
AcDbLayerTableRecord
  2
0
 70
     0
 62
     7
  6
Continuous
370
    -3
390
F
  0
LAYER
  5
6F
330
2
100
AcDbSymbolTableRecord
100
AcDbLayerTableRecord
  2
FORMAT
 70
     0
 62
     2
  6
Continuous
370
    -3
390
F
  0
LAYER
  5
70
330
2
100
AcDbSymbolTableRecord
100
AcDbLayerTableRecord
  2
외형선
 70
     0
 62
     4
  6
Continuous
370
    30
390
F
  0
LAYER
  5
71
330
2
100
AcDbSymbolTableRecord
100
AcDbLayerTableRecord
  2
숨은선
 70
     0
 62
     2
  6
HIDDEN
370
    15
390
F
  0
LAYER
  5
72
330
2
100
AcDbSymbolTableRecord
100
AcDbLayerTableRecord
  2
중심선
 70
     0
 62
     1
  6
CENTERX2
370
    -3
390
F
  0
LAYER
  5
73
330
2
100
AcDbSymbolTableRecord
100
AcDbLayerTableRecord
  2
파단선
 70
     0
 62
     4
  6
Continuous
370
    -3
390
F
  0
LAYER
  5
74
330
2
100
AcDbSymbolTableRecord
100
AcDbLayerTableRecord
  2
해칭선
 70
     0
 62
   100
  6
Continuous
370
    -3
390
F
  0
LAYER
  5
75
330
2
100
AcDbSymbolTableRecord
100
AcDbLayerTableRecord
  2
가는실선
 70
     0
 62
     4
  6
Continuous
370
    -3
390
F
  0
LAYER
  5
76
330
2
100
AcDbSymbolTableRecord
100
AcDbLayerTableRecord
  2
치수_보조선
 70
     0
 62
     4
  6
Continuous
370
    -3
390
F
  0
LAYER
  5
77
330
2
100
AcDbSymbolTableRecord
100
AcDbLayerTableRecord
  2
치수문자_일반주서
 70
     0
 62
     7
  6
Continuous
370
    15
390
F
  0
LAYER
  5
78
330
2
100
AcDbSymbolTableRecord
100
AcDbLayerTableRecord
  2
개별주서
 70
     0
 62
   100
  6
Continuous
370
    30
390
F
  0
LAYER
  5
79
330
2
100
AcDbSymbolTableRecord
100
AcDbLayerTableRecord
  2
중간선
 70
     0
 62
     2
  6
Continuous
370
    15
390
F
  0
LAYER
  5
7A
330
2
100
AcDbSymbolTableRecord
100
AcDbLayerTableRecord
  2
윤곽선
 70
     0
 62
     3
  6
Continuous
370
    40
390
F
  0
LAYER
  5
7B
330
2
100
AcDbSymbolTableRecord
100
AcDbLayerTableRecord
  2
중심마크
 70
     0
 62
   100
  6
Continuous
370
    30
390
F
  0
LAYER
  5
7C
330
2
100
AcDbSymbolTableRecord
100
AcDbLayerTableRecord
  2
가상선
 70
     0
 62
     4
  6
PHANTOM
370
    -3
390
F
  0
LAYER
  5
7D
330
2
100
AcDbSymbolTableRecord
100
AcDbLayerTableRecord
  2
특수지정선
 70
     0
 62
     5
  6
CENTERX2
370
    60
390
F
  0
LAYER
  5
7E
330
2
100
AcDbSymbolTableRecord
100
AcDbLayerTableRecord
  2
참조1
 70
     0
 62
    -4
  6
Continuous
370
    -3
390
F
  0
LAYER
  5
13A
330
2
100
AcDbSymbolTableRecord
100
AcDbLayerTableRecord
  2
Defpoints
 70
     0
 62
     7
  6
Continuous
290
     0
370
    -3
390
F
  0
ENDTAB
  0
TABLE
  2
STYLE
  5
3
330
0
100
AcDbSymbolTable
 70
     2
  0
STYLE
  5
11
330
3
100
AcDbSymbolTableRecord
100
AcDbTextStyleTableRecord
  2
Standard
 70
     0
 40
0.0
 41
1.0
 50
0.0
 71
     0
 42
3.5
  3
txt
  4

  0
STYLE
  5
94
330
3
100
AcDbSymbolTableRecord
100
AcDbTextStyleTableRecord
  2
SLDTEXTSTYLE0
 70
     0
 40
0.0
 41
0.75
 50
0.0
 71
     0
 42
3.5
  3
TXT
  4

  0
ENDTAB
  0
TABLE
  2
VIEW
  5
6
330
0
100
AcDbSymbolTable
 70
     0
  0
ENDTAB
  0
TABLE
  2
UCS
  5
7
330
0
100
AcDbSymbolTable
 70
     0
  0
ENDTAB
  0
TABLE
  2
APPID
  5
9
330
0
100
AcDbSymbolTable
 70
     1
  0
APPID
  5
12
330
9
100
AcDbSymbolTableRecord
100
AcDbRegAppTableRecord
  2
ACAD
 70
     0
  0
ENDTAB
  0
TABLE
  2
DIMSTYLE
  5
A
330
0
100
AcDbSymbolTable
 70
     5
100
AcDbDimStyleTable
  0
DIMSTYLE
105
27
330
A
100
AcDbSymbolTableRecord
100
AcDbDimStyleTableRecord
  2
ISO-25
 70
     0
 41
2.5
 42
0.625
 43
3.75
 44
1.25
 73
     0
 74
     0
 77
     1
 78
     8
140
2.5
141
2.5
143
0.03937007874016
147
0.625
171
     3
172
     1
178
     0
271
     2
272
     2
274
     3
278
    44
283
     0
284
     8
340
11
  0
DIMSTYLE
105
BC
330
A
100
AcDbSymbolTableRecord
100
AcDbDimStyleTableRecord
  2
SLDDIMSTYLE0
 70
     0
 41
3.302
 44
0.0
 45
0.000000001
 73
     0
 74
     0
 77
     1
 78
     4
 79
     1
140
3.5
147
0.875
172
     1
173
     1
178
     0
271
     2
272
     2
276
     2
284
    12
289
     0
340
94
  0
DIMSTYLE
105
CA
102
{ACAD_REACTORS
330
C9
330
210
330
211
330
F3
102
}
330
A
100
AcDbSymbolTableRecord
100
AcDbDimStyleTableRecord
  2
SLDDIMSTYLE1
 70
     0
 41
3.302
 44
0.0
 45
0.000000001
 73
     0
 74
     0
 77
     1
 78
     4
 79
     1
140
3.5
143
0.0393700787401575
147
0.875
148
0.000000001
170
     1
172
     1
173
     1
178
     0
271
     2
272
     2
276
     2
284
    12
289
     0
340
94
  0
DIMSTYLE
105
E0
330
A
100
AcDbSymbolTableRecord
100
AcDbDimStyleTableRecord
  2
SLDDIMSTYLE2
 70
     0
 41
3.302
 44
0.0
 45
0.000000001
 73
     0
 74
     0
 77
     1
 78
     4
 79
     1
140
3.5
143
0.0393700787401575
147
0.875
148
0.000000001
170
     1
173
     1
178
     0
271
     2
272
     2
276
     2
284
    12
340
94
  0
DIMSTYLE
105
F4
102
{ACAD_REACTORS
102
}
330
A
100
AcDbSymbolTableRecord
100
AcDbDimStyleTableRecord
  2
SLDDIMSTYLE3
 70
     0
 41
3.302
 44
0.0
 45
0.000000001
 73
     0
 74
     0
 77
     1
 78
    12
 79
     3
140
3.5
143
0.0393700787401575
147
0.875
148
0.000000001
170
     1
173
     1
178
     0
271
     2
272
     2
276
     2
284
    12
340
94
  0
ENDTAB
  0
TABLE
  2
BLOCK_RECORD
  5
1
330
0
100
AcDbSymbolTable
 70
    15
  0
BLOCK_RECORD
  5
1F
330
1
100
AcDbSymbolTableRecord
100
AcDbBlockTableRecord
  2
*Model_Space
340
22
  0
BLOCK_RECORD
  5
1B
330
1
100
AcDbSymbolTableRecord
100
AcDbBlockTableRecord
  2
*Paper_Space
340
1E
  0
BLOCK_RECORD
  5
23
330
1
100
AcDbSymbolTableRecord
100
AcDbBlockTableRecord
  2
*Paper_Space0
340
26
  0
BLOCK_RECORD
  5
7F
330
1
100
AcDbSymbolTableRecord
100
AcDbBlockTableRecord
  2
블럭10
340
0
102
{BLKREFS
331
B4
102
}
  0
BLOCK_RECORD
  5
BD
330
1
100
AcDbSymbolTableRecord
100
AcDbBlockTableRecord
  2
_D
340
0
  0
BLOCK_RECORD
  5
CB
330
1
100
AcDbSymbolTableRecord
100
AcDbBlockTableRecord
  2
_D_1
340
0
  0
BLOCK_RECORD
  5
E1
330
1
100
AcDbSymbolTableRecord
100
AcDbBlockTableRecord
  2
_D_2
340
0
  0
BLOCK_RECORD
  5
F5
330
1
100
AcDbSymbolTableRecord
100
AcDbBlockTableRecord
  2
_D_3
340
0
  0
BLOCK_RECORD
  5
10E
330
1
100
AcDbSymbolTableRecord
100
AcDbBlockTableRecord
  2
SW_DOWELSYMBOL_0
340
0
102
{BLKREFS
331
212
102
}
  0
BLOCK_RECORD
  5
1A3
330
1
100
AcDbSymbolTableRecord
100
AcDbBlockTableRecord
  2
*D7
340
0
  0
BLOCK_RECORD
  5
1B0
330
1
100
AcDbSymbolTableRecord
100
AcDbBlockTableRecord
  2
*D8
340
0
  0
BLOCK_RECORD
  5
1D0
330
1
100
AcDbSymbolTableRecord
100
AcDbBlockTableRecord
  2
*D9
340
0
  0
BLOCK_RECORD
  5
1DC
330
1
100
AcDbSymbolTableRecord
100
AcDbBlockTableRecord
  2
*D10
340
0
  0
BLOCK_RECORD
  5
21C
330
1
100
AcDbSymbolTableRecord
100
AcDbBlockTableRecord
  2
*D11
340
0
  0
BLOCK_RECORD
  5
228
330
1
100
AcDbSymbolTableRecord
100
AcDbBlockTableRecord
  2
*D12
340
0
  0
BLOCK_RECORD
  5
235
330
1
100
AcDbSymbolTableRecord
100
AcDbBlockTableRecord
  2
*D13
340
0
  0
BLOCK_RECORD
  5
241
330
1
100
AcDbSymbolTableRecord
100
AcDbBlockTableRecord
  2
*D14
340
0
  0
ENDTAB
  0
ENDSEC
  0
SECTION
  2
BLOCKS
  0
BLOCK
  5
20
330
1F
100
AcDbEntity
  8
0
100
AcDbBlockBegin
  2
*Model_Space
 70
     0
 10
0.0
 20
0.0
 30
0.0
  3
*Model_Space
  1
*Model_Space
  0
ENDBLK
  5
21
330
1F
100
AcDbEntity
  8
0
100
AcDbBlockEnd
  0
BLOCK
  5
1C
330
1B
100
AcDbEntity
 67
     1
  8
0
100
AcDbBlockBegin
  2
*Paper_Space
 70
     0
 10
0.0
 20
0.0
 30
0.0
  3
*Paper_Space
  1
*Paper_Space
  0
ENDBLK
  5
1D
330
1B
100
AcDbEntity
 67
     1
  8
0
100
AcDbBlockEnd
  0
BLOCK
  5
24
330
23
100
AcDbEntity
  8
0
100
AcDbBlockBegin
  2
*Paper_Space0
 70
     0
 10
0.0
 20
0.0
 30
0.0
  3
*Paper_Space0
  1
*Paper_Space0
  0
ENDBLK
  5
25
330
23
100
AcDbEntity
  8
0
100
AcDbBlockEnd
  0
BLOCK
  5
80
330
7F
100
AcDbEntity
  8
0
100
AcDbBlockBegin
  2
블럭10
 70
     2
 10
0.0
 20
0.0
 30
0.0
  3
블럭10
  1
블럭10
  0
ELLIPSE
  5
82
330
7F
100
AcDbEntity
  8
중심선
100
AcDbEllipse
 10
20.54032771741204
 20
12.0471743016438
 30
0.0
 11
6.600054785286829
 21
-1.261213355974178E-13
 31
0.0
210
0.0
220
0.0
230
1.0
 40
0.636358354079598
 41
0.9219305317359503
 42
6.513795318482858
  0
ELLIPSE
  5
83
330
7F
100
AcDbEntity
  8
중심선
100
AcDbEllipse
 10
20.54032771746488
 20
12.04717430159265
 30
0.0
 11
3.960054785062283
 21
1.540847449632565E-10
 31
0.0
210
0.0
220
0.0
230
1.0
 40
0.3939339440162632
 41
1.131841032648279
 42
5.62031148352944
  0
LINE
  5
84
330
7F
100
AcDbEntity
  8
중심선
100
AcDbLine
 10
2.268634060543552
 20
16.24717430164393
 30
0.0
 11
5.714909304380834
 21
16.24717430164393
 31
0.0
  0
LINE
  5
85
330
7F
100
AcDbEntity
  8
중심선
100
AcDbLine
 10
5.245725140726316
 20
7.84717430164391
 30
0.0
 11
8.692000384563599
 21
7.84717430164391
 31
0.0
  0
LINE
  5
86
330
7F
100
AcDbEntity
  8
중심선
100
AcDbLine
 10
15.74043728645272
 20
16.24717430164393
 30
0.0
 11
8.692000384563599
 21
7.84717430164391
 31
0.0
  0
LINE
  5
87
330
7F
100
AcDbEntity
  8
중심선
100
AcDbLine
 10
0.1404042013395286
 20
13.71084872107135
 30
0.0
 11
3.58671253028996
 21
13.71088815037384
 31
0.0
  0
LINE
  5
88
330
7F
100
AcDbEntity
  8
중심선
100
AcDbLine
 10
2.750260043222114
 20
10.84717430164391
 30
0.0
 11
6.196535287059397
 21
10.84717430164391
 31
0.0
  0
LINE
  5
89
330
7F
100
AcDbEntity
  8
중심선
100
AcDbLine
 10
12.29416204261559
 20
16.24717430164393
 30
0.0
 11
5.245725140726316
 21
7.84717430164391
 31
0.0
  0
LINE
  5
8A
330
7F
100
AcDbEntity
  8
중심선
100
AcDbLine
 10
10.72767329541681
 20
16.24717430164393
 30
0.0
 11
6.196535287059397
 21
10.84717430164391
 31
0.0
  0
LINE
  5
8B
330
7F
100
AcDbEntity
  8
중심선
100
AcDbLine
 10
7.28139805157953
 20
16.24717430164393
 30
0.0
 11
2.750260043222114
 21
10.84717430164391
 31
0.0
  0
LINE
  5
8C
330
7F
100
AcDbEntity
  8
중심선
100
AcDbLine
 10
5.714909304380834
 20
16.24717430164393
 30
0.0
 11
3.58671253028996
 21
13.71088815037384
 31
0.0
  0
LINE
  5
8D
330
7F
100
AcDbEntity
  8
중심선
100
AcDbLine
 10
2.268634060543552
 20
16.24717430164393
 30
0.0
 11
0.1404042013395286
 21
13.71084872107135
 31
0.0
  0
LINE
  5
8E
330
7F
100
AcDbEntity
  8
중심선
100
AcDbLine
 10
7.28139805157953
 20
16.24717430164393
 30
0.0
 11
10.72767329541681
 21
16.24717430164393
 31
0.0
  0
LINE
  5
8F
330
7F
100
AcDbEntity
  8
중심선
100
AcDbLine
 10
12.29416204261559
 20
16.24717430164393
 30
0.0
 11
15.74043728645272
 21
16.24717430164393
 31
0.0
  0
LINE
  5
90
330
7F
100
AcDbEntity
  8
중심선
100
AcDbLine
 10
19.22036997980202
 20
11.08717430171403
 30
0.0
 11
23.66174974927406
 21
11.08717430171406
 31
0.0
  0
LINE
  5
91
330
7F
100
AcDbEntity
  8
중심선
100
AcDbLine
 10
19.22039502424796
 20
13.00717430171391
 30
0.0
 11
19.22036997980202
 21
11.08717430171403
 31
0.0
  0
LINE
  5
92
330
7F
100
AcDbEntity
  8
중심선
100
AcDbLine
 10
19.22039502424796
 20
13.00717430171391
 30
0.0
 11
26.96566020931264
 21
13.00717430171391
 31
0.0
  0
LINE
  5
93
330
7F
100
AcDbEntity
  8
중심선
100
AcDbLine
 10
22.22332737316547
 20
13.45928029700563
 30
0.0
 11
24.52862924686651
 21
15.39360700705356
 31
0.0
  0
ATTDEF
  5
95
330
7F
100
AcDbEntity
  8
FORMAT
 62
     2
100
AcDbText
 10
4.408487351596664
 20
2.075366912832191
 30
0.0
 40
4.233333333333333
  1
E1080200
 41
0.75
  7
SLDTEXTSTYLE0
 11
4.408487351596664
 21
-0.0412997538344756
 31
0.0
100
AcDbAttributeDefinition
  3

  2
AUTOATTR0
 70
     0
 74
     1
  0
ENDBLK
  5
81
330
7F
100
AcDbEntity
  8
0
100
AcDbBlockEnd
  0
BLOCK
  5
BE
330
BD
100
AcDbEntity
  8
0
100
AcDbBlockBegin
  2
_D
 70
     0
 10
0.0
 20
0.0
 30
0.0
  3
_D
  1
_D
  0
SOLID
  5
C0
330
BD
100
AcDbEntity
  8
치수문자_일반주서
100
AcDbTrace
 10
-59.5594211678731
 20
6.351074928723887
 30
0.0
 11
-59.05142116787309
 21
9.653074928723886
 31
0.0
 12
-60.0674211678731
 22
9.653074928723886
 32
0.0
 13
-60.0674211678731
 23
9.653074928723886
 33
0.0
  0
SOLID
  5
C1
330
BD
100
AcDbEntity
  8
치수문자_일반주서
100
AcDbTrace
 10
-59.5594211678731
 20
-6.348925071276102
 30
0.0
 11
-60.0674211678731
 21
-9.650925071276102
 31
0.0
 12
-59.05142116787309
 22
-9.650925071276102
 32
0.0
 13
-59.05142116787309
 23
-9.650925071276102
 33
0.0
  0
LINE
  5
C2
330
BD
100
AcDbEntity
  8
치수문자_일반주서
100
AcDbLine
 10
-47.05942116787307
 20
6.351074928723888
 30
0.0
 11
-60.5594211678731
 21
6.351074928723887
 31
0.0
  0
LINE
  5
C3
330
BD
100
AcDbEntity
  8
치수문자_일반주서
100
AcDbLine
 10
-47.05942116787307
 20
-6.348925071276101
 30
0.0
 11
-60.5594211678731
 21
-6.348925071276102
 31
0.0
  0
LINE
  5
C4
330
BD
100
AcDbEntity
  8
치수문자_일반주서
100
AcDbLine
 10
-59.5594211678731
 20
6.351074928723887
 30
0.0
 11
-59.5594211678731
 21
12.70107492872389
 31
0.0
  0
LINE
  5
C5
330
BD
100
AcDbEntity
  8
치수문자_일반주서
100
AcDbLine
 10
-59.5594211678731
 20
6.351074928723887
 30
0.0
 11
-59.5594211678731
 21
-6.348925071276102
 31
0.0
  0
LINE
  5
C6
330
BD
100
AcDbEntity
  8
치수문자_일반주서
100
AcDbLine
 10
-59.5594211678731
 20
-6.348925071276102
 30
0.0
 11
-59.5594211678731
 21
-12.6989250712761
 31
0.0
  0
MTEXT
  5
C7
330
BD
100
AcDbEntity
  8
치수문자_일반주서
100
AcDbMText
 10
-64.07115825707491
 20
-8.456894014097152
 30
0.0
 40
3.5
 41
0.0
 71
     1
 72
     1
  1
%%c
  7
SLDTEXTSTYLE0
 11
-7.044195017643634E-15
 21
1.0
 31
0.0
 73
     1
 44
1.0
  0
MTEXT
  5
C8
330
BD
100
AcDbEntity
  8
치수문자_일반주서
100
AcDbMText
 10
-64.1246304337348
 20
-3.178456615723071
 30
0.0
 40
3.5
 41
0.0
 71
     1
 72
     1
  1
12.70
  7
SLDTEXTSTYLE0
 11
-7.044195017643634E-15
 21
1.0
 31
0.0
 73
     1
 44
1.0
  0
ENDBLK
  5
BF
330
BD
100
AcDbEntity
  8
0
100
AcDbBlockEnd
  0
BLOCK
  5
CC
330
CB
100
AcDbEntity
  8
0
100
AcDbBlockBegin
  2
_D_1
 70
     0
 10
0.0
 20
0.0
 30
0.0
  3
_D_1
  1
_D_1
  0
LINE
  5
CE
330
CB
100
AcDbEntity
  8
0
  6
Continuous
 62
     0
370
    -2
100
AcDbLine
 10
78.20000000000002
 20
25.46250000000001
 30
0.0
 11
78.20000000000002
 21
46.60915901397626
 31
0.0
  0
LINE
  5
CF
330
CB
100
AcDbEntity
  8
0
  6
Continuous
 62
     0
370
    -2
100
AcDbLine
 10
1.999999999999987
 20
20.13736800592763
 30
0.0
 11
1.999999999999986
 21
46.60915901397626
 31
0.0
  0
LINE
  5
D0
330
CB
100
AcDbEntity
  8
0
  6
Continuous
 62
     0
370
    -2
100
AcDbLine
 10
74.89800000000002
 20
46.60915901397626
 30
0.0
 11
5.301999999999985
 21
46.60915901397626
 31
0.0
  0
SOLID
  5
D1
330
CB
100
AcDbEntity
  8
0
 62
     0
100
AcDbTrace
 10
74.89800000000002
 20
46.05882568064293
 30
0.0
 11
74.89800000000002
 21
47.15949234730959
 31
0.0
 12
78.20000000000002
 22
46.60915901397626
 32
0.0
 13
78.20000000000002
 23
46.60915901397626
 33
0.0
  0
SOLID
  5
D2
330
CB
100
AcDbEntity
  8
0
 62
     0
100
AcDbTrace
 10
5.301999999999985
 20
47.15949234730959
 30
0.0
 11
5.301999999999985
 21
46.05882568064293
 31
0.0
 12
1.999999999999986
 22
46.60915901397626
 32
0.0
 13
1.999999999999986
 23
46.60915901397626
 33
0.0
  0
MTEXT
  5
D3
330
CB
100
AcDbEntity
  8
0
 62
     0
370
    15
100
AcDbMText
 10
39.20663753845214
 20
50.98415901397626
 30
0.0
 40
3.5
 41
0.0
 71
     2
 72
     1
  1
\A1;76.20 [3]
  7
SLDTEXTSTYLE0
 73
     1
 44
1.0
  0
POINT
  5
D4
330
CB
100
AcDbEntity
  8
Defpoints
 62
     0
100
AcDbPoint
 10
78.20000000000002
 20
25.40000000000001
 30
0.0
  0
POINT
  5
D5
330
CB
100
AcDbEntity
  8
Defpoints
 62
     0
100
AcDbPoint
 10
1.999999999999987
 20
20.07486800592763
 30
0.0
  0
POINT
  5
D6
330
CB
100
AcDbEntity
  8
Defpoints
 62
     0
100
AcDbPoint
 10
1.999999999999987
 20
46.60915901397626
 30
0.0
  0
ENDBLK
  5
CD
330
CB
100
AcDbEntity
  8
0
100
AcDbBlockEnd
  0
BLOCK
  5
E2
330
E1
100
AcDbEntity
  8
0
100
AcDbBlockBegin
  2
_D_2
 70
     0
 10
0.0
 20
0.0
 30
0.0
  3
_D_2
  1
_D_2
  0
LINE
  5
E4
330
E1
100
AcDbEntity
  8
0
  6
Continuous
 62
     0
370
    -2
100
AcDbLine
 10
29.14057883212694
 20
6.606477789079263
 30
0.0
 11
29.14057883212693
 21
30.3105321911699
 31
0.0
  0
LINE
  5
E5
330
E1
100
AcDbEntity
  8
0
  6
Continuous
 62
     0
370
    -2
100
AcDbLine
 10
-47.05942116787307
 20
5.413574928723888
 30
0.0
 11
-47.05942116787308
 21
30.3105321911699
 31
0.0
  0
LINE
  5
E6
330
E1
100
AcDbEntity
  8
0
  6
Continuous
 62
     0
370
    -2
100
AcDbLine
 10
25.83857883212693
 20
30.3105321911699
 30
0.0
 11
-43.75742116787308
 21
30.3105321911699
 31
0.0
  0
SOLID
  5
E7
330
E1
100
AcDbEntity
  8
0
 62
     0
100
AcDbTrace
 10
25.83857883212693
 20
29.76019885783656
 30
0.0
 11
25.83857883212693
 21
30.86086552450323
 31
0.0
 12
29.14057883212693
 22
30.3105321911699
 32
0.0
 13
29.14057883212693
 23
30.3105321911699
 33
0.0
  0
SOLID
  5
E8
330
E1
100
AcDbEntity
  8
0
 62
     0
100
AcDbTrace
 10
-43.75742116787308
 20
30.86086552450323
 30
0.0
 11
-43.75742116787308
 21
29.76019885783656
 31
0.0
 12
-47.05942116787308
 22
30.3105321911699
 32
0.0
 13
-47.05942116787308
 23
30.3105321911699
 33
0.0
  0
MTEXT
  5
E9
330
E1
100
AcDbEntity
  8
0
 62
     0
370
    15
100
AcDbMText
 10
-8.959421167873067
 20
34.6855321911699
 30
0.0
 40
3.5
 41
0.0
 71
     2
 72
     1
  1
\A1;76.20 [3.00]
  7
SLDTEXTSTYLE0
 73
     1
 44
1.0
  0
POINT
  5
EA
330
E1
100
AcDbEntity
  8
Defpoints
 62
     0
100
AcDbPoint
 10
29.14057883212694
 20
6.543977789079263
 30
0.0
  0
POINT
  5
EB
330
E1
100
AcDbEntity
  8
Defpoints
 62
     0
100
AcDbPoint
 10
-47.05942116787307
 20
5.351074928723888
 30
0.0
  0
POINT
  5
EC
330
E1
100
AcDbEntity
  8
Defpoints
 62
     0
100
AcDbPoint
 10
-47.05942116787307
 20
30.31053219116989
 30
0.0
  0
ENDBLK
  5
E3
330
E1
100
AcDbEntity
  8
0
100
AcDbBlockEnd
  0
BLOCK
  5
F6
330
F5
100
AcDbEntity
  8
0
100
AcDbBlockBegin
  2
_D_3
 70
     0
 10
0.0
 20
0.0
 30
0.0
  3
_D_3
  1
_D_3
  0
LINE
  5
F8
330
F5
100
AcDbEntity
  8
0
  6
Continuous
 62
     0
370
    -2
100
AcDbLine
 10
78.26250000000002
 20
-25.4
 30
0.0
 11
97.20000000000036
 21
-25.39999999999992
 31
0.0
  0
LINE
  5
F9
330
F5
100
AcDbEntity
  8
0
  6
Continuous
 62
     0
370
    -2
100
AcDbLine
 10
78.26250000000002
 20
25.40000000000002
 30
0.0
 11
97.20000000000019
 21
25.40000000000009
 31
0.0
  0
LINE
  5
FA
330
F5
100
AcDbEntity
  8
0
  6
Continuous
 62
     0
370
    -2
100
AcDbLine
 10
97.20000000000019
 20
25.40000000000009
 30
0.0
 11
97.20000000000009
 21
54.97275000000008
 31
0.0
  0
LINE
  5
FB
330
F5
100
AcDbEntity
  8
0
  6
Continuous
 62
     0
370
    -2
100
AcDbLine
 10
97.20000000000036
 20
-25.39999999999992
 30
0.0
 11
97.20000000000019
 21
25.40000000000009
 31
0.0
  0
LINE
  5
FC
330
F5
100
AcDbEntity
  8
0
  6
Continuous
 62
     0
370
    -2
100
AcDbLine
 10
97.20000000000037
 20
-28.70199999999992
 30
0.0
 11
97.20000000000039
 21
-32.00399999999992
 31
0.0
  0
LINE
  5
FD
330
F5
100
AcDbEntity
  8
0
  6
Continuous
 62
     0
370
    -2
100
AcDbLine
 10
97.20000000000017
 20
28.70200000000009
 30
0.0
 11
97.20000000000016
 21
32.00400000000009
 31
0.0
  0
SOLID
  5
FE
330
F5
100
AcDbEntity
  8
0
 62
     0
100
AcDbTrace
 10
97.7503333333337
 20
-28.70199999999992
 30
0.0
 11
96.64966666666704
 21
-28.70199999999992
 31
0.0
 12
97.20000000000036
 22
-25.39999999999992
 32
0.0
 13
97.20000000000036
 23
-25.39999999999992
 33
0.0
  0
SOLID
  5
FF
330
F5
100
AcDbEntity
  8
0
 62
     0
100
AcDbTrace
 10
96.64966666666685
 20
28.70200000000008
 30
0.0
 11
97.7503333333335
 21
28.70200000000009
 31
0.0
 12
97.20000000000019
 22
25.40000000000009
 32
0.0
 13
97.20000000000019
 23
25.40000000000009
 33
0.0
  0
MTEXT
  5
100
330
F5
100
AcDbEntity
  8
0
 62
     0
370
    15
100
AcDbMText
 10
92.82500000000013
 20
43.59775000000006
 30
0.0
 40
3.5
 41
0.0
 71
     2
 72
     1
  1
\A1;%%c50.80 [2]
  7
SLDTEXTSTYLE0
 11
-3.356894814614646E-15
 21
1.0
 31
0.0
 73
     1
 44
1.0
  0
POINT
  5
101
330
F5
100
AcDbEntity
  8
Defpoints
 62
     0
100
AcDbPoint
 10
78.20000000000002
 20
-25.4
 30
0.0
  0
POINT
  5
24D
330
F5
100
AcDbEntity
  8
Defpoints
 62
     0
100
AcDbPoint
 10
78.20000000000002
 20
25.40000000000002
 30
0.0
  0
POINT
  5
24E
330
F5
100
AcDbEntity
  8
Defpoints
 62
     0
100
AcDbPoint
 10
97.20000000000019
 20
25.40000000000009
 30
0.0
  0
ENDBLK
  5
F7
330
F5
100
AcDbEntity
  8
0
100
AcDbBlockEnd
  0
BLOCK
  5
10F
330
10E
100
AcDbEntity
  8
0
100
AcDbBlockBegin
  2
SW_DOWELSYMBOL_0
 70
     0
 10
0.0
 20
0.0
 30
0.0
  3
SW_DOWELSYMBOL_0
  1
SW_DOWELSYMBOL_0
  0
CIRCLE
  5
111
330
10E
100
AcDbEntity
  8
해칭선
 62
     0
100
AcDbCircle
 10
0.0
 20
0.0
 30
0.0
 40
3.000000000000001
  0
HATCH
  5
112
330
10E
100
AcDbEntity
  8
0
  6
Continuous
 62
     0
370
     0
100
AcDbHatch
 10
0.0
 20
0.0
 30
0.0
210
0.0
220
0.0
230
1.0
  2
SOLID
 70
     1
 71
     0
 91
        1
 92
        0
 93
        3
 72
     2
 10
0.0
 20
0.0
 40
3.000000000000001
 50
0.0
 51
90.0
 73
     1
 72
     1
 10
0.0
 20
3.000000000000001
 11
0.0
 21
0.0
 72
     1
 10
0.0
 20
0.0
 11
3.000000000000001
 21
0.0
 97
        0
 75
     0
 76
     1
 98
        1
 10
0.0
 20
0.0
  0
HATCH
  5
113
330
10E
100
AcDbEntity
  8
0
  6
Continuous
 62
     0
370
     0
100
AcDbHatch
 10
0.0
 20
0.0
 30
0.0
210
0.0
220
0.0
230
1.0
  2
SOLID
 70
     1
 71
     0
 91
        1
 92
        0
 93
        3
 72
     2
 10
0.0
 20
0.0
 40
3.000000000000001
 50
180.0
 51
270.0000000000007
 73
     1
 72
     1
 10
0.0
 20
-3.000000000000001
 11
0.0
 21
0.0
 72
     1
 10
0.0
 20
0.0
 11
-3.000000000000001
 21
0.0
 97
        0
 75
     0
 76
     1
 98
        1
 10
0.0
 20
0.0
  0
ENDBLK
  5
110
330
10E
100
AcDbEntity
  8
0
100
AcDbBlockEnd
  0
BLOCK
  5
1A4
330
1A3
100
AcDbEntity
  8
0
100
AcDbBlockBegin
  2
*D7
 70
     1
 10
0.0
 20
0.0
 30
0.0
  3
*D7
  1
*D8
  0
LINE
  5
1A5
330
1A3
100
AcDbEntity
  8
0
  6
Continuous
 62
     0
370
    -2
100
AcDbLine
 10
26.18148352236124
 20
34.92500000000001
 30
0.0
 11
4.375000000000002
 21
34.92499999999993
 31
0.0
  0
LINE
  5
1A6
330
1A3
100
AcDbEntity
  8
0
  6
Continuous
 62
     0
370
    -2
100
AcDbLine
 10
27.18148352236123
 20
3.175000000000013
 30
0.0
 11
4.375000000000113
 21
3.174999999999931
 31
0.0
  0
LINE
  5
1A7
330
1A3
100
AcDbEntity
  8
0
  6
Continuous
 62
     0
370
    -2
100
AcDbLine
 10
4.375000000000013
 20
31.62299999999993
 30
0.0
 11
4.375000000000101
 21
6.476999999999931
 31
0.0
  0
SOLID
  5
1A8
330
1A3
100
AcDbEntity
  8
0
 62
     0
100
AcDbTrace
 10
4.925333333333347
 20
31.62299999999994
 30
0.0
 11
3.82466666666668
 21
31.62299999999993
 31
0.0
 12
4.375000000000002
 22
34.92499999999993
 32
0.0
 13
4.375000000000002
 23
34.92499999999993
 33
0.0
  0
SOLID
  5
1A9
330
1A3
100
AcDbEntity
  8
0
 62
     0
100
AcDbTrace
 10
3.824666666666768
 20
6.476999999999929
 30
0.0
 11
4.925333333333435
 21
6.476999999999933
 31
0.0
 12
4.375000000000113
 22
3.174999999999931
 32
0.0
 13
4.375000000000113
 23
3.174999999999931
 33
0.0
  0
MTEXT
  5
1AA
330
1A3
100
AcDbEntity
  8
0
 62
     0
370
    15
100
AcDbMText
 10
0.0000000000000568
 20
19.04999999999999
 30
0.0
 40
3.5
 41
0.0
 71
     2
 72
     1
  1
\A1;%%c31.75 [1 1/4]
  7
SLDTEXTSTYLE0
 11
-3.496765431890256E-15
 21
1.0
 31
0.0
 73
     1
 44
1.0
  0
POINT
  5
1AB
330
1A3
100
AcDbEntity
  8
Defpoints
 62
     0
100
AcDbPoint
 10
26.24398352236124
 20
34.92500000000001
 30
0.0
  0
POINT
  5
1AC
330
1A3
100
AcDbEntity
  8
Defpoints
 62
     0
100
AcDbPoint
 10
27.24398352236123
 20
3.175000000000013
 30
0.0
  0
POINT
  5
1AD
330
1A3
100
AcDbEntity
  8
Defpoints
 62
     0
100
AcDbPoint
 10
4.375000000000114
 20
3.174999999999928
 30
0.0
  0
ENDBLK
  5
1AE
330
1A3
100
AcDbEntity
  8
0
100
AcDbBlockEnd
  0
BLOCK
  5
1B1
330
1B0
100
AcDbEntity
  8
0
100
AcDbBlockBegin
  2
*D8
 70
     1
 10
0.0
 20
0.0
 30
0.0
  3
*D8
  1
*D9
  0
LINE
  5
1B2
330
1B0
100
AcDbEntity
  8
0
  6
Continuous
 62
     0
370
    -2
100
AcDbLine
 10
165.9439835223612
 20
38.16250000000001
 30
0.0
 11
165.9439835223612
 21
64.63996586444053
 31
0.0
  0
LINE
  5
1B3
330
1B0
100
AcDbEntity
  8
0
  6
Continuous
 62
     0
370
    -2
100
AcDbLine
 10
26.24398352236124
 20
34.98750000000001
 30
0.0
 11
26.24398352236125
 21
64.63996586444053
 31
0.0
  0
LINE
  5
1B4
330
1B0
100
AcDbEntity
  8
0
  6
Continuous
 62
     0
370
    -2
100
AcDbLine
 10
162.6419835223612
 20
64.63996586444053
 30
0.0
 11
29.54598352236125
 21
64.63996586444053
 31
0.0
  0
SOLID
  5
1B5
330
1B0
100
AcDbEntity
  8
0
 62
     0
100
AcDbTrace
 10
162.6419835223612
 20
64.0896325311072
 30
0.0
 11
162.6419835223612
 21
65.19029919777385
 31
0.0
 12
165.9439835223612
 22
64.63996586444053
 32
0.0
 13
165.9439835223612
 23
64.63996586444053
 33
0.0
  0
SOLID
  5
1B6
330
1B0
100
AcDbEntity
  8
0
 62
     0
100
AcDbTrace
 10
29.54598352236125
 20
65.19029919777385
 30
0.0
 11
29.54598352236125
 21
64.0896325311072
 31
0.0
 12
26.24398352236125
 22
64.63996586444053
 32
0.0
 13
26.24398352236125
 23
64.63996586444053
 33
0.0
  0
MTEXT
  5
1B7
330
1B0
100
AcDbEntity
  8
0
 62
     0
370
    15
100
AcDbMText
 10
96.09398352236124
 20
69.01496586444053
 30
0.0
 40
3.5
 41
0.0
 71
     2
 72
     1
  1
\A1;139.70 [5 1/2]
  7
SLDTEXTSTYLE0
 73
     1
 44
1.0
  0
POINT
  5
1B8
330
1B0
100
AcDbEntity
  8
Defpoints
 62
     0
100
AcDbPoint
 10
165.9439835223612
 20
38.10000000000001
 30
0.0
  0
POINT
  5
1B9
330
1B0
100
AcDbEntity
  8
Defpoints
 62
     0
100
AcDbPoint
 10
26.24398352236124
 20
34.92500000000001
 30
0.0
  0
POINT
  5
1BA
330
1B0
100
AcDbEntity
  8
Defpoints
 62
     0
100
AcDbPoint
 10
26.24398352236124
 20
64.63996586444053
 30
0.0
  0
ENDBLK
  5
1BB
330
1B0
100
AcDbEntity
  8
0
100
AcDbBlockEnd
  0
BLOCK
  5
1D1
330
1D0
100
AcDbEntity
  8
0
100
AcDbBlockBegin
  2
*D9
 70
     1
 10
0.0
 20
0.0
 30
0.0
  3
*D9
  1
*D10
  0
LINE
  5
1D3
330
1D0
100
AcDbEntity
  8
0
  6
Continuous
 62
     0
370
    -2
100
AcDbLine
 10
165.9439835223612
 20
38.16250000000001
 30
0.0
 11
165.9439835223612
 21
49.93541807275226
 31
0.0
  0
LINE
  5
1D4
330
1D0
100
AcDbEntity
  8
0
  6
Continuous
 62
     0
370
    -2
100
AcDbLine
 10
89.74398352236123
 20
34.98749999999999
 30
0.0
 11
89.74398352236123
 21
49.93541807275226
 31
0.0
  0
LINE
  5
1D5
330
1D0
100
AcDbEntity
  8
0
  6
Continuous
 62
     0
370
    -2
100
AcDbLine
 10
162.6419835223612
 20
49.93541807275226
 30
0.0
 11
93.04598352236124
 21
49.93541807275226
 31
0.0
  0
SOLID
  5
1D6
330
1D0
100
AcDbEntity
  8
0
 62
     0
100
AcDbTrace
 10
162.6419835223612
 20
49.38508473941893
 30
0.0
 11
162.6419835223612
 21
50.4857514060856
 31
0.0
 12
165.9439835223612
 22
49.93541807275226
 32
0.0
 13
165.9439835223612
 23
49.93541807275226
 33
0.0
  0
SOLID
  5
1D7
330
1D0
100
AcDbEntity
  8
0
 62
     0
100
AcDbTrace
 10
93.04598352236124
 20
50.4857514060856
 30
0.0
 11
93.04598352236124
 21
49.38508473941893
 31
0.0
 12
89.74398352236123
 22
49.93541807275226
 32
0.0
 13
89.74398352236123
 23
49.93541807275226
 33
0.0
  0
MTEXT
  5
1D8
330
1D0
100
AcDbEntity
  8
0
 62
     0
370
    15
100
AcDbMText
 10
128.1926213065312
 20
54.31041807275226
 30
0.0
 40
3.5
 41
0.0
 71
     2
 72
     1
  1
\A1;76.20 [3]
  7
SLDTEXTSTYLE0
 73
     1
 44
1.0
  0
POINT
  5
1D9
330
1D0
100
AcDbEntity
  8
Defpoints
 62
     0
100
AcDbPoint
 10
165.9439835223612
 20
38.10000000000001
 30
0.0
  0
POINT
  5
1DA
330
1D0
100
AcDbEntity
  8
Defpoints
 62
     0
100
AcDbPoint
 10
89.74398352236123
 20
34.92499999999999
 30
0.0
  0
POINT
  5
1DB
330
1D0
100
AcDbEntity
  8
Defpoints
 62
     0
100
AcDbPoint
 10
89.74398352236123
 20
49.93541807275226
 30
0.0
  0
ENDBLK
  5
1D2
330
1D0
100
AcDbEntity
  8
0
100
AcDbBlockEnd
  0
BLOCK
  5
1DD
330
1DC
100
AcDbEntity
  8
0
100
AcDbBlockBegin
  2
*D10
 70
     1
 10
0.0
 20
0.0
 30
0.0
  3
*D10
  1
*D11
  0
LINE
  5
1DF
330
1DC
100
AcDbEntity
  8
0
  6
Continuous
 62
     0
370
    -2
100
AcDbLine
 10
166.0064835223612
 20
0.0000000000000002
 30
0.0
 11
184.9439835223615
 21
0.0000000000000711
 31
0.0
  0
LINE
  5
1E0
330
1DC
100
AcDbEntity
  8
0
  6
Continuous
 62
     0
370
    -2
100
AcDbLine
 10
166.0064835223612
 20
38.10000000000001
 30
0.0
 11
184.9439835223614
 21
38.10000000000008
 31
0.0
  0
LINE
  5
1E1
330
1DC
100
AcDbEntity
  8
0
  6
Continuous
 62
     0
370
    -2
100
AcDbLine
 10
184.9439835223614
 20
38.10000000000008
 30
0.0
 11
184.9439835223612
 21
90.92139923012485
 31
0.0
  0
LINE
  5
1E2
330
1DC
100
AcDbEntity
  8
0
  6
Continuous
 62
     0
370
    -2
100
AcDbLine
 10
184.9439835223615
 20
3.302000000000071
 30
0.0
 11
184.9439835223614
 21
34.79800000000008
 31
0.0
  0
SOLID
  5
1E3
330
1DC
100
AcDbEntity
  8
0
 62
     0
100
AcDbTrace
 10
184.3936501890282
 20
3.302000000000068
 30
0.0
 11
185.4943168556948
 21
3.302000000000073
 31
0.0
 12
184.9439835223615
 22
0.0000000000000711
 32
0.0
 13
184.9439835223615
 23
0.0000000000000711
 33
0.0
  0
SOLID
  5
1E4
330
1DC
100
AcDbEntity
  8
0
 62
     0
100
AcDbTrace
 10
185.4943168556947
 20
34.79800000000008
 30
0.0
 11
184.3936501890281
 21
34.79800000000008
 31
0.0
 12
184.9439835223614
 22
38.10000000000008
 32
0.0
 13
184.9439835223614
 23
38.10000000000008
 33
0.0
  0
MTEXT
  5
1E5
330
1DC
100
AcDbEntity
  8
0
 62
     0
370
    15
100
AcDbMText
 10
180.5689835223612
 20
76.48389923012483
 30
0.0
 40
3.5
 41
0.0
 71
     2
 72
     1
  1
\A1;%%c38.1 [1 1/2]
  7
SLDTEXTSTYLE0
 11
-3.729883127349606E-15
 21
1.0
 31
0.0
 73
     1
 44
1.0
  0
POINT
  5
1E6
330
1DC
100
AcDbEntity
  8
Defpoints
 62
     0
100
AcDbPoint
 10
165.9439835223612
 20
0.0
 30
0.0
  0
POINT
  5
1E7
330
1DC
100
AcDbEntity
  8
Defpoints
 62
     0
100
AcDbPoint
 10
165.9439835223612
 20
38.10000000000001
 30
0.0
  0
POINT
  5
1E8
330
1DC
100
AcDbEntity
  8
Defpoints
 62
     0
100
AcDbPoint
 10
184.9439835223613
 20
38.10000000000008
 30
0.0
  0
ENDBLK
  5
1DE
330
1DC
100
AcDbEntity
  8
0
100
AcDbBlockEnd
  0
BLOCK
  5
21D
330
21C
100
AcDbEntity
  8
0
100
AcDbBlockBegin
  2
*D11
 70
     1
 10
0.0
 20
0.0
 30
0.0
  3
*D11
  1
*D12
  0
LINE
  5
21F
330
21C
100
AcDbEntity
  8
0
  6
Continuous
 62
     0
370
    -2
100
AcDbLine
 10
216.4927188401705
 20
-70.24408541279112
 30
0.0
 11
216.4927188401705
 21
-58.47116734003887
 31
0.0
  0
LINE
  5
220
330
21C
100
AcDbEntity
  8
0
  6
Continuous
 62
     0
370
    -2
100
AcDbLine
 10
140.2927188401704
 20
-73.41908541279113
 30
0.0
 11
140.2927188401704
 21
-58.47116734003887
 31
0.0
  0
LINE
  5
221
330
21C
100
AcDbEntity
  8
0
  6
Continuous
 62
     0
370
    -2
100
AcDbLine
 10
213.1907188401705
 20
-58.47116734003887
 30
0.0
 11
143.5947188401704
 21
-58.47116734003887
 31
0.0
  0
SOLID
  5
222
330
21C
100
AcDbEntity
  8
0
 62
     0
100
AcDbTrace
 10
213.1907188401705
 20
-59.0215006733722
 30
0.0
 11
213.1907188401705
 21
-57.92083400670553
 31
0.0
 12
216.4927188401705
 22
-58.47116734003887
 32
0.0
 13
216.4927188401705
 23
-58.47116734003887
 33
0.0
  0
SOLID
  5
223
330
21C
100
AcDbEntity
  8
0
 62
     0
100
AcDbTrace
 10
143.5947188401704
 20
-57.92083400670553
 30
0.0
 11
143.5947188401704
 21
-59.0215006733722
 31
0.0
 12
140.2927188401704
 22
-58.47116734003887
 32
0.0
 13
140.2927188401704
 23
-58.47116734003887
 33
0.0
  0
MTEXT
  5
224
330
21C
100
AcDbEntity
  8
0
 62
     0
370
    15
100
AcDbMText
 10
178.7413566243404
 20
-54.09616734003887
 30
0.0
 40
3.5
 41
0.0
 71
     2
 72
     1
  1
\A1;76.20 [3]
  7
SLDTEXTSTYLE0
 73
     1
 44
1.0
  0
POINT
  5
225
330
21C
100
AcDbEntity
  8
Defpoints
 62
     0
100
AcDbPoint
 10
216.4927188401705
 20
-70.30658541279112
 30
0.0
  0
POINT
  5
226
330
21C
100
AcDbEntity
  8
Defpoints
 62
     0
100
AcDbPoint
 10
140.2927188401704
 20
-73.48158541279113
 30
0.0
  0
POINT
  5
227
330
21C
100
AcDbEntity
  8
Defpoints
 62
     0
100
AcDbPoint
 10
140.2927188401704
 20
-58.47116734003887
 30
0.0
  0
ENDBLK
  5
21E
330
21C
100
AcDbEntity
  8
0
100
AcDbBlockEnd
  0
BLOCK
  5
229
330
228
100
AcDbEntity
  8
0
100
AcDbBlockBegin
  2
*D12
 70
     1
 10
0.0
 20
0.0
 30
0.0
  3
*D12
  1
*D13
  0
LINE
  5
22B
330
228
100
AcDbEntity
  8
0
  6
Continuous
 62
     0
370
    -2
100
AcDbLine
 10
216.5552188401705
 20
-108.4065854127911
 30
0.0
 11
235.4927188401707
 21
-108.4065854127911
 31
0.0
  0
LINE
  5
22C
330
228
100
AcDbEntity
  8
0
  6
Continuous
 62
     0
370
    -2
100
AcDbLine
 10
216.5552188401705
 20
-70.30658541279112
 30
0.0
 11
235.4927188401706
 21
-70.30658541279105
 31
0.0
  0
LINE
  5
22D
330
228
100
AcDbEntity
  8
0
  6
Continuous
 62
     0
370
    -2
100
AcDbLine
 10
235.4927188401706
 20
-70.30658541279105
 30
0.0
 11
235.4927188401704
 21
-17.48518618266628
 31
0.0
  0
LINE
  5
22E
330
228
100
AcDbEntity
  8
0
  6
Continuous
 62
     0
370
    -2
100
AcDbLine
 10
235.4927188401707
 20
-105.1045854127911
 30
0.0
 11
235.4927188401706
 21
-73.60858541279106
 31
0.0
  0
SOLID
  5
22F
330
228
100
AcDbEntity
  8
0
 62
     0
100
AcDbTrace
 10
234.9423855068374
 20
-105.1045854127911
 30
0.0
 11
236.0430521735041
 21
-105.1045854127911
 31
0.0
 12
235.4927188401707
 22
-108.4065854127911
 32
0.0
 13
235.4927188401707
 23
-108.4065854127911
 33
0.0
  0
SOLID
  5
230
330
228
100
AcDbEntity
  8
0
 62
     0
100
AcDbTrace
 10
236.0430521735039
 20
-73.60858541279106
 30
0.0
 11
234.9423855068373
 21
-73.60858541279106
 31
0.0
 12
235.4927188401706
 22
-70.30658541279105
 32
0.0
 13
235.4927188401706
 23
-70.30658541279105
 33
0.0
  0
MTEXT
  5
231
330
228
100
AcDbEntity
  8
0
 62
     0
370
    15
100
AcDbMText
 10
231.1177188401705
 20
-31.9226861826663
 30
0.0
 40
3.5
 41
0.0
 71
     2
 72
     1
  1
\A1;%%c38.1 [1 1/2]
  7
SLDTEXTSTYLE0
 11
-3.729883127349606E-15
 21
1.0
 31
0.0
 73
     1
 44
1.0
  0
POINT
  5
232
330
228
100
AcDbEntity
  8
Defpoints
 62
     0
100
AcDbPoint
 10
216.4927188401705
 20
-108.4065854127911
 30
0.0
  0
POINT
  5
233
330
228
100
AcDbEntity
  8
Defpoints
 62
     0
100
AcDbPoint
 10
216.4927188401705
 20
-70.30658541279112
 30
0.0
  0
POINT
  5
234
330
228
100
AcDbEntity
  8
Defpoints
 62
     0
100
AcDbPoint
 10
235.4927188401706
 20
-70.30658541279105
 30
0.0
  0
ENDBLK
  5
22A
330
228
100
AcDbEntity
  8
0
100
AcDbBlockEnd
  0
BLOCK
  5
236
330
235
100
AcDbEntity
  8
0
100
AcDbBlockBegin
  2
*D13
 70
     1
 10
0.0
 20
0.0
 30
0.0
  3
*D13
  1
*D14
  0
LINE
  5
238
330
235
100
AcDbEntity
  8
0
  6
Continuous
 62
     0
370
    -2
100
AcDbLine
 10
-61.56249999999997
 20
15.87500000000001
 30
0.0
 11
-83.36898352236122
 21
15.87499999999993
 31
0.0
  0
LINE
  5
239
330
235
100
AcDbEntity
  8
0
  6
Continuous
 62
     0
370
    -2
100
AcDbLine
 10
-60.5625
 20
-15.87499999999999
 30
0.0
 11
-83.3689835223611
 21
-15.87500000000007
 31
0.0
  0
LINE
  5
23A
330
235
100
AcDbEntity
  8
0
  6
Continuous
 62
     0
370
    -2
100
AcDbLine
 10
-83.3689835223612
 20
12.57299999999993
 30
0.0
 11
-83.36898352236112
 21
-12.57300000000007
 31
0.0
  0
SOLID
  5
23B
330
235
100
AcDbEntity
  8
0
 62
     0
100
AcDbTrace
 10
-82.81865018902788
 20
12.57299999999993
 30
0.0
 11
-83.91931685569453
 21
12.57299999999993
 31
0.0
 12
-83.36898352236122
 22
15.87499999999993
 32
0.0
 13
-83.36898352236122
 23
15.87499999999993
 33
0.0
  0
SOLID
  5
23C
330
235
100
AcDbEntity
  8
0
 62
     0
100
AcDbTrace
 10
-83.91931685569445
 20
-12.57300000000007
 30
0.0
 11
-82.81865018902779
 21
-12.57300000000007
 31
0.0
 12
-83.3689835223611
 22
-15.87500000000007
 32
0.0
 13
-83.3689835223611
 23
-15.87500000000007
 33
0.0
  0
MTEXT
  5
23D
330
235
100
AcDbEntity
  8
0
 62
     0
370
    15
100
AcDbMText
 10
-87.74398352236116
 20
-0.0000000000000013
 30
0.0
 40
3.5
 41
0.0
 71
     2
 72
     1
  1
\A1;%%c31.75 [1 1/4]
  7
SLDTEXTSTYLE0
 11
-3.580687802255623E-15
 21
1.0
 31
0.0
 73
     1
 44
1.0
  0
POINT
  5
23E
330
235
100
AcDbEntity
  8
Defpoints
 62
     0
100
AcDbPoint
 10
-61.49999999999997
 20
15.87500000000001
 30
0.0
  0
POINT
  5
23F
330
235
100
AcDbEntity
  8
Defpoints
 62
     0
100
AcDbPoint
 10
-60.5
 20
-15.87499999999999
 30
0.0
  0
POINT
  5
240
330
235
100
AcDbEntity
  8
Defpoints
 62
     0
100
AcDbPoint
 10
-83.3689835223611
 20
-15.87500000000007
 30
0.0
  0
ENDBLK
  5
237
330
235
100
AcDbEntity
  8
0
100
AcDbBlockEnd
  0
BLOCK
  5
242
330
241
100
AcDbEntity
  8
0
100
AcDbBlockBegin
  2
*D14
 70
     1
 10
0.0
 20
0.0
 30
0.0
  3
*D14
  1
*D15
  0
LINE
  5
244
330
241
100
AcDbEntity
  8
0
  6
Continuous
 62
     0
370
    -2
100
AcDbLine
 10
78.20000000000002
 20
25.46250000000001
 30
0.0
 11
78.20000000000002
 21
60.07213796039974
 31
0.0
  0
LINE
  5
245
330
241
100
AcDbEntity
  8
0
  6
Continuous
 62
     0
370
    -2
100
AcDbLine
 10
-61.49999999999997
 20
15.93750000000001
 30
0.0
 11
-61.49999999999997
 21
60.07213796039974
 31
0.0
  0
LINE
  5
246
330
241
100
AcDbEntity
  8
0
  6
Continuous
 62
     0
370
    -2
100
AcDbLine
 10
74.89800000000002
 20
60.07213796039974
 30
0.0
 11
-58.19799999999997
 21
60.07213796039974
 31
0.0
  0
SOLID
  5
247
330
241
100
AcDbEntity
  8
0
 62
     0
100
AcDbTrace
 10
74.89800000000002
 20
59.5218046270664
 30
0.0
 11
74.89800000000002
 21
60.62247129373307
 31
0.0
 12
78.20000000000002
 22
60.07213796039974
 32
0.0
 13
78.20000000000002
 23
60.07213796039974
 33
0.0
  0
SOLID
  5
248
330
241
100
AcDbEntity
  8
0
 62
     0
100
AcDbTrace
 10
-58.19799999999997
 20
60.62247129373307
 30
0.0
 11
-58.19799999999997
 21
59.5218046270664
 31
0.0
 12
-61.49999999999997
 22
60.07213796039974
 32
0.0
 13
-61.49999999999997
 23
60.07213796039974
 33
0.0
  0
MTEXT
  5
249
330
241
100
AcDbEntity
  8
0
 62
     0
370
    15
100
AcDbMText
 10
8.602930103048653
 20
64.44713796039974
 30
0.0
 40
3.5
 41
0.0
 71
     2
 72
     1
  1
\A1;139.70 [5 1/2]
  7
SLDTEXTSTYLE0
 73
     1
 44
1.0
  0
POINT
  5
24A
330
241
100
AcDbEntity
  8
Defpoints
 62
     0
100
AcDbPoint
 10
78.20000000000002
 20
25.40000000000001
 30
0.0
  0
POINT
  5
24B
330
241
100
AcDbEntity
  8
Defpoints
 62
     0
100
AcDbPoint
 10
-61.49999999999997
 20
15.87500000000001
 30
0.0
  0
POINT
  5
24C
330
241
100
AcDbEntity
  8
Defpoints
 62
     0
100
AcDbPoint
 10
-61.49999999999997
 20
60.07213796039974
 30
0.0
  0
ENDBLK
  5
243
330
241
100
AcDbEntity
  8
0
100
AcDbBlockEnd
  0
ENDSEC
  0
SECTION
  2
ENTITIES
  0
SPLINE
  5
96
330
1F
100
AcDbEntity
  8
0
  6
Continuous
 62
     1
370
    15
100
AcDbSpline
210
0.0
220
0.0
230
1.0
 70
     8
 71
     3
 72
    19
 73
    15
 74
     0
 42
0.000000001
 43
0.00000001
 40
0.0
 40
0.0
 40
0.0
 40
0.0
 40
0.1212931000701511
 40
0.219133184364722
 40
0.2950918372209025
 40
0.3589373542664376
 40
0.412894753819911
 40
0.4579561372904298
 40
0.5019883869311024
 40
0.6630559955289614
 40
0.7100441421236245
 40
0.7808140439906653
 40
0.8774742013419267
 40
1.0
 40
1.0
 40
1.0
 40
1.0
 10
12.39449598870656
 20
6.508745874891714
 30
0.0
 10
12.11912282107872
 20
6.63809269718598
 30
0.0
 10
11.621622146465
 20
6.871776072748209
 30
0.0
 10
10.93514614347354
 20
7.200601869178521
 30
0.0
 10
10.36269380060347
 20
7.478262656577196
 30
0.0
 10
9.897765991936502
 20
7.706006440204219
 30
0.0
 10
9.509554097937315
 20
7.89771190837973
 30
0.0
 10
9.17315207211891
 20
8.064981722390039
 30
0.0
 10
8.585421185533093
 20
8.35896187500505
 30
0.0
 10
7.993248614879954
 20
8.658623495371124
 30
0.0
 10
7.335661816356366
 20
8.995351560045076
 30
0.0
 10
6.831686829998734
 20
9.25518266228005
 30
0.0
 10
6.150471006834414
 20
9.60937168520653
 30
0.0
 10
5.635945322795701
 20
9.88110785877594
 30
0.0
 10
5.34832347185809
 20
10.033009432659
 30
0.0
  0
SPLINE
  5
97
330
1F
100
AcDbEntity
  8
0
  6
Continuous
 62
     1
370
    15
100
AcDbSpline
210
0.0
220
0.0
230
1.0
 70
     8
 71
     3
 72
     9
 73
     5
 74
     0
 42
0.000000001
 43
0.00000001
 40
0.0
 40
0.0
 40
0.0
 40
0.0
 40
0.4989154309133375
 40
1.0
 40
1.0
 40
1.0
 40
1.0
 10
3.997531951869439
 20
20.18382741627612
 30
0.0
 10
3.664497150762548
 20
20.16595495440627
 30
0.0
 10
2.996979610771406
 20
20.13013232643679
 30
0.0
 10
2.332806764481985
 20
20.09331606594935
 30
0.0
 10
1.999999999999987
 20
20.07486800592763
 30
0.0
  0
SPLINE
  5
98
330
1F
100
AcDbEntity
  8
0
  6
Continuous
 62
     1
370
    15
100
AcDbSpline
210
0.0
220
0.0
230
1.0
 70
     8
 71
     3
 72
    51
 73
    47
 74
     0
 42
0.000000001
 43
0.00000001
 40
0.0
 40
0.0
 40
0.0
 40
0.0
 40
0.0277806798206349
 40
0.0527311662586664
 40
0.0751278768212317
 40
0.0953801043499209
 40
0.1142376621843378
 40
0.1379629585019567
 40
0.1609013109137211
 40
0.183112791808725
 40
0.2060062264312559
 40
0.2273742801694467
 40
0.2462048421196919
 40
0.2645720836211613
 40
0.2860217083563923
 40
0.3287897996769786
 40
0.3715293225507754
 40
0.4102226852913491
 40
0.4482819397640098
 40
0.4867537855361412
 40
0.5058894201862519
 40
0.5279112610775287
 40
0.550931167718044
 40
0.5711310665144882
 40
0.5884552068641445
 40
0.6038056332542632
 40
0.6176931306684458
 40
0.6362414618670278
 40
0.6582720910692776
 40
0.683486659291616
 40
0.7105797124877776
 40
0.7368341093354619
 40
0.7630766817655629
 40
0.7861753994966909
 40
0.8068354906573894
 40
0.8300159792998176
 40
0.8461526592869366
 40
0.860953968560173
 40
0.8732169092159132
 40
0.8832442630466939
 40
0.8924807589796666
 40
0.905798905344564
 40
0.9232179637946167
 40
0.9447253150987849
 40
0.9703030999555228
 40
1.0
 40
1.0
 40
1.0
 40
1.0
 10
68.7611088192973
 20
17.37239442479175
 30
0.0
 10
68.38741041670362
 20
17.34045479222368
 30
0.0
 10
67.6780846289621
 20
17.27982941926441
 30
0.0
 10
66.61291761300014
 20
17.19495027111456
 30
0.0
 10
65.61621394827284
 20
17.1231140174573
 30
0.0
 10
64.6781263316425
 20
17.06373693448608
 30
0.0
 10
63.71814599225655
 20
17.00797946909426
 30
0.0
 10
62.71809729340863
 20
16.95255323134329
 30
0.0
 10
61.69159658629277
 20
16.90192697390894
 30
0.0
 10
60.6914221826476
 20
16.85824829667573
 30
0.0
 10
59.70778525068403
 20
16.82091380991864
 30
0.0
 10
58.77332262699189
 20
16.79076837019601
 30
0.0
 10
57.90581899066841
 20
16.76724386236605
 30
0.0
 10
57.03647576861103
 20
16.74781109695825
 30
0.0
 10
55.81134440248695
 20
16.72668086954748
 30
0.0
 10
54.22586943195594
 20
16.71244080409484
 30
0.0
 10
52.38597949400305
 20
16.71623814413717
 30
0.0
 10
50.61476407896018
 20
16.7384184835314
 30
0.0
 10
48.90658416275983
 20
16.77677143794395
 30
0.0
 10
47.48866791478634
 20
16.8224877677175
 30
0.0
 10
46.30856703865494
 20
16.8691672278086
 30
0.0
 10
45.35749533742249
 20
16.91176391706545
 30
0.0
 10
44.39065264365549
 20
16.96059689263301
 30
0.0
 10
43.49338059171257
 20
17.01088674144605
 30
0.0
 10
42.70933254963526
 20
17.05850260033992
 30
0.0
 10
42.01883855063073
 20
17.10322295139293
 30
0.0
 10
41.31042308503913
 20
17.15166306313613
 30
0.0
 10
40.5033390420873
 20
17.21007742519575
 30
0.0
 10
39.52846553686074
 20
17.28551295255419
 30
0.0
 10
38.42699794248622
 20
17.37715639976215
 30
0.0
 10
37.26298703400138
 20
17.48157056069345
 30
0.0
 10
36.08311713135274
 20
17.59478791123498
 30
0.0
 10
34.96213364067489
 20
17.70927993733656
 30
0.0
 10
33.92466950617834
 20
17.82125392768669
 30
0.0
 10
32.93342440416712
 20
17.93331919519203
 30
0.0
 10
32.04896586673631
 20
18.03792009731611
 30
0.0
 10
31.254508836771
 20
18.13529518519466
 30
0.0
 10
30.61434577398179
 20
18.21593290833185
 30
0.0
 10
30.05760242722648
 20
18.28785550672351
 30
0.0
 10
29.57826641905824
 20
18.35081198066306
 30
0.0
 10
29.08735090306577
 20
18.41623928081661
 30
0.0
 10
28.4919877318815
 20
18.49724219261095
 30
0.0
 10
27.71837984623865
 20
18.60517704843771
 30
0.0
 10
26.7674223126335
 20
18.74207170906828
 30
0.0
 10
25.63844017592726
 20
18.90998013424523
 30
0.0
 10
24.82658334727747
 20
19.03632941282238
 30
0.0
 10
24.390404812132
 20
19.10421187842671
 30
0.0
  0
SPLINE
  5
99
330
1F
100
AcDbEntity
  8
0
  6
Continuous
 62
     1
370
    15
100
AcDbSpline
210
0.0
220
0.0
230
1.0
 70
     8
 71
     3
 72
    27
 73
    23
 74
     0
 42
0.000000001
 43
0.00000001
 40
0.0
 40
0.0
 40
0.0
 40
0.0
 40
0.0644713550066746
 40
0.1204105136480186
 40
0.1682074031340124
 40
0.2085344237751662
 40
0.2434219168370819
 40
0.2763951088155432
 40
0.3248423811987867
 40
0.3697341249224266
 40
0.4133415315643379
 40
0.460064787946664
 40
0.5010663377775265
 40
0.5361029291584279
 40
0.5773925065537909
 40
0.6280764941821714
 40
0.7018182310882046
 40
0.7797334872416628
 40
0.8608995790381809
 40
0.9411961630926081
 40
0.9992598119211942
 40
1.0
 40
1.0
 40
1.0
 40
1.0
 10
24.390404812132
 20
-19.10421187842675
 30
0.0
 10
24.7684021036948
 20
-19.04494470497831
 30
0.0
 10
25.47437218963332
 20
-18.93425382843858
 30
0.0
 10
26.49515499336912
 20
-18.77861330679163
 30
0.0
 10
27.39677755027251
 20
-18.64644952152874
 30
0.0
 10
28.19302971084614
 20
-18.53546430720261
 30
0.0
 10
28.89361163196179
 20
-18.44179757825861
 30
0.0
 10
29.64670291845362
 20
-18.34164539087079
 30
0.0
 10
30.46475586256467
 20
-18.23455030027422
 30
0.0
 10
31.35576028265989
 20
-18.12018133086685
 30
0.0
 10
32.22170272426305
 20
-18.0149833779504
 30
0.0
 10
32.98632700126402
 20
-17.92739231638815
 30
0.0
 10
33.72467834980927
 20
-17.84384350704131
 30
0.0
 10
34.46785746426641
 20
-17.7623991965456
 30
0.0
 10
35.27290407913954
 20
-17.67730101900542
 30
0.0
 10
36.32373972368909
 20
-17.57106613845753
 30
0.0
 10
37.60669659169211
 20
-17.44935191328355
 30
0.0
 10
39.08170551092866
 20
-17.32090241036224
 30
0.0
 10
40.59772052218952
 20
-17.20142218333027
 30
0.0
 10
41.98914530834526
 20
-17.10459351726698
 30
0.0
 10
42.87105200070793
 20
-17.04758342753771
 30
0.0
 10
43.24368268403075
 20
-17.02630422959599
 30
0.0
 10
43.24837313968975
 20
-17.02603637958022
 30
0.0
  0
SPLINE
  5
9A
330
1F
100
AcDbEntity
  8
0
  6
Continuous
 62
     1
370
    15
100
AcDbSpline
210
0.0
220
0.0
230
1.0
 70
     8
 71
     3
 72
     9
 73
     5
 74
     0
 42
0.000000001
 43
0.00000001
 40
0.0
 40
0.0
 40
0.0
 40
0.0
 40
0.5010845690866625
 40
1.0
 40
1.0
 40
1.0
 40
1.0
 10
1.999999999999987
 20
-20.07486800592766
 30
0.0
 10
2.332806764481985
 20
-20.09331606594939
 30
0.0
 10
2.996979610771408
 20
-20.13013232643682
 30
0.0
 10
3.664497150762548
 20
-20.16595495440631
 30
0.0
 10
3.997531951869439
 20
-20.18382741627615
 30
0.0
  0
SPLINE
  5
9B
330
1F
100
AcDbEntity
  8
0
  6
Continuous
 62
     1
370
    15
100
AcDbSpline
210
0.0
220
0.0
230
1.0
 70
     8
 71
     3
 72
    56
 73
    52
 74
     0
 42
0.000000001
 43
0.00000001
 40
0.0
 40
0.0
 40
0.0
 40
0.0
 40
0.0625000000000007
 40
0.0625000000000007
 40
0.0937500000000008
 40
0.0937500000000008
 40
0.125000000000001
 40
0.125000000000001
 40
0.1875000000000012
 40
0.1875000000000012
 40
0.2187500000000011
 40
0.2187500000000011
 40
0.2500000000000011
 40
0.2500000000000011
 40
0.281250000000001
 40
0.281250000000001
 40
0.3125000000000009
 40
0.3125000000000009
 40
0.3750000000000008
 40
0.3750000000000008
 40
0.4375000000000006
 40
0.4375000000000006
 40
0.4687500000000006
 40
0.4687500000000006
 40
0.5000000000000004
 40
0.5000000000000004
 40
0.5625000000000004
 40
0.5625000000000004
 40
0.5937500000000004
 40
0.5937500000000004
 40
0.6250000000000004
 40
0.6250000000000004
 40
0.6562500000000004
 40
0.6562500000000004
 40
0.6875000000000003
 40
0.6875000000000003
 40
0.7500000000000002
 40
0.7500000000000002
 40
0.7812500000000002
 40
0.7812500000000002
 40
0.8125000000000002
 40
0.8125000000000002
 40
0.8437500000000002
 40
0.8437500000000002
 40
0.8750000000000002
 40
0.8750000000000002
 40
0.9375000000000002
 40
0.9375000000000002
 40
0.9687500000000001
 40
0.9687500000000001
 40
1.0
 40
1.0
 40
1.0
 40
1.0
 10
78.19999999999999
 20
-24.10309807849027
 30
0.0
 10
76.6158744626456
 20
-23.81417265737998
 30
0.0
 10
75.02331402014389
 20
-23.47758763460935
 30
0.0
 10
72.64275091670937
 20
-22.9055179406667
 30
0.0
 10
71.85123450164632
 20
-22.70372418673124
 30
0.0
 10
70.26338415275347
 20
-22.27776036224694
 30
0.0
 10
69.46836305656582
 20
-22.05368882470358
 30
0.0
 10
67.08525128884277
 20
-21.3496638656782
 30
0.0
 10
65.50161454791042
 20
-20.83820036034045
 30
0.0
 10
63.11778677867763
 20
-20.01058915092192
 30
0.0
 10
62.32309806984034
 20
-19.72478963956307
 30
0.0
 10
60.73704974619855
 20
-19.13462627577356
 30
0.0
 10
59.94495181446
 20
-18.83018350299437
 30
0.0
 10
58.35647896643626
 20
-18.20265532499707
 30
0.0
 10
57.56143163080345
 20
-17.87973285483422
 30
0.0
 10
55.97320837731773
 20
-17.21699276572053
 30
0.0
 10
55.18143653323393
 20
-16.87738403524621
 30
0.0
 10
52.80167738941492
 20
-15.83372543723991
 30
0.0
 10
51.20901142099657
 20
-15.10469147967771
 30
0.0
 10
48.03927242002754
 20
-13.59293991235157
 30
0.0
 10
46.44831656327972
 20
-12.80804032140735
 30
0.0
 10
44.06703746013967
 20
-11.59631893051167
 30
0.0
 10
43.27559261172143
 20
-11.18695076901911
 30
0.0
 10
41.68817390709496
 20
-10.35691691219561
 30
0.0
 10
40.8932085555227
 20
-9.936417690521747
 30
0.0
 10
38.50978256660905
 20
-8.661229898067948
 30
0.0
 10
36.92634365316646
 20
-7.79351039883911
 30
0.0
 10
34.54260424688214
 20
-6.470092067077859
 30
0.0
 10
33.74778439218161
 20
-6.025528953413036
 30
0.0
 10
32.16115449311197
 20
-5.131517848661381
 30
0.0
 10
31.36945509577917
 20
-4.682094858015939
 30
0.0
 10
29.78130939473951
 20
-3.778219492859428
 30
0.0
 10
28.98626532808033
 20
-3.324030105999436
 30
0.0
 10
27.39772795570869
 20
-2.413142664003134
 30
0.0
 10
26.6055168517173
 20
-1.956691928244025
 30
0.0
 10
24.22664952827477
 20
-0.5847175054284068
 30
0.0
 10
22.63393736767819
 20
0.3341686487212078
 30
0.0
 10
20.25560473051882
 20
1.706773640149693
 30
0.0
 10
19.46306933894054
 20
2.163653052668586
 30
0.0
 10
17.87438253760204
 20
3.075545679433209
 30
0.0
 10
17.07935308327289
 20
3.530342344952552
 30
0.0
 10
15.49141504687302
 20
4.435639673377907
 30
0.0
 10
14.69985789390067
 20
4.885886621977964
 30
0.0
 10
13.11292951994576
 20
5.78189512917618
 30
0.0
 10
12.31804941125818
 20
6.22755994477123
 30
0.0
 10
9.934397514464255
 20
7.55458744533736
 30
0.0
 10
8.351001688703848
 20
8.425185025871205
 30
0.0
 10
5.967438997398736
 20
9.705413004717395
 30
0.0
 10
5.172517477095015
 20
10.12769020603291
 30
0.0
 10
3.585364591703906
 20
10.96147010645604
 30
0.0
 10
2.793879888959042
 20
11.37285109693344
 30
0.0
 10
1.999999999997414
 20
11.77889407313398
 30
0.0
  0
SPLINE
  5
9C
330
1F
100
AcDbEntity
  8
0
  6
Continuous
 62
     1
370
    15
100
AcDbSpline
210
0.0
220
0.0
230
1.0
 70
     8
 71
     3
 72
    21
 73
    17
 74
     0
 42
0.000000001
 43
0.00000001
 40
0.0
 40
0.0
 40
0.0
 40
0.0
 40
0.0752439670212512
 40
0.1504741393136938
 40
0.2256958676170229
 40
0.3009145162411202
 40
0.3761354544483084
 40
0.451364047818864
 40
0.5266056496289803
 40
0.6018516830409976
 40
0.6770835501637856
 40
0.7523061847657169
 40
0.8275249496995705
 40
0.9027452140406012
 40
0.9664096108958617
 40
1.0
 40
1.0
 40
1.0
 40
1.0
 10
78.2
 20
-20.03989551495271
 30
0.0
 10
76.54861140976533
 20
-19.71394527008652
 30
0.0
 10
73.24613698390421
 20
-19.06210453790564
 30
0.0
 10
68.29294711123629
 20
-17.77488911590003
 30
0.0
 10
63.34038198761064
 20
-16.28088911642718
 30
0.0
 10
58.38805378130144
 20
-14.57589258643136
 30
0.0
 10
53.43554960341032
 20
-12.68763617324861
 30
0.0
 10
48.48247420609053
 20
-10.63828988481548
 30
0.0
 10
43.52869382913499
 20
-8.454360641939411
 30
0.0
 10
38.5747626256161
 20
-6.16349548021303
 30
0.0
 10
33.62145788039667
 20
-3.794311307598404
 30
0.0
 10
28.66882093518822
 20
-1.377485912539027
 30
0.0
 10
23.71649303105201
 20
1.057725227043933
 30
0.0
 10
19.01776333436336
 20
3.351984996090884
 30
0.0
 10
15.23268114842526
 20
5.17869623235778
 30
0.0
 10
13.09822612106585
 20
6.173294729273762
 30
0.0
 10
12.36101638699457
 20
6.516814589856727
 30
0.0
  0
LINE
  5
9D
330
1F
100
AcDbEntity
  8
0
  6
Continuous
 62
     1
370
    15
100
AcDbLine
 10
78.2
 20
-24.10309807849027
 30
0.0
 11
78.2
 21
-20.03989551495271
 31
0.0
  0
SPLINE
  5
9E
330
1F
100
AcDbEntity
  8
0
  6
Continuous
 62
     1
370
    15
100
AcDbSpline
210
0.0
220
0.0
230
1.0
 70
     8
 71
     3
 72
    56
 73
    52
 74
     0
 42
0.000000001
 43
0.00000001
 40
0.0
 40
0.0
 40
0.0
 40
0.0
 40
0.03125
 40
0.03125
 40
0.0625
 40
0.0625
 40
0.125
 40
0.125
 40
0.15625
 40
0.15625
 40
0.1875
 40
0.1875
 40
0.21875
 40
0.21875
 40
0.25
 40
0.25
 40
0.3125
 40
0.3125
 40
0.34375
 40
0.34375
 40
0.375
 40
0.375
 40
0.40625
 40
0.40625
 40
0.4374999999999999
 40
0.4374999999999999
 40
0.4999999999999998
 40
0.4999999999999998
 40
0.5312499999999997
 40
0.5312499999999997
 40
0.5624999999999996
 40
0.5624999999999996
 40
0.6249999999999996
 40
0.6249999999999996
 40
0.6874999999999996
 40
0.6874999999999996
 40
0.7187499999999996
 40
0.7187499999999996
 40
0.7499999999999996
 40
0.7499999999999996
 40
0.7812499999999993
 40
0.7812499999999993
 40
0.8124999999999993
 40
0.8124999999999993
 40
0.8749999999999991
 40
0.8749999999999991
 40
0.9062499999999992
 40
0.9062499999999992
 40
0.9374999999999993
 40
0.9374999999999993
 40
1.0
 40
1.0
 40
1.0
 40
1.0
 10
1.999999999999978
 20
5.105666004805706
 30
0.0
 10
2.793879888961578
 20
4.656718832005831
 30
0.0
 10
3.585364591706428
 20
4.205732327848755
 30
0.0
 10
5.172517477097496
 20
3.299302936236401
 30
0.0
 10
5.967438997401171
 20
2.843998931467431
 30
0.0
 10
8.351001688706214
 20
1.474813919635686
 30
0.0
 10
9.934397514466552
 20
0.5584417811280412
 30
0.0
 10
12.31804941126041
 20
-0.8167129896451139
 30
0.0
 10
13.11292951994794
 20
-1.274985791249011
 30
0.0
 10
14.69985789390279
 20
-2.189295424550405
 30
0.0
 10
15.49141504687513
 20
-2.64523948477426
 30
0.0
 10
17.07935308327497
 20
-3.555023727922564
 30
0.0
 10
17.87438253760407
 20
-4.008603049420719
 30
0.0
 10
19.46306933894253
 20
-4.911141474379994
 30
0.0
 10
20.25560473052075
 20
-5.359889912240193
 30
0.0
 10
22.63393736768008
 20
-6.697775492151495
 30
0.0
 10
24.22664952827661
 20
-7.579671843102537
 30
0.0
 10
26.60551685171903
 20
-8.87587790964591
 30
0.0
 10
27.39772795571037
 20
-9.30369359590371
 30
0.0
 10
28.98626532808198
 20
-10.15055839111171
 30
0.0
 10
29.78130939474114
 20
-10.56937317231107
 30
0.0
 10
31.36945509578074
 20
-11.39592982747008
 30
0.0
 10
32.16115449311352
 20
-11.80343678882111
 30
0.0
 10
33.74778439218311
 20
-12.6070910085205
 30
0.0
 10
34.5426042468836
 20
-13.00321015754056
 30
0.0
 10
36.92634365316784
 20
-14.17180392566997
 30
0.0
 10
38.50978256661038
 20
-14.92377022312636
 30
0.0
 10
40.89320855552396
 20
-16.00713310966272
 30
0.0
 10
41.68817390709619
 20
-16.3606780637273
 30
0.0
 10
43.27559261172262
 20
-17.05107795510438
 30
0.0
 10
44.06703746014083
 20
-17.38780112177512
 30
0.0
 10
46.44831656328078
 20
-18.37300281832142
 30
0.0
 10
48.03927242002852
 20
-18.99559114317315
 30
0.0
 10
51.20901142099748
 20
-20.16270392651788
 30
0.0
 10
52.8016773894158
 20
-20.70890264043451
 30
0.0
 10
55.1814365332347
 20
-21.46492298906567
 30
0.0
 10
55.97320837731851
 20
-21.70642788157561
 30
0.0
 10
57.56143163080414
 20
-22.16847905586449
 30
0.0
 10
58.35647896643692
 20
-22.38887231815511
 30
0.0
 10
59.94495181446062
 20
-22.80742241922656
 30
0.0
 10
60.73704974619915
 20
-23.00547732516274
 30
0.0
 10
62.32309806984088
 20
-23.37911083183515
 30
0.0
 10
63.11778677867811
 20
-23.55473223855558
 30
0.0
 10
65.50161454791082
 20
-24.04678490759889
 30
0.0
 10
67.08525128884312
 20
-24.32809964647378
 30
0.0
 10
69.46836305656615
 20
-24.67848730472228
 30
0.0
 10
70.26338415275379
 20
-24.78330671495011
 30
0.0
 10
71.85123450164656
 20
-24.96854558383479
 30
0.0
 10
72.64275091670956
 20
-25.04893490501575
 30
0.0
 10
75.023314020144
 20
-25.25352514925773
 30
0.0
 10
76.61587446264564
 20
-25.3408837130013
 30
0.0
 10
78.20000000000002
 20
-25.39999999999998
 30
0.0
  0
SPLINE
  5
9F
330
1F
100
AcDbEntity
  8
0
  6
Continuous
 62
     1
370
    15
100
AcDbSpline
210
0.0
220
0.0
230
1.0
 70
     8
 71
     3
 72
    10
 73
     6
 74
     0
 42
0.000000001
 43
0.00000001
 40
0.0
 40
0.0
 40
0.0
 40
0.0
 40
0.2018060293542064
 40
0.6008952962953781
 40
1.0
 40
1.0
 40
1.0
 40
1.0
 10
15.0917973989798
 20
-2.412079523694149
 30
0.0
 10
14.21113238592342
 20
-2.060285522800794
 30
0.0
 10
11.58887444025687
 20
-1.012787779159454
 30
0.0
 10
7.224949880865518
 20
0.7601382015883631
 30
0.0
 10
3.741672415369288
 20
2.156709496871414
 30
0.0
 10
2.000000000000003
 20
2.855008649087967
 30
0.0
  0
SPLINE
  5
A0
330
1F
100
AcDbEntity
  8
외형선
  6
Continuous
370
    15
100
AcDbSpline
210
0.0
220
0.0
230
1.0
 70
    24
 71
     3
 72
    13
 73
     9
 74
     0
 42
0.000000001
 43
0.00000001
 40
0.0
 40
0.0
 40
0.0
 40
0.0
 40
0.041957219537679
 40
0.349019137860715
 40
0.5065677838926023
 40
0.6652751556747205
 40
0.8319505210266328
 40
1.0
 40
1.0
 40
1.0
 40
1.0
 10
2.000000000000009
 20
5.034138273228312
 30
0.0
 10
2.000000000000009
 20
5.025154013422151
 30
0.0
 10
2.000000000000009
 20
4.950418874954589
 30
0.0
 10
2.000000000000009
 20
4.697115520097577
 30
0.0
 10
2.000000000000009
 20
4.283137744185226
 30
0.0
 10
2.000000000000009
 20
3.887390478607121
 30
0.0
 10
2.000000000000008
 20
3.419096451615681
 30
0.0
 10
2.000000000000008
 20
3.043551812326849
 30
0.0
 10
2.000000000000009
 20
2.85500864908797
 30
0.0
  0
LINE
  5
A1
330
1F
100
AcDbEntity
  8
외형선
  6
Continuous
370
    15
100
AcDbLine
 10
2.000000000000006
 20
5.105666004805694
 30
0.0
 11
2.000000000000006
 21
11.77889407313151
 31
0.0
  0
LINE
  5
A2
330
1F
100
AcDbEntity
  8
0
  6
Continuous
 62
     1
370
    15
100
AcDbLine
 10
78.20000000000002
 20
-25.4
 30
0.0
 11
78.19999999999999
 21
-24.10309807849027
 31
0.0
  0
SPLINE
  5
A3
330
1F
100
AcDbEntity
  8
0
  6
Continuous
 62
     1
370
    15
100
AcDbSpline
210
0.0
220
0.0
230
1.0
 70
     8
 71
     3
 72
    23
 73
    19
 74
     0
 42
0.000000001
 43
0.00000001
 40
0.0
 40
0.0
 40
0.0
 40
0.0
 40
0.0667615912202118
 40
0.133510771575255
 40
0.2002523550288991
 40
0.266991167806993
 40
0.3337320406103551
 40
0.4004798008124734
 40
0.467239264668501
 40
0.5340027145569226
 40
0.60075341928843
 40
0.6674958178814111
 40
0.7342347352454585
 40
0.800975001912444
 40
0.8574624143386246
 40
0.9139647468249442
 40
0.9704330745068183
 40
1.0
 40
1.0
 40
1.0
 40
1.0
 10
78.2
 20
-0.0000000000000158
 30
0.0
 10
76.54861389553395
 20
0.762607865968567
 30
0.0
 10
73.24614867644293
 20
2.287681830412955
 30
0.0
 10
68.29295990484194
 20
4.546528848847615
 30
0.0
 10
63.34039715182156
 20
6.747684567927816
 30
0.0
 10
58.38807092150561
 20
8.86337926855685
 30
0.0
 10
53.4355689836075
 20
10.86687123105825
 30
0.0
 10
48.4824951125524
 20
12.7328535958984
 30
0.0
 10
43.5287230923945
 20
14.43756944365655
 30
0.0
 10
38.5748066654965
 20
15.95939738862923
 30
0.0
 10
33.62150292514588
 20
17.27929430931501
 30
0.0
 10
28.66886817765944
 20
18.38025587197397
 30
0.0
 10
23.71654328533103
 20
19.24870844623121
 30
0.0
 10
19.01780767071348
 20
19.84064772003753
 30
0.0
 10
14.57236928032339
 20
20.19475478864086
 30
0.0
 10
10.38059113566171
 20
20.33629401165785
 30
0.0
 10
6.855278982867853
 20
20.32920832137439
 30
0.0
 10
4.727332445875911
 20
20.20391048462686
 30
0.0
 10
3.996041092729102
 20
20.16085055666881
 30
0.0
  0
SPLINE
  5
A4
330
1F
100
AcDbEntity
  8
0
  6
Continuous
 62
     1
370
    15
100
AcDbSpline
210
0.0
220
0.0
230
1.0
 70
    24
 71
     3
 72
    14
 73
    10
 74
     0
 42
0.000000001
 43
0.00000001
 40
0.0
 40
0.0
 40
0.0
 40
0.0
 40
0.25
 40
0.25
 40
0.5
 40
0.5
 40
0.75
 40
0.75
 40
1.0
 40
1.0
 40
1.0
 40
1.0
 10
78.2
 20
-20.0398955149527
 30
0.0
 10
78.20000000000002
 20
-18.95557336052248
 30
0.0
 10
78.20000000000002
 20
-17.67202380632718
 30
0.0
 10
78.19999999999999
 20
-14.75713589577276
 30
0.0
 10
78.20000000000002
 20
-13.12620834487341
 30
0.0
 10
78.20000000000003
 20
-9.623740089790294
 30
0.0
 10
78.20000000000002
 20
-7.753210792117319
 30
0.0
 10
78.20000000000003
 20
-3.913653825697821
 30
0.0
 10
78.20000000000002
 20
-1.945765085460729
 30
0.0
 10
78.2
 20
-0.0000000000000158
 30
0.0
  0
SPLINE
  5
A5
330
1F
100
AcDbEntity
  8
외형선
  6
Continuous
370
    15
100
AcDbSpline
210
0.0
220
0.0
230
1.0
 70
    24
 71
     3
 72
    18
 73
    14
 74
     0
 42
0.000000001
 43
0.00000001
 40
0.0
 40
0.0
 40
0.0
 40
0.0
 40
0.0530875978509471
 40
0.1280730678460708
 40
0.2030585378411944
 40
0.3123710994148284
 40
0.4216836609884625
 40
0.5341719889841274
 40
0.6466603169797922
 40
0.7455540132642008
 40
0.8444477095486094
 40
0.9456708734206157
 40
1.0
 40
1.0
 40
1.0
 40
1.0
 10
2.000000000000006
 20
20.06614898117298
 30
0.0
 10
2.000000000000006
 20
20.05527215801458
 30
0.0
 10
2.000000000000009
 20
20.02903197826062
 30
0.0
 10
2.000000000000008
 20
19.88306123632822
 30
0.0
 10
2.000000000000009
 20
19.60664822015234
 30
0.0
 10
2.000000000000008
 20
19.14539574649658
 30
0.0
 10
2.000000000000008
 20
18.4393246162968
 30
0.0
 10
2.000000000000008
 20
17.53733496425246
 30
0.0
 10
2.000000000000009
 20
16.48574830886767
 30
0.0
 10
2.000000000000009
 20
15.3257059811877
 30
0.0
 10
2.000000000000008
 20
14.07069579530499
 30
0.0
 10
2.000000000000009
 20
12.91265411860661
 30
0.0
 10
2.000000000000008
 20
12.12537991739924
 30
0.0
 10
2.000000000000008
 20
11.8504118047089
 30
0.0
  0
SPLINE
  5
A6
330
1F
100
AcDbEntity
  8
0
  6
Continuous
 62
     1
370
    15
100
AcDbSpline
210
0.0
220
0.0
230
1.0
 70
    24
 71
     3
 72
    10
 73
     6
 74
     0
 42
0.000000001
 43
0.00000001
 40
0.0
 40
0.0
 40
0.0
 40
0.0
 40
0.5
 40
0.5
 40
1.0
 40
1.0
 40
1.0
 40
1.0
 10
73.20000000000003
 20
13.02321813694331
 30
0.0
 10
73.20000000000007
 20
13.71820767828031
 30
0.0
 10
73.2
 20
14.34397502627871
 30
0.0
 10
73.19999999999999
 20
15.44274489391831
 30
0.0
 10
73.19999999999999
 20
15.91573089349449
 30
0.0
 10
73.19999999999999
 20
16.30935131046914
 30
0.0
  0
SPLINE
  5
A7
330
1F
100
AcDbEntity
  8
0
  6
Continuous
 62
     1
370
    15
100
AcDbSpline
210
0.0
220
0.0
230
1.0
 70
     8
 71
     3
 72
    10
 73
     6
 74
     0
 42
0.000000001
 43
0.00000001
 40
0.0
 40
0.0
 40
0.0
 40
0.0
 40
0.5
 40
0.5
 40
1.0
 40
1.0
 40
1.0
 40
1.0
 10
73.19999999999999
 20
13.02321813694332
 30
0.0
 10
74.09431931368735
 20
12.4756251483729
 30
0.0
 10
74.96006898428246
 20
11.86799396800355
 30
0.0
 10
76.62914897846302
 20
10.52155934460767
 30
0.0
 10
77.43253921924455
 20
9.782881815653433
 30
0.0
 10
78.2
 20
8.968699674852742
 30
0.0
  0
SPLINE
  5
A8
330
1F
100
AcDbEntity
  8
0
  6
Continuous
 62
     1
370
    15
100
AcDbSpline
210
0.0
220
0.0
230
1.0
 70
     8
 71
     3
 72
     9
 73
     5
 74
     0
 42
0.000000001
 43
0.00000001
 40
0.0
 40
0.0
 40
0.0
 40
0.0
 40
0.5247575102545332
 40
0.9999999999999999
 40
0.9999999999999999
 40
0.9999999999999999
 40
0.9999999999999999
 10
78.2
 20
17.77999999999998
 30
0.0
 10
76.54861497332949
 20
17.76204380204787
 30
0.0
 10
73.40166615525635
 20
17.72782571540552
 30
0.0
 10
70.25481032600779
 20
17.48039626584153
 30
0.0
 10
68.75929072684568
 20
17.3628072781944
 30
0.0
  0
SPLINE
  5
A9
330
1F
100
AcDbEntity
  8
0
  6
Continuous
 62
     1
370
    15
100
AcDbSpline
210
0.0
220
0.0
230
1.0
 70
     8
 71
     3
 72
     8
 73
     4
 74
     0
 42
0.000000001
 43
0.00000001
 40
0.0
 40
0.0
 40
0.0
 40
0.0
 40
1.0
 40
1.0
 40
1.0
 40
1.0
 10
78.2
 20
17.77999999999999
 30
0.0
 10
76.52698159360297
 20
17.32658360122463
 30
0.0
 10
74.86025984458774
 20
16.836686499873
 30
0.0
 10
73.2
 20
16.30935131046914
 30
0.0
  0
SPLINE
  5
AA
330
1F
100
AcDbEntity
  8
0
  6
Continuous
 62
     1
370
    15
100
AcDbSpline
210
0.0
220
0.0
230
1.0
 70
    24
 71
     3
 72
    10
 73
     6
 74
     0
 42
0.000000001
 43
0.00000001
 40
0.0
 40
0.0
 40
0.0
 40
0.0
 40
0.5
 40
0.5
 40
1.0
 40
1.0
 40
1.0
 40
1.0
 10
78.2
 20
-0.0000000000000214
 30
0.0
 10
78.2
 20
1.585610116459086
 30
0.0
 10
78.20000000000002
 20
3.156497691851273
 30
0.0
 10
78.20000000000002
 20
6.176915321786716
 30
0.0
 10
78.20000000000002
 20
7.62587916243853
 30
0.0
 10
78.20000000000002
 20
8.968699674852743
 30
0.0
  0
SPLINE
  5
AB
330
1F
100
AcDbEntity
  8
0
  6
Continuous
 62
     1
370
    15
100
AcDbSpline
210
0.0
220
0.0
230
1.0
 70
     8
 71
     3
 72
    13
 73
     9
 74
     0
 42
0.000000001
 43
0.00000001
 40
0.0
 40
0.0
 40
0.0
 40
0.0
 40
0.0302910638531971
 40
0.2514257718722269
 40
0.4385890554105151
 40
0.6258017745190704
 40
0.8129018233780468
 40
1.0
 40
1.0
 40
1.0
 40
1.0
 10
24.39493628961109
 20
-19.08926041652154
 30
0.0
 10
24.16881300547249
 20
-19.12941932849796
 30
0.0
 10
22.29191553074653
 20
-19.46275147853906
 30
0.0
 10
19.01780681231518
 20
-19.8287415348639
 30
0.0
 10
14.572368924424
 20
-20.19684350201997
 30
0.0
 10
10.38059338941858
 20
-20.33905113045888
 30
0.0
 10
6.189945127205465
 20
-20.31476465110094
 30
0.0
 10
3.396643717132699
 20
-20.14247003738701
 30
0.0
 10
2.000000000000003
 20
-20.05632316155341
 30
0.0
  0
SPLINE
  5
AC
330
1F
100
AcDbEntity
  8
외형선
  6
Continuous
370
    15
100
AcDbSpline
210
0.0
220
0.0
230
1.0
 70
    24
 71
     3
 72
    14
 73
    10
 74
     0
 42
0.000000001
 43
0.00000001
 40
0.0
 40
0.0
 40
0.0
 40
0.0
 40
0.25
 40
0.25
 40
0.5
 40
0.5
 40
0.75
 40
0.75
 40
1.0
 40
1.0
 40
1.0
 40
1.0
 10
2.000000000000003
 20
2.855008649087967
 30
0.0
 10
2.000000000000003
 20
0.6081522133225837
 30
0.0
 10
2.000000000000003
 20
-1.696171654388505
 30
0.0
 10
2.000000000000003
 20
-6.203919857245993
 30
0.0
 10
2.000000000000003
 20
-8.404956596806251
 30
0.0
 10
2.000000000000003
 20
-12.47696081868687
 30
0.0
 10
2.000000000000003
 20
-14.34575856691457
 30
0.0
 10
2.000000000000003
 20
-17.58756886422999
 30
0.0
 10
2.000000000000003
 20
-18.95997189582676
 30
0.0
 10
2.000000000000003
 20
-20.05632316155342
 30
0.0
  0
LINE
  5
AD
330
1F
100
AcDbEntity
  8
0
  6
Continuous
 62
     1
370
    15
100
AcDbLine
 10
78.2
 20
9.004468540641431
 30
0.0
 11
78.2
 21
17.77999999999999
 31
0.0
  0
SPLINE
  5
AE
330
1F
100
AcDbEntity
  8
0
  6
Continuous
 62
     1
370
    15
100
AcDbSpline
210
0.0
220
0.0
230
1.0
 70
    24
 71
     3
 72
    14
 73
    10
 74
     0
 42
0.000000001
 43
0.00000001
 40
0.0
 40
0.0
 40
0.0
 40
0.0
 40
0.25
 40
0.25
 40
0.5
 40
0.5
 40
0.75
 40
0.75
 40
1.0
 40
1.0
 40
1.0
 40
1.0
 10
78.2
 20
17.77999999999998
 30
0.0
 10
78.2
 20
18.31888966145287
 30
0.0
 10
78.20000000000003
 20
18.90012989484098
 30
0.0
 10
78.2
 20
20.12433773570245
 30
0.0
 10
78.20000000000002
 20
20.76718330401999
 30
0.0
 10
78.2
 20
22.08103249361047
 30
0.0
 10
78.20000000000002
 20
22.7518150940122
 30
0.0
 10
78.20000000000003
 20
24.08266931494268
 30
0.0
 10
78.19999999999999
 20
24.74249878809515
 30
0.0
 10
78.20000000000002
 20
25.40000000000001
 30
0.0
  0
SPLINE
  5
AF
330
1F
100
AcDbEntity
  8
0
  6
Continuous
 62
     1
370
    15
100
AcDbSpline
210
0.0
220
0.0
230
1.0
 70
     8
 71
     3
 72
    17
 73
    13
 74
     0
 42
0.000000001
 43
0.00000001
 40
0.0
 40
0.0
 40
0.0
 40
0.0
 40
0.024346785246102
 40
0.1325393313796006
 40
0.23917359786029
 40
0.3459995079980409
 40
0.4536537022665161
 40
0.5615053088361567
 40
0.6704946817288308
 40
0.7796885461766563
 40
0.8897389674204963
 40
1.0
 40
1.0
 40
1.0
 40
1.0
 10
43.24810714847864
 20
17.02633607654957
 30
0.0
 10
43.53175356189077
 20
17.15109364173117
 30
0.0
 10
45.07587142393524
 20
17.83025042183885
 30
0.0
 10
47.86299213022746
 20
18.93173701850505
 30
0.0
 10
51.60973206557674
 20
20.31555197393679
 30
0.0
 10
55.35104027117968
 20
21.53946038258505
 30
0.0
 10
59.10685215990438
 20
22.61416110770879
 30
0.0
 10
62.88674575580954
 20
23.52965238095279
 30
0.0
 10
66.6855662237067
 20
24.27506362976544
 30
0.0
 10
70.50998091580813
 20
24.83918220736828
 30
0.0
 10
74.34831821391464
 20
25.23099857369247
 30
0.0
 10
76.91528808848328
 20
25.32932306400273
 30
0.0
 10
78.2
 20
25.4
 30
0.0
  0
LINE
  5
B1
330
1F
100
AcDbEntity
  8
참조1
100
AcDbLine
 10
16.44057883212693
 20
0.0010749287238892
 30
0.0
 11
16.44057883212695
 21
-39.99892507127612
 31
0.0
  0
LINE
  5
B2
330
1F
100
AcDbEntity
  8
참조1
100
AcDbLine
 10
16.44057883212695
 20
-39.99892507127612
 30
0.0
 11
-22.53075298218174
 21
-39.9989250712761
 31
0.0
  0
INSERT
  5
B4
330
1F
100
AcDbEntity
  8
0
  6
Continuous
 62
     7
100
AcDbBlockReference
 66
     1
  2
블럭10
 10
2.500305900001734
 20
-52.04609937292005
 30
0.0
  0
ATTRIB
  5
B5
330
B4
100
AcDbEntity
  8
FORMAT
 62
     2
100
AcDbText
 10
-6.680989388739546
 20
-49.97073246008787
 30
0.0
 40
4.233333333333333
  1
E1080200 [ 2 FLUTE ]
 41
0.75
  7
SLDTEXTSTYLE0
 11
-6.680989388739546
 21
-52.08739912675453
 31
0.0
100
AcDbAttribute
  2
AUTOATTR0
 70
     0
 74
     1
  0
SEQEND
  5
B6
330
B4
100
AcDbEntity
  8
0
  6
Continuous
 62
     7
  0
HATCH
  5
B7
330
1F
100
AcDbEntity
  8
중심선
100
AcDbHatch
 10
0.0
 20
0.0
 30
0.0
210
0.0
220
0.0
230
1.0
  2
SOLID
 70
     1
 71
     0
 91
        1
 92
        0
 93
        4
 72
     1
 10
8.215215204382591
 20
-35.7989250712761
 11
4.76893996054531
 21
-35.7989250712761
 72
     1
 10
4.76893996054531
 20
-35.7989250712761
 11
2.640710101341287
 21
-38.3352506518487
 72
     1
 10
2.640710101341287
 20
-38.3352506518487
 11
6.087018430291718
 21
-38.33521122254621
 72
     1
 10
6.087018430291718
 20
-38.33521122254621
 11
8.215215204382591
 21
-35.7989250712761
 97
        0
 75
     0
 76
     1
 98
        1
 10
0.0
 20
0.0
  0
HATCH
  5
B8
330
1F
100
AcDbEntity
  8
중심선
100
AcDbHatch
 10
0.0
 20
0.0
 30
0.0
210
0.0
220
0.0
230
1.0
  2
SOLID
 70
     1
 71
     0
 91
        1
 92
        0
 93
        4
 72
     1
 10
13.22797919541854
 20
-35.79892507127608
 11
9.781703951581317
 21
-35.79892507127608
 72
     1
 10
9.781703951581317
 20
-35.79892507127608
 11
5.250565943223872
 21
-41.19892507127612
 72
     1
 10
5.250565943223872
 20
-41.19892507127612
 11
8.696841187061155
 21
-41.19892507127612
 72
     1
 10
8.696841187061155
 20
-41.19892507127612
 11
13.22797919541854
 21
-35.79892507127608
 97
        0
 75
     0
 76
     1
 98
        1
 10
0.0
 20
0.0
  0
HATCH
  5
B9
330
1F
100
AcDbEntity
  8
중심선
100
AcDbHatch
 10
0.0
 20
0.0
 30
0.0
210
0.0
220
0.0
230
1.0
  2
SOLID
 70
     1
 71
     0
 91
        1
 92
        0
 93
        4
 72
     1
 10
18.24074318645444
 20
-35.79892507127613
 11
14.79446794261738
 21
-35.79892507127608
 72
     1
 10
14.79446794261738
 20
-35.79892507127608
 11
7.746031040728074
 21
-44.19892507127612
 72
     1
 10
7.746031040728074
 20
-44.19892507127612
 11
11.19230628456536
 21
-44.19892507127612
 72
     1
 10
11.19230628456536
 20
-44.19892507127612
 11
18.24074318645444
 21
-35.79892507127613
 97
        0
 75
     0
 76
     1
 98
        1
 10
0.0
 20
0.0
  0
HATCH
  5
BA
330
1F
100
AcDbEntity
  8
중심선
100
AcDbHatch
 10
0.0
 20
0.0
 30
0.0
210
0.0
220
0.0
230
1.0
  2
SOLID
 70
     1
 71
     0
 91
        1
 92
        0
 93
        6
 72
     3
 10
23.04063361746664
 20
-39.99892507132738
 11
3.960054785062284
 21
1.540850780301639E-10
 40
0.3939339440162633
 50
17.09539180608434
 51
320.0019657685075
 73
     0
 72
     1
 10
24.72363327316721
 20
-38.58681907591441
 11
27.02893514686827
 21
-36.65249236586649
 72
     3
 10
23.04063361741379
 20
-39.99892507127625
 11
6.600054785286829
 21
-1.249000902703301E-13
 40
0.6363583540795982
 50
39.99873849337411
 51
368.4976242363725
 73
     1
 72
     1
 10
29.4659661093144
 20
-39.03892507120613
 11
21.72070092424974
 21
-39.0389250712061
 72
     1
 10
21.72070092424974
 20
-39.0389250712061
 11
21.72067587980378
 21
-40.95892507120602
 72
     1
 10
21.72067587980378
 20
-40.95892507120602
 11
26.16205564927582
 21
-40.95892507120599
 97
        0
 75
     0
 76
     1
 98
        1
 10
0.0
 20
0.0
  0
DIMENSION
  5
C9
330
1F
100
AcDbEntity
  8
0
  6
Continuous
370
    15
100
AcDbDimension
  2
_D_1
 10
1.999999999999986
 20
46.60915901397626
 30
0.0
 11
39.20663753845214
 21
46.60915901397626
 31
0.0
 70
   160
  1
<>
 71
     2
 42
76.20000000000003
  3
SLDDIMSTYLE1
100
AcDbAlignedDimension
 13
78.20000000000002
 23
25.40000000000001
 33
0.0
 14
1.999999999999987
 24
20.07486800592763
 34
0.0
100
AcDbRotatedDimension
1001
ACAD
1000
DSTYLE
1002
{
1070
   171
1070
     6
1070
   273
1070
     7
1002
}
  0
DIMENSION
  5
F3
330
1F
100
AcDbEntity
  8
0
  6
Continuous
370
    15
100
AcDbDimension
  2
_D_3
 10
97.20000000000019
 20
25.40000000000009
 30
0.0
 11
97.20000000000013
 21
43.59775000000008
 31
0.0
 70
   160
  1
%%c<>
 71
     2
 42
50.80000000000001
 52
-270.0
  3
SLDDIMSTYLE1
100
AcDbAlignedDimension
 13
78.20000000000002
 23
-25.4
 33
0.0
 14
78.20000000000002
 24
25.40000000000002
 34
0.0
 50
90.0000000000002
100
AcDbRotatedDimension
1001
ACAD
1000
DSTYLE
1002
{
1070
   171
1070
     6
1070
   273
1070
     7
1002
}
  0
LINE
  5
107
330
1F
100
AcDbEntity
  8
참조1
100
AcDbLine
 10
75.44158764747253
 20
7.441074928723896
 30
0.0
 11
75.44158764747253
 21
-7.438925071276109
 31
0.0
  0
LINE
  5
108
330
1F
100
AcDbEntity
  8
참조1
100
AcDbLine
 10
88.14158764747253
 20
5.441074928723896
 30
0.0
 11
75.44158764747253
 21
5.441074928723896
 31
0.0
  0
SOLID
  5
109
330
1F
100
AcDbEntity
  8
참조1
100
AcDbTrace
 10
75.44158764747253
 20
5.441074928723896
 30
0.0
 11
81.79158764747253
 21
4.425074928723896
 31
0.0
 12
81.79158764747253
 22
6.457074928723896
 32
0.0
 13
81.79158764747253
 23
6.457074928723896
 33
0.0
  0
LINE
  5
10A
330
1F
100
AcDbEntity
  8
참조1
100
AcDbLine
 10
88.14158764747253
 20
-5.438925071276109
 30
0.0
 11
75.44158764747253
 21
-5.438925071276109
 31
0.0
  0
SOLID
  5
10B
330
1F
100
AcDbEntity
  8
참조1
100
AcDbTrace
 10
75.44158764747253
 20
-5.438925071276109
 30
0.0
 11
81.79158764747253
 21
-6.454925071276109
 31
0.0
 12
81.79158764747253
 22
-4.422925071276109
 32
0.0
 13
81.79158764747253
 23
-4.422925071276109
 33
0.0
  0
MTEXT
  5
10C
330
1F
100
AcDbEntity
  8
참조1
100
AcDbMText
 10
84.82593778009851
 20
11.01136670591222
 30
0.0
 40
3.5
 41
0.0
 71
     1
 72
     1
  1
A
  7
SLDTEXTSTYLE0
 73
     1
 44
1.0
  0
MTEXT
  5
10D
330
1F
100
AcDbEntity
  8
참조1
100
AcDbMText
 10
84.82593778009851
 20
0.1313667059122201
 30
0.0
 40
3.5
 41
0.0
 71
     1
 72
     1
  1
A
  7
SLDTEXTSTYLE0
 73
     1
 44
1.0
  0
LINE
  5
20D
330
1F
100
AcDbEntity
  8
외형선
  6
Continuous
370
    15
100
AcDbLine
 10
-61.49999999999997
 20
-14.87499999999999
 30
0.0
 11
-60.49999999999997
 21
-15.87499999999999
 31
0.0
  0
LINE
  5
20E
330
1F
100
AcDbEntity
  8
중심선
100
AcDbLine
 10
-68.49999999999999
 20
-0.0000000000000284
 30
0.0
 11
84.2499143572364
 21
0.0000000000000142
 31
0.0
  0
CIRCLE
  5
20F
330
1F
100
AcDbEntity
  8
해칭선
100
AcDbCircle
 10
0.0
 20
0.0
 30
0.0
 40
2.999999999999995
  0
DIMENSION
  5
210
330
1F
100
AcDbEntity
  8
0
  6
Continuous
370
    15
100
AcDbDimension
  2
*D13
 10
-83.3689835223611
 20
-15.87500000000007
 30
0.0
 11
-83.36898352236116
 21
0.0000000000000142
 31
0.0
 70
   160
  1
%%c<>
 71
     2
 42
31.75
 52
-270.0
  3
SLDDIMSTYLE1
100
AcDbAlignedDimension
 13
-61.49999999999997
 23
15.87500000000001
 33
0.0
 14
-60.5
 24
-15.87499999999999
 34
0.0
 50
90.0000000000002
100
AcDbRotatedDimension
1001
ACAD
1000
DSTYLE
1002
{
1070
   171
1070
     6
1070
   273
1070
     7
1002
}
  0
DIMENSION
  5
211
330
1F
100
AcDbEntity
  8
0
  6
Continuous
370
    15
100
AcDbDimension
  2
*D14
 10
-61.49999999999997
 20
60.07213796039974
 30
0.0
 11
8.602930103048653
 21
60.07213796039974
 31
0.0
 70
   160
  1
<>
 71
     2
 42
139.7
  3
SLDDIMSTYLE1
100
AcDbAlignedDimension
 13
78.20000000000002
 23
25.40000000000001
 33
0.0
 14
-61.49999999999997
 24
15.87500000000001
 34
0.0
 50
0.0000000000000029
100
AcDbRotatedDimension
1001
ACAD
1000
DSTYLE
1002
{
1070
   171
1070
     6
1070
   273
1070
     7
1002
}
  0
INSERT
  5
212
330
1F
100
AcDbEntity
  8
해칭선
100
AcDbBlockReference
  2
SW_DOWELSYMBOL_0
 10
0.0
 20
0.0
 30
0.0
  0
LINE
  5
213
330
1F
100
AcDbEntity
  8
외형선
  6
Continuous
370
    15
100
AcDbLine
 10
-38.08132499999996
 20
13.48740000000001
 30
0.0
 11
-24.97492499999996
 21
13.48740000000001
 31
0.0
  0
LINE
  5
214
330
1F
100
AcDbEntity
  8
외형선
  6
Continuous
370
    15
100
AcDbLine
 10
-24.97492499999996
 20
13.48740000000001
 30
0.0
 11
-22.58732499999994
 21
15.87500000000003
 31
0.0
  0
LINE
  5
215
330
1F
100
AcDbEntity
  8
외형선
  6
Continuous
370
    15
100
AcDbLine
 10
-38.08132499999996
 20
13.48740000000001
 30
0.0
 11
-40.46892499999998
 21
15.87500000000003
 31
0.0
  0
LINE
  5
216
330
1F
100
AcDbEntity
  8
외형선
  6
Continuous
370
    15
100
AcDbLine
 10
-61.49999999999997
 20
13.48740000000001
 30
0.0
 11
-47.79999999999998
 21
13.48740000000001
 31
0.0
  0
LINE
  5
217
330
1F
100
AcDbEntity
  8
외형선
  6
Continuous
370
    15
100
AcDbLine
 10
-47.79999999999998
 20
13.48740000000001
 30
0.0
 11
-45.41240000000008
 21
15.875
 31
0.0
  0
LINE
  5
218
330
1F
100
AcDbEntity
  8
외형선
  6
Continuous
370
    15
100
AcDbLine
 10
-45.41240000000008
 20
15.87500000000001
 30
0.0
 11
-40.46892499999998
 21
15.87500000000001
 31
0.0
  0
LINE
  5
219
330
1F
100
AcDbEntity
  8
외형선
  6
Continuous
370
    15
100
AcDbLine
 10
-61.49999999999997
 20
13.48740000000001
 30
0.0
 11
-61.49999999999997
 21
-14.875
 31
0.0
  0
LINE
  5
21A
330
1F
100
AcDbEntity
  8
외형선
  6
Continuous
370
    15
100
AcDbLine
 10
-60.49999999999997
 20
-15.875
 30
0.0
 11
2.0
 21
-15.87499999999999
 31
0.0
  0
LINE
  5
21B
330
1F
100
AcDbEntity
  8
외형선
  6
Continuous
370
    15
100
AcDbLine
 10
2.0
 20
15.87500000000001
 30
0.0
 11
-22.58732499999996
 21
15.875
 31
0.0
  0
LINE
  5
274
330
1F
100
AcDbEntity
  8
외형선
  6
Continuous
370
    15
100
AcDbLine
 10
-60.49999999999997
 20
-15.87499999999999
 30
0.0
 11
-60.49999999999997
 21
13.48740000000001
 31
0.0
  0
ENDSEC
  0
SECTION
  2
OBJECTS
  0
DICTIONARY
  5
C
330
0
100
AcDbDictionary
281
     1
  3
ACAD_GROUP
350
D
  3
ACAD_IMAGE_VARS
350
138
  3
ACAD_LAYOUT
350
1A
  3
ACAD_MLINESTYLE
350
17
  3
ACAD_PLOTSETTINGS
350
19
  3
ACAD_PLOTSTYLENAME
350
E
  3
ACAD_SCALELIST
350
47
  3
APPDATA
350
136
  3
DWGPROPS
350
275
  0
DICTIONARY
  5
1CC
330
2
100
AcDbDictionary
280
     1
281
     1
  3
ACAD_LAYERSTATES
360
1CD
  0
DICTIONARY
  5
D
102
{ACAD_REACTORS
330
C
102
}
330
C
100
AcDbDictionary
281
     1
  0
RASTERVARIABLES
  5
138
102
{ACAD_REACTORS
330
C
102
}
330
C
100
AcDbRasterVariables
 90
        0
 70
     1
 71
     1
 72
     1
  0
DICTIONARY
  5
1A
102
{ACAD_REACTORS
330
C
102
}
330
C
100
AcDbDictionary
281
     1
  3
Layout1
350
1E
  3
Layout2
350
26
  3
Model
350
22
  0
DICTIONARY
  5
17
102
{ACAD_REACTORS
330
C
102
}
330
C
100
AcDbDictionary
281
     1
  3
Standard
350
18
  0
DICTIONARY
  5
19
102
{ACAD_REACTORS
330
C
102
}
330
C
100
AcDbDictionary
281
     1
  0
ACDBDICTIONARYWDFLT
  5
E
102
{ACAD_REACTORS
330
C
102
}
330
C
100
AcDbDictionary
281
     1
  3
Normal
350
F
100
AcDbDictionaryWithDefault
340
F
  0
DICTIONARY
  5
47
102
{ACAD_REACTORS
330
C
102
}
330
C
100
AcDbDictionary
281
     1
  3
A0
350
48
  3
A1
350
49
  3
A2
350
4A
  3
A3
350
4B
  3
A4
350
4C
  3
A5
350
4D
  3
A6
350
4E
  3
A7
350
4F
  3
A8
350
50
  3
A9
350
51
  3
B0
350
52
  3
B1
350
53
  3
B2
350
54
  3
B3
350
55
  3
B4
350
56
  3
B5
350
57
  3
B6
350
58
  3
B7
350
59
  3
B8
350
5A
  3
B9
350
5B
  3
C0
350
5C
  3
C1
350
5D
  3
C2
350
5E
  3
C3
350
5F
  3
C4
350
60
  3
C5
350
61
  3
C6
350
62
  3
C7
350
63
  3
C8
350
64
  3
C9
350
65
  3
D0
350
66
  3
D1
350
67
  3
D2
350
68
  0
DICTIONARY
  5
136
102
{ACAD_REACTORS
330
C
102
}
330
C
100
AcDbDictionary
281
     1
  0
XRECORD
  5
275
102
{ACAD_REACTORS
330
C
102
}
330
C
100
AcDbXrecord
280
     1
  1
DWGPROPS COOKIE
  2

  3

  4

  6

  7

  8
12016016
  9

300
=
301
=
302
=
303
=
304
=
305
=
306
=
307
=
308
=
309
=
 40
0.0
 41
2458311.199744155
 42
2458330.193083114
  1

 90
        0
  0
DICTIONARY
  5
1CD
102
{ACAD_REACTORS
330
1CC
102
}
330
1CC
100
AcDbDictionary
281
     1
  0
LAYOUT
  5
1E
102
{ACAD_REACTORS
330
1A
102
}
330
1A
100
AcDbPlotSettings
  1

  2
none_device
  4

  6

 40
0.0
 41
0.0
 42
0.0
 43
0.0
 44
0.0
 45
0.0
 46
0.0
 47
0.0
 48
0.0
 49
0.0
140
0.0
141
0.0
142
1.0
143
1.0
 70
   688
 72
     1
 73
     0
 74
     5
  7

 75
    16
147
1.0
148
0.0
149
0.0
100
AcDbLayout
  1
Layout1
 70
     1
 71
     1
 10
0.0
 20
0.0
 11
420.0
 21
297.0
 12
0.0
 22
0.0
 32
0.0
 14
1.000000000000000E+20
 24
1.000000000000000E+20
 34
1.000000000000000E+20
 15
-1.000000000000000E+20
 25
-1.000000000000000E+20
 35
-1.000000000000000E+20
146
0.0
 13
0.0
 23
0.0
 33
0.0
 16
1.0
 26
0.0
 36
0.0
 17
0.0
 27
1.0
 37
0.0
 76
     0
330
1B
  0
LAYOUT
  5
26
102
{ACAD_REACTORS
330
1A
102
}
330
1A
100
AcDbPlotSettings
  1

  2
none_device
  4

  6

 40
0.0
 41
0.0
 42
0.0
 43
0.0
 44
0.0
 45
0.0
 46
0.0
 47
0.0
 48
0.0
 49
0.0
140
0.0
141
0.0
142
1.0
143
1.0
 70
   688
 72
     1
 73
     0
 74
     5
  7

 75
    16
147
1.0
148
0.0
149
0.0
100
AcDbLayout
  1
Layout2
 70
     1
 71
     2
 10
0.0
 20
0.0
 11
0.0
 21
0.0
 12
0.0
 22
0.0
 32
0.0
 14
0.0
 24
0.0
 34
0.0
 15
0.0
 25
0.0
 35
0.0
146
0.0
 13
0.0
 23
0.0
 33
0.0
 16
1.0
 26
0.0
 36
0.0
 17
0.0
 27
1.0
 37
0.0
 76
     0
330
23
  0
LAYOUT
  5
22
102
{ACAD_REACTORS
330
1A
102
}
330
1A
100
AcDbPlotSettings
  1

  2
none_device
  4
ANSI_A_(11.00_x_8.50_Inches)
  6

 40
6.35
 41
19.05
 42
6.35000508
 43
19.05000254
 44
279.4
 45
215.9
 46
105.154018196337
 47
61.8794338955786
 48
0.0
 49
0.0
140
0.0
141
0.0
142
0.0619879117212539
143
1.0
 70
  1696
 72
     0
 73
     0
 74
     0
  7

 75
     0
147
0.0235690232323232
148
0.0
149
0.0
100
AcDbLayout
  1
Model
 70
     1
 71
     0
 10
0.0
 20
0.0
 11
420.0
 21
297.0
 12
0.0
 22
0.0
 32
0.0
 14
-87.7439835223612
 24
-49.97073246008787
 34
0.0
 15
97.7503333333337
 25
64.44713796039974
 35
0.0
146
0.0
 13
0.0
 23
0.0
 33
0.0
 16
1.0
 26
0.0
 36
0.0
 17
0.0
 27
1.0
 37
0.0
 76
     0
330
1F
331
29
  0
MLINESTYLE
  5
18
102
{ACAD_REACTORS
330
17
102
}
330
17
100
AcDbMlineStyle
  2
Standard
 70
     0
  3

 62
   256
 51
90.0
 52
90.0
 71
     2
 49
0.5
 62
   256
  6
BYLAYER
 49
-0.5
 62
   256
  6
BYLAYER
  0
ACDBPLACEHOLDER
  5
F
102
{ACAD_REACTORS
330
E
102
}
330
E
  0
SCALE
  5
48
102
{ACAD_REACTORS
330
47
102
}
330
47
100
AcDbScale
 70
     0
300
1:1
140
1.0
141
1.0
290
     1
  0
SCALE
  5
49
102
{ACAD_REACTORS
330
47
102
}
330
47
100
AcDbScale
 70
     0
300
1:2
140
1.0
141
2.0
290
     0
  0
SCALE
  5
4A
102
{ACAD_REACTORS
330
47
102
}
330
47
100
AcDbScale
 70
     0
300
1:4
140
1.0
141
4.0
290
     0
  0
SCALE
  5
4B
102
{ACAD_REACTORS
330
47
102
}
330
47
100
AcDbScale
 70
     0
300
1:5
140
1.0
141
5.0
290
     0
  0
SCALE
  5
4C
102
{ACAD_REACTORS
330
47
102
}
330
47
100
AcDbScale
 70
     0
300
1:8
140
1.0
141
8.0
290
     0
  0
SCALE
  5
4D
102
{ACAD_REACTORS
330
47
102
}
330
47
100
AcDbScale
 70
     0
300
1:10
140
1.0
141
10.0
290
     0
  0
SCALE
  5
4E
102
{ACAD_REACTORS
330
47
102
}
330
47
100
AcDbScale
 70
     0
300
1:16
140
1.0
141
16.0
290
     0
  0
SCALE
  5
4F
102
{ACAD_REACTORS
330
47
102
}
330
47
100
AcDbScale
 70
     0
300
1:20
140
1.0
141
20.0
290
     0
  0
SCALE
  5
50
102
{ACAD_REACTORS
330
47
102
}
330
47
100
AcDbScale
 70
     0
300
1:30
140
1.0
141
30.0
290
     0
  0
SCALE
  5
51
102
{ACAD_REACTORS
330
47
102
}
330
47
100
AcDbScale
 70
     0
300
1:40
140
1.0
141
40.0
290
     0
  0
SCALE
  5
52
102
{ACAD_REACTORS
330
47
102
}
330
47
100
AcDbScale
 70
     0
300
1:50
140
1.0
141
50.0
290
     0
  0
SCALE
  5
53
102
{ACAD_REACTORS
330
47
102
}
330
47
100
AcDbScale
 70
     0
300
1:100
140
1.0
141
100.0
290
     0
  0
SCALE
  5
54
102
{ACAD_REACTORS
330
47
102
}
330
47
100
AcDbScale
 70
     0
300
2:1
140
2.0
141
1.0
290
     0
  0
SCALE
  5
55
102
{ACAD_REACTORS
330
47
102
}
330
47
100
AcDbScale
 70
     0
300
4:1
140
4.0
141
1.0
290
     0
  0
SCALE
  5
56
102
{ACAD_REACTORS
330
47
102
}
330
47
100
AcDbScale
 70
     0
300
8:1
140
8.0
141
1.0
290
     0
  0
SCALE
  5
57
102
{ACAD_REACTORS
330
47
102
}
330
47
100
AcDbScale
 70
     0
300
10:1
140
10.0
141
1.0
290
     0
  0
SCALE
  5
58
102
{ACAD_REACTORS
330
47
102
}
330
47
100
AcDbScale
 70
     0
300
100:1
140
100.0
141
1.0
290
     0
  0
SCALE
  5
59
102
{ACAD_REACTORS
330
47
102
}
330
47
100
AcDbScale
 70
     0
300
1/128" = 1'-0"
140
0.0078125
141
12.0
290
     0
  0
SCALE
  5
5A
102
{ACAD_REACTORS
330
47
102
}
330
47
100
AcDbScale
 70
     0
300
1/64" = 1'-0"
140
0.015625
141
12.0
290
     0
  0
SCALE
  5
5B
102
{ACAD_REACTORS
330
47
102
}
330
47
100
AcDbScale
 70
     0
300
1/32" = 1'-0"
140
0.03125
141
12.0
290
     0
  0
SCALE
  5
5C
102
{ACAD_REACTORS
330
47
102
}
330
47
100
AcDbScale
 70
     0
300
1/16" = 1'-0"
140
0.0625
141
12.0
290
     0
  0
SCALE
  5
5D
102
{ACAD_REACTORS
330
47
102
}
330
47
100
AcDbScale
 70
     0
300
3/32" = 1'-0"
140
0.09375
141
12.0
290
     0
  0
SCALE
  5
5E
102
{ACAD_REACTORS
330
47
102
}
330
47
100
AcDbScale
 70
     0
300
1/8" = 1'-0"
140
0.125
141
12.0
290
     0
  0
SCALE
  5
5F
102
{ACAD_REACTORS
330
47
102
}
330
47
100
AcDbScale
 70
     0
300
3/16" = 1'-0"
140
0.1875
141
12.0
290
     0
  0
SCALE
  5
60
102
{ACAD_REACTORS
330
47
102
}
330
47
100
AcDbScale
 70
     0
300
1/4" = 1'-0"
140
0.25
141
12.0
290
     0
  0
SCALE
  5
61
102
{ACAD_REACTORS
330
47
102
}
330
47
100
AcDbScale
 70
     0
300
3/8" = 1'-0"
140
0.375
141
12.0
290
     0
  0
SCALE
  5
62
102
{ACAD_REACTORS
330
47
102
}
330
47
100
AcDbScale
 70
     0
300
1/2" = 1'-0"
140
0.5
141
12.0
290
     0
  0
SCALE
  5
63
102
{ACAD_REACTORS
330
47
102
}
330
47
100
AcDbScale
 70
     0
300
3/4" = 1'-0"
140
0.75
141
12.0
290
     0
  0
SCALE
  5
64
102
{ACAD_REACTORS
330
47
102
}
330
47
100
AcDbScale
 70
     0
300
1" = 1'-0"
140
1.0
141
12.0
290
     0
  0
SCALE
  5
65
102
{ACAD_REACTORS
330
47
102
}
330
47
100
AcDbScale
 70
     0
300
1-1/2" = 1'-0"
140
1.5
141
12.0
290
     0
  0
SCALE
  5
66
102
{ACAD_REACTORS
330
47
102
}
330
47
100
AcDbScale
 70
     0
300
3" = 1'-0"
140
3.0
141
12.0
290
     0
  0
SCALE
  5
67
102
{ACAD_REACTORS
330
47
102
}
330
47
100
AcDbScale
 70
     0
300
6" = 1'-0"
140
6.0
141
12.0
290
     0
  0
SCALE
  5
68
102
{ACAD_REACTORS
330
47
102
}
330
47
100
AcDbScale
 70
     0
300
1'-0" = 1'-0"
140
12.0
141
12.0
290
     0
  0
ENDSEC
  0
EOF
