  0
SECTION
  2
HEADER
  9
$ACADVER
  1
AC1015
  9
$ACADMAINTVER
 70
     6
  9
$DWGCODEPAGE
  3
ANSI_949
  9
$INSBASE
 10
0.0
 20
0.0
 30
0.0
  9
$EXTMIN
 10
-138.9961328405543
 20
-160.1078096174164
 30
0.0
  9
$EXTMAX
 10
105.2267950408805
 20
59.00362764387435
 30
0.0
  9
$LIMMIN
 10
0.0
 20
0.0
  9
$LIMMAX
 10
420.0
 20
297.0
  9
$ORTHOMODE
 70
     0
  9
$REGENMODE
 70
     1
  9
$FILLMODE
 70
     1
  9
$QTEXTMODE
 70
     0
  9
$MIRRTEXT
 70
     1
  9
$LTSCALE
 40
1.0
  9
$ATTMODE
 70
     1
  9
$TEXTSIZE
 40
3.5
  9
$TRACEWID
 40
1.0
  9
$TEXTSTYLE
  7
Standard
  9
$CLAYER
  8
0
  9
$CELTYPE
  6
ByLayer
  9
$CECOLOR
 62
   256
  9
$CELTSCALE
 40
1.0
  9
$DISPSILH
 70
     0
  9
$DIMSCALE
 40
1.0
  9
$DIMASZ
 40
3.302
  9
$DIMEXO
 40
1.0
  9
$DIMDLI
 40
3.75
  9
$DIMRND
 40
0.0
  9
$DIMDLE
 40
0.0
  9
$DIMEXE
 40
1.0
  9
$DIMTP
 40
0.0
  9
$DIMTM
 40
0.0
  9
$DIMTXT
 40
3.5
  9
$DIMCEN
 40
2.5
  9
$DIMTSZ
 40
0.0
  9
$DIMTOL
 70
     0
  9
$DIMLIM
 70
     0
  9
$DIMTIH
 70
     1
  9
$DIMTOH
 70
     1
  9
$DIMSE1
 70
     0
  9
$DIMSE2
 70
     0
  9
$DIMTAD
 70
     1
  9
$DIMZIN
 70
     0
  9
$DIMBLK
  1

  9
$DIMASO
 70
     1
  9
$DIMSHO
 70
     1
  9
$DIMPOST
  1

  9
$DIMAPOST
  1

  9
$DIMALT
 70
     0
  9
$DIMALTD
 70
     3
  9
$DIMALTF
 40
0.0393700787401575
  9
$DIMLFAC
 40
1.0
  9
$DIMTOFL
 70
     1
  9
$DIMTVP
 40
0.0
  9
$DIMTIX
 70
     0
  9
$DIMSOXD
 70
     0
  9
$DIMSAH
 70
     0
  9
$DIMBLK1
  1

  9
$DIMBLK2
  1

  9
$DIMSTYLE
  2
ISO-25
  9
$DIMCLRD
 70
     0
  9
$DIMCLRE
 70
     0
  9
$DIMCLRT
 70
     0
  9
$DIMTFAC
 40
1.0
  9
$DIMGAP
 40
1.524
  9
$DIMJUST
 70
     0
  9
$DIMSD1
 70
     0
  9
$DIMSD2
 70
     0
  9
$DIMTOLJ
 70
     0
  9
$DIMTZIN
 70
     0
  9
$DIMALTZ
 70
     0
  9
$DIMALTTZ
 70
     0
  9
$DIMUPT
 70
     0
  9
$DIMDEC
 70
     2
  9
$DIMTDEC
 70
     2
  9
$DIMALTU
 70
     2
  9
$DIMALTTD
 70
     3
  9
$DIMTXSTY
  7
Standard
  9
$DIMAUNIT
 70
     0
  9
$DIMADEC
 70
     2
  9
$DIMALTRND
 40
0.0
  9
$DIMAZIN
 70
     0
  9
$DIMDSEP
 70
    44
  9
$DIMATFIT
 70
     3
  9
$DIMFRAC
 70
     0
  9
$DIMLDRBLK
  1

  9
$DIMLUNIT
 70
     2
  9
$DIMLWD
 70
    -2
  9
$DIMLWE
 70
    -2
  9
$DIMTMOVE
 70
     0
  9
$LUNITS
 70
     2
  9
$LUPREC
 70
     2
  9
$SKETCHINC
 40
1.0
  9
$FILLETRAD
 40
10.0
  9
$AUNITS
 70
     0
  9
$AUPREC
 70
     2
  9
$MENU
  1
.
  9
$ELEVATION
 40
0.0
  9
$PELEVATION
 40
0.0
  9
$THICKNESS
 40
0.0
  9
$LIMCHECK
 70
     0
  9
$CHAMFERA
 40
0.0
  9
$CHAMFERB
 40
0.0
  9
$CHAMFERC
 40
0.0
  9
$CHAMFERD
 40
0.0
  9
$SKPOLY
 70
     0
  9
$TDCREATE
 40
2458311.471521678
  9
$TDUCREATE
 40
2458311.096521678
  9
$TDUPDATE
 40
2458319.714871933
  9
$TDUUPDATE
 40
2458319.339871933
  9
$TDINDWG
 40
0.0000463542
  9
$TDUSRTIMER
 40
2458319.339825845
  9
$USRTIMER
 70
     1
  9
$ANGBASE
 50
0.0
  9
$ANGDIR
 70
     0
  9
$PDMODE
 70
     0
  9
$PDSIZE
 40
-1.0
  9
$PLINEWID
 40
0.0
  9
$SPLFRAME
 70
     0
  9
$SPLINETYPE
 70
     6
  9
$SPLINESEGS
 70
     8
  9
$HANDSEED
  5
1A1
  9
$SURFTAB1
 70
     6
  9
$SURFTAB2
 70
     6
  9
$SURFTYPE
 70
     6
  9
$SURFU
 70
     6
  9
$SURFV
 70
     6
  9
$UCSBASE
  2

  9
$UCSNAME
  2

  9
$UCSORG
 10
0.0
 20
0.0
 30
0.0
  9
$UCSXDIR
 10
1.0
 20
0.0
 30
0.0
  9
$UCSYDIR
 10
0.0
 20
1.0
 30
0.0
  9
$UCSORTHOREF
  2

  9
$UCSORTHOVIEW
 70
     0
  9
$UCSORGTOP
 10
0.0
 20
0.0
 30
0.0
  9
$UCSORGBOTTOM
 10
0.0
 20
0.0
 30
0.0
  9
$UCSORGLEFT
 10
0.0
 20
0.0
 30
0.0
  9
$UCSORGRIGHT
 10
0.0
 20
0.0
 30
0.0
  9
$UCSORGFRONT
 10
0.0
 20
0.0
 30
0.0
  9
$UCSORGBACK
 10
0.0
 20
0.0
 30
0.0
  9
$PUCSBASE
  2

  9
$PUCSNAME
  2

  9
$PUCSORG
 10
0.0
 20
0.0
 30
0.0
  9
$PUCSXDIR
 10
1.0
 20
0.0
 30
0.0
  9
$PUCSYDIR
 10
0.0
 20
1.0
 30
0.0
  9
$PUCSORTHOREF
  2

  9
$PUCSORTHOVIEW
 70
     0
  9
$PUCSORGTOP
 10
0.0
 20
0.0
 30
0.0
  9
$PUCSORGBOTTOM
 10
0.0
 20
0.0
 30
0.0
  9
$PUCSORGLEFT
 10
0.0
 20
0.0
 30
0.0
  9
$PUCSORGRIGHT
 10
0.0
 20
0.0
 30
0.0
  9
$PUCSORGFRONT
 10
0.0
 20
0.0
 30
0.0
  9
$PUCSORGBACK
 10
0.0
 20
0.0
 30
0.0
  9
$USERI1
 70
     0
  9
$USERI2
 70
     0
  9
$USERI3
 70
     0
  9
$USERI4
 70
     0
  9
$USERI5
 70
     0
  9
$USERR1
 40
0.0
  9
$USERR2
 40
0.0
  9
$USERR3
 40
0.0
  9
$USERR4
 40
0.0
  9
$USERR5
 40
0.0
  9
$WORLDVIEW
 70
     1
  9
$SHADEDGE
 70
     3
  9
$SHADEDIF
 70
    70
  9
$TILEMODE
 70
     1
  9
$MAXACTVP
 70
    64
  9
$PINSBASE
 10
0.0
 20
0.0
 30
0.0
  9
$PLIMCHECK
 70
     0
  9
$PEXTMIN
 10
1.000000000000000E+20
 20
1.000000000000000E+20
 30
1.000000000000000E+20
  9
$PEXTMAX
 10
-1.000000000000000E+20
 20
-1.000000000000000E+20
 30
-1.000000000000000E+20
  9
$PLIMMIN
 10
0.0
 20
0.0
  9
$PLIMMAX
 10
0.0
 20
0.0
  9
$UNITMODE
 70
     0
  9
$VISRETAIN
 70
     1
  9
$PLINEGEN
 70
     0
  9
$PSLTSCALE
 70
     1
  9
$TREEDEPTH
 70
  3020
  9
$CMLSTYLE
  2
Standard
  9
$CMLJUST
 70
     0
  9
$CMLSCALE
 40
20.0
  9
$PROXYGRAPHICS
 70
     1
  9
$MEASUREMENT
 70
     1
  9
$CELWEIGHT
370
    -1
  9
$ENDCAPS
280
     0
  9
$JOINSTYLE
280
     0
  9
$LWDISPLAY
290
     1
  9
$INSUNITS
 70
     4
  9
$HYPERLINKBASE
  1

  9
$STYLESHEET
  1

  9
$XEDIT
290
     1
  9
$CEPSNTYPE
380
     0
  9
$PSTYLEMODE
290
     1
  9
$FINGERPRINTGUID
  2
{D161FDE7-BEAF-433A-A898-5E7BC6DF6A69}
  9
$VERSIONGUID
  2
{FAEB1C32-E019-11D5-929B-00C0DF256EC4}
  9
$EXTNAMES
290
     1
  9
$PSVPSCALE
 40
0.0
  9
$OLESTARTUP
290
     0
  0
ENDSEC
  0
SECTION
  2
CLASSES
  0
CLASS
  1
ACDBDICTIONARYWDFLT
  2
AcDbDictionaryWithDefault
  3
ObjectDBX Classes
 90
        0
280
     0
281
     0
  0
CLASS
  1
VISUALSTYLE
  2
AcDbVisualStyle
  3
ObjectDBX Classes
 90
     4095
280
     0
281
     0
  0
CLASS
  1
MATERIAL
  2
AcDbMaterial
  3
ObjectDBX Classes
 90
     1153
280
     0
281
     0
  0
CLASS
  1
SCALE
  2
AcDbScale
  3
ObjectDBX Classes
 90
     1153
280
     0
281
     0
  0
CLASS
  1
SUN
  2
AcDbSun
  3
SCENEOE
 90
     1153
280
     0
281
     0
  0
CLASS
  1
ACDBPLACEHOLDER
  2
AcDbPlaceHolder
  3
ObjectDBX Classes
 90
        0
280
     0
281
     0
  0
CLASS
  1
LAYOUT
  2
AcDbLayout
  3
ObjectDBX Classes
 90
        0
280
     0
281
     0
  0
CLASS
  1
TABLESTYLE
  2
AcDbTableStyle
  3
ObjectDBX Classes
 90
     4095
280
     0
281
     0
  0
CLASS
  1
MLEADERSTYLE
  2
AcDbMLeaderStyle
  3
ACDB_MLEADERSTYLE_CLASS
 90
     4095
280
     0
281
     0
  0
CLASS
  1
RASTERVARIABLES
  2
AcDbRasterVariables
  3
ISM
 90
        0
280
     0
281
     0
  0
CLASS
  1
DIMASSOC
  2
AcDbDimAssoc
  3
"AcDbDimAssoc|Product Desc:     AcDim ARX App For Dimension|Company:          Autodesk, Inc.|WEB Address:      www.autodesk.com"
 90
        0
280
     0
281
     0
  0
ENDSEC
  0
SECTION
  2
TABLES
  0
TABLE
  2
VPORT
  5
8
330
0
100
AcDbSymbolTable
 70
     1
  0
VPORT
  5
29
330
8
100
AcDbSymbolTableRecord
100
AcDbViewportTableRecord
  2
*Active
 70
     0
 10
0.0
 20
0.0
 11
1.0
 21
1.0
 12
4.674889954421275
 22
-14.94682899387
 13
0.0
 23
0.0
 14
10.0
 24
10.0
 15
10.0
 25
10.0
 16
0.0
 26
0.0
 36
1.0
 17
0.0
 27
0.0
 37
0.0
 40
154.9728623914314
 41
1.67311411992263
 42
50.0
 43
0.0
 44
0.0
 50
0.0
 51
0.0
 71
    16
 72
  2000
 73
     1
 74
     3
 75
     0
 76
     0
 77
     0
 78
     0
281
     0
 65
     1
110
0.0
120
0.0
130
0.0
111
1.0
121
0.0
131
0.0
112
0.0
122
1.0
132
0.0
 79
     0
146
0.0
  0
ENDTAB
  0
TABLE
  2
LTYPE
  5
5
330
0
100
AcDbSymbolTable
 70
     6
  0
LTYPE
  5
14
330
5
100
AcDbSymbolTableRecord
100
AcDbLinetypeTableRecord
  2
ByBlock
 70
     0
  3

 72
    65
 73
     0
 40
0.0
  0
LTYPE
  5
15
330
5
100
AcDbSymbolTableRecord
100
AcDbLinetypeTableRecord
  2
ByLayer
 70
     0
  3

 72
    65
 73
     0
 40
0.0
  0
LTYPE
  5
16
330
5
100
AcDbSymbolTableRecord
100
AcDbLinetypeTableRecord
  2
Continuous
 70
     0
  3
Solid line
 72
    65
 73
     0
 40
0.0
  0
LTYPE
  5
6A
330
5
100
AcDbSymbolTableRecord
100
AcDbLinetypeTableRecord
  2
HIDDEN
 70
     0
  3
Hidden __ __ __ __ __ __ __ __ __ __ __ __ __ __
 72
    65
 73
     2
 40
1.905
 49
1.27
 74
     0
 49
-0.635
 74
     0
  0
LTYPE
  5
6B
330
5
100
AcDbSymbolTableRecord
100
AcDbLinetypeTableRecord
  2
PHANTOM
 70
     0
  3
Phantom ______  __  __  ______  __  __  ______
 72
    65
 73
     6
 40
12.7
 49
6.35
 74
     0
 49
-1.27
 74
     0
 49
1.27
 74
     0
 49
-1.27
 74
     0
 49
1.27
 74
     0
 49
-1.27
 74
     0
  0
LTYPE
  5
6C
330
5
100
AcDbSymbolTableRecord
100
AcDbLinetypeTableRecord
  2
CENTER
 70
     0
  3
Center ____ _ ____ _ ____ _ ____ _ ____ _ ____
 72
    65
 73
     4
 40
10.16
 49
6.35
 74
     0
 49
-1.27
 74
     0
 49
1.27
 74
     0
 49
-1.27
 74
     0
  0
LTYPE
  5
6D
330
5
100
AcDbSymbolTableRecord
100
AcDbLinetypeTableRecord
  2
CENTERX2
 70
     0
  3
Center (2x) ________  __  ________  __  _____
 72
    65
 73
     4
 40
20.32
 49
12.7
 74
     0
 49
-2.54
 74
     0
 49
2.54
 74
     0
 49
-2.54
 74
     0
  0
LTYPE
  5
6E
330
5
100
AcDbSymbolTableRecord
100
AcDbLinetypeTableRecord
  2
DOT2
 70
     0
  3
Dot (.5x) ........................................
 72
    65
 73
     2
 40
0.635
 49
0.0
 74
     0
 49
-0.635
 74
     0
  0
ENDTAB
  0
TABLE
  2
LAYER
  5
2
330
0
100
AcDbSymbolTable
 70
    18
  0
LAYER
  5
10
330
2
100
AcDbSymbolTableRecord
100
AcDbLayerTableRecord
  2
0
 70
     0
 62
     7
  6
Continuous
370
    -3
390
F
  0
LAYER
  5
6F
330
2
100
AcDbSymbolTableRecord
100
AcDbLayerTableRecord
  2
FORMAT
 70
     0
 62
     2
  6
Continuous
370
    -3
390
F
  0
LAYER
  5
70
330
2
100
AcDbSymbolTableRecord
100
AcDbLayerTableRecord
  2
외형선
 70
     0
 62
     4
  6
Continuous
370
    30
390
F
  0
LAYER
  5
71
330
2
100
AcDbSymbolTableRecord
100
AcDbLayerTableRecord
  2
숨은선
 70
     0
 62
     2
  6
HIDDEN
370
    15
390
F
  0
LAYER
  5
72
330
2
100
AcDbSymbolTableRecord
100
AcDbLayerTableRecord
  2
중심선
 70
     0
 62
     1
  6
CENTERX2
370
    -3
390
F
  0
LAYER
  5
73
330
2
100
AcDbSymbolTableRecord
100
AcDbLayerTableRecord
  2
파단선
 70
     0
 62
     4
  6
Continuous
370
    -3
390
F
  0
LAYER
  5
74
330
2
100
AcDbSymbolTableRecord
100
AcDbLayerTableRecord
  2
해칭선
 70
     0
 62
   100
  6
Continuous
370
    -3
390
F
  0
LAYER
  5
75
330
2
100
AcDbSymbolTableRecord
100
AcDbLayerTableRecord
  2
가는실선
 70
     0
 62
     4
  6
Continuous
370
    -3
390
F
  0
LAYER
  5
76
330
2
100
AcDbSymbolTableRecord
100
AcDbLayerTableRecord
  2
치수_보조선
 70
     0
 62
     4
  6
Continuous
370
    -3
390
F
  0
LAYER
  5
77
330
2
100
AcDbSymbolTableRecord
100
AcDbLayerTableRecord
  2
치수문자_일반주서
 70
     0
 62
     7
  6
Continuous
370
    15
390
F
  0
LAYER
  5
78
330
2
100
AcDbSymbolTableRecord
100
AcDbLayerTableRecord
  2
개별주서
 70
     0
 62
   100
  6
Continuous
370
    30
390
F
  0
LAYER
  5
79
330
2
100
AcDbSymbolTableRecord
100
AcDbLayerTableRecord
  2
중간선
 70
     0
 62
     2
  6
Continuous
370
    15
390
F
  0
LAYER
  5
7A
330
2
100
AcDbSymbolTableRecord
100
AcDbLayerTableRecord
  2
윤곽선
 70
     0
 62
     3
  6
Continuous
370
    40
390
F
  0
LAYER
  5
7B
330
2
100
AcDbSymbolTableRecord
100
AcDbLayerTableRecord
  2
중심마크
 70
     0
 62
   100
  6
Continuous
370
    30
390
F
  0
LAYER
  5
7C
330
2
100
AcDbSymbolTableRecord
100
AcDbLayerTableRecord
  2
가상선
 70
     0
 62
     4
  6
PHANTOM
370
    -3
390
F
  0
LAYER
  5
7D
330
2
100
AcDbSymbolTableRecord
100
AcDbLayerTableRecord
  2
특수지정선
 70
     0
 62
     5
  6
CENTERX2
370
    60
390
F
  0
LAYER
  5
7E
330
2
100
AcDbSymbolTableRecord
100
AcDbLayerTableRecord
  2
참조1
 70
     0
 62
    -4
  6
Continuous
370
    -3
390
F
  0
LAYER
  5
151
330
2
100
AcDbSymbolTableRecord
100
AcDbLayerTableRecord
  2
Defpoints
 70
     0
 62
     7
  6
Continuous
290
     0
370
    -3
390
F
  0
ENDTAB
  0
TABLE
  2
STYLE
  5
3
330
0
100
AcDbSymbolTable
 70
     2
  0
STYLE
  5
11
330
3
100
AcDbSymbolTableRecord
100
AcDbTextStyleTableRecord
  2
Standard
 70
     0
 40
0.0
 41
1.0
 50
0.0
 71
     0
 42
3.5
  3
txt
  4

  0
STYLE
  5
94
330
3
100
AcDbSymbolTableRecord
100
AcDbTextStyleTableRecord
  2
SLDTEXTSTYLE0
 70
     0
 40
0.0
 41
0.75
 50
0.0
 71
     0
 42
3.5
  3
TXT
  4

  0
ENDTAB
  0
TABLE
  2
VIEW
  5
6
330
0
100
AcDbSymbolTable
 70
     0
  0
ENDTAB
  0
TABLE
  2
UCS
  5
7
330
0
100
AcDbSymbolTable
 70
     0
  0
ENDTAB
  0
TABLE
  2
APPID
  5
9
330
0
100
AcDbSymbolTable
 70
     3
  0
APPID
  5
12
330
9
100
AcDbSymbolTableRecord
100
AcDbRegAppTableRecord
  2
ACAD
 70
     0
  0
APPID
  5
163
330
9
100
AcDbSymbolTableRecord
100
AcDbRegAppTableRecord
  2
PE_DIMMEASUREMENT
 70
     0
  0
APPID
  5
16A
330
9
100
AcDbSymbolTableRecord
100
AcDbRegAppTableRecord
  2
ACAD_DSTYLE_DIMRADIAL_EXTENSION
 70
     0
  0
ENDTAB
  0
TABLE
  2
DIMSTYLE
  5
A
330
0
100
AcDbSymbolTable
 70
     3
100
AcDbDimStyleTable
  0
DIMSTYLE
105
27
330
A
100
AcDbSymbolTableRecord
100
AcDbDimStyleTableRecord
  2
ISO-25
 70
     0
 41
2.5
 42
0.625
 43
3.75
 44
1.25
 73
     0
 74
     0
 77
     1
 78
     8
140
2.5
141
2.5
143
0.03937007874016
147
0.625
171
     3
172
     1
178
     0
271
     2
272
     2
274
     3
278
    44
283
     0
284
     8
340
11
  0
DIMSTYLE
105
D2
102
{ACAD_REACTORS
330
D1
330
E4
330
153
102
}
330
A
100
AcDbSymbolTableRecord
100
AcDbDimStyleTableRecord
  2
SLDDIMSTYLE0
 70
     0
 41
3.302
 44
0.0
 45
0.000000001
 73
     0
 74
     0
 77
     1
 78
     4
 79
     1
140
3.5
143
0.0393700787401575
147
0.875
148
0.000000001
170
     1
173
     1
178
     0
271
     2
272
     2
276
     2
284
    12
340
94
  0
DIMSTYLE
105
F9
102
{ACAD_REACTORS
330
F8
102
}
330
A
100
AcDbSymbolTableRecord
100
AcDbDimStyleTableRecord
  2
SLDDIMSTYLE1
 70
     0
 41
3.302
 44
0.0
 45
0.000000001
 73
     0
 74
     0
 77
     1
 78
    12
 79
     3
140
3.5
143
0.0393700787401575
147
0.875
148
0.000000001
170
     1
173
     1
178
     0
271
     2
272
     2
276
     2
284
    12
340
94
  0
ENDTAB
  0
TABLE
  2
BLOCK_RECORD
  5
1
330
0
100
AcDbSymbolTable
 70
     9
  0
BLOCK_RECORD
  5
1F
330
1
100
AcDbSymbolTableRecord
100
AcDbBlockTableRecord
  2
*Model_Space
340
22
  0
BLOCK_RECORD
  5
1B
330
1
100
AcDbSymbolTableRecord
100
AcDbBlockTableRecord
  2
*Paper_Space
340
1E
  0
BLOCK_RECORD
  5
23
330
1
100
AcDbSymbolTableRecord
100
AcDbBlockTableRecord
  2
*Paper_Space0
340
26
  0
BLOCK_RECORD
  5
7F
330
1
100
AcDbSymbolTableRecord
100
AcDbBlockTableRecord
  2
블럭10
340
0
102
{BLKREFS
331
CA
102
}
  0
BLOCK_RECORD
  5
D3
330
1
100
AcDbSymbolTableRecord
100
AcDbBlockTableRecord
  2
_D
340
0
  0
BLOCK_RECORD
  5
E5
330
1
100
AcDbSymbolTableRecord
100
AcDbBlockTableRecord
  2
_D_1
340
0
  0
BLOCK_RECORD
  5
FA
330
1
100
AcDbSymbolTableRecord
100
AcDbBlockTableRecord
  2
_D_2
340
0
  0
BLOCK_RECORD
  5
10D
330
1
100
AcDbSymbolTableRecord
100
AcDbBlockTableRecord
  2
_D_3
340
0
  0
BLOCK_RECORD
  5
126
330
1
100
AcDbSymbolTableRecord
100
AcDbBlockTableRecord
  2
SW_DOWELSYMBOL_0
340
0
102
{BLKREFS
331
12C
102
}
  0
BLOCK_RECORD
  5
156
330
1
100
AcDbSymbolTableRecord
100
AcDbBlockTableRecord
  2
*D7
340
0
  0
BLOCK_RECORD
  5
172
330
1
100
AcDbSymbolTableRecord
100
AcDbBlockTableRecord
  2
*D8
340
0
  0
ENDTAB
  0
ENDSEC
  0
SECTION
  2
BLOCKS
  0
BLOCK
  5
20
330
1F
100
AcDbEntity
  8
0
100
AcDbBlockBegin
  2
*Model_Space
 70
     0
 10
0.0
 20
0.0
 30
0.0
  3
*Model_Space
  1
*Model_Space
  0
ENDBLK
  5
21
330
1F
100
AcDbEntity
  8
0
100
AcDbBlockEnd
  0
BLOCK
  5
1C
330
1B
100
AcDbEntity
 67
     1
  8
0
100
AcDbBlockBegin
  2
*Paper_Space
 70
     0
 10
0.0
 20
0.0
 30
0.0
  3
*Paper_Space
  1
*Paper_Space
  0
ENDBLK
  5
1D
330
1B
100
AcDbEntity
 67
     1
  8
0
100
AcDbBlockEnd
  0
BLOCK
  5
24
330
23
100
AcDbEntity
  8
0
100
AcDbBlockBegin
  2
*Paper_Space0
 70
     0
 10
0.0
 20
0.0
 30
0.0
  3
*Paper_Space0
  1
*Paper_Space0
  0
ENDBLK
  5
25
330
23
100
AcDbEntity
  8
0
100
AcDbBlockEnd
  0
BLOCK
  5
80
330
7F
100
AcDbEntity
  8
0
100
AcDbBlockBegin
  2
블럭10
 70
     2
 10
0.0
 20
0.0
 30
0.0
  3
블럭10
  1
블럭10
  0
ELLIPSE
  5
82
330
7F
100
AcDbEntity
  8
중심선
100
AcDbEllipse
 10
20.54032771741204
 20
12.0471743016438
 30
0.0
 11
6.600054785286829
 21
-1.261213355974178E-13
 31
0.0
210
0.0
220
0.0
230
1.0
 40
0.636358354079598
 41
0.9219305317359503
 42
6.513795318482858
  0
ELLIPSE
  5
83
330
7F
100
AcDbEntity
  8
중심선
100
AcDbEllipse
 10
20.54032771746488
 20
12.04717430159265
 30
0.0
 11
3.960054785062283
 21
1.540847449632565E-10
 31
0.0
210
0.0
220
0.0
230
1.0
 40
0.3939339440162632
 41
1.131841032648279
 42
5.62031148352944
  0
LINE
  5
84
330
7F
100
AcDbEntity
  8
중심선
100
AcDbLine
 10
2.268634060543552
 20
16.24717430164393
 30
0.0
 11
5.714909304380834
 21
16.24717430164393
 31
0.0
  0
LINE
  5
85
330
7F
100
AcDbEntity
  8
중심선
100
AcDbLine
 10
5.245725140726316
 20
7.84717430164391
 30
0.0
 11
8.692000384563599
 21
7.84717430164391
 31
0.0
  0
LINE
  5
86
330
7F
100
AcDbEntity
  8
중심선
100
AcDbLine
 10
15.74043728645272
 20
16.24717430164393
 30
0.0
 11
8.692000384563599
 21
7.84717430164391
 31
0.0
  0
LINE
  5
87
330
7F
100
AcDbEntity
  8
중심선
100
AcDbLine
 10
0.1404042013395286
 20
13.71084872107135
 30
0.0
 11
3.58671253028996
 21
13.71088815037384
 31
0.0
  0
LINE
  5
88
330
7F
100
AcDbEntity
  8
중심선
100
AcDbLine
 10
2.750260043222114
 20
10.84717430164391
 30
0.0
 11
6.196535287059397
 21
10.84717430164391
 31
0.0
  0
LINE
  5
89
330
7F
100
AcDbEntity
  8
중심선
100
AcDbLine
 10
12.29416204261559
 20
16.24717430164393
 30
0.0
 11
5.245725140726316
 21
7.84717430164391
 31
0.0
  0
LINE
  5
8A
330
7F
100
AcDbEntity
  8
중심선
100
AcDbLine
 10
10.72767329541681
 20
16.24717430164393
 30
0.0
 11
6.196535287059397
 21
10.84717430164391
 31
0.0
  0
LINE
  5
8B
330
7F
100
AcDbEntity
  8
중심선
100
AcDbLine
 10
7.28139805157953
 20
16.24717430164393
 30
0.0
 11
2.750260043222114
 21
10.84717430164391
 31
0.0
  0
LINE
  5
8C
330
7F
100
AcDbEntity
  8
중심선
100
AcDbLine
 10
5.714909304380834
 20
16.24717430164393
 30
0.0
 11
3.58671253028996
 21
13.71088815037384
 31
0.0
  0
LINE
  5
8D
330
7F
100
AcDbEntity
  8
중심선
100
AcDbLine
 10
2.268634060543552
 20
16.24717430164393
 30
0.0
 11
0.1404042013395286
 21
13.71084872107135
 31
0.0
  0
LINE
  5
8E
330
7F
100
AcDbEntity
  8
중심선
100
AcDbLine
 10
7.28139805157953
 20
16.24717430164393
 30
0.0
 11
10.72767329541681
 21
16.24717430164393
 31
0.0
  0
LINE
  5
8F
330
7F
100
AcDbEntity
  8
중심선
100
AcDbLine
 10
12.29416204261559
 20
16.24717430164393
 30
0.0
 11
15.74043728645272
 21
16.24717430164393
 31
0.0
  0
LINE
  5
90
330
7F
100
AcDbEntity
  8
중심선
100
AcDbLine
 10
19.22036997980202
 20
11.08717430171403
 30
0.0
 11
23.66174974927406
 21
11.08717430171406
 31
0.0
  0
LINE
  5
91
330
7F
100
AcDbEntity
  8
중심선
100
AcDbLine
 10
19.22039502424796
 20
13.00717430171391
 30
0.0
 11
19.22036997980202
 21
11.08717430171403
 31
0.0
  0
LINE
  5
92
330
7F
100
AcDbEntity
  8
중심선
100
AcDbLine
 10
19.22039502424796
 20
13.00717430171391
 30
0.0
 11
26.96566020931264
 21
13.00717430171391
 31
0.0
  0
LINE
  5
93
330
7F
100
AcDbEntity
  8
중심선
100
AcDbLine
 10
22.22332737316547
 20
13.45928029700563
 30
0.0
 11
24.52862924686651
 21
15.39360700705356
 31
0.0
  0
ATTDEF
  5
95
330
7F
100
AcDbEntity
  8
FORMAT
 62
     2
100
AcDbText
 10
4.408487351596664
 20
2.075366912832191
 30
0.0
 40
4.233333333333333
  1
E1080164
 41
0.75
  7
SLDTEXTSTYLE0
 11
4.408487351596664
 21
-0.0412997538344756
 31
0.0
100
AcDbAttributeDefinition
  3

  2
AUTOATTR0
 70
     0
 74
     1
  0
ENDBLK
  5
81
330
7F
100
AcDbEntity
  8
0
100
AcDbBlockEnd
  0
BLOCK
  5
D4
330
D3
100
AcDbEntity
  8
0
100
AcDbBlockBegin
  2
_D
 70
     0
 10
0.0
 20
0.0
 30
0.0
  3
_D
  1
_D
  0
LINE
  5
D6
330
D3
100
AcDbEntity
  8
치수문자_일반주서
 62
     0
370
    -2
100
AcDbLine
 10
-82.3125
 20
25.40000000000001
 30
0.0
 11
-95.7500000000001
 21
25.39999999999996
 31
0.0
  0
LINE
  5
D7
330
D3
100
AcDbEntity
  8
치수문자_일반주서
 62
     0
370
    -2
100
AcDbLine
 10
-82.3125
 20
-25.40000000000001
 30
0.0
 11
-95.74999999999993
 21
-25.40000000000006
 31
0.0
  0
LINE
  5
D8
330
D3
100
AcDbEntity
  8
치수문자_일반주서
 62
     0
370
    -2
100
AcDbLine
 10
-95.75000000000009
 20
22.09799999999996
 30
0.0
 11
-95.74999999999994
 21
-22.09800000000006
 31
0.0
  0
SOLID
  5
D9
330
D3
100
AcDbEntity
  8
치수문자_일반주서
 62
     0
100
AcDbTrace
 10
-95.19966666666676
 20
22.09799999999996
 30
0.0
 11
-96.30033333333341
 21
22.09799999999996
 31
0.0
 12
-95.7500000000001
 22
25.39999999999996
 32
0.0
 13
-95.7500000000001
 23
25.39999999999996
 33
0.0
  0
SOLID
  5
DA
330
D3
100
AcDbEntity
  8
치수문자_일반주서
 62
     0
100
AcDbTrace
 10
-96.30033333333327
 20
-22.09800000000006
 30
0.0
 11
-95.19966666666662
 21
-22.09800000000005
 31
0.0
 12
-95.74999999999993
 22
-25.40000000000006
 32
0.0
 13
-95.74999999999993
 23
-25.40000000000006
 33
0.0
  0
MTEXT
  5
DB
330
D3
100
AcDbEntity
  8
치수문자_일반주서
 62
     0
100
AcDbMText
 10
-100.125
 20
-0.0000000000000061
 30
0.0
 40
3.5
 41
0.0
 71
     2
 72
     1
  1
\A1;%%c50.80 [2]
  7
SLDTEXTSTYLE0
 11
-3.356894814614645E-15
 21
1.0
 31
0.0
 73
     1
 44
1.0
  0
POINT
  5
DC
330
D3
100
AcDbEntity
  8
Defpoints
 62
     0
100
AcDbPoint
 10
-82.25
 20
25.40000000000001
 30
0.0
  0
POINT
  5
DD
330
D3
100
AcDbEntity
  8
Defpoints
 62
     0
100
AcDbPoint
 10
-82.25
 20
-25.40000000000001
 30
0.0
  0
POINT
  5
DE
330
D3
100
AcDbEntity
  8
Defpoints
 62
     0
100
AcDbPoint
 10
-95.74999999999993
 20
-25.40000000000006
 30
0.0
  0
ENDBLK
  5
D5
330
D3
100
AcDbEntity
  8
0
100
AcDbBlockEnd
  0
BLOCK
  5
E6
330
E5
100
AcDbEntity
  8
0
100
AcDbBlockBegin
  2
_D_1
 70
     0
 10
0.0
 20
0.0
 30
0.0
  3
_D_1
  1
_D_1
  0
LINE
  5
E8
330
E5
100
AcDbEntity
  8
치수문자_일반주서
 62
     0
370
    -2
100
AcDbLine
 10
88.2
 20
25.44103230683295
 30
0.0
 11
88.2
 21
38.55487403765586
 31
0.0
  0
LINE
  5
E9
330
E5
100
AcDbEntity
  8
치수문자_일반주서
 62
     0
370
    -2
100
AcDbLine
 10
12.00000000000001
 20
20.14765998173591
 30
0.0
 11
12.00000000000001
 21
38.55487403765586
 31
0.0
  0
LINE
  5
EA
330
E5
100
AcDbEntity
  8
치수문자_일반주서
 62
     0
370
    -2
100
AcDbLine
 10
84.898
 20
38.55487403765586
 30
0.0
 11
15.30200000000001
 21
38.55487403765586
 31
0.0
  0
SOLID
  5
EB
330
E5
100
AcDbEntity
  8
치수문자_일반주서
 62
     0
100
AcDbTrace
 10
84.898
 20
38.00454070432253
 30
0.0
 11
84.898
 21
39.1052073709892
 31
0.0
 12
88.2
 22
38.55487403765586
 32
0.0
 13
88.2
 23
38.55487403765586
 33
0.0
  0
SOLID
  5
EC
330
E5
100
AcDbEntity
  8
치수문자_일반주서
 62
     0
100
AcDbTrace
 10
15.30200000000001
 20
39.1052073709892
 30
0.0
 11
15.30200000000001
 21
38.00454070432253
 31
0.0
 12
12.00000000000001
 22
38.55487403765586
 32
0.0
 13
12.00000000000001
 23
38.55487403765586
 33
0.0
  0
MTEXT
  5
ED
330
E5
100
AcDbEntity
  8
치수문자_일반주서
 62
     0
100
AcDbMText
 10
50.1
 20
42.92987403765586
 30
0.0
 40
3.5
 41
0.0
 71
     2
 72
     1
  1
\A1;76.20 [3]
  7
SLDTEXTSTYLE0
 73
     1
 44
1.0
  0
POINT
  5
EE
330
E5
100
AcDbEntity
  8
Defpoints
 62
     0
100
AcDbPoint
 10
88.2
 20
25.37853230683295
 30
0.0
  0
POINT
  5
EF
330
E5
100
AcDbEntity
  8
Defpoints
 62
     0
100
AcDbPoint
 10
12.00000000000001
 20
20.08515998173591
 30
0.0
  0
POINT
  5
F0
330
E5
100
AcDbEntity
  8
Defpoints
 62
     0
100
AcDbPoint
 10
12.00000000000001
 20
38.55487403765586
 30
0.0
  0
ENDBLK
  5
E7
330
E5
100
AcDbEntity
  8
0
100
AcDbBlockEnd
  0
BLOCK
  5
FB
330
FA
100
AcDbEntity
  8
0
100
AcDbBlockBegin
  2
_D_2
 70
     0
 10
0.0
 20
0.0
 30
0.0
  3
_D_2
  1
_D_2
  0
LINE
  5
FD
330
FA
100
AcDbEntity
  8
치수문자_일반주서
 62
     0
370
    -2
100
AcDbLine
 10
88.19999999999999
 20
24.16559807849026
 30
0.0
 11
88.19999999999999
 21
54.62862764387435
 31
0.0
  0
LINE
  5
FE
330
FA
100
AcDbEntity
  8
치수문자_일반주서
 62
     0
370
    -2
100
AcDbLine
 10
-83.25
 20
24.46249999999999
 30
0.0
 11
-83.25
 21
54.62862764387435
 31
0.0
  0
LINE
  5
FF
330
FA
100
AcDbEntity
  8
치수문자_일반주서
 62
     0
370
    -2
100
AcDbLine
 10
84.898
 20
54.62862764387435
 30
0.0
 11
-79.94800000000001
 21
54.62862764387435
 31
0.0
  0
SOLID
  5
100
330
FA
100
AcDbEntity
  8
치수문자_일반주서
 62
     0
100
AcDbTrace
 10
84.898
 20
54.07829431054102
 30
0.0
 11
84.898
 21
55.17896097720769
 31
0.0
 12
88.19999999999999
 22
54.62862764387435
 32
0.0
 13
88.19999999999999
 23
54.62862764387435
 33
0.0
  0
SOLID
  5
101
330
FA
100
AcDbEntity
  8
치수문자_일반주서
 62
     0
100
AcDbTrace
 10
-79.94800000000001
 20
55.17896097720769
 30
0.0
 11
-79.94800000000001
 21
54.07829431054102
 31
0.0
 12
-83.25
 22
54.62862764387435
 32
0.0
 13
-83.25
 23
54.62862764387435
 33
0.0
  0
MTEXT
  5
102
330
FA
100
AcDbEntity
  8
치수문자_일반주서
 62
     0
100
AcDbMText
 10
2.474999999999998
 20
59.00362764387435
 30
0.0
 40
3.5
 41
0.0
 71
     2
 72
     1
  1
\A1;171.45 [6 3/4]
  7
SLDTEXTSTYLE0
 73
     1
 44
1.0
  0
POINT
  5
103
330
FA
100
AcDbEntity
  8
Defpoints
 62
     0
100
AcDbPoint
 10
88.19999999999999
 20
24.10309807849026
 30
0.0
  0
POINT
  5
104
330
FA
100
AcDbEntity
  8
Defpoints
 62
     0
100
AcDbPoint
 10
-83.25
 20
24.39999999999999
 30
0.0
  0
POINT
  5
105
330
FA
100
AcDbEntity
  8
Defpoints
 62
     0
100
AcDbPoint
 10
-83.25
 20
54.62862764387435
 30
0.0
  0
ENDBLK
  5
FC
330
FA
100
AcDbEntity
  8
0
100
AcDbBlockEnd
  0
BLOCK
  5
10E
330
10D
100
AcDbEntity
  8
0
100
AcDbBlockBegin
  2
_D_3
 70
     0
 10
0.0
 20
0.0
 30
0.0
  3
_D_3
  1
_D_3
  0
SOLID
  5
110
330
10D
100
AcDbEntity
  8
치수문자_일반주서
100
AcDbTrace
 10
125.0543498720493
 20
-25.37745737810905
 30
0.0
 11
125.5623498720493
 21
-22.07545737810905
 31
0.0
 12
124.5463498720493
 22
-22.07545737810905
 32
0.0
 13
124.5463498720493
 23
-22.07545737810905
 33
0.0
  0
SOLID
  5
111
330
10D
100
AcDbEntity
  8
치수문자_일반주서
100
AcDbTrace
 10
125.0543498720493
 20
25.37960723555685
 30
0.0
 11
124.5463498720493
 21
22.07760723555685
 31
0.0
 12
125.5623498720493
 22
22.07760723555685
 32
0.0
 13
125.5623498720493
 23
22.07760723555685
 33
0.0
  0
LINE
  5
112
330
10D
100
AcDbEntity
  8
치수문자_일반주서
100
AcDbLine
 10
114.2614681560065
 20
230.7867084976552
 30
0.0
 11
114.2614681560065
 21
230.0757710120907
 31
0.0
  0
LINE
  5
113
330
10D
100
AcDbEntity
  8
치수문자_일반주서
100
AcDbLine
 10
114.2614681560065
 20
230.0757710120907
 30
0.0
 11
119.8177181470658
 21
230.0757710120907
 31
0.0
  0
LINE
  5
114
330
10D
100
AcDbEntity
  8
치수문자_일반주서
100
AcDbLine
 10
119.8177181470658
 20
230.0757710120907
 30
0.0
 11
119.8177181470658
 21
230.7867084976552
 31
0.0
  0
LINE
  5
115
330
10D
100
AcDbEntity
  8
치수문자_일반주서
100
AcDbLine
 10
114.2614681560065
 20
241.6154413597925
 30
0.0
 11
114.2614681560065
 21
242.326378845357
 31
0.0
  0
LINE
  5
116
330
10D
100
AcDbEntity
  8
치수문자_일반주서
100
AcDbLine
 10
114.2614681560065
 20
242.326378845357
 30
0.0
 11
119.8177181470658
 21
242.326378845357
 31
0.0
  0
LINE
  5
117
330
10D
100
AcDbEntity
  8
치수문자_일반주서
100
AcDbLine
 10
119.8177181470658
 20
242.326378845357
 30
0.0
 11
119.8177181470658
 21
241.6154413597925
 31
0.0
  0
LINE
  5
118
330
10D
100
AcDbEntity
  8
치수문자_일반주서
100
AcDbLine
 10
92.04926131403117
 20
-25.37745737810906
 30
0.0
 11
126.0543498720493
 21
-25.37745737810905
 31
0.0
  0
LINE
  5
119
330
10D
100
AcDbEntity
  8
치수문자_일반주서
100
AcDbLine
 10
92.04926131403117
 20
25.37960723555684
 30
0.0
 11
126.0543498720493
 21
25.37960723555685
 31
0.0
  0
LINE
  5
11A
330
10D
100
AcDbEntity
  8
치수문자_일반주서
100
AcDbLine
 10
125.0543498720493
 20
-25.37745737810905
 30
0.0
 11
125.0543498720493
 21
25.37960723555685
 31
0.0
  0
LINE
  5
11B
330
10D
100
AcDbEntity
  8
치수문자_일반주서
100
AcDbLine
 10
125.0543498720493
 20
25.37960723555685
 30
0.0
 11
125.0543498720493
 21
244.6590438715449
 31
0.0
  0
MTEXT
  5
11C
330
10D
100
AcDbEntity
  8
치수문자_일반주서
100
AcDbMText
 10
115.3059812324869
 20
231.6753803982666
 30
0.0
 40
3.5
 41
0.0
 71
     1
 72
     1
  1
2.00
  7
SLDTEXTSTYLE0
 11
6.123233995736766E-17
 21
1.0
 31
0.0
 73
     1
 44
1.0
  0
MTEXT
  5
11D
330
10D
100
AcDbEntity
  8
치수문자_일반주서
100
AcDbMText
 10
120.5426127828474
 20
227.7431059859028
 30
0.0
 40
3.5
 41
0.0
 71
     1
 72
     1
  1
%%c
  7
SLDTEXTSTYLE0
 11
6.123233995736766E-17
 21
1.0
 31
0.0
 73
     1
 44
1.0
  0
MTEXT
  5
11E
330
10D
100
AcDbEntity
  8
치수문자_일반주서
100
AcDbMText
 10
120.5426127828474
 20
233.0215433842769
 30
0.0
 40
3.5
 41
0.0
 71
     1
 72
     1
  1
50.76
  7
SLDTEXTSTYLE0
 11
6.123233995736766E-17
 21
1.0
 31
0.0
 73
     1
 44
1.0
  0
ENDBLK
  5
10F
330
10D
100
AcDbEntity
  8
0
100
AcDbBlockEnd
  0
BLOCK
  5
127
330
126
100
AcDbEntity
  8
0
100
AcDbBlockBegin
  2
SW_DOWELSYMBOL_0
 70
     0
 10
0.0
 20
0.0
 30
0.0
  3
SW_DOWELSYMBOL_0
  1
SW_DOWELSYMBOL_0
  0
CIRCLE
  5
129
330
126
100
AcDbEntity
  8
해칭선
 62
     0
100
AcDbCircle
 10
0.0
 20
0.0
 30
0.0
 40
2.999999999999996
  0
HATCH
  5
12A
330
126
100
AcDbEntity
  8
0
  6
Continuous
 62
     0
370
     0
100
AcDbHatch
 10
0.0
 20
0.0
 30
0.0
210
0.0
220
0.0
230
1.0
  2
SOLID
 70
     1
 71
     0
 91
        1
 92
        0
 93
        3
 72
     2
 10
0.0
 20
0.0
 40
2.999999999999996
 50
0.0
 51
90.0
 73
     1
 72
     1
 10
0.0
 20
2.999999999999996
 11
0.0
 21
0.0
 72
     1
 10
0.0
 20
0.0
 11
2.999999999999996
 21
0.0
 97
        0
 75
     0
 76
     1
 98
        1
 10
0.0
 20
0.0
  0
HATCH
  5
12B
330
126
100
AcDbEntity
  8
0
  6
Continuous
 62
     0
370
     0
100
AcDbHatch
 10
0.0
 20
0.0
 30
0.0
210
0.0
220
0.0
230
1.0
  2
SOLID
 70
     1
 71
     0
 91
        1
 92
        0
 93
        3
 72
     2
 10
0.0
 20
0.0
 40
2.999999999999996
 50
180.0
 51
270.0000000000008
 73
     1
 72
     1
 10
0.0
 20
-2.999999999999996
 11
0.0
 21
0.0
 72
     1
 10
0.0
 20
0.0
 11
-2.999999999999996
 21
0.0
 97
        0
 75
     0
 76
     1
 98
        1
 10
0.0
 20
0.0
  0
ENDBLK
  5
128
330
126
100
AcDbEntity
  8
0
100
AcDbBlockEnd
  0
BLOCK
  5
157
330
156
100
AcDbEntity
  8
0
100
AcDbBlockBegin
  2
*D7
 70
     1
 10
0.0
 20
0.0
 30
0.0
  3
*D7
  1
*D7
  0
LINE
  5
159
330
156
100
AcDbEntity
  8
치수문자_일반주서
 62
     0
370
    -2
100
AcDbLine
 10
88.26249999999999
 20
25.39999999999999
 30
0.0
 11
104.6764617075472
 21
25.39999999999999
 31
0.0
  0
LINE
  5
15A
330
156
100
AcDbEntity
  8
치수문자_일반주서
 62
     0
370
    -2
100
AcDbLine
 10
88.26249999999999
 20
-25.40000000000001
 30
0.0
 11
104.6764617075472
 21
-25.40000000000001
 31
0.0
  0
LINE
  5
15B
330
156
100
AcDbEntity
  8
치수문자_일반주서
 62
     0
370
    -2
100
AcDbLine
 10
104.6764617075472
 20
22.09799999999999
 30
0.0
 11
104.6764617075472
 21
-22.09800000000001
 31
0.0
  0
SOLID
  5
15C
330
156
100
AcDbEntity
  8
치수문자_일반주서
 62
     0
100
AcDbTrace
 10
105.2267950408805
 20
22.09799999999999
 30
0.0
 11
104.1261283742139
 21
22.09799999999999
 31
0.0
 12
104.6764617075472
 22
25.39999999999999
 32
0.0
 13
104.6764617075472
 23
25.39999999999999
 33
0.0
  0
SOLID
  5
15D
330
156
100
AcDbEntity
  8
치수문자_일반주서
 62
     0
100
AcDbTrace
 10
104.1261283742139
 20
-22.09800000000001
 30
0.0
 11
105.2267950408805
 21
-22.09800000000001
 31
0.0
 12
104.6764617075472
 22
-25.40000000000001
 32
0.0
 13
104.6764617075472
 23
-25.40000000000001
 33
0.0
  0
MTEXT
  5
15E
330
156
100
AcDbEntity
  8
치수문자_일반주서
 62
     0
100
AcDbMText
 10
102.0514617075472
 20
-0.0000000000000071
 30
0.0
 40
3.5
 41
0.0
 71
     5
 72
     1
  1
\A1;{%%C50.80 [2]}
  7
SLDTEXTSTYLE0
 11
0.0
 21
1.0
 31
0.0
 73
     1
 44
1.0
  0
POINT
  5
15F
330
156
100
AcDbEntity
  8
Defpoints
 62
     0
100
AcDbPoint
 10
88.19999999999999
 20
25.39999999999999
 30
0.0
  0
POINT
  5
160
330
156
100
AcDbEntity
  8
Defpoints
 62
     0
100
AcDbPoint
 10
88.19999999999999
 20
-25.40000000000001
 30
0.0
  0
POINT
  5
161
330
156
100
AcDbEntity
  8
Defpoints
 62
     0
100
AcDbPoint
 10
104.6764617075472
 20
-25.40000000000001
 30
0.0
  0
ENDBLK
  5
158
330
156
100
AcDbEntity
  8
0
100
AcDbBlockEnd
  0
BLOCK
  5
173
330
172
100
AcDbEntity
  8
0
100
AcDbBlockBegin
  2
*D8
 70
     1
 10
0.0
 20
0.0
 30
0.0
  3
*D8
  1
*D8
  0
LINE
  5
175
330
172
100
AcDbEntity
  8
0
 62
     0
370
    -2
100
AcDbLine
 10
-81.28799926233938
 20
-113.0830096174164
 30
0.0
 11
-81.28799926233938
 21
-87.13291901820257
 31
0.0
  0
LINE
  5
176
330
172
100
AcDbEntity
  8
0
 62
     0
370
    -2
100
AcDbLine
 10
-51.638201626605
 20
-113.0830096174164
 30
0.0
 11
-51.638201626605
 21
-87.13291901820257
 31
0.0
  0
LINE
  5
177
330
172
100
AcDbEntity
  8
0
 62
     0
370
    -2
100
AcDbLine
 10
-77.98599926233939
 20
-88.13291901820257
 30
0.0
 11
-54.940201626605
 21
-88.13291901820257
 31
0.0
  0
SOLID
  5
178
330
172
100
AcDbEntity
  8
0
 62
     0
100
AcDbTrace
 10
-77.98599926233939
 20
-87.58258568486924
 30
0.0
 11
-77.98599926233939
 21
-88.6832523515359
 31
0.0
 12
-81.28799926233938
 22
-88.13291901820257
 32
0.0
 13
-81.28799926233938
 23
-88.13291901820257
 33
0.0
  0
SOLID
  5
179
330
172
100
AcDbEntity
  8
0
 62
     0
100
AcDbTrace
 10
-54.940201626605
 20
-88.6832523515359
 30
0.0
 11
-54.940201626605
 21
-87.58258568486924
 31
0.0
 12
-51.638201626605
 22
-88.13291901820257
 32
0.0
 13
-51.638201626605
 23
-88.13291901820257
 33
0.0
  0
MTEXT
  5
17A
330
172
100
AcDbEntity
  8
0
 62
     0
100
AcDbMText
 10
-66.46310044447219
 20
-84.5672523515359
 30
0.0
 40
3.5
 41
0.0
 71
     5
 72
     1
  1
29,65
 73
     1
 44
1.0
  0
POINT
  5
17B
330
172
100
AcDbEntity
  8
Defpoints
 62
     0
100
AcDbPoint
 10
-81.28799926233938
 20
-114.0830096174164
 30
0.0
  0
POINT
  5
17C
330
172
100
AcDbEntity
  8
Defpoints
 62
     0
100
AcDbPoint
 10
-51.638201626605
 20
-114.0830096174164
 30
0.0
  0
POINT
  5
17D
330
172
100
AcDbEntity
  8
Defpoints
 62
     0
100
AcDbPoint
 10
-51.638201626605
 20
-88.13291901820257
 30
0.0
  0
ENDBLK
  5
174
330
172
100
AcDbEntity
  8
0
100
AcDbBlockEnd
  0
ENDSEC
  0
SECTION
  2
ENTITIES
  0
LINE
  5
96
330
1F
100
AcDbEntity
  8
외형선
  6
Continuous
370
    15
100
AcDbLine
 10
8.949890311373697
 20
25.4
 30
0.0
 11
-28.18279999999999
 21
25.4
 31
0.0
  0
LINE
  5
97
330
1F
100
AcDbEntity
  8
외형선
  6
Continuous
370
    15
100
AcDbLine
 10
-82.25
 20
-25.40000000000001
 30
0.0
 11
-73.72500000000001
 21
-25.40000000000001
 31
0.0
  0
LINE
  5
99
330
1F
100
AcDbEntity
  8
외형선
  6
Continuous
370
    15
100
AcDbLine
 10
-83.25
 20
-24.40000000000001
 30
0.0
 11
-82.25
 21
-25.40000000000001
 31
0.0
  0
SPLINE
  5
9A
330
1F
100
AcDbEntity
  8
외형선
  6
Continuous
370
    15
100
AcDbSpline
210
0.0
220
0.0
230
1.0
 70
     8
 71
     3
 72
     9
 73
     5
 74
     0
 42
0.000000001
 43
0.00000001
 40
0.0
 40
0.0
 40
0.0
 40
0.0
 40
0.5152236124635717
 40
1.0
 40
1.0
 40
1.0
 40
1.0
 10
12.00000000000001
 20
19.99624483315351
 30
0.0
 10
11.56416492733652
 20
19.98845277428485
 30
0.0
 10
10.7182505279954
 20
19.97332912956018
 30
0.0
 10
9.87205302965068
 20
19.95790499763796
 30
0.0
 10
9.46183646326076
 20
19.95042774268383
 30
0.0
  0
LINE
  5
9B
330
1F
100
AcDbEntity
  8
외형선
  6
Continuous
370
    15
100
AcDbLine
 10
8.986705169546422
 20
20.35536425779394
 30
0.0
 11
8.984247231691882
 21
20.35284114345055
 31
0.0
  0
SPLINE
  5
9C
330
1F
100
AcDbEntity
  8
외형선
  6
Continuous
370
    15
100
AcDbSpline
210
0.0
220
0.0
230
1.0
 70
     8
 71
     3
 72
    19
 73
    15
 74
     0
 42
0.000000001
 43
0.00000001
 40
0.0
 40
0.0
 40
0.0
 40
0.0
 40
0.0192344959368263
 40
0.035719927918148
 40
0.042666757461166
 40
0.0459945314911328
 40
0.0493865199656314
 40
0.053011012854758
 40
0.0570430146287653
 40
0.0669309656240624
 40
0.0973129762910739
 40
0.3081337758704731
 40
0.8271963638487798
 40
1.0
 40
1.0
 40
1.0
 40
1.0
 10
9.467356791992003
 20
19.9835389263473
 30
0.0
 10
9.465216499856684
 20
19.98380504780952
 30
0.0
 10
9.461241813904497
 20
19.98429925568892
 30
0.0
 10
9.45034542032215
 20
19.98966714905687
 30
0.0
 10
9.437973512838571
 20
19.99749163156745
 30
0.0
 10
9.430238410515642
 20
20.00276303093078
 30
0.0
 10
9.423933817886237
 20
20.00722331516666
 30
0.0
 10
9.4170718386486
 20
20.01223988249337
 30
0.0
 10
9.406482710362102
 20
20.02020658838564
 30
0.0
 10
9.382211881124718
 20
20.03924094455935
 30
0.0
 10
9.279055839530656
 20
20.12613733563808
 30
0.0
 10
9.121523977596066
 20
20.27505719287687
 30
0.0
 10
8.99976547321803
 20
20.38960855618301
 30
0.0
 10
8.98931526163748
 20
20.36220795566165
 30
0.0
 10
8.986705169546422
 20
20.35536425779394
 30
0.0
  0
SPLINE
  5
9D
330
1F
100
AcDbEntity
  8
외형선
  6
Continuous
370
    15
100
AcDbSpline
210
0.0
220
0.0
230
1.0
 70
     8
 71
     3
 72
     9
 73
     5
 74
     0
 42
0.000000001
 43
0.00000001
 40
0.0
 40
0.0
 40
0.0
 40
0.0
 40
0.6877633352363748
 40
1.0
 40
1.0
 40
1.0
 40
1.0
 10
8.931484679269357
 20
-19.94032939191145
 30
0.0
 10
9.442952324767116
 20
-19.94971399762144
 30
0.0
 10
10.18662041420077
 20
-19.96335910667158
 30
0.0
 10
10.93000031825603
 20
-19.9768323222209
 30
0.0
 10
11.16211078015056
 20
-19.98103915410767
 30
0.0
  0
LINE
  5
9E
330
1F
100
AcDbEntity
  8
외형선
  6
Continuous
370
    15
100
AcDbLine
 10
15.42791121424067
 20
9.991300659298407
 30
0.0
 11
15.34829423645847
 21
10.03302493106709
 31
0.0
  0
SPLINE
  5
9F
330
1F
100
AcDbEntity
  8
외형선
  6
Continuous
 62
     1
370
    15
100
AcDbSpline
210
0.0
220
0.0
230
1.0
 70
     8
 71
     3
 72
    15
 73
    11
 74
     0
 42
0.000000001
 43
0.00000001
 40
0.0
 40
0.0
 40
0.0
 40
0.0
 40
0.1543346644865011
 40
0.2650474649683883
 40
0.3408717728192535
 40
0.4201221159522249
 40
0.508318688972737
 40
0.6306597685756667
 40
0.7983747623359062
 40
1.0
 40
1.0
 40
1.0
 40
1.0
 10
22.39445716975408
 20
6.508764026760291
 30
0.0
 10
22.04020909336926
 20
6.675424127303407
 30
0.0
 10
21.43183925676695
 20
6.961638746082022
 30
0.0
 10
20.6436943748898
 20
7.341514010431408
 30
0.0
 10
20.01749184247702
 20
7.64700144971152
 30
0.0
 10
19.44890021002778
 20
7.927424379027292
 30
0.0
 10
18.77545330695049
 20
8.263409223200545
 30
0.0
 10
17.89692372943009
 20
8.707170827338196
 30
0.0
 10
16.75449735923038
 20
9.292677943953056
 30
0.0
 10
15.89636904793852
 20
9.74459577319745
 30
0.0
 10
15.42791121424067
 20
9.991300659298407
 30
0.0
  0
SPLINE
  5
A0
330
1F
100
AcDbEntity
  8
외형선
  6
Continuous
 62
     1
370
    15
100
AcDbSpline
210
0.0
220
0.0
230
1.0
 70
     8
 71
     3
 72
     9
 73
     5
 74
     0
 42
0.000000001
 43
0.00000001
 40
0.0
 40
0.0
 40
0.0
 40
0.0
 40
0.498915372407126
 40
1.0
 40
1.0
 40
1.0
 40
1.0
 10
13.99747267748254
 20
20.18382425028625
 30
0.0
 10
13.66444775568431
 20
20.1659525015816
 30
0.0
 10
12.99694993898751
 20
20.13013129884252
 30
0.0
 10
12.33279688548099
 20
20.09331572435789
 30
0.0
 10
12.00000000000001
 20
20.07486800592764
 30
0.0
  0
SPLINE
  5
A1
330
1F
100
AcDbEntity
  8
외형선
  6
Continuous
 62
     1
370
    15
100
AcDbSpline
210
0.0
220
0.0
230
1.0
 70
     8
 71
     3
 72
    39
 73
    35
 74
     0
 42
0.000000001
 43
0.00000001
 40
0.0
 40
0.0
 40
0.0
 40
0.0
 40
0.0431838498111649
 40
0.0801940784703795
 40
0.1110771057069766
 40
0.135757952728388
 40
0.157905315346972
 40
0.1747367877206316
 40
0.1906533954229264
 40
0.2056896169491677
 40
0.2204795357818538
 40
0.235335636144134
 40
0.250253120848474
 40
0.2903117299995805
 40
0.327865273351709
 40
0.3748965161197906
 40
0.4309009251661754
 40
0.4918034038891535
 40
0.5485270008061125
 40
0.6048766562727488
 40
0.6620065107820445
 40
0.7140110458253144
 40
0.7331465848307014
 40
0.7519573795118965
 40
0.7707779170031911
 40
0.7895998518825305
 40
0.8093279877808407
 40
0.8234851568889217
 40
0.839535276749152
 40
0.8573296667534372
 40
0.8779131007023092
 40
0.9110792523239497
 40
0.9516529886907225
 40
1.0
 40
1.0
 40
1.0
 40
1.0
 10
78.76111584508025
 20
17.3723950289622
 30
0.0
 10
78.11548402133357
 20
17.31879224284801
 30
0.0
 10
76.9165207662528
 20
17.21924979689496
 30
0.0
 10
75.25865892234037
 20
17.10270239135247
 30
0.0
 10
73.87764000731362
 20
17.01659300547247
 30
0.0
 10
72.71905068152326
 20
16.95264613381126
 30
0.0
 10
71.76995254673164
 20
16.90583616300867
 30
0.0
 10
70.95128427598455
 20
16.86949423470015
 30
0.0
 10
70.23903564516776
 20
16.84086444335702
 30
0.0
 10
69.55732482771745
 20
16.8161991388384
 30
0.0
 10
68.8912694280296
 20
16.7946606517635
 30
0.0
 10
68.22679698827318
 20
16.77571455609224
 30
0.0
 10
67.18499854333989
 20
16.75000011727839
 30
0.0
 10
65.80620008250382
 20
16.72582523707325
 30
0.0
 10
63.97671742613417
 20
16.71173056200969
 30
0.0
 10
61.90432759250182
 20
16.71755543674064
 30
0.0
 10
59.43981094660054
 20
16.75868123993403
 30
0.0
 10
56.82012206349247
 20
16.84259729812845
 30
0.0
 10
54.25483160168265
 20
16.96250744569843
 30
0.0
 10
51.72480495133928
 20
17.11686262799405
 30
0.0
 10
49.21546918020649
 20
17.30638011267999
 30
0.0
 10
47.29106340565172
 20
17.47775763164007
 30
0.0
 10
45.95546871715669
 20
17.60804008873765
 30
0.0
 10
45.1138741236597
 20
17.69384632968081
 30
0.0
 10
44.27212538162171
 20
17.78343383013182
 30
0.0
 10
43.42613927020378
 20
17.87707706870858
 30
0.0
 10
42.61020681066453
 20
17.97147172618971
 30
0.0
 10
41.85780417445645
 20
18.05907259788066
 30
0.0
 10
41.18484594788323
 20
18.13118910583699
 30
0.0
 10
40.34682076091572
 20
18.22525939602894
 30
0.0
 10
39.25394383241348
 20
18.36302427935064
 30
0.0
 10
37.87473290095323
 20
18.5584425134871
 30
0.0
 10
36.18871128934296
 20
18.81945203590973
 30
0.0
 10
35.02377477518556
 20
19.00391843366668
 30
0.0
 10
34.39038830131396
 20
19.10421447538494
 30
0.0
  0
SPLINE
  5
A2
330
1F
100
AcDbEntity
  8
외형선
  6
Continuous
 62
     1
370
    15
100
AcDbSpline
210
0.0
220
0.0
230
1.0
 70
     8
 71
     3
 72
    26
 73
    22
 74
     0
 42
0.000000001
 43
0.00000001
 40
0.0
 40
0.0
 40
0.0
 40
0.0
 40
0.0737856439997487
 40
0.1380984322158624
 40
0.1934621017440737
 40
0.2297218825971843
 40
0.262234725321239
 40
0.2920714504534666
 40
0.3206518776454851
 40
0.3721264695342269
 40
0.414131044298617
 40
0.4508541916802313
 40
0.4954812261872413
 40
0.5568255280980093
 40
0.6324830121345534
 40
0.7088919475931671
 40
0.7846629579718752
 40
0.8592873004916407
 40
0.9273530234018499
 40
0.9892771497661665
 40
1.0
 40
1.0
 40
1.0
 40
1.0
 10
34.39038830131396
 20
-19.10421447538494
 30
0.0
 10
34.79199759687325
 20
-19.04024258901674
 30
0.0
 10
35.54365619973431
 20
-18.92051174796897
 30
0.0
 10
36.66416468714911
 20
-18.73977343932141
 30
0.0
 10
37.62246665956742
 20
-18.59271622288259
 30
0.0
 10
38.42700751413869
 20
-18.47835848895927
 30
0.0
 10
39.08556886380652
 20
-18.39210795937666
 30
0.0
 10
39.69819214808643
 20
-18.31824576361717
 30
0.0
 10
40.3830971980646
 20
-18.24183623769357
 30
0.0
 10
41.1208739472655
 20
-18.15313842389269
 30
0.0
 10
42.00869708160992
 20
-18.0412438370338
 30
0.0
 10
42.8079397577311
 20
-17.94738501948133
 30
0.0
 10
43.67985010973838
 20
-17.84855069945516
 30
0.0
 10
44.86381818639264
 20
-17.71899461981754
 30
0.0
 10
46.25694911764077
 20
-17.57699479700824
 30
0.0
 10
47.71429859634414
 20
-17.43946457025552
 30
0.0
 10
49.12820133333299
 20
-17.31606847090441
 30
0.0
 10
50.43291121545256
 20
-17.2060388002047
 30
0.0
 10
51.73751453202412
 20
-17.10914489949555
 30
0.0
 10
52.6724423924543
 20
-17.04878705087909
 30
0.0
 10
53.16149703392579
 20
-17.02336768424659
 30
0.0
 10
53.2336825524735
 20
-17.0196157309761
 30
0.0
  0
SPLINE
  5
A3
330
1F
100
AcDbEntity
  8
외형선
  6
Continuous
370
    15
100
AcDbSpline
210
0.0
220
0.0
230
1.0
 70
     8
 71
     3
 72
     9
 73
     5
 74
     0
 42
0.000000001
 43
0.00000001
 40
0.0
 40
0.0
 40
0.0
 40
0.0
 40
0.5010846275928738
 40
1.0
 40
1.0
 40
1.0
 40
1.0
 10
11.99999999999999
 20
-20.07486800592764
 30
0.0
 10
12.33279688548098
 20
-20.09331572435789
 30
0.0
 10
12.99694993898751
 20
-20.13013129884254
 30
0.0
 10
13.66444775568432
 20
-20.16595250158161
 30
0.0
 10
13.99747267748255
 20
-20.18382425028625
 30
0.0
  0
SPLINE
  5
A4
330
1F
100
AcDbEntity
  8
외형선
  6
Continuous
370
    15
100
AcDbSpline
210
0.0
220
0.0
230
1.0
 70
     8
 71
     3
 72
     8
 73
     4
 74
     0
 42
0.000000001
 43
0.00000001
 40
0.0
 40
0.0
 40
0.0
 40
0.0
 40
1.0
 40
1.0
 40
1.0
 40
1.0
 10
11.99999999999999
 20
11.77889407313267
 30
0.0
 10
10.98389137833912
 20
12.29859960367819
 30
0.0
 10
9.965929368202794
 20
12.80918597683695
 30
0.0
 10
8.949775451332346
 20
13.3088162301116
 30
0.0
  0
LINE
  5
A5
330
1F
100
AcDbEntity
  8
외형선
  6
Continuous
370
    15
100
AcDbLine
 10
11.99999999999999
 20
11.77889407313267
 30
0.0
 11
12.0
 21
5.105666004805708
 31
0.0
  0
SPLINE
  5
A6
330
1F
100
AcDbEntity
  8
외형선
  6
Continuous
370
    15
100
AcDbSpline
210
0.0
220
0.0
230
1.0
 70
     8
 71
     3
 72
     8
 73
     4
 74
     0
 42
0.000000001
 43
0.00000001
 40
0.0
 40
0.0
 40
0.0
 40
0.0
 40
1.0
 40
1.0
 40
1.0
 40
1.0
 10
8.949890311373704
 20
6.816185650340191
 30
0.0
 10
9.966006077754944
 20
6.251121810890826
 30
0.0
 10
10.98392966331038
 20
5.680264141583406
 30
0.0
 10
11.99999999999999
 20
5.105666004805709
 30
0.0
  0
LINE
  5
A7
330
1F
100
AcDbEntity
  8
외형선
  6
Continuous
370
    15
100
AcDbLine
 10
8.949890311373697
 20
13.30882991792722
 30
0.0
 11
8.949890311373697
 21
25.4
 31
0.0
  0
LINE
  5
A8
330
1F
100
AcDbEntity
  8
외형선
  6
Continuous
370
    15
100
AcDbLine
 10
-82.25
 20
19.8628
 30
0.0
 11
-82.25
 21
-25.40000000000001
 31
0.0
  0
LINE
  5
A9
330
1F
100
AcDbEntity
  8
외형선
  6
Continuous
370
    15
100
AcDbLine
 10
8.949890311373697
 20
-25.4
 30
0.0
 11
8.949890311373704
 21
6.816198595398511
 31
0.0
  0
LINE
  5
AA
330
1F
100
AcDbEntity
  8
외형선
  6
Continuous
370
    15
100
AcDbLine
 10
-83.25
 20
19.8628
 30
0.0
 11
-83.25
 21
-24.40000000000001
 31
0.0
  0
SPLINE
  5
AB
330
1F
100
AcDbEntity
  8
외형선
  6
Continuous
370
    15
100
AcDbSpline
210
0.0
220
0.0
230
1.0
 70
    24
 71
     3
 72
    11
 73
     7
 74
     0
 42
0.000000001
 43
0.00000001
 40
0.0
 40
0.0
 40
0.0
 40
0.0
 40
0.3050463963038089
 40
0.6425061514721913
 40
0.820519283226851
 40
1.0
 40
1.0
 40
1.0
 40
1.0
 10
11.99999999999999
 20
4.976642896501444
 30
0.0
 10
11.99999999999999
 20
4.86464221289647
 30
0.0
 10
11.99999999999999
 20
4.628739972918465
 30
0.0
 10
11.99999999999999
 20
4.035183757225791
 30
0.0
 10
11.99999999999999
 20
3.419363843599222
 30
0.0
 10
11.99999999999999
 20
3.043641186587702
 30
0.0
 10
11.99999999999999
 20
2.855008649087986
 30
0.0
  0
SPLINE
  5
AC
330
1F
100
AcDbEntity
  8
외형선
  6
Continuous
370
    15
100
AcDbSpline
210
0.0
220
0.0
230
1.0
 70
     8
 71
     3
 72
     8
 73
     4
 74
     0
 42
0.000000001
 43
0.00000001
 40
0.0
 40
0.0
 40
0.0
 40
0.0
 40
1.0
 40
1.0
 40
1.0
 40
1.0
 10
11.99999999999999
 20
2.855008649087983
 30
0.0
 10
10.98392043847822
 20
3.260283701588178
 30
0.0
 10
9.96598759445191
 20
3.663518064897677
 30
0.0
 10
8.949862635640326
 20
4.063261314594127
 30
0.0
  0
LINE
  5
AD
330
1F
100
AcDbEntity
  8
외형선
  6
Continuous
370
    15
100
AcDbLine
 10
12.00000000000001
 20
20.0563231615534
 30
0.0
 11
11.13181666367758
 21
19.98067098472881
 31
0.0
  0
SPLINE
  5
AE
330
1F
100
AcDbEntity
  8
외형선
  6
Continuous
370
    15
100
AcDbSpline
210
0.0
220
0.0
230
1.0
 70
    24
 71
     3
 72
    16
 73
    12
 74
     0
 42
0.000000001
 43
0.00000001
 40
0.0
 40
0.0
 40
0.0
 40
0.0
 40
0.1438539693656617
 40
0.2618336867576141
 40
0.3798134041495664
 40
0.5012206875923028
 40
0.6226279710350391
 40
0.7293627339160713
 40
0.8360974967971035
 40
0.9453464256962233
 40
1.0
 40
1.0
 40
1.0
 40
1.0
 10
12.00000000000001
 20
19.97847520597042
 30
0.0
 10
12.00000000000001
 20
19.88370932423076
 30
0.0
 10
12.00000000000001
 20
19.71122259825341
 30
0.0
 10
12.00000000000001
 20
19.14221454032094
 30
0.0
 10
12.00000000000001
 20
18.44020359434102
 30
0.0
 10
12.00000000000001
 20
17.53710059966388
 30
0.0
 10
12.00000000000002
 20
16.48578484131185
 30
0.0
 10
12.0
 20
15.32575374454503
 30
0.0
 10
11.99999999999998
 20
14.07046555151395
 30
0.0
 10
11.99999999999999
 20
12.93015762724934
 30
0.0
 10
11.99999999999999
 20
12.1619502754449
 30
0.0
 10
11.99999999999999
 20
11.90579020002142
 30
0.0
  0
SPLINE
  5
AF
330
1F
100
AcDbEntity
  8
외형선
  6
Continuous
370
    15
100
AcDbSpline
210
0.0
220
0.0
230
1.0
 70
     8
 71
     3
 72
     8
 73
     4
 74
     0
 42
0.000000001
 43
0.00000001
 40
0.0
 40
0.0
 40
0.0
 40
0.0
 40
1.0
 40
1.0
 40
1.0
 40
1.0
 10
8.97158731653964
 20
20.32797321453011
 30
0.0
 10
8.953691829619252
 20
20.3459118240906
 30
0.0
 10
8.949890311373697
 20
20.3483758244066
 30
0.0
 10
8.949890311373697
 20
20.34697198592244
 30
0.0
  0
SPLINE
  5
B0
330
1F
100
AcDbEntity
  8
외형선
  6
Continuous
370
    15
100
AcDbSpline
210
0.0
220
0.0
230
1.0
 70
     8
 71
     3
 72
     8
 73
     4
 74
     0
 42
0.000000001
 43
0.00000001
 40
0.0
 40
0.0
 40
0.0
 40
0.0
 40
1.0
 40
1.0
 40
1.0
 40
1.0
 10
12.00000000000001
 20
-20.0563231615534
 30
0.0
 10
10.98391568167766
 20
-19.98097166063218
 30
0.0
 10
9.965978063504803
 20
-19.88951061473625
 30
0.0
 10
8.949848364601145
 20
-19.78226827101398
 30
0.0
  0
SPLINE
  5
B1
330
1F
100
AcDbEntity
  8
외형선
  6
Continuous
370
    15
100
AcDbSpline
210
0.0
220
0.0
230
1.0
 70
    24
 71
     3
 72
    14
 73
    10
 74
     0
 42
0.000000001
 43
0.00000001
 40
0.0
 40
0.0
 40
0.0
 40
0.0
 40
0.25
 40
0.25
 40
0.5
 40
0.5
 40
0.75
 40
0.75
 40
1.0
 40
1.0
 40
1.0
 40
1.0
 10
11.99999999999999
 20
2.855008649087983
 30
0.0
 10
11.99999999999999
 20
0.6081522133225995
 30
0.0
 10
11.99999999999999
 20
-1.69617165438849
 30
0.0
 10
11.99999999999999
 20
-6.203919857245978
 30
0.0
 10
11.99999999999999
 20
-8.404956596806233
 30
0.0
 10
11.99999999999999
 20
-12.47696081868685
 30
0.0
 10
11.99999999999999
 20
-14.34575856691455
 30
0.0
 10
11.99999999999999
 20
-17.58756886422998
 30
0.0
 10
11.99999999999999
 20
-18.95997189582675
 30
0.0
 10
11.99999999999999
 20
-20.0563231615534
 30
0.0
  0
SPLINE
  5
B2
330
1F
100
AcDbEntity
  8
외형선
  6
Continuous
 62
     1
370
    15
100
AcDbSpline
210
0.0
220
0.0
230
1.0
 70
     8
 71
     3
 72
    56
 73
    52
 74
     0
 42
0.000000001
 43
0.00000001
 40
0.0
 40
0.0
 40
0.0
 40
0.0
 40
0.0624999999999999
 40
0.0624999999999999
 40
0.0937499999999997
 40
0.0937499999999997
 40
0.1249999999999994
 40
0.1249999999999994
 40
0.1874999999999993
 40
0.1874999999999993
 40
0.2187499999999992
 40
0.2187499999999992
 40
0.2499999999999991
 40
0.2499999999999991
 40
0.2812499999999991
 40
0.2812499999999991
 40
0.312499999999999
 40
0.312499999999999
 40
0.3749999999999989
 40
0.3749999999999989
 40
0.4374999999999988
 40
0.4374999999999988
 40
0.4687499999999988
 40
0.4687499999999988
 40
0.4999999999999988
 40
0.4999999999999988
 40
0.5624999999999989
 40
0.5624999999999989
 40
0.593749999999999
 40
0.593749999999999
 40
0.6249999999999991
 40
0.6249999999999991
 40
0.6562499999999991
 40
0.6562499999999991
 40
0.6874999999999992
 40
0.6874999999999992
 40
0.7499999999999993
 40
0.7499999999999993
 40
0.7812499999999994
 40
0.7812499999999994
 40
0.8124999999999996
 40
0.8124999999999996
 40
0.8437499999999997
 40
0.8437499999999997
 40
0.8749999999999997
 40
0.8749999999999997
 40
0.9374999999999999
 40
0.9374999999999999
 40
0.9687499999999999
 40
0.9687499999999999
 40
1.0
 40
1.0
 40
1.0
 40
1.0
 10
88.2
 20
-24.10309807849025
 30
0.0
 10
86.61587446264559
 20
-23.81417265737997
 30
0.0
 10
85.02331402014387
 20
-23.47758763460933
 30
0.0
 10
82.64275091670937
 20
-22.90551794066668
 30
0.0
 10
81.85123450164629
 20
-22.70372418673122
 30
0.0
 10
80.2633841527535
 20
-22.27776036224694
 30
0.0
 10
79.46836305656586
 20
-22.05368882470358
 30
0.0
 10
77.08525128884278
 20
-21.34966386567818
 30
0.0
 10
75.50161454791038
 20
-20.83820036034043
 30
0.0
 10
73.11778677867761
 20
-20.01058915092191
 30
0.0
 10
72.32309806984034
 20
-19.72478963956306
 30
0.0
 10
70.73704974619854
 20
-19.13462627577354
 30
0.0
 10
69.94495181445998
 20
-18.83018350299436
 30
0.0
 10
68.35647896643624
 20
-18.20265532499705
 30
0.0
 10
67.56143163080343
 20
-17.8797328548342
 30
0.0
 10
65.97320837731772
 20
-17.21699276572052
 30
0.0
 10
65.1814365332339
 20
-16.87738403524619
 30
0.0
 10
62.80167738941494
 20
-15.8337254372399
 30
0.0
 10
61.20901142099658
 20
-15.1046914796777
 30
0.0
 10
58.03927242002754
 20
-13.59293991235154
 30
0.0
 10
56.4483165632797
 20
-12.80804032140733
 30
0.0
 10
54.06703746013967
 20
-11.59631893051165
 30
0.0
 10
53.27559261172144
 20
-11.1869507690191
 30
0.0
 10
51.68817390709494
 20
-10.35691691219559
 30
0.0
 10
50.89320855552268
 20
-9.936417690521727
 30
0.0
 10
48.50978256660905
 20
-8.661229898067933
 30
0.0
 10
46.92634365316647
 20
-7.793510398839097
 30
0.0
 10
44.54260424688215
 20
-6.470092067077846
 30
0.0
 10
43.7477843921816
 20
-6.025528953413025
 30
0.0
 10
42.16115449311198
 20
-5.13151784866137
 30
0.0
 10
41.36945509577917
 20
-4.682094858015925
 30
0.0
 10
39.78130939473952
 20
-3.778219492859418
 30
0.0
 10
38.98626532808033
 20
-3.324030105999426
 30
0.0
 10
37.39772795570867
 20
-2.413142664003123
 30
0.0
 10
36.6055168517173
 20
-1.956691928244017
 30
0.0
 10
34.22664952827481
 20
-0.5847175054284022
 30
0.0
 10
32.63393736767821
 20
0.3341686487212219
 30
0.0
 10
30.25560473051881
 20
1.706773640149706
 30
0.0
 10
29.46306933894054
 20
2.163653052668596
 30
0.0
 10
27.87438253760203
 20
3.075545679433222
 30
0.0
 10
27.07935308327289
 20
3.530342344952561
 30
0.0
 10
25.49141504687301
 20
4.435639673377919
 30
0.0
 10
24.69985789390067
 20
4.885886621977972
 30
0.0
 10
23.11292951994576
 20
5.781895129176192
 30
0.0
 10
22.31804941125818
 20
6.227559944771236
 30
0.0
 10
19.93439751446425
 20
7.554587445337372
 30
0.0
 10
18.35100168870385
 20
8.425185025871212
 30
0.0
 10
15.96743899739874
 20
9.705413004717402
 30
0.0
 10
15.17251747709503
 20
10.12769020603292
 30
0.0
 10
13.58536459170391
 20
10.96147010645604
 30
0.0
 10
12.79387988895905
 20
11.37285109693344
 30
0.0
 10
11.99999999999743
 20
11.77889407313398
 30
0.0
  0
SPLINE
  5
B3
330
1F
100
AcDbEntity
  8
외형선
  6
Continuous
 62
     1
370
    15
100
AcDbSpline
210
0.0
220
0.0
230
1.0
 70
     8
 71
     3
 72
    18
 73
    14
 74
     0
 42
0.000000001
 43
0.00000001
 40
0.0
 40
0.0
 40
0.0
 40
0.0
 40
0.1002718228006884
 40
0.2005585357420844
 40
0.3008539612974679
 40
0.4011519061940211
 40
0.5014461726029239
 40
0.6017305693471401
 40
0.7019996593773462
 40
0.8022747360101008
 40
0.9025635489756819
 40
0.9874250517317533
 40
1.0
 40
1.0
 40
1.0
 40
1.0
 10
88.19999999999999
 20
-20.03989551495269
 30
0.0
 10
85.9990124026612
 20
-19.59441787877998
 30
0.0
 10
81.59671036626374
 20
-18.7033964540051
 30
0.0
 10
74.9927017005924
 20
-16.82553582032502
 30
0.0
 10
68.38804946302741
 20
-14.60153747454343
 30
0.0
 10
61.78320168444636
 20
-12.04040497900482
 30
0.0
 10
55.17863723604819
 20
-9.210878472108769
 30
0.0
 10
48.57478686878516
 20
-6.173442408413861
 30
0.0
 10
41.97157297204517
 20
-2.998072985750612
 30
0.0
 10
35.36821883755755
 20
0.2483504080065896
 30
0.0
 10
29.10269157868509
 20
3.309642407858426
 30
0.0
 10
24.76280921045658
 20
5.414433287333027
 30
0.0
 10
22.6241137793622
 20
6.396622542846015
 30
0.0
 10
22.34809813916986
 20
6.523381871083667
 30
0.0
  0
LINE
  5
B4
330
1F
100
AcDbEntity
  8
외형선
  6
Continuous
 62
     1
370
    15
100
AcDbLine
 10
88.19999999999999
 20
-24.10309807849026
 30
0.0
 11
88.19999999999999
 21
-20.03989551495269
 31
0.0
  0
SPLINE
  5
B5
330
1F
100
AcDbEntity
  8
외형선
  6
Continuous
 62
     1
370
    15
100
AcDbSpline
210
0.0
220
0.0
230
1.0
 70
     8
 71
     3
 72
    56
 73
    52
 74
     0
 42
0.000000001
 43
0.00000001
 40
0.0
 40
0.0
 40
0.0
 40
0.0
 40
0.0312500000000001
 40
0.0312500000000001
 40
0.0625000000000001
 40
0.0625000000000001
 40
0.1250000000000004
 40
0.1250000000000004
 40
0.1562500000000004
 40
0.1562500000000004
 40
0.1875000000000006
 40
0.1875000000000006
 40
0.2187500000000006
 40
0.2187500000000006
 40
0.2500000000000007
 40
0.2500000000000007
 40
0.3125000000000009
 40
0.3125000000000009
 40
0.343750000000001
 40
0.343750000000001
 40
0.3750000000000011
 40
0.3750000000000011
 40
0.4062500000000011
 40
0.4062500000000011
 40
0.4375000000000012
 40
0.4375000000000012
 40
0.5000000000000011
 40
0.5000000000000011
 40
0.5312500000000011
 40
0.5312500000000011
 40
0.5625000000000011
 40
0.5625000000000011
 40
0.6250000000000011
 40
0.6250000000000011
 40
0.6875000000000013
 40
0.6875000000000013
 40
0.7187500000000013
 40
0.7187500000000013
 40
0.7500000000000012
 40
0.7500000000000012
 40
0.7812500000000012
 40
0.7812500000000012
 40
0.8125000000000011
 40
0.8125000000000011
 40
0.8750000000000011
 40
0.8750000000000011
 40
0.9062500000000008
 40
0.9062500000000008
 40
0.9375000000000006
 40
0.9375000000000006
 40
1.0
 40
1.0
 40
1.0
 40
1.0
 10
12.00000000000001
 20
5.105666004805699
 30
0.0
 10
12.7938798889616
 20
4.656718832005827
 30
0.0
 10
13.58536459170645
 20
4.205732327848755
 30
0.0
 10
15.17251747709752
 20
3.2993029362364
 30
0.0
 10
15.96743899740118
 20
2.843998931467439
 30
0.0
 10
18.35100168870622
 20
1.474813919635694
 30
0.0
 10
19.93439751446656
 20
0.5584417811280443
 30
0.0
 10
22.31804941126042
 20
-0.8167129896451104
 30
0.0
 10
23.11292951994795
 20
-1.274985791249007
 30
0.0
 10
24.6998578939028
 20
-2.189295424550401
 30
0.0
 10
25.49141504687513
 20
-2.645239484774249
 30
0.0
 10
27.07935308327496
 20
-3.555023727922554
 30
0.0
 10
27.87438253760407
 20
-4.00860304942071
 30
0.0
 10
29.46306933894253
 20
-4.911141474379986
 30
0.0
 10
30.25560473052076
 20
-5.359889912240185
 30
0.0
 10
32.63393736768009
 20
-6.697775492151484
 30
0.0
 10
34.22664952827662
 20
-7.579671843102528
 30
0.0
 10
36.60551685171905
 20
-8.875877909645899
 30
0.0
 10
37.3977279557104
 20
-9.303693595903702
 30
0.0
 10
38.98626532808199
 20
-10.1505583911117
 30
0.0
 10
39.78130939474115
 20
-10.56937317231106
 30
0.0
 10
41.36945509578074
 20
-11.39592982747008
 30
0.0
 10
42.16115449311353
 20
-11.80343678882109
 30
0.0
 10
43.7477843921831
 20
-12.60709100852048
 30
0.0
 10
44.54260424688362
 20
-13.00321015754054
 30
0.0
 10
46.92634365316784
 20
-14.17180392566995
 30
0.0
 10
48.50978256661038
 20
-14.92377022312635
 30
0.0
 10
50.89320855552395
 20
-16.0071331096627
 30
0.0
 10
51.68817390709617
 20
-16.36067806372727
 30
0.0
 10
53.27559261172262
 20
-17.05107795510435
 30
0.0
 10
54.06703746014083
 20
-17.3878011217751
 30
0.0
 10
56.44831656328079
 20
-18.37300281832141
 30
0.0
 10
58.03927242002855
 20
-18.99559114317312
 30
0.0
 10
61.20901142099749
 20
-20.16270392651786
 30
0.0
 10
62.80167738941578
 20
-20.70890264043448
 30
0.0
 10
65.1814365332347
 20
-21.46492298906564
 30
0.0
 10
65.97320837731847
 20
-21.70642788157561
 30
0.0
 10
67.56143163080415
 20
-22.16847905586447
 30
0.0
 10
68.35647896643691
 20
-22.38887231815508
 30
0.0
 10
69.94495181446061
 20
-22.80742241922653
 30
0.0
 10
70.73704974619913
 20
-23.00547732516271
 30
0.0
 10
72.32309806984084
 20
-23.37911083183512
 30
0.0
 10
73.11778677867814
 20
-23.55473223855557
 30
0.0
 10
75.5016145479108
 20
-24.04678490759887
 30
0.0
 10
77.08525128884311
 20
-24.32809964647377
 30
0.0
 10
79.46836305656612
 20
-24.67848730472226
 30
0.0
 10
80.26338415275376
 20
-24.7833067149501
 30
0.0
 10
81.85123450164653
 20
-24.96854558383478
 30
0.0
 10
82.64275091670952
 20
-25.04893490501573
 30
0.0
 10
85.02331402014397
 20
-25.25352514925771
 30
0.0
 10
86.61587446264564
 20
-25.34088371300128
 30
0.0
 10
88.19999999999997
 20
-25.37853230683293
 30
0.0
  0
SPLINE
  5
B6
330
1F
100
AcDbEntity
  8
외형선
  6
Continuous
 62
     1
370
    15
100
AcDbSpline
210
0.0
220
0.0
230
1.0
 70
     8
 71
     3
 72
     9
 73
     5
 74
     0
 42
0.000000001
 43
0.00000001
 40
0.0
 40
0.0
 40
0.0
 40
0.0
 40
0.441420399514415
 40
0.9999999999999999
 40
0.9999999999999999
 40
0.9999999999999999
 40
0.9999999999999999
 10
25.09353933457257
 20
-2.413078011974564
 30
0.0
 10
23.16693488524333
 20
-1.638481828808243
 30
0.0
 10
18.80237798789874
 20
0.1162992914535683
 30
0.0
 10
14.43790537079313
 20
1.873482149987804
 30
0.0
 10
12.00000000000001
 20
2.855008649087977
 30
0.0
  0
SPLINE
  5
B7
330
1F
100
AcDbEntity
  8
외형선
  6
Continuous
370
    15
100
AcDbSpline
210
0.0
220
0.0
230
1.0
 70
    24
 71
     3
 72
    11
 73
     7
 74
     0
 42
0.000000001
 43
0.00000001
 40
0.0
 40
0.0
 40
0.0
 40
0.0
 40
0.3050409268061414
 40
0.642503337886133
 40
0.820517870658651
 40
1.0
 40
1.0
 40
1.0
 40
1.0
 10
12.00000000000001
 20
4.976632896501444
 30
0.0
 10
12.00000000000001
 20
4.864634890282039
 30
0.0
 10
12.00000000000001
 20
4.628735092881116
 30
0.0
 10
12.00000000000001
 20
4.03518364619098
 30
0.0
 10
12.00000000000001
 20
3.419363864012788
 30
0.0
 10
12.00000000000001
 20
3.043641193410816
 30
0.0
 10
12.00000000000001
 20
2.855008649087979
 30
0.0
  0
LINE
  5
B8
330
1F
100
AcDbEntity
  8
외형선
  6
Continuous
 62
     1
370
    15
100
AcDbLine
 10
88.2
 20
-25.37853230683295
 30
0.0
 11
88.19999999999999
 21
-24.10309807849025
 31
0.0
  0
SPLINE
  5
B9
330
1F
100
AcDbEntity
  8
외형선
  6
Continuous
 62
     1
370
    15
100
AcDbSpline
210
0.0
220
0.0
230
1.0
 70
     8
 71
     3
 72
    19
 73
    15
 74
     0
 42
0.000000001
 43
0.00000001
 40
0.0
 40
0.0
 40
0.0
 40
0.0
 40
0.0889837528373003
 40
0.177980904211953
 40
0.2669858955025766
 40
0.3559931538849246
 40
0.4449971024250922
 40
0.5339921701886851
 40
0.6229734645115553
 40
0.7119601444825194
 40
0.8009591850546275
 40
0.8762675134778843
 40
0.9515761649394919
 40
1.0
 40
1.0
 40
1.0
 40
1.0
 10
88.19999999999999
 20
-0.0000000000000016
 30
0.0
 10
85.99901337574049
 20
1.016727535669229
 30
0.0
 10
81.59670871839062
 20
3.050335698571369
 30
0.0
 10
74.99271008151607
 20
6.031917767850442
 30
0.0
 10
68.38806646663133
 20
8.877962309950888
 30
0.0
 10
61.78322777152425
 20
11.52433187475013
 30
0.0
 10
55.17867193917906
 20
13.9114880036488
 30
0.0
 10
48.57483125492324
 20
15.98557509453456
 30
0.0
 10
41.97161333761228
 20
17.70060376981992
 30
0.0
 10
35.36825551675879
 20
19.01621363563225
 30
0.0
 10
29.10276534916518
 20
19.8628488939075
 30
0.0
 10
23.17619576407204
 20
20.27889202987486
 30
0.0
 10
18.25307499709789
 20
20.3799314241693
 30
0.0
 10
15.19266360785615
 20
20.21194383543175
 30
0.0
 10
13.99494374870296
 20
20.14620036322096
 30
0.0
  0
SPLINE
  5
BA
330
1F
100
AcDbEntity
  8
외형선
  6
Continuous
 62
     1
370
    15
100
AcDbSpline
210
0.0
220
0.0
230
1.0
 70
    24
 71
     3
 72
    14
 73
    10
 74
     0
 42
0.000000001
 43
0.00000001
 40
0.0
 40
0.0
 40
0.0
 40
0.0
 40
0.25
 40
0.25
 40
0.5
 40
0.5
 40
0.75
 40
0.75
 40
1.0
 40
1.0
 40
1.0
 40
1.0
 10
88.19999999999999
 20
-20.03989551495268
 30
0.0
 10
88.19999999999997
 20
-18.95557336052245
 30
0.0
 10
88.20000000000002
 20
-17.67202380632716
 30
0.0
 10
88.2
 20
-14.75713589577274
 30
0.0
 10
88.2
 20
-13.1262083448734
 30
0.0
 10
88.19999999999997
 20
-9.62374008979028
 30
0.0
 10
88.2
 20
-7.753210792117303
 30
0.0
 10
88.20000000000003
 20
-3.913653825697807
 30
0.0
 10
88.2
 20
-1.945765085460714
 30
0.0
 10
88.19999999999999
 20
-0.0000000000000016
 30
0.0
  0
SPLINE
  5
BB
330
1F
100
AcDbEntity
  8
외형선
  6
Continuous
370
    15
100
AcDbSpline
210
0.0
220
0.0
230
1.0
 70
    24
 71
     3
 72
    17
 73
    13
 74
     0
 42
0.000000001
 43
0.00000001
 40
0.0
 40
0.0
 40
0.0
 40
0.0
 40
0.0534201633001832
 40
0.2038736663880097
 40
0.3135824736323081
 40
0.4232912808766066
 40
0.5361873663369844
 40
0.6490834517973622
 40
0.7483356265443059
 40
0.8475878012912494
 40
0.9491778876822952
 40
1.0
 40
1.0
 40
1.0
 40
1.0
 10
12.00000000000001
 20
20.03447799894121
 30
0.0
 10
12.00000000000001
 20
20.03531119330325
 30
0.0
 10
12.00000000000002
 20
20.0384910111643
 30
0.0
 10
12.00000000000001
 20
19.71250830565249
 30
0.0
 10
12.00000000000001
 20
19.14813662409983
 30
0.0
 10
12.00000000000001
 20
18.43856488104848
 30
0.0
 10
12.00000000000001
 20
17.53754690424321
 30
0.0
 10
12.00000000000001
 20
16.48568122720613
 30
0.0
 10
12.00000000000001
 20
15.32577999647575
 30
0.0
 10
12.00000000000001
 20
14.07045820611491
 30
0.0
 10
12.00000000000001
 20
12.93015845235106
 30
0.0
 10
12.00000000000001
 20
12.16195048177528
 30
0.0
 10
12.00000000000001
 20
11.90579020002142
 30
0.0
  0
SPLINE
  5
BC
330
1F
100
AcDbEntity
  8
외형선
  6
Continuous
 62
     1
370
    15
100
AcDbSpline
210
0.0
220
0.0
230
1.0
 70
    24
 71
     3
 72
    10
 73
     6
 74
     0
 42
0.000000001
 43
0.00000001
 40
0.0
 40
0.0
 40
0.0
 40
0.0
 40
0.4999999999999998
 40
0.4999999999999998
 40
1.0
 40
1.0
 40
1.0
 40
1.0
 10
83.19999999999999
 20
13.02321813694332
 30
0.0
 10
83.19999999999999
 20
13.71820767828033
 30
0.0
 10
83.19999999999996
 20
14.34397502627873
 30
0.0
 10
83.19999999999993
 20
15.44274489391832
 30
0.0
 10
83.20000000000002
 20
15.91573089349451
 30
0.0
 10
83.19999999999999
 20
16.30935131046915
 30
0.0
  0
SPLINE
  5
BD
330
1F
100
AcDbEntity
  8
외형선
  6
Continuous
 62
     1
370
    15
100
AcDbSpline
210
0.0
220
0.0
230
1.0
 70
     8
 71
     3
 72
    10
 73
     6
 74
     0
 42
0.000000001
 43
0.00000001
 40
0.0
 40
0.0
 40
0.0
 40
0.0
 40
0.5
 40
0.5
 40
1.0
 40
1.0
 40
1.0
 40
1.0
 10
83.19999999999999
 20
13.02321813694334
 30
0.0
 10
84.09431931368735
 20
12.47562514837292
 30
0.0
 10
84.96006898428243
 20
11.86799396800357
 30
0.0
 10
86.629148978463
 20
10.52155934460768
 30
0.0
 10
87.43253921924453
 20
9.782881815653445
 30
0.0
 10
88.2
 20
8.968699674852752
 30
0.0
  0
SPLINE
  5
BE
330
1F
100
AcDbEntity
  8
외형선
  6
Continuous
 62
     1
370
    15
100
AcDbSpline
210
0.0
220
0.0
230
1.0
 70
     8
 71
     3
 72
     9
 73
     5
 74
     0
 42
0.000000001
 43
0.00000001
 40
0.0
 40
0.0
 40
0.0
 40
0.0
 40
0.6985370673990412
 40
0.9999999999999999
 40
0.9999999999999999
 40
0.9999999999999999
 40
0.9999999999999999
 10
88.19999999999999
 20
17.77999999999999
 30
0.0
 10
85.99901592532972
 20
17.75938072080239
 30
0.0
 10
82.84816799271319
 20
17.72986291829782
 30
0.0
 10
79.69724465907498
 20
17.41738712086339
 30
0.0
 10
78.74735807051563
 20
17.32318725060199
 30
0.0
  0
SPLINE
  5
BF
330
1F
100
AcDbEntity
  8
외형선
  6
Continuous
 62
     1
370
    15
100
AcDbSpline
210
0.0
220
0.0
230
1.0
 70
     8
 71
     3
 72
     8
 73
     4
 74
     0
 42
0.000000001
 43
0.00000001
 40
0.0
 40
0.0
 40
0.0
 40
0.0
 40
1.0
 40
1.0
 40
1.0
 40
1.0
 10
88.19999999999999
 20
17.78
 30
0.0
 10
86.52698159360295
 20
17.32658360122464
 30
0.0
 10
84.86025984458773
 20
16.83668649987301
 30
0.0
 10
83.19999999999999
 20
16.30935131046915
 30
0.0
  0
SPLINE
  5
C0
330
1F
100
AcDbEntity
  8
외형선
  6
Continuous
 62
     1
370
    15
100
AcDbSpline
210
0.0
220
0.0
230
1.0
 70
    24
 71
     3
 72
    10
 73
     6
 74
     0
 42
0.000000001
 43
0.00000001
 40
0.0
 40
0.0
 40
0.0
 40
0.0
 40
0.5
 40
0.5
 40
1.0
 40
1.0
 40
1.0
 40
1.0
 10
88.19999999999999
 20
-0.0000000000000081
 30
0.0
 10
88.19999999999997
 20
1.585610116459099
 30
0.0
 10
88.2
 20
3.156497691851285
 30
0.0
 10
88.19999999999997
 20
6.176915321786726
 30
0.0
 10
88.20000000000002
 20
7.625879162438543
 30
0.0
 10
88.2
 20
8.968699674852756
 30
0.0
  0
SPLINE
  5
C1
330
1F
100
AcDbEntity
  8
외형선
  6
Continuous
 62
     1
370
    15
100
AcDbSpline
210
0.0
220
0.0
230
1.0
 70
     8
 71
     3
 72
    11
 73
     7
 74
     0
 42
0.000000001
 43
0.00000001
 40
0.0
 40
0.0
 40
0.0
 40
0.0
 40
0.2514706785934655
 40
0.5009793315155918
 40
0.7504890547159384
 40
1.0
 40
1.0
 40
1.0
 40
1.0
 10
34.39651272318191
 20
-19.07594789916897
 30
0.0
 10
32.5190580626433
 20
-19.35323015291464
 30
0.0
 10
28.7787970268507
 20
-19.9056312475457
 30
0.0
 10
23.17619404500921
 20
-20.27763264463325
 30
0.0
 10
17.58809220466079
 20
-20.37863270803447
 30
0.0
 10
13.86270044267053
 20
-20.16375985245239
 30
0.0
 10
12.00000000000001
 20
-20.0563231615534
 30
0.0
  0
SPLINE
  5
C2
330
1F
100
AcDbEntity
  8
외형선
  6
Continuous
370
    15
100
AcDbSpline
210
0.0
220
0.0
230
1.0
 70
    24
 71
     3
 72
    14
 73
    10
 74
     0
 42
0.000000001
 43
0.00000001
 40
0.0
 40
0.0
 40
0.0
 40
0.0
 40
0.25
 40
0.25
 40
0.5
 40
0.5
 40
0.75
 40
0.75
 40
1.0
 40
1.0
 40
1.0
 40
1.0
 10
11.99999999999999
 20
2.855008649087983
 30
0.0
 10
11.99999999999999
 20
0.6081522133225995
 30
0.0
 10
11.99999999999999
 20
-1.69617165438849
 30
0.0
 10
11.99999999999999
 20
-6.203919857245978
 30
0.0
 10
11.99999999999999
 20
-8.404956596806233
 30
0.0
 10
11.99999999999999
 20
-12.47696081868685
 30
0.0
 10
11.99999999999999
 20
-14.34575856691455
 30
0.0
 10
11.99999999999999
 20
-17.58756886422998
 30
0.0
 10
11.99999999999999
 20
-18.95997189582675
 30
0.0
 10
11.99999999999999
 20
-20.0563231615534
 30
0.0
  0
LINE
  5
C3
330
1F
100
AcDbEntity
  8
외형선
  6
Continuous
 62
     1
370
    15
100
AcDbLine
 10
88.19999999999999
 20
9.032157738297702
 30
0.0
 11
88.19999999999999
 21
17.78
 31
0.0
  0
SPLINE
  5
C4
330
1F
100
AcDbEntity
  8
외형선
  6
Continuous
 62
     1
370
    15
100
AcDbSpline
210
0.0
220
0.0
230
1.0
 70
    24
 71
     3
 72
    14
 73
    10
 74
     0
 42
0.000000001
 43
0.00000001
 40
0.0
 40
0.0
 40
0.0
 40
0.0
 40
0.25
 40
0.25
 40
0.5
 40
0.5
 40
0.75
 40
0.75
 40
1.0
 40
1.0
 40
1.0
 40
1.0
 10
88.19999999999999
 20
17.77999999999999
 30
0.0
 10
88.19999999999997
 20
18.31888966145289
 30
0.0
 10
88.20000000000002
 20
18.900129894841
 30
0.0
 10
88.19999999999999
 20
20.12433773570246
 30
0.0
 10
88.20000000000002
 20
20.76718330402
 30
0.0
 10
88.20000000000002
 20
22.08103249361048
 30
0.0
 10
88.2
 20
22.75181509401222
 30
0.0
 10
88.2
 20
24.08266931494269
 30
0.0
 10
88.2
 20
24.74249878809517
 30
0.0
 10
88.19999999999999
 20
25.37853230683294
 30
0.0
  0
SPLINE
  5
C5
330
1F
100
AcDbEntity
  8
외형선
  6
Continuous
 62
     1
370
    15
100
AcDbSpline
210
0.0
220
0.0
230
1.0
 70
     8
 71
     3
 72
    17
 73
    13
 74
     0
 42
0.000000001
 43
0.00000001
 40
0.0
 40
0.0
 40
0.0
 40
0.0
 40
0.0121510544367829
 40
0.1325449353522738
 40
0.2400508100030384
 40
0.3478196245449134
 40
0.455786104518225
 40
0.5641132517674575
 40
0.6726412917101295
 40
0.7815336806856541
 40
0.8906304110354626
 40
1.0
 40
1.0
 40
1.0
 40
1.0
 10
53.24788343013587
 20
17.02994756272505
 30
0.0
 10
53.38945956468201
 20
17.09281209952625
 30
0.0
 10
54.93378641289662
 20
17.77854484886219
 30
0.0
 10
57.73094056424596
 20
18.88141725177702
 30
0.0
 10
61.64109045288981
 20
20.32734705785172
 30
0.0
 10
65.40713285407242
 20
21.55689981536742
 30
0.0
 10
69.18318771275011
 20
22.63453417237901
 30
0.0
 10
72.9669278437241
 20
23.54717567775745
 30
0.0
 10
76.76234149040151
 20
24.28808251205422
 30
0.0
 10
80.56686001408282
 20
24.84585878690123
 30
0.0
 10
84.38018032329207
 20
25.23267256153201
 30
0.0
 10
86.9256670260635
 20
25.32987192526038
 30
0.0
 10
88.19999999999997
 20
25.37853230683293
 30
0.0
  0
LINE
  5
C6
330
1F
100
AcDbEntity
  8
중심선
 62
     1
100
AcDbLine
 10
-86.25
 20
-0.0000000000000055
 30
0.0
 11
91.20000000000002
 21
0.0000000000000124
 31
0.0
  0
LINE
  5
C7
330
1F
100
AcDbEntity
  8
참조1
100
AcDbLine
 10
2.474999999999996
 20
-0.0000000000000059
 30
0.0
 11
2.475
 21
-40.00000000000001
 31
0.0
  0
LINE
  5
C8
330
1F
100
AcDbEntity
  8
참조1
100
AcDbLine
 10
2.475
 20
-40.00000000000001
 30
0.0
 11
-23.00006253529964
 21
-40.0
 31
0.0
  0
CIRCLE
  5
C9
330
1F
100
AcDbEntity
  8
해칭선
100
AcDbCircle
 10
0.0
 20
0.0
 30
0.0
 40
2.999999999999995
  0
INSERT
  5
CA
330
1F
100
AcDbEntity
  8
0
  6
Continuous
 62
     7
100
AcDbBlockReference
 66
     1
  2
블럭10
 10
-11.46527293212521
 20
-52.04717430164393
 30
0.0
  0
ATTRIB
  5
CB
330
CA
100
AcDbEntity
  8
FORMAT
 62
     2
100
AcDbText
 10
-20.64656822086649
 20
-49.97180738881175
 30
0.0
 40
4.233333333333333
  1
E1080164 [ 2 FLUTE ]
 41
0.75
  7
SLDTEXTSTYLE0
 11
-20.64656822086649
 21
-52.08847405547841
 31
0.0
100
AcDbAttribute
  2
AUTOATTR0
 70
     0
 74
     1
  0
SEQEND
  5
CC
330
CA
100
AcDbEntity
  8
0
  6
Continuous
 62
     7
  0
HATCH
  5
CD
330
1F
100
AcDbEntity
  8
중심선
100
AcDbHatch
 10
0.0
 20
0.0
 30
0.0
210
0.0
220
0.0
230
1.0
  2
SOLID
 70
     1
 71
     0
 91
        1
 92
        0
 93
        4
 72
     1
 10
-5.750363627744374
 20
-35.8
 11
-9.196638871581655
 21
-35.8
 72
     1
 10
-9.196638871581655
 20
-35.8
 11
-11.32486873078571
 21
-38.3363255805726
 72
     1
 10
-11.32486873078571
 20
-38.3363255805726
 11
-7.878560401835246
 21
-38.33628615127011
 72
     1
 10
-7.878560401835247
 20
-38.33628615127011
 11
-5.750363627744374
 21
-35.8
 97
        0
 75
     0
 76
     1
 98
        1
 10
-2.849261314031163
 20
-0.0010749287238951
  0
HATCH
  5
CE
330
1F
100
AcDbEntity
  8
중심선
100
AcDbHatch
 10
0.0
 20
0.0
 30
0.0
210
0.0
220
0.0
230
1.0
  2
SOLID
 70
     1
 71
     0
 91
        1
 92
        0
 93
        4
 72
     1
 10
-0.7375996367084228
 20
-35.8
 11
-4.183874880545677
 21
-35.8
 72
     1
 10
-4.183874880545678
 20
-35.8
 11
-8.715012888903093
 21
-41.20000000000002
 72
     1
 10
-8.715012888903093
 20
-41.20000000000002
 11
-5.268737645065811
 21
-41.20000000000002
 72
     1
 10
-5.268737645065811
 20
-41.20000000000002
 11
-0.7375996367084232
 21
-35.8
 97
        0
 75
     0
 76
     1
 98
        1
 10
-2.849261314031163
 20
-0.0010749287238951
  0
HATCH
  5
CF
330
1F
100
AcDbEntity
  8
중심선
100
AcDbHatch
 10
0.0
 20
0.0
 30
0.0
210
0.0
220
0.0
230
1.0
  2
SOLID
 70
     1
 71
     0
 91
        1
 92
        0
 93
        4
 72
     1
 10
4.275164354327473
 20
-35.8
 11
0.8288891104903571
 21
-35.80000000000003
 72
     1
 10
0.8288891104903571
 20
-35.80000000000003
 11
-6.219547791398892
 21
-44.20000000000002
 72
     1
 10
-6.219547791398892
 20
-44.20000000000002
 11
-2.77327254756161
 21
-44.20000000000002
 72
     1
 10
-2.77327254756161
 20
-44.20000000000002
 11
4.275164354327473
 21
-35.8
 97
        0
 75
     0
 76
     1
 98
        1
 10
-2.849261314031163
 20
-0.0010749287238951
  0
HATCH
  5
D0
330
1F
100
AcDbEntity
  8
중심선
100
AcDbHatch
 10
0.0
 20
0.0
 30
0.0
210
0.0
220
0.0
230
1.0
  2
SOLID
 70
     1
 71
     0
 91
        1
 92
        0
 93
        6
 72
     3
 10
9.07505478533967
 20
-40.00000000005127
 11
3.960054785062283
 21
1.540882976769353E-10
 40
0.3939339440162628
 50
17.09539180608437
 51
320.0019657685081
 73
     0
 72
     1
 10
10.75805444104027
 20
-38.5878940046383
 11
13.06335631474133
 21
-36.65356729459035
 72
     3
 10
9.075054785286824
 20
-40.00000000000015
 11
6.600054785286829
 21
-1.278976924368180E-13
 40
0.636358354079598
 50
39.99873849337411
 51
368.4976242363725
 73
     1
 72
     1
 10
15.50038727718744
 20
-39.03999999993002
 11
7.755122092122775
 21
-39.03999999993002
 72
     1
 10
7.755122092122776
 20
-39.03999999993002
 11
7.755097047676814
 21
-40.95999999992991
 72
     1
 10
7.755097047676814
 20
-40.95999999992991
 11
12.19647681714885
 21
-40.95999999992988
 97
        0
 75
     0
 76
     1
 98
        1
 10
-2.849261314031163
 20
-0.0010749287238951
  0
DIMENSION
  5
D1
330
1F
100
AcDbEntity
  8
치수문자_일반주서
100
AcDbDimension
  2
_D
 10
-95.74999999999993
 20
-25.40000000000006
 30
0.0
 11
-95.75000000000001
 21
0.0000000000000085
 31
0.0
 70
   160
  1
%%c<>
 71
     2
 42
50.80000000000001
 52
-270.0
  3
SLDDIMSTYLE0
100
AcDbAlignedDimension
 13
-82.25
 23
25.40000000000001
 33
0.0
 14
-82.25
 24
-25.40000000000001
 34
0.0
 50
90.0000000000002
100
AcDbRotatedDimension
1001
ACAD
1000
DSTYLE
1002
{
1070
   171
1070
     6
1070
   273
1070
     7
1002
}
  0
DIMENSION
  5
E4
330
1F
100
AcDbEntity
  8
치수문자_일반주서
100
AcDbDimension
  2
_D_1
 10
12.00000000000001
 20
38.55487403765586
 30
0.0
 11
50.1
 21
38.55487403765586
 31
0.0
 70
   160
  1
<>
 71
     2
 42
76.19999999999999
  3
SLDDIMSTYLE0
100
AcDbAlignedDimension
 13
88.2
 23
25.37853230683295
 33
0.0
 14
12.00000000000001
 24
20.08515998173591
 34
0.0
 50
0.0000000000000053
100
AcDbRotatedDimension
1001
ACAD
1000
DSTYLE
1002
{
1070
   171
1070
     6
1070
   273
1070
     7
1002
}
  0
DIMENSION
  5
F8
330
1F
100
AcDbEntity
  8
치수문자_일반주서
100
AcDbDimension
  2
_D_2
 10
-83.25
 20
54.62862764387435
 30
0.0
 11
2.474999999999998
 21
54.62862764387435
 31
0.0
 70
   160
  1
<>
 71
     2
 42
171.45
  3
SLDDIMSTYLE1
100
AcDbAlignedDimension
 13
88.19999999999999
 23
24.10309807849026
 33
0.0
 14
-83.25
 24
24.39999999999999
 34
0.0
100
AcDbRotatedDimension
1001
ACAD
1000
DSTYLE
1002
{
1070
   171
1070
     6
1070
   273
1070
     7
1002
}
  0
LINE
  5
11F
330
1F
100
AcDbEntity
  8
참조1
100
AcDbLine
 10
74.97227809435462
 20
7.44
 30
0.0
 11
74.97227809435462
 21
-7.440000000000004
 31
0.0
  0
LINE
  5
120
330
1F
100
AcDbEntity
  8
참조1
100
AcDbLine
 10
87.67227809435462
 20
5.44
 30
0.0
 11
74.97227809435462
 21
5.44
 31
0.0
  0
SOLID
  5
121
330
1F
100
AcDbEntity
  8
참조1
100
AcDbTrace
 10
74.97227809435462
 20
5.44
 30
0.0
 11
81.32227809435462
 21
4.424
 31
0.0
 12
81.32227809435462
 22
6.456
 32
0.0
 13
81.32227809435462
 23
6.456
 33
0.0
  0
LINE
  5
122
330
1F
100
AcDbEntity
  8
참조1
100
AcDbLine
 10
87.67227809435462
 20
-5.440000000000004
 30
0.0
 11
74.97227809435462
 21
-5.440000000000004
 31
0.0
  0
SOLID
  5
123
330
1F
100
AcDbEntity
  8
참조1
100
AcDbTrace
 10
74.97227809435462
 20
-5.440000000000004
 30
0.0
 11
81.32227809435462
 21
-6.456000000000004
 31
0.0
 12
81.32227809435462
 22
-4.424000000000004
 32
0.0
 13
81.32227809435462
 23
-4.424000000000004
 33
0.0
  0
MTEXT
  5
124
330
1F
100
AcDbEntity
  8
참조1
100
AcDbMText
 10
84.35662822698062
 20
11.01029177718833
 30
0.0
 40
3.5
 41
0.0
 71
     1
 72
     1
  1
A
  7
SLDTEXTSTYLE0
 73
     1
 44
1.0
  0
MTEXT
  5
125
330
1F
100
AcDbEntity
  8
참조1
100
AcDbMText
 10
84.35662822698062
 20
0.1302917771883241
 30
0.0
 40
3.5
 41
0.0
 71
     1
 72
     1
  1
A
  7
SLDTEXTSTYLE0
 73
     1
 44
1.0
  0
INSERT
  5
12C
330
1F
100
AcDbEntity
  8
해칭선
100
AcDbBlockReference
  2
SW_DOWELSYMBOL_0
 10
0.0
 20
0.0
 30
0.0
  0
LINE
  5
152
102
{ACAD_REACTORS
102
}
330
1F
100
AcDbEntity
  8
0
 62
     1
100
AcDbLine
 10
88.19999999999999
 20
25.39999999999999
 30
0.0
 11
88.19999999999999
 21
-25.40000000000001
 31
0.0
  0
DIMENSION
  5
153
102
{ACAD_REACTORS
102
}
102
{ACAD_XDICTIONARY
360
154
102
}
330
1F
100
AcDbEntity
  8
치수문자_일반주서
100
AcDbDimension
  2
*D7
 10
104.6764617075472
 20
-25.40000000000001
 30
0.0
 11
102.0514617075472
 21
-0.0000000000000071
 31
0.0
 70
    32
  1
{%%C<>[]}
 71
     5
 42
50.8
  3
SLDDIMSTYLE0
100
AcDbAlignedDimension
 13
88.19999999999999
 23
25.39999999999999
 33
0.0
 14
88.19999999999999
 24
-25.40000000000001
 34
0.0
 50
90.0
100
AcDbRotatedDimension
1001
ACAD
1000
DSTYLE
1002
{
1070
   283
1070
     1
1070
   170
1070
     1
1070
   171
1070
     6
1070
   273
1070
     7
1002
}
  0
LINE
  5
16D
330
1F
100
AcDbEntity
  8
0
100
AcDbLine
 10
-138.9961328405543
 20
-160.1078096174164
 30
0.0
 11
-138.9961328405543
 21
-160.1078096174164
 31
0.0
  0
LINE
  5
16E
102
{ACAD_REACTORS
102
}
330
1F
100
AcDbEntity
  8
외형선
  6
Continuous
370
    15
100
AcDbLine
 10
-47.69
 20
-14.82489881786721
 30
0.0
 11
-47.69
 21
14.82489881786718
 31
0.0
  0
LINE
  5
17E
330
1F
100
AcDbEntity
  8
외형선
  6
Continuous
370
    15
100
AcDbLine
 10
-47.69
 20
14.82489881786718
 30
0.0
 11
-29.91
 21
14.82489881786718
 31
0.0
  0
LINE
  5
17F
330
1F
100
AcDbEntity
  8
외형선
  6
Continuous
370
    15
100
AcDbLine
 10
-47.69
 20
-14.82489881786721
 30
0.0
 11
-29.91
 21
-14.8248988178672
 31
0.0
  0
LINE
  5
180
330
1F
100
AcDbEntity
  8
외형선
  6
Continuous
370
    15
100
AcDbLine
 10
-29.91
 20
14.82489881786718
 30
0.0
 11
-29.91
 21
-14.8248988178672
 31
0.0
  0
SPLINE
  5
183
330
1F
100
AcDbEntity
  8
외형선
  6
Continuous
370
    15
100
AcDbSpline
210
0.0
220
0.0
230
1.0
 70
     8
 71
     3
 72
     9
 73
     5
 74
     3
 42
0.000000001
 43
0.0000000001
 44
0.0
 40
0.0
 40
0.0
 40
0.0
 40
0.0
 40
15.44052883416385
 40
30.88105766832773
 40
30.88105766832773
 40
30.88105766832773
 40
30.88105766832773
 10
-47.69
 20
14.82489881786718
 30
0.0
 10
-49.84825773012896
 20
9.883265878578118
 30
0.0
 10
-54.16477319038687
 20
-0.0000000000000107
 30
0.0
 10
-49.84825773012895
 20
-9.88326587857814
 30
0.0
 10
-47.69
 20
-14.82489881786721
 30
0.0
 11
-47.69
 21
14.82489881786718
 31
0.0
 11
-52.00651546025792
 21
-0.0000000000000023
 31
0.0
 11
-47.69
 21
-14.82489881786721
 31
0.0
  0
SPLINE
  5
184
330
1F
100
AcDbEntity
  8
외형선
  6
Continuous
370
    15
100
AcDbSpline
210
0.0
220
0.0
230
1.0
 70
  1064
 71
     3
 72
     9
 73
     5
 74
     3
 42
0.000000001
 43
0.0000000001
 44
0.0
 40
0.0
 40
0.0
 40
0.0
 40
0.0
 40
15.44052883416385
 40
30.88105766832773
 40
30.88105766832773
 40
30.88105766832773
 40
30.88105766832773
 10
-29.91
 20
14.82489881786718
 30
0.0
 10
-27.75174226987104
 20
9.883265878578118
 30
0.0
 10
-23.43522680961312
 20
-0.0000000000000107
 30
0.0
 10
-27.75174226987103
 20
-9.88326587857814
 30
0.0
 10
-29.91
 20
-14.82489881786721
 30
0.0
 11
-29.91
 21
14.82489881786718
 31
0.0
 11
-25.59348453974208
 21
-0.0000000000000023
 31
0.0
 11
-29.91
 21
-14.82489881786721
 31
0.0
  0
LINE
  5
185
330
1F
100
AcDbEntity
  8
외형선
  6
Continuous
370
    15
100
AcDbLine
 10
-61.02500000000001
 20
25.39999999999999
 30
0.0
 11
-61.02500000000001
 21
-25.40000000000001
 31
0.0
  0
LINE
  5
186
330
1F
100
AcDbEntity
  8
외형선
  6
Continuous
370
    15
100
AcDbLine
 10
-73.72500000000001
 20
19.8628
 30
0.0
 11
-73.72500000000001
 21
-25.40000000000001
 31
0.0
  0
LINE
  5
187
330
1F
100
AcDbEntity
  8
외형선
  6
Continuous
370
    15
100
AcDbLine
 10
-61.02500000000001
 20
-25.40000000000001
 30
0.0
 11
8.949890311373693
 21
-25.4
 31
0.0
  0
LINE
  5
189
330
1F
100
AcDbEntity
  8
외형선
  6
Continuous
370
    15
100
AcDbLine
 10
-61.02500000000001
 20
25.01899999999998
 30
0.0
 11
-61.02500000000001
 21
-25.01900000000002
 31
0.0
  0
LINE
  5
18A
330
1F
100
AcDbEntity
  8
외형선
  6
Continuous
370
    15
100
AcDbLine
 10
-61.02500000000001
 20
25.01899999999998
 30
0.0
 11
-61.59680376681742
 21
25.01899999999998
 31
0.0
  0
LINE
  5
18B
330
1F
100
AcDbEntity
  8
외형선
  6
Continuous
370
    15
100
AcDbLine
 10
-61.02500000000001
 20
-25.01900000000001
 30
0.0
 11
-73.72500000000001
 21
-25.01900000000001
 31
0.0
  0
LINE
  5
18F
330
1F
100
AcDbEntity
  8
외형선
  6
Continuous
370
    15
100
AcDbLine
 10
-48.45199999999999
 20
22.91079999999999
 30
0.0
 11
-30.67199999999999
 21
22.91079999999999
 31
0.0
  0
LINE
  5
190
330
1F
100
AcDbEntity
  8
외형선
  6
Continuous
370
    15
100
AcDbLine
 10
-48.45199999999999
 20
22.91079999999999
 30
0.0
 11
-50.94119999999999
 21
25.39999999999999
 31
0.0
  0
LINE
  5
191
330
1F
100
AcDbEntity
  8
외형선
  6
Continuous
370
    15
100
AcDbLine
 10
-30.67199999999999
 20
22.91079999999999
 30
0.0
 11
-28.18279999999999
 21
25.39999999999999
 31
0.0
  0
LINE
  5
192
330
1F
100
AcDbEntity
  8
외형선
  6
Continuous
370
    15
100
AcDbLine
 10
-50.94119999999997
 20
25.39999999999999
 30
0.0
 11
-61.02500000000001
 21
25.39999999999999
 31
0.0
  0
LINE
  5
193
330
1F
100
AcDbEntity
  8
외형선
  6
Continuous
370
    15
100
AcDbLine
 10
-62.0918
 20
23.07205154696243
 30
0.0
 11
-62.0918
 21
-6.942039972351413
 31
0.0
  0
LINE
  5
194
330
1F
100
AcDbEntity
  8
0
100
AcDbLine
 10
-82.25
 20
19.8628
 30
0.0
 11
-82.25
 21
-25.40000000000001
 31
0.0
  0
LINE
  5
195
330
1F
100
AcDbEntity
  8
외형선
  6
Continuous
370
    15
100
AcDbLine
 10
-67.92357134821707
 20
19.8628
 30
0.0
 11
-83.25
 21
19.8628
 31
0.0
  0
ARC
  5
199
330
1F
100
AcDbEntity
  8
외형선
  6
Continuous
370
    15
100
AcDbCircle
 10
-67.1718
 20
25.39999999999999
 30
0.0
 40
5.588
100
AcDbArc
 50
262.2683738127862
 51
356.0904364753407
  0
LINE
  5
19B
330
1F
100
AcDbEntity
  8
외형선
  6
Continuous
370
    15
100
AcDbLine
 10
-71.87515845852458
 20
19.8628
 30
0.0
 11
-71.87515845852458
 21
-6.942039972351413
 31
0.0
  0
ARC
  5
19E
330
1F
100
AcDbEntity
  8
외형선
  6
Continuous
370
    15
100
AcDbCircle
 10
-66.98347922926229
 20
-6.942039972351413
 30
0.0
 40
4.891679229262294
100
AcDbArc
 50
180.0
 51
0.0
  0
ENDSEC
  0
SECTION
  2
OBJECTS
  0
DICTIONARY
  5
C
330
0
100
AcDbDictionary
281
     1
  3
ACAD_GROUP
350
D
  3
ACAD_IMAGE_VARS
350
150
  3
ACAD_LAYOUT
350
1A
  3
ACAD_MLINESTYLE
350
17
  3
ACAD_PLOTSETTINGS
350
19
  3
ACAD_PLOTSTYLENAME
350
E
  3
ACAD_SCALELIST
350
47
  3
APPDATA
350
14E
  3
DWGPROPS
350
1A0
  0
DICTIONARY
  5
154
330
153
100
AcDbDictionary
280
     1
281
     1
  0
DICTIONARY
  5
D
102
{ACAD_REACTORS
330
C
102
}
330
C
100
AcDbDictionary
281
     1
  0
RASTERVARIABLES
  5
150
102
{ACAD_REACTORS
330
C
102
}
330
C
100
AcDbRasterVariables
 90
        0
 70
     1
 71
     1
 72
     1
  0
DICTIONARY
  5
1A
102
{ACAD_REACTORS
330
C
102
}
330
C
100
AcDbDictionary
281
     1
  3
Layout1
350
1E
  3
Layout2
350
26
  3
Model
350
22
  0
DICTIONARY
  5
17
102
{ACAD_REACTORS
330
C
102
}
330
C
100
AcDbDictionary
281
     1
  3
Standard
350
18
  0
DICTIONARY
  5
19
102
{ACAD_REACTORS
330
C
102
}
330
C
100
AcDbDictionary
281
     1
  0
ACDBDICTIONARYWDFLT
  5
E
102
{ACAD_REACTORS
330
C
102
}
330
C
100
AcDbDictionary
281
     1
  3
Normal
350
F
100
AcDbDictionaryWithDefault
340
F
  0
DICTIONARY
  5
47
102
{ACAD_REACTORS
330
C
102
}
330
C
100
AcDbDictionary
281
     1
  3
A0
350
48
  3
A1
350
49
  3
A2
350
4A
  3
A3
350
4B
  3
A4
350
4C
  3
A5
350
4D
  3
A6
350
4E
  3
A7
350
4F
  3
A8
350
50
  3
A9
350
51
  3
B0
350
52
  3
B1
350
53
  3
B2
350
54
  3
B3
350
55
  3
B4
350
56
  3
B5
350
57
  3
B6
350
58
  3
B7
350
59
  3
B8
350
5A
  3
B9
350
5B
  3
C0
350
5C
  3
C1
350
5D
  3
C2
350
5E
  3
C3
350
5F
  3
C4
350
60
  3
C5
350
61
  3
C6
350
62
  3
C7
350
63
  3
C8
350
64
  3
C9
350
65
  3
D0
350
66
  3
D1
350
67
  3
D2
350
68
  0
DICTIONARY
  5
14E
102
{ACAD_REACTORS
330
C
102
}
330
C
100
AcDbDictionary
281
     1
  0
XRECORD
  5
1A0
102
{ACAD_REACTORS
330
C
102
}
330
C
100
AcDbXrecord
280
     1
  1
DWGPROPS COOKIE
  2

  3

  4

  6

  7

  8
12016016
  9

300
=
301
=
302
=
303
=
304
=
305
=
306
=
307
=
308
=
309
=
 40
0.0
 41
2458311.096521678
 42
2458319.339871933
  1

 90
        0
  0
LAYOUT
  5
1E
102
{ACAD_REACTORS
330
1A
102
}
330
1A
100
AcDbPlotSettings
  1

  2
none_device
  4

  6

 40
0.0
 41
0.0
 42
0.0
 43
0.0
 44
0.0
 45
0.0
 46
0.0
 47
0.0
 48
0.0
 49
0.0
140
0.0
141
0.0
142
1.0
143
1.0
 70
   688
 72
     1
 73
     0
 74
     5
  7

 75
    16
147
1.0
148
0.0
149
0.0
100
AcDbLayout
  1
Layout1
 70
     1
 71
     1
 10
0.0
 20
0.0
 11
420.0
 21
297.0
 12
0.0
 22
0.0
 32
0.0
 14
1.000000000000000E+20
 24
1.000000000000000E+20
 34
1.000000000000000E+20
 15
-1.000000000000000E+20
 25
-1.000000000000000E+20
 35
-1.000000000000000E+20
146
0.0
 13
0.0
 23
0.0
 33
0.0
 16
1.0
 26
0.0
 36
0.0
 17
0.0
 27
1.0
 37
0.0
 76
     0
330
1B
  0
LAYOUT
  5
26
102
{ACAD_REACTORS
330
1A
102
}
330
1A
100
AcDbPlotSettings
  1

  2
none_device
  4

  6

 40
0.0
 41
0.0
 42
0.0
 43
0.0
 44
0.0
 45
0.0
 46
0.0
 47
0.0
 48
0.0
 49
0.0
140
0.0
141
0.0
142
1.0
143
1.0
 70
   688
 72
     1
 73
     0
 74
     5
  7

 75
    16
147
1.0
148
0.0
149
0.0
100
AcDbLayout
  1
Layout2
 70
     1
 71
     2
 10
0.0
 20
0.0
 11
0.0
 21
0.0
 12
0.0
 22
0.0
 32
0.0
 14
0.0
 24
0.0
 34
0.0
 15
0.0
 25
0.0
 35
0.0
146
0.0
 13
0.0
 23
0.0
 33
0.0
 16
1.0
 26
0.0
 36
0.0
 17
0.0
 27
1.0
 37
0.0
 76
     0
330
23
  0
LAYOUT
  5
22
102
{ACAD_REACTORS
330
1A
102
}
330
1A
100
AcDbPlotSettings
  1

  2
none_device
  4
ANSI_A_(11.00_x_8.50_Inches)
  6

 40
6.35
 41
19.05
 42
6.35000508
 43
19.05000254
 44
279.4
 45
215.9
 46
106.0880311876865
 47
18.72812411078886
 48
0.0
 49
0.0
140
0.0
141
0.0
142
0.0284893299622408
143
1.0
 70
  1696
 72
     0
 73
     0
 74
     0
  7

 75
     0
147
0.0235690232323232
148
0.0
149
0.0
100
AcDbLayout
  1
Model
 70
     1
 71
     0
 10
0.0
 20
0.0
 11
420.0
 21
297.0
 12
0.0
 22
0.0
 32
0.0
 14
-138.9961328405543
 24
-160.1078096174164
 34
0.0
 15
105.2267950408805
 25
59.00362764387435
 35
0.0
146
0.0
 13
0.0
 23
0.0
 33
0.0
 16
1.0
 26
0.0
 36
0.0
 17
0.0
 27
1.0
 37
0.0
 76
     0
330
1F
331
29
  0
MLINESTYLE
  5
18
102
{ACAD_REACTORS
330
17
102
}
330
17
100
AcDbMlineStyle
  2
Standard
 70
     0
  3

 62
   256
 51
90.0
 52
90.0
 71
     2
 49
0.5
 62
   256
  6
BYLAYER
 49
-0.5
 62
   256
  6
BYLAYER
  0
ACDBPLACEHOLDER
  5
F
102
{ACAD_REACTORS
330
E
102
}
330
E
  0
SCALE
  5
48
102
{ACAD_REACTORS
330
47
102
}
330
47
100
AcDbScale
 70
     0
300
1:1
140
1.0
141
1.0
290
     1
  0
SCALE
  5
49
102
{ACAD_REACTORS
330
47
102
}
330
47
100
AcDbScale
 70
     0
300
1:2
140
1.0
141
2.0
290
     0
  0
SCALE
  5
4A
102
{ACAD_REACTORS
330
47
102
}
330
47
100
AcDbScale
 70
     0
300
1:4
140
1.0
141
4.0
290
     0
  0
SCALE
  5
4B
102
{ACAD_REACTORS
330
47
102
}
330
47
100
AcDbScale
 70
     0
300
1:5
140
1.0
141
5.0
290
     0
  0
SCALE
  5
4C
102
{ACAD_REACTORS
330
47
102
}
330
47
100
AcDbScale
 70
     0
300
1:8
140
1.0
141
8.0
290
     0
  0
SCALE
  5
4D
102
{ACAD_REACTORS
330
47
102
}
330
47
100
AcDbScale
 70
     0
300
1:10
140
1.0
141
10.0
290
     0
  0
SCALE
  5
4E
102
{ACAD_REACTORS
330
47
102
}
330
47
100
AcDbScale
 70
     0
300
1:16
140
1.0
141
16.0
290
     0
  0
SCALE
  5
4F
102
{ACAD_REACTORS
330
47
102
}
330
47
100
AcDbScale
 70
     0
300
1:20
140
1.0
141
20.0
290
     0
  0
SCALE
  5
50
102
{ACAD_REACTORS
330
47
102
}
330
47
100
AcDbScale
 70
     0
300
1:30
140
1.0
141
30.0
290
     0
  0
SCALE
  5
51
102
{ACAD_REACTORS
330
47
102
}
330
47
100
AcDbScale
 70
     0
300
1:40
140
1.0
141
40.0
290
     0
  0
SCALE
  5
52
102
{ACAD_REACTORS
330
47
102
}
330
47
100
AcDbScale
 70
     0
300
1:50
140
1.0
141
50.0
290
     0
  0
SCALE
  5
53
102
{ACAD_REACTORS
330
47
102
}
330
47
100
AcDbScale
 70
     0
300
1:100
140
1.0
141
100.0
290
     0
  0
SCALE
  5
54
102
{ACAD_REACTORS
330
47
102
}
330
47
100
AcDbScale
 70
     0
300
2:1
140
2.0
141
1.0
290
     0
  0
SCALE
  5
55
102
{ACAD_REACTORS
330
47
102
}
330
47
100
AcDbScale
 70
     0
300
4:1
140
4.0
141
1.0
290
     0
  0
SCALE
  5
56
102
{ACAD_REACTORS
330
47
102
}
330
47
100
AcDbScale
 70
     0
300
8:1
140
8.0
141
1.0
290
     0
  0
SCALE
  5
57
102
{ACAD_REACTORS
330
47
102
}
330
47
100
AcDbScale
 70
     0
300
10:1
140
10.0
141
1.0
290
     0
  0
SCALE
  5
58
102
{ACAD_REACTORS
330
47
102
}
330
47
100
AcDbScale
 70
     0
300
100:1
140
100.0
141
1.0
290
     0
  0
SCALE
  5
59
102
{ACAD_REACTORS
330
47
102
}
330
47
100
AcDbScale
 70
     0
300
1/128" = 1'-0"
140
0.0078125
141
12.0
290
     0
  0
SCALE
  5
5A
102
{ACAD_REACTORS
330
47
102
}
330
47
100
AcDbScale
 70
     0
300
1/64" = 1'-0"
140
0.015625
141
12.0
290
     0
  0
SCALE
  5
5B
102
{ACAD_REACTORS
330
47
102
}
330
47
100
AcDbScale
 70
     0
300
1/32" = 1'-0"
140
0.03125
141
12.0
290
     0
  0
SCALE
  5
5C
102
{ACAD_REACTORS
330
47
102
}
330
47
100
AcDbScale
 70
     0
300
1/16" = 1'-0"
140
0.0625
141
12.0
290
     0
  0
SCALE
  5
5D
102
{ACAD_REACTORS
330
47
102
}
330
47
100
AcDbScale
 70
     0
300
3/32" = 1'-0"
140
0.09375
141
12.0
290
     0
  0
SCALE
  5
5E
102
{ACAD_REACTORS
330
47
102
}
330
47
100
AcDbScale
 70
     0
300
1/8" = 1'-0"
140
0.125
141
12.0
290
     0
  0
SCALE
  5
5F
102
{ACAD_REACTORS
330
47
102
}
330
47
100
AcDbScale
 70
     0
300
3/16" = 1'-0"
140
0.1875
141
12.0
290
     0
  0
SCALE
  5
60
102
{ACAD_REACTORS
330
47
102
}
330
47
100
AcDbScale
 70
     0
300
1/4" = 1'-0"
140
0.25
141
12.0
290
     0
  0
SCALE
  5
61
102
{ACAD_REACTORS
330
47
102
}
330
47
100
AcDbScale
 70
     0
300
3/8" = 1'-0"
140
0.375
141
12.0
290
     0
  0
SCALE
  5
62
102
{ACAD_REACTORS
330
47
102
}
330
47
100
AcDbScale
 70
     0
300
1/2" = 1'-0"
140
0.5
141
12.0
290
     0
  0
SCALE
  5
63
102
{ACAD_REACTORS
330
47
102
}
330
47
100
AcDbScale
 70
     0
300
3/4" = 1'-0"
140
0.75
141
12.0
290
     0
  0
SCALE
  5
64
102
{ACAD_REACTORS
330
47
102
}
330
47
100
AcDbScale
 70
     0
300
1" = 1'-0"
140
1.0
141
12.0
290
     0
  0
SCALE
  5
65
102
{ACAD_REACTORS
330
47
102
}
330
47
100
AcDbScale
 70
     0
300
1-1/2" = 1'-0"
140
1.5
141
12.0
290
     0
  0
SCALE
  5
66
102
{ACAD_REACTORS
330
47
102
}
330
47
100
AcDbScale
 70
     0
300
3" = 1'-0"
140
3.0
141
12.0
290
     0
  0
SCALE
  5
67
102
{ACAD_REACTORS
330
47
102
}
330
47
100
AcDbScale
 70
     0
300
6" = 1'-0"
140
6.0
141
12.0
290
     0
  0
SCALE
  5
68
102
{ACAD_REACTORS
330
47
102
}
330
47
100
AcDbScale
 70
     0
300
1'-0" = 1'-0"
140
12.0
141
12.0
290
     0
  0
ENDSEC
  0
EOF
