  0
SECTION
  2
HEADER
  9
$ACADVER
  1
AC1015
  9
$ACADMAINTVER
 70
     6
  9
$DWGCODEPAGE
  3
ANSI_949
  9
$INSBASE
 10
0.0
 20
0.0
 30
0.0
  9
$EXTMIN
 10
1.000000000000000E+20
 20
1.000000000000000E+20
 30
1.000000000000000E+20
  9
$EXTMAX
 10
-1.000000000000000E+20
 20
-1.000000000000000E+20
 30
-1.000000000000000E+20
  9
$LIMMIN
 10
0.0
 20
0.0
  9
$LIMMAX
 10
420.0
 20
297.0
  9
$ORTHOMODE
 70
     1
  9
$REGENMODE
 70
     1
  9
$FILLMODE
 70
     1
  9
$QTEXTMODE
 70
     0
  9
$MIRRTEXT
 70
     1
  9
$LTSCALE
 40
1.0
  9
$ATTMODE
 70
     1
  9
$TEXTSIZE
 40
3.5
  9
$TRACEWID
 40
1.0
  9
$TEXTSTYLE
  7
Standard
  9
$CLAYER
  8
0
  9
$CELTYPE
  6
ByLayer
  9
$CECOLOR
 62
   256
  9
$CELTSCALE
 40
1.0
  9
$DISPSILH
 70
     0
  9
$DIMSCALE
 40
1.0
  9
$DIMASZ
 40
3.302
  9
$DIMEXO
 40
1.0
  9
$DIMDLI
 40
3.75
  9
$DIMRND
 40
0.0
  9
$DIMDLE
 40
0.0
  9
$DIMEXE
 40
1.0
  9
$DIMTP
 40
0.0
  9
$DIMTM
 40
0.0
  9
$DIMTXT
 40
3.5
  9
$DIMCEN
 40
2.5
  9
$DIMTSZ
 40
0.0
  9
$DIMTOL
 70
     0
  9
$DIMLIM
 70
     0
  9
$DIMTIH
 70
     1
  9
$DIMTOH
 70
     1
  9
$DIMSE1
 70
     0
  9
$DIMSE2
 70
     0
  9
$DIMTAD
 70
     1
  9
$DIMZIN
 70
     0
  9
$DIMBLK
  1

  9
$DIMASO
 70
     1
  9
$DIMSHO
 70
     1
  9
$DIMPOST
  1

  9
$DIMAPOST
  1

  9
$DIMALT
 70
     0
  9
$DIMALTD
 70
     3
  9
$DIMALTF
 40
0.0393700787401575
  9
$DIMLFAC
 40
1.0
  9
$DIMTOFL
 70
     1
  9
$DIMTVP
 40
0.0
  9
$DIMTIX
 70
     0
  9
$DIMSOXD
 70
     0
  9
$DIMSAH
 70
     0
  9
$DIMBLK1
  1

  9
$DIMBLK2
  1

  9
$DIMSTYLE
  2
ISO-25
  9
$DIMCLRD
 70
     0
  9
$DIMCLRE
 70
     0
  9
$DIMCLRT
 70
     0
  9
$DIMTFAC
 40
1.0
  9
$DIMGAP
 40
1.524
  9
$DIMJUST
 70
     0
  9
$DIMSD1
 70
     0
  9
$DIMSD2
 70
     0
  9
$DIMTOLJ
 70
     0
  9
$DIMTZIN
 70
     0
  9
$DIMALTZ
 70
     0
  9
$DIMALTTZ
 70
     0
  9
$DIMUPT
 70
     0
  9
$DIMDEC
 70
     2
  9
$DIMTDEC
 70
     2
  9
$DIMALTU
 70
     2
  9
$DIMALTTD
 70
     3
  9
$DIMTXSTY
  7
Standard
  9
$DIMAUNIT
 70
     0
  9
$DIMADEC
 70
     2
  9
$DIMALTRND
 40
0.0
  9
$DIMAZIN
 70
     0
  9
$DIMDSEP
 70
    44
  9
$DIMATFIT
 70
     3
  9
$DIMFRAC
 70
     0
  9
$DIMLDRBLK
  1

  9
$DIMLUNIT
 70
     2
  9
$DIMLWD
 70
    -2
  9
$DIMLWE
 70
    -2
  9
$DIMTMOVE
 70
     0
  9
$LUNITS
 70
     2
  9
$LUPREC
 70
     2
  9
$SKETCHINC
 40
1.0
  9
$FILLETRAD
 40
10.0
  9
$AUNITS
 70
     0
  9
$AUPREC
 70
     2
  9
$MENU
  1
.
  9
$ELEVATION
 40
0.0
  9
$PELEVATION
 40
0.0
  9
$THICKNESS
 40
0.0
  9
$LIMCHECK
 70
     0
  9
$CHAMFERA
 40
0.0
  9
$CHAMFERB
 40
0.0
  9
$CHAMFERC
 40
0.0
  9
$CHAMFERD
 40
0.0
  9
$SKPOLY
 70
     0
  9
$TDCREATE
 40
2458311.471309884
  9
$TDUCREATE
 40
2458311.096309884
  9
$TDUPDATE
 40
2458319.484423553
  9
$TDUUPDATE
 40
2458319.109423553
  9
$TDINDWG
 40
0.0025731944
  9
$TDUSRTIMER
 40
2458319.106850822
  9
$USRTIMER
 70
     1
  9
$ANGBASE
 50
0.0
  9
$ANGDIR
 70
     0
  9
$PDMODE
 70
     0
  9
$PDSIZE
 40
-1.0
  9
$PLINEWID
 40
0.0
  9
$SPLFRAME
 70
     0
  9
$SPLINETYPE
 70
     6
  9
$SPLINESEGS
 70
     8
  9
$HANDSEED
  5
1BC
  9
$SURFTAB1
 70
     6
  9
$SURFTAB2
 70
     6
  9
$SURFTYPE
 70
     6
  9
$SURFU
 70
     6
  9
$SURFV
 70
     6
  9
$UCSBASE
  2

  9
$UCSNAME
  2

  9
$UCSORG
 10
0.0
 20
0.0
 30
0.0
  9
$UCSXDIR
 10
1.0
 20
0.0
 30
0.0
  9
$UCSYDIR
 10
0.0
 20
1.0
 30
0.0
  9
$UCSORTHOREF
  2

  9
$UCSORTHOVIEW
 70
     0
  9
$UCSORGTOP
 10
0.0
 20
0.0
 30
0.0
  9
$UCSORGBOTTOM
 10
0.0
 20
0.0
 30
0.0
  9
$UCSORGLEFT
 10
0.0
 20
0.0
 30
0.0
  9
$UCSORGRIGHT
 10
0.0
 20
0.0
 30
0.0
  9
$UCSORGFRONT
 10
0.0
 20
0.0
 30
0.0
  9
$UCSORGBACK
 10
0.0
 20
0.0
 30
0.0
  9
$PUCSBASE
  2

  9
$PUCSNAME
  2

  9
$PUCSORG
 10
0.0
 20
0.0
 30
0.0
  9
$PUCSXDIR
 10
1.0
 20
0.0
 30
0.0
  9
$PUCSYDIR
 10
0.0
 20
1.0
 30
0.0
  9
$PUCSORTHOREF
  2

  9
$PUCSORTHOVIEW
 70
     0
  9
$PUCSORGTOP
 10
0.0
 20
0.0
 30
0.0
  9
$PUCSORGBOTTOM
 10
0.0
 20
0.0
 30
0.0
  9
$PUCSORGLEFT
 10
0.0
 20
0.0
 30
0.0
  9
$PUCSORGRIGHT
 10
0.0
 20
0.0
 30
0.0
  9
$PUCSORGFRONT
 10
0.0
 20
0.0
 30
0.0
  9
$PUCSORGBACK
 10
0.0
 20
0.0
 30
0.0
  9
$USERI1
 70
     0
  9
$USERI2
 70
     0
  9
$USERI3
 70
     0
  9
$USERI4
 70
     0
  9
$USERI5
 70
     0
  9
$USERR1
 40
0.0
  9
$USERR2
 40
0.0
  9
$USERR3
 40
0.0
  9
$USERR4
 40
0.0
  9
$USERR5
 40
0.0
  9
$WORLDVIEW
 70
     1
  9
$SHADEDGE
 70
     3
  9
$SHADEDIF
 70
    70
  9
$TILEMODE
 70
     1
  9
$MAXACTVP
 70
    64
  9
$PINSBASE
 10
0.0
 20
0.0
 30
0.0
  9
$PLIMCHECK
 70
     0
  9
$PEXTMIN
 10
1.000000000000000E+20
 20
1.000000000000000E+20
 30
1.000000000000000E+20
  9
$PEXTMAX
 10
-1.000000000000000E+20
 20
-1.000000000000000E+20
 30
-1.000000000000000E+20
  9
$PLIMMIN
 10
0.0
 20
0.0
  9
$PLIMMAX
 10
0.0
 20
0.0
  9
$UNITMODE
 70
     0
  9
$VISRETAIN
 70
     1
  9
$PLINEGEN
 70
     0
  9
$PSLTSCALE
 70
     1
  9
$TREEDEPTH
 70
  3020
  9
$CMLSTYLE
  2
Standard
  9
$CMLJUST
 70
     0
  9
$CMLSCALE
 40
20.0
  9
$PROXYGRAPHICS
 70
     1
  9
$MEASUREMENT
 70
     1
  9
$CELWEIGHT
370
    -1
  9
$ENDCAPS
280
     0
  9
$JOINSTYLE
280
     0
  9
$LWDISPLAY
290
     1
  9
$INSUNITS
 70
     4
  9
$HYPERLINKBASE
  1

  9
$STYLESHEET
  1

  9
$XEDIT
290
     1
  9
$CEPSNTYPE
380
     0
  9
$PSTYLEMODE
290
     1
  9
$FINGERPRINTGUID
  2
{5C600DEA-1A90-4A24-8E23-ACF5BC995EE1}
  9
$VERSIONGUID
  2
{FAEB1C32-E019-11D5-929B-00C0DF256EC4}
  9
$EXTNAMES
290
     1
  9
$PSVPSCALE
 40
0.0
  9
$OLESTARTUP
290
     0
  0
ENDSEC
  0
SECTION
  2
CLASSES
  0
CLASS
  1
ACDBDICTIONARYWDFLT
  2
AcDbDictionaryWithDefault
  3
ObjectDBX Classes
 90
        0
280
     0
281
     0
  0
CLASS
  1
VISUALSTYLE
  2
AcDbVisualStyle
  3
ObjectDBX Classes
 90
     4095
280
     0
281
     0
  0
CLASS
  1
MATERIAL
  2
AcDbMaterial
  3
ObjectDBX Classes
 90
     1153
280
     0
281
     0
  0
CLASS
  1
SCALE
  2
AcDbScale
  3
ObjectDBX Classes
 90
     1153
280
     0
281
     0
  0
CLASS
  1
SUN
  2
AcDbSun
  3
SCENEOE
 90
     1153
280
     0
281
     0
  0
CLASS
  1
ACDBPLACEHOLDER
  2
AcDbPlaceHolder
  3
ObjectDBX Classes
 90
        0
280
     0
281
     0
  0
CLASS
  1
LAYOUT
  2
AcDbLayout
  3
ObjectDBX Classes
 90
        0
280
     0
281
     0
  0
CLASS
  1
TABLESTYLE
  2
AcDbTableStyle
  3
ObjectDBX Classes
 90
     4095
280
     0
281
     0
  0
CLASS
  1
MLEADERSTYLE
  2
AcDbMLeaderStyle
  3
ACDB_MLEADERSTYLE_CLASS
 90
     4095
280
     0
281
     0
  0
CLASS
  1
RASTERVARIABLES
  2
AcDbRasterVariables
  3
ISM
 90
        0
280
     0
281
     0
  0
ENDSEC
  0
SECTION
  2
TABLES
  0
TABLE
  2
VPORT
  5
8
330
0
100
AcDbSymbolTable
 70
     1
  0
VPORT
  5
29
330
8
100
AcDbSymbolTableRecord
100
AcDbViewportTableRecord
  2
*Active
 70
     0
 10
0.0
 20
0.0
 11
1.0
 21
1.0
 12
17.86740113142334
 22
-1.014825687592911
 13
0.0
 23
0.0
 14
10.0
 24
10.0
 15
10.0
 25
10.0
 16
0.0
 26
0.0
 36
1.0
 17
0.0
 27
0.0
 37
0.0
 40
135.8943179892897
 41
1.644970414201183
 42
50.0
 43
0.0
 44
0.0
 50
0.0
 51
0.0
 71
    16
 72
  2000
 73
     1
 74
     3
 75
     0
 76
     0
 77
     0
 78
     0
281
     0
 65
     1
110
0.0
120
0.0
130
0.0
111
1.0
121
0.0
131
0.0
112
0.0
122
1.0
132
0.0
 79
     0
146
0.0
  0
ENDTAB
  0
TABLE
  2
LTYPE
  5
5
330
0
100
AcDbSymbolTable
 70
     6
  0
LTYPE
  5
14
330
5
100
AcDbSymbolTableRecord
100
AcDbLinetypeTableRecord
  2
ByBlock
 70
     0
  3

 72
    65
 73
     0
 40
0.0
  0
LTYPE
  5
15
330
5
100
AcDbSymbolTableRecord
100
AcDbLinetypeTableRecord
  2
ByLayer
 70
     0
  3

 72
    65
 73
     0
 40
0.0
  0
LTYPE
  5
16
330
5
100
AcDbSymbolTableRecord
100
AcDbLinetypeTableRecord
  2
Continuous
 70
     0
  3
Solid line
 72
    65
 73
     0
 40
0.0
  0
LTYPE
  5
6A
330
5
100
AcDbSymbolTableRecord
100
AcDbLinetypeTableRecord
  2
HIDDEN
 70
     0
  3
Hidden __ __ __ __ __ __ __ __ __ __ __ __ __ __
 72
    65
 73
     2
 40
1.905
 49
1.27
 74
     0
 49
-0.635
 74
     0
  0
LTYPE
  5
6B
330
5
100
AcDbSymbolTableRecord
100
AcDbLinetypeTableRecord
  2
PHANTOM
 70
     0
  3
Phantom ______  __  __  ______  __  __  ______
 72
    65
 73
     6
 40
12.7
 49
6.35
 74
     0
 49
-1.27
 74
     0
 49
1.27
 74
     0
 49
-1.27
 74
     0
 49
1.27
 74
     0
 49
-1.27
 74
     0
  0
LTYPE
  5
6C
330
5
100
AcDbSymbolTableRecord
100
AcDbLinetypeTableRecord
  2
CENTER
 70
     0
  3
Center ____ _ ____ _ ____ _ ____ _ ____ _ ____
 72
    65
 73
     4
 40
10.16
 49
6.35
 74
     0
 49
-1.27
 74
     0
 49
1.27
 74
     0
 49
-1.27
 74
     0
  0
LTYPE
  5
6D
330
5
100
AcDbSymbolTableRecord
100
AcDbLinetypeTableRecord
  2
CENTERX2
 70
     0
  3
Center (2x) ________  __  ________  __  _____
 72
    65
 73
     4
 40
20.32
 49
12.7
 74
     0
 49
-2.54
 74
     0
 49
2.54
 74
     0
 49
-2.54
 74
     0
  0
LTYPE
  5
6E
330
5
100
AcDbSymbolTableRecord
100
AcDbLinetypeTableRecord
  2
DOT2
 70
     0
  3
Dot (.5x) ........................................
 72
    65
 73
     2
 40
0.635
 49
0.0
 74
     0
 49
-0.635
 74
     0
  0
ENDTAB
  0
TABLE
  2
LAYER
  5
2
102
{ACAD_XDICTIONARY
360
179
102
}
330
0
100
AcDbSymbolTable
 70
    18
  0
LAYER
  5
10
330
2
100
AcDbSymbolTableRecord
100
AcDbLayerTableRecord
  2
0
 70
     0
 62
     7
  6
Continuous
370
    -3
390
F
  0
LAYER
  5
6F
330
2
100
AcDbSymbolTableRecord
100
AcDbLayerTableRecord
  2
FORMAT
 70
     0
 62
     2
  6
Continuous
370
    -3
390
F
  0
LAYER
  5
70
330
2
100
AcDbSymbolTableRecord
100
AcDbLayerTableRecord
  2
외형선
 70
     0
 62
     4
  6
Continuous
370
    30
390
F
  0
LAYER
  5
71
330
2
100
AcDbSymbolTableRecord
100
AcDbLayerTableRecord
  2
숨은선
 70
     0
 62
     2
  6
HIDDEN
370
    15
390
F
  0
LAYER
  5
72
330
2
100
AcDbSymbolTableRecord
100
AcDbLayerTableRecord
  2
중심선
 70
     0
 62
     1
  6
CENTERX2
370
    -3
390
F
  0
LAYER
  5
73
330
2
100
AcDbSymbolTableRecord
100
AcDbLayerTableRecord
  2
파단선
 70
     0
 62
     4
  6
Continuous
370
    -3
390
F
  0
LAYER
  5
74
330
2
100
AcDbSymbolTableRecord
100
AcDbLayerTableRecord
  2
해칭선
 70
     0
 62
   100
  6
Continuous
370
    -3
390
F
  0
LAYER
  5
75
330
2
100
AcDbSymbolTableRecord
100
AcDbLayerTableRecord
  2
가는실선
 70
     0
 62
     4
  6
Continuous
370
    -3
390
F
  0
LAYER
  5
76
330
2
100
AcDbSymbolTableRecord
100
AcDbLayerTableRecord
  2
치수_보조선
 70
     0
 62
     4
  6
Continuous
370
    -3
390
F
  0
LAYER
  5
77
330
2
100
AcDbSymbolTableRecord
100
AcDbLayerTableRecord
  2
치수문자_일반주서
 70
     0
 62
     7
  6
Continuous
370
    15
390
F
  0
LAYER
  5
78
330
2
100
AcDbSymbolTableRecord
100
AcDbLayerTableRecord
  2
개별주서
 70
     0
 62
   100
  6
Continuous
370
    30
390
F
  0
LAYER
  5
79
330
2
100
AcDbSymbolTableRecord
100
AcDbLayerTableRecord
  2
중간선
 70
     0
 62
     2
  6
Continuous
370
    15
390
F
  0
LAYER
  5
7A
330
2
100
AcDbSymbolTableRecord
100
AcDbLayerTableRecord
  2
윤곽선
 70
     0
 62
     3
  6
Continuous
370
    40
390
F
  0
LAYER
  5
7B
330
2
100
AcDbSymbolTableRecord
100
AcDbLayerTableRecord
  2
중심마크
 70
     0
 62
   100
  6
Continuous
370
    30
390
F
  0
LAYER
  5
7C
330
2
100
AcDbSymbolTableRecord
100
AcDbLayerTableRecord
  2
가상선
 70
     0
 62
     4
  6
PHANTOM
370
    -3
390
F
  0
LAYER
  5
7D
330
2
100
AcDbSymbolTableRecord
100
AcDbLayerTableRecord
  2
특수지정선
 70
     0
 62
     5
  6
CENTERX2
370
    60
390
F
  0
LAYER
  5
7E
330
2
100
AcDbSymbolTableRecord
100
AcDbLayerTableRecord
  2
참조1
 70
     0
 62
    -4
  6
Continuous
370
    -3
390
F
  0
LAYER
  5
1B5
330
2
100
AcDbSymbolTableRecord
100
AcDbLayerTableRecord
  2
Defpoints
 70
     0
 62
     7
  6
Continuous
290
     0
370
    -3
390
F
  0
ENDTAB
  0
TABLE
  2
STYLE
  5
3
330
0
100
AcDbSymbolTable
 70
     2
  0
STYLE
  5
11
330
3
100
AcDbSymbolTableRecord
100
AcDbTextStyleTableRecord
  2
Standard
 70
     0
 40
0.0
 41
1.0
 50
0.0
 71
     0
 42
3.5
  3
txt
  4

  0
STYLE
  5
94
330
3
100
AcDbSymbolTableRecord
100
AcDbTextStyleTableRecord
  2
SLDTEXTSTYLE0
 70
     0
 40
0.0
 41
0.75
 50
0.0
 71
     0
 42
3.5
  3
TXT
  4

  0
ENDTAB
  0
TABLE
  2
VIEW
  5
6
330
0
100
AcDbSymbolTable
 70
     0
  0
ENDTAB
  0
TABLE
  2
UCS
  5
7
330
0
100
AcDbSymbolTable
 70
     0
  0
ENDTAB
  0
TABLE
  2
APPID
  5
9
330
0
100
AcDbSymbolTable
 70
     1
  0
APPID
  5
12
330
9
100
AcDbSymbolTableRecord
100
AcDbRegAppTableRecord
  2
ACAD
 70
     0
  0
ENDTAB
  0
TABLE
  2
DIMSTYLE
  5
A
330
0
100
AcDbSymbolTable
 70
     3
100
AcDbDimStyleTable
  0
DIMSTYLE
105
27
330
A
100
AcDbSymbolTableRecord
100
AcDbDimStyleTableRecord
  2
ISO-25
 70
     0
 41
2.5
 42
0.625
 43
3.75
 44
1.25
 73
     0
 74
     0
 77
     1
 78
     8
140
2.5
141
2.5
143
0.03937007874016
147
0.625
171
     3
172
     1
178
     0
271
     2
272
     2
274
     3
278
    44
283
     0
284
     8
340
11
  0
DIMSTYLE
105
D4
102
{ACAD_REACTORS
330
D3
330
10E
330
E6
330
FB
102
}
330
A
100
AcDbSymbolTableRecord
100
AcDbDimStyleTableRecord
  2
SLDDIMSTYLE0
 70
     0
 41
3.302
 44
0.0
 45
0.000000001
 73
     0
 74
     0
 77
     1
 78
    12
 79
     3
140
3.5
143
0.0393700787401575
147
0.875
148
0.000000001
170
     1
173
     1
178
     0
271
     2
272
     2
276
     2
284
    12
340
94
  0
DIMSTYLE
105
E7
330
A
100
AcDbSymbolTableRecord
100
AcDbDimStyleTableRecord
  2
SLDDIMSTYLE1
 70
     0
 41
3.302
 44
0.0
 45
0.000000001
 73
     0
 74
     0
 77
     1
 78
     4
 79
     1
140
3.5
143
0.0393700787401575
147
0.875
148
0.000000001
170
     1
173
     1
178
     0
271
     2
272
     2
276
     2
284
    12
340
94
  0
ENDTAB
  0
TABLE
  2
BLOCK_RECORD
  5
1
330
0
100
AcDbSymbolTable
 70
     9
  0
BLOCK_RECORD
  5
1F
330
1
100
AcDbSymbolTableRecord
100
AcDbBlockTableRecord
  2
*Model_Space
340
22
  0
BLOCK_RECORD
  5
1B
330
1
100
AcDbSymbolTableRecord
100
AcDbBlockTableRecord
  2
*Paper_Space
340
1E
  0
BLOCK_RECORD
  5
23
330
1
100
AcDbSymbolTableRecord
100
AcDbBlockTableRecord
  2
*Paper_Space0
340
26
  0
BLOCK_RECORD
  5
7F
330
1
100
AcDbSymbolTableRecord
100
AcDbBlockTableRecord
  2
블럭10
340
0
102
{BLKREFS
331
CC
102
}
  0
BLOCK_RECORD
  5
D5
330
1
100
AcDbSymbolTableRecord
100
AcDbBlockTableRecord
  2
_D
340
0
  0
BLOCK_RECORD
  5
E8
330
1
100
AcDbSymbolTableRecord
100
AcDbBlockTableRecord
  2
_D_1
340
0
  0
BLOCK_RECORD
  5
FC
330
1
100
AcDbSymbolTableRecord
100
AcDbBlockTableRecord
  2
_D_2
340
0
  0
BLOCK_RECORD
  5
10F
330
1
100
AcDbSymbolTableRecord
100
AcDbBlockTableRecord
  2
_D_3
340
0
  0
BLOCK_RECORD
  5
128
330
1
100
AcDbSymbolTableRecord
100
AcDbBlockTableRecord
  2
SW_DOWELSYMBOL_0
340
0
102
{BLKREFS
331
12E
102
}
  0
ENDTAB
  0
ENDSEC
  0
SECTION
  2
BLOCKS
  0
BLOCK
  5
20
330
1F
100
AcDbEntity
  8
0
100
AcDbBlockBegin
  2
*Model_Space
 70
     0
 10
0.0
 20
0.0
 30
0.0
  3
*Model_Space
  1
*Model_Space
  0
ENDBLK
  5
21
330
1F
100
AcDbEntity
  8
0
100
AcDbBlockEnd
  0
BLOCK
  5
1C
330
1B
100
AcDbEntity
 67
     1
  8
0
100
AcDbBlockBegin
  2
*Paper_Space
 70
     0
 10
0.0
 20
0.0
 30
0.0
  3
*Paper_Space
  1
*Paper_Space
  0
ENDBLK
  5
1D
330
1B
100
AcDbEntity
 67
     1
  8
0
100
AcDbBlockEnd
  0
BLOCK
  5
24
330
23
100
AcDbEntity
  8
0
100
AcDbBlockBegin
  2
*Paper_Space0
 70
     0
 10
0.0
 20
0.0
 30
0.0
  3
*Paper_Space0
  1
*Paper_Space0
  0
ENDBLK
  5
25
330
23
100
AcDbEntity
  8
0
100
AcDbBlockEnd
  0
BLOCK
  5
80
330
7F
100
AcDbEntity
  8
0
100
AcDbBlockBegin
  2
블럭10
 70
     2
 10
0.0
 20
0.0
 30
0.0
  3
블럭10
  1
블럭10
  0
ELLIPSE
  5
82
330
7F
100
AcDbEntity
  8
중심선
100
AcDbEllipse
 10
20.54032771741204
 20
12.0471743016438
 30
0.0
 11
6.600054785286829
 21
-1.261213355974178E-13
 31
0.0
210
0.0
220
0.0
230
1.0
 40
0.636358354079598
 41
0.9219305317359503
 42
6.513795318482858
  0
ELLIPSE
  5
83
330
7F
100
AcDbEntity
  8
중심선
100
AcDbEllipse
 10
20.54032771746488
 20
12.04717430159265
 30
0.0
 11
3.960054785062283
 21
1.540847449632565E-10
 31
0.0
210
0.0
220
0.0
230
1.0
 40
0.3939339440162632
 41
1.131841032648279
 42
5.62031148352944
  0
LINE
  5
84
330
7F
100
AcDbEntity
  8
중심선
100
AcDbLine
 10
2.268634060543552
 20
16.24717430164393
 30
0.0
 11
5.714909304380834
 21
16.24717430164393
 31
0.0
  0
LINE
  5
85
330
7F
100
AcDbEntity
  8
중심선
100
AcDbLine
 10
5.245725140726316
 20
7.84717430164391
 30
0.0
 11
8.692000384563599
 21
7.84717430164391
 31
0.0
  0
LINE
  5
86
330
7F
100
AcDbEntity
  8
중심선
100
AcDbLine
 10
15.74043728645272
 20
16.24717430164393
 30
0.0
 11
8.692000384563599
 21
7.84717430164391
 31
0.0
  0
LINE
  5
87
330
7F
100
AcDbEntity
  8
중심선
100
AcDbLine
 10
0.1404042013395286
 20
13.71084872107135
 30
0.0
 11
3.58671253028996
 21
13.71088815037384
 31
0.0
  0
LINE
  5
88
330
7F
100
AcDbEntity
  8
중심선
100
AcDbLine
 10
2.750260043222114
 20
10.84717430164391
 30
0.0
 11
6.196535287059397
 21
10.84717430164391
 31
0.0
  0
LINE
  5
89
330
7F
100
AcDbEntity
  8
중심선
100
AcDbLine
 10
12.29416204261559
 20
16.24717430164393
 30
0.0
 11
5.245725140726316
 21
7.84717430164391
 31
0.0
  0
LINE
  5
8A
330
7F
100
AcDbEntity
  8
중심선
100
AcDbLine
 10
10.72767329541681
 20
16.24717430164393
 30
0.0
 11
6.196535287059397
 21
10.84717430164391
 31
0.0
  0
LINE
  5
8B
330
7F
100
AcDbEntity
  8
중심선
100
AcDbLine
 10
7.28139805157953
 20
16.24717430164393
 30
0.0
 11
2.750260043222114
 21
10.84717430164391
 31
0.0
  0
LINE
  5
8C
330
7F
100
AcDbEntity
  8
중심선
100
AcDbLine
 10
5.714909304380834
 20
16.24717430164393
 30
0.0
 11
3.58671253028996
 21
13.71088815037384
 31
0.0
  0
LINE
  5
8D
330
7F
100
AcDbEntity
  8
중심선
100
AcDbLine
 10
2.268634060543552
 20
16.24717430164393
 30
0.0
 11
0.1404042013395286
 21
13.71084872107135
 31
0.0
  0
LINE
  5
8E
330
7F
100
AcDbEntity
  8
중심선
100
AcDbLine
 10
7.28139805157953
 20
16.24717430164393
 30
0.0
 11
10.72767329541681
 21
16.24717430164393
 31
0.0
  0
LINE
  5
8F
330
7F
100
AcDbEntity
  8
중심선
100
AcDbLine
 10
12.29416204261559
 20
16.24717430164393
 30
0.0
 11
15.74043728645272
 21
16.24717430164393
 31
0.0
  0
LINE
  5
90
330
7F
100
AcDbEntity
  8
중심선
100
AcDbLine
 10
19.22036997980202
 20
11.08717430171403
 30
0.0
 11
23.66174974927406
 21
11.08717430171406
 31
0.0
  0
LINE
  5
91
330
7F
100
AcDbEntity
  8
중심선
100
AcDbLine
 10
19.22039502424796
 20
13.00717430171391
 30
0.0
 11
19.22036997980202
 21
11.08717430171403
 31
0.0
  0
LINE
  5
92
330
7F
100
AcDbEntity
  8
중심선
100
AcDbLine
 10
19.22039502424796
 20
13.00717430171391
 30
0.0
 11
26.96566020931264
 21
13.00717430171391
 31
0.0
  0
LINE
  5
93
330
7F
100
AcDbEntity
  8
중심선
100
AcDbLine
 10
22.22332737316547
 20
13.45928029700563
 30
0.0
 11
24.52862924686651
 21
15.39360700705356
 31
0.0
  0
ATTDEF
  5
95
330
7F
100
AcDbEntity
  8
FORMAT
 62
     2
100
AcDbText
 10
4.408487351596664
 20
2.075366912832191
 30
0.0
 40
4.233333333333333
  1
E1080116
 41
0.75
  7
SLDTEXTSTYLE0
 11
4.408487351596664
 21
-0.0412997538344756
 31
0.0
100
AcDbAttributeDefinition
  3

  2
AUTOATTR0
 70
     0
 74
     1
  0
ENDBLK
  5
81
330
7F
100
AcDbEntity
  8
0
100
AcDbBlockEnd
  0
BLOCK
  5
D6
330
D5
100
AcDbEntity
  8
0
100
AcDbBlockBegin
  2
_D
 70
     0
 10
0.0
 20
0.0
 30
0.0
  3
_D
  1
_D
  0
LINE
  5
D8
330
D5
100
AcDbEntity
  8
치수문자_일반주서
 62
     0
370
    -2
100
AcDbLine
 10
-50.56249999999999
 20
15.8760749287239
 30
0.0
 11
-64.00000000000006
 21
15.87607492872385
 31
0.0
  0
LINE
  5
D9
330
D5
100
AcDbEntity
  8
치수문자_일반주서
 62
     0
370
    -2
100
AcDbLine
 10
-50.56249999999999
 20
-15.8739250712761
 30
0.0
 11
-63.99999999999994
 21
-15.87392507127615
 31
0.0
  0
LINE
  5
DA
330
D5
100
AcDbEntity
  8
치수문자_일반주서
 62
     0
370
    -2
100
AcDbLine
 10
-64.00000000000004
 20
12.57407492872385
 30
0.0
 11
-63.99999999999996
 21
-12.57192507127615
 31
0.0
  0
SOLID
  5
DB
330
D5
100
AcDbEntity
  8
치수문자_일반주서
 62
     0
100
AcDbTrace
 10
-63.44966666666671
 20
12.57407492872385
 30
0.0
 11
-64.55033333333337
 21
12.57407492872384
 31
0.0
 12
-64.00000000000006
 22
15.87607492872385
 32
0.0
 13
-64.00000000000006
 23
15.87607492872385
 33
0.0
  0
SOLID
  5
DC
330
D5
100
AcDbEntity
  8
치수문자_일반주서
 62
     0
100
AcDbTrace
 10
-64.55033333333328
 20
-12.57192507127616
 30
0.0
 11
-63.44966666666662
 21
-12.57192507127615
 31
0.0
 12
-63.99999999999994
 22
-15.87392507127615
 32
0.0
 13
-63.99999999999994
 23
-15.87392507127615
 33
0.0
  0
MTEXT
  5
DD
330
D5
100
AcDbEntity
  8
치수문자_일반주서
 62
     0
100
AcDbMText
 10
-68.375
 20
0.001074928723889
 30
0.0
 40
3.5
 41
0.0
 71
     2
 72
     1
  1
\A1;%%c31.75 [1 1/4]
  7
SLDTEXTSTYLE0
 11
-3.580687802255623E-15
 21
1.0
 31
0.0
 73
     1
 44
1.0
  0
POINT
  5
DE
330
D5
100
AcDbEntity
  8
Defpoints
 62
     0
100
AcDbPoint
 10
-50.49999999999999
 20
15.8760749287239
 30
0.0
  0
POINT
  5
DF
330
D5
100
AcDbEntity
  8
Defpoints
 62
     0
100
AcDbPoint
 10
-50.49999999999999
 20
-15.8739250712761
 30
0.0
  0
POINT
  5
E0
330
D5
100
AcDbEntity
  8
Defpoints
 62
     0
100
AcDbPoint
 10
-63.99999999999994
 20
-15.87392507127615
 30
0.0
  0
ENDBLK
  5
D7
330
D5
100
AcDbEntity
  8
0
100
AcDbBlockEnd
  0
BLOCK
  5
E9
330
E8
100
AcDbEntity
  8
0
100
AcDbBlockBegin
  2
_D_1
 70
     0
 10
0.0
 20
0.0
 30
0.0
  3
_D_1
  1
_D_1
  0
LINE
  5
EB
330
E8
100
AcDbEntity
  8
치수문자_일반주서
 62
     0
370
    -2
100
AcDbLine
 10
88.20000000000003
 20
15.93857492872391
 30
0.0
 11
88.20000000000002
 21
24.93932004498688
 31
0.0
  0
LINE
  5
EC
330
E8
100
AcDbEntity
  8
치수문자_일반주서
 62
     0
370
    -2
100
AcDbLine
 10
12.00000000000001
 20
15.91921050049978
 30
0.0
 11
11.99999999999999
 21
24.93932004498688
 31
0.0
  0
LINE
  5
ED
330
E8
100
AcDbEntity
  8
치수문자_일반주서
 62
     0
370
    -2
100
AcDbLine
 10
84.89800000000002
 20
24.93932004498688
 30
0.0
 11
15.30199999999999
 21
24.93932004498688
 31
0.0
  0
SOLID
  5
EE
330
E8
100
AcDbEntity
  8
치수문자_일반주서
 62
     0
100
AcDbTrace
 10
84.89800000000002
 20
24.38898671165354
 30
0.0
 11
84.89800000000002
 21
25.48965337832021
 31
0.0
 12
88.20000000000002
 22
24.93932004498688
 32
0.0
 13
88.20000000000002
 23
24.93932004498688
 33
0.0
  0
SOLID
  5
EF
330
E8
100
AcDbEntity
  8
치수문자_일반주서
 62
     0
100
AcDbTrace
 10
15.30199999999999
 20
25.48965337832021
 30
0.0
 11
15.30199999999999
 21
24.38898671165354
 31
0.0
 12
11.99999999999999
 22
24.93932004498688
 32
0.0
 13
11.99999999999999
 23
24.93932004498688
 33
0.0
  0
MTEXT
  5
F0
330
E8
100
AcDbEntity
  8
치수문자_일반주서
 62
     0
100
AcDbMText
 10
50.57889755269285
 20
29.31432004498688
 30
0.0
 40
3.5
 41
0.0
 71
     2
 72
     1
  1
\A1;76.2 [3]
  7
SLDTEXTSTYLE0
 73
     1
 44
1.0
  0
POINT
  5
F1
330
E8
100
AcDbEntity
  8
Defpoints
 62
     0
100
AcDbPoint
 10
88.20000000000003
 20
15.87607492872391
 30
0.0
  0
POINT
  5
F2
330
E8
100
AcDbEntity
  8
Defpoints
 62
     0
100
AcDbPoint
 10
12.00000000000001
 20
15.85671050049978
 30
0.0
  0
POINT
  5
F3
330
E8
100
AcDbEntity
  8
Defpoints
 62
     0
100
AcDbPoint
 10
12.00000000000001
 20
24.93932004498688
 30
0.0
  0
ENDBLK
  5
EA
330
E8
100
AcDbEntity
  8
0
100
AcDbBlockEnd
  0
BLOCK
  5
FD
330
FC
100
AcDbEntity
  8
0
100
AcDbBlockBegin
  2
_D_2
 70
     0
 10
0.0
 20
0.0
 30
0.0
  3
_D_2
  1
_D_2
  0
LINE
  5
FF
330
FC
100
AcDbEntity
  8
치수문자_일반주서
 62
     0
370
    -2
100
AcDbLine
 10
88.20000000000003
 20
15.93857492872391
 30
0.0
 11
88.20000000000002
 21
45.59104079316441
 31
0.0
  0
LINE
  5
100
330
FC
100
AcDbEntity
  8
치수문자_일반주서
 62
     0
370
    -2
100
AcDbLine
 10
-51.49999999999997
 20
14.93857492872388
 30
0.0
 11
-51.49999999999999
 21
45.59104079316441
 31
0.0
  0
LINE
  5
101
330
FC
100
AcDbEntity
  8
치수문자_일반주서
 62
     0
370
    -2
100
AcDbLine
 10
84.89800000000002
 20
45.59104079316441
 30
0.0
 11
-48.19799999999999
 21
45.59104079316441
 31
0.0
  0
SOLID
  5
102
330
FC
100
AcDbEntity
  8
치수문자_일반주서
 62
     0
100
AcDbTrace
 10
84.89800000000002
 20
45.04070745983108
 30
0.0
 11
84.89800000000002
 21
46.14137412649774
 31
0.0
 12
88.20000000000002
 22
45.59104079316441
 32
0.0
 13
88.20000000000002
 23
45.59104079316441
 33
0.0
  0
SOLID
  5
103
330
FC
100
AcDbEntity
  8
치수문자_일반주서
 62
     0
100
AcDbTrace
 10
-48.19799999999999
 20
46.14137412649774
 30
0.0
 11
-48.19799999999999
 21
45.04070745983108
 31
0.0
 12
-51.49999999999999
 22
45.59104079316441
 32
0.0
 13
-51.49999999999999
 23
45.59104079316441
 33
0.0
  0
MTEXT
  5
104
330
FC
100
AcDbEntity
  8
치수문자_일반주서
 62
     0
100
AcDbMText
 10
18.35000000000002
 20
49.96604079316441
 30
0.0
 40
3.5
 41
0.0
 71
     2
 72
     1
  1
\A1;139.7 [5 1/2]
  7
SLDTEXTSTYLE0
 73
     1
 44
1.0
  0
POINT
  5
105
330
FC
100
AcDbEntity
  8
Defpoints
 62
     0
100
AcDbPoint
 10
88.20000000000003
 20
15.87607492872391
 30
0.0
  0
POINT
  5
106
330
FC
100
AcDbEntity
  8
Defpoints
 62
     0
100
AcDbPoint
 10
-51.49999999999997
 20
14.87607492872388
 30
0.0
  0
POINT
  5
107
330
FC
100
AcDbEntity
  8
Defpoints
 62
     0
100
AcDbPoint
 10
-51.49999999999997
 20
45.59104079316441
 30
0.0
  0
ENDBLK
  5
FE
330
FC
100
AcDbEntity
  8
0
100
AcDbBlockEnd
  0
BLOCK
  5
110
330
10F
100
AcDbEntity
  8
0
100
AcDbBlockBegin
  2
_D_3
 70
     0
 10
0.0
 20
0.0
 30
0.0
  3
_D_3
  1
_D_3
  0
LINE
  5
112
330
10F
100
AcDbEntity
  8
치수문자_일반주서
 62
     0
370
    -2
100
AcDbLine
 10
88.26250000000003
 20
-15.87392507127609
 30
0.0
 11
108.1647848909799
 21
-15.87392507127603
 31
0.0
  0
LINE
  5
113
330
10F
100
AcDbEntity
  8
치수문자_일반주서
 62
     0
370
    -2
100
AcDbLine
 10
88.26250000000003
 20
15.87607492872391
 30
0.0
 11
108.1647848909798
 21
15.87607492872398
 31
0.0
  0
LINE
  5
114
330
10F
100
AcDbEntity
  8
치수문자_일반주서
 62
     0
370
    -2
100
AcDbLine
 10
108.1647848909798
 20
15.87607492872398
 30
0.0
 11
108.1647848909797
 21
50.67807492872399
 31
0.0
  0
LINE
  5
115
330
10F
100
AcDbEntity
  8
치수문자_일반주서
 62
     0
370
    -2
100
AcDbLine
 10
108.1647848909799
 20
-12.57192507127603
 30
0.0
 11
108.1647848909798
 21
12.57407492872398
 31
0.0
  0
SOLID
  5
116
330
10F
100
AcDbEntity
  8
치수문자_일반주서
 62
     0
100
AcDbTrace
 10
107.6144515576466
 20
-12.57192507127603
 30
0.0
 11
108.7151182243133
 21
-12.57192507127603
 31
0.0
 12
108.1647848909799
 22
-15.87392507127603
 32
0.0
 13
108.1647848909799
 23
-15.87392507127603
 33
0.0
  0
SOLID
  5
117
330
10F
100
AcDbEntity
  8
치수문자_일반주서
 62
     0
100
AcDbTrace
 10
108.7151182243132
 20
12.57407492872399
 30
0.0
 11
107.6144515576465
 21
12.57407492872398
 31
0.0
 12
108.1647848909798
 22
15.87607492872398
 32
0.0
 13
108.1647848909798
 23
15.87607492872398
 33
0.0
  0
MTEXT
  5
118
330
10F
100
AcDbEntity
  8
치수문자_일반주서
 62
     0
100
AcDbMText
 10
103.7897848909798
 20
34.92807492872397
 30
0.0
 40
3.5
 41
0.0
 71
     2
 72
     1
  1
\A1;%%c31.75 [1 1/4]
  7
SLDTEXTSTYLE0
 11
-3.580687802255623E-15
 21
1.0
 31
0.0
 73
     1
 44
1.0
  0
POINT
  5
119
330
10F
100
AcDbEntity
  8
Defpoints
 62
     0
100
AcDbPoint
 10
88.20000000000003
 20
-15.87392507127609
 30
0.0
  0
POINT
  5
11A
330
10F
100
AcDbEntity
  8
Defpoints
 62
     0
100
AcDbPoint
 10
88.20000000000003
 20
15.87607492872391
 30
0.0
  0
POINT
  5
11B
330
10F
100
AcDbEntity
  8
Defpoints
 62
     0
100
AcDbPoint
 10
108.1647848909798
 20
15.87607492872398
 30
0.0
  0
ENDBLK
  5
111
330
10F
100
AcDbEntity
  8
0
100
AcDbBlockEnd
  0
BLOCK
  5
129
330
128
100
AcDbEntity
  8
0
100
AcDbBlockBegin
  2
SW_DOWELSYMBOL_0
 70
     0
 10
0.0
 20
0.0
 30
0.0
  3
SW_DOWELSYMBOL_0
  1
SW_DOWELSYMBOL_0
  0
CIRCLE
  5
12B
330
128
100
AcDbEntity
  8
해칭선
 62
     0
100
AcDbCircle
 10
0.0
 20
0.0
 30
0.0
 40
2.999999999999996
  0
HATCH
  5
12C
330
128
100
AcDbEntity
  8
0
  6
Continuous
 62
     0
370
     0
100
AcDbHatch
 10
0.0
 20
0.0
 30
0.0
210
0.0
220
0.0
230
1.0
  2
SOLID
 70
     1
 71
     0
 91
        1
 92
        0
 93
        3
 72
     2
 10
0.0
 20
0.0
 40
2.999999999999996
 50
0.0
 51
90.0
 73
     1
 72
     1
 10
0.0
 20
2.999999999999996
 11
0.0
 21
0.0
 72
     1
 10
0.0
 20
0.0
 11
2.999999999999996
 21
0.0
 97
        0
 75
     0
 76
     1
 98
        1
 10
0.0
 20
0.0
  0
HATCH
  5
12D
330
128
100
AcDbEntity
  8
0
  6
Continuous
 62
     0
370
     0
100
AcDbHatch
 10
0.0
 20
0.0
 30
0.0
210
0.0
220
0.0
230
1.0
  2
SOLID
 70
     1
 71
     0
 91
        1
 92
        0
 93
        3
 72
     2
 10
0.0
 20
0.0
 40
2.999999999999996
 50
180.0
 51
270.0000000000008
 73
     1
 72
     1
 10
0.0
 20
-2.999999999999996
 11
0.0
 21
0.0
 72
     1
 10
0.0
 20
0.0
 11
-2.999999999999996
 21
0.0
 97
        0
 75
     0
 76
     1
 98
        1
 10
0.0
 20
0.0
  0
ENDBLK
  5
12A
330
128
100
AcDbEntity
  8
0
100
AcDbBlockEnd
  0
ENDSEC
  0
SECTION
  2
ENTITIES
  0
LINE
  5
96
330
1F
100
AcDbEntity
  8
외형선
  6
Continuous
370
    15
100
AcDbLine
 10
10.64239996958811
 20
15.8760749287239
 30
0.0
 11
-12.58732499999997
 21
15.87607492872389
 31
0.0
  0
LINE
  5
97
330
1F
100
AcDbEntity
  8
외형선
  6
Continuous
370
    15
100
AcDbLine
 10
-50.49999999999997
 20
-15.87392507127611
 30
0.0
 11
10.64239996958817
 21
-15.8739250712761
 31
0.0
  0
LINE
  5
99
330
1F
100
AcDbEntity
  8
외형선
  6
Continuous
370
    15
100
AcDbLine
 10
-51.49999999999997
 20
-14.8739250712761
 30
0.0
 11
-50.49999999999997
 21
-15.8739250712761
 31
0.0
  0
LINE
  5
9A
330
1F
100
AcDbEntity
  8
0
  6
Continuous
 62
     1
370
    15
100
AcDbLine
 10
38.24117645301091
 20
4.498823786261041
 30
0.0
 11
38.12067904651329
 21
4.565154670427648
 31
0.0
  0
SPLINE
  5
9B
330
1F
100
AcDbEntity
  8
0
  6
Continuous
 62
     1
370
    15
100
AcDbSpline
210
0.0
220
0.0
230
1.0
 70
     8
 71
     3
 72
    17
 73
    13
 74
     0
 42
0.000000001
 43
0.00000001
 40
0.0
 40
0.0
 40
0.0
 40
0.0
 40
0.1603820185673669
 40
0.2751328198023368
 40
0.3668408113262281
 40
0.4715143610027124
 40
0.5770277762869179
 40
0.660177423550081
 40
0.706717708738085
 40
0.7788132960638833
 40
0.8765717736001862
 40
1.0
 40
1.0
 40
1.0
 40
1.0
 10
47.07126523617745
 20
4.069046398541931
 30
0.0
 10
46.84038061975323
 20
4.177651789404974
 30
0.0
 10
46.44430170683511
 20
4.363962622132978
 30
0.0
 10
45.90498144558411
 20
4.624299424493246
 30
0.0
 10
45.438826302319
 20
4.852456097230595
 30
0.0
 10
44.9944950264352
 20
5.073097824112841
 30
0.0
 10
44.56414836464297
 20
5.289607154484029
 30
0.0
 10
44.22042473187811
 20
5.464317737730457
 30
0.0
 10
43.92521126312732
 20
5.615450834583728
 30
0.0
 10
43.60704712018622
 20
5.779431308501591
 30
0.0
 10
43.17551348522602
 20
6.003726151825144
 30
0.0
 10
42.84968782374605
 20
6.175725623913434
 30
0.0
 10
42.66786819898401
 20
6.271706030528173
 30
0.0
  0
SPLINE
  5
9C
330
1F
100
AcDbEntity
  8
0
  6
Continuous
 62
     1
370
    15
100
AcDbSpline
210
0.0
220
0.0
230
1.0
 70
     8
 71
     3
 72
    23
 73
    19
 74
     0
 42
0.000000001
 43
0.00000001
 40
0.0
 40
0.0
 40
0.0
 40
0.0
 40
0.108681224939805
 40
0.1995953195681352
 40
0.2741700801870396
 40
0.332923587961382
 40
0.3765735075304179
 40
0.420219941135957
 40
0.472340149807809
 40
0.5197357017620724
 40
0.575327747067637
 40
0.6395364162259476
 40
0.711670496692134
 40
0.7755278876115427
 40
0.8241232186768254
 40
0.8654048181505787
 40
0.9370621494845037
 40
0.9999999999999999
 40
0.9999999999999999
 40
0.9999999999999999
 40
0.9999999999999999
 10
41.82306281862837
 20
12.61596809705151
 30
0.0
 10
41.36716091964152
 20
12.59249375331495
 30
0.0
 10
40.52988764387196
 20
12.54938263506666
 30
0.0
 10
39.34201628581877
 20
12.50138455938358
 30
0.0
 10
38.35693775825656
 20
12.46922449199798
 30
0.0
 10
37.57942141836823
 20
12.44721519498425
 30
0.0
 10
36.95341201573994
 20
12.43276442339516
 30
0.0
 10
36.36212722271823
 20
12.4212291782746
 30
0.0
 10
35.74569278837868
 20
12.41161360411247
 30
0.0
 10
35.0759619809013
 20
12.40409708536024
 30
0.0
 10
34.35395343097558
 20
12.39920949983756
 30
0.0
 10
33.52521644982976
 20
12.39790207288194
 30
0.0
 10
32.66093482549017
 20
12.40163575803754
 30
0.0
 10
31.86432055799852
 20
12.40980923762586
 30
0.0
 10
31.20070550235259
 20
12.41981529252772
 30
0.0
 10
30.50319260504315
 20
12.43313633566889
 30
0.0
 10
29.74388583227141
 20
12.45071006094532
 30
0.0
 10
29.16281089347855
 20
12.46918088699446
 30
0.0
 10
28.8910953154502
 20
12.47781800217797
 30
0.0
  0
SPLINE
  5
9D
330
1F
100
AcDbEntity
  8
0
  6
Continuous
 62
     1
370
    15
100
AcDbSpline
210
0.0
220
0.0
230
1.0
 70
     8
 71
     3
 72
    38
 73
    34
 74
     0
 42
0.000000001
 43
0.00000001
 40
0.0
 40
0.0
 40
0.0
 40
0.0
 40
0.0477728072927037
 40
0.090102578186421
 40
0.1280900539014637
 40
0.162310563640604
 40
0.1930588098944089
 40
0.2217128902611176
 40
0.2527516360267076
 40
0.2871028652195159
 40
0.3204011380771348
 40
0.3491682938075535
 40
0.3778302723330682
 40
0.4072293187253264
 40
0.4418207589930681
 40
0.4843063487627041
 40
0.5182968119239608
 40
0.5439451199043959
 40
0.5611589174590683
 40
0.5790317138105587
 40
0.6017828412237324
 40
0.6388998259660447
 40
0.6764891503526568
 40
0.7090960637709615
 40
0.7412508697992539
 40
0.7757547005599932
 40
0.8127937850856674
 40
0.8309660670569129
 40
0.8490938090212528
 40
0.8734679649310033
 40
0.9067211167485597
 40
0.9489330393315271
 40
1.0
 40
1.0
 40
1.0
 40
1.0
 10
82.30158793072033
 20
10.85882246563068
 30
0.0
 10
81.88153977150479
 20
10.82360110491744
 30
0.0
 10
81.08930200586776
 20
10.75717135989424
 30
0.0
 10
79.89300201951535
 20
10.67423529513293
 30
0.0
 10
78.79561297912348
 20
10.61056195247956
 30
0.0
 10
77.81331977556648
 20
10.55903395341874
 30
0.0
 10
76.93062722484095
 20
10.52211721978855
 30
0.0
 10
76.15217699345112
 20
10.49773207942606
 30
0.0
 10
75.30603528051911
 20
10.47473588628904
 30
0.0
 10
74.3918379540687
 20
10.45763192054609
 30
0.0
 10
73.4983701370359
 20
10.44873209986736
 30
0.0
 10
72.65814467708161
 20
10.44707074322629
 30
0.0
 10
71.85383051946133
 20
10.45142184908303
 30
0.0
 10
70.99549304392862
 20
10.46250098644417
 30
0.0
 10
70.009250604103
 20
10.48339398182548
 30
0.0
 10
68.98027974085974
 20
10.51530083826737
 30
0.0
 10
68.03418383104227
 20
10.55384782917429
 30
0.0
 10
67.3222295877238
 20
10.5882632174472
 30
0.0
 10
66.75948532262483
 20
10.61855096499623
 30
0.0
 10
66.22368984476196
 20
10.64979645952393
 30
0.0
 10
65.5033951764858
 20
10.69539750923556
 30
0.0
 10
64.60010076475479
 20
10.75924619702115
 30
0.0
 10
63.60540450034792
 20
10.83867725145717
 30
0.0
 10
62.65704186859642
 20
10.92258785675389
 30
0.0
 10
61.73801426279817
 20
11.01127086967073
 30
0.0
 10
60.77813069822952
 20
11.11123743957722
 30
0.0
 10
59.94740738302856
 20
11.2046062346184
 30
0.0
 10
59.26689553196711
 20
11.28542176088392
 30
0.0
 10
58.70284142242748
 20
11.35477391786661
 30
0.0
 10
58.00090516376873
 20
11.44454394375336
 30
0.0
 10
57.0768243289391
 20
11.56886260638235
 30
0.0
 10
55.90533338882035
 20
11.73479776847082
 30
0.0
 10
55.04089677135347
 20
11.86819741936259
 30
0.0
 10
54.56764763708182
 20
11.94122911193673
 30
0.0
  0
SPLINE
  5
9E
330
1F
100
AcDbEntity
  8
0
  6
Continuous
 62
     1
370
    15
100
AcDbSpline
210
0.0
220
0.0
230
1.0
 70
     8
 71
     3
 72
    21
 73
    17
 74
     0
 42
0.000000001
 43
0.00000001
 40
0.0
 40
0.0
 40
0.0
 40
0.0
 40
0.1203317696147636
 40
0.2197979465079931
 40
0.2981540999014191
 40
0.375912622929359
 40
0.4385328830907985
 40
0.5027460874640521
 40
0.56525502372223
 40
0.6230274745561829
 40
0.6782779119633673
 40
0.7406353845990773
 40
0.8111976506290253
 40
0.9072161466976425
 40
0.9858779963567622
 40
1.0
 40
1.0
 40
1.0
 40
1.0
 10
54.56764763708182
 20
-11.93907925448895
 30
0.0
 10
55.04088790120794
 20
-11.86604861318116
 30
0.0
 10
55.9053083164717
 20
-11.73265088253197
 30
0.0
 10
57.07689771429318
 20
-11.56670405149504
 30
0.0
 10
58.08052756029734
 20
-11.43167892238264
 30
0.0
 10
58.94173420278854
 20
-11.32240300349487
 30
0.0
 10
59.74826576929753
 20
-11.22563522456353
 30
0.0
 10
60.4925761226295
 20
-11.14095504501168
 30
0.0
 10
61.21728363893077
 20
-11.06298630084814
 30
0.0
 10
61.90691002209422
 20
-10.992860336442
 30
0.0
 10
62.59599726239566
 20
-10.92658233586734
 30
0.0
 10
63.33584931278257
 20
-10.86002251022357
 30
0.0
 10
64.23629118541288
 20
-10.78514457303331
 30
0.0
 10
65.2010689900062
 20
-10.71384187480611
 30
0.0
 10
65.94350447336953
 20
-10.66428976487453
 30
0.0
 10
66.30830192591735
 20
-10.64325021054584
 30
0.0
 10
66.36382528230494
 20
-10.64004792208393
 30
0.0
  0
SPLINE
  5
9F
330
1F
100
AcDbEntity
  8
0
  6
Continuous
 62
     1
370
    15
100
AcDbSpline
210
0.0
220
0.0
230
1.0
 70
     8
 71
     3
 72
    37
 73
    33
 74
     0
 42
0.000000001
 43
0.00000001
 40
0.0
 40
0.0
 40
0.0
 40
0.0
 40
0.0560098564775816
 40
0.1033516415747772
 40
0.1433694226312625
 40
0.1751016133577894
 40
0.194834613769763
 40
0.212847216483819
 40
0.2330569735140534
 40
0.2558243754845507
 40
0.2820150441636434
 40
0.3122474195128439
 40
0.3466951899127166
 40
0.3850517876563371
 40
0.4191863553526368
 40
0.4453739682003313
 40
0.4677719429856836
 40
0.5071229784483051
 40
0.5527085336335791
 40
0.5897537607542098
 40
0.6218319409228191
 40
0.6557150480955645
 40
0.6937693169152805
 40
0.7394092604059163
 40
0.7888933864224135
 40
0.8272585231141815
 40
0.8416482800483899
 40
0.8575827679785053
 40
0.8814012680291532
 40
0.9131061466754241
 40
0.952619393088839
 40
1.0
 40
1.0
 40
1.0
 40
1.0
 10
17.94814094440825
 20
-13.20913026463893
 30
0.0
 10
18.38320115537403
 20
-13.16616948607586
 30
0.0
 10
19.18599176786523
 20
-13.08689652829564
 30
0.0
 10
20.34947530195506
 20
-12.98425640273352
 30
0.0
 10
21.30481393670161
 20
-12.90448193026747
 30
0.0
 10
22.05068017360627
 20
-12.84397560384432
 30
0.0
 10
22.60176717115812
 20
-12.80430424775744
 30
0.0
 10
23.01489801633702
 20
-12.77655807591139
 30
0.0
 10
23.48751132625039
 20
-12.74413020255694
 30
0.0
 10
24.03095146261292
 20
-12.70852598564266
 30
0.0
 10
24.66431101508595
 20
-12.66930426671368
 30
0.0
 10
25.3893271450241
 20
-12.62758633098716
 30
0.0
 10
26.21190722528003
 20
-12.58430847195518
 30
0.0
 10
27.06532644795621
 20
-12.54417944608494
 30
0.0
 10
27.85262259953701
 20
-12.51151949417055
 30
0.0
 10
28.51270379957836
 20
-12.48729820365
 30
0.0
 10
29.214654275022
 20
-12.4642574604688
 30
0.0
 10
30.07133903319904
 20
-12.44033414504332
 30
0.0
 10
31.04487255523384
 20
-12.41970094864449
 30
0.0
 10
31.96049657126096
 20
-12.40630078648983
 30
0.0
 10
32.78224444408097
 20
-12.3988371503648
 30
0.0
 10
33.60932791143453
 20
-12.39569739939203
 30
0.0
 10
34.54476210548022
 20
-12.39748515307392
 30
0.0
 10
35.60864334833592
 20
-12.40666724700575
 30
0.0
 10
36.67664951729594
 20
-12.42410572978009
 30
0.0
 10
37.49392133872847
 20
-12.44316094612391
 30
0.0
 10
38.04153522249531
 20
-12.45819989146857
 30
0.0
 10
38.47278874488073
 20
-12.47107169099476
 30
0.0
 10
39.04297210086017
 20
-12.4898649590246
 30
0.0
 10
39.80169324323926
 20
-12.51827631764459
 30
0.0
 10
40.74912064608633
 20
-12.55868281707663
 30
0.0
 10
41.44410741762957
 20
-12.59436294053158
 30
0.0
 10
41.82306281862837
 20
-12.61381823960372
 30
0.0
  0
LINE
  5
A0
330
1F
100
AcDbEntity
  8
외형선
  6
Continuous
370
    15
100
AcDbLine
 10
12.00000000000001
 20
15.85671050049978
 30
0.0
 11
10.6423999695881
 21
15.87108231241134
 31
0.0
  0
LINE
  5
A1
330
1F
100
AcDbEntity
  8
외형선
  6
Continuous
370
    15
100
AcDbLine
 10
12.00000000000001
 20
15.85671050049978
 30
0.0
 11
12.00000000000001
 21
15.02352809220971
 31
0.0
  0
SPLINE
  5
A2
330
1F
100
AcDbEntity
  8
외형선
  6
Continuous
370
    15
100
AcDbSpline
210
0.0
220
0.0
230
1.0
 70
     8
 71
     3
 72
     8
 73
     4
 74
     0
 42
0.000000001
 43
0.00000001
 40
0.0
 40
0.0
 40
0.0
 40
0.0
 40
1.0
 40
1.0
 40
1.0
 40
1.0
 10
12.00000000000001
 20
15.02352809220971
 30
0.0
 10
10.98157798634017
 20
15.21347662302282
 30
0.0
 10
9.968458962634122
 20
15.37227014905966
 30
0.0
 10
8.950085642763662
 20
15.49948147379481
 30
0.0
  0
SPLINE
  5
A3
330
1F
100
AcDbEntity
  8
외형선
  6
Continuous
370
    15
100
AcDbSpline
210
0.0
220
0.0
230
1.0
 70
     8
 71
     3
 72
     8
 73
     4
 74
     0
 42
0.000000001
 43
0.00000001
 40
0.0
 40
0.0
 40
0.0
 40
0.0
 40
1.0
 40
1.0
 40
1.0
 40
1.0
 10
12.00000000000001
 20
-15.854560643052
 30
0.0
 10
10.9816078923264
 20
-15.88357042371808
 30
0.0
 10
9.968518653443116
 20
-15.87999678664071
 30
0.0
 10
8.950175356427453
 20
-15.84385093825427
 30
0.0
  0
LINE
  5
A5
330
1F
100
AcDbEntity
  8
외형선
  6
Continuous
370
    15
100
AcDbLine
 10
8.950085642763662
 20
-15.84380906494842
 30
0.0
 11
8.950085642763662
 21
15.49948268842452
 31
0.0
  0
LINE
  5
A6
330
1F
100
AcDbEntity
  8
외형선
  6
Continuous
370
    15
100
AcDbLine
 10
-51.49999999999997
 20
13.4884749287239
 30
0.0
 11
-51.49999999999997
 21
-14.87392507127611
 31
0.0
  0
SPLINE
  5
A7
330
1F
100
AcDbEntity
  8
외형선
  6
Continuous
370
    15
100
AcDbSpline
210
0.0
220
0.0
230
1.0
 70
     8
 71
     3
 72
     8
 73
     4
 74
     0
 42
0.000000001
 43
0.00000001
 40
0.0
 40
0.0
 40
0.0
 40
0.0
 40
1.0
 40
1.0
 40
1.0
 40
1.0
 10
12.00000000000002
 20
-13.49187185960127
 30
0.0
 10
10.98160789232641
 20
-13.48642316342973
 30
0.0
 10
9.96851865344312
 20
-13.45329869144205
 30
0.0
 10
8.950175356427453
 20
-13.3925891813588
 30
0.0
  0
SPLINE
  5
A8
330
1F
100
AcDbEntity
  8
외형선
  6
Continuous
370
    15
100
AcDbSpline
210
0.0
220
0.0
230
1.0
 70
     8
 71
     3
 72
     8
 73
     4
 74
     0
 42
0.000000001
 43
0.00000001
 40
0.0
 40
0.0
 40
0.0
 40
0.0
 40
1.0
 40
1.0
 40
1.0
 40
1.0
 10
12.00000000000002
 20
-4.595377859819557
 30
0.0
 10
10.98158890680101
 20
-4.157223716196484
 30
0.0
 10
9.968480759314062
 20
-3.710398540000339
 30
0.0
 10
8.95011840257905
 20
-3.256108954555371
 30
0.0
  0
SPLINE
  5
A9
330
1F
100
AcDbEntity
  8
외형선
  6
Continuous
370
    15
100
AcDbSpline
210
0.0
220
0.0
230
1.0
 70
    24
 71
     3
 72
    14
 73
    10
 74
     0
 42
0.000000001
 43
0.00000001
 40
0.0
 40
0.0
 40
0.0
 40
0.0
 40
0.2500000000000001
 40
0.2500000000000001
 40
0.5000000000000002
 40
0.5000000000000002
 40
0.7500000000000001
 40
0.7500000000000001
 40
1.0
 40
1.0
 40
1.0
 40
1.0
 10
12.00000000000001
 20
-4.595377859819552
 30
0.0
 10
12.00000000000001
 20
-5.677825101288043
 30
0.0
 10
12.00000000000001
 20
-6.725142553918368
 30
0.0
 10
12.00000000000001
 20
-8.664365788688091
 30
0.0
 10
12.00000000000001
 20
-9.555581148326059
 30
0.0
 10
12.00000000000001
 20
-11.11046389671779
 30
0.0
 10
12.00000000000001
 20
-11.773682282534
 30
0.0
 10
12.00000000000001
 20
-12.83302150409137
 30
0.0
 10
12.00000000000001
 20
-13.22914477476696
 30
0.0
 10
12.00000000000001
 20
-13.49187185960126
 30
0.0
  0
SPLINE
  5
AA
330
1F
100
AcDbEntity
  8
외형선
  6
Continuous
370
    15
100
AcDbSpline
210
0.0
220
0.0
230
1.0
 70
     8
 71
     3
 72
     8
 73
     4
 74
     0
 42
0.000000001
 43
0.00000001
 40
0.0
 40
0.0
 40
0.0
 40
0.0
 40
1.0
 40
1.0
 40
1.0
 40
1.0
 10
12.0
 20
10.36022582477036
 30
0.0
 10
10.9815851913715
 20
10.50907391199332
 30
0.0
 10
9.968473343507569
 20
10.63640749447709
 30
0.0
 10
8.950107256823895
 20
10.74188385680302
 30
0.0
  0
SPLINE
  5
AB
330
1F
100
AcDbEntity
  8
외형선
  6
Continuous
370
    15
100
AcDbSpline
210
0.0
220
0.0
230
1.0
 70
    24
 71
     3
 72
    14
 73
    10
 74
     0
 42
0.000000001
 43
0.00000001
 40
0.0
 40
0.0
 40
0.0
 40
0.0
 40
0.2499999999999998
 40
0.2499999999999998
 40
0.4999999999999999
 40
0.4999999999999999
 40
0.75
 40
0.75
 40
1.0
 40
1.0
 40
1.0
 40
1.0
 10
12.0
 20
10.36022582477036
 30
0.0
 10
12.0
 20
9.583831874394086
 30
0.0
 10
12.0
 20
8.638782243262877
 30
0.0
 10
12.0
 20
6.455824064089195
 30
0.0
 10
12.0
 20
5.218407256298796
 30
0.0
 10
12.0
 20
2.560365294890936
 30
0.0
 10
12.0
 20
1.141156457158522
 30
0.0
 10
12.0
 20
-1.734488094273822
 30
0.0
 10
12.0
 20
-3.189459152336232
 30
0.0
 10
12.0
 20
-4.595377859819547
 30
0.0
  0
SPLINE
  5
AC
330
1F
100
AcDbEntity
  8
외형선
  6
Continuous
370
    15
100
AcDbSpline
210
0.0
220
0.0
230
1.0
 70
    24
 71
     3
 72
    14
 73
    10
 74
     0
 42
0.000000001
 43
0.00000001
 40
0.0
 40
0.0
 40
0.0
 40
0.0
 40
0.25
 40
0.25
 40
0.5
 40
0.5
 40
0.75
 40
0.75
 40
1.0
 40
1.0
 40
1.0
 40
1.0
 10
12.00000000000001
 20
15.02352809220969
 30
0.0
 10
12.00000000000001
 20
14.68976947402421
 30
0.0
 10
12.00000000000001
 20
14.32852289155089
 30
0.0
 10
12.00000000000001
 20
13.56966422065344
 30
0.0
 10
12.00000000000001
 20
13.17218417416348
 30
0.0
 10
12.00000000000001
 20
12.36426887324421
 30
0.0
 10
12.00000000000001
 20
11.95398488130944
 30
0.0
 10
12.00000000000001
 20
11.14408184899665
 30
0.0
 10
12.00000000000001
 20
10.74457701731888
 30
0.0
 10
12.00000000000001
 20
10.36022582477036
 30
0.0
  0
SPLINE
  5
AD
330
1F
100
AcDbEntity
  8
외형선
  6
Continuous
370
    15
100
AcDbSpline
210
0.0
220
0.0
230
1.0
 70
    24
 71
     3
 72
     8
 73
     4
 74
     0
 42
0.000000001
 43
0.00000001
 40
0.0
 40
0.0
 40
0.0
 40
0.0
 40
1.0
 40
1.0
 40
1.0
 40
1.0
 10
12.00000000000001
 20
-13.49187185960127
 30
0.0
 10
12.00000000000001
 20
-14.29994522194164
 30
0.0
 10
12.00000000000001
 20
-15.09266085226619
 30
0.0
 10
12.00000000000001
 20
-15.8545606430432
 30
0.0
  0
SPLINE
  5
AE
330
1F
100
AcDbEntity
  8
0
  6
Continuous
 62
     1
370
    15
100
AcDbSpline
210
0.0
220
0.0
230
1.0
 70
     8
 71
     3
 72
    70
 73
    66
 74
     0
 42
0.000000001
 43
0.00000001
 40
0.0
 40
0.0
 40
0.0
 40
0.0
 40
0.03125
 40
0.03125
 40
0.0625
 40
0.0625
 40
0.09375
 40
0.09375
 40
0.125
 40
0.125
 40
0.15625
 40
0.15625
 40
0.1875
 40
0.1875
 40
0.2187499999999998
 40
0.2187499999999998
 40
0.2499999999999997
 40
0.2499999999999997
 40
0.2812499999999997
 40
0.2812499999999997
 40
0.3124999999999997
 40
0.3124999999999997
 40
0.3437499999999997
 40
0.3437499999999997
 40
0.3749999999999997
 40
0.3749999999999997
 40
0.4062499999999997
 40
0.4062499999999997
 40
0.4374999999999997
 40
0.4374999999999997
 40
0.4687499999999998
 40
0.4687499999999998
 40
0.4999999999999998
 40
0.4999999999999998
 40
0.5312499999999998
 40
0.5312499999999998
 40
0.5624999999999998
 40
0.5624999999999998
 40
0.5937499999999998
 40
0.5937499999999998
 40
0.6249999999999998
 40
0.6249999999999998
 40
0.6562499999999999
 40
0.6562499999999999
 40
0.6874999999999999
 40
0.6874999999999999
 40
0.7187499999999999
 40
0.7187499999999999
 40
0.7499999999999999
 40
0.7499999999999999
 40
0.7812499999999999
 40
0.7812499999999999
 40
0.8124999999999999
 40
0.8124999999999999
 40
0.8437499999999999
 40
0.8437499999999999
 40
0.8749999999999999
 40
0.8749999999999999
 40
0.90625
 40
0.90625
 40
0.9375
 40
0.9375
 40
0.96875
 40
0.96875
 40
1.0
 40
1.0
 40
1.0
 40
1.0
 10
88.20000000000005
 20
-15.87392507127609
 30
0.0
 10
87.40870592103258
 20
-15.84168988700133
 30
0.0
 10
86.61336610412835
 20
-15.80301704434211
 30
0.0
 10
85.02351123068834
 20
-15.6862148757376
 30
0.0
 10
84.23117449789898
 20
-15.60817982895406
 30
0.0
 10
82.64588482682724
 20
-15.41334898492067
 30
0.0
 10
81.85001985523914
 20
-15.2963939737166
 30
0.0
 10
80.26078544450864
 20
-15.02462324522615
 30
0.0
 10
79.47007893662982
 20
-14.87002014802032
 30
0.0
 10
77.88270228715825
 20
-14.5236863504056
 30
0.0
 10
77.08662360869562
 20
-14.3319403952138
 30
0.0
 10
75.49862931648215
 20
-13.91343061707656
 30
0.0
 10
74.70817805901765
 20
-13.68685499779701
 30
0.0
 10
73.11933167326563
 20
-13.19931203551229
 30
0.0
 10
72.3233510151147
 20
-12.93853606433404
 30
0.0
 10
70.73721488562428
 20
-12.38596021443586
 30
0.0
 10
69.9456435727709
 20
-12.09403693925704
 30
0.0
 10
68.35594660212105
 20
-11.47986923463703
 30
0.0
 10
67.56037556331559
 20
-11.15791755040842
 30
0.0
 10
65.97671322884864
 20
-10.48800062886267
 30
0.0
 10
65.18264800838297
 20
-10.13920563471174
 30
0.0
 10
63.59272071015815
 20
-9.416844164504344
 30
0.0
 10
62.79942942564352
 20
-9.0436760727966
 30
0.0
 10
61.21507087424541
 20
-8.276066070543916
 30
0.0
 10
60.41936449582475
 20
-7.880860233295039
 30
0.0
 10
58.82982742694691
 20
-7.072019191533414
 30
0.0
 10
58.03867624542166
 20
-6.658867482223953
 30
0.0
 10
56.45200227296743
 20
-5.816216514390237
 30
0.0
 10
55.65596653960171
 20
-5.386604200637448
 30
0.0
 10
54.06743974943242
 20
-4.51561599426343
 30
0.0
 10
53.27705427350317
 20
-4.07464706891536
 30
0.0
 10
51.68868121006143
 20
-3.182222952876103
 30
0.0
 10
50.89262779278778
 20
-2.731115563348284
 30
0.0
 10
49.30573001735479
 20
-1.82418495526842
 30
0.0
 10
48.51473485583112
 20
-1.368341730691236
 30
0.0
 10
46.92528123767867
 20
-0.4529426858254312
 30
0.0
 10
46.12952183065481
 20
0.0060961048181066
 30
0.0
 10
44.54486969046175
 20
0.9216953351694519
 30
0.0
 10
43.7518902434758
 20
1.379043347230726
 30
0.0
 10
42.16197601145194
 20
2.289908374264061
 30
0.0
 10
41.36754121399628
 20
2.742942462223374
 30
0.0
 10
39.78419827729473
 20
3.639995582810022
 30
0.0
 10
38.98869337008884
 20
4.085256683620794
 30
0.0
 10
37.3989390641182
 20
4.964210196903819
 30
0.0
 10
36.60715386522723
 20
5.397459474866153
 30
0.0
 10
35.02126747840427
 20
6.249833149032167
 30
0.0
 10
34.22531762749617
 20
6.669270864628164
 30
0.0
 10
32.63634357947572
 20
7.489905151175595
 30
0.0
 10
31.84583440443796
 20
7.890696640242255
 30
0.0
 10
30.2580198758897
 20
8.672720103176683
 30
0.0
 10
29.46193664003959
 20
9.053716597602943
 30
0.0
 10
27.87436216729379
 20
9.791401978065416
 30
0.0
 10
27.08375378548373
 20
10.14799196809811
 30
0.0
 10
25.49462892593122
 20
10.83610484238666
 30
0.0
 10
24.69872403828418
 20
11.16720685068585
 30
0.0
 10
23.11316663978921
 20
11.79984456871663
 30
0.0
 10
22.32108394934961
 20
12.10173545902074
 30
0.0
 10
20.73126827217066
 20
12.67521118258342
 30
0.0
 10
19.93585323271087
 20
12.94648079929174
 30
0.0
 10
18.35292779027603
 20
13.45517703663356
 30
0.0
 10
17.5579976024493
 20
13.69340218944001
 30
0.0
 10
15.96811151936795
 20
14.1349842784864
 30
0.0
 10
15.1755030727402
 20
14.33815001336279
 30
0.0
 10
13.59048903939739
 20
14.70819830649883
 30
0.0
 10
12.79466799283822
 20
14.87531250407512
 30
0.0
 10
12.00000000000002
 20
15.02352809220971
 30
0.0
  0
SPLINE
  5
AF
330
1F
100
AcDbEntity
  8
0
  6
Continuous
 62
     1
370
    15
100
AcDbSpline
210
0.0
220
0.0
230
1.0
 70
     8
 71
     3
 72
    16
 73
    12
 74
     0
 42
0.000000001
 43
0.00000001
 40
0.0
 40
0.0
 40
0.0
 40
0.0
 40
0.0054023400394502
 40
0.1400953685541483
 40
0.2748036025258023
 40
0.4095145561573873
 40
0.5442157365177899
 40
0.6581629190689825
 40
0.7721092874238598
 40
0.8860549461772067
 40
1.0
 40
1.0
 40
1.0
 40
1.0
 10
48.77451431916717
 20
-1.51437795925069
 30
0.0
 10
48.70829139960378
 20
-1.48830401381434
 30
0.0
 10
46.99097552255482
 20
-0.8121453549939779
 30
0.0
 10
43.62227594007807
 20
0.5694936758592101
 30
0.0
 10
38.6684217360951
 20
2.553400703449154
 30
0.0
 10
33.71447950629025
 20
4.46267886138549
 30
0.0
 10
29.01494934211339
 20
6.134581285537796
 30
0.0
 10
24.57045339746485
 20
7.550983429829484
 30
0.0
 10
20.38025953993225
 20
8.706624751694182
 30
0.0
 10
16.19012402170603
 20
9.677741090729445
 30
0.0
 10
13.39670553554738
 20
10.13273131601035
 30
0.0
 10
12.0
 20
10.36022582477036
 30
0.0
  0
SPLINE
  5
B0
330
1F
100
AcDbEntity
  8
외형선
  6
Continuous
370
    15
100
AcDbSpline
210
0.0
220
0.0
230
1.0
 70
    24
 71
     3
 72
    14
 73
    10
 74
     0
 42
0.000000001
 43
0.00000001
 40
0.0
 40
0.0
 40
0.0
 40
0.0
 40
0.25
 40
0.25
 40
0.5
 40
0.5
 40
0.75
 40
0.75
 40
1.0
 40
1.0
 40
1.0
 40
1.0
 10
12.00000000000001
 20
15.0235280922097
 30
0.0
 10
12.00000000000001
 20
14.68976947402422
 30
0.0
 10
12.00000000000001
 20
14.32852289155089
 30
0.0
 10
12.00000000000001
 20
13.56966422065344
 30
0.0
 10
12.00000000000001
 20
13.17218417416348
 30
0.0
 10
12.00000000000001
 20
12.36426887324421
 30
0.0
 10
12.00000000000001
 20
11.95398488130944
 30
0.0
 10
12.00000000000001
 20
11.14408184899665
 30
0.0
 10
12.00000000000001
 20
10.74457701731888
 30
0.0
 10
12.00000000000001
 20
10.36022582477036
 30
0.0
  0
SPLINE
  5
B1
330
1F
100
AcDbEntity
  8
0
  6
Continuous
 62
     1
370
    15
100
AcDbSpline
210
0.0
220
0.0
230
1.0
 70
     8
 71
     3
 72
    70
 73
    66
 74
     0
 42
0.000000001
 43
0.00000001
 40
0.0
 40
0.0
 40
0.0
 40
0.0
 40
0.03125
 40
0.03125
 40
0.0625
 40
0.0625
 40
0.09375
 40
0.09375
 40
0.125
 40
0.125
 40
0.15625
 40
0.15625
 40
0.1875
 40
0.1875
 40
0.21875
 40
0.21875
 40
0.25
 40
0.25
 40
0.28125
 40
0.28125
 40
0.3125
 40
0.3125
 40
0.34375
 40
0.34375
 40
0.375
 40
0.375
 40
0.40625
 40
0.40625
 40
0.4375
 40
0.4375
 40
0.46875
 40
0.46875
 40
0.5
 40
0.5
 40
0.53125
 40
0.53125
 40
0.5625
 40
0.5625
 40
0.59375
 40
0.59375
 40
0.625
 40
0.625
 40
0.65625
 40
0.65625
 40
0.6875
 40
0.6875
 40
0.71875
 40
0.71875
 40
0.75
 40
0.75
 40
0.78125
 40
0.78125
 40
0.8125
 40
0.8125
 40
0.84375
 40
0.84375
 40
0.875
 40
0.875
 40
0.90625
 40
0.90625
 40
0.9375
 40
0.9375
 40
0.96875
 40
0.96875
 40
1.0
 40
1.0
 40
1.0
 40
1.0
 10
88.20000000000003
 20
-15.06336137033252
 30
0.0
 10
87.40870592103255
 20
-14.91894793526187
 30
0.0
 10
86.6133661041283
 20
-14.75546198997996
 30
0.0
 10
85.02351123068826
 20
-14.39201074353304
 30
0.0
 10
84.23117449789883
 20
-14.19225021945228
 30
0.0
 10
82.64588482682707
 20
-13.75777282368828
 30
0.0
 10
81.85001985523898
 20
-13.52275401951705
 30
0.0
 10
80.26078544450844
 20
-13.01971137502673
 30
0.0
 10
79.47007893662959
 20
-12.7520223122493
 30
0.0
 10
77.88270228715798
 20
-12.1848038060473
 30
0.0
 10
77.08662360869533
 20
-11.8852954948971
 30
0.0
 10
75.49862931648182
 20
-11.25783402057638
 30
0.0
 10
74.70817805901734
 20
-10.93012275779161
 30
0.0
 10
73.11933167326528
 20
-10.24711226846318
 30
0.0
 10
72.32335101511431
 20
-9.892115709139453
 30
0.0
 10
70.73721488562384
 20
-9.1591706927925
 30
0.0
 10
69.9456435727705
 20
-8.78103505578261
 30
0.0
 10
68.35594660212058
 20
-8.002706029632712
 30
0.0
 10
67.56037556331508
 20
-7.602904784355105
 30
0.0
 10
65.97671322884808
 20
-6.786591685379163
 30
0.0
 10
65.1826480083824
 20
-6.369062193651136
 30
0.0
 10
63.59272071015754
 20
-5.518787487294613
 30
0.0
 10
62.79942942564288
 20
-5.086507509983212
 30
0.0
 10
61.21507087424474
 20
-4.210743872504136
 30
0.0
 10
60.41936449582406
 20
-3.766397846683012
 30
0.0
 10
58.82982742694614
 20
-2.869734784154294
 30
0.0
 10
58.03867624542092
 20
-2.417935886656729
 30
0.0
 10
56.45200227296665
 20
-1.508600580839701
 30
0.0
 10
55.65596653960091
 20
-1.050959303796195
 30
0.0
 10
54.06743974943157
 20
-0.1348670452023669
 30
0.0
 10
53.2770542735023
 20
0.323175505004342
 30
0.0
 10
51.68868121006054
 20
1.238773227882064
 30
0.0
 10
50.89262779278685
 20
1.695952428677852
 30
0.0
 10
49.30573001735384
 20
2.60393871315565
 30
0.0
 10
48.51473485583016
 20
3.0547823385577
 30
0.0
 10
46.92528123767767
 20
3.949121042731257
 30
0.0
 10
46.12952183065379
 20
4.392094624312278
 30
0.0
 10
44.54486969046067
 20
5.264706919674847
 30
0.0
 10
43.75189024347469
 20
5.695105112972936
 30
0.0
 10
42.16197601145079
 20
6.541293961963996
 30
0.0
 10
41.36754121399511
 20
6.956630475800905
 30
0.0
 10
39.78419827729354
 20
7.767966340045761
 30
0.0
 10
38.98869337008762
 20
8.165085597799465
 30
0.0
 10
37.39893906411695
 20
8.937688142917327
 30
0.0
 10
36.60715386522597
 20
9.312795852761468
 30
0.0
 10
35.02126747840295
 20
10.0392065297454
 30
0.0
 10
34.22531762749483
 20
10.39076214172503
 30
0.0
 10
32.63634357947434
 20
11.06657532167043
 30
0.0
 10
31.84583440443657
 20
11.39051958932923
 30
0.0
 10
30.25801987588827
 20
12.0100818529004
 30
0.0
 10
29.46193664003815
 20
12.30549199443707
 30
0.0
 10
27.87436216729229
 20
12.86425596327712
 30
0.0
 10
27.08375378548223
 20
13.12755699135327
 30
0.0
 10
25.49462892592967
 20
13.62156864801752
 30
0.0
 10
24.69872403828262
 20
13.85195341396076
 30
0.0
 10
23.11316663978762
 20
14.27697000863432
 30
0.0
 10
22.32108394934799
 20
14.47185819673088
 30
0.0
 10
20.731268272169
 20
14.82541365105337
 30
0.0
 10
19.93585323270918
 20
14.98386700910065
 30
0.0
 10
18.35292779027432
 20
15.26250757294105
 30
0.0
 10
17.55799760244756
 20
15.3831349524043
 30
0.0
 10
15.96811151936616
 20
15.58558369802019
 30
0.0
 10
15.1755030727384
 20
15.66733552165354
 30
0.0
 10
13.59048903939554
 20
15.79155435922134
 30
0.0
 10
12.79466799283635
 20
15.83407369489142
 30
0.0
 10
11.99999999999812
 20
15.85671050049985
 30
0.0
  0
SPLINE
  5
B2
330
1F
100
AcDbEntity
  8
0
  6
Continuous
 62
     1
370
    15
100
AcDbSpline
210
0.0
220
0.0
230
1.0
 70
     8
 71
     3
 72
    18
 73
    14
 74
     0
 42
0.000000001
 43
0.00000001
 40
0.0
 40
0.0
 40
0.0
 40
0.0
 40
0.0963019186422903
 40
0.1925942252303709
 40
0.2888788112240099
 40
0.3851575743300437
 40
0.4814324169719409
 40
0.5777052447512668
 40
0.6739779649036926
 40
0.7702524847521918
 40
0.8665307101600883
 40
0.9628145439866148
 40
0.9999999999999999
 40
0.9999999999999999
 40
0.9999999999999999
 40
0.9999999999999999
 10
88.20000000000002
 20
-12.52385976812154
 30
0.0
 10
86.87886924425425
 20
-12.25759161592041
 30
0.0
 10
84.2367395970145
 20
-11.72508188818403
 30
0.0
 10
80.27379452248046
 20
-10.61357412890036
 30
0.0
 10
76.3112092646548
 20
-9.300675161108906
 30
0.0
 10
72.34890054775668
 20
-7.789960696483321
 30
0.0
 10
68.38677673584992
 20
-6.119119549497539
 30
0.0
 10
64.42474830875491
 20
-4.320950184384499
 30
0.0
 10
60.46272470816925
 20
-2.433677428984949
 30
0.0
 10
56.50061693221238
 20
-0.4944044257074778
 30
0.0
 10
52.5383307655287
 20
1.449615005494697
 30
0.0
 10
49.38661608863855
 20
2.988462411402018
 30
0.0
 10
47.55563289479774
 20
3.835199476124396
 30
0.0
 10
47.04550846769185
 20
4.071106207275079
 30
0.0
  0
LINE
  5
B3
330
1F
100
AcDbEntity
  8
0
  6
Continuous
 62
     1
370
    15
100
AcDbLine
 10
88.20000000000002
 20
-15.06336137033252
 30
0.0
 11
88.20000000000002
 21
-12.52385976812154
 31
0.0
  0
LINE
  5
B4
330
1F
100
AcDbEntity
  8
0
  6
Continuous
 62
     1
370
    15
100
AcDbLine
 10
88.20000000000003
 20
-15.87392507127609
 30
0.0
 11
88.19999999999945
 21
-15.06336137033252
 31
0.0
  0
SPLINE
  5
B5
330
1F
100
AcDbEntity
  8
0
  6
Continuous
 62
     1
370
    15
100
AcDbSpline
210
0.0
220
0.0
230
1.0
 70
     8
 71
     3
 72
    18
 73
    14
 74
     0
 42
0.000000001
 43
0.00000001
 40
0.0
 40
0.0
 40
0.0
 40
0.0
 40
0.0975250246602958
 40
0.1950499301511638
 40
0.2925747307915072
 40
0.390099440903614
 40
0.4810580334213431
 40
0.5720165227444686
 40
0.6629767360830668
 40
0.7539404992435781
 40
0.8449096351435598
 40
0.935885962331419
 40
1.0
 40
1.0
 40
1.0
 40
1.0
 10
85.37944026693721
 20
1.301269171382388
 30
0.0
 10
83.96337917006464
 20
1.948897038960663
 30
0.0
 10
81.13125870665678
 20
3.244151982756815
 30
0.0
 10
76.88307646277762
 20
5.101472928818737
 30
0.0
 10
72.63491866628131
 20
6.839512915773314
 30
0.0
 10
68.48203289258197
 20
8.378687053751733
 30
0.0
 10
64.42474122846153
 20
9.697752017228371
 30
0.0
 10
60.46270173604348
 20
10.78494147411387
 30
0.0
 10
56.50059316874085
 20
11.64791186123299
 30
0.0
 10
52.53830573248472
 20
12.27197910858636
 30
0.0
 10
48.57575228716915
 20
12.63216266778529
 30
0.0
 10
45.00301754482238
 20
12.75274103899501
 30
0.0
 10
42.75109694590397
 20
12.63650075820762
 30
0.0
 10
41.82015760457637
 20
12.58844726534293
 30
0.0
  0
SPLINE
  5
B6
330
1F
100
AcDbEntity
  8
0
  6
Continuous
 62
     1
370
    15
100
AcDbSpline
210
0.0
220
0.0
230
1.0
 70
     8
 71
     3
 72
     8
 73
     4
 74
     0
 42
0.000000001
 43
0.00000001
 40
0.0
 40
0.0
 40
0.0
 40
0.0
 40
1.0
 40
1.0
 40
1.0
 40
1.0
 10
85.37944026693721
 20
1.301269171382393
 30
0.0
 10
85.362404421881
 20
0.2931845147861872
 30
0.0
 10
85.2366008236008
 20
-0.6893234181520841
 30
0.0
 10
85.02288798355629
 20
-1.65115950381081
 30
0.0
  0
SPLINE
  5
B7
330
1F
100
AcDbEntity
  8
0
  6
Continuous
 62
     1
370
    15
100
AcDbSpline
210
0.0
220
0.0
230
1.0
 70
     8
 71
     3
 72
     8
 73
     4
 74
     0
 42
0.000000001
 43
0.00000001
 40
0.0
 40
0.0
 40
0.0
 40
0.0
 40
1.0
 40
1.0
 40
1.0
 40
1.0
 10
88.20000000000002
 20
-4.241406839496708
 30
0.0
 10
87.13178050400633
 20
-3.401612314386469
 30
0.0
 10
86.07275622848768
 20
-2.538162930276544
 30
0.0
 10
85.02288798355632
 20
-1.651159503810803
 30
0.0
  0
SPLINE
  5
B8
330
1F
100
AcDbEntity
  8
0
  6
Continuous
 62
     1
370
    15
100
AcDbSpline
210
0.0
220
0.0
230
1.0
 70
    24
 71
     3
 72
    14
 73
    10
 74
     0
 42
0.000000001
 43
0.00000001
 40
0.0
 40
0.0
 40
0.0
 40
0.0
 40
0.25
 40
0.25
 40
0.5
 40
0.5
 40
0.75
 40
0.75
 40
1.0
 40
1.0
 40
1.0
 40
1.0
 10
88.20000000000002
 20
-12.52385976812153
 30
0.0
 10
88.20000000000002
 20
-12.04379281991652
 30
0.0
 10
88.20000000000003
 20
-11.50163554114892
 30
0.0
 10
88.2
 20
-10.30244630903763
 30
0.0
 10
88.2
 20
-9.645436333166753
 30
0.0
 10
88.19999999999999
 20
-8.23518924291768
 30
0.0
 10
88.20000000000002
 20
-7.482030768033606
 30
0.0
 10
88.20000000000002
 20
-5.906023328248356
 30
0.0
 10
88.20000000000003
 20
-5.083293784606427
 30
0.0
 10
88.20000000000003
 20
-4.241406839497215
 30
0.0
  0
SPLINE
  5
B9
330
1F
100
AcDbEntity
  8
0
  6
Continuous
 62
     1
370
    15
100
AcDbSpline
210
0.0
220
0.0
230
1.0
 70
    24
 71
     3
 72
    10
 73
     6
 74
     0
 42
0.000000001
 43
0.00000001
 40
0.0
 40
0.0
 40
0.0
 40
0.0
 40
0.5
 40
0.5
 40
1.0
 40
1.0
 40
1.0
 40
1.0
 10
83.20000000000002
 20
4.692613522321799
 30
0.0
 10
83.20000000000003
 20
5.729703313570392
 30
0.0
 10
83.20000000000003
 20
6.685313696818119
 30
0.0
 10
83.20000000000002
 20
8.337823340968981
 30
0.0
 10
83.20000000000003
 20
9.03390818264375
 30
0.0
 10
83.20000000000003
 20
9.57146437584856
 30
0.0
  0
SPLINE
  5
BA
330
1F
100
AcDbEntity
  8
0
  6
Continuous
 62
     1
370
    15
100
AcDbSpline
210
0.0
220
0.0
230
1.0
 70
     8
 71
     3
 72
     9
 73
     5
 74
     0
 42
0.000000001
 43
0.00000001
 40
0.0
 40
0.0
 40
0.0
 40
0.0
 40
0.838647374489754
 40
1.0
 40
1.0
 40
1.0
 40
1.0
 10
88.20000000000002
 20
11.11357492872389
 30
0.0
 10
86.54935037513243
 20
11.10308359481923
 30
0.0
 10
84.58112192169946
 20
11.09057376741884
 30
0.0
 10
82.61282564478532
 20
10.86719194108787
 30
0.0
 10
82.2952358727232
 20
10.8311486969181
 30
0.0
  0
SPLINE
  5
BB
330
1F
100
AcDbEntity
  8
0
  6
Continuous
 62
     1
370
    15
100
AcDbSpline
210
0.0
220
0.0
230
1.0
 70
     8
 71
     3
 72
     8
 73
     4
 74
     0
 42
0.000000001
 43
0.00000001
 40
0.0
 40
0.0
 40
0.0
 40
0.0
 40
1.0
 40
1.0
 40
1.0
 40
1.0
 10
88.20000000000002
 20
11.1135749287239
 30
0.0
 10
86.52259376193912
 20
10.65887616074406
 30
0.0
 10
84.8556583168523
 20
10.14632435938538
 30
0.0
 10
83.20000000000005
 20
9.57146437584856
 30
0.0
  0
SPLINE
  5
BC
330
1F
100
AcDbEntity
  8
0
  6
Continuous
 62
     1
370
    15
100
AcDbSpline
210
0.0
220
0.0
230
1.0
 70
     8
 71
     3
 72
     8
 73
     4
 74
     0
 42
0.000000001
 43
0.00000001
 40
0.0
 40
0.0
 40
0.0
 40
0.0
 40
1.0
 40
1.0
 40
1.0
 40
1.0
 10
83.2
 20
4.692613522321795
 30
0.0
 10
84.0425656748897
 20
3.689294058420983
 30
0.0
 10
84.77614495484248
 20
2.56662046899649
 30
0.0
 10
85.37944026693722
 20
1.301269171382391
 30
0.0
  0
LINE
  5
BD
330
1F
100
AcDbEntity
  8
0
  6
Continuous
 62
     1
370
    15
100
AcDbLine
 10
85.11410413707094
 20
1.814174179089527
 30
0.0
 11
88.20000000000002
 21
0.0010749287239044
 31
0.0
  0
LINE
  5
BE
330
1F
100
AcDbEntity
  8
0
  6
Continuous
 62
     1
370
    15
100
AcDbLine
 10
88.20000000000002
 20
0.0010749287239044
 30
0.0
 11
88.20000000000002
 21
-4.24140683949671
 31
0.0
  0
SPLINE
  5
BF
330
1F
100
AcDbEntity
  8
0
  6
Continuous
 62
     1
370
    15
100
AcDbSpline
210
0.0
220
0.0
230
1.0
 70
     8
 71
     3
 72
    18
 73
    14
 74
     0
 42
0.000000001
 43
0.00000001
 40
0.0
 40
0.0
 40
0.0
 40
0.0
 40
0.0480478232505416
 40
0.1411001133155769
 40
0.2341597593458952
 40
0.327228615558204
 40
0.4202996644544135
 40
0.5133612290176827
 40
0.6064150182077833
 40
0.7048122027885194
 40
0.803208702627032
 40
0.9016046056880579
 40
1.0
 40
1.0
 40
1.0
 40
1.0
 10
54.5844249986727
 20
-11.90572633167372
 30
0.0
 10
53.90241021332174
 20
-12.01880930715089
 30
0.0
 10
51.89956477755408
 20
-12.35089554070803
 30
0.0
 10
48.57575221402065
 20
-12.62806348733504
 30
0.0
 10
44.61284896678599
 20
-12.74374847756367
 30
0.0
 10
40.64961446697649
 20
-12.58256564857691
 30
0.0
 10
36.68633400581425
 20
-12.16386227005633
 30
0.0
 10
32.72333301946281
 20
-11.49204378045906
 30
0.0
 10
28.68480768080196
 20
-10.56463546767837
 30
0.0
 10
24.57043489084032
 20
-9.385877815322477
 30
0.0
 10
20.38026988515079
 20
-7.965781104681434
 30
0.0
 10
16.19012417448519
 20
-6.368672932883933
 30
0.0
 10
13.39670565095991
 20
-5.186475198760035
 30
0.0
 10
12.00000000000002
 20
-4.595377859819557
 30
0.0
  0
SPLINE
  5
C0
330
1F
100
AcDbEntity
  8
외형선
  6
Continuous
370
    15
100
AcDbSpline
210
0.0
220
0.0
230
1.0
 70
    24
 71
     3
 72
    14
 73
    10
 74
     0
 42
0.000000001
 43
0.00000001
 40
0.0
 40
0.0
 40
0.0
 40
0.0
 40
0.2499999999999998
 40
0.2499999999999998
 40
0.4999999999999999
 40
0.4999999999999999
 40
0.75
 40
0.75
 40
1.0
 40
1.0
 40
1.0
 40
1.0
 10
12.0
 20
10.36022582477036
 30
0.0
 10
12.0
 20
9.583831874394086
 30
0.0
 10
12.0
 20
8.638782243262877
 30
0.0
 10
12.0
 20
6.455824064089195
 30
0.0
 10
12.0
 20
5.218407256298796
 30
0.0
 10
12.0
 20
2.560365294890936
 30
0.0
 10
12.0
 20
1.141156457158522
 30
0.0
 10
12.0
 20
-1.734488094273822
 30
0.0
 10
12.0
 20
-3.189459152336232
 30
0.0
 10
12.0
 20
-4.595377859819547
 30
0.0
  0
SPLINE
  5
C1
330
1F
100
AcDbEntity
  8
0
  6
Continuous
 62
     1
370
    15
100
AcDbSpline
210
0.0
220
0.0
230
1.0
 70
     8
 71
     3
 72
     9
 73
     5
 74
     0
 42
0.000000001
 43
0.00000001
 40
0.0
 40
0.0
 40
0.0
 40
0.0
 40
0.2965154081126252
 40
1.0
 40
1.0
 40
1.0
 40
1.0
 10
17.95624921119365
 20
-13.17084739892294
 30
0.0
 10
17.36754227610044
 20
-13.23963088806642
 30
0.0
 10
15.38212459126431
 20
-13.4716036195386
 30
0.0
 10
13.39670916257701
 20
-13.48350172543236
 30
0.0
 10
12.00000000000002
 20
-13.49187185960128
 30
0.0
  0
SPLINE
  5
C2
330
1F
100
AcDbEntity
  8
외형선
  6
Continuous
370
    15
100
AcDbSpline
210
0.0
220
0.0
230
1.0
 70
    24
 71
     3
 72
    14
 73
    10
 74
     0
 42
0.000000001
 43
0.00000001
 40
0.0
 40
0.0
 40
0.0
 40
0.0
 40
0.2500000000000001
 40
0.2500000000000001
 40
0.5000000000000002
 40
0.5000000000000002
 40
0.7500000000000001
 40
0.7500000000000001
 40
1.0
 40
1.0
 40
1.0
 40
1.0
 10
12.00000000000001
 20
-4.595377859819552
 30
0.0
 10
12.00000000000001
 20
-5.677825101288043
 30
0.0
 10
12.00000000000001
 20
-6.725142553918368
 30
0.0
 10
12.00000000000001
 20
-8.664365788688091
 30
0.0
 10
12.00000000000001
 20
-9.555581148326059
 30
0.0
 10
12.00000000000001
 20
-11.11046389671779
 30
0.0
 10
12.00000000000001
 20
-11.773682282534
 30
0.0
 10
12.00000000000001
 20
-12.83302150409137
 30
0.0
 10
12.00000000000001
 20
-13.22914477476696
 30
0.0
 10
12.00000000000001
 20
-13.49187185960126
 30
0.0
  0
LINE
  5
C3
330
1F
100
AcDbEntity
  8
0
  6
Continuous
 62
     1
370
    15
100
AcDbLine
 10
88.20000000000002
 20
0.0010749287239044
 30
0.0
 11
88.20000000000002
 21
11.1135749287239
 31
0.0
  0
SPLINE
  5
C4
330
1F
100
AcDbEntity
  8
0
  6
Continuous
 62
     1
370
    15
100
AcDbSpline
210
0.0
220
0.0
230
1.0
 70
     8
 71
     3
 72
    12
 73
     8
 74
     0
 42
0.000000001
 43
0.00000001
 40
0.0
 40
0.0
 40
0.0
 40
0.0
 40
0.1265848437427553
 40
0.3449342644777083
 40
0.5633373529637311
 40
0.781692972952472
 40
1.0
 40
1.0
 40
1.0
 40
1.0
 10
28.89257879307176
 20
-12.47514730676651
 30
0.0
 10
28.17982155608682
 20
-12.73257400368233
 30
0.0
 10
26.23761120908677
 20
-13.43404256604859
 30
0.0
 10
23.06556313727149
 20
-14.31837605875394
 30
0.0
 10
19.37646120522591
 20
-15.12325086954987
 30
0.0
 10
15.68787120814418
 20
-15.66649980171563
 30
0.0
 10
13.22919920026757
 20
-15.79187834675545
 30
0.0
 10
11.99999999999813
 20
-15.85456064305206
 30
0.0
  0
SPLINE
  5
C5
330
1F
100
AcDbEntity
  8
외형선
  6
Continuous
370
    15
100
AcDbSpline
210
0.0
220
0.0
230
1.0
 70
    24
 71
     3
 72
     8
 73
     4
 74
     0
 42
0.000000001
 43
0.00000001
 40
0.0
 40
0.0
 40
0.0
 40
0.0
 40
1.0
 40
1.0
 40
1.0
 40
1.0
 10
12.00000000000001
 20
-13.49187185960127
 30
0.0
 10
12.00000000000001
 20
-14.29994522194164
 30
0.0
 10
12.00000000000001
 20
-15.09266085226619
 30
0.0
 10
12.00000000000001
 20
-15.8545606430432
 30
0.0
  0
SPLINE
  5
C6
330
1F
100
AcDbEntity
  8
0
  6
Continuous
 62
     1
370
    15
100
AcDbSpline
210
0.0
220
0.0
230
1.0
 70
     8
 71
     3
 72
    13
 73
     9
 74
     0
 42
0.000000001
 43
0.00000001
 40
0.0
 40
0.0
 40
0.0
 40
0.0
 40
0.1525191434884772
 40
0.3244561755160143
 40
0.4933110246141078
 40
0.662173922600432
 40
0.831063920012659
 40
1.0
 40
1.0
 40
1.0
 40
1.0
 10
66.36338062718067
 20
10.64201692217565
 30
0.0
 10
67.47356728254415
 20
11.10644293859961
 30
0.0
 10
69.83528337974587
 20
12.09442310720343
 30
0.0
 10
73.42597946672517
 20
13.33080540317018
 30
0.0
 10
77.13553104568852
 20
14.38500863387869
 30
0.0
 10
80.82296015198204
 20
15.16414808448755
 30
0.0
 10
84.51107466615377
 20
15.69269665832842
 30
0.0
 10
86.97024640419201
 20
15.8059988146214
 30
0.0
 10
88.20000000000003
 20
15.87607492872391
 30
0.0
  0
SPLINE
  5
C7
330
1F
100
AcDbEntity
  8
0
  6
Continuous
 62
     1
370
    15
100
AcDbSpline
210
0.0
220
0.0
230
1.0
 70
    24
 71
     3
 72
    14
 73
    10
 74
     0
 42
0.000000001
 43
0.00000001
 40
0.0
 40
0.0
 40
0.0
 40
0.0
 40
0.25
 40
0.25
 40
0.5
 40
0.5
 40
0.75
 40
0.75
 40
1.0
 40
1.0
 40
1.0
 40
1.0
 10
88.20000000000002
 20
11.1135749287239
 30
0.0
 10
88.20000000000003
 20
11.45038096713195
 30
0.0
 10
88.20000000000003
 20
11.81365611299952
 30
0.0
 10
88.2
 20
12.57878601353793
 30
0.0
 10
88.20000000000003
 20
12.9805644937364
 30
0.0
 10
88.20000000000002
 20
13.80172023723046
 30
0.0
 10
88.20000000000003
 20
14.22095936248153
 30
0.0
 10
88.20000000000005
 20
15.05274325056308
 30
0.0
 10
88.20000000000003
 20
15.46513667128338
 30
0.0
 10
88.20000000000003
 20
15.87607492872391
 30
0.0
  0
LINE
  5
C8
330
1F
100
AcDbEntity
  8
중심선
100
AcDbLine
 10
-54.49999999999997
 20
0.0010749287238906
 30
0.0
 11
91.20000000000003
 21
0.0010749287239084
 31
0.0
  0
LINE
  5
C9
330
1F
100
AcDbEntity
  8
참조1
100
AcDbLine
 10
21.19926131403118
 20
0.0010749287238892
 30
0.0
 11
21.19926131403119
 21
-39.99892507127611
 31
0.0
  0
LINE
  5
CA
330
1F
100
AcDbEntity
  8
참조1
100
AcDbLine
 10
21.19926131403119
 20
-39.99892507127611
 30
0.0
 11
-20.15080122126847
 21
-39.9989250712761
 31
0.0
  0
CIRCLE
  5
CB
330
1F
100
AcDbEntity
  8
해칭선
100
AcDbCircle
 10
0.0
 20
0.0
 30
0.0
 40
2.999999999999995
  0
INSERT
  5
CC
330
1F
100
AcDbEntity
  8
0
  6
Continuous
 62
     7
100
AcDbBlockReference
 66
     1
  2
블럭10
 10
4.40972706787482
 20
-52.04609937292004
 30
0.0
  0
ATTRIB
  5
CD
330
CC
100
AcDbEntity
  8
FORMAT
 62
     2
100
AcDbText
 10
-4.77156822086646
 20
-49.97073246008785
 30
0.0
 40
4.233333333333333
  1
E1080116 [ 2 FLUTE ]
 41
0.75
  7
SLDTEXTSTYLE0
 11
-4.77156822086646
 21
-52.08739912675452
 31
0.0
100
AcDbAttribute
  2
AUTOATTR0
 70
     0
 74
     1
  0
SEQEND
  5
CE
330
CC
100
AcDbEntity
  8
0
  6
Continuous
 62
     7
  0
HATCH
  5
CF
330
1F
100
AcDbEntity
  8
중심선
100
AcDbHatch
 10
0.0
 20
0.0
 30
0.0
210
0.0
220
0.0
230
1.0
  2
SOLID
 70
     1
 71
     0
 91
        1
 92
        0
 93
        4
 72
     1
 10
10.12463637225566
 20
-35.7989250712761
 11
6.678361128418377
 21
-35.7989250712761
 72
     1
 10
6.678361128418377
 20
-35.7989250712761
 11
4.550131269214355
 21
-38.33525065184867
 72
     1
 10
4.550131269214355
 20
-38.33525065184867
 11
7.996439598164788
 21
-38.33521122254619
 72
     1
 10
7.996439598164788
 20
-38.33521122254619
 11
10.12463637225566
 21
-35.7989250712761
 97
        0
 75
     0
 76
     1
 98
        1
 10
-2.849261314031157
 20
0.0000000000000009
  0
HATCH
  5
D0
330
1F
100
AcDbEntity
  8
중심선
100
AcDbHatch
 10
0.0
 20
0.0
 30
0.0
210
0.0
220
0.0
230
1.0
  2
SOLID
 70
     1
 71
     0
 91
        1
 92
        0
 93
        4
 72
     1
 10
15.13740036329164
 20
-35.7989250712761
 11
11.69112511945436
 21
-35.79892507127608
 72
     1
 10
11.69112511945436
 20
-35.79892507127608
 11
7.159987111096941
 21
-41.19892507127612
 72
     1
 10
7.159987111096941
 20
-41.19892507127612
 11
10.60626235493422
 21
-41.19892507127612
 72
     1
 10
10.60626235493422
 20
-41.19892507127612
 11
15.13740036329164
 21
-35.7989250712761
 97
        0
 75
     0
 76
     1
 98
        1
 10
-2.849261314031157
 20
0.0000000000000009
  0
HATCH
  5
D1
330
1F
100
AcDbEntity
  8
중심선
100
AcDbHatch
 10
0.0
 20
0.0
 30
0.0
210
0.0
220
0.0
230
1.0
  2
SOLID
 70
     1
 71
     0
 91
        1
 92
        0
 93
        4
 72
     1
 10
20.15016435432754
 20
-35.79892507127608
 11
16.70388911049045
 21
-35.79892507127608
 72
     1
 10
16.70388911049045
 20
-35.79892507127608
 11
9.655452208601142
 21
-44.19892507127612
 72
     1
 10
9.655452208601142
 20
-44.19892507127612
 11
13.10172745243842
 21
-44.19892507127612
 72
     1
 10
13.10172745243842
 20
-44.19892507127612
 11
20.15016435432754
 21
-35.79892507127608
 97
        0
 75
     0
 76
     1
 98
        1
 10
-2.849261314031157
 20
0.0000000000000009
  0
HATCH
  5
D2
330
1F
100
AcDbEntity
  8
중심선
100
AcDbHatch
 10
0.0
 20
0.0
 30
0.0
210
0.0
220
0.0
230
1.0
  2
SOLID
 70
     1
 71
     0
 91
        1
 92
        0
 93
        6
 72
     3
 10
24.95005478533971
 20
-39.99892507132738
 11
3.960054785062283
 21
1.540882976769353E-10
 40
0.3939339440162628
 50
17.09539180608437
 51
320.0019657685079
 73
     0
 72
     1
 10
26.6330544410403
 20
-38.58681907591441
 11
28.93835631474134
 21
-36.65249236586646
 72
     3
 10
24.95005478528686
 20
-39.99892507127625
 11
6.600054785286833
 21
-1.278976924368180E-13
 40
0.6363583540795976
 50
39.99873849337428
 51
368.4976242363725
 73
     1
 72
     1
 10
31.37538727718747
 20
-39.03892507120613
 11
23.63012209212281
 21
-39.03892507120613
 72
     1
 10
23.63012209212281
 20
-39.03892507120613
 11
23.63009704767685
 21
-40.95892507120602
 72
     1
 10
23.63009704767685
 20
-40.95892507120602
 11
28.07147681714888
 21
-40.95892507120599
 97
        0
 75
     0
 76
     1
 98
        1
 10
-2.849261314031157
 20
0.0000000000000009
  0
DIMENSION
  5
D3
330
1F
100
AcDbEntity
  8
치수문자_일반주서
100
AcDbDimension
  2
_D
 10
-63.99999999999994
 20
-15.87392507127615
 30
0.0
 11
-64.0
 21
0.0010749287239045
 31
0.0
 70
   160
  1
%%c<>
 71
     2
 42
31.75
 52
-270.0
  3
SLDDIMSTYLE0
100
AcDbAlignedDimension
 13
-50.49999999999999
 23
15.8760749287239
 33
0.0
 14
-50.49999999999999
 24
-15.8739250712761
 34
0.0
 50
90.0000000000002
100
AcDbRotatedDimension
1001
ACAD
1000
DSTYLE
1002
{
1070
   273
1070
     7
1002
}
  0
DIMENSION
  5
E6
330
1F
100
AcDbEntity
  8
치수문자_일반주서
100
AcDbDimension
  2
_D_1
 10
11.99999999999999
 20
24.93932004498688
 30
0.0
 11
50.57889755269285
 21
24.93932004498688
 31
0.0
 70
   160
  1
<>
 71
     2
 42
76.20000000000002
  3
SLDDIMSTYLE0
100
AcDbAlignedDimension
 13
88.20000000000003
 23
15.87607492872391
 33
0.0
 14
12.00000000000001
 24
15.85671050049978
 34
0.0
100
AcDbRotatedDimension
1001
ACAD
1000
DSTYLE
1002
{
1070
   273
1070
     7
1002
}
  0
DIMENSION
  5
FB
330
1F
100
AcDbEntity
  8
치수문자_일반주서
100
AcDbDimension
  2
_D_2
 10
-51.49999999999999
 20
45.59104079316441
 30
0.0
 11
18.35000000000002
 21
45.59104079316441
 31
0.0
 70
   160
  1
<>
 71
     2
 42
139.7
  3
SLDDIMSTYLE0
100
AcDbAlignedDimension
 13
88.20000000000003
 23
15.87607492872391
 33
0.0
 14
-51.49999999999997
 24
14.87607492872388
 34
0.0
 50
0.0000000000000029
100
AcDbRotatedDimension
1001
ACAD
1000
DSTYLE
1002
{
1070
   273
1070
     7
1002
}
  0
DIMENSION
  5
10E
330
1F
100
AcDbEntity
  8
치수문자_일반주서
100
AcDbDimension
  2
_D_3
 10
108.1647848909798
 20
15.87607492872398
 30
0.0
 11
108.1647848909798
 21
34.92807492872399
 31
0.0
 70
   160
  1
%%c<>
 71
     2
 42
31.75
 52
-270.0
  3
SLDDIMSTYLE0
100
AcDbAlignedDimension
 13
88.20000000000003
 23
-15.87392507127609
 33
0.0
 14
88.20000000000003
 24
15.87607492872391
 34
0.0
 50
90.0000000000002
100
AcDbRotatedDimension
1001
ACAD
1000
DSTYLE
1002
{
1070
   273
1070
     7
1002
}
  0
LINE
  5
121
330
1F
100
AcDbEntity
  8
참조1
100
AcDbLine
 10
77.82153940838579
 20
7.441074928723896
 30
0.0
 11
77.82153940838579
 21
-7.438925071276109
 31
0.0
  0
LINE
  5
122
330
1F
100
AcDbEntity
  8
참조1
100
AcDbLine
 10
90.52153940838579
 20
5.441074928723896
 30
0.0
 11
77.82153940838579
 21
5.441074928723896
 31
0.0
  0
SOLID
  5
123
330
1F
100
AcDbEntity
  8
참조1
100
AcDbTrace
 10
77.82153940838579
 20
5.441074928723896
 30
0.0
 11
84.17153940838578
 21
4.425074928723896
 31
0.0
 12
84.17153940838578
 22
6.457074928723896
 32
0.0
 13
84.17153940838578
 23
6.457074928723896
 33
0.0
  0
LINE
  5
124
330
1F
100
AcDbEntity
  8
참조1
100
AcDbLine
 10
90.52153940838579
 20
-5.438925071276109
 30
0.0
 11
77.82153940838579
 21
-5.438925071276109
 31
0.0
  0
SOLID
  5
125
330
1F
100
AcDbEntity
  8
참조1
100
AcDbTrace
 10
77.82153940838579
 20
-5.438925071276109
 30
0.0
 11
84.17153940838578
 21
-6.454925071276109
 31
0.0
 12
84.17153940838578
 22
-4.422925071276109
 32
0.0
 13
84.17153940838578
 23
-4.422925071276109
 33
0.0
  0
MTEXT
  5
126
330
1F
100
AcDbEntity
  8
참조1
100
AcDbMText
 10
87.20588954101179
 20
11.01136670591222
 30
0.0
 40
3.5
 41
0.0
 71
     1
 72
     1
  1
A
  7
SLDTEXTSTYLE0
 73
     1
 44
1.0
  0
MTEXT
  5
127
330
1F
100
AcDbEntity
  8
참조1
100
AcDbMText
 10
87.20588954101179
 20
0.1313667059122192
 30
0.0
 40
3.5
 41
0.0
 71
     1
 72
     1
  1
A
  7
SLDTEXTSTYLE0
 73
     1
 44
1.0
  0
INSERT
  5
12E
330
1F
100
AcDbEntity
  8
해칭선
100
AcDbBlockReference
  2
SW_DOWELSYMBOL_0
 10
0.0
 20
0.0
 30
0.0
  0
LINE
  5
1AD
330
1F
100
AcDbEntity
  8
외형선
  6
Continuous
370
    15
100
AcDbLine
 10
-28.08132499999997
 20
13.4884749287239
 30
0.0
 11
-14.97492499999996
 21
13.4884749287239
 31
0.0
  0
LINE
  5
1AE
330
1F
100
AcDbEntity
  8
외형선
  6
Continuous
370
    15
100
AcDbLine
 10
-14.97492499999996
 20
13.4884749287239
 30
0.0
 11
-12.58732499999994
 21
15.87607492872392
 31
0.0
  0
LINE
  5
1AF
330
1F
100
AcDbEntity
  8
외형선
  6
Continuous
370
    15
100
AcDbLine
 10
-28.08132499999997
 20
13.4884749287239
 30
0.0
 11
-30.46892499999999
 21
15.87607492872392
 31
0.0
  0
LINE
  5
1B0
330
1F
100
AcDbEntity
  8
외형선
  6
Continuous
370
    15
100
AcDbLine
 10
-51.49999999999997
 20
13.4884749287239
 30
0.0
 11
-37.79999999999998
 21
13.4884749287239
 31
0.0
  0
LINE
  5
1B1
330
1F
100
AcDbEntity
  8
외형선
  6
Continuous
370
    15
100
AcDbLine
 10
-37.79999999999998
 20
13.4884749287239
 30
0.0
 11
-35.41240000000008
 21
15.87607492872389
 31
0.0
  0
LINE
  5
1B3
330
1F
100
AcDbEntity
  8
외형선
  6
Continuous
370
    15
100
AcDbLine
 10
-35.41240000000008
 20
15.8760749287239
 30
0.0
 11
-30.46892499999999
 21
15.8760749287239
 31
0.0
  0
ENDSEC
  0
SECTION
  2
OBJECTS
  0
DICTIONARY
  5
C
330
0
100
AcDbDictionary
281
     1
  3
ACAD_GROUP
350
D
  3
ACAD_IMAGE_VARS
350
152
  3
ACAD_LAYOUT
350
1A
  3
ACAD_MLINESTYLE
350
17
  3
ACAD_PLOTSETTINGS
350
19
  3
ACAD_PLOTSTYLENAME
350
E
  3
ACAD_SCALELIST
350
47
  3
APPDATA
350
150
  3
DWGPROPS
350
1BB
  0
DICTIONARY
  5
179
330
2
100
AcDbDictionary
280
     1
281
     1
  3
ACAD_LAYERSTATES
360
17A
  0
DICTIONARY
  5
D
102
{ACAD_REACTORS
330
C
102
}
330
C
100
AcDbDictionary
281
     1
  0
RASTERVARIABLES
  5
152
102
{ACAD_REACTORS
330
C
102
}
330
C
100
AcDbRasterVariables
 90
        0
 70
     1
 71
     1
 72
     1
  0
DICTIONARY
  5
1A
102
{ACAD_REACTORS
330
C
102
}
330
C
100
AcDbDictionary
281
     1
  3
Layout1
350
1E
  3
Layout2
350
26
  3
Model
350
22
  0
DICTIONARY
  5
17
102
{ACAD_REACTORS
330
C
102
}
330
C
100
AcDbDictionary
281
     1
  3
Standard
350
18
  0
DICTIONARY
  5
19
102
{ACAD_REACTORS
330
C
102
}
330
C
100
AcDbDictionary
281
     1
  0
ACDBDICTIONARYWDFLT
  5
E
102
{ACAD_REACTORS
330
C
102
}
330
C
100
AcDbDictionary
281
     1
  3
Normal
350
F
100
AcDbDictionaryWithDefault
340
F
  0
DICTIONARY
  5
47
102
{ACAD_REACTORS
330
C
102
}
330
C
100
AcDbDictionary
281
     1
  3
A0
350
48
  3
A1
350
49
  3
A2
350
4A
  3
A3
350
4B
  3
A4
350
4C
  3
A5
350
4D
  3
A6
350
4E
  3
A7
350
4F
  3
A8
350
50
  3
A9
350
51
  3
B0
350
52
  3
B1
350
53
  3
B2
350
54
  3
B3
350
55
  3
B4
350
56
  3
B5
350
57
  3
B6
350
58
  3
B7
350
59
  3
B8
350
5A
  3
B9
350
5B
  3
C0
350
5C
  3
C1
350
5D
  3
C2
350
5E
  3
C3
350
5F
  3
C4
350
60
  3
C5
350
61
  3
C6
350
62
  3
C7
350
63
  3
C8
350
64
  3
C9
350
65
  3
D0
350
66
  3
D1
350
67
  3
D2
350
68
  0
DICTIONARY
  5
150
102
{ACAD_REACTORS
330
C
102
}
330
C
100
AcDbDictionary
281
     1
  0
XRECORD
  5
1BB
102
{ACAD_REACTORS
330
C
102
}
330
C
100
AcDbXrecord
280
     1
  1
DWGPROPS COOKIE
  2

  3

  4

  6

  7

  8
12017012
  9

300
=
301
=
302
=
303
=
304
=
305
=
306
=
307
=
308
=
309
=
 40
0.0
 41
2458311.096309884
 42
2458319.109423553
  1

 90
        0
  0
DICTIONARY
  5
17A
102
{ACAD_REACTORS
330
179
102
}
330
179
100
AcDbDictionary
281
     1
  0
LAYOUT
  5
1E
102
{ACAD_REACTORS
330
1A
102
}
330
1A
100
AcDbPlotSettings
  1

  2
none_device
  4

  6

 40
0.0
 41
0.0
 42
0.0
 43
0.0
 44
0.0
 45
0.0
 46
0.0
 47
0.0
 48
0.0
 49
0.0
140
0.0
141
0.0
142
1.0
143
1.0
 70
   688
 72
     1
 73
     0
 74
     5
  7

 75
    16
147
1.0
148
0.0
149
0.0
100
AcDbLayout
  1
Layout1
 70
     1
 71
     1
 10
0.0
 20
0.0
 11
420.0
 21
297.0
 12
0.0
 22
0.0
 32
0.0
 14
1.000000000000000E+20
 24
1.000000000000000E+20
 34
1.000000000000000E+20
 15
-1.000000000000000E+20
 25
-1.000000000000000E+20
 35
-1.000000000000000E+20
146
0.0
 13
0.0
 23
0.0
 33
0.0
 16
1.0
 26
0.0
 36
0.0
 17
0.0
 27
1.0
 37
0.0
 76
     0
330
1B
  0
LAYOUT
  5
26
102
{ACAD_REACTORS
330
1A
102
}
330
1A
100
AcDbPlotSettings
  1

  2
none_device
  4

  6

 40
0.0
 41
0.0
 42
0.0
 43
0.0
 44
0.0
 45
0.0
 46
0.0
 47
0.0
 48
0.0
 49
0.0
140
0.0
141
0.0
142
1.0
143
1.0
 70
   688
 72
     1
 73
     0
 74
     5
  7

 75
    16
147
1.0
148
0.0
149
0.0
100
AcDbLayout
  1
Layout2
 70
     1
 71
     2
 10
0.0
 20
0.0
 11
0.0
 21
0.0
 12
0.0
 22
0.0
 32
0.0
 14
0.0
 24
0.0
 34
0.0
 15
0.0
 25
0.0
 35
0.0
146
0.0
 13
0.0
 23
0.0
 33
0.0
 16
1.0
 26
0.0
 36
0.0
 17
0.0
 27
1.0
 37
0.0
 76
     0
330
23
  0
LAYOUT
  5
22
102
{ACAD_REACTORS
330
1A
102
}
330
1A
100
AcDbPlotSettings
  1

  2
none_device
  4
ANSI_A_(11.00_x_8.50_Inches)
  6

 40
6.35
 41
19.05
 42
6.35000508
 43
19.05000254
 44
279.4
 45
215.9
 46
78.00339692227061
 47
34.44669527120154
 48
0.0
 49
0.0
140
0.0
141
0.0
142
0.0406917368828658
143
1.0
 70
  1696
 72
     0
 73
     0
 74
     0
  7

 75
     0
147
0.0235690232323232
148
0.0
149
0.0
100
AcDbLayout
  1
Model
 70
     1
 71
     0
 10
0.0
 20
0.0
 11
420.0
 21
297.0
 12
0.0
 22
0.0
 32
0.0
 14
1.000000000000000E+20
 24
1.000000000000000E+20
 34
1.000000000000000E+20
 15
-1.000000000000000E+20
 25
-1.000000000000000E+20
 35
-1.000000000000000E+20
146
0.0
 13
0.0
 23
0.0
 33
0.0
 16
1.0
 26
0.0
 36
0.0
 17
0.0
 27
1.0
 37
0.0
 76
     0
330
1F
331
29
  0
MLINESTYLE
  5
18
102
{ACAD_REACTORS
330
17
102
}
330
17
100
AcDbMlineStyle
  2
Standard
 70
     0
  3

 62
   256
 51
90.0
 52
90.0
 71
     2
 49
0.5
 62
   256
  6
BYLAYER
 49
-0.5
 62
   256
  6
BYLAYER
  0
ACDBPLACEHOLDER
  5
F
102
{ACAD_REACTORS
330
E
102
}
330
E
  0
SCALE
  5
48
102
{ACAD_REACTORS
330
47
102
}
330
47
100
AcDbScale
 70
     0
300
1:1
140
1.0
141
1.0
290
     1
  0
SCALE
  5
49
102
{ACAD_REACTORS
330
47
102
}
330
47
100
AcDbScale
 70
     0
300
1:2
140
1.0
141
2.0
290
     0
  0
SCALE
  5
4A
102
{ACAD_REACTORS
330
47
102
}
330
47
100
AcDbScale
 70
     0
300
1:4
140
1.0
141
4.0
290
     0
  0
SCALE
  5
4B
102
{ACAD_REACTORS
330
47
102
}
330
47
100
AcDbScale
 70
     0
300
1:5
140
1.0
141
5.0
290
     0
  0
SCALE
  5
4C
102
{ACAD_REACTORS
330
47
102
}
330
47
100
AcDbScale
 70
     0
300
1:8
140
1.0
141
8.0
290
     0
  0
SCALE
  5
4D
102
{ACAD_REACTORS
330
47
102
}
330
47
100
AcDbScale
 70
     0
300
1:10
140
1.0
141
10.0
290
     0
  0
SCALE
  5
4E
102
{ACAD_REACTORS
330
47
102
}
330
47
100
AcDbScale
 70
     0
300
1:16
140
1.0
141
16.0
290
     0
  0
SCALE
  5
4F
102
{ACAD_REACTORS
330
47
102
}
330
47
100
AcDbScale
 70
     0
300
1:20
140
1.0
141
20.0
290
     0
  0
SCALE
  5
50
102
{ACAD_REACTORS
330
47
102
}
330
47
100
AcDbScale
 70
     0
300
1:30
140
1.0
141
30.0
290
     0
  0
SCALE
  5
51
102
{ACAD_REACTORS
330
47
102
}
330
47
100
AcDbScale
 70
     0
300
1:40
140
1.0
141
40.0
290
     0
  0
SCALE
  5
52
102
{ACAD_REACTORS
330
47
102
}
330
47
100
AcDbScale
 70
     0
300
1:50
140
1.0
141
50.0
290
     0
  0
SCALE
  5
53
102
{ACAD_REACTORS
330
47
102
}
330
47
100
AcDbScale
 70
     0
300
1:100
140
1.0
141
100.0
290
     0
  0
SCALE
  5
54
102
{ACAD_REACTORS
330
47
102
}
330
47
100
AcDbScale
 70
     0
300
2:1
140
2.0
141
1.0
290
     0
  0
SCALE
  5
55
102
{ACAD_REACTORS
330
47
102
}
330
47
100
AcDbScale
 70
     0
300
4:1
140
4.0
141
1.0
290
     0
  0
SCALE
  5
56
102
{ACAD_REACTORS
330
47
102
}
330
47
100
AcDbScale
 70
     0
300
8:1
140
8.0
141
1.0
290
     0
  0
SCALE
  5
57
102
{ACAD_REACTORS
330
47
102
}
330
47
100
AcDbScale
 70
     0
300
10:1
140
10.0
141
1.0
290
     0
  0
SCALE
  5
58
102
{ACAD_REACTORS
330
47
102
}
330
47
100
AcDbScale
 70
     0
300
100:1
140
100.0
141
1.0
290
     0
  0
SCALE
  5
59
102
{ACAD_REACTORS
330
47
102
}
330
47
100
AcDbScale
 70
     0
300
1/128" = 1'-0"
140
0.0078125
141
12.0
290
     0
  0
SCALE
  5
5A
102
{ACAD_REACTORS
330
47
102
}
330
47
100
AcDbScale
 70
     0
300
1/64" = 1'-0"
140
0.015625
141
12.0
290
     0
  0
SCALE
  5
5B
102
{ACAD_REACTORS
330
47
102
}
330
47
100
AcDbScale
 70
     0
300
1/32" = 1'-0"
140
0.03125
141
12.0
290
     0
  0
SCALE
  5
5C
102
{ACAD_REACTORS
330
47
102
}
330
47
100
AcDbScale
 70
     0
300
1/16" = 1'-0"
140
0.0625
141
12.0
290
     0
  0
SCALE
  5
5D
102
{ACAD_REACTORS
330
47
102
}
330
47
100
AcDbScale
 70
     0
300
3/32" = 1'-0"
140
0.09375
141
12.0
290
     0
  0
SCALE
  5
5E
102
{ACAD_REACTORS
330
47
102
}
330
47
100
AcDbScale
 70
     0
300
1/8" = 1'-0"
140
0.125
141
12.0
290
     0
  0
SCALE
  5
5F
102
{ACAD_REACTORS
330
47
102
}
330
47
100
AcDbScale
 70
     0
300
3/16" = 1'-0"
140
0.1875
141
12.0
290
     0
  0
SCALE
  5
60
102
{ACAD_REACTORS
330
47
102
}
330
47
100
AcDbScale
 70
     0
300
1/4" = 1'-0"
140
0.25
141
12.0
290
     0
  0
SCALE
  5
61
102
{ACAD_REACTORS
330
47
102
}
330
47
100
AcDbScale
 70
     0
300
3/8" = 1'-0"
140
0.375
141
12.0
290
     0
  0
SCALE
  5
62
102
{ACAD_REACTORS
330
47
102
}
330
47
100
AcDbScale
 70
     0
300
1/2" = 1'-0"
140
0.5
141
12.0
290
     0
  0
SCALE
  5
63
102
{ACAD_REACTORS
330
47
102
}
330
47
100
AcDbScale
 70
     0
300
3/4" = 1'-0"
140
0.75
141
12.0
290
     0
  0
SCALE
  5
64
102
{ACAD_REACTORS
330
47
102
}
330
47
100
AcDbScale
 70
     0
300
1" = 1'-0"
140
1.0
141
12.0
290
     0
  0
SCALE
  5
65
102
{ACAD_REACTORS
330
47
102
}
330
47
100
AcDbScale
 70
     0
300
1-1/2" = 1'-0"
140
1.5
141
12.0
290
     0
  0
SCALE
  5
66
102
{ACAD_REACTORS
330
47
102
}
330
47
100
AcDbScale
 70
     0
300
3" = 1'-0"
140
3.0
141
12.0
290
     0
  0
SCALE
  5
67
102
{ACAD_REACTORS
330
47
102
}
330
47
100
AcDbScale
 70
     0
300
6" = 1'-0"
140
6.0
141
12.0
290
     0
  0
SCALE
  5
68
102
{ACAD_REACTORS
330
47
102
}
330
47
100
AcDbScale
 70
     0
300
1'-0" = 1'-0"
140
12.0
141
12.0
290
     0
  0
ENDSEC
  0
EOF
