  0
SECTION
  2
HEADER
  9
$ACADVER
  1
AC1015
  9
$ACADMAINTVER
 70
     6
  9
$DWGCODEPAGE
  3
ANSI_949
  9
$INSBASE
 10
0.0
 20
0.0
 30
0.0
  9
$EXTMIN
 10
-68.37500000000004
 20
-49.97180738881178
 30
0.0
  9
$EXTMAX
 10
107.7503333333335
 20
59.26292442259364
 30
0.0
  9
$LIMMIN
 10
0.0
 20
0.0
  9
$LIMMAX
 10
420.0
 20
297.0
  9
$ORTHOMODE
 70
     1
  9
$REGENMODE
 70
     1
  9
$FILLMODE
 70
     1
  9
$QTEXTMODE
 70
     0
  9
$MIRRTEXT
 70
     1
  9
$LTSCALE
 40
1.0
  9
$ATTMODE
 70
     1
  9
$TEXTSIZE
 40
3.5
  9
$TRACEWID
 40
1.0
  9
$TEXTSTYLE
  7
Standard
  9
$CLAYER
  8
0
  9
$CELTYPE
  6
ByLayer
  9
$CECOLOR
 62
   256
  9
$CELTSCALE
 40
1.0
  9
$DISPSILH
 70
     0
  9
$DIMSCALE
 40
1.0
  9
$DIMASZ
 40
3.302
  9
$DIMEXO
 40
1.0
  9
$DIMDLI
 40
3.75
  9
$DIMRND
 40
0.0
  9
$DIMDLE
 40
0.0
  9
$DIMEXE
 40
1.0
  9
$DIMTP
 40
0.0
  9
$DIMTM
 40
0.0
  9
$DIMTXT
 40
3.5
  9
$DIMCEN
 40
2.5
  9
$DIMTSZ
 40
0.0
  9
$DIMTOL
 70
     0
  9
$DIMLIM
 70
     0
  9
$DIMTIH
 70
     1
  9
$DIMTOH
 70
     1
  9
$DIMSE1
 70
     0
  9
$DIMSE2
 70
     0
  9
$DIMTAD
 70
     1
  9
$DIMZIN
 70
     0
  9
$DIMBLK
  1

  9
$DIMASO
 70
     1
  9
$DIMSHO
 70
     1
  9
$DIMPOST
  1

  9
$DIMAPOST
  1

  9
$DIMALT
 70
     0
  9
$DIMALTD
 70
     3
  9
$DIMALTF
 40
0.0393700787401575
  9
$DIMLFAC
 40
1.0
  9
$DIMTOFL
 70
     1
  9
$DIMTVP
 40
0.0
  9
$DIMTIX
 70
     0
  9
$DIMSOXD
 70
     0
  9
$DIMSAH
 70
     0
  9
$DIMBLK1
  1

  9
$DIMBLK2
  1

  9
$DIMSTYLE
  2
ISO-25
  9
$DIMCLRD
 70
     0
  9
$DIMCLRE
 70
     0
  9
$DIMCLRT
 70
     0
  9
$DIMTFAC
 40
1.0
  9
$DIMGAP
 40
1.524
  9
$DIMJUST
 70
     0
  9
$DIMSD1
 70
     0
  9
$DIMSD2
 70
     0
  9
$DIMTOLJ
 70
     0
  9
$DIMTZIN
 70
     0
  9
$DIMALTZ
 70
     0
  9
$DIMALTTZ
 70
     0
  9
$DIMUPT
 70
     0
  9
$DIMDEC
 70
     2
  9
$DIMTDEC
 70
     2
  9
$DIMALTU
 70
     2
  9
$DIMALTTD
 70
     3
  9
$DIMTXSTY
  7
Standard
  9
$DIMAUNIT
 70
     0
  9
$DIMADEC
 70
     2
  9
$DIMALTRND
 40
0.0
  9
$DIMAZIN
 70
     0
  9
$DIMDSEP
 70
    44
  9
$DIMATFIT
 70
     3
  9
$DIMFRAC
 70
     0
  9
$DIMLDRBLK
  1

  9
$DIMLUNIT
 70
     2
  9
$DIMLWD
 70
    -2
  9
$DIMLWE
 70
    -2
  9
$DIMTMOVE
 70
     0
  9
$LUNITS
 70
     2
  9
$LUPREC
 70
     2
  9
$SKETCHINC
 40
1.0
  9
$FILLETRAD
 40
10.0
  9
$AUNITS
 70
     0
  9
$AUPREC
 70
     2
  9
$MENU
  1
.
  9
$ELEVATION
 40
0.0
  9
$PELEVATION
 40
0.0
  9
$THICKNESS
 40
0.0
  9
$LIMCHECK
 70
     0
  9
$CHAMFERA
 40
0.0
  9
$CHAMFERB
 40
0.0
  9
$CHAMFERC
 40
0.0
  9
$CHAMFERD
 40
0.0
  9
$SKPOLY
 70
     0
  9
$TDCREATE
 40
2458311.574108947
  9
$TDUCREATE
 40
2458311.199108947
  9
$TDUPDATE
 40
2458319.48827897
  9
$TDUUPDATE
 40
2458319.11327897
  9
$TDINDWG
 40
0.0037670486
  9
$TDUSRTIMER
 40
2458319.113056007
  9
$USRTIMER
 70
     1
  9
$ANGBASE
 50
0.0
  9
$ANGDIR
 70
     0
  9
$PDMODE
 70
     0
  9
$PDSIZE
 40
-1.0
  9
$PLINEWID
 40
0.0
  9
$SPLFRAME
 70
     0
  9
$SPLINETYPE
 70
     6
  9
$SPLINESEGS
 70
     8
  9
$HANDSEED
  5
2F1
  9
$SURFTAB1
 70
     6
  9
$SURFTAB2
 70
     6
  9
$SURFTYPE
 70
     6
  9
$SURFU
 70
     6
  9
$SURFV
 70
     6
  9
$UCSBASE
  2

  9
$UCSNAME
  2

  9
$UCSORG
 10
0.0
 20
0.0
 30
0.0
  9
$UCSXDIR
 10
1.0
 20
0.0
 30
0.0
  9
$UCSYDIR
 10
0.0
 20
1.0
 30
0.0
  9
$UCSORTHOREF
  2

  9
$UCSORTHOVIEW
 70
     0
  9
$UCSORGTOP
 10
0.0
 20
0.0
 30
0.0
  9
$UCSORGBOTTOM
 10
0.0
 20
0.0
 30
0.0
  9
$UCSORGLEFT
 10
0.0
 20
0.0
 30
0.0
  9
$UCSORGRIGHT
 10
0.0
 20
0.0
 30
0.0
  9
$UCSORGFRONT
 10
0.0
 20
0.0
 30
0.0
  9
$UCSORGBACK
 10
0.0
 20
0.0
 30
0.0
  9
$PUCSBASE
  2

  9
$PUCSNAME
  2

  9
$PUCSORG
 10
0.0
 20
0.0
 30
0.0
  9
$PUCSXDIR
 10
1.0
 20
0.0
 30
0.0
  9
$PUCSYDIR
 10
0.0
 20
1.0
 30
0.0
  9
$PUCSORTHOREF
  2

  9
$PUCSORTHOVIEW
 70
     0
  9
$PUCSORGTOP
 10
0.0
 20
0.0
 30
0.0
  9
$PUCSORGBOTTOM
 10
0.0
 20
0.0
 30
0.0
  9
$PUCSORGLEFT
 10
0.0
 20
0.0
 30
0.0
  9
$PUCSORGRIGHT
 10
0.0
 20
0.0
 30
0.0
  9
$PUCSORGFRONT
 10
0.0
 20
0.0
 30
0.0
  9
$PUCSORGBACK
 10
0.0
 20
0.0
 30
0.0
  9
$USERI1
 70
     0
  9
$USERI2
 70
     0
  9
$USERI3
 70
     0
  9
$USERI4
 70
     0
  9
$USERI5
 70
     0
  9
$USERR1
 40
0.0
  9
$USERR2
 40
0.0
  9
$USERR3
 40
0.0
  9
$USERR4
 40
0.0
  9
$USERR5
 40
0.0
  9
$WORLDVIEW
 70
     1
  9
$SHADEDGE
 70
     3
  9
$SHADEDIF
 70
    70
  9
$TILEMODE
 70
     1
  9
$MAXACTVP
 70
    64
  9
$PINSBASE
 10
0.0
 20
0.0
 30
0.0
  9
$PLIMCHECK
 70
     0
  9
$PEXTMIN
 10
1.000000000000000E+20
 20
1.000000000000000E+20
 30
1.000000000000000E+20
  9
$PEXTMAX
 10
-1.000000000000000E+20
 20
-1.000000000000000E+20
 30
-1.000000000000000E+20
  9
$PLIMMIN
 10
0.0
 20
0.0
  9
$PLIMMAX
 10
0.0
 20
0.0
  9
$UNITMODE
 70
     0
  9
$VISRETAIN
 70
     1
  9
$PLINEGEN
 70
     0
  9
$PSLTSCALE
 70
     1
  9
$TREEDEPTH
 70
  3020
  9
$CMLSTYLE
  2
Standard
  9
$CMLJUST
 70
     0
  9
$CMLSCALE
 40
20.0
  9
$PROXYGRAPHICS
 70
     1
  9
$MEASUREMENT
 70
     1
  9
$CELWEIGHT
370
    -1
  9
$ENDCAPS
280
     0
  9
$JOINSTYLE
280
     0
  9
$LWDISPLAY
290
     1
  9
$INSUNITS
 70
     4
  9
$HYPERLINKBASE
  1

  9
$STYLESHEET
  1

  9
$XEDIT
290
     1
  9
$CEPSNTYPE
380
     0
  9
$PSTYLEMODE
290
     1
  9
$FINGERPRINTGUID
  2
{710DB61D-D328-4E7A-AEED-3A2011F3F4AD}
  9
$VERSIONGUID
  2
{FAEB1C32-E019-11D5-929B-00C0DF256EC4}
  9
$EXTNAMES
290
     1
  9
$PSVPSCALE
 40
0.0
  9
$OLESTARTUP
290
     0
  0
ENDSEC
  0
SECTION
  2
CLASSES
  0
CLASS
  1
ACDBDICTIONARYWDFLT
  2
AcDbDictionaryWithDefault
  3
ObjectDBX Classes
 90
        0
280
     0
281
     0
  0
CLASS
  1
VISUALSTYLE
  2
AcDbVisualStyle
  3
ObjectDBX Classes
 90
     4095
280
     0
281
     0
  0
CLASS
  1
MATERIAL
  2
AcDbMaterial
  3
ObjectDBX Classes
 90
     1153
280
     0
281
     0
  0
CLASS
  1
SCALE
  2
AcDbScale
  3
ObjectDBX Classes
 90
     1153
280
     0
281
     0
  0
CLASS
  1
SUN
  2
AcDbSun
  3
SCENEOE
 90
     1153
280
     0
281
     0
  0
CLASS
  1
ACDBPLACEHOLDER
  2
AcDbPlaceHolder
  3
ObjectDBX Classes
 90
        0
280
     0
281
     0
  0
CLASS
  1
LAYOUT
  2
AcDbLayout
  3
ObjectDBX Classes
 90
        0
280
     0
281
     0
  0
CLASS
  1
TABLESTYLE
  2
AcDbTableStyle
  3
ObjectDBX Classes
 90
     4095
280
     0
281
     0
  0
CLASS
  1
MLEADERSTYLE
  2
AcDbMLeaderStyle
  3
ACDB_MLEADERSTYLE_CLASS
 90
     4095
280
     0
281
     0
  0
CLASS
  1
RASTERVARIABLES
  2
AcDbRasterVariables
  3
ISM
 90
        0
280
     0
281
     0
  0
ENDSEC
  0
SECTION
  2
TABLES
  0
TABLE
  2
VPORT
  5
8
330
0
100
AcDbSymbolTable
 70
     1
  0
VPORT
  5
29
330
8
100
AcDbSymbolTableRecord
100
AcDbViewportTableRecord
  2
*Active
 70
     0
 10
0.0
 20
0.0
 11
1.0
 21
1.0
 12
22.47525128905159
 22
0.1983321054898504
 13
0.0
 23
0.0
 14
10.0
 24
10.0
 15
10.0
 25
10.0
 16
0.0
 26
0.0
 36
1.0
 17
0.0
 27
0.0
 37
0.0
 40
132.1178809616386
 41
1.632093933463796
 42
50.0
 43
0.0
 44
0.0
 50
0.0
 51
0.0
 71
    16
 72
  2000
 73
     1
 74
     3
 75
     0
 76
     0
 77
     0
 78
     0
281
     0
 65
     1
110
0.0
120
0.0
130
0.0
111
1.0
121
0.0
131
0.0
112
0.0
122
1.0
132
0.0
 79
     0
146
0.0
  0
ENDTAB
  0
TABLE
  2
LTYPE
  5
5
330
0
100
AcDbSymbolTable
 70
     6
  0
LTYPE
  5
14
330
5
100
AcDbSymbolTableRecord
100
AcDbLinetypeTableRecord
  2
ByBlock
 70
     0
  3

 72
    65
 73
     0
 40
0.0
  0
LTYPE
  5
15
330
5
100
AcDbSymbolTableRecord
100
AcDbLinetypeTableRecord
  2
ByLayer
 70
     0
  3

 72
    65
 73
     0
 40
0.0
  0
LTYPE
  5
16
330
5
100
AcDbSymbolTableRecord
100
AcDbLinetypeTableRecord
  2
Continuous
 70
     0
  3
Solid line
 72
    65
 73
     0
 40
0.0
  0
LTYPE
  5
6A
330
5
100
AcDbSymbolTableRecord
100
AcDbLinetypeTableRecord
  2
HIDDEN
 70
     0
  3
Hidden __ __ __ __ __ __ __ __ __ __ __ __ __ __
 72
    65
 73
     2
 40
1.905
 49
1.27
 74
     0
 49
-0.635
 74
     0
  0
LTYPE
  5
6B
330
5
100
AcDbSymbolTableRecord
100
AcDbLinetypeTableRecord
  2
PHANTOM
 70
     0
  3
Phantom ______  __  __  ______  __  __  ______
 72
    65
 73
     6
 40
12.7
 49
6.35
 74
     0
 49
-1.27
 74
     0
 49
1.27
 74
     0
 49
-1.27
 74
     0
 49
1.27
 74
     0
 49
-1.27
 74
     0
  0
LTYPE
  5
6C
330
5
100
AcDbSymbolTableRecord
100
AcDbLinetypeTableRecord
  2
CENTER
 70
     0
  3
Center ____ _ ____ _ ____ _ ____ _ ____ _ ____
 72
    65
 73
     4
 40
10.16
 49
6.35
 74
     0
 49
-1.27
 74
     0
 49
1.27
 74
     0
 49
-1.27
 74
     0
  0
LTYPE
  5
6D
330
5
100
AcDbSymbolTableRecord
100
AcDbLinetypeTableRecord
  2
CENTERX2
 70
     0
  3
Center (2x) ________  __  ________  __  _____
 72
    65
 73
     4
 40
20.32
 49
12.7
 74
     0
 49
-2.54
 74
     0
 49
2.54
 74
     0
 49
-2.54
 74
     0
  0
LTYPE
  5
6E
330
5
100
AcDbSymbolTableRecord
100
AcDbLinetypeTableRecord
  2
DOT2
 70
     0
  3
Dot (.5x) ........................................
 72
    65
 73
     2
 40
0.635
 49
0.0
 74
     0
 49
-0.635
 74
     0
  0
ENDTAB
  0
TABLE
  2
LAYER
  5
2
102
{ACAD_XDICTIONARY
360
169
102
}
330
0
100
AcDbSymbolTable
 70
    18
  0
LAYER
  5
10
330
2
100
AcDbSymbolTableRecord
100
AcDbLayerTableRecord
  2
0
 70
     0
 62
     7
  6
Continuous
370
    -3
390
F
  0
LAYER
  5
6F
330
2
100
AcDbSymbolTableRecord
100
AcDbLayerTableRecord
  2
FORMAT
 70
     0
 62
     2
  6
Continuous
370
    -3
390
F
  0
LAYER
  5
70
330
2
100
AcDbSymbolTableRecord
100
AcDbLayerTableRecord
  2
외형선
 70
     0
 62
     4
  6
Continuous
370
    30
390
F
  0
LAYER
  5
71
330
2
100
AcDbSymbolTableRecord
100
AcDbLayerTableRecord
  2
숨은선
 70
     0
 62
     2
  6
HIDDEN
370
    15
390
F
  0
LAYER
  5
72
330
2
100
AcDbSymbolTableRecord
100
AcDbLayerTableRecord
  2
중심선
 70
     0
 62
     1
  6
CENTERX2
370
    -3
390
F
  0
LAYER
  5
73
330
2
100
AcDbSymbolTableRecord
100
AcDbLayerTableRecord
  2
파단선
 70
     0
 62
     4
  6
Continuous
370
    -3
390
F
  0
LAYER
  5
74
330
2
100
AcDbSymbolTableRecord
100
AcDbLayerTableRecord
  2
해칭선
 70
     0
 62
   100
  6
Continuous
370
    -3
390
F
  0
LAYER
  5
75
330
2
100
AcDbSymbolTableRecord
100
AcDbLayerTableRecord
  2
가는실선
 70
     0
 62
     4
  6
Continuous
370
    -3
390
F
  0
LAYER
  5
76
330
2
100
AcDbSymbolTableRecord
100
AcDbLayerTableRecord
  2
치수_보조선
 70
     0
 62
     4
  6
Continuous
370
    -3
390
F
  0
LAYER
  5
77
330
2
100
AcDbSymbolTableRecord
100
AcDbLayerTableRecord
  2
치수문자_일반주서
 70
     0
 62
     7
  6
Continuous
370
    15
390
F
  0
LAYER
  5
78
330
2
100
AcDbSymbolTableRecord
100
AcDbLayerTableRecord
  2
개별주서
 70
     0
 62
   100
  6
Continuous
370
    30
390
F
  0
LAYER
  5
79
330
2
100
AcDbSymbolTableRecord
100
AcDbLayerTableRecord
  2
중간선
 70
     0
 62
     2
  6
Continuous
370
    15
390
F
  0
LAYER
  5
7A
330
2
100
AcDbSymbolTableRecord
100
AcDbLayerTableRecord
  2
윤곽선
 70
     0
 62
     3
  6
Continuous
370
    40
390
F
  0
LAYER
  5
7B
330
2
100
AcDbSymbolTableRecord
100
AcDbLayerTableRecord
  2
중심마크
 70
     0
 62
   100
  6
Continuous
370
    30
390
F
  0
LAYER
  5
7C
330
2
100
AcDbSymbolTableRecord
100
AcDbLayerTableRecord
  2
가상선
 70
     0
 62
     4
  6
PHANTOM
370
    -3
390
F
  0
LAYER
  5
7D
330
2
100
AcDbSymbolTableRecord
100
AcDbLayerTableRecord
  2
특수지정선
 70
     0
 62
     5
  6
CENTERX2
370
    60
390
F
  0
LAYER
  5
7E
330
2
100
AcDbSymbolTableRecord
100
AcDbLayerTableRecord
  2
참조1
 70
     0
 62
    -4
  6
Continuous
370
    -3
390
F
  0
LAYER
  5
16E
330
2
100
AcDbSymbolTableRecord
100
AcDbLayerTableRecord
  2
Defpoints
 70
     0
 62
     7
  6
Continuous
290
     0
370
    -3
390
F
  0
ENDTAB
  0
TABLE
  2
STYLE
  5
3
330
0
100
AcDbSymbolTable
 70
     2
  0
STYLE
  5
11
330
3
100
AcDbSymbolTableRecord
100
AcDbTextStyleTableRecord
  2
Standard
 70
     0
 40
0.0
 41
1.0
 50
0.0
 71
     0
 42
3.5
  3
txt
  4

  0
STYLE
  5
94
330
3
100
AcDbSymbolTableRecord
100
AcDbTextStyleTableRecord
  2
SLDTEXTSTYLE0
 70
     0
 40
0.0
 41
0.75
 50
0.0
 71
     0
 42
3.5
  3
TXT
  4

  0
ENDTAB
  0
TABLE
  2
VIEW
  5
6
330
0
100
AcDbSymbolTable
 70
     0
  0
ENDTAB
  0
TABLE
  2
UCS
  5
7
330
0
100
AcDbSymbolTable
 70
     0
  0
ENDTAB
  0
TABLE
  2
APPID
  5
9
330
0
100
AcDbSymbolTable
 70
     1
  0
APPID
  5
12
330
9
100
AcDbSymbolTableRecord
100
AcDbRegAppTableRecord
  2
ACAD
 70
     0
  0
ENDTAB
  0
TABLE
  2
DIMSTYLE
  5
A
330
0
100
AcDbSymbolTable
 70
     5
100
AcDbDimStyleTable
  0
DIMSTYLE
105
27
330
A
100
AcDbSymbolTableRecord
100
AcDbDimStyleTableRecord
  2
ISO-25
 70
     0
 41
2.5
 42
0.625
 43
3.75
 44
1.25
 73
     0
 74
     0
 77
     1
 78
     8
140
2.5
141
2.5
143
0.03937007874016
147
0.625
171
     3
172
     1
178
     0
271
     2
272
     2
274
     3
278
    44
283
     0
284
     8
340
11
  0
DIMSTYLE
105
C6
102
{ACAD_REACTORS
102
}
330
A
100
AcDbSymbolTableRecord
100
AcDbDimStyleTableRecord
  2
SLDDIMSTYLE0
 70
     0
 41
3.302
 44
0.0
 45
0.000000001
 73
     0
 74
     0
 77
     1
 78
     4
 79
     1
140
3.5
147
0.875
172
     1
173
     1
178
     0
271
     2
272
     2
276
     2
284
    12
289
     0
340
94
  0
DIMSTYLE
105
D4
102
{ACAD_REACTORS
330
D3
330
284
330
282
102
}
330
A
100
AcDbSymbolTableRecord
100
AcDbDimStyleTableRecord
  2
SLDDIMSTYLE1
 70
     0
 41
3.302
 44
0.0
 45
0.000000001
 73
     0
 74
     0
 77
     1
 78
     4
 79
     1
140
3.5
143
0.0393700787401575
147
0.875
148
0.000000001
170
     1
172
     1
173
     1
178
     0
271
     2
272
     2
276
     2
284
    12
289
     0
340
94
  0
DIMSTYLE
105
EA
330
A
100
AcDbSymbolTableRecord
100
AcDbDimStyleTableRecord
  2
SLDDIMSTYLE2
 70
     0
 41
3.302
 44
0.0
 45
0.000000001
 73
     0
 74
     0
 77
     1
 78
     4
 79
     1
140
3.5
143
0.0393700787401575
147
0.875
148
0.000000001
170
     1
173
     1
178
     0
271
     2
272
     2
276
     2
284
    12
340
94
  0
DIMSTYLE
105
FE
102
{ACAD_REACTORS
330
FD
102
}
330
A
100
AcDbSymbolTableRecord
100
AcDbDimStyleTableRecord
  2
SLDDIMSTYLE3
 70
     0
 41
3.302
 44
0.0
 45
0.000000001
 73
     0
 74
     0
 77
     1
 78
    12
 79
     3
140
3.5
143
0.0393700787401575
147
0.875
148
0.000000001
170
     1
173
     1
178
     0
271
     2
272
     2
276
     2
284
    12
340
94
  0
ENDTAB
  0
TABLE
  2
BLOCK_RECORD
  5
1
330
0
100
AcDbSymbolTable
 70
    15
  0
BLOCK_RECORD
  5
1F
330
1
100
AcDbSymbolTableRecord
100
AcDbBlockTableRecord
  2
*Model_Space
340
22
  0
BLOCK_RECORD
  5
1B
330
1
100
AcDbSymbolTableRecord
100
AcDbBlockTableRecord
  2
*Paper_Space
340
1E
  0
BLOCK_RECORD
  5
23
330
1
100
AcDbSymbolTableRecord
100
AcDbBlockTableRecord
  2
*Paper_Space0
340
26
  0
BLOCK_RECORD
  5
7F
330
1
100
AcDbSymbolTableRecord
100
AcDbBlockTableRecord
  2
블럭10
340
0
102
{BLKREFS
331
BE
102
}
  0
BLOCK_RECORD
  5
C7
330
1
100
AcDbSymbolTableRecord
100
AcDbBlockTableRecord
  2
_D
340
0
  0
BLOCK_RECORD
  5
D5
330
1
100
AcDbSymbolTableRecord
100
AcDbBlockTableRecord
  2
_D_1
340
0
  0
BLOCK_RECORD
  5
EB
330
1
100
AcDbSymbolTableRecord
100
AcDbBlockTableRecord
  2
_D_2
340
0
  0
BLOCK_RECORD
  5
FF
330
1
100
AcDbSymbolTableRecord
100
AcDbBlockTableRecord
  2
_D_3
340
0
  0
BLOCK_RECORD
  5
118
330
1
100
AcDbSymbolTableRecord
100
AcDbBlockTableRecord
  2
SW_DOWELSYMBOL_0
340
0
102
{BLKREFS
331
286
102
}
  0
BLOCK_RECORD
  5
216
330
1
100
AcDbSymbolTableRecord
100
AcDbBlockTableRecord
  2
*D7
340
0
  0
BLOCK_RECORD
  5
222
330
1
100
AcDbSymbolTableRecord
100
AcDbBlockTableRecord
  2
*D8
340
0
  0
BLOCK_RECORD
  5
22E
330
1
100
AcDbSymbolTableRecord
100
AcDbBlockTableRecord
  2
*D9
340
0
  0
BLOCK_RECORD
  5
23A
330
1
100
AcDbSymbolTableRecord
100
AcDbBlockTableRecord
  2
*D10
340
0
  0
BLOCK_RECORD
  5
28E
330
1
100
AcDbSymbolTableRecord
100
AcDbBlockTableRecord
  2
*D11
340
0
  0
BLOCK_RECORD
  5
29A
330
1
100
AcDbSymbolTableRecord
100
AcDbBlockTableRecord
  2
*D12
340
0
  0
BLOCK_RECORD
  5
2A6
330
1
100
AcDbSymbolTableRecord
100
AcDbBlockTableRecord
  2
*D13
340
0
  0
BLOCK_RECORD
  5
2B2
330
1
100
AcDbSymbolTableRecord
100
AcDbBlockTableRecord
  2
*D14
340
0
  0
ENDTAB
  0
ENDSEC
  0
SECTION
  2
BLOCKS
  0
BLOCK
  5
20
330
1F
100
AcDbEntity
  8
0
100
AcDbBlockBegin
  2
*Model_Space
 70
     0
 10
0.0
 20
0.0
 30
0.0
  3
*Model_Space
  1
*Model_Space
  0
ENDBLK
  5
21
330
1F
100
AcDbEntity
  8
0
100
AcDbBlockEnd
  0
BLOCK
  5
1C
330
1B
100
AcDbEntity
 67
     1
  8
0
100
AcDbBlockBegin
  2
*Paper_Space
 70
     0
 10
0.0
 20
0.0
 30
0.0
  3
*Paper_Space
  1
*Paper_Space
  0
ENDBLK
  5
1D
330
1B
100
AcDbEntity
 67
     1
  8
0
100
AcDbBlockEnd
  0
BLOCK
  5
24
330
23
100
AcDbEntity
  8
0
100
AcDbBlockBegin
  2
*Paper_Space0
 70
     0
 10
0.0
 20
0.0
 30
0.0
  3
*Paper_Space0
  1
*Paper_Space0
  0
ENDBLK
  5
25
330
23
100
AcDbEntity
  8
0
100
AcDbBlockEnd
  0
BLOCK
  5
80
330
7F
100
AcDbEntity
  8
0
100
AcDbBlockBegin
  2
블럭10
 70
     2
 10
0.0
 20
0.0
 30
0.0
  3
블럭10
  1
블럭10
  0
ELLIPSE
  5
82
330
7F
100
AcDbEntity
  8
중심선
100
AcDbEllipse
 10
20.54032771741204
 20
12.0471743016438
 30
0.0
 11
6.600054785286829
 21
-1.261213355974178E-13
 31
0.0
210
0.0
220
0.0
230
1.0
 40
0.636358354079598
 41
0.9219305317359503
 42
6.513795318482858
  0
ELLIPSE
  5
83
330
7F
100
AcDbEntity
  8
중심선
100
AcDbEllipse
 10
20.54032771746488
 20
12.04717430159265
 30
0.0
 11
3.960054785062283
 21
1.540847449632565E-10
 31
0.0
210
0.0
220
0.0
230
1.0
 40
0.3939339440162632
 41
1.131841032648279
 42
5.62031148352944
  0
LINE
  5
84
330
7F
100
AcDbEntity
  8
중심선
100
AcDbLine
 10
2.268634060543552
 20
16.24717430164393
 30
0.0
 11
5.714909304380834
 21
16.24717430164393
 31
0.0
  0
LINE
  5
85
330
7F
100
AcDbEntity
  8
중심선
100
AcDbLine
 10
5.245725140726316
 20
7.84717430164391
 30
0.0
 11
8.692000384563599
 21
7.84717430164391
 31
0.0
  0
LINE
  5
86
330
7F
100
AcDbEntity
  8
중심선
100
AcDbLine
 10
15.74043728645272
 20
16.24717430164393
 30
0.0
 11
8.692000384563599
 21
7.84717430164391
 31
0.0
  0
LINE
  5
87
330
7F
100
AcDbEntity
  8
중심선
100
AcDbLine
 10
0.1404042013395286
 20
13.71084872107135
 30
0.0
 11
3.58671253028996
 21
13.71088815037384
 31
0.0
  0
LINE
  5
88
330
7F
100
AcDbEntity
  8
중심선
100
AcDbLine
 10
2.750260043222114
 20
10.84717430164391
 30
0.0
 11
6.196535287059397
 21
10.84717430164391
 31
0.0
  0
LINE
  5
89
330
7F
100
AcDbEntity
  8
중심선
100
AcDbLine
 10
12.29416204261559
 20
16.24717430164393
 30
0.0
 11
5.245725140726316
 21
7.84717430164391
 31
0.0
  0
LINE
  5
8A
330
7F
100
AcDbEntity
  8
중심선
100
AcDbLine
 10
10.72767329541681
 20
16.24717430164393
 30
0.0
 11
6.196535287059397
 21
10.84717430164391
 31
0.0
  0
LINE
  5
8B
330
7F
100
AcDbEntity
  8
중심선
100
AcDbLine
 10
7.28139805157953
 20
16.24717430164393
 30
0.0
 11
2.750260043222114
 21
10.84717430164391
 31
0.0
  0
LINE
  5
8C
330
7F
100
AcDbEntity
  8
중심선
100
AcDbLine
 10
5.714909304380834
 20
16.24717430164393
 30
0.0
 11
3.58671253028996
 21
13.71088815037384
 31
0.0
  0
LINE
  5
8D
330
7F
100
AcDbEntity
  8
중심선
100
AcDbLine
 10
2.268634060543552
 20
16.24717430164393
 30
0.0
 11
0.1404042013395286
 21
13.71084872107135
 31
0.0
  0
LINE
  5
8E
330
7F
100
AcDbEntity
  8
중심선
100
AcDbLine
 10
7.28139805157953
 20
16.24717430164393
 30
0.0
 11
10.72767329541681
 21
16.24717430164393
 31
0.0
  0
LINE
  5
8F
330
7F
100
AcDbEntity
  8
중심선
100
AcDbLine
 10
12.29416204261559
 20
16.24717430164393
 30
0.0
 11
15.74043728645272
 21
16.24717430164393
 31
0.0
  0
LINE
  5
90
330
7F
100
AcDbEntity
  8
중심선
100
AcDbLine
 10
19.22036997980202
 20
11.08717430171403
 30
0.0
 11
23.66174974927406
 21
11.08717430171406
 31
0.0
  0
LINE
  5
91
330
7F
100
AcDbEntity
  8
중심선
100
AcDbLine
 10
19.22039502424796
 20
13.00717430171391
 30
0.0
 11
19.22036997980202
 21
11.08717430171403
 31
0.0
  0
LINE
  5
92
330
7F
100
AcDbEntity
  8
중심선
100
AcDbLine
 10
19.22039502424796
 20
13.00717430171391
 30
0.0
 11
26.96566020931264
 21
13.00717430171391
 31
0.0
  0
LINE
  5
93
330
7F
100
AcDbEntity
  8
중심선
100
AcDbLine
 10
22.22332737316547
 20
13.45928029700563
 30
0.0
 11
24.52862924686651
 21
15.39360700705356
 31
0.0
  0
ATTDEF
  5
95
330
7F
100
AcDbEntity
  8
FORMAT
 62
     2
100
AcDbText
 10
4.408487351596664
 20
2.075366912832191
 30
0.0
 40
4.233333333333333
  1
E1080108
 41
0.75
  7
SLDTEXTSTYLE0
 11
4.408487351596664
 21
-0.0412997538344756
 31
0.0
100
AcDbAttributeDefinition
  3

  2
AUTOATTR0
 70
     0
 74
     1
  0
ENDBLK
  5
81
330
7F
100
AcDbEntity
  8
0
100
AcDbBlockEnd
  0
BLOCK
  5
C8
330
C7
100
AcDbEntity
  8
0
100
AcDbBlockBegin
  2
_D
 70
     0
 10
0.0
 20
0.0
 30
0.0
  3
_D
  1
_D
  0
SOLID
  5
CA
330
C7
100
AcDbEntity
  8
치수문자_일반주서
100
AcDbTrace
 10
-59.5594211678731
 20
6.351074928723887
 30
0.0
 11
-59.05142116787309
 21
9.653074928723886
 31
0.0
 12
-60.0674211678731
 22
9.653074928723886
 32
0.0
 13
-60.0674211678731
 23
9.653074928723886
 33
0.0
  0
SOLID
  5
CB
330
C7
100
AcDbEntity
  8
치수문자_일반주서
100
AcDbTrace
 10
-59.5594211678731
 20
-6.348925071276102
 30
0.0
 11
-60.0674211678731
 21
-9.650925071276102
 31
0.0
 12
-59.05142116787309
 22
-9.650925071276102
 32
0.0
 13
-59.05142116787309
 23
-9.650925071276102
 33
0.0
  0
LINE
  5
CC
330
C7
100
AcDbEntity
  8
치수문자_일반주서
100
AcDbLine
 10
-47.05942116787307
 20
6.351074928723888
 30
0.0
 11
-60.5594211678731
 21
6.351074928723887
 31
0.0
  0
LINE
  5
CD
330
C7
100
AcDbEntity
  8
치수문자_일반주서
100
AcDbLine
 10
-47.05942116787307
 20
-6.348925071276101
 30
0.0
 11
-60.5594211678731
 21
-6.348925071276102
 31
0.0
  0
LINE
  5
CE
330
C7
100
AcDbEntity
  8
치수문자_일반주서
100
AcDbLine
 10
-59.5594211678731
 20
6.351074928723887
 30
0.0
 11
-59.5594211678731
 21
12.70107492872389
 31
0.0
  0
LINE
  5
CF
330
C7
100
AcDbEntity
  8
치수문자_일반주서
100
AcDbLine
 10
-59.5594211678731
 20
6.351074928723887
 30
0.0
 11
-59.5594211678731
 21
-6.348925071276102
 31
0.0
  0
LINE
  5
D0
330
C7
100
AcDbEntity
  8
치수문자_일반주서
100
AcDbLine
 10
-59.5594211678731
 20
-6.348925071276102
 30
0.0
 11
-59.5594211678731
 21
-12.6989250712761
 31
0.0
  0
MTEXT
  5
D1
330
C7
100
AcDbEntity
  8
치수문자_일반주서
100
AcDbMText
 10
-64.07115825707491
 20
-8.456894014097152
 30
0.0
 40
3.5
 41
0.0
 71
     1
 72
     1
  1
%%c
  7
SLDTEXTSTYLE0
 11
-7.044195017643634E-15
 21
1.0
 31
0.0
 73
     1
 44
1.0
  0
MTEXT
  5
D2
330
C7
100
AcDbEntity
  8
치수문자_일반주서
100
AcDbMText
 10
-64.1246304337348
 20
-3.178456615723071
 30
0.0
 40
3.5
 41
0.0
 71
     1
 72
     1
  1
12.70
  7
SLDTEXTSTYLE0
 11
-7.044195017643634E-15
 21
1.0
 31
0.0
 73
     1
 44
1.0
  0
ENDBLK
  5
C9
330
C7
100
AcDbEntity
  8
0
100
AcDbBlockEnd
  0
BLOCK
  5
D6
330
D5
100
AcDbEntity
  8
0
100
AcDbBlockBegin
  2
_D_1
 70
     0
 10
0.0
 20
0.0
 30
0.0
  3
_D_1
  1
_D_1
  0
LINE
  5
D8
330
D5
100
AcDbEntity
  8
0
  6
Continuous
 62
     0
370
    -2
100
AcDbLine
 10
88.20000000000002
 20
14.35
 30
0.0
 11
88.20000000000002
 21
26.55081957525041
 31
0.0
  0
LINE
  5
D9
330
D5
100
AcDbEntity
  8
0
  6
Continuous
 62
     0
370
    -2
100
AcDbLine
 10
12.00000000000001
 20
12.76249999999997
 30
0.0
 11
12.00000000000001
 21
26.55081957525041
 31
0.0
  0
LINE
  5
DA
330
D5
100
AcDbEntity
  8
0
  6
Continuous
 62
     0
370
    -2
100
AcDbLine
 10
84.89800000000002
 20
26.55081957525041
 30
0.0
 11
15.30200000000001
 21
26.55081957525041
 31
0.0
  0
SOLID
  5
DB
330
D5
100
AcDbEntity
  8
0
 62
     0
100
AcDbTrace
 10
84.89800000000002
 20
26.00048624191707
 30
0.0
 11
84.89800000000002
 21
27.10115290858374
 31
0.0
 12
88.20000000000002
 22
26.55081957525041
 32
0.0
 13
88.20000000000002
 23
26.55081957525041
 33
0.0
  0
SOLID
  5
DC
330
D5
100
AcDbEntity
  8
0
 62
     0
100
AcDbTrace
 10
15.30200000000001
 20
27.10115290858374
 30
0.0
 11
15.30200000000001
 21
26.00048624191707
 31
0.0
 12
12.00000000000001
 22
26.55081957525041
 32
0.0
 13
12.00000000000001
 23
26.55081957525041
 33
0.0
  0
MTEXT
  5
DD
330
D5
100
AcDbEntity
  8
0
 62
     0
370
    15
100
AcDbMText
 10
51.03327820791022
 20
30.92581957525041
 30
0.0
 40
3.5
 41
0.0
 71
     2
 72
     1
  1
\A1;76.20 [3]
  7
SLDTEXTSTYLE0
 73
     1
 44
1.0
  0
POINT
  5
DE
330
D5
100
AcDbEntity
  8
Defpoints
 62
     0
100
AcDbPoint
 10
88.20000000000002
 20
14.2875
 30
0.0
  0
POINT
  5
DF
330
D5
100
AcDbEntity
  8
Defpoints
 62
     0
100
AcDbPoint
 10
12.00000000000001
 20
12.69999999999997
 30
0.0
  0
POINT
  5
E0
330
D5
100
AcDbEntity
  8
Defpoints
 62
     0
100
AcDbPoint
 10
12.00000000000001
 20
26.55081957525041
 30
0.0
  0
ENDBLK
  5
D7
330
D5
100
AcDbEntity
  8
0
100
AcDbBlockEnd
  0
BLOCK
  5
EC
330
EB
100
AcDbEntity
  8
0
100
AcDbBlockBegin
  2
_D_2
 70
     0
 10
0.0
 20
0.0
 30
0.0
  3
_D_2
  1
_D_2
  0
LINE
  5
EE
330
EB
100
AcDbEntity
  8
0
  6
Continuous
 62
     0
370
    -2
100
AcDbLine
 10
29.14057883212694
 20
6.606477789079263
 30
0.0
 11
29.14057883212693
 21
30.3105321911699
 31
0.0
  0
LINE
  5
EF
330
EB
100
AcDbEntity
  8
0
  6
Continuous
 62
     0
370
    -2
100
AcDbLine
 10
-47.05942116787307
 20
5.413574928723888
 30
0.0
 11
-47.05942116787308
 21
30.3105321911699
 31
0.0
  0
LINE
  5
F0
330
EB
100
AcDbEntity
  8
0
  6
Continuous
 62
     0
370
    -2
100
AcDbLine
 10
25.83857883212693
 20
30.3105321911699
 30
0.0
 11
-43.75742116787308
 21
30.3105321911699
 31
0.0
  0
SOLID
  5
F1
330
EB
100
AcDbEntity
  8
0
 62
     0
100
AcDbTrace
 10
25.83857883212693
 20
29.76019885783656
 30
0.0
 11
25.83857883212693
 21
30.86086552450323
 31
0.0
 12
29.14057883212693
 22
30.3105321911699
 32
0.0
 13
29.14057883212693
 23
30.3105321911699
 33
0.0
  0
SOLID
  5
F2
330
EB
100
AcDbEntity
  8
0
 62
     0
100
AcDbTrace
 10
-43.75742116787308
 20
30.86086552450323
 30
0.0
 11
-43.75742116787308
 21
29.76019885783656
 31
0.0
 12
-47.05942116787308
 22
30.3105321911699
 32
0.0
 13
-47.05942116787308
 23
30.3105321911699
 33
0.0
  0
MTEXT
  5
F3
330
EB
100
AcDbEntity
  8
0
 62
     0
370
    15
100
AcDbMText
 10
-8.959421167873067
 20
34.6855321911699
 30
0.0
 40
3.5
 41
0.0
 71
     2
 72
     1
  1
\A1;76.20 [3.00]
  7
SLDTEXTSTYLE0
 73
     1
 44
1.0
  0
POINT
  5
F4
330
EB
100
AcDbEntity
  8
Defpoints
 62
     0
100
AcDbPoint
 10
29.14057883212694
 20
6.543977789079263
 30
0.0
  0
POINT
  5
F5
330
EB
100
AcDbEntity
  8
Defpoints
 62
     0
100
AcDbPoint
 10
-47.05942116787307
 20
5.351074928723888
 30
0.0
  0
POINT
  5
F6
330
EB
100
AcDbEntity
  8
Defpoints
 62
     0
100
AcDbPoint
 10
-47.05942116787307
 20
30.31053219116989
 30
0.0
  0
ENDBLK
  5
ED
330
EB
100
AcDbEntity
  8
0
100
AcDbBlockEnd
  0
BLOCK
  5
100
330
FF
100
AcDbEntity
  8
0
100
AcDbBlockBegin
  2
_D_3
 70
     0
 10
0.0
 20
0.0
 30
0.0
  3
_D_3
  1
_D_3
  0
LINE
  5
102
330
FF
100
AcDbEntity
  8
0
  6
Continuous
 62
     0
370
    -2
100
AcDbLine
 10
88.26250000000002
 20
-14.2875
 30
0.0
 11
107.2000000000002
 21
-14.28749999999992
 31
0.0
  0
LINE
  5
103
330
FF
100
AcDbEntity
  8
0
  6
Continuous
 62
     0
370
    -2
100
AcDbLine
 10
88.26250000000002
 20
14.2875
 30
0.0
 11
107.2000000000001
 21
14.28750000000007
 31
0.0
  0
LINE
  5
104
330
FF
100
AcDbEntity
  8
0
  6
Continuous
 62
     0
370
    -2
100
AcDbLine
 10
107.2000000000001
 20
14.28750000000007
 30
0.0
 11
107.2
 21
59.26292442259364
 31
0.0
  0
LINE
  5
105
330
FF
100
AcDbEntity
  8
0
  6
Continuous
 62
     0
370
    -2
100
AcDbLine
 10
107.2000000000002
 20
-10.98549999999992
 30
0.0
 11
107.2000000000001
 21
10.98550000000007
 31
0.0
  0
SOLID
  5
106
330
FF
100
AcDbEntity
  8
0
 62
     0
100
AcDbTrace
 10
106.6496666666669
 20
-10.98549999999993
 30
0.0
 11
107.7503333333335
 21
-10.98549999999992
 31
0.0
 12
107.2000000000002
 22
-14.28749999999992
 32
0.0
 13
107.2000000000002
 23
-14.28749999999992
 33
0.0
  0
SOLID
  5
107
330
FF
100
AcDbEntity
  8
0
 62
     0
100
AcDbTrace
 10
107.7503333333335
 20
10.98550000000007
 30
0.0
 11
106.6496666666668
 21
10.98550000000007
 31
0.0
 12
107.2000000000001
 22
14.28750000000007
 32
0.0
 13
107.2000000000001
 23
14.28750000000007
 33
0.0
  0
MTEXT
  5
108
330
FF
100
AcDbEntity
  8
0
 62
     0
370
    15
100
AcDbMText
 10
102.825
 20
43.07542442259363
 30
0.0
 40
3.5
 41
0.0
 71
     2
 72
     1
  1
\A1;%%c28.58 [1 1/8]
  7
SLDTEXTSTYLE0
 11
-3.481224252192966E-15
 21
1.0
 31
0.0
 73
     1
 44
1.0
  0
POINT
  5
109
330
FF
100
AcDbEntity
  8
Defpoints
 62
     0
100
AcDbPoint
 10
88.20000000000002
 20
-14.2875
 30
0.0
  0
POINT
  5
10A
330
FF
100
AcDbEntity
  8
Defpoints
 62
     0
100
AcDbPoint
 10
88.20000000000002
 20
14.2875
 30
0.0
  0
POINT
  5
10B
330
FF
100
AcDbEntity
  8
Defpoints
 62
     0
100
AcDbPoint
 10
107.2000000000001
 20
14.28750000000008
 30
0.0
  0
ENDBLK
  5
101
330
FF
100
AcDbEntity
  8
0
100
AcDbBlockEnd
  0
BLOCK
  5
119
330
118
100
AcDbEntity
  8
0
100
AcDbBlockBegin
  2
SW_DOWELSYMBOL_0
 70
     0
 10
0.0
 20
0.0
 30
0.0
  3
SW_DOWELSYMBOL_0
  1
SW_DOWELSYMBOL_0
  0
CIRCLE
  5
11B
330
118
100
AcDbEntity
  8
해칭선
 62
     0
100
AcDbCircle
 10
0.0
 20
0.0
 30
0.0
 40
3.000000000000001
  0
HATCH
  5
11C
330
118
100
AcDbEntity
  8
0
  6
Continuous
 62
     0
370
     0
100
AcDbHatch
 10
0.0
 20
0.0
 30
0.0
210
0.0
220
0.0
230
1.0
  2
SOLID
 70
     1
 71
     0
 91
        1
 92
        0
 93
        3
 72
     2
 10
0.0
 20
0.0
 40
3.000000000000001
 50
0.0
 51
90.0
 73
     1
 72
     1
 10
0.0
 20
3.000000000000001
 11
0.0
 21
0.0
 72
     1
 10
0.0
 20
0.0
 11
3.000000000000001
 21
0.0
 97
        0
 75
     0
 76
     1
 98
        1
 10
0.0
 20
0.0
  0
HATCH
  5
11D
330
118
100
AcDbEntity
  8
0
  6
Continuous
 62
     0
370
     0
100
AcDbHatch
 10
0.0
 20
0.0
 30
0.0
210
0.0
220
0.0
230
1.0
  2
SOLID
 70
     1
 71
     0
 91
        1
 92
        0
 93
        3
 72
     2
 10
0.0
 20
0.0
 40
3.000000000000001
 50
180.0
 51
270.0000000000007
 73
     1
 72
     1
 10
0.0
 20
-3.000000000000001
 11
0.0
 21
0.0
 72
     1
 10
0.0
 20
0.0
 11
-3.000000000000001
 21
0.0
 97
        0
 75
     0
 76
     1
 98
        1
 10
0.0
 20
0.0
  0
ENDBLK
  5
11A
330
118
100
AcDbEntity
  8
0
100
AcDbBlockEnd
  0
BLOCK
  5
217
330
216
100
AcDbEntity
  8
0
100
AcDbBlockBegin
  2
*D7
 70
     1
 10
0.0
 20
0.0
 30
0.0
  3
*D7
  1
*D9
  0
LINE
  5
219
330
216
100
AcDbEntity
  8
치수문자_일반주서
 62
     0
370
    -2
100
AcDbLine
 10
17.81250000000006
 20
32.00399999999991
 30
0.0
 11
4.374999999999998
 21
32.00399999999986
 31
0.0
  0
LINE
  5
21A
330
216
100
AcDbEntity
  8
치수문자_일반주서
 62
     0
370
    -2
100
AcDbLine
 10
17.81250000000006
 20
6.60399999999991
 30
0.0
 11
4.375000000000087
 21
6.603999999999861
 31
0.0
  0
LINE
  5
21B
330
216
100
AcDbEntity
  8
치수문자_일반주서
 62
     0
370
    -2
100
AcDbLine
 10
4.37500000000001
 20
28.70199999999986
 30
0.0
 11
4.375000000000075
 21
9.90599999999986
 31
0.0
  0
SOLID
  5
21C
330
216
100
AcDbEntity
  8
치수문자_일반주서
 62
     0
100
AcDbTrace
 10
4.925333333333343
 20
28.70199999999987
 30
0.0
 11
3.824666666666677
 21
28.70199999999986
 31
0.0
 12
4.374999999999998
 22
32.00399999999986
 32
0.0
 13
4.374999999999998
 23
32.00399999999986
 33
0.0
  0
SOLID
  5
21D
330
216
100
AcDbEntity
  8
치수문자_일반주서
 62
     0
100
AcDbTrace
 10
3.824666666666742
 20
9.905999999999858
 30
0.0
 11
4.925333333333409
 21
9.905999999999862
 31
0.0
 12
4.375000000000087
 22
6.603999999999861
 32
0.0
 13
4.375000000000087
 23
6.603999999999861
 33
0.0
  0
MTEXT
  5
21E
330
216
100
AcDbEntity
  8
치수문자_일반주서
 62
     0
100
AcDbMText
 10
0.0000000000000426
 20
19.30399999999991
 30
0.0
 40
3.5
 41
0.0
 71
     2
 72
     1
  1
\A1;%%c25.40
  7
SLDTEXTSTYLE0
 11
-3.496765431890257E-15
 21
1.0
 31
0.0
 73
     1
 44
1.0
  0
POINT
  5
21F
330
216
100
AcDbEntity
  8
Defpoints
 62
     0
100
AcDbPoint
 10
17.87500000000006
 20
32.00399999999991
 30
0.0
  0
POINT
  5
220
330
216
100
AcDbEntity
  8
Defpoints
 62
     0
100
AcDbPoint
 10
17.87500000000006
 20
6.60399999999991
 30
0.0
  0
POINT
  5
221
330
216
100
AcDbEntity
  8
Defpoints
 62
     0
100
AcDbPoint
 10
4.375000000000085
 20
6.60399999999986
 30
0.0
  0
ENDBLK
  5
218
330
216
100
AcDbEntity
  8
0
100
AcDbBlockEnd
  0
BLOCK
  5
223
330
222
100
AcDbEntity
  8
0
100
AcDbBlockBegin
  2
*D8
 70
     1
 10
0.0
 20
0.0
 30
0.0
  3
*D8
  1
*D10
  0
LINE
  5
225
330
222
100
AcDbEntity
  8
치수문자_일반주서
 62
     0
370
    -2
100
AcDbLine
 10
156.5749999999993
 20
32.06649999999994
 30
0.0
 11
156.5749999999993
 21
45.16960788423934
 31
0.0
  0
LINE
  5
226
330
222
100
AcDbEntity
  8
치수문자_일반주서
 62
     0
370
    -2
100
AcDbLine
 10
80.37500000000004
 20
27.87953246200078
 30
0.0
 11
80.37500000000004
 21
45.16960788423934
 31
0.0
  0
LINE
  5
227
330
222
100
AcDbEntity
  8
치수문자_일반주서
 62
     0
370
    -2
100
AcDbLine
 10
153.2729999999993
 20
45.16960788423934
 30
0.0
 11
83.67700000000005
 21
45.16960788423934
 31
0.0
  0
SOLID
  5
228
330
222
100
AcDbEntity
  8
치수문자_일반주서
 62
     0
100
AcDbTrace
 10
153.2729999999993
 20
44.61927455090601
 30
0.0
 11
153.2729999999993
 21
45.71994121757267
 31
0.0
 12
156.5749999999993
 22
45.16960788423934
 32
0.0
 13
156.5749999999993
 23
45.16960788423934
 33
0.0
  0
SOLID
  5
229
330
222
100
AcDbEntity
  8
치수문자_일반주서
 62
     0
100
AcDbTrace
 10
83.67700000000005
 20
45.71994121757267
 30
0.0
 11
83.67700000000005
 21
44.61927455090601
 31
0.0
 12
80.37500000000004
 22
45.16960788423934
 32
0.0
 13
80.37500000000004
 23
45.16960788423934
 33
0.0
  0
MTEXT
  5
22A
330
222
100
AcDbEntity
  8
치수문자_일반주서
 62
     0
100
AcDbMText
 10
118.4750000000001
 20
49.54460788423934
 30
0.0
 40
3.5
 41
0.0
 71
     2
 72
     1
  1
\A1;76.20
  7
SLDTEXTSTYLE0
 73
     1
 44
1.0
  0
POINT
  5
22B
330
222
100
AcDbEntity
  8
Defpoints
 62
     0
100
AcDbPoint
 10
156.5749999999993
 20
32.00399999999994
 30
0.0
  0
POINT
  5
22C
330
222
100
AcDbEntity
  8
Defpoints
 62
     0
100
AcDbPoint
 10
80.37500000000004
 20
27.81703246200078
 30
0.0
  0
POINT
  5
22D
330
222
100
AcDbEntity
  8
Defpoints
 62
     0
100
AcDbPoint
 10
80.37500000000004
 20
45.16960788423934
 30
0.0
  0
ENDBLK
  5
224
330
222
100
AcDbEntity
  8
0
100
AcDbBlockEnd
  0
BLOCK
  5
22F
330
22E
100
AcDbEntity
  8
0
100
AcDbBlockBegin
  2
*D9
 70
     1
 10
0.0
 20
0.0
 30
0.0
  3
*D9
  1
*D11
  0
LINE
  5
231
330
22E
100
AcDbEntity
  8
치수문자_일반주서
 62
     0
370
    -2
100
AcDbLine
 10
156.5749999999993
 20
32.06649999999994
 30
0.0
 11
156.5749999999993
 21
61.88107860462917
 31
0.0
  0
LINE
  5
232
330
22E
100
AcDbEntity
  8
치수문자_일반주서
 62
     0
370
    -2
100
AcDbLine
 10
16.87500000000006
 20
31.06649999999991
 30
0.0
 11
16.87500000000006
 21
61.88107860462917
 31
0.0
  0
LINE
  5
233
330
22E
100
AcDbEntity
  8
치수문자_일반주서
 62
     0
370
    -2
100
AcDbLine
 10
153.2729999999993
 20
61.88107860462917
 30
0.0
 11
20.17700000000006
 21
61.88107860462917
 31
0.0
  0
SOLID
  5
234
330
22E
100
AcDbEntity
  8
치수문자_일반주서
 62
     0
100
AcDbTrace
 10
153.2729999999993
 20
61.33074527129584
 30
0.0
 11
153.2729999999993
 21
62.43141193796251
 31
0.0
 12
156.5749999999993
 22
61.88107860462917
 32
0.0
 13
156.5749999999993
 23
61.88107860462917
 33
0.0
  0
SOLID
  5
235
330
22E
100
AcDbEntity
  8
치수문자_일반주서
 62
     0
100
AcDbTrace
 10
20.17700000000006
 20
62.43141193796251
 30
0.0
 11
20.17700000000006
 21
61.33074527129584
 31
0.0
 12
16.87500000000006
 22
61.88107860462917
 32
0.0
 13
16.87500000000006
 23
61.88107860462917
 33
0.0
  0
MTEXT
  5
236
330
22E
100
AcDbEntity
  8
치수문자_일반주서
 62
     0
100
AcDbMText
 10
86.72500000000005
 20
66.25607860462918
 30
0.0
 40
3.5
 41
0.0
 71
     2
 72
     1
  1
\A1;139.70
  7
SLDTEXTSTYLE0
 73
     1
 44
1.0
  0
POINT
  5
237
330
22E
100
AcDbEntity
  8
Defpoints
 62
     0
100
AcDbPoint
 10
156.5749999999993
 20
32.00399999999994
 30
0.0
  0
POINT
  5
238
330
22E
100
AcDbEntity
  8
Defpoints
 62
     0
100
AcDbPoint
 10
16.87500000000006
 20
31.00399999999991
 30
0.0
  0
POINT
  5
239
330
22E
100
AcDbEntity
  8
Defpoints
 62
     0
100
AcDbPoint
 10
16.87500000000006
 20
61.88107860462917
 30
0.0
  0
ENDBLK
  5
230
330
22E
100
AcDbEntity
  8
0
100
AcDbBlockEnd
  0
BLOCK
  5
23B
330
23A
100
AcDbEntity
  8
0
100
AcDbBlockBegin
  2
*D10
 70
     1
 10
0.0
 20
0.0
 30
0.0
  3
*D10
  1
*D12
  0
LINE
  5
23D
330
23A
100
AcDbEntity
  8
치수문자_일반주서
 62
     0
370
    -2
100
AcDbLine
 10
156.6375000000001
 20
6.603999999999932
 30
0.0
 11
175.8598104807163
 21
6.603999999999999
 31
0.0
  0
LINE
  5
23E
330
23A
100
AcDbEntity
  8
치수문자_일반주서
 62
     0
370
    -2
100
AcDbLine
 10
156.6374999999993
 20
32.00399999999994
 30
0.0
 11
175.8598104807162
 21
32.00400000000001
 31
0.0
  0
LINE
  5
23F
330
23A
100
AcDbEntity
  8
치수문자_일반주서
 62
     0
370
    -2
100
AcDbLine
 10
175.8598104807162
 20
32.00400000000001
 30
0.0
 11
175.8598104807161
 21
59.81601615341647
 31
0.0
  0
LINE
  5
240
330
23A
100
AcDbEntity
  8
치수문자_일반주서
 62
     0
370
    -2
100
AcDbLine
 10
175.8598104807163
 20
6.603999999999999
 30
0.0
 11
175.8598104807162
 21
32.00400000000001
 31
0.0
  0
LINE
  5
241
330
23A
100
AcDbEntity
  8
치수문자_일반주서
 62
     0
370
    -2
100
AcDbLine
 10
175.8598104807163
 20
3.302
 30
0.0
 11
175.8598104807163
 21
0.0
 31
0.0
  0
LINE
  5
242
330
23A
100
AcDbEntity
  8
치수문자_일반주서
 62
     0
370
    -2
100
AcDbLine
 10
175.8598104807162
 20
35.30600000000001
 30
0.0
 11
175.8598104807162
 21
38.60800000000001
 31
0.0
  0
SOLID
  5
243
330
23A
100
AcDbEntity
  8
치수문자_일반주서
 62
     0
100
AcDbTrace
 10
176.4101438140496
 20
3.302000000000001
 30
0.0
 11
175.309477147383
 21
3.301999999999998
 31
0.0
 12
175.8598104807163
 22
6.603999999999999
 32
0.0
 13
175.8598104807163
 23
6.603999999999999
 33
0.0
  0
SOLID
  5
244
330
23A
100
AcDbEntity
  8
치수문자_일반주서
 62
     0
100
AcDbTrace
 10
175.3094771473829
 20
35.30600000000001
 30
0.0
 11
176.4101438140495
 21
35.30600000000001
 31
0.0
 12
175.8598104807162
 22
32.00400000000001
 32
0.0
 13
175.8598104807162
 23
32.00400000000001
 33
0.0
  0
MTEXT
  5
245
330
23A
100
AcDbEntity
  8
치수문자_일반주서
 62
     0
100
AcDbMText
 10
171.4848104807162
 20
52.59726615341646
 30
0.0
 40
3.5
 41
0.0
 71
     2
 72
     1
  1
\A1;%%c25.40
  7
SLDTEXTSTYLE0
 11
-3.356894814614645E-15
 21
1.0
 31
0.0
 73
     1
 44
1.0
  0
POINT
  5
246
330
23A
100
AcDbEntity
  8
Defpoints
 62
     0
100
AcDbPoint
 10
156.5750000000001
 20
6.603999999999932
 30
0.0
  0
POINT
  5
247
330
23A
100
AcDbEntity
  8
Defpoints
 62
     0
100
AcDbPoint
 10
156.5749999999993
 20
32.00399999999994
 30
0.0
  0
POINT
  5
248
330
23A
100
AcDbEntity
  8
Defpoints
 62
     0
100
AcDbPoint
 10
175.8598104807162
 20
32.00400000000001
 30
0.0
  0
ENDBLK
  5
23C
330
23A
100
AcDbEntity
  8
0
100
AcDbBlockEnd
  0
BLOCK
  5
28F
330
28E
100
AcDbEntity
  8
0
100
AcDbBlockBegin
  2
*D11
 70
     1
 10
0.0
 20
0.0
 30
0.0
  3
*D11
  1
*D13
  0
LINE
  5
291
330
28E
100
AcDbEntity
  8
0
  6
Continuous
 62
     0
370
    -2
100
AcDbLine
 10
-51.56249999999997
 20
12.7
 30
0.0
 11
-64.00000000000004
 21
12.69999999999996
 31
0.0
  0
LINE
  5
292
330
28E
100
AcDbEntity
  8
0
  6
Continuous
 62
     0
370
    -2
100
AcDbLine
 10
-50.56249999999999
 20
-12.70000000000002
 30
0.0
 11
-63.99999999999996
 21
-12.70000000000007
 31
0.0
  0
LINE
  5
293
330
28E
100
AcDbEntity
  8
0
  6
Continuous
 62
     0
370
    -2
100
AcDbLine
 10
-64.00000000000003
 20
9.397999999999957
 30
0.0
 11
-63.99999999999997
 21
-9.398000000000067
 31
0.0
  0
SOLID
  5
294
330
28E
100
AcDbEntity
  8
0
 62
     0
100
AcDbTrace
 10
-63.44966666666669
 20
9.397999999999959
 30
0.0
 11
-64.55033333333336
 21
9.397999999999955
 31
0.0
 12
-64.00000000000004
 22
12.69999999999996
 32
0.0
 13
-64.00000000000004
 23
12.69999999999996
 33
0.0
  0
SOLID
  5
295
330
28E
100
AcDbEntity
  8
0
 62
     0
100
AcDbTrace
 10
-64.5503333333333
 20
-9.398000000000069
 30
0.0
 11
-63.44966666666664
 21
-9.398000000000065
 31
0.0
 12
-63.99999999999996
 22
-12.70000000000007
 32
0.0
 13
-63.99999999999996
 23
-12.70000000000007
 33
0.0
  0
MTEXT
  5
296
330
28E
100
AcDbEntity
  8
0
 62
     0
370
    15
100
AcDbMText
 10
-68.375
 20
-0.0000000000000216
 30
0.0
 40
3.5
 41
0.0
 71
     2
 72
     1
  1
\A1;%%c25.40 [1]
  7
SLDTEXTSTYLE0
 11
-3.356894814614643E-15
 21
1.0
 31
0.0
 73
     1
 44
1.0
  0
POINT
  5
297
330
28E
100
AcDbEntity
  8
Defpoints
 62
     0
100
AcDbPoint
 10
-51.49999999999997
 20
12.7
 30
0.0
  0
POINT
  5
298
330
28E
100
AcDbEntity
  8
Defpoints
 62
     0
100
AcDbPoint
 10
-50.49999999999999
 20
-12.70000000000002
 30
0.0
  0
POINT
  5
299
330
28E
100
AcDbEntity
  8
Defpoints
 62
     0
100
AcDbPoint
 10
-63.99999999999996
 20
-12.70000000000007
 30
0.0
  0
ENDBLK
  5
290
330
28E
100
AcDbEntity
  8
0
100
AcDbBlockEnd
  0
BLOCK
  5
29B
330
29A
100
AcDbEntity
  8
0
100
AcDbBlockBegin
  2
*D12
 70
     1
 10
0.0
 20
0.0
 30
0.0
  3
*D12
  1
*D14
  0
LINE
  5
29D
330
29A
100
AcDbEntity
  8
치수문자_일반주서
 62
     0
370
    -2
100
AcDbLine
 10
252.6383629138429
 20
-48.68940454807727
 30
0.0
 11
252.6383629138429
 21
-35.58629666383787
 31
0.0
  0
LINE
  5
29E
330
29A
100
AcDbEntity
  8
치수문자_일반주서
 62
     0
370
    -2
100
AcDbLine
 10
176.4383629138436
 20
-52.87637208607643
 30
0.0
 11
176.4383629138436
 21
-35.58629666383787
 31
0.0
  0
LINE
  5
29F
330
29A
100
AcDbEntity
  8
치수문자_일반주서
 62
     0
370
    -2
100
AcDbLine
 10
249.3363629138429
 20
-35.58629666383787
 30
0.0
 11
179.7403629138436
 21
-35.58629666383787
 31
0.0
  0
SOLID
  5
2A0
330
29A
100
AcDbEntity
  8
치수문자_일반주서
 62
     0
100
AcDbTrace
 10
249.3363629138429
 20
-36.13662999717121
 30
0.0
 11
249.3363629138429
 21
-35.03596333050454
 31
0.0
 12
252.6383629138429
 22
-35.58629666383787
 32
0.0
 13
252.6383629138429
 23
-35.58629666383787
 33
0.0
  0
SOLID
  5
2A1
330
29A
100
AcDbEntity
  8
치수문자_일반주서
 62
     0
100
AcDbTrace
 10
179.7403629138436
 20
-35.03596333050454
 30
0.0
 11
179.7403629138436
 21
-36.13662999717121
 31
0.0
 12
176.4383629138436
 22
-35.58629666383787
 32
0.0
 13
176.4383629138436
 23
-35.58629666383787
 33
0.0
  0
MTEXT
  5
2A2
330
29A
100
AcDbEntity
  8
치수문자_일반주서
 62
     0
100
AcDbMText
 10
214.5383629138436
 20
-31.21129666383787
 30
0.0
 40
3.5
 41
0.0
 71
     2
 72
     1
  1
\A1;76.20
  7
SLDTEXTSTYLE0
 73
     1
 44
1.0
  0
POINT
  5
2A3
330
29A
100
AcDbEntity
  8
Defpoints
 62
     0
100
AcDbPoint
 10
252.6383629138429
 20
-48.75190454807727
 30
0.0
  0
POINT
  5
2A4
330
29A
100
AcDbEntity
  8
Defpoints
 62
     0
100
AcDbPoint
 10
176.4383629138436
 20
-52.93887208607643
 30
0.0
  0
POINT
  5
2A5
330
29A
100
AcDbEntity
  8
Defpoints
 62
     0
100
AcDbPoint
 10
176.4383629138436
 20
-35.58629666383787
 30
0.0
  0
ENDBLK
  5
29C
330
29A
100
AcDbEntity
  8
0
100
AcDbBlockEnd
  0
BLOCK
  5
2A7
330
2A6
100
AcDbEntity
  8
0
100
AcDbBlockBegin
  2
*D13
 70
     1
 10
0.0
 20
0.0
 30
0.0
  3
*D13
  1
*D15
  0
LINE
  5
2A9
330
2A6
100
AcDbEntity
  8
0
  6
Continuous
 62
     0
370
    -2
100
AcDbLine
 10
88.20000000000002
 20
14.35
 30
0.0
 11
88.20000000000002
 21
42.57707860462924
 31
0.0
  0
LINE
  5
2AA
330
2A6
100
AcDbEntity
  8
0
  6
Continuous
 62
     0
370
    -2
100
AcDbLine
 10
-51.49999999999997
 20
12.7625
 30
0.0
 11
-51.49999999999997
 21
42.57707860462924
 31
0.0
  0
LINE
  5
2AB
330
2A6
100
AcDbEntity
  8
0
  6
Continuous
 62
     0
370
    -2
100
AcDbLine
 10
84.89800000000002
 20
42.57707860462924
 30
0.0
 11
-48.19799999999997
 21
42.57707860462924
 31
0.0
  0
SOLID
  5
2AC
330
2A6
100
AcDbEntity
  8
0
 62
     0
100
AcDbTrace
 10
84.89800000000002
 20
42.02674527129591
 30
0.0
 11
84.89800000000002
 21
43.12741193796258
 31
0.0
 12
88.20000000000002
 22
42.57707860462924
 32
0.0
 13
88.20000000000002
 23
42.57707860462924
 33
0.0
  0
SOLID
  5
2AD
330
2A6
100
AcDbEntity
  8
0
 62
     0
100
AcDbTrace
 10
-48.19799999999997
 20
43.12741193796258
 30
0.0
 11
-48.19799999999997
 21
42.02674527129591
 31
0.0
 12
-51.49999999999997
 22
42.57707860462924
 32
0.0
 13
-51.49999999999997
 23
42.57707860462924
 33
0.0
  0
MTEXT
  5
2AE
330
2A6
100
AcDbEntity
  8
0
 62
     0
370
    15
100
AcDbMText
 10
18.35000000000002
 20
46.95207860462924
 30
0.0
 40
3.5
 41
0.0
 71
     2
 72
     1
  1
\A1;139.70 [5 1/2]
  7
SLDTEXTSTYLE0
 73
     1
 44
1.0
  0
POINT
  5
2AF
330
2A6
100
AcDbEntity
  8
Defpoints
 62
     0
100
AcDbPoint
 10
88.20000000000002
 20
14.2875
 30
0.0
  0
POINT
  5
2B0
330
2A6
100
AcDbEntity
  8
Defpoints
 62
     0
100
AcDbPoint
 10
-51.49999999999997
 20
12.7
 30
0.0
  0
POINT
  5
2B1
330
2A6
100
AcDbEntity
  8
Defpoints
 62
     0
100
AcDbPoint
 10
-51.49999999999997
 20
42.57707860462924
 30
0.0
  0
ENDBLK
  5
2A8
330
2A6
100
AcDbEntity
  8
0
100
AcDbBlockEnd
  0
BLOCK
  5
2B3
330
2B2
100
AcDbEntity
  8
0
100
AcDbBlockBegin
  2
*D14
 70
     1
 10
0.0
 20
0.0
 30
0.0
  3
*D14
  1
*D16
  0
LINE
  5
2B5
330
2B2
100
AcDbEntity
  8
치수문자_일반주서
 62
     0
370
    -2
100
AcDbLine
 10
252.7008629138437
 20
-74.15190454807728
 30
0.0
 11
271.92317339456
 21
-74.15190454807721
 31
0.0
  0
LINE
  5
2B6
330
2B2
100
AcDbEntity
  8
치수문자_일반주서
 62
     0
370
    -2
100
AcDbLine
 10
252.7008629138429
 20
-48.75190454807727
 30
0.0
 11
271.9231733945599
 21
-48.7519045480772
 31
0.0
  0
LINE
  5
2B7
330
2B2
100
AcDbEntity
  8
치수문자_일반주서
 62
     0
370
    -2
100
AcDbLine
 10
271.9231733945599
 20
-48.7519045480772
 30
0.0
 11
271.9231733945597
 21
-20.93988839466074
 31
0.0
  0
LINE
  5
2B8
330
2B2
100
AcDbEntity
  8
치수문자_일반주서
 62
     0
370
    -2
100
AcDbLine
 10
271.92317339456
 20
-74.15190454807721
 30
0.0
 11
271.9231733945599
 21
-48.7519045480772
 31
0.0
  0
LINE
  5
2B9
330
2B2
100
AcDbEntity
  8
치수문자_일반주서
 62
     0
370
    -2
100
AcDbLine
 10
271.92317339456
 20
-77.45390454807722
 30
0.0
 11
271.92317339456
 21
-80.75590454807721
 31
0.0
  0
LINE
  5
2BA
330
2B2
100
AcDbEntity
  8
치수문자_일반주서
 62
     0
370
    -2
100
AcDbLine
 10
271.9231733945599
 20
-45.4499045480772
 30
0.0
 11
271.9231733945599
 21
-42.1479045480772
 31
0.0
  0
SOLID
  5
2BB
330
2B2
100
AcDbEntity
  8
치수문자_일반주서
 62
     0
100
AcDbTrace
 10
272.4735067278933
 20
-77.45390454807722
 30
0.0
 11
271.3728400612266
 21
-77.45390454807722
 31
0.0
 12
271.92317339456
 22
-74.15190454807721
 32
0.0
 13
271.92317339456
 23
-74.15190454807721
 33
0.0
  0
SOLID
  5
2BC
330
2B2
100
AcDbEntity
  8
치수문자_일반주서
 62
     0
100
AcDbTrace
 10
271.3728400612265
 20
-45.4499045480772
 30
0.0
 11
272.4735067278932
 21
-45.4499045480772
 31
0.0
 12
271.9231733945599
 22
-48.7519045480772
 32
0.0
 13
271.9231733945599
 23
-48.7519045480772
 33
0.0
  0
MTEXT
  5
2BD
330
2B2
100
AcDbEntity
  8
치수문자_일반주서
 62
     0
100
AcDbMText
 10
267.5481733945597
 20
-28.15863839466076
 30
0.0
 40
3.5
 41
0.0
 71
     2
 72
     1
  1
\A1;%%c25.40
  7
SLDTEXTSTYLE0
 11
-4.475859752819526E-15
 21
1.0
 31
0.0
 73
     1
 44
1.0
  0
POINT
  5
2BE
330
2B2
100
AcDbEntity
  8
Defpoints
 62
     0
100
AcDbPoint
 10
252.6383629138437
 20
-74.15190454807728
 30
0.0
  0
POINT
  5
2BF
330
2B2
100
AcDbEntity
  8
Defpoints
 62
     0
100
AcDbPoint
 10
252.6383629138429
 20
-48.75190454807727
 30
0.0
  0
POINT
  5
2C0
330
2B2
100
AcDbEntity
  8
Defpoints
 62
     0
100
AcDbPoint
 10
271.9231733945598
 20
-48.7519045480772
 30
0.0
  0
ENDBLK
  5
2B4
330
2B2
100
AcDbEntity
  8
0
100
AcDbBlockEnd
  0
ENDSEC
  0
SECTION
  2
ENTITIES
  0
LINE
  5
96
330
1F
100
AcDbEntity
  8
0
  6
Continuous
 62
     1
370
    15
100
AcDbLine
 10
47.2644627274908
 20
5.620780866397015
 30
0.0
 11
47.22110379037909
 21
5.643556116614792
 31
0.0
  0
SPLINE
  5
97
330
1F
100
AcDbEntity
  8
0
  6
Continuous
 62
     1
370
    15
100
AcDbSpline
210
0.0
220
0.0
230
1.0
 70
     8
 71
     3
 72
    16
 73
    12
 74
     0
 42
0.000000001
 43
0.00000001
 40
0.0
 40
0.0
 40
0.0
 40
0.0
 40
0.1375803084390222
 40
0.2438350316866648
 40
0.3215766265139593
 40
0.405307604861503
 40
0.5056291460546893
 40
0.6279774735952608
 40
0.7249751475763229
 40
0.8434314870652315
 40
1.0
 40
1.0
 40
1.0
 40
1.0
 10
51.18412105200747
 20
3.661182578046725
 30
0.0
 10
51.00710620793098
 20
3.744381750826347
 30
0.0
 10
50.69338093282352
 20
3.89183652223366
 30
0.0
 10
50.27578652439175
 20
4.092547093110727
 30
0.0
 10
49.92036047784538
 20
4.265496677096841
 30
0.0
 10
49.57497006293137
 20
4.435502037596833
 30
0.0
 10
49.17433933295789
 20
4.635309913992891
 30
0.0
 10
48.75663613441158
 20
4.846253552248728
 30
0.0
 10
48.30801601856066
 20
5.075621866454643
 30
0.0
 10
47.82120716707382
 20
5.327222657626706
 30
0.0
 10
47.4664321180949
 20
5.514287171414496
 30
0.0
 10
47.2644627274908
 20
5.620780866397015
 30
0.0
  0
LINE
  5
98
330
1F
100
AcDbEntity
  8
0
  6
Continuous
 62
     1
370
    15
100
AcDbLine
 10
18.39830654868201
 20
14.28749999999998
 30
0.0
 11
12.00000000000001
 21
14.28749999999998
 31
0.0
  0
SPLINE
  5
99
330
1F
100
AcDbEntity
  8
0
  6
Continuous
 62
     1
370
    15
100
AcDbSpline
210
0.0
220
0.0
230
1.0
 70
     8
 71
     3
 72
    26
 73
    22
 74
     0
 42
0.000000001
 43
0.00000001
 40
0.0
 40
0.0
 40
0.0
 40
0.0
 40
0.0369614002944339
 40
0.0716063774730884
 40
0.1048968131076133
 40
0.1380415426222475
 40
0.1978430774198639
 40
0.2553866376119459
 40
0.3105914638008447
 40
0.3595468780480139
 40
0.4016777746382377
 40
0.4605995820872397
 40
0.5253598352881047
 40
0.5816073330186785
 40
0.627463960651783
 40
0.6936144111926649
 40
0.7718885164668255
 40
0.8393965335774711
 40
0.8962413036559298
 40
0.9488473928210083
 40
1.0
 40
1.0
 40
1.0
 40
1.0
 10
46.46073554967739
 20
11.35340273152791
 30
0.0
 10
46.34489182015569
 20
11.34698314877302
 30
0.0
 10
46.12046445111816
 20
11.33454630757367
 30
0.0
 10
45.74606540471294
 20
11.31348818278421
 30
0.0
 10
45.35985614583752
 20
11.29420804535742
 30
0.0
 10
44.85646650233048
 20
11.27311633581709
 30
0.0
 10
44.26332533251411
 20
11.25277156337147
 30
0.0
 10
43.57415203023967
 20
11.22870486699412
 30
0.0
 10
42.93887230306301
 20
11.20968350806511
 30
0.0
 10
42.36685751431774
 20
11.19507419333488
 30
0.0
 10
41.78087004085435
 20
11.1823991231519
 30
0.0
 10
41.12644732857478
 20
11.1711507257742
 30
0.0
 10
40.41231995236139
 20
11.16227002508434
 30
0.0
 10
39.75557190158445
 20
11.15813032515915
 30
0.0
 10
39.12655451255847
 20
11.15739711134429
 30
0.0
 10
38.38212547317551
 20
11.15923965443419
 30
0.0
 10
37.55372519919243
 20
11.16680902556719
 30
0.0
 10
36.76137257049093
 20
11.17898478028228
 30
0.0
 10
36.06933017840527
 20
11.19343102092499
 30
0.0
 10
35.44123950890881
 20
11.20925391807387
 30
0.0
 10
35.03548233034201
 20
11.22189484597461
 30
0.0
 10
34.83544572332396
 20
11.2281267710283
 30
0.0
  0
SPLINE
  5
9A
330
1F
100
AcDbEntity
  8
0
  6
Continuous
 62
     1
370
    15
100
AcDbSpline
210
0.0
220
0.0
230
1.0
 70
     8
 71
     3
 72
    50
 73
    46
 74
     0
 42
0.000000001
 43
0.00000001
 40
0.0
 40
0.0
 40
0.0
 40
0.0
 40
0.031634310787214
 40
0.0605921207970894
 40
0.0876168597304074
 40
0.1129664196969794
 40
0.1294021472231578
 40
0.1428468969136951
 40
0.1541712110396104
 40
0.1648880167881839
 40
0.1739553284585903
 40
0.1843313704566748
 40
0.1952476558100626
 40
0.2090297688886321
 40
0.2240529482152121
 40
0.2503436951029893
 40
0.2742808602364777
 40
0.3001168995403181
 40
0.3292180228540985
 40
0.3619358354940556
 40
0.3928168717874893
 40
0.4129216765654183
 40
0.4304100637914369
 40
0.4517972122149023
 40
0.4780477894459837
 40
0.5101451862030418
 40
0.5444486099957309
 40
0.5738969904520609
 40
0.5982107247683606
 40
0.6264037124534803
 40
0.6600688290930338
 40
0.695360942179248
 40
0.7236887186542036
 40
0.7492239190515133
 40
0.7747781514044738
 40
0.7998080199584492
 40
0.8214594881597798
 40
0.8400398122857061
 40
0.8609304630353868
 40
0.8733676283981391
 40
0.8881737796317054
 40
0.9081287991134722
 40
0.9334182054035544
 40
0.9640589458363817
 40
1.0
 40
1.0
 40
1.0
 40
1.0
 10
82.89142099095187
 20
9.77197208283548
 30
0.0
 10
82.6587241981543
 20
9.751899653086502
 30
0.0
 10
82.21301851254206
 20
9.713453072213538
 30
0.0
 10
81.50412559268571
 20
9.65732668155019
 30
0.0
 10
80.811074111231
 20
9.61060075420366
 30
0.0
 10
80.21469257026011
 20
9.576011405729282
 30
0.0
 10
79.74373039784976
 20
9.549358292109844
 30
0.0
 10
79.39323304710268
 20
9.531056528861754
 30
0.0
 10
79.16574207618673
 20
9.518020618448936
 30
0.0
 10
78.9081141755344
 20
9.50489504866412
 30
0.0
 10
78.64426877944202
 20
9.494445325693802
 30
0.0
 10
78.38920013800973
 20
9.484682185138396
 30
0.0
 10
78.08466162993832
 20
9.472659547418973
 30
0.0
 10
77.74321087270194
 20
9.46011068715615
 30
0.0
 10
77.28501370986469
 20
9.445146078470653
 30
0.0
 10
76.74628601174525
 20
9.430350375200655
 30
0.0
 10
76.11381060910232
 20
9.416961630373688
 30
0.0
 10
75.45468166362548
 20
9.407275534474062
 30
0.0
 10
74.72155844391055
 20
9.40170656613307
 30
0.0
 10
73.9453815754132
 20
9.402009310912897
 30
0.0
 10
73.24463532585581
 20
9.40804570747531
 30
0.0
 10
72.67173438741912
 20
9.416775530813307
 30
0.0
 10
72.1783628264032
 20
9.426697638141977
 30
0.0
 10
71.6336073116093
 20
9.440368103192256
 30
0.0
 10
70.96667949837688
 20
9.461170512872084
 30
0.0
 10
70.19181863853834
 20
9.491114191884261
 30
0.0
 10
69.39032276970391
 20
9.528871284894253
 30
0.0
 10
68.65399581694142
 20
9.569611660433287
 30
0.0
 10
67.9681809785308
 20
9.612173579630545
 30
0.0
 10
67.247600793386
 20
9.661557328910623
 30
0.0
 10
66.43548708401735
 20
9.723403486944358
 30
0.0
 10
65.6218890801055
 20
9.792250331996225
 30
0.0
 10
64.87594616132765
 20
9.861285095564602
 30
0.0
 10
64.21158708265116
 20
9.927070629356704
 30
0.0
 10
63.57517115133884
 20
9.993831462510672
 30
0.0
 10
62.97127400506831
 20
10.06070452939639
 30
0.0
 10
62.42978462123757
 20
10.1236303099518
 30
0.0
 10
61.93495540830105
 20
10.18307110467795
 30
0.0
 10
61.49234866179003
 20
10.23864034528238
 30
0.0
 10
61.08102609074516
 20
10.29188819722573
 30
0.0
 10
60.67713047379358
 20
10.34514748313605
 30
0.0
 10
60.17089942463976
 20
10.41390676474422
 30
0.0
 10
59.53731253024237
 20
10.50327077028857
 30
0.0
 10
58.77592058002671
 20
10.61488095490884
 30
0.0
 10
58.22720588276477
 20
10.70011141149375
 30
0.0
 10
57.93100802906923
 20
10.74611906981949
 30
0.0
  0
SPLINE
  5
9B
330
1F
100
AcDbEntity
  8
0
  6
Continuous
 62
     1
370
    15
100
AcDbSpline
210
0.0
220
0.0
230
1.0
 70
     8
 71
     3
 72
    45
 73
    41
 74
     0
 42
0.000000001
 43
0.00000001
 40
0.0
 40
0.0
 40
0.0
 40
0.0
 40
0.0449959161069849
 40
0.0818149104019196
 40
0.110607388398563
 40
0.1377516286792249
 40
0.1599457638303618
 40
0.1786414641854471
 40
0.1980953354379233
 40
0.2218716192042828
 40
0.2481194806335723
 40
0.2708817212871137
 40
0.2893027380210887
 40
0.3081171476277303
 40
0.342801025049394
 40
0.3815776000816755
 40
0.4184758740731008
 40
0.4523337761304819
 40
0.4847776981320303
 40
0.5096274900297079
 40
0.5358538444473928
 40
0.5661445352645088
 40
0.6010900538824532
 40
0.6379351522855934
 40
0.6607160998951469
 40
0.6777913125023283
 40
0.6949683605790168
 40
0.71433093090574
 40
0.7359011668617277
 40
0.7654555582501964
 40
0.7918226787919477
 40
0.8197613583954075
 40
0.85286833997871
 40
0.8762040566604999
 40
0.9003313656283556
 40
0.9250485199121368
 40
0.9430448888822514
 40
0.961120370915985
 40
0.9799313191843355
 40
1.0
 40
1.0
 40
1.0
 40
1.0
 10
24.97332417230029
 20
-11.88918494189945
 30
0.0
 10
25.29251257631294
 20
-11.85772821863827
 30
0.0
 10
25.8728845952654
 20
-11.8005312723858
 30
0.0
 10
26.66446251056471
 20
-11.72798646792078
 30
0.0
 10
27.33615944031628
 20
-11.66977885067242
 30
0.0
 10
27.90716376684098
 20
-11.6228326113785
 30
0.0
 10
28.40478358128896
 20
-11.58318430377099
 30
0.0
 10
28.836631763293
 20
-11.5504093786487
 30
0.0
 10
29.27369366778489
 20
-11.51839917431749
 30
0.0
 10
29.77272793971143
 20
-11.48327024709766
 30
0.0
 10
30.29675997957623
 20
-11.44832875936845
 30
0.0
 10
30.7823415347865
 20
-11.41780320525363
 30
0.0
 10
31.21460894486935
 20
-11.391995084336
 30
0.0
 10
31.73284215653109
 20
-11.3625386835829
 30
0.0
 10
32.39739582526386
 20
-11.32749303062115
 30
0.0
 10
33.19208477207516
 20
-11.29007195786672
 30
0.0
 10
33.98104221440282
 20
-11.25749662102336
 30
0.0
 10
34.72436787420937
 20
-11.23100506270228
 30
0.0
 10
35.38085816644563
 20
-11.21107696720835
 30
0.0
 10
35.98242528523246
 20
-11.19555446756184
 30
0.0
 10
36.56849878144023
 20
-11.18281134475871
 30
0.0
 10
37.22718511799837
 20
-11.17145090052608
 30
0.0
 10
37.96236473628362
 20
-11.16260654187047
 30
0.0
 10
38.64310684439688
 20
-11.15834290476811
 30
0.0
 10
39.19214011872658
 20
-11.15759002089442
 30
0.0
 10
39.58524582558248
 20
-11.15797094740384
 30
0.0
 10
39.96557624767424
 20
-11.15935607327295
 30
0.0
 10
40.38627024244662
 20
-11.16247997410879
 30
0.0
 10
40.90104451684783
 20
-11.16825396272737
 30
0.0
 10
41.4662265701643
 20
-11.17667451117233
 30
0.0
 10
42.0724406181297
 20
-11.1883644287982
 30
0.0
 10
42.70159831916337
 20
-11.20320588215678
 30
0.0
 10
43.30894065523123
 20
-11.22048348050651
 30
0.0
 10
43.89907357389018
 20
-11.23981317985963
 30
0.0
 10
44.4275571622617
 20
-11.25858874519404
 30
0.0
 10
44.91336231861769
 20
-11.2754388836601
 30
0.0
 10
45.35986621474576
 20
-11.29422271032598
 30
0.0
 10
45.74606259810843
 20
-11.31348409507526
 30
0.0
 10
46.12046522020267
 20
-11.33454742771503
 30
0.0
 10
46.34489208198696
 20
-11.34698353012001
 30
0.0
 10
46.46073554967739
 20
-11.35340273152796
 30
0.0
  0
SPLINE
  5
9C
330
1F
100
AcDbEntity
  8
0
  6
Continuous
 62
     1
370
    15
100
AcDbSpline
210
0.0
220
0.0
230
1.0
 70
     8
 71
     3
 72
    25
 73
    21
 74
     0
 42
0.000000001
 43
0.00000001
 40
0.0
 40
0.0
 40
0.0
 40
0.0
 40
0.0505113999599746
 40
0.0977089499110777
 40
0.1424774222569741
 40
0.1859531094012868
 40
0.2492678770792416
 40
0.3093052270312572
 40
0.3661497206981221
 40
0.418593360175321
 40
0.4618826975846131
 40
0.4998718774812105
 40
0.5540730445248851
 40
0.6195491259221382
 40
0.6869469839284392
 40
0.7478682914881186
 40
0.8248665427012349
 40
0.9027820589543488
 40
0.9819920672492909
 40
0.9999999999999999
 40
0.9999999999999999
 40
0.9999999999999999
 40
0.9999999999999999
 10
57.93100802906923
 20
-10.74611906981954
 30
0.0
 10
58.08136687433267
 20
-10.72222919052766
 30
0.0
 10
58.37222012512701
 20
-10.67601675094054
 30
0.0
 10
58.84163859141263
 20
-10.60182826572677
 30
0.0
 10
59.31507027046948
 20
-10.53053140109089
 30
0.0
 10
59.86842311763104
 20
-10.45218228568246
 30
0.0
 10
60.47753519844607
 20
-10.37156411081683
 30
0.0
 10
61.13836007829426
 20
-10.28394667877334
 30
0.0
 10
61.75503997081052
 20
-10.20539744729815
 30
0.0
 10
62.2966130518015
 20
-10.13942963785973
 30
0.0
 10
62.77419801751756
 20
-10.08347031375549
 30
0.0
 10
63.25846778364971
 20
-10.02867850204879
 30
0.0
 10
63.82301045926584
 20
-9.967369655384662
 30
0.0
 10
64.49336271451787
 20
-9.89855637904681
 30
0.0
 10
65.18726300581116
 20
-9.831875687096991
 30
0.0
 10
65.92158797990164
 20
-9.766366530692045
 30
0.0
 10
66.69162379692433
 20
-9.703136088685715
 30
0.0
 10
67.52828350717445
 20
-9.641753722996958
 30
0.0
 10
68.15502132941484
 20
-9.599512420771257
 30
0.0
 10
68.50273129913698
 20
-9.579712064558818
 30
0.0
 10
68.5671385236077
 20
-9.576044392941025
 30
0.0
  0
LINE
  5
9D
330
1F
100
AcDbEntity
  8
0
  6
Continuous
 62
     1
370
    15
100
AcDbLine
 10
12.00000000000001
 20
-14.28750000000003
 30
0.0
 11
18.398306548682
 21
-14.28750000000003
 31
0.0
  0
SPLINE
  5
9E
330
1F
100
AcDbEntity
  8
0
  6
Continuous
 62
     1
370
    15
100
AcDbSpline
210
0.0
220
0.0
230
1.0
 70
     8
 71
     3
 72
    70
 73
    66
 74
     0
 42
0.000000001
 43
0.00000001
 40
0.0
 40
0.0
 40
0.0
 40
0.0
 40
0.03125
 40
0.03125
 40
0.0625
 40
0.0625
 40
0.09375
 40
0.09375
 40
0.125
 40
0.125
 40
0.15625
 40
0.15625
 40
0.1875
 40
0.1875
 40
0.21875
 40
0.21875
 40
0.25
 40
0.25
 40
0.28125
 40
0.28125
 40
0.3125
 40
0.3125
 40
0.34375
 40
0.34375
 40
0.375
 40
0.375
 40
0.40625
 40
0.40625
 40
0.4375
 40
0.4375
 40
0.46875
 40
0.46875
 40
0.5
 40
0.5
 40
0.53125
 40
0.53125
 40
0.5625
 40
0.5625
 40
0.59375
 40
0.59375
 40
0.625
 40
0.625
 40
0.65625
 40
0.65625
 40
0.6875
 40
0.6875
 40
0.71875
 40
0.71875
 40
0.75
 40
0.75
 40
0.78125
 40
0.78125
 40
0.8125
 40
0.8125
 40
0.84375
 40
0.84375
 40
0.875
 40
0.875
 40
0.90625
 40
0.90625
 40
0.9375
 40
0.9375
 40
0.96875
 40
0.96875
 40
1.0
 40
1.0
 40
1.0
 40
1.0
 10
88.20000000000002
 20
-14.28749999999999
 30
0.0
 10
87.40870299314281
 20
-14.25660647691964
 30
0.0
 10
86.61290969520935
 20
-14.21571761018187
 30
0.0
 10
85.02334462622676
 20
-14.09017210062268
 30
0.0
 10
84.23254494388789
 20
-14.00567080199393
 30
0.0
 10
82.64482957188062
 20
-13.79354412892915
 30
0.0
 10
81.84849537420679
 20
-13.66586955884141
 30
0.0
 10
80.2619129163359
 20
-13.36909799773353
 30
0.0
 10
79.47030168711191
 20
-13.19997768778988
 30
0.0
 10
77.88043601070642
 20
-12.82103827236863
 30
0.0
 10
77.0866212810588
 20
-12.61154212786896
 30
0.0
 10
75.50229869141256
 20
-12.15466445288641
 30
0.0
 10
74.7062031735019
 20
-11.90671992541396
 30
0.0
 10
73.1171716836071
 20
-11.37514580227791
 30
0.0
 10
72.32673010736991
 20
-11.09186329957261
 30
0.0
 10
70.73811388968045
 20
-10.49104998922151
 30
0.0
 10
69.94189693521614
 20
-10.17370449041518
 30
0.0
 10
68.3566789073663
 20
-9.509602442768102
 30
0.0
 10
67.56380308634485
 20
-9.162336738067324
 30
0.0
 10
65.97386992108989
 20
-8.439970786422885
 30
0.0
 10
65.18158178904025
 20
-8.065600949930145
 30
0.0
 10
63.59576103855536
 20
-7.292979516643863
 30
0.0
 10
62.79948042650301
 20
-6.894253133556049
 30
0.0
 10
61.21121522668113
 20
-6.077462422985059
 30
0.0
 10
60.42067814103875
 20
-5.659684591452018
 30
0.0
 10
58.8313935858453
 20
-4.806518294364355
 30
0.0
 10
58.03541106013869
 20
-4.371597236344738
 30
0.0
 10
56.4517883133453
 20
-3.49115614569659
 30
0.0
 10
55.65719547222701
 20
-3.04435467068209
 30
0.0
 10
54.0674279696829
 20
-2.14261330476113
 30
0.0
 10
53.27621372041392
 20
-1.688434863020142
 30
0.0
 10
51.68912595372971
 20
-0.7753882488310122
 30
0.0
 10
50.89277746438997
 20
-0.3164237833884189
 30
0.0
 10
49.30551089144288
 20
0.600025118157054
 30
0.0
 10
48.51442472749068
 20
1.057541654582193
 30
0.0
 10
46.9247046694
 20
1.969348550901613
 30
0.0
 10
46.12979955360833
 20
2.422916565533989
 30
0.0
 10
44.54644962553538
 20
3.319972040634473
 30
0.0
 10
43.75051479879493
 20
3.764869058888941
 30
0.0
 10
42.16114602955322
 20
4.641195981796036
 30
0.0
 10
41.37055242452233
 20
5.072124879935283
 30
0.0
 10
39.78242940392413
 20
5.918271308196123
 30
0.0
 10
38.98613028753596
 20
6.333238014061085
 30
0.0
 10
37.40009419096214
 20
7.141230939675507
 30
0.0
 10
36.60800564767639
 20
7.534682859425805
 30
0.0
 10
35.01808313409313
 20
8.298057886511858
 30
0.0
 10
34.22496637229836
 20
8.667214536483765
 30
0.0
 10
32.63998479708307
 20
9.377511025927303
 30
0.0
 10
31.84379705577453
 20
9.719269527310738
 30
0.0
 10
30.25505989558556
 20
10.37120075018593
 30
0.0
 10
29.46463339346516
 20
10.68114022064574
 30
0.0
 10
27.87570738635221
 20
11.26817032224179
 30
0.0
 10
27.07957486887077
 20
11.54490414574423
 30
0.0
 10
25.49500049824406
 20
12.06107027810951
 30
0.0
 10
24.70145676348612
 20
12.30108465751501
 30
0.0
 10
23.11156494076425
 20
12.74266063750346
 30
0.0
 10
22.31978422211449
 20
12.94382179220777
 30
0.0
 10
20.73340173564651
 20
13.30588919926802
 30
0.0
 10
19.93707825095235
 20
13.46686891595956
 30
0.0
 10
18.34920526705252
 20
13.74645014026902
 30
0.0
 10
17.55849224498024
 20
13.86507722339428
 30
0.0
 10
15.96899591081686
 20
14.05958579185134
 30
0.0
 10
15.17314713626985
 20
14.13526998046013
 30
0.0
 10
13.59026502923199
 20
14.24263037311322
 30
0.0
 10
12.79481400025217
 20
14.27450185283255
 30
0.0
 10
11.99999999999837
 20
14.28426208194101
 30
0.0
  0
SPLINE
  5
9F
330
1F
100
AcDbEntity
  8
0
  6
Continuous
 62
     1
370
    15
100
AcDbSpline
210
0.0
220
0.0
230
1.0
 70
     8
 71
     3
 72
    20
 73
    16
 74
     0
 42
0.000000001
 43
0.00000001
 40
0.0
 40
0.0
 40
0.0
 40
0.0
 40
0.0203793630044832
 40
0.1014913592438585
 40
0.182625589235298
 40
0.2637745301962914
 40
0.3448979797250778
 40
0.4260038283919839
 40
0.5071030061217827
 40
0.5882064609266661
 40
0.6705569685063221
 40
0.7529285191451343
 40
0.835305561389135
 40
0.9176600764343206
 40
1.0
 40
1.0
 40
1.0
 40
1.0
 10
52.70723267175597
 20
-1.358639500355363
 30
0.0
 10
52.43071129731574
 20
-1.248726222334816
 30
0.0
 10
51.05360593117916
 20
-0.701346601941413
 30
0.0
 10
48.57557867961105
 20
0.3066880411688924
 30
0.0
 10
45.27288286000674
 20
1.636188427412265
 30
0.0
 10
41.96991867995516
 20
2.938609331003335
 30
0.0
 10
38.66751346285771
 20
4.188451213497729
 30
0.0
 10
35.36584323204367
 20
5.363868670605934
 30
0.0
 10
32.06447532657648
 20
6.443842691869675
 30
0.0
 10
28.7462034706059
 20
7.414239496944964
 30
0.0
 10
25.41058894337389
 20
8.25524385295282
 30
0.0
 10
22.05759121614544
 20
8.950116562052512
 30
0.0
 10
18.70449537048036
 20
9.477453167661142
 30
0.0
 10
15.35196716636716
 20
9.844324032191745
 30
0.0
 10
13.11725639235604
 20
9.935964480991844
 30
0.0
 10
12.00000000000001
 20
9.981780645844584
 30
0.0
  0
SPLINE
  5
A0
330
1F
100
AcDbEntity
  8
외형선
  6
Continuous
370
    15
100
AcDbSpline
210
0.0
220
0.0
230
1.0
 70
    24
 71
     3
 72
    12
 73
     8
 74
     0
 42
0.000000001
 43
0.00000001
 40
0.0
 40
0.0
 40
0.0
 40
0.0
 40
0.25
 40
0.25
 40
0.5
 40
0.5
 40
1.0
 40
1.0
 40
1.0
 40
1.0
 10
12.00000000000001
 20
14.2842620819284
 30
0.0
 10
12.00000000000001
 20
13.93289894712443
 30
0.0
 10
12.00000000000001
 20
13.56606377872301
 30
0.0
 10
12.00000000000001
 20
12.82148012499001
 30
0.0
 10
12.00000000000001
 20
12.44386618037705
 30
0.0
 10
12.00000000000001
 20
11.32759387198118
 30
0.0
 10
12.00000000000001
 20
10.60868083748741
 30
0.0
 10
12.00000000000001
 20
9.981780645844587
 30
0.0
  0
SPLINE
  5
A1
330
1F
100
AcDbEntity
  8
0
  6
Continuous
 62
     1
370
    15
100
AcDbSpline
210
0.0
220
0.0
230
1.0
 70
     8
 71
     3
 72
    31
 73
    27
 74
     0
 42
0.000000001
 43
0.00000001
 40
0.0
 40
0.0
 40
0.0
 40
0.0
 40
0.0383549657271207
 40
0.0766784886269719
 40
0.1150225330095585
 40
0.1533870277534518
 40
0.1917128520381172
 40
0.2293643321314187
 40
0.267048368920396
 40
0.3046913822537823
 40
0.3423395928935989
 40
0.3871879084046011
 40
0.432025344725409
 40
0.4768459570944588
 40
0.5216624838358597
 40
0.5664876812497536
 40
0.6113338332225365
 40
0.6561743547319056
 40
0.7009964181251467
 40
0.7458127553443118
 40
0.7906361235236274
 40
0.8354792488672693
 40
0.880323059279757
 40
0.9225828943695917
 40
0.9648360746730017
 40
1.0
 40
1.0
 40
1.0
 40
1.0
 10
88.20000000000002
 20
-13.5579926691508
 30
0.0
 10
87.30751087215833
 20
-13.38025159277756
 30
0.0
 10
85.52326426571402
 20
-13.02491514950721
 30
0.0
 10
82.84756255570733
 20
-12.29669061382089
 30
0.0
 10
80.17115344456307
 20
-11.43639507363863
 30
0.0
 10
77.4941338279697
 20
-10.44008818802484
 30
0.0
 10
74.83422724512712
 20
-9.328166232866597
 30
0.0
 10
72.18994141263653
 20
-8.116167895591142
 30
0.0
 10
69.56062551841512
 20
-6.821396455493601
 30
0.0
 10
66.93252752103244
 20
-5.448024296881769
 30
0.0
 10
64.13753881240872
 20
-3.922689439815309
 30
0.0
 10
61.17430085937323
 20
-2.251067084537834
 30
0.0
 10
58.04457083819051
 20
-0.4488046632049055
 30
0.0
 10
54.91581617860127
 20
1.360653687221621
 30
0.0
 10
51.7873928383041
 20
3.148289375996963
 30
0.0
 10
48.65829581601057
 20
4.885846270359087
 30
0.0
 10
45.52818495159055
 20
6.544948217331672
 30
0.0
 10
42.39829453976225
 20
8.099745481176964
 30
0.0
 10
39.26943433321313
 20
9.525346153438843
 30
0.0
 10
36.14102539479342
 20
10.79869773514473
 30
0.0
 10
33.01206129577927
 20
11.89982903865382
 30
0.0
 10
29.88207686811133
 20
12.81030827219778
 30
0.0
 10
26.81168107572288
 20
13.50443210728586
 30
0.0
 10
23.80209731399244
 20
13.97767474249381
 30
0.0
 10
21.0178344294569
 20
14.24829444608363
 30
0.0
 10
19.21649840576678
 20
14.26549460696539
 30
0.0
 10
18.398306548682
 20
14.27330715908722
 30
0.0
  0
SPLINE
  5
A2
330
1F
100
AcDbEntity
  8
0
  6
Continuous
 62
     1
370
    15
100
AcDbSpline
210
0.0
220
0.0
230
1.0
 70
     8
 71
     3
 72
    19
 73
    15
 74
     0
 42
0.000000001
 43
0.00000001
 40
0.0
 40
0.0
 40
0.0
 40
0.0
 40
0.0891918251035169
 40
0.1783568730507637
 40
0.2675066516692846
 40
0.3566527096335858
 40
0.4458066055793199
 40
0.5349798771615167
 40
0.6241791586339361
 40
0.7133601277397051
 40
0.8025184130999874
 40
0.8916655406263762
 40
0.98081306609071
 40
1.0
 40
1.0
 40
1.0
 40
1.0
 10
88.20000000000002
 20
-11.27244122716091
 30
0.0
 10
87.09892978406637
 20
-11.0521041851459
 30
0.0
 10
84.89711991533309
 20
-10.61149625066936
 30
0.0
 10
81.59496258962623
 20
-9.708109705435472
 30
0.0
 10
78.29343891695065
 20
-8.646579516834738
 30
0.0
 10
74.99207873005963
 20
-7.427494886198286
 30
0.0
 10
71.6903794715801
 20
-6.077355517516576
 30
0.0
 10
68.38793473932057
 20
-4.618786966657277
 30
0.0
 10
65.08491896066964
 20
-3.078355813139339
 30
0.0
 10
61.78226602006067
 20
-1.483347097518583
 30
0.0
 10
58.48038635903178
 20
0.1395775772782563
 30
0.0
 10
55.17897260424778
 20
1.753969545535998
 30
0.0
 10
52.74129838448898
 20
2.939434468402345
 30
0.0
 10
51.40399624068782
 20
3.554552722331208
 30
0.0
 10
51.16714890699345
 20
3.663495281815697
 30
0.0
  0
LINE
  5
A3
330
1F
100
AcDbEntity
  8
0
  6
Continuous
 62
     1
370
    15
100
AcDbLine
 10
88.20000000000002
 20
-13.5579926691508
 30
0.0
 11
88.20000000000002
 21
-11.27244122716091
 31
0.0
  0
LINE
  5
A4
330
1F
100
AcDbEntity
  8
외형선
  6
Continuous
370
    15
100
AcDbLine
 10
12.00000000000002
 20
14.28426208192841
 30
0.0
 11
12.00000000000001
 21
14.28749999999998
 31
0.0
  0
LINE
  5
A5
330
1F
100
AcDbEntity
  8
0
  6
Continuous
 62
     1
370
    15
100
AcDbLine
 10
88.20000000000002
 20
-14.2875
 30
0.0
 11
88.19999999999943
 21
-13.5579926691508
 31
0.0
  0
SPLINE
  5
A6
330
1F
100
AcDbEntity
  8
0
  6
Continuous
 62
     1
370
    15
100
AcDbSpline
210
0.0
220
0.0
230
1.0
 70
     8
 71
     3
 72
    19
 73
    15
 74
     0
 42
0.000000001
 43
0.00000001
 40
0.0
 40
0.0
 40
0.0
 40
0.0
 40
0.0823443864338282
 40
0.1646612271966363
 40
0.2469431315364687
 40
0.32922215658044
 40
0.4115303745702197
 40
0.5001780634810485
 40
0.5888072997888137
 40
0.6774136773516701
 40
0.7660088107677925
 40
0.8546043448601847
 40
0.9432119233743183
 40
0.9999999999999999
 40
0.9999999999999999
 40
0.9999999999999999
 40
0.9999999999999999
 10
83.72306547069917
 20
2.056872394614695
 30
0.0
 10
82.70019424588021
 20
2.518369455100066
 30
0.0
 10
80.6547939649739
 20
3.441209197044436
 30
0.0
 10
77.58744740196603
 20
4.764268653821678
 30
0.0
 10
74.52113406571743
 20
6.016595227657656
 30
0.0
 10
71.45493060469698
 20
7.175985134239637
 30
0.0
 10
68.30951111980983
 20
8.252233704795424
 30
0.0
 10
65.08490820689971
 20
9.217384961801065
 30
0.0
 10
61.78226043273575
 20
10.04246253946613
 30
0.0
 10
58.48037238183553
 20
10.68835729341962
 30
0.0
 10
55.17896182560689
 20
11.14641381553831
 30
0.0
 10
51.8775278069315
 20
11.39806464491643
 30
0.0
 10
48.97113152080513
 20
11.46831286539335
 30
0.0
 10
47.16508627026722
 20
11.36884056622036
 30
0.0
 10
46.45968805201669
 20
11.32998905761003
 30
0.0
  0
SPLINE
  5
A7
330
1F
100
AcDbEntity
  8
0
  6
Continuous
 62
     1
370
    15
100
AcDbSpline
210
0.0
220
0.0
230
1.0
 70
     8
 71
     3
 72
     8
 73
     4
 74
     0
 42
0.000000001
 43
0.00000001
 40
0.0
 40
0.0
 40
0.0
 40
0.0
 40
1.0
 40
1.0
 40
1.0
 40
1.0
 10
83.7230654705598
 20
2.056872394678054
 30
0.0
 10
83.78282028442331
 20
1.336864287756895
 30
0.0
 10
83.77722772537903
 20
0.623251774243116
 30
0.0
 10
83.7149109671468
 20
-0.0848091019481098
 30
0.0
  0
SPLINE
  5
A8
330
1F
100
AcDbEntity
  8
0
  6
Continuous
 62
     1
370
    15
100
AcDbSpline
210
0.0
220
0.0
230
1.0
 70
     8
 71
     3
 72
     8
 73
     4
 74
     0
 42
0.000000001
 43
0.00000001
 40
0.0
 40
0.0
 40
0.0
 40
0.0
 40
1.0
 40
1.0
 40
1.0
 40
1.0
 10
88.20000000000002
 20
-3.818233591398564
 30
0.0
 10
86.68271083963063
 20
-2.625397161557871
 30
0.0
 10
85.18741097783482
 20
-1.381549115337545
 30
0.0
 10
83.71491096714675
 20
-0.084809101948229
 30
0.0
  0
SPLINE
  5
A9
330
1F
100
AcDbEntity
  8
0
  6
Continuous
 62
     1
370
    15
100
AcDbSpline
210
0.0
220
0.0
230
1.0
 70
    24
 71
     3
 72
    14
 73
    10
 74
     0
 42
0.000000001
 43
0.00000001
 40
0.0
 40
0.0
 40
0.0
 40
0.0
 40
0.2500000000000001
 40
0.2500000000000001
 40
0.5000000000000002
 40
0.5000000000000002
 40
0.7500000000000001
 40
0.7500000000000001
 40
1.0
 40
1.0
 40
1.0
 40
1.0
 10
88.20000000000002
 20
-11.27244122716091
 30
0.0
 10
88.20000000000002
 20
-10.8403809737764
 30
0.0
 10
88.20000000000002
 20
-10.35243942288557
 30
0.0
 10
88.20000000000002
 20
-9.273169113985405
 30
0.0
 10
88.20000000000003
 20
-8.681860135701616
 30
0.0
 10
88.20000000000002
 20
-7.412637754477449
 30
0.0
 10
88.20000000000002
 20
-6.734795127081775
 30
0.0
 10
88.20000000000003
 20
-5.316388431275049
 30
0.0
 10
88.19999999999999
 20
-4.575931841997315
 30
0.0
 10
88.20000000000002
 20
-3.818233591399022
 30
0.0
  0
LINE
  5
AA
330
1F
100
AcDbEntity
  8
0
  6
Continuous
 62
     1
370
    15
100
AcDbLine
 10
83.20000000000002
 20
2.937719435296577
 30
0.0
 11
88.20000000000002
 21
-0.0000000000000134
 31
0.0
  0
LINE
  5
AB
330
1F
100
AcDbEntity
  8
0
  6
Continuous
 62
     1
370
    15
100
AcDbLine
 10
88.20000000000002
 20
-0.0000000000000134
 30
0.0
 11
88.20000000000002
 21
-3.818233591398566
 31
0.0
  0
SPLINE
  5
AC
330
1F
100
AcDbEntity
  8
0
  6
Continuous
 62
     1
370
    15
100
AcDbSpline
210
0.0
220
0.0
230
1.0
 70
    24
 71
     3
 72
    10
 73
     6
 74
     0
 42
0.000000001
 43
0.00000001
 40
0.0
 40
0.0
 40
0.0
 40
0.0
 40
0.5
 40
0.5
 40
1.0
 40
1.0
 40
1.0
 40
1.0
 10
83.20000000000002
 20
2.903267587236816
 30
0.0
 10
83.20000000000003
 20
4.062656055186826
 30
0.0
 10
83.20000000000003
 20
5.152387741769963
 30
0.0
 10
83.20000000000005
 20
7.040785214705706
 30
0.0
 10
83.20000000000003
 20
7.837540184130834
 30
0.0
 10
83.20000000000002
 20
8.437440756011956
 30
0.0
  0
SPLINE
  5
AD
330
1F
100
AcDbEntity
  8
0
  6
Continuous
 62
     1
370
    15
100
AcDbSpline
210
0.0
220
0.0
230
1.0
 70
     8
 71
     3
 72
     9
 73
     5
 74
     0
 42
0.000000001
 43
0.00000001
 40
0.0
 40
0.0
 40
0.0
 40
0.0
 40
0.6217494678283257
 40
1.0
 40
1.0
 40
1.0
 40
1.0
 10
88.20000000000002
 20
10.00124999999997
 30
0.0
 10
87.09892940504088
 20
9.989878601600317
 30
0.0
 10
85.32800614425386
 20
9.971589243928044
 30
0.0
 10
83.5571685574431
 20
9.811514161992026
 30
0.0
 10
82.88734829784238
 20
9.750965677062307
 30
0.0
  0
SPLINE
  5
AE
330
1F
100
AcDbEntity
  8
0
  6
Continuous
 62
     1
370
    15
100
AcDbSpline
210
0.0
220
0.0
230
1.0
 70
     8
 71
     3
 72
     8
 73
     4
 74
     0
 42
0.000000001
 43
0.00000001
 40
0.0
 40
0.0
 40
0.0
 40
0.0
 40
1.0
 40
1.0
 40
1.0
 40
1.0
 10
88.20000000000002
 20
10.00124999999998
 30
0.0
 10
86.52118522642414
 20
9.546169416721748
 30
0.0
 10
84.85411507050537
 20
9.027098086698844
 30
0.0
 10
83.20000000000002
 20
8.437440756011954
 30
0.0
  0
SPLINE
  5
AF
330
1F
100
AcDbEntity
  8
0
  6
Continuous
 62
     1
370
    15
100
AcDbSpline
210
0.0
220
0.0
230
1.0
 70
     8
 71
     3
 72
     8
 73
     4
 74
     0
 42
0.000000001
 43
0.00000001
 40
0.0
 40
0.0
 40
0.0
 40
0.0
 40
1.0
 40
1.0
 40
1.0
 40
1.0
 10
83.20000000000002
 20
2.903267587236507
 30
0.0
 10
83.38235996098747
 20
2.629565818839092
 30
0.0
 10
83.55684386910468
 20
2.347569677602595
 30
0.0
 10
83.7230654705598
 20
2.056872394678054
 30
0.0
  0
SPLINE
  5
B0
330
1F
100
AcDbEntity
  8
0
  6
Continuous
 62
     1
370
    15
100
AcDbSpline
210
0.0
220
0.0
230
1.0
 70
     8
 71
     3
 72
    11
 73
     7
 74
     0
 42
0.000000001
 43
0.00000001
 40
0.0
 40
0.0
 40
0.0
 40
0.0
 40
0.2249237521615841
 40
0.483342408643774
 40
0.7416931869357466
 40
1.0
 40
1.0
 40
1.0
 40
1.0
 10
24.97644743450181
 20
-11.87648589629275
 30
0.0
 10
24.00352932898529
 20
-11.9631386006943
 30
0.0
 10
21.91280935826532
 20
-12.14934804482119
 30
0.0
 10
18.70448672981988
 20
-12.16154848246609
 30
0.0
 10
15.35196332481972
 20
-11.98770017648139
 30
0.0
 10
13.11725772048836
 20
-11.68409690678338
 30
0.0
 10
12.00000000000001
 20
-11.53230818956794
 30
0.0
  0
SPLINE
  5
B1
330
1F
100
AcDbEntity
  8
0
  6
Continuous
 62
     1
370
    15
100
AcDbSpline
210
0.0
220
0.0
230
1.0
 70
     8
 71
     3
 72
    21
 73
    17
 74
     0
 42
0.000000001
 43
0.00000001
 40
0.0
 40
0.0
 40
0.0
 40
0.0
 40
0.0599830705829845
 40
0.131855377490499
 40
0.2037374553236567
 40
0.2756387237002299
 40
0.3475526893557772
 40
0.419444652501174
 40
0.4913214240904961
 40
0.5631924380006753
 40
0.6350671435898522
 40
0.7080466371390685
 40
0.7810442934788513
 40
0.8540466895427616
 40
0.9270296418134433
 40
1.0
 40
1.0
 40
1.0
 40
1.0
 10
57.93415224572797
 20
-10.73234024467735
 30
0.0
 10
57.01575610079228
 20
-10.86947145873359
 30
0.0
 10
54.9969286349862
 20
-11.170914646276
 30
0.0
 10
51.87753194774058
 20
-11.39985553862966
 30
0.0
 10
48.57559589344449
 20
-11.45956149001264
 30
0.0
 10
45.27289659794912
 20
-11.31012608603726
 30
0.0
 10
41.96990701274102
 20
-10.961106179407
 30
0.0
 10
38.66750956564465
 20
-10.41674195417084
 30
0.0
 10
35.36584477360512
 20
-9.68732093662338
 30
0.0
 10
32.06448301312994
 20
-8.785671974190043
 30
0.0
 10
28.74621811776207
 20
-7.722477026570656
 30
0.0
 10
25.41060533188694
 20
-6.513991936210253
 30
0.0
 10
22.05759849364189
 20
-5.180186861518496
 30
0.0
 10
18.70448391949392
 20
-3.751300503718482
 30
0.0
 10
15.35196076235357
 20
-2.254446830234154
 30
0.0
 10
13.11725597771796
 20
-1.226686314517019
 30
0.0
 10
12.00000000000001
 20
-0.7128503985865464
 30
0.0
  0
SPLINE
  5
B2
330
1F
100
AcDbEntity
  8
외형선
  6
Continuous
370
    15
100
AcDbSpline
210
0.0
220
0.0
230
1.0
 70
    24
 71
     3
 72
    14
 73
    10
 74
     0
 42
0.000000001
 43
0.00000001
 40
0.0
 40
0.0
 40
0.0
 40
0.0
 40
0.2499999999999999
 40
0.2499999999999999
 40
0.4999999999999998
 40
0.4999999999999998
 40
0.7499999999999999
 40
0.7499999999999999
 40
1.0
 40
1.0
 40
1.0
 40
1.0
 10
12.00000000000001
 20
-0.7128503985865452
 30
0.0
 10
12.00000000000001
 20
-1.797270187729639
 30
0.0
 10
12.00000000000001
 20
-2.886663075342678
 30
0.0
 10
12.00000000000001
 20
-4.996022154479343
 30
0.0
 10
12.00000000000001
 20
-6.015344781886825
 30
0.0
 10
12.00000000000001
 20
-7.906313096659174
 30
0.0
 10
12.00000000000001
 20
-8.77741272977716
 30
0.0
 10
12.00000000000001
 20
-10.3147508698651
 30
0.0
 10
12.00000000000001
 20
-10.98079624590684
 30
0.0
 10
12.00000000000001
 20
-11.53230818956793
 30
0.0
  0
SPLINE
  5
B3
330
1F
100
AcDbEntity
  8
외형선
  6
Continuous
370
    15
100
AcDbSpline
210
0.0
220
0.0
230
1.0
 70
    24
 71
     3
 72
    14
 73
    10
 74
     0
 42
0.000000001
 43
0.00000001
 40
0.0
 40
0.0
 40
0.0
 40
0.0
 40
0.25
 40
0.25
 40
0.5
 40
0.5
 40
0.75
 40
0.75
 40
1.0
 40
1.0
 40
1.0
 40
1.0
 10
12.00000000000001
 20
9.981780645844584
 30
0.0
 10
12.00000000000001
 20
9.635729154109026
 30
0.0
 10
12.00000000000001
 20
9.129338577515437
 30
0.0
 10
12.00000000000001
 20
7.798448033743874
 30
0.0
 10
12.00000000000001
 20
6.973976482823073
 30
0.0
 10
12.00000000000001
 20
5.073232208142694
 30
0.0
 10
12.00000000000001
 20
3.9979722803994
 30
0.0
 10
12.00000000000001
 20
1.711496989589029
 30
0.0
 10
12.00000000000001
 20
0.5016522131172978
 30
0.0
 10
12.00000000000001
 20
-0.7128503985865402
 30
0.0
  0
LINE
  5
B4
330
1F
100
AcDbEntity
  8
0
  6
Continuous
 62
     1
370
    15
100
AcDbLine
 10
88.20000000000002
 20
-0.0000000000000134
 30
0.0
 11
88.20000000000002
 21
10.00124999999998
 31
0.0
  0
SPLINE
  5
B5
330
1F
100
AcDbEntity
  8
0
  6
Continuous
 62
     1
370
    15
100
AcDbSpline
210
0.0
220
0.0
230
1.0
 70
     8
 71
     3
 72
    15
 73
    11
 74
     0
 42
0.000000001
 43
0.00000001
 40
0.0
 40
0.0
 40
0.0
 40
0.0
 40
0.0798197907270226
 40
0.2168975337428428
 40
0.3539773708966268
 40
0.4831584386733105
 40
0.612319163909273
 40
0.7415331336442502
 40
0.8708095610167749
 40
0.9999999999999999
 40
0.9999999999999999
 40
0.9999999999999999
 40
0.9999999999999999
 10
34.83510132923513
 20
-11.22824762979696
 30
0.0
 10
34.227563034941
 20
-11.44720102694264
 30
0.0
 10
32.57667474662934
 20
-12.04217191590337
 30
0.0
 10
29.88207160404135
 20
-12.80545124453787
 30
0.0
 10
26.81168019403227
 20
-13.50474697903937
 30
0.0
 10
23.80210518791199
 20
-13.98072827656066
 30
0.0
 10
20.85246814438035
 20
-14.25178094106152
 30
0.0
 10
17.90185960536431
 20
-14.31611428109094
 30
0.0
 10
14.95047750165692
 20
-14.19152029438757
 30
0.0
 10
12.98327434669337
 20
-13.93893796795809
 30
0.0
 10
11.99999999999577
 20
-13.81268882008505
 30
0.0
  0
SPLINE
  5
B6
330
1F
100
AcDbEntity
  8
외형선
  6
Continuous
370
    15
100
AcDbSpline
210
0.0
220
0.0
230
1.0
 70
    24
 71
     3
 72
     8
 73
     4
 74
     0
 42
0.000000001
 43
0.00000001
 40
0.0
 40
0.0
 40
0.0
 40
0.0
 40
1.0
 40
1.0
 40
1.0
 40
1.0
 10
12.00000000000001
 20
-11.53230818956794
 30
0.0
 10
12.00000000000001
 20
-12.29242336735369
 30
0.0
 10
12.00000000000001
 20
-13.05743555107418
 30
0.0
 10
12.00000000000001
 20
-13.81268882006973
 30
0.0
  0
SPLINE
  5
B7
330
1F
100
AcDbEntity
  8
0
  6
Continuous
 62
     1
370
    15
100
AcDbSpline
210
0.0
220
0.0
230
1.0
 70
     8
 71
     3
 72
    14
 73
    10
 74
     0
 42
0.000000001
 43
0.00000001
 40
0.0
 40
0.0
 40
0.0
 40
0.0
 40
0.0892227080599702
 40
0.2485775361298042
 40
0.3989176021635135
 40
0.5492213771238258
 40
0.6994460106713468
 40
0.8496770501035139
 40
1.0
 40
1.0
 40
1.0
 40
1.0
 10
68.5662670171894
 20
9.575674296427659
 30
0.0
 10
69.15016528583426
 20
9.82828177299768
 30
0.0
 10
70.77692596286555
 20
10.53205489868602
 30
0.0
 10
73.38755546785471
 20
11.48779776528923
 30
0.0
 10
76.39842299515406
 20
12.44330437191556
 30
0.0
 10
79.34929840693276
 20
13.19786190553475
 30
0.0
 10
82.29905069239203
 20
13.76301183738278
 30
0.0
 10
85.24893366390214
 20
14.14677450739603
 30
0.0
 10
87.216110698088
 20
14.23253237584201
 30
0.0
 10
88.20000000000002
 20
14.2875
 30
0.0
  0
LINE
  5
B8
330
1F
100
AcDbEntity
  8
외형선
  6
Continuous
370
    15
100
AcDbLine
 10
12.00000000000001
 20
-14.28750000000003
 30
0.0
 11
12.00000000000002
 21
-13.81268882006111
 31
0.0
  0
SPLINE
  5
B9
330
1F
100
AcDbEntity
  8
0
  6
Continuous
 62
     1
370
    15
100
AcDbSpline
210
0.0
220
0.0
230
1.0
 70
    24
 71
     3
 72
    12
 73
     8
 74
     0
 42
0.000000001
 43
0.00000001
 40
0.0
 40
0.0
 40
0.0
 40
0.0
 40
0.5
 40
0.5
 40
0.75
 40
0.75
 40
1.0
 40
1.0
 40
1.0
 40
1.0
 10
88.20000000000002
 20
10.00124999999998
 30
0.0
 10
88.20000000000002
 20
10.60750086913447
 30
0.0
 10
88.2
 20
11.31202052393891
 30
0.0
 10
88.20000000000006
 20
12.42058077765588
 30
0.0
 10
88.20000000000003
 20
12.79789599038186
 30
0.0
 10
88.20000000000003
 20
13.54650148965525
 30
0.0
 10
88.20000000000003
 20
13.91765556830351
 30
0.0
 10
88.20000000000002
 20
14.2875
 30
0.0
  0
LINE
  5
BB
330
1F
100
AcDbEntity
  8
참조1
100
AcDbLine
 10
16.44057883212693
 20
0.0010749287238892
 30
0.0
 11
16.44057883212695
 21
-39.99892507127612
 31
0.0
  0
LINE
  5
BC
330
1F
100
AcDbEntity
  8
참조1
100
AcDbLine
 10
16.44057883212695
 20
-39.99892507127612
 30
0.0
 11
-22.53075298218174
 21
-39.9989250712761
 31
0.0
  0
INSERT
  5
BE
330
1F
100
AcDbEntity
  8
0
  6
Continuous
 62
     7
100
AcDbBlockReference
 66
     1
  2
블럭10
 10
10.75972706787481
 20
-52.04717430164396
 30
0.0
  0
ATTRIB
  5
BF
330
BE
100
AcDbEntity
  8
FORMAT
 62
     2
100
AcDbText
 10
1.578431779133526
 20
-49.97180738881178
 30
0.0
 40
4.233333333333333
  1
E1080108 [ 2 FLUTE ]
 41
0.75
  7
SLDTEXTSTYLE0
 11
1.578431779133526
 21
-52.08847405547844
 31
0.0
100
AcDbAttribute
  2
AUTOATTR0
 70
     0
 74
     1
  0
SEQEND
  5
C0
330
BE
100
AcDbEntity
  8
0
  6
Continuous
 62
     7
  0
HATCH
  5
C1
330
1F
100
AcDbEntity
  8
중심선
100
AcDbHatch
 10
0.0
 20
0.0
 30
0.0
210
0.0
220
0.0
230
1.0
  2
SOLID
 70
     1
 71
     0
 91
        1
 92
        0
 93
        4
 72
     1
 10
16.47463637225566
 20
-35.80000000000002
 11
13.02836112841838
 21
-35.80000000000002
 72
     1
 10
13.02836112841838
 20
-35.80000000000002
 11
10.90013126921436
 21
-38.33632558057262
 72
     1
 10
10.90013126921436
 20
-38.33632558057262
 11
14.34643959816479
 21
-38.33628615127013
 72
     1
 10
14.34643959816479
 20
-38.33628615127013
 11
16.47463637225566
 21
-35.80000000000002
 97
        0
 75
     0
 76
     1
 98
        1
 10
8.259421167873072
 20
-0.001074928723916
  0
HATCH
  5
C2
330
1F
100
AcDbEntity
  8
중심선
100
AcDbHatch
 10
0.0
 20
0.0
 30
0.0
210
0.0
220
0.0
230
1.0
  2
SOLID
 70
     1
 71
     0
 91
        1
 92
        0
 93
        4
 72
     1
 10
21.48740036329161
 20
-35.8
 11
18.04112511945439
 21
-35.8
 72
     1
 10
18.04112511945439
 20
-35.8
 11
13.50998711109694
 21
-41.20000000000004
 72
     1
 10
13.50998711109694
 20
-41.20000000000004
 11
16.95626235493422
 21
-41.20000000000004
 72
     1
 10
16.95626235493422
 20
-41.20000000000004
 11
21.48740036329161
 21
-35.8
 97
        0
 75
     0
 76
     1
 98
        1
 10
8.259421167873072
 20
-0.001074928723916
  0
HATCH
  5
C3
330
1F
100
AcDbEntity
  8
중심선
100
AcDbHatch
 10
0.0
 20
0.0
 30
0.0
210
0.0
220
0.0
230
1.0
  2
SOLID
 70
     1
 71
     0
 91
        1
 92
        0
 93
        4
 72
     1
 10
26.50016435432751
 20
-35.80000000000005
 11
23.05388911049045
 21
-35.8
 72
     1
 10
23.05388911049045
 20
-35.8
 11
16.00545220860115
 21
-44.20000000000004
 72
     1
 10
16.00545220860115
 20
-44.20000000000004
 11
19.45172745243843
 21
-44.20000000000004
 72
     1
 10
19.45172745243843
 20
-44.20000000000004
 11
26.50016435432751
 21
-35.80000000000005
 97
        0
 75
     0
 76
     1
 98
        1
 10
8.259421167873072
 20
-0.001074928723916
  0
HATCH
  5
C4
330
1F
100
AcDbEntity
  8
중심선
100
AcDbHatch
 10
0.0
 20
0.0
 30
0.0
210
0.0
220
0.0
230
1.0
  2
SOLID
 70
     1
 71
     0
 91
        1
 92
        0
 93
        6
 72
     3
 10
31.30005478533971
 20
-40.00000000005129
 11
3.960054785062283
 21
1.540882976769353E-10
 40
0.3939339440162628
 50
17.09539180608439
 51
320.0019657685075
 73
     0
 72
     1
 10
32.98305444104028
 20
-38.58789400463832
 11
35.28835631474135
 21
-36.6535672945904
 72
     3
 10
31.30005478528686
 20
-40.00000000000017
 11
6.600054785286826
 21
-1.278976924368180E-13
 40
0.6363583540795983
 50
39.99873849337411
 51
368.4976242363724
 73
     1
 72
     1
 10
37.72538727718747
 20
-39.03999999993005
 11
29.98012209212281
 21
-39.03999999993002
 72
     1
 10
29.98012209212281
 20
-39.03999999993002
 11
29.98009704767685
 21
-40.95999999992993
 72
     1
 10
29.98009704767685
 20
-40.95999999992993
 11
34.42147681714889
 21
-40.95999999992991
 97
        0
 75
     0
 76
     1
 98
        1
 10
8.259421167873072
 20
-0.001074928723916
  0
DIMENSION
  5
D3
330
1F
100
AcDbEntity
  8
0
  6
Continuous
370
    15
100
AcDbDimension
  2
_D_1
 10
12.00000000000001
 20
26.55081957525041
 30
0.0
 11
51.03327820791022
 21
26.55081957525041
 31
0.0
 70
   160
  1
<>
 71
     2
 42
76.2
  3
SLDDIMSTYLE1
100
AcDbAlignedDimension
 13
88.20000000000002
 23
14.2875
 33
0.0
 14
12.00000000000001
 24
12.69999999999997
 34
0.0
100
AcDbRotatedDimension
1001
ACAD
1000
DSTYLE
1002
{
1070
   171
1070
     6
1070
   273
1070
     7
1002
}
  0
DIMENSION
  5
FD
330
1F
100
AcDbEntity
  8
0
  6
Continuous
370
    15
100
AcDbDimension
  2
_D_3
 10
107.2000000000001
 20
14.28750000000007
 30
0.0
 11
107.2
 21
43.07542442259364
 31
0.0
 70
   160
  1
%%c<>
 71
     2
 42
28.575
 52
-270.0
  3
SLDDIMSTYLE3
100
AcDbAlignedDimension
 13
88.20000000000002
 23
-14.2875
 33
0.0
 14
88.20000000000002
 24
14.2875
 34
0.0
 50
90.0000000000002
100
AcDbRotatedDimension
1001
ACAD
1000
DSTYLE
1002
{
1070
   171
1070
     6
1070
   273
1070
     7
1002
}
  0
LINE
  5
111
330
1F
100
AcDbEntity
  8
참조1
100
AcDbLine
 10
75.44158764747253
 20
7.441074928723896
 30
0.0
 11
75.44158764747253
 21
-7.438925071276109
 31
0.0
  0
LINE
  5
112
330
1F
100
AcDbEntity
  8
참조1
100
AcDbLine
 10
88.14158764747253
 20
5.441074928723896
 30
0.0
 11
75.44158764747253
 21
5.441074928723896
 31
0.0
  0
SOLID
  5
113
330
1F
100
AcDbEntity
  8
참조1
100
AcDbTrace
 10
75.44158764747253
 20
5.441074928723896
 30
0.0
 11
81.79158764747253
 21
4.425074928723896
 31
0.0
 12
81.79158764747253
 22
6.457074928723896
 32
0.0
 13
81.79158764747253
 23
6.457074928723896
 33
0.0
  0
LINE
  5
114
330
1F
100
AcDbEntity
  8
참조1
100
AcDbLine
 10
88.14158764747253
 20
-5.438925071276109
 30
0.0
 11
75.44158764747253
 21
-5.438925071276109
 31
0.0
  0
SOLID
  5
115
330
1F
100
AcDbEntity
  8
참조1
100
AcDbTrace
 10
75.44158764747253
 20
-5.438925071276109
 30
0.0
 11
81.79158764747253
 21
-6.454925071276109
 31
0.0
 12
81.79158764747253
 22
-4.422925071276109
 32
0.0
 13
81.79158764747253
 23
-4.422925071276109
 33
0.0
  0
MTEXT
  5
116
330
1F
100
AcDbEntity
  8
참조1
100
AcDbMText
 10
84.82593778009851
 20
11.01136670591222
 30
0.0
 40
3.5
 41
0.0
 71
     1
 72
     1
  1
A
  7
SLDTEXTSTYLE0
 73
     1
 44
1.0
  0
MTEXT
  5
117
330
1F
100
AcDbEntity
  8
참조1
100
AcDbMText
 10
84.82593778009851
 20
0.1313667059122201
 30
0.0
 40
3.5
 41
0.0
 71
     1
 72
     1
  1
A
  7
SLDTEXTSTYLE0
 73
     1
 44
1.0
  0
LINE
  5
24A
330
1F
100
AcDbEntity
  8
외형선
  6
Continuous
370
    15
100
AcDbLine
 10
12.00000000000002
 20
12.69999999999999
 30
0.0
 11
-13.06992499999996
 21
12.69999999999999
 31
0.0
  0
LINE
  5
24B
330
1F
100
AcDbEntity
  8
외형선
  6
Continuous
370
    15
100
AcDbLine
 10
-50.49999999999997
 20
-12.7
 30
0.0
 11
12.00000000000001
 21
-12.70000000000002
 31
0.0
  0
LINE
  5
24C
330
1F
100
AcDbEntity
  8
외형선
  6
Continuous
370
    15
100
AcDbLine
 10
-51.49999999999997
 20
-11.7
 30
0.0
 11
-50.49999999999997
 21
-12.7
 31
0.0
  0
LINE
  5
25D
330
1F
100
AcDbEntity
  8
외형선
  6
Continuous
370
    15
100
AcDbLine
 10
-50.49999999999997
 20
10.795
 30
0.0
 11
-50.49999999999997
 21
-12.7
 31
0.0
  0
LINE
  5
25F
330
1F
100
AcDbEntity
  8
외형선
  6
Continuous
370
    15
100
AcDbLine
 10
-51.49999999999997
 20
10.795
 30
0.0
 11
-51.49999999999997
 21
-11.69999999999997
 31
0.0
  0
LINE
  5
280
330
1F
100
AcDbEntity
  8
중심선
100
AcDbLine
 10
-58.49999999999997
 20
-0.0000000000000148
 30
0.0
 11
95.20000000000002
 21
0.0000000000000077
 31
0.0
  0
CIRCLE
  5
281
330
1F
100
AcDbEntity
  8
해칭선
100
AcDbCircle
 10
10.0
 20
0.0
 30
0.0
 40
2.999999999999995
  0
DIMENSION
  5
282
330
1F
100
AcDbEntity
  8
0
  6
Continuous
370
    15
100
AcDbDimension
  2
*D11
 10
-63.99999999999996
 20
-12.70000000000007
 30
0.0
 11
-64.0
 21
-0.0000000000000071
 31
0.0
 70
   160
  1
%%c<>
 71
     2
 42
25.40000000000002
 52
-270.0
  3
SLDDIMSTYLE1
100
AcDbAlignedDimension
 13
-51.49999999999997
 23
12.7
 33
0.0
 14
-50.49999999999999
 24
-12.70000000000002
 34
0.0
 50
90.0000000000002
100
AcDbRotatedDimension
1001
ACAD
1000
DSTYLE
1002
{
1070
   171
1070
     6
1070
   273
1070
     7
1002
}
  0
DIMENSION
  5
284
330
1F
100
AcDbEntity
  8
0
  6
Continuous
370
    15
100
AcDbDimension
  2
*D13
 10
-51.49999999999997
 20
42.57707860462924
 30
0.0
 11
18.35000000000002
 21
42.57707860462924
 31
0.0
 70
   160
  1
<>
 71
     2
 42
139.7
  3
SLDDIMSTYLE1
100
AcDbAlignedDimension
 13
88.20000000000002
 23
14.2875
 33
0.0
 14
-51.49999999999997
 24
12.7
 34
0.0
100
AcDbRotatedDimension
1001
ACAD
1000
DSTYLE
1002
{
1070
   171
1070
     6
1070
   273
1070
     7
1002
}
  0
INSERT
  5
286
330
1F
100
AcDbEntity
  8
해칭선
100
AcDbBlockReference
  2
SW_DOWELSYMBOL_0
 10
10.0
 20
0.0
 30
0.0
  0
LINE
  5
287
330
1F
100
AcDbEntity
  8
외형선
  6
Continuous
370
    15
100
AcDbLine
 10
-28.08132499999988
 20
10.795
 30
0.0
 11
-14.97492499999998
 21
10.795
 31
0.0
  0
LINE
  5
288
330
1F
100
AcDbEntity
  8
외형선
  6
Continuous
370
    15
100
AcDbLine
 10
-28.08132499999988
 20
10.79500000000001
 30
0.0
 11
-29.98632499999985
 21
12.7
 31
0.0
  0
LINE
  5
289
330
1F
100
AcDbEntity
  8
외형선
  6
Continuous
370
    15
100
AcDbLine
 10
-14.97492499999998
 20
10.79500000000001
 30
0.0
 11
-13.06992499999996
 21
12.7
 31
0.0
  0
LINE
  5
28A
330
1F
100
AcDbEntity
  8
외형선
  6
Continuous
370
    15
100
AcDbLine
 10
-51.49999999999997
 20
10.795
 30
0.0
 11
-37.79999999999995
 21
10.795
 31
0.0
  0
LINE
  5
28B
330
1F
100
AcDbEntity
  8
외형선
  6
Continuous
370
    15
100
AcDbLine
 10
-37.79999999999995
 20
10.79500000000001
 30
0.0
 11
-35.89499999999998
 21
12.69999999999999
 31
0.0
  0
LINE
  5
28C
330
1F
100
AcDbEntity
  8
외형선
  6
Continuous
370
    15
100
AcDbLine
 10
-50.49999999999997
 20
10.795
 30
0.0
 11
-50.49999999999997
 21
-12.7
 31
0.0
  0
LINE
  5
28D
330
1F
100
AcDbEntity
  8
외형선
  6
Continuous
370
    15
100
AcDbLine
 10
-35.89499999999998
 20
12.7
 30
0.0
 11
-29.98632499999985
 21
12.7
 31
0.0
  0
ENDSEC
  0
SECTION
  2
OBJECTS
  0
DICTIONARY
  5
C
330
0
100
AcDbDictionary
281
     1
  3
ACAD_GROUP
350
D
  3
ACAD_IMAGE_VARS
350
142
  3
ACAD_LAYOUT
350
1A
  3
ACAD_MLINESTYLE
350
17
  3
ACAD_PLOTSETTINGS
350
19
  3
ACAD_PLOTSTYLENAME
350
E
  3
ACAD_SCALELIST
350
47
  3
APPDATA
350
140
  3
DWGPROPS
350
2F0
  0
DICTIONARY
  5
169
330
2
100
AcDbDictionary
280
     1
281
     1
  3
ACAD_LAYERSTATES
360
16A
  0
DICTIONARY
  5
D
102
{ACAD_REACTORS
330
C
102
}
330
C
100
AcDbDictionary
281
     1
  0
RASTERVARIABLES
  5
142
102
{ACAD_REACTORS
330
C
102
}
330
C
100
AcDbRasterVariables
 90
        0
 70
     1
 71
     1
 72
     1
  0
DICTIONARY
  5
1A
102
{ACAD_REACTORS
330
C
102
}
330
C
100
AcDbDictionary
281
     1
  3
Layout1
350
1E
  3
Layout2
350
26
  3
Model
350
22
  0
DICTIONARY
  5
17
102
{ACAD_REACTORS
330
C
102
}
330
C
100
AcDbDictionary
281
     1
  3
Standard
350
18
  0
DICTIONARY
  5
19
102
{ACAD_REACTORS
330
C
102
}
330
C
100
AcDbDictionary
281
     1
  0
ACDBDICTIONARYWDFLT
  5
E
102
{ACAD_REACTORS
330
C
102
}
330
C
100
AcDbDictionary
281
     1
  3
Normal
350
F
100
AcDbDictionaryWithDefault
340
F
  0
DICTIONARY
  5
47
102
{ACAD_REACTORS
330
C
102
}
330
C
100
AcDbDictionary
281
     1
  3
A0
350
48
  3
A1
350
49
  3
A2
350
4A
  3
A3
350
4B
  3
A4
350
4C
  3
A5
350
4D
  3
A6
350
4E
  3
A7
350
4F
  3
A8
350
50
  3
A9
350
51
  3
B0
350
52
  3
B1
350
53
  3
B2
350
54
  3
B3
350
55
  3
B4
350
56
  3
B5
350
57
  3
B6
350
58
  3
B7
350
59
  3
B8
350
5A
  3
B9
350
5B
  3
C0
350
5C
  3
C1
350
5D
  3
C2
350
5E
  3
C3
350
5F
  3
C4
350
60
  3
C5
350
61
  3
C6
350
62
  3
C7
350
63
  3
C8
350
64
  3
C9
350
65
  3
D0
350
66
  3
D1
350
67
  3
D2
350
68
  0
DICTIONARY
  5
140
102
{ACAD_REACTORS
330
C
102
}
330
C
100
AcDbDictionary
281
     1
  0
XRECORD
  5
2F0
102
{ACAD_REACTORS
330
C
102
}
330
C
100
AcDbXrecord
280
     1
  1
DWGPROPS COOKIE
  2

  3

  4

  6

  7

  8
12017012
  9

300
=
301
=
302
=
303
=
304
=
305
=
306
=
307
=
308
=
309
=
 40
0.0
 41
2458311.199108947
 42
2458319.11327897
  1

 90
        0
  0
DICTIONARY
  5
16A
102
{ACAD_REACTORS
330
169
102
}
330
169
100
AcDbDictionary
281
     1
  0
LAYOUT
  5
1E
102
{ACAD_REACTORS
330
1A
102
}
330
1A
100
AcDbPlotSettings
  1

  2
none_device
  4

  6

 40
0.0
 41
0.0
 42
0.0
 43
0.0
 44
0.0
 45
0.0
 46
0.0
 47
0.0
 48
0.0
 49
0.0
140
0.0
141
0.0
142
1.0
143
1.0
 70
   688
 72
     1
 73
     0
 74
     5
  7

 75
    16
147
1.0
148
0.0
149
0.0
100
AcDbLayout
  1
Layout1
 70
     1
 71
     1
 10
0.0
 20
0.0
 11
420.0
 21
297.0
 12
0.0
 22
0.0
 32
0.0
 14
1.000000000000000E+20
 24
1.000000000000000E+20
 34
1.000000000000000E+20
 15
-1.000000000000000E+20
 25
-1.000000000000000E+20
 35
-1.000000000000000E+20
146
0.0
 13
0.0
 23
0.0
 33
0.0
 16
1.0
 26
0.0
 36
0.0
 17
0.0
 27
1.0
 37
0.0
 76
     0
330
1B
  0
LAYOUT
  5
26
102
{ACAD_REACTORS
330
1A
102
}
330
1A
100
AcDbPlotSettings
  1

  2
none_device
  4

  6

 40
0.0
 41
0.0
 42
0.0
 43
0.0
 44
0.0
 45
0.0
 46
0.0
 47
0.0
 48
0.0
 49
0.0
140
0.0
141
0.0
142
1.0
143
1.0
 70
   688
 72
     1
 73
     0
 74
     5
  7

 75
    16
147
1.0
148
0.0
149
0.0
100
AcDbLayout
  1
Layout2
 70
     1
 71
     2
 10
0.0
 20
0.0
 11
0.0
 21
0.0
 12
0.0
 22
0.0
 32
0.0
 14
0.0
 24
0.0
 34
0.0
 15
0.0
 25
0.0
 35
0.0
146
0.0
 13
0.0
 23
0.0
 33
0.0
 16
1.0
 26
0.0
 36
0.0
 17
0.0
 27
1.0
 37
0.0
 76
     0
330
23
  0
LAYOUT
  5
22
102
{ACAD_REACTORS
330
1A
102
}
330
1A
100
AcDbPlotSettings
  1

  2
none_device
  4
ANSI_A_(11.00_x_8.50_Inches)
  6

 40
6.35
 41
19.05
 42
6.35000508
 43
19.05000254
 44
279.4
 45
215.9
 46
103.1580199316263
 47
88.2089523825212
 48
0.0
 49
0.0
140
0.0
141
0.0
142
0.0663760467482972
143
1.0
 70
  1696
 72
     0
 73
     0
 74
     0
  7

 75
     0
147
0.0235690232323232
148
0.0
149
0.0
100
AcDbLayout
  1
Model
 70
     1
 71
     0
 10
0.0
 20
0.0
 11
420.0
 21
297.0
 12
0.0
 22
0.0
 32
0.0
 14
-68.37500000000004
 24
-49.97180738881178
 34
0.0
 15
107.7503333333335
 25
59.26292442259364
 35
0.0
146
0.0
 13
0.0
 23
0.0
 33
0.0
 16
1.0
 26
0.0
 36
0.0
 17
0.0
 27
1.0
 37
0.0
 76
     0
330
1F
331
29
  0
MLINESTYLE
  5
18
102
{ACAD_REACTORS
330
17
102
}
330
17
100
AcDbMlineStyle
  2
Standard
 70
     0
  3

 62
   256
 51
90.0
 52
90.0
 71
     2
 49
0.5
 62
   256
  6
BYLAYER
 49
-0.5
 62
   256
  6
BYLAYER
  0
ACDBPLACEHOLDER
  5
F
102
{ACAD_REACTORS
330
E
102
}
330
E
  0
SCALE
  5
48
102
{ACAD_REACTORS
330
47
102
}
330
47
100
AcDbScale
 70
     0
300
1:1
140
1.0
141
1.0
290
     1
  0
SCALE
  5
49
102
{ACAD_REACTORS
330
47
102
}
330
47
100
AcDbScale
 70
     0
300
1:2
140
1.0
141
2.0
290
     0
  0
SCALE
  5
4A
102
{ACAD_REACTORS
330
47
102
}
330
47
100
AcDbScale
 70
     0
300
1:4
140
1.0
141
4.0
290
     0
  0
SCALE
  5
4B
102
{ACAD_REACTORS
330
47
102
}
330
47
100
AcDbScale
 70
     0
300
1:5
140
1.0
141
5.0
290
     0
  0
SCALE
  5
4C
102
{ACAD_REACTORS
330
47
102
}
330
47
100
AcDbScale
 70
     0
300
1:8
140
1.0
141
8.0
290
     0
  0
SCALE
  5
4D
102
{ACAD_REACTORS
330
47
102
}
330
47
100
AcDbScale
 70
     0
300
1:10
140
1.0
141
10.0
290
     0
  0
SCALE
  5
4E
102
{ACAD_REACTORS
330
47
102
}
330
47
100
AcDbScale
 70
     0
300
1:16
140
1.0
141
16.0
290
     0
  0
SCALE
  5
4F
102
{ACAD_REACTORS
330
47
102
}
330
47
100
AcDbScale
 70
     0
300
1:20
140
1.0
141
20.0
290
     0
  0
SCALE
  5
50
102
{ACAD_REACTORS
330
47
102
}
330
47
100
AcDbScale
 70
     0
300
1:30
140
1.0
141
30.0
290
     0
  0
SCALE
  5
51
102
{ACAD_REACTORS
330
47
102
}
330
47
100
AcDbScale
 70
     0
300
1:40
140
1.0
141
40.0
290
     0
  0
SCALE
  5
52
102
{ACAD_REACTORS
330
47
102
}
330
47
100
AcDbScale
 70
     0
300
1:50
140
1.0
141
50.0
290
     0
  0
SCALE
  5
53
102
{ACAD_REACTORS
330
47
102
}
330
47
100
AcDbScale
 70
     0
300
1:100
140
1.0
141
100.0
290
     0
  0
SCALE
  5
54
102
{ACAD_REACTORS
330
47
102
}
330
47
100
AcDbScale
 70
     0
300
2:1
140
2.0
141
1.0
290
     0
  0
SCALE
  5
55
102
{ACAD_REACTORS
330
47
102
}
330
47
100
AcDbScale
 70
     0
300
4:1
140
4.0
141
1.0
290
     0
  0
SCALE
  5
56
102
{ACAD_REACTORS
330
47
102
}
330
47
100
AcDbScale
 70
     0
300
8:1
140
8.0
141
1.0
290
     0
  0
SCALE
  5
57
102
{ACAD_REACTORS
330
47
102
}
330
47
100
AcDbScale
 70
     0
300
10:1
140
10.0
141
1.0
290
     0
  0
SCALE
  5
58
102
{ACAD_REACTORS
330
47
102
}
330
47
100
AcDbScale
 70
     0
300
100:1
140
100.0
141
1.0
290
     0
  0
SCALE
  5
59
102
{ACAD_REACTORS
330
47
102
}
330
47
100
AcDbScale
 70
     0
300
1/128" = 1'-0"
140
0.0078125
141
12.0
290
     0
  0
SCALE
  5
5A
102
{ACAD_REACTORS
330
47
102
}
330
47
100
AcDbScale
 70
     0
300
1/64" = 1'-0"
140
0.015625
141
12.0
290
     0
  0
SCALE
  5
5B
102
{ACAD_REACTORS
330
47
102
}
330
47
100
AcDbScale
 70
     0
300
1/32" = 1'-0"
140
0.03125
141
12.0
290
     0
  0
SCALE
  5
5C
102
{ACAD_REACTORS
330
47
102
}
330
47
100
AcDbScale
 70
     0
300
1/16" = 1'-0"
140
0.0625
141
12.0
290
     0
  0
SCALE
  5
5D
102
{ACAD_REACTORS
330
47
102
}
330
47
100
AcDbScale
 70
     0
300
3/32" = 1'-0"
140
0.09375
141
12.0
290
     0
  0
SCALE
  5
5E
102
{ACAD_REACTORS
330
47
102
}
330
47
100
AcDbScale
 70
     0
300
1/8" = 1'-0"
140
0.125
141
12.0
290
     0
  0
SCALE
  5
5F
102
{ACAD_REACTORS
330
47
102
}
330
47
100
AcDbScale
 70
     0
300
3/16" = 1'-0"
140
0.1875
141
12.0
290
     0
  0
SCALE
  5
60
102
{ACAD_REACTORS
330
47
102
}
330
47
100
AcDbScale
 70
     0
300
1/4" = 1'-0"
140
0.25
141
12.0
290
     0
  0
SCALE
  5
61
102
{ACAD_REACTORS
330
47
102
}
330
47
100
AcDbScale
 70
     0
300
3/8" = 1'-0"
140
0.375
141
12.0
290
     0
  0
SCALE
  5
62
102
{ACAD_REACTORS
330
47
102
}
330
47
100
AcDbScale
 70
     0
300
1/2" = 1'-0"
140
0.5
141
12.0
290
     0
  0
SCALE
  5
63
102
{ACAD_REACTORS
330
47
102
}
330
47
100
AcDbScale
 70
     0
300
3/4" = 1'-0"
140
0.75
141
12.0
290
     0
  0
SCALE
  5
64
102
{ACAD_REACTORS
330
47
102
}
330
47
100
AcDbScale
 70
     0
300
1" = 1'-0"
140
1.0
141
12.0
290
     0
  0
SCALE
  5
65
102
{ACAD_REACTORS
330
47
102
}
330
47
100
AcDbScale
 70
     0
300
1-1/2" = 1'-0"
140
1.5
141
12.0
290
     0
  0
SCALE
  5
66
102
{ACAD_REACTORS
330
47
102
}
330
47
100
AcDbScale
 70
     0
300
3" = 1'-0"
140
3.0
141
12.0
290
     0
  0
SCALE
  5
67
102
{ACAD_REACTORS
330
47
102
}
330
47
100
AcDbScale
 70
     0
300
6" = 1'-0"
140
6.0
141
12.0
290
     0
  0
SCALE
  5
68
102
{ACAD_REACTORS
330
47
102
}
330
47
100
AcDbScale
 70
     0
300
1'-0" = 1'-0"
140
12.0
141
12.0
290
     0
  0
ENDSEC
  0
EOF
