  0
SECTION
  2
HEADER
  9
$ACADVER
  1
AC1015
  9
$ACADMAINTVER
 70
     6
  9
$DWGCODEPAGE
  3
ANSI_949
  9
$INSBASE
 10
0.0
 20
0.0
 30
0.0
  9
$EXTMIN
 10
1.000000000000000E+20
 20
1.000000000000000E+20
 30
1.000000000000000E+20
  9
$EXTMAX
 10
-1.000000000000000E+20
 20
-1.000000000000000E+20
 30
-1.000000000000000E+20
  9
$LIMMIN
 10
0.0
 20
0.0
  9
$LIMMAX
 10
420.0
 20
297.0
  9
$ORTHOMODE
 70
     1
  9
$REGENMODE
 70
     1
  9
$FILLMODE
 70
     1
  9
$QTEXTMODE
 70
     0
  9
$MIRRTEXT
 70
     1
  9
$LTSCALE
 40
1.0
  9
$ATTMODE
 70
     1
  9
$TEXTSIZE
 40
3.5
  9
$TRACEWID
 40
1.0
  9
$TEXTSTYLE
  7
Standard
  9
$CLAYER
  8
0
  9
$CELTYPE
  6
ByLayer
  9
$CECOLOR
 62
   256
  9
$CELTSCALE
 40
1.0
  9
$DISPSILH
 70
     0
  9
$DIMSCALE
 40
1.0
  9
$DIMASZ
 40
3.302
  9
$DIMEXO
 40
1.0
  9
$DIMDLI
 40
3.75
  9
$DIMRND
 40
0.0
  9
$DIMDLE
 40
0.0
  9
$DIMEXE
 40
1.0
  9
$DIMTP
 40
0.0
  9
$DIMTM
 40
0.0
  9
$DIMTXT
 40
3.5
  9
$DIMCEN
 40
2.5
  9
$DIMTSZ
 40
0.0
  9
$DIMTOL
 70
     0
  9
$DIMLIM
 70
     0
  9
$DIMTIH
 70
     1
  9
$DIMTOH
 70
     1
  9
$DIMSE1
 70
     0
  9
$DIMSE2
 70
     0
  9
$DIMTAD
 70
     1
  9
$DIMZIN
 70
     0
  9
$DIMBLK
  1

  9
$DIMASO
 70
     1
  9
$DIMSHO
 70
     1
  9
$DIMPOST
  1

  9
$DIMAPOST
  1

  9
$DIMALT
 70
     0
  9
$DIMALTD
 70
     3
  9
$DIMALTF
 40
0.0393700787401575
  9
$DIMLFAC
 40
1.0
  9
$DIMTOFL
 70
     1
  9
$DIMTVP
 40
0.0
  9
$DIMTIX
 70
     0
  9
$DIMSOXD
 70
     0
  9
$DIMSAH
 70
     0
  9
$DIMBLK1
  1

  9
$DIMBLK2
  1

  9
$DIMSTYLE
  2
ISO-25
  9
$DIMCLRD
 70
     0
  9
$DIMCLRE
 70
     0
  9
$DIMCLRT
 70
     0
  9
$DIMTFAC
 40
1.0
  9
$DIMGAP
 40
1.524
  9
$DIMJUST
 70
     0
  9
$DIMSD1
 70
     0
  9
$DIMSD2
 70
     0
  9
$DIMTOLJ
 70
     0
  9
$DIMTZIN
 70
     0
  9
$DIMALTZ
 70
     0
  9
$DIMALTTZ
 70
     0
  9
$DIMUPT
 70
     0
  9
$DIMDEC
 70
     2
  9
$DIMTDEC
 70
     2
  9
$DIMALTU
 70
     2
  9
$DIMALTTD
 70
     3
  9
$DIMTXSTY
  7
Standard
  9
$DIMAUNIT
 70
     0
  9
$DIMADEC
 70
     2
  9
$DIMALTRND
 40
0.0
  9
$DIMAZIN
 70
     0
  9
$DIMDSEP
 70
    44
  9
$DIMATFIT
 70
     3
  9
$DIMFRAC
 70
     0
  9
$DIMLDRBLK
  1

  9
$DIMLUNIT
 70
     2
  9
$DIMLWD
 70
    -2
  9
$DIMLWE
 70
    -2
  9
$DIMTMOVE
 70
     0
  9
$LUNITS
 70
     2
  9
$LUPREC
 70
     2
  9
$SKETCHINC
 40
1.0
  9
$FILLETRAD
 40
10.0
  9
$AUNITS
 70
     0
  9
$AUPREC
 70
     2
  9
$MENU
  1
.
  9
$ELEVATION
 40
0.0
  9
$PELEVATION
 40
0.0
  9
$THICKNESS
 40
0.0
  9
$LIMCHECK
 70
     0
  9
$CHAMFERA
 40
0.0
  9
$CHAMFERB
 40
0.0
  9
$CHAMFERC
 40
0.0
  9
$CHAMFERD
 40
0.0
  9
$SKPOLY
 70
     0
  9
$TDCREATE
 40
2458311.573897153
  9
$TDUCREATE
 40
2458311.198897153
  9
$TDUPDATE
 40
2458318.696501702
  9
$TDUUPDATE
 40
2458318.321501702
  9
$TDINDWG
 40
0.0016002431
  9
$TDUSRTIMER
 40
2458318.321296933
  9
$USRTIMER
 70
     1
  9
$ANGBASE
 50
0.0
  9
$ANGDIR
 70
     0
  9
$PDMODE
 70
     0
  9
$PDSIZE
 40
-1.0
  9
$PLINEWID
 40
0.0
  9
$SPLFRAME
 70
     0
  9
$SPLINETYPE
 70
     6
  9
$SPLINESEGS
 70
     8
  9
$HANDSEED
  5
368
  9
$SURFTAB1
 70
     6
  9
$SURFTAB2
 70
     6
  9
$SURFTYPE
 70
     6
  9
$SURFU
 70
     6
  9
$SURFV
 70
     6
  9
$UCSBASE
  2

  9
$UCSNAME
  2

  9
$UCSORG
 10
0.0
 20
0.0
 30
0.0
  9
$UCSXDIR
 10
1.0
 20
0.0
 30
0.0
  9
$UCSYDIR
 10
0.0
 20
1.0
 30
0.0
  9
$UCSORTHOREF
  2

  9
$UCSORTHOVIEW
 70
     0
  9
$UCSORGTOP
 10
0.0
 20
0.0
 30
0.0
  9
$UCSORGBOTTOM
 10
0.0
 20
0.0
 30
0.0
  9
$UCSORGLEFT
 10
0.0
 20
0.0
 30
0.0
  9
$UCSORGRIGHT
 10
0.0
 20
0.0
 30
0.0
  9
$UCSORGFRONT
 10
0.0
 20
0.0
 30
0.0
  9
$UCSORGBACK
 10
0.0
 20
0.0
 30
0.0
  9
$PUCSBASE
  2

  9
$PUCSNAME
  2

  9
$PUCSORG
 10
0.0
 20
0.0
 30
0.0
  9
$PUCSXDIR
 10
1.0
 20
0.0
 30
0.0
  9
$PUCSYDIR
 10
0.0
 20
1.0
 30
0.0
  9
$PUCSORTHOREF
  2

  9
$PUCSORTHOVIEW
 70
     0
  9
$PUCSORGTOP
 10
0.0
 20
0.0
 30
0.0
  9
$PUCSORGBOTTOM
 10
0.0
 20
0.0
 30
0.0
  9
$PUCSORGLEFT
 10
0.0
 20
0.0
 30
0.0
  9
$PUCSORGRIGHT
 10
0.0
 20
0.0
 30
0.0
  9
$PUCSORGFRONT
 10
0.0
 20
0.0
 30
0.0
  9
$PUCSORGBACK
 10
0.0
 20
0.0
 30
0.0
  9
$USERI1
 70
     0
  9
$USERI2
 70
     0
  9
$USERI3
 70
     0
  9
$USERI4
 70
     0
  9
$USERI5
 70
     0
  9
$USERR1
 40
0.0
  9
$USERR2
 40
0.0
  9
$USERR3
 40
0.0
  9
$USERR4
 40
0.0
  9
$USERR5
 40
0.0
  9
$WORLDVIEW
 70
     1
  9
$SHADEDGE
 70
     3
  9
$SHADEDIF
 70
    70
  9
$TILEMODE
 70
     1
  9
$MAXACTVP
 70
    64
  9
$PINSBASE
 10
0.0
 20
0.0
 30
0.0
  9
$PLIMCHECK
 70
     0
  9
$PEXTMIN
 10
1.000000000000000E+20
 20
1.000000000000000E+20
 30
1.000000000000000E+20
  9
$PEXTMAX
 10
-1.000000000000000E+20
 20
-1.000000000000000E+20
 30
-1.000000000000000E+20
  9
$PLIMMIN
 10
0.0
 20
0.0
  9
$PLIMMAX
 10
0.0
 20
0.0
  9
$UNITMODE
 70
     0
  9
$VISRETAIN
 70
     1
  9
$PLINEGEN
 70
     0
  9
$PSLTSCALE
 70
     1
  9
$TREEDEPTH
 70
  3020
  9
$CMLSTYLE
  2
Standard
  9
$CMLJUST
 70
     0
  9
$CMLSCALE
 40
20.0
  9
$PROXYGRAPHICS
 70
     1
  9
$MEASUREMENT
 70
     1
  9
$CELWEIGHT
370
    -1
  9
$ENDCAPS
280
     0
  9
$JOINSTYLE
280
     0
  9
$LWDISPLAY
290
     1
  9
$INSUNITS
 70
     4
  9
$HYPERLINKBASE
  1

  9
$STYLESHEET
  1

  9
$XEDIT
290
     1
  9
$CEPSNTYPE
380
     0
  9
$PSTYLEMODE
290
     1
  9
$FINGERPRINTGUID
  2
{D940311B-BAA2-4676-BB96-B023CB5A11E1}
  9
$VERSIONGUID
  2
{FAEB1C32-E019-11D5-929B-00C0DF256EC4}
  9
$EXTNAMES
290
     1
  9
$PSVPSCALE
 40
0.0
  9
$OLESTARTUP
290
     0
  0
ENDSEC
  0
SECTION
  2
CLASSES
  0
CLASS
  1
ACDBDICTIONARYWDFLT
  2
AcDbDictionaryWithDefault
  3
ObjectDBX Classes
 90
        0
280
     0
281
     0
  0
CLASS
  1
VISUALSTYLE
  2
AcDbVisualStyle
  3
ObjectDBX Classes
 90
     4095
280
     0
281
     0
  0
CLASS
  1
MATERIAL
  2
AcDbMaterial
  3
ObjectDBX Classes
 90
     1153
280
     0
281
     0
  0
CLASS
  1
SCALE
  2
AcDbScale
  3
ObjectDBX Classes
 90
     1153
280
     0
281
     0
  0
CLASS
  1
SUN
  2
AcDbSun
  3
SCENEOE
 90
     1153
280
     0
281
     0
  0
CLASS
  1
ACDBPLACEHOLDER
  2
AcDbPlaceHolder
  3
ObjectDBX Classes
 90
        0
280
     0
281
     0
  0
CLASS
  1
LAYOUT
  2
AcDbLayout
  3
ObjectDBX Classes
 90
        0
280
     0
281
     0
  0
CLASS
  1
TABLESTYLE
  2
AcDbTableStyle
  3
ObjectDBX Classes
 90
     4095
280
     0
281
     0
  0
CLASS
  1
MLEADERSTYLE
  2
AcDbMLeaderStyle
  3
ACDB_MLEADERSTYLE_CLASS
 90
     4095
280
     0
281
     0
  0
CLASS
  1
RASTERVARIABLES
  2
AcDbRasterVariables
  3
ISM
 90
        0
280
     0
281
     0
  0
ENDSEC
  0
SECTION
  2
TABLES
  0
TABLE
  2
VPORT
  5
8
330
0
100
AcDbSymbolTable
 70
     1
  0
VPORT
  5
29
330
8
100
AcDbSymbolTableRecord
100
AcDbViewportTableRecord
  2
*Active
 70
     0
 10
0.0
 20
0.0
 11
1.0
 21
1.0
 12
24.28582025960529
 22
6.621889903753186
 13
0.0
 23
0.0
 14
10.0
 24
10.0
 15
10.0
 25
10.0
 16
0.0
 26
0.0
 36
1.0
 17
0.0
 27
0.0
 37
0.0
 40
284.2261202607812
 41
1.740812379110251
 42
50.0
 43
0.0
 44
0.0
 50
0.0
 51
0.0
 71
    16
 72
  2000
 73
     1
 74
     3
 75
     0
 76
     0
 77
     0
 78
     0
281
     0
 65
     1
110
0.0
120
0.0
130
0.0
111
1.0
121
0.0
131
0.0
112
0.0
122
1.0
132
0.0
 79
     0
146
0.0
  0
ENDTAB
  0
TABLE
  2
LTYPE
  5
5
330
0
100
AcDbSymbolTable
 70
     6
  0
LTYPE
  5
14
330
5
100
AcDbSymbolTableRecord
100
AcDbLinetypeTableRecord
  2
ByBlock
 70
     0
  3

 72
    65
 73
     0
 40
0.0
  0
LTYPE
  5
15
330
5
100
AcDbSymbolTableRecord
100
AcDbLinetypeTableRecord
  2
ByLayer
 70
     0
  3

 72
    65
 73
     0
 40
0.0
  0
LTYPE
  5
16
330
5
100
AcDbSymbolTableRecord
100
AcDbLinetypeTableRecord
  2
Continuous
 70
     0
  3
Solid line
 72
    65
 73
     0
 40
0.0
  0
LTYPE
  5
6A
330
5
100
AcDbSymbolTableRecord
100
AcDbLinetypeTableRecord
  2
HIDDEN
 70
     0
  3
Hidden __ __ __ __ __ __ __ __ __ __ __ __ __ __
 72
    65
 73
     2
 40
1.905
 49
1.27
 74
     0
 49
-0.635
 74
     0
  0
LTYPE
  5
6B
330
5
100
AcDbSymbolTableRecord
100
AcDbLinetypeTableRecord
  2
PHANTOM
 70
     0
  3
Phantom ______  __  __  ______  __  __  ______
 72
    65
 73
     6
 40
12.7
 49
6.35
 74
     0
 49
-1.27
 74
     0
 49
1.27
 74
     0
 49
-1.27
 74
     0
 49
1.27
 74
     0
 49
-1.27
 74
     0
  0
LTYPE
  5
6C
330
5
100
AcDbSymbolTableRecord
100
AcDbLinetypeTableRecord
  2
CENTER
 70
     0
  3
Center ____ _ ____ _ ____ _ ____ _ ____ _ ____
 72
    65
 73
     4
 40
10.16
 49
6.35
 74
     0
 49
-1.27
 74
     0
 49
1.27
 74
     0
 49
-1.27
 74
     0
  0
LTYPE
  5
6D
330
5
100
AcDbSymbolTableRecord
100
AcDbLinetypeTableRecord
  2
CENTERX2
 70
     0
  3
Center (2x) ________  __  ________  __  _____
 72
    65
 73
     4
 40
20.32
 49
12.7
 74
     0
 49
-2.54
 74
     0
 49
2.54
 74
     0
 49
-2.54
 74
     0
  0
LTYPE
  5
6E
330
5
100
AcDbSymbolTableRecord
100
AcDbLinetypeTableRecord
  2
DOT2
 70
     0
  3
Dot (.5x) ........................................
 72
    65
 73
     2
 40
0.635
 49
0.0
 74
     0
 49
-0.635
 74
     0
  0
ENDTAB
  0
TABLE
  2
LAYER
  5
2
102
{ACAD_XDICTIONARY
360
174
102
}
330
0
100
AcDbSymbolTable
 70
    18
  0
LAYER
  5
10
330
2
100
AcDbSymbolTableRecord
100
AcDbLayerTableRecord
  2
0
 70
     0
 62
     7
  6
Continuous
370
    -3
390
F
  0
LAYER
  5
6F
330
2
100
AcDbSymbolTableRecord
100
AcDbLayerTableRecord
  2
FORMAT
 70
     0
 62
     2
  6
Continuous
370
    -3
390
F
  0
LAYER
  5
70
330
2
100
AcDbSymbolTableRecord
100
AcDbLayerTableRecord
  2
외형선
 70
     0
 62
     4
  6
Continuous
370
    30
390
F
  0
LAYER
  5
71
330
2
100
AcDbSymbolTableRecord
100
AcDbLayerTableRecord
  2
숨은선
 70
     0
 62
     2
  6
HIDDEN
370
    15
390
F
  0
LAYER
  5
72
330
2
100
AcDbSymbolTableRecord
100
AcDbLayerTableRecord
  2
중심선
 70
     0
 62
     1
  6
CENTERX2
370
    -3
390
F
  0
LAYER
  5
73
330
2
100
AcDbSymbolTableRecord
100
AcDbLayerTableRecord
  2
파단선
 70
     0
 62
     4
  6
Continuous
370
    -3
390
F
  0
LAYER
  5
74
330
2
100
AcDbSymbolTableRecord
100
AcDbLayerTableRecord
  2
해칭선
 70
     0
 62
   100
  6
Continuous
370
    -3
390
F
  0
LAYER
  5
75
330
2
100
AcDbSymbolTableRecord
100
AcDbLayerTableRecord
  2
가는실선
 70
     0
 62
     4
  6
Continuous
370
    -3
390
F
  0
LAYER
  5
76
330
2
100
AcDbSymbolTableRecord
100
AcDbLayerTableRecord
  2
치수_보조선
 70
     0
 62
     4
  6
Continuous
370
    -3
390
F
  0
LAYER
  5
77
330
2
100
AcDbSymbolTableRecord
100
AcDbLayerTableRecord
  2
치수문자_일반주서
 70
     0
 62
     7
  6
Continuous
370
    15
390
F
  0
LAYER
  5
78
330
2
100
AcDbSymbolTableRecord
100
AcDbLayerTableRecord
  2
개별주서
 70
     0
 62
   100
  6
Continuous
370
    30
390
F
  0
LAYER
  5
79
330
2
100
AcDbSymbolTableRecord
100
AcDbLayerTableRecord
  2
중간선
 70
     0
 62
     2
  6
Continuous
370
    15
390
F
  0
LAYER
  5
7A
330
2
100
AcDbSymbolTableRecord
100
AcDbLayerTableRecord
  2
윤곽선
 70
     0
 62
     3
  6
Continuous
370
    40
390
F
  0
LAYER
  5
7B
330
2
100
AcDbSymbolTableRecord
100
AcDbLayerTableRecord
  2
중심마크
 70
     0
 62
   100
  6
Continuous
370
    30
390
F
  0
LAYER
  5
7C
330
2
100
AcDbSymbolTableRecord
100
AcDbLayerTableRecord
  2
가상선
 70
     0
 62
     4
  6
PHANTOM
370
    -3
390
F
  0
LAYER
  5
7D
330
2
100
AcDbSymbolTableRecord
100
AcDbLayerTableRecord
  2
특수지정선
 70
     0
 62
     5
  6
CENTERX2
370
    60
390
F
  0
LAYER
  5
7E
330
2
100
AcDbSymbolTableRecord
100
AcDbLayerTableRecord
  2
참조1
 70
     0
 62
    -4
  6
Continuous
370
    -3
390
F
  0
LAYER
  5
179
330
2
100
AcDbSymbolTableRecord
100
AcDbLayerTableRecord
  2
Defpoints
 70
     0
 62
     7
  6
Continuous
290
     0
370
    -3
390
F
  0
ENDTAB
  0
TABLE
  2
STYLE
  5
3
330
0
100
AcDbSymbolTable
 70
     2
  0
STYLE
  5
11
330
3
100
AcDbSymbolTableRecord
100
AcDbTextStyleTableRecord
  2
Standard
 70
     0
 40
0.0
 41
1.0
 50
0.0
 71
     0
 42
3.5
  3
txt
  4

  0
STYLE
  5
94
330
3
100
AcDbSymbolTableRecord
100
AcDbTextStyleTableRecord
  2
SLDTEXTSTYLE0
 70
     0
 40
0.0
 41
0.75
 50
0.0
 71
     0
 42
3.5
  3
TXT
  4

  0
ENDTAB
  0
TABLE
  2
VIEW
  5
6
330
0
100
AcDbSymbolTable
 70
     0
  0
ENDTAB
  0
TABLE
  2
UCS
  5
7
330
0
100
AcDbSymbolTable
 70
     0
  0
ENDTAB
  0
TABLE
  2
APPID
  5
9
330
0
100
AcDbSymbolTable
 70
     1
  0
APPID
  5
12
330
9
100
AcDbSymbolTableRecord
100
AcDbRegAppTableRecord
  2
ACAD
 70
     0
  0
ENDTAB
  0
TABLE
  2
DIMSTYLE
  5
A
330
0
100
AcDbSymbolTable
 70
     5
100
AcDbDimStyleTable
  0
DIMSTYLE
105
27
330
A
100
AcDbSymbolTableRecord
100
AcDbDimStyleTableRecord
  2
ISO-25
 70
     0
 41
2.5
 42
0.625
 43
3.75
 44
1.25
 73
     0
 74
     0
 77
     1
 78
     8
140
2.5
141
2.5
143
0.03937007874016
147
0.625
171
     3
172
     1
178
     0
271
     2
272
     2
274
     3
278
    44
283
     0
284
     8
340
11
  0
DIMSTYLE
105
D1
102
{ACAD_REACTORS
102
}
330
A
100
AcDbSymbolTableRecord
100
AcDbDimStyleTableRecord
  2
SLDDIMSTYLE0
 70
     0
 41
3.302
 44
0.0
 45
0.000000001
 73
     0
 74
     0
 77
     1
 78
     4
 79
     1
140
3.5
147
0.875
172
     1
173
     1
178
     0
271
     2
272
     2
276
     2
284
    12
289
     0
340
94
  0
DIMSTYLE
105
DF
330
A
100
AcDbSymbolTableRecord
100
AcDbDimStyleTableRecord
  2
SLDDIMSTYLE1
 70
     0
 41
3.302
 44
0.0
 45
0.000000001
 73
     0
 74
     0
 77
     1
 78
     4
 79
     1
140
3.5
143
0.0393700787401575
147
0.875
148
0.000000001
170
     1
172
     1
173
     1
178
     0
271
     2
272
     2
276
     2
284
    12
289
     0
340
94
  0
DIMSTYLE
105
F5
330
A
100
AcDbSymbolTableRecord
100
AcDbDimStyleTableRecord
  2
SLDDIMSTYLE2
 70
     0
 41
3.302
 44
0.0
 45
0.000000001
 73
     0
 74
     0
 77
     1
 78
     4
 79
     1
140
3.5
143
0.0393700787401575
147
0.875
148
0.000000001
170
     1
173
     1
178
     0
271
     2
272
     2
276
     2
284
    12
340
94
  0
DIMSTYLE
105
109
102
{ACAD_REACTORS
330
108
330
2C5
330
2C3
330
DE
102
}
330
A
100
AcDbSymbolTableRecord
100
AcDbDimStyleTableRecord
  2
SLDDIMSTYLE3
 70
     0
 41
3.302
 44
0.0
 45
0.000000001
 73
     0
 74
     0
 77
     1
 78
    12
 79
     3
140
3.5
143
0.0393700787401575
147
0.875
148
0.000000001
170
     1
173
     1
178
     0
271
     2
272
     2
276
     2
284
    12
340
94
  0
ENDTAB
  0
TABLE
  2
BLOCK_RECORD
  5
1
330
0
100
AcDbSymbolTable
 70
    16
  0
BLOCK_RECORD
  5
1F
330
1
100
AcDbSymbolTableRecord
100
AcDbBlockTableRecord
  2
*Model_Space
340
22
  0
BLOCK_RECORD
  5
1B
330
1
100
AcDbSymbolTableRecord
100
AcDbBlockTableRecord
  2
*Paper_Space
340
1E
  0
BLOCK_RECORD
  5
23
330
1
100
AcDbSymbolTableRecord
100
AcDbBlockTableRecord
  2
*Paper_Space0
340
26
  0
BLOCK_RECORD
  5
7F
330
1
100
AcDbSymbolTableRecord
100
AcDbBlockTableRecord
  2
블럭10
340
0
102
{BLKREFS
331
C9
102
}
  0
BLOCK_RECORD
  5
D2
330
1
100
AcDbSymbolTableRecord
100
AcDbBlockTableRecord
  2
_D
340
0
  0
BLOCK_RECORD
  5
E0
330
1
100
AcDbSymbolTableRecord
100
AcDbBlockTableRecord
  2
_D_1
340
0
  0
BLOCK_RECORD
  5
F6
330
1
100
AcDbSymbolTableRecord
100
AcDbBlockTableRecord
  2
_D_2
340
0
  0
BLOCK_RECORD
  5
10A
330
1
100
AcDbSymbolTableRecord
100
AcDbBlockTableRecord
  2
_D_3
340
0
  0
BLOCK_RECORD
  5
123
330
1
100
AcDbSymbolTableRecord
100
AcDbBlockTableRecord
  2
SW_DOWELSYMBOL_0
340
0
102
{BLKREFS
331
2C7
102
}
  0
BLOCK_RECORD
  5
243
330
1
100
AcDbSymbolTableRecord
100
AcDbBlockTableRecord
  2
*D7
340
0
  0
BLOCK_RECORD
  5
24F
330
1
100
AcDbSymbolTableRecord
100
AcDbBlockTableRecord
  2
*D8
340
0
  0
BLOCK_RECORD
  5
25B
330
1
100
AcDbSymbolTableRecord
100
AcDbBlockTableRecord
  2
*D9
340
0
  0
BLOCK_RECORD
  5
267
330
1
100
AcDbSymbolTableRecord
100
AcDbBlockTableRecord
  2
*D10
340
0
  0
BLOCK_RECORD
  5
2C8
330
1
100
AcDbSymbolTableRecord
100
AcDbBlockTableRecord
  2
*D11
340
0
  0
BLOCK_RECORD
  5
2D4
330
1
100
AcDbSymbolTableRecord
100
AcDbBlockTableRecord
  2
*D12
340
0
  0
BLOCK_RECORD
  5
2E0
330
1
100
AcDbSymbolTableRecord
100
AcDbBlockTableRecord
  2
*D13
340
0
  0
BLOCK_RECORD
  5
2EC
330
1
100
AcDbSymbolTableRecord
100
AcDbBlockTableRecord
  2
*D14
340
0
  0
ENDTAB
  0
ENDSEC
  0
SECTION
  2
BLOCKS
  0
BLOCK
  5
20
330
1F
100
AcDbEntity
  8
0
100
AcDbBlockBegin
  2
*Model_Space
 70
     0
 10
0.0
 20
0.0
 30
0.0
  3
*Model_Space
  1
*Model_Space
  0
ENDBLK
  5
21
330
1F
100
AcDbEntity
  8
0
100
AcDbBlockEnd
  0
BLOCK
  5
1C
330
1B
100
AcDbEntity
 67
     1
  8
0
100
AcDbBlockBegin
  2
*Paper_Space
 70
     0
 10
0.0
 20
0.0
 30
0.0
  3
*Paper_Space
  1
*Paper_Space
  0
ENDBLK
  5
1D
330
1B
100
AcDbEntity
 67
     1
  8
0
100
AcDbBlockEnd
  0
BLOCK
  5
24
330
23
100
AcDbEntity
  8
0
100
AcDbBlockBegin
  2
*Paper_Space0
 70
     0
 10
0.0
 20
0.0
 30
0.0
  3
*Paper_Space0
  1
*Paper_Space0
  0
ENDBLK
  5
25
330
23
100
AcDbEntity
  8
0
100
AcDbBlockEnd
  0
BLOCK
  5
80
330
7F
100
AcDbEntity
  8
0
100
AcDbBlockBegin
  2
블럭10
 70
     2
 10
0.0
 20
0.0
 30
0.0
  3
블럭10
  1
블럭10
  0
ELLIPSE
  5
82
330
7F
100
AcDbEntity
  8
중심선
100
AcDbEllipse
 10
20.54032771741204
 20
12.0471743016438
 30
0.0
 11
6.600054785286829
 21
-1.261213355974178E-13
 31
0.0
210
0.0
220
0.0
230
1.0
 40
0.636358354079598
 41
0.9219305317359503
 42
6.513795318482858
  0
ELLIPSE
  5
83
330
7F
100
AcDbEntity
  8
중심선
100
AcDbEllipse
 10
20.54032771746488
 20
12.04717430159265
 30
0.0
 11
3.960054785062283
 21
1.540847449632565E-10
 31
0.0
210
0.0
220
0.0
230
1.0
 40
0.3939339440162632
 41
1.131841032648279
 42
5.62031148352944
  0
LINE
  5
84
330
7F
100
AcDbEntity
  8
중심선
100
AcDbLine
 10
2.268634060543552
 20
16.24717430164393
 30
0.0
 11
5.714909304380834
 21
16.24717430164393
 31
0.0
  0
LINE
  5
85
330
7F
100
AcDbEntity
  8
중심선
100
AcDbLine
 10
5.245725140726316
 20
7.84717430164391
 30
0.0
 11
8.692000384563599
 21
7.84717430164391
 31
0.0
  0
LINE
  5
86
330
7F
100
AcDbEntity
  8
중심선
100
AcDbLine
 10
15.74043728645272
 20
16.24717430164393
 30
0.0
 11
8.692000384563599
 21
7.84717430164391
 31
0.0
  0
LINE
  5
87
330
7F
100
AcDbEntity
  8
중심선
100
AcDbLine
 10
0.1404042013395286
 20
13.71084872107135
 30
0.0
 11
3.58671253028996
 21
13.71088815037384
 31
0.0
  0
LINE
  5
88
330
7F
100
AcDbEntity
  8
중심선
100
AcDbLine
 10
2.750260043222114
 20
10.84717430164391
 30
0.0
 11
6.196535287059397
 21
10.84717430164391
 31
0.0
  0
LINE
  5
89
330
7F
100
AcDbEntity
  8
중심선
100
AcDbLine
 10
12.29416204261559
 20
16.24717430164393
 30
0.0
 11
5.245725140726316
 21
7.84717430164391
 31
0.0
  0
LINE
  5
8A
330
7F
100
AcDbEntity
  8
중심선
100
AcDbLine
 10
10.72767329541681
 20
16.24717430164393
 30
0.0
 11
6.196535287059397
 21
10.84717430164391
 31
0.0
  0
LINE
  5
8B
330
7F
100
AcDbEntity
  8
중심선
100
AcDbLine
 10
7.28139805157953
 20
16.24717430164393
 30
0.0
 11
2.750260043222114
 21
10.84717430164391
 31
0.0
  0
LINE
  5
8C
330
7F
100
AcDbEntity
  8
중심선
100
AcDbLine
 10
5.714909304380834
 20
16.24717430164393
 30
0.0
 11
3.58671253028996
 21
13.71088815037384
 31
0.0
  0
LINE
  5
8D
330
7F
100
AcDbEntity
  8
중심선
100
AcDbLine
 10
2.268634060543552
 20
16.24717430164393
 30
0.0
 11
0.1404042013395286
 21
13.71084872107135
 31
0.0
  0
LINE
  5
8E
330
7F
100
AcDbEntity
  8
중심선
100
AcDbLine
 10
7.28139805157953
 20
16.24717430164393
 30
0.0
 11
10.72767329541681
 21
16.24717430164393
 31
0.0
  0
LINE
  5
8F
330
7F
100
AcDbEntity
  8
중심선
100
AcDbLine
 10
12.29416204261559
 20
16.24717430164393
 30
0.0
 11
15.74043728645272
 21
16.24717430164393
 31
0.0
  0
LINE
  5
90
330
7F
100
AcDbEntity
  8
중심선
100
AcDbLine
 10
19.22036997980202
 20
11.08717430171403
 30
0.0
 11
23.66174974927406
 21
11.08717430171406
 31
0.0
  0
LINE
  5
91
330
7F
100
AcDbEntity
  8
중심선
100
AcDbLine
 10
19.22039502424796
 20
13.00717430171391
 30
0.0
 11
19.22036997980202
 21
11.08717430171403
 31
0.0
  0
LINE
  5
92
330
7F
100
AcDbEntity
  8
중심선
100
AcDbLine
 10
19.22039502424796
 20
13.00717430171391
 30
0.0
 11
26.96566020931264
 21
13.00717430171391
 31
0.0
  0
LINE
  5
93
330
7F
100
AcDbEntity
  8
중심선
100
AcDbLine
 10
22.22332737316547
 20
13.45928029700563
 30
0.0
 11
24.52862924686651
 21
15.39360700705356
 31
0.0
  0
ATTDEF
  5
95
330
7F
100
AcDbEntity
  8
FORMAT
 62
     2
100
AcDbText
 10
4.408487351596664
 20
2.075366912832191
 30
0.0
 40
4.233333333333333
  1
E1072132
 41
0.75
  7
SLDTEXTSTYLE0
 11
4.408487351596664
 21
-0.0412997538344756
 31
0.0
100
AcDbAttributeDefinition
  3

  2
AUTOATTR0
 70
     0
 74
     1
  0
ENDBLK
  5
81
330
7F
100
AcDbEntity
  8
0
100
AcDbBlockEnd
  0
BLOCK
  5
D3
330
D2
100
AcDbEntity
  8
0
100
AcDbBlockBegin
  2
_D
 70
     0
 10
0.0
 20
0.0
 30
0.0
  3
_D
  1
_D
  0
LINE
  5
D5
330
D2
100
AcDbEntity
  8
0
  6
Continuous
 62
     0
370
    -2
100
AcDbLine
 10
-46.12192116787307
 20
6.351074928723888
 30
0.0
 11
-59.5594211678731
 21
6.351074928723839
 31
0.0
  0
LINE
  5
D6
330
D2
100
AcDbEntity
  8
0
  6
Continuous
 62
     0
370
    -2
100
AcDbLine
 10
-46.12192116787307
 20
-6.348925071276101
 30
0.0
 11
-59.55942116787305
 21
-6.34892507127615
 31
0.0
  0
LINE
  5
D7
330
D2
100
AcDbEntity
  8
0
  6
Continuous
 62
     0
370
    -2
100
AcDbLine
 10
-59.55942116787308
 20
3.049074928723839
 30
0.0
 11
-59.55942116787307
 21
-3.04692507127615
 31
0.0
  0
SOLID
  5
D8
330
D2
100
AcDbEntity
  8
0
 62
     0
100
AcDbTrace
 10
-59.00908783453975
 20
3.049074928723841
 30
0.0
 11
-60.10975450120642
 21
3.049074928723837
 31
0.0
 12
-59.5594211678731
 22
6.351074928723839
 32
0.0
 13
-59.5594211678731
 23
6.351074928723839
 33
0.0
  0
SOLID
  5
D9
330
D2
100
AcDbEntity
  8
0
 62
     0
100
AcDbTrace
 10
-60.1097545012064
 20
-3.046925071276152
 30
0.0
 11
-59.00908783453973
 21
-3.046925071276148
 31
0.0
 12
-59.55942116787305
 22
-6.34892507127615
 32
0.0
 13
-59.55942116787305
 23
-6.34892507127615
 33
0.0
  0
MTEXT
  5
DA
330
D2
100
AcDbEntity
  8
0
 62
     0
370
    15
100
AcDbMText
 10
-63.93442116787308
 20
0.0010749287238743
 30
0.0
 40
3.5
 41
0.0
 71
     2
 72
     1
  1
\A1;%%c12.7 [0.50]
  7
SLDTEXTSTYLE0
 11
-3.356894814614650E-15
 21
1.0
 31
0.0
 73
     1
 44
1.0
  0
POINT
  5
DB
330
D2
100
AcDbEntity
  8
Defpoints
 62
     0
100
AcDbPoint
 10
-46.05942116787307
 20
6.351074928723888
 30
0.0
  0
POINT
  5
DC
330
D2
100
AcDbEntity
  8
Defpoints
 62
     0
100
AcDbPoint
 10
-46.05942116787307
 20
-6.348925071276101
 30
0.0
  0
POINT
  5
DD
330
D2
100
AcDbEntity
  8
Defpoints
 62
     0
100
AcDbPoint
 10
-59.55942116787305
 20
-6.348925071276148
 30
0.0
  0
ENDBLK
  5
D4
330
D2
100
AcDbEntity
  8
0
100
AcDbBlockEnd
  0
BLOCK
  5
E1
330
E0
100
AcDbEntity
  8
0
100
AcDbBlockBegin
  2
_D_1
 70
     0
 10
0.0
 20
0.0
 30
0.0
  3
_D_1
  1
_D_1
  0
LINE
  5
E3
330
E0
100
AcDbEntity
  8
0
  6
Continuous
 62
     0
370
    -2
100
AcDbLine
 10
215.2000000000001
 20
19.11250000000002
 30
0.0
 11
215.2000000000001
 21
30.16629067197466
 31
0.0
  0
LINE
  5
E4
330
E0
100
AcDbEntity
  8
0
  6
Continuous
 62
     0
370
    -2
100
AcDbLine
 10
12.00000000000003
 20
19.04590588422373
 30
0.0
 11
12.00000000000003
 21
30.16629067197466
 31
0.0
  0
LINE
  5
E5
330
E0
100
AcDbEntity
  8
0
  6
Continuous
 62
     0
370
    -2
100
AcDbLine
 10
211.8980000000001
 20
30.16629067197466
 30
0.0
 11
15.30200000000003
 21
30.16629067197466
 31
0.0
  0
SOLID
  5
E6
330
E0
100
AcDbEntity
  8
0
 62
     0
100
AcDbTrace
 10
211.8980000000001
 20
29.61595733864132
 30
0.0
 11
211.8980000000001
 21
30.71662400530799
 31
0.0
 12
215.2000000000001
 22
30.16629067197466
 32
0.0
 13
215.2000000000001
 23
30.16629067197466
 33
0.0
  0
SOLID
  5
E7
330
E0
100
AcDbEntity
  8
0
 62
     0
100
AcDbTrace
 10
15.30200000000003
 20
30.71662400530799
 30
0.0
 11
15.30200000000003
 21
29.61595733864132
 31
0.0
 12
12.00000000000003
 22
30.16629067197466
 32
0.0
 13
12.00000000000003
 23
30.16629067197466
 33
0.0
  0
MTEXT
  5
E8
330
E0
100
AcDbEntity
  8
0
 62
     0
370
    15
100
AcDbMText
 10
113.63125
 20
34.54129067197466
 30
0.0
 40
3.5
 41
0.0
 71
     2
 72
     1
  1
\A1;203.2 [8]
  7
SLDTEXTSTYLE0
 73
     1
 44
1.0
  0
POINT
  5
E9
330
E0
100
AcDbEntity
  8
Defpoints
 62
     0
100
AcDbPoint
 10
215.2000000000001
 20
19.05000000000002
 30
0.0
  0
POINT
  5
EA
330
E0
100
AcDbEntity
  8
Defpoints
 62
     0
100
AcDbPoint
 10
12.00000000000003
 20
18.98340588422373
 30
0.0
  0
POINT
  5
EB
330
E0
100
AcDbEntity
  8
Defpoints
 62
     0
100
AcDbPoint
 10
12.00000000000003
 20
30.16629067197466
 30
0.0
  0
ENDBLK
  5
E2
330
E0
100
AcDbEntity
  8
0
100
AcDbBlockEnd
  0
BLOCK
  5
F7
330
F6
100
AcDbEntity
  8
0
100
AcDbBlockBegin
  2
_D_2
 70
     0
 10
0.0
 20
0.0
 30
0.0
  3
_D_2
  1
_D_2
  0
LINE
  5
F9
330
F6
100
AcDbEntity
  8
0
  6
Continuous
 62
     0
370
    -2
100
AcDbLine
 10
29.14057883212694
 20
6.606477789079263
 30
0.0
 11
29.14057883212693
 21
30.3105321911699
 31
0.0
  0
LINE
  5
FA
330
F6
100
AcDbEntity
  8
0
  6
Continuous
 62
     0
370
    -2
100
AcDbLine
 10
-47.05942116787307
 20
5.413574928723888
 30
0.0
 11
-47.05942116787308
 21
30.3105321911699
 31
0.0
  0
LINE
  5
FB
330
F6
100
AcDbEntity
  8
0
  6
Continuous
 62
     0
370
    -2
100
AcDbLine
 10
25.83857883212693
 20
30.3105321911699
 30
0.0
 11
-43.75742116787308
 21
30.3105321911699
 31
0.0
  0
SOLID
  5
FC
330
F6
100
AcDbEntity
  8
0
 62
     0
100
AcDbTrace
 10
25.83857883212693
 20
29.76019885783656
 30
0.0
 11
25.83857883212693
 21
30.86086552450323
 31
0.0
 12
29.14057883212693
 22
30.3105321911699
 32
0.0
 13
29.14057883212693
 23
30.3105321911699
 33
0.0
  0
SOLID
  5
FD
330
F6
100
AcDbEntity
  8
0
 62
     0
100
AcDbTrace
 10
-43.75742116787308
 20
30.86086552450323
 30
0.0
 11
-43.75742116787308
 21
29.76019885783656
 31
0.0
 12
-47.05942116787308
 22
30.3105321911699
 32
0.0
 13
-47.05942116787308
 23
30.3105321911699
 33
0.0
  0
MTEXT
  5
FE
330
F6
100
AcDbEntity
  8
0
 62
     0
370
    15
100
AcDbMText
 10
-8.959421167873067
 20
34.6855321911699
 30
0.0
 40
3.5
 41
0.0
 71
     2
 72
     1
  1
\A1;76.20 [3.00]
  7
SLDTEXTSTYLE0
 73
     1
 44
1.0
  0
POINT
  5
FF
330
F6
100
AcDbEntity
  8
Defpoints
 62
     0
100
AcDbPoint
 10
29.14057883212694
 20
6.543977789079263
 30
0.0
  0
POINT
  5
100
330
F6
100
AcDbEntity
  8
Defpoints
 62
     0
100
AcDbPoint
 10
-47.05942116787307
 20
5.351074928723888
 30
0.0
  0
POINT
  5
101
330
F6
100
AcDbEntity
  8
Defpoints
 62
     0
100
AcDbPoint
 10
-47.05942116787307
 20
30.31053219116989
 30
0.0
  0
ENDBLK
  5
F8
330
F6
100
AcDbEntity
  8
0
100
AcDbBlockEnd
  0
BLOCK
  5
10B
330
10A
100
AcDbEntity
  8
0
100
AcDbBlockBegin
  2
_D_3
 70
     0
 10
0.0
 20
0.0
 30
0.0
  3
_D_3
  1
_D_3
  0
LINE
  5
10D
330
10A
100
AcDbEntity
  8
0
  6
Continuous
 62
     0
370
    -2
100
AcDbLine
 10
215.2625000000001
 20
-19.04999999999998
 30
0.0
 11
234.2000000000003
 21
-19.04999999999991
 31
0.0
  0
LINE
  5
10E
330
10A
100
AcDbEntity
  8
0
  6
Continuous
 62
     0
370
    -2
100
AcDbLine
 10
215.2625000000001
 20
19.05000000000003
 30
0.0
 11
234.2000000000002
 21
19.05000000000009
 31
0.0
  0
LINE
  5
10F
330
10A
100
AcDbEntity
  8
0
  6
Continuous
 62
     0
370
    -2
100
AcDbLine
 10
234.2000000000002
 20
19.05000000000009
 30
0.0
 11
234.2
 21
52.7582500000001
 31
0.0
  0
LINE
  5
110
330
10A
100
AcDbEntity
  8
0
  6
Continuous
 62
     0
370
    -2
100
AcDbLine
 10
234.2000000000003
 20
-15.74799999999991
 30
0.0
 11
234.2000000000002
 21
15.74800000000009
 31
0.0
  0
SOLID
  5
111
330
10A
100
AcDbEntity
  8
0
 62
     0
100
AcDbTrace
 10
233.649666666667
 20
-15.74799999999991
 30
0.0
 11
234.7503333333337
 21
-15.74799999999991
 31
0.0
 12
234.2000000000003
 22
-19.04999999999991
 32
0.0
 13
234.2000000000003
 23
-19.04999999999991
 33
0.0
  0
SOLID
  5
112
330
10A
100
AcDbEntity
  8
0
 62
     0
100
AcDbTrace
 10
234.7503333333335
 20
15.7480000000001
 30
0.0
 11
233.6496666666669
 21
15.74800000000009
 31
0.0
 12
234.2000000000002
 22
19.05000000000009
 32
0.0
 13
234.2000000000002
 23
19.05000000000009
 33
0.0
  0
MTEXT
  5
113
330
10A
100
AcDbEntity
  8
0
 62
     0
370
    15
100
AcDbMText
 10
229.8250000000001
 20
38.32075000000008
 30
0.0
 40
3.5
 41
0.0
 71
     2
 72
     1
  1
\A1;%%c38.1 [1 1/2]
  7
SLDTEXTSTYLE0
 11
-3.729883127349606E-15
 21
1.0
 31
0.0
 73
     1
 44
1.0
  0
POINT
  5
114
330
10A
100
AcDbEntity
  8
Defpoints
 62
     0
100
AcDbPoint
 10
215.2000000000001
 20
-19.04999999999998
 30
0.0
  0
POINT
  5
115
330
10A
100
AcDbEntity
  8
Defpoints
 62
     0
100
AcDbPoint
 10
215.2000000000001
 20
19.05000000000003
 30
0.0
  0
POINT
  5
116
330
10A
100
AcDbEntity
  8
Defpoints
 62
     0
100
AcDbPoint
 10
234.2000000000002
 20
19.0500000000001
 30
0.0
  0
ENDBLK
  5
10C
330
10A
100
AcDbEntity
  8
0
100
AcDbBlockEnd
  0
BLOCK
  5
124
330
123
100
AcDbEntity
  8
0
100
AcDbBlockBegin
  2
SW_DOWELSYMBOL_0
 70
     0
 10
0.0
 20
0.0
 30
0.0
  3
SW_DOWELSYMBOL_0
  1
SW_DOWELSYMBOL_0
  0
CIRCLE
  5
126
330
123
100
AcDbEntity
  8
해칭선
 62
     0
100
AcDbCircle
 10
0.0
 20
0.0
 30
0.0
 40
3.000000000000001
  0
HATCH
  5
127
330
123
100
AcDbEntity
  8
0
  6
Continuous
 62
     0
370
     0
100
AcDbHatch
 10
0.0
 20
0.0
 30
0.0
210
0.0
220
0.0
230
1.0
  2
SOLID
 70
     1
 71
     0
 91
        1
 92
        0
 93
        3
 72
     2
 10
0.0
 20
0.0
 40
3.000000000000001
 50
0.0
 51
90.0
 73
     1
 72
     1
 10
0.0
 20
3.000000000000001
 11
0.0
 21
0.0
 72
     1
 10
0.0
 20
0.0
 11
3.000000000000001
 21
0.0
 97
        0
 75
     0
 76
     1
 98
        1
 10
0.0
 20
0.0
  0
HATCH
  5
128
330
123
100
AcDbEntity
  8
0
  6
Continuous
 62
     0
370
     0
100
AcDbHatch
 10
0.0
 20
0.0
 30
0.0
210
0.0
220
0.0
230
1.0
  2
SOLID
 70
     1
 71
     0
 91
        1
 92
        0
 93
        3
 72
     2
 10
0.0
 20
0.0
 40
3.000000000000001
 50
180.0
 51
270.0000000000007
 73
     1
 72
     1
 10
0.0
 20
-3.000000000000001
 11
0.0
 21
0.0
 72
     1
 10
0.0
 20
0.0
 11
-3.000000000000001
 21
0.0
 97
        0
 75
     0
 76
     1
 98
        1
 10
0.0
 20
0.0
  0
ENDBLK
  5
125
330
123
100
AcDbEntity
  8
0
100
AcDbBlockEnd
  0
BLOCK
  5
244
330
243
100
AcDbEntity
  8
0
100
AcDbBlockBegin
  2
*D7
 70
     1
 10
0.0
 20
0.0
 30
0.0
  3
*D7
  1
*D9
  0
LINE
  5
246
330
243
100
AcDbEntity
  8
치수문자_일반주서
 62
     0
370
    -2
100
AcDbLine
 10
17.81250000000006
 20
65.84680738881174
 30
0.0
 11
4.374999999999988
 21
65.8468073888117
 31
0.0
  0
LINE
  5
247
330
243
100
AcDbEntity
  8
치수문자_일반주서
 62
     0
370
    -2
100
AcDbLine
 10
17.81250000000006
 20
34.09680738881174
 30
0.0
 11
4.375000000000099
 21
34.0968073888117
 31
0.0
  0
LINE
  5
248
330
243
100
AcDbEntity
  8
치수문자_일반주서
 62
     0
370
    -2
100
AcDbLine
 10
4.374999999999999
 20
62.5448073888117
 30
0.0
 11
4.375000000000087
 21
37.3988073888117
 31
0.0
  0
SOLID
  5
249
330
243
100
AcDbEntity
  8
치수문자_일반주서
 62
     0
100
AcDbTrace
 10
4.925333333333333
 20
62.5448073888117
 30
0.0
 11
3.824666666666666
 21
62.5448073888117
 31
0.0
 12
4.374999999999988
 22
65.8468073888117
 32
0.0
 13
4.374999999999988
 23
65.8468073888117
 33
0.0
  0
SOLID
  5
24A
330
243
100
AcDbEntity
  8
치수문자_일반주서
 62
     0
100
AcDbTrace
 10
3.824666666666754
 20
37.3988073888117
 30
0.0
 11
4.925333333333421
 21
37.3988073888117
 31
0.0
 12
4.375000000000099
 22
34.0968073888117
 32
0.0
 13
4.375000000000099
 23
34.0968073888117
 33
0.0
  0
MTEXT
  5
24B
330
243
100
AcDbEntity
  8
치수문자_일반주서
 62
     0
100
AcDbMText
 10
0.0000000000000426
 20
49.97180738881173
 30
0.0
 40
3.5
 41
0.0
 71
     2
 72
     1
  1
\A1;%%c31.75
  7
SLDTEXTSTYLE0
 11
-3.496765431890256E-15
 21
1.0
 31
0.0
 73
     1
 44
1.0
  0
POINT
  5
24C
330
243
100
AcDbEntity
  8
Defpoints
 62
     0
100
AcDbPoint
 10
17.87500000000006
 20
65.84680738881174
 30
0.0
  0
POINT
  5
24D
330
243
100
AcDbEntity
  8
Defpoints
 62
     0
100
AcDbPoint
 10
17.87500000000006
 20
34.09680738881174
 30
0.0
  0
POINT
  5
24E
330
243
100
AcDbEntity
  8
Defpoints
 62
     0
100
AcDbPoint
 10
4.375000000000099
 20
34.09680738881169
 30
0.0
  0
ENDBLK
  5
245
330
243
100
AcDbEntity
  8
0
100
AcDbBlockEnd
  0
BLOCK
  5
250
330
24F
100
AcDbEntity
  8
0
100
AcDbBlockBegin
  2
*D8
 70
     1
 10
0.0
 20
0.0
 30
0.0
  3
*D8
  1
*D10
  0
LINE
  5
252
330
24F
100
AcDbEntity
  8
치수문자_일반주서
 62
     0
370
    -2
100
AcDbLine
 10
232.7750000000001
 20
65.90930738881178
 30
0.0
 11
232.7750000000001
 21
79.00973181140529
 31
0.0
  0
LINE
  5
253
330
24F
100
AcDbEntity
  8
치수문자_일반주서
 62
     0
370
    -2
100
AcDbLine
 10
80.37500000000006
 20
64.53179840901832
 30
0.0
 11
80.37500000000006
 21
79.00973181140529
 31
0.0
  0
LINE
  5
254
330
24F
100
AcDbEntity
  8
치수문자_일반주서
 62
     0
370
    -2
100
AcDbLine
 10
229.4730000000001
 20
79.00973181140529
 30
0.0
 11
83.67700000000005
 21
79.00973181140529
 31
0.0
  0
SOLID
  5
255
330
24F
100
AcDbEntity
  8
치수문자_일반주서
 62
     0
100
AcDbTrace
 10
229.4730000000001
 20
78.45939847807196
 30
0.0
 11
229.4730000000001
 21
79.56006514473862
 31
0.0
 12
232.7750000000001
 22
79.00973181140529
 32
0.0
 13
232.7750000000001
 23
79.00973181140529
 33
0.0
  0
SOLID
  5
256
330
24F
100
AcDbEntity
  8
치수문자_일반주서
 62
     0
100
AcDbTrace
 10
83.67700000000005
 20
79.56006514473862
 30
0.0
 11
83.67700000000005
 21
78.45939847807196
 31
0.0
 12
80.37500000000006
 22
79.00973181140529
 32
0.0
 13
80.37500000000006
 23
79.00973181140529
 33
0.0
  0
MTEXT
  5
257
330
24F
100
AcDbEntity
  8
치수문자_일반주서
 62
     0
100
AcDbMText
 10
156.575
 20
83.38473181140529
 30
0.0
 40
3.5
 41
0.0
 71
     2
 72
     1
  1
\A1;152.40
  7
SLDTEXTSTYLE0
 73
     1
 44
1.0
  0
POINT
  5
258
330
24F
100
AcDbEntity
  8
Defpoints
 62
     0
100
AcDbPoint
 10
232.7750000000001
 20
65.84680738881178
 30
0.0
  0
POINT
  5
259
330
24F
100
AcDbEntity
  8
Defpoints
 62
     0
100
AcDbPoint
 10
80.37500000000006
 20
64.46929840901832
 30
0.0
  0
POINT
  5
25A
330
24F
100
AcDbEntity
  8
Defpoints
 62
     0
100
AcDbPoint
 10
80.37500000000006
 20
79.00973181140529
 30
0.0
  0
ENDBLK
  5
251
330
24F
100
AcDbEntity
  8
0
100
AcDbBlockEnd
  0
BLOCK
  5
25C
330
25B
100
AcDbEntity
  8
0
100
AcDbBlockBegin
  2
*D9
 70
     1
 10
0.0
 20
0.0
 30
0.0
  3
*D9
  1
*D11
  0
LINE
  5
25E
330
25B
100
AcDbEntity
  8
치수문자_일반주서
 62
     0
370
    -2
100
AcDbLine
 10
232.7750000000001
 20
65.90930738881178
 30
0.0
 11
232.7750000000001
 21
95.56177325325228
 31
0.0
  0
LINE
  5
25F
330
25B
100
AcDbEntity
  8
치수문자_일반주서
 62
     0
370
    -2
100
AcDbLine
 10
16.87500000000009
 20
64.90930738881173
 30
0.0
 11
16.87500000000009
 21
95.56177325325228
 31
0.0
  0
LINE
  5
260
330
25B
100
AcDbEntity
  8
치수문자_일반주서
 62
     0
370
    -2
100
AcDbLine
 10
229.4730000000001
 20
95.56177325325228
 30
0.0
 11
20.17700000000008
 21
95.56177325325228
 31
0.0
  0
SOLID
  5
261
330
25B
100
AcDbEntity
  8
치수문자_일반주서
 62
     0
100
AcDbTrace
 10
229.4730000000001
 20
95.01143991991896
 30
0.0
 11
229.4730000000001
 21
96.11210658658561
 31
0.0
 12
232.7750000000001
 22
95.56177325325228
 32
0.0
 13
232.7750000000001
 23
95.56177325325228
 33
0.0
  0
SOLID
  5
262
330
25B
100
AcDbEntity
  8
치수문자_일반주서
 62
     0
100
AcDbTrace
 10
20.17700000000008
 20
96.11210658658561
 30
0.0
 11
20.17700000000008
 21
95.01143991991896
 31
0.0
 12
16.87500000000009
 22
95.56177325325228
 32
0.0
 13
16.87500000000009
 23
95.56177325325228
 33
0.0
  0
MTEXT
  5
263
330
25B
100
AcDbEntity
  8
치수문자_일반주서
 62
     0
100
AcDbMText
 10
124.8249999999995
 20
99.93677325325228
 30
0.0
 40
3.5
 41
0.0
 71
     2
 72
     1
  1
\A1;215.90
  7
SLDTEXTSTYLE0
 73
     1
 44
1.0
  0
POINT
  5
264
330
25B
100
AcDbEntity
  8
Defpoints
 62
     0
100
AcDbPoint
 10
232.7750000000001
 20
65.84680738881178
 30
0.0
  0
POINT
  5
265
330
25B
100
AcDbEntity
  8
Defpoints
 62
     0
100
AcDbPoint
 10
16.87500000000009
 20
64.84680738881173
 30
0.0
  0
POINT
  5
266
330
25B
100
AcDbEntity
  8
Defpoints
 62
     0
100
AcDbPoint
 10
16.87500000000009
 20
95.56177325325228
 30
0.0
  0
ENDBLK
  5
25D
330
25B
100
AcDbEntity
  8
0
100
AcDbBlockEnd
  0
BLOCK
  5
268
330
267
100
AcDbEntity
  8
0
100
AcDbBlockBegin
  2
*D10
 70
     1
 10
0.0
 20
0.0
 30
0.0
  3
*D10
  1
*D12
  0
LINE
  5
26A
330
267
100
AcDbEntity
  8
치수문자_일반주서
 62
     0
370
    -2
100
AcDbLine
 10
232.8375000000001
 20
34.09680738881175
 30
0.0
 11
256.6160220600219
 21
34.09680738881184
 31
0.0
  0
LINE
  5
26B
330
267
100
AcDbEntity
  8
치수문자_일반주서
 62
     0
370
    -2
100
AcDbLine
 10
232.8375000000001
 20
65.84680738881178
 30
0.0
 11
256.6160220600217
 21
65.84680738881187
 31
0.0
  0
LINE
  5
26C
330
267
100
AcDbEntity
  8
치수문자_일반주서
 62
     0
370
    -2
100
AcDbLine
 10
256.6160220600217
 20
65.84680738881187
 30
0.0
 11
256.6160220600217
 21
94.86084456876543
 31
0.0
  0
LINE
  5
26D
330
267
100
AcDbEntity
  8
치수문자_일반주서
 62
     0
370
    -2
100
AcDbLine
 10
256.6160220600219
 20
34.09680738881184
 30
0.0
 11
256.6160220600217
 21
65.84680738881187
 31
0.0
  0
LINE
  5
26E
330
267
100
AcDbEntity
  8
치수문자_일반주서
 62
     0
370
    -2
100
AcDbLine
 10
256.6160220600219
 20
30.79480738881184
 30
0.0
 11
256.6160220600219
 21
27.49280738881184
 31
0.0
  0
LINE
  5
26F
330
267
100
AcDbEntity
  8
치수문자_일반주서
 62
     0
370
    -2
100
AcDbLine
 10
256.6160220600217
 20
69.14880738881186
 30
0.0
 11
256.6160220600217
 21
72.45080738881185
 31
0.0
  0
SOLID
  5
270
330
267
100
AcDbEntity
  8
치수문자_일반주서
 62
     0
100
AcDbTrace
 10
257.1663553933552
 20
30.79480738881184
 30
0.0
 11
256.0656887266885
 21
30.79480738881184
 31
0.0
 12
256.6160220600219
 22
34.09680738881184
 32
0.0
 13
256.6160220600219
 23
34.09680738881184
 33
0.0
  0
SOLID
  5
271
330
267
100
AcDbEntity
  8
치수문자_일반주서
 62
     0
100
AcDbTrace
 10
256.0656887266884
 20
69.14880738881186
 30
0.0
 11
257.1663553933551
 21
69.14880738881186
 31
0.0
 12
256.6160220600217
 22
65.84680738881187
 32
0.0
 13
256.6160220600217
 23
65.84680738881187
 33
0.0
  0
MTEXT
  5
272
330
267
100
AcDbEntity
  8
치수문자_일반주서
 62
     0
100
AcDbMText
 10
252.2410220600217
 20
87.86084456876542
 30
0.0
 40
3.5
 41
0.0
 71
     2
 72
     1
  1
\A1;%%c31.75
  7
SLDTEXTSTYLE0
 11
-3.580687802255620E-15
 21
1.0
 31
0.0
 73
     1
 44
1.0
  0
POINT
  5
273
330
267
100
AcDbEntity
  8
Defpoints
 62
     0
100
AcDbPoint
 10
232.7750000000001
 20
34.09680738881175
 30
0.0
  0
POINT
  5
274
330
267
100
AcDbEntity
  8
Defpoints
 62
     0
100
AcDbPoint
 10
232.7750000000001
 20
65.84680738881178
 30
0.0
  0
POINT
  5
275
330
267
100
AcDbEntity
  8
Defpoints
 62
     0
100
AcDbPoint
 10
256.6160220600217
 20
65.84680738881187
 30
0.0
  0
ENDBLK
  5
269
330
267
100
AcDbEntity
  8
0
100
AcDbBlockEnd
  0
BLOCK
  5
2C9
330
2C8
100
AcDbEntity
  8
0
100
AcDbBlockBegin
  2
*D11
 70
     1
 10
0.0
 20
0.0
 30
0.0
  3
*D11
  1
*D13
  0
LINE
  5
2CB
330
2C8
100
AcDbEntity
  8
0
  6
Continuous
 62
     0
370
    -2
100
AcDbLine
 10
-47.51248929072295
 20
15.87500000000001
 30
0.0
 11
-73.04149206294665
 21
15.87499999999991
 31
0.0
  0
LINE
  5
2CC
330
2C8
100
AcDbEntity
  8
0
  6
Continuous
 62
     0
370
    -2
100
AcDbLine
 10
-47.51248929072295
 20
-15.87500000000001
 30
0.0
 11
-73.04149206294653
 21
-15.8750000000001
 31
0.0
  0
LINE
  5
2CD
330
2C8
100
AcDbEntity
  8
0
  6
Continuous
 62
     0
370
    -2
100
AcDbLine
 10
-73.04149206294663
 20
12.57299999999991
 30
0.0
 11
-73.04149206294655
 21
-12.5730000000001
 31
0.0
  0
SOLID
  5
2CE
330
2C8
100
AcDbEntity
  8
0
 62
     0
100
AcDbTrace
 10
-72.4911587296133
 20
12.57299999999992
 30
0.0
 11
-73.59182539627996
 21
12.57299999999991
 31
0.0
 12
-73.04149206294665
 22
15.87499999999991
 32
0.0
 13
-73.04149206294665
 23
15.87499999999991
 33
0.0
  0
SOLID
  5
2CF
330
2C8
100
AcDbEntity
  8
0
 62
     0
100
AcDbTrace
 10
-73.59182539627987
 20
-12.5730000000001
 30
0.0
 11
-72.49115872961322
 21
-12.5730000000001
 31
0.0
 12
-73.04149206294653
 22
-15.8750000000001
 32
0.0
 13
-73.04149206294653
 23
-15.8750000000001
 33
0.0
  0
MTEXT
  5
2D0
330
2C8
100
AcDbEntity
  8
0
 62
     0
370
    15
100
AcDbMText
 10
-77.41649206294659
 20
0.0000000000000075
 30
0.0
 40
3.5
 41
0.0
 71
     2
 72
     1
  1
\A1;%%c31.75 [1 1/4]
  7
SLDTEXTSTYLE0
 11
-3.580687802255621E-15
 21
1.0
 31
0.0
 73
     1
 44
1.0
  0
POINT
  5
2D1
330
2C8
100
AcDbEntity
  8
Defpoints
 62
     0
100
AcDbPoint
 10
-47.44998929072295
 20
15.87500000000001
 30
0.0
  0
POINT
  5
2D2
330
2C8
100
AcDbEntity
  8
Defpoints
 62
     0
100
AcDbPoint
 10
-47.44998929072295
 20
-15.87500000000001
 30
0.0
  0
POINT
  5
2D3
330
2C8
100
AcDbEntity
  8
Defpoints
 62
     0
100
AcDbPoint
 10
-73.04149206294653
 20
-15.8750000000001
 30
0.0
  0
ENDBLK
  5
2CA
330
2C8
100
AcDbEntity
  8
0
100
AcDbBlockEnd
  0
BLOCK
  5
2D5
330
2D4
100
AcDbEntity
  8
0
100
AcDbBlockBegin
  2
*D12
 70
     1
 10
0.0
 20
0.0
 30
0.0
  3
*D12
  1
*D14
  0
LINE
  5
2D7
330
2D4
100
AcDbEntity
  8
치수문자_일반주서
 62
     0
370
    -2
100
AcDbLine
 10
407.1173055080875
 20
-99.03487082034553
 30
0.0
 11
407.1173055080875
 21
-85.93444639775203
 31
0.0
  0
LINE
  5
2D8
330
2D4
100
AcDbEntity
  8
치수문자_일반주서
 62
     0
370
    -2
100
AcDbLine
 10
254.7173055080875
 20
-100.412379800139
 30
0.0
 11
254.7173055080875
 21
-85.93444639775203
 31
0.0
  0
LINE
  5
2D9
330
2D4
100
AcDbEntity
  8
치수문자_일반주서
 62
     0
370
    -2
100
AcDbLine
 10
403.8153055080875
 20
-85.93444639775203
 30
0.0
 11
258.0193055080875
 21
-85.93444639775203
 31
0.0
  0
SOLID
  5
2DA
330
2D4
100
AcDbEntity
  8
치수문자_일반주서
 62
     0
100
AcDbTrace
 10
403.8153055080875
 20
-86.48477973108535
 30
0.0
 11
403.8153055080875
 21
-85.3841130644187
 31
0.0
 12
407.1173055080875
 22
-85.93444639775203
 32
0.0
 13
407.1173055080875
 23
-85.93444639775203
 33
0.0
  0
SOLID
  5
2DB
330
2D4
100
AcDbEntity
  8
치수문자_일반주서
 62
     0
100
AcDbTrace
 10
258.0193055080875
 20
-85.3841130644187
 30
0.0
 11
258.0193055080875
 21
-86.48477973108535
 31
0.0
 12
254.7173055080875
 22
-85.93444639775203
 32
0.0
 13
254.7173055080875
 23
-85.93444639775203
 33
0.0
  0
MTEXT
  5
2DC
330
2D4
100
AcDbEntity
  8
치수문자_일반주서
 62
     0
100
AcDbMText
 10
330.9173055080875
 20
-81.55944639775203
 30
0.0
 40
3.5
 41
0.0
 71
     2
 72
     1
  1
\A1;152.40
  7
SLDTEXTSTYLE0
 73
     1
 44
1.0
  0
POINT
  5
2DD
330
2D4
100
AcDbEntity
  8
Defpoints
 62
     0
100
AcDbPoint
 10
407.1173055080875
 20
-99.09737082034553
 30
0.0
  0
POINT
  5
2DE
330
2D4
100
AcDbEntity
  8
Defpoints
 62
     0
100
AcDbPoint
 10
254.7173055080875
 20
-100.474879800139
 30
0.0
  0
POINT
  5
2DF
330
2D4
100
AcDbEntity
  8
Defpoints
 62
     0
100
AcDbPoint
 10
254.7173055080875
 20
-85.93444639775203
 30
0.0
  0
ENDBLK
  5
2D6
330
2D4
100
AcDbEntity
  8
0
100
AcDbBlockEnd
  0
BLOCK
  5
2E1
330
2E0
100
AcDbEntity
  8
0
100
AcDbBlockBegin
  2
*D13
 70
     1
 10
0.0
 20
0.0
 30
0.0
  3
*D13
  1
*D15
  0
LINE
  5
2E3
330
2E0
100
AcDbEntity
  8
0
  6
Continuous
 62
     0
370
    -2
100
AcDbLine
 10
215.2000000000001
 20
19.11250000000002
 30
0.0
 11
215.2
 21
45.58996586444055
 31
0.0
  0
LINE
  5
2E4
330
2E0
100
AcDbEntity
  8
0
  6
Continuous
 62
     0
370
    -2
100
AcDbLine
 10
-51.44998929072295
 20
14.93749999999999
 30
0.0
 11
-51.44998929072297
 21
45.58996586444055
 31
0.0
  0
LINE
  5
2E5
330
2E0
100
AcDbEntity
  8
0
  6
Continuous
 62
     0
370
    -2
100
AcDbLine
 10
211.8980000000001
 20
45.58996586444055
 30
0.0
 11
-48.14798929072298
 21
45.58996586444055
 31
0.0
  0
SOLID
  5
2E6
330
2E0
100
AcDbEntity
  8
0
 62
     0
100
AcDbTrace
 10
211.8980000000001
 20
45.03963253110722
 30
0.0
 11
211.8980000000001
 21
46.14029919777388
 31
0.0
 12
215.2
 22
45.58996586444055
 32
0.0
 13
215.2
 23
45.58996586444055
 33
0.0
  0
SOLID
  5
2E7
330
2E0
100
AcDbEntity
  8
0
 62
     0
100
AcDbTrace
 10
-48.14798929072298
 20
46.14029919777388
 30
0.0
 11
-48.14798929072298
 21
45.03963253110722
 31
0.0
 12
-51.44998929072297
 22
45.58996586444055
 32
0.0
 13
-51.44998929072297
 23
45.58996586444055
 33
0.0
  0
MTEXT
  5
2E8
330
2E0
100
AcDbEntity
  8
0
 62
     0
370
    15
100
AcDbMText
 10
56.50001070927645
 20
49.96496586444055
 30
0.0
 40
3.5
 41
0.0
 71
     2
 72
     1
  1
\A1;266.65 [10 1/2]
  7
SLDTEXTSTYLE0
 73
     1
 44
1.0
  0
POINT
  5
2E9
330
2E0
100
AcDbEntity
  8
Defpoints
 62
     0
100
AcDbPoint
 10
215.2000000000001
 20
19.05000000000002
 30
0.0
  0
POINT
  5
2EA
330
2E0
100
AcDbEntity
  8
Defpoints
 62
     0
100
AcDbPoint
 10
-51.44998929072295
 20
14.87499999999999
 30
0.0
  0
POINT
  5
2EB
330
2E0
100
AcDbEntity
  8
Defpoints
 62
     0
100
AcDbPoint
 10
-51.44998929072295
 20
45.58996586444055
 30
0.0
  0
ENDBLK
  5
2E2
330
2E0
100
AcDbEntity
  8
0
100
AcDbBlockEnd
  0
BLOCK
  5
2ED
330
2EC
100
AcDbEntity
  8
0
100
AcDbBlockBegin
  2
*D14
 70
     1
 10
0.0
 20
0.0
 30
0.0
  3
*D14
  1
*D16
  0
LINE
  5
2EF
330
2EC
100
AcDbEntity
  8
치수문자_일반주서
 62
     0
370
    -2
100
AcDbLine
 10
407.1798055080875
 20
-130.8473708203456
 30
0.0
 11
430.9583275681093
 21
-130.8473708203455
 31
0.0
  0
LINE
  5
2F0
330
2EC
100
AcDbEntity
  8
치수문자_일반주서
 62
     0
370
    -2
100
AcDbLine
 10
407.1798055080875
 20
-99.09737082034553
 30
0.0
 11
430.9583275681092
 21
-99.09737082034545
 31
0.0
  0
LINE
  5
2F1
330
2EC
100
AcDbEntity
  8
치수문자_일반주서
 62
     0
370
    -2
100
AcDbLine
 10
430.9583275681092
 20
-99.09737082034545
 30
0.0
 11
430.9583275681091
 21
-70.08333364039188
 31
0.0
  0
LINE
  5
2F2
330
2EC
100
AcDbEntity
  8
치수문자_일반주서
 62
     0
370
    -2
100
AcDbLine
 10
430.9583275681093
 20
-130.8473708203455
 30
0.0
 11
430.9583275681092
 21
-99.09737082034545
 31
0.0
  0
LINE
  5
2F3
330
2EC
100
AcDbEntity
  8
치수문자_일반주서
 62
     0
370
    -2
100
AcDbLine
 10
430.9583275681093
 20
-134.1493708203455
 30
0.0
 11
430.9583275681093
 21
-137.4513708203455
 31
0.0
  0
LINE
  5
2F4
330
2EC
100
AcDbEntity
  8
치수문자_일반주서
 62
     0
370
    -2
100
AcDbLine
 10
430.9583275681092
 20
-95.79537082034545
 30
0.0
 11
430.9583275681092
 21
-92.49337082034546
 31
0.0
  0
SOLID
  5
2F5
330
2EC
100
AcDbEntity
  8
치수문자_일반주서
 62
     0
100
AcDbTrace
 10
431.5086609014426
 20
-134.1493708203455
 30
0.0
 11
430.4079942347759
 21
-134.1493708203455
 31
0.0
 12
430.9583275681093
 22
-130.8473708203455
 32
0.0
 13
430.9583275681093
 23
-130.8473708203455
 33
0.0
  0
SOLID
  5
2F6
330
2EC
100
AcDbEntity
  8
치수문자_일반주서
 62
     0
100
AcDbTrace
 10
430.4079942347758
 20
-95.79537082034545
 30
0.0
 11
431.5086609014425
 21
-95.79537082034545
 31
0.0
 12
430.9583275681092
 22
-99.09737082034545
 32
0.0
 13
430.9583275681092
 23
-99.09737082034545
 33
0.0
  0
MTEXT
  5
2F7
330
2EC
100
AcDbEntity
  8
치수문자_일반주서
 62
     0
100
AcDbMText
 10
426.5833275681091
 20
-77.0833336403919
 30
0.0
 40
3.5
 41
0.0
 71
     2
 72
     1
  1
\A1;%%c31.75
  7
SLDTEXTSTYLE0
 11
-3.580687802255620E-15
 21
1.0
 31
0.0
 73
     1
 44
1.0
  0
POINT
  5
2F8
330
2EC
100
AcDbEntity
  8
Defpoints
 62
     0
100
AcDbPoint
 10
407.1173055080875
 20
-130.8473708203456
 30
0.0
  0
POINT
  5
2F9
330
2EC
100
AcDbEntity
  8
Defpoints
 62
     0
100
AcDbPoint
 10
407.1173055080875
 20
-99.09737082034553
 30
0.0
  0
POINT
  5
2FA
330
2EC
100
AcDbEntity
  8
Defpoints
 62
     0
100
AcDbPoint
 10
430.9583275681092
 20
-99.09737082034545
 30
0.0
  0
ENDBLK
  5
2EE
330
2EC
100
AcDbEntity
  8
0
100
AcDbBlockEnd
  0
ENDSEC
  0
SECTION
  2
ENTITIES
  0
SPLINE
  5
96
330
1F
100
AcDbEntity
  8
0
  6
Continuous
 62
     1
370
    15
100
AcDbSpline
210
0.0
220
0.0
230
1.0
 70
     8
 71
     3
 72
     9
 73
     5
 74
     0
 42
0.000000001
 43
0.00000001
 40
0.0
 40
0.0
 40
0.0
 40
0.0
 40
0.4725731515253425
 40
1.0
 40
1.0
 40
1.0
 40
1.0
 10
62.18691937159861
 20
4.881599548132486
 30
0.0
 10
61.34711417662184
 20
5.281715244650603
 30
0.0
 10
59.57002381026037
 20
6.128389871058492
 30
0.0
 10
57.82439020913253
 20
7.042531821695323
 30
0.0
 10
56.90369618029821
 20
7.524674829778183
 30
0.0
  0
SPLINE
  5
97
330
1F
100
AcDbEntity
  8
0
  6
Continuous
 62
     1
370
    15
100
AcDbSpline
210
0.0
220
0.0
230
1.0
 70
     8
 71
     3
 72
    11
 73
     7
 74
     0
 42
0.000000001
 43
0.00000001
 40
0.0
 40
0.0
 40
0.0
 40
0.0
 40
0.3797455788670259
 40
0.5041941478685107
 40
0.648872780679066
 40
1.0
 40
1.0
 40
1.0
 40
1.0
 10
165.8457494035705
 20
4.881507495041707
 30
0.0
 10
165.1681346226897
 20
5.203599258167896
 30
0.0
 10
164.2684548738204
 20
5.631245532627199
 30
0.0
 10
163.1452662707613
 20
6.19032920619498
 30
0.0
 10
162.086721351616
 20
6.723500130785721
 30
0.0
 10
161.1942378337214
 20
7.19256330262984
 30
0.0
 10
160.5621854797992
 20
7.524751489815263
 30
0.0
  0
LINE
  5
98
330
1F
100
AcDbEntity
  8
0
  6
Continuous
 62
     1
370
    15
100
AcDbLine
 10
12.00000000000003
 20
-19.05000000000001
 30
0.0
 11
18.47152221390147
 21
-19.05000000000001
 31
0.0
  0
LINE
  5
99
330
1F
100
AcDbEntity
  8
0
  6
Continuous
 62
     1
370
    15
100
AcDbLine
 10
122.131623623556
 20
19.05000000000002
 30
0.0
 11
112.8962235918026
 21
19.05000000000002
 31
0.0
  0
LINE
  5
9A
330
1F
100
AcDbEntity
  8
0
  6
Continuous
 62
     1
370
    15
100
AcDbLine
 10
112.8962235918025
 20
-19.05000000000001
 30
0.0
 11
122.1316236235562
 21
-19.05000000000001
 31
0.0
  0
LINE
  5
9B
330
1F
100
AcDbEntity
  8
0
  6
Continuous
 62
     1
370
    15
100
AcDbLine
 10
18.47152221390163
 20
19.05000000000002
 30
0.0
 11
12.00000000000003
 21
19.05000000000002
 31
0.0
  0
SPLINE
  5
9C
330
1F
100
AcDbEntity
  8
0
  6
Continuous
 62
     1
370
    15
100
AcDbSpline
210
0.0
220
0.0
230
1.0
 70
     8
 71
     3
 72
    30
 73
    26
 74
     0
 42
0.000000001
 43
0.00000001
 40
0.0
 40
0.0
 40
0.0
 40
0.0
 40
0.0654552740209093
 40
0.1149162929471193
 40
0.1483504938348897
 40
0.1778717249176125
 40
0.2110880663906375
 40
0.260087831694599
 40
0.3062205101160927
 40
0.3448838644086235
 40
0.3794175764906674
 40
0.4090848126830588
 40
0.4426121873725047
 40
0.4861638798843754
 40
0.5320585485552736
 40
0.5699746076970862
 40
0.6028781054535917
 40
0.6472016393594077
 40
0.6962248845214078
 40
0.7430352504374931
 40
0.7818643981630825
 40
0.8206890764521101
 40
0.8715176582946933
 40
0.9324390464460509
 40
1.0
 40
1.0
 40
1.0
 40
1.0
 10
27.23896430006419
 20
-15.85222211242332
 30
0.0
 10
27.8617511829489
 20
-15.79135481359349
 30
0.0
 10
28.95514451064837
 20
-15.68449338114431
 30
0.0
 10
30.36887385369764
 20
-15.56112829616424
 30
0.0
 10
31.44825067268492
 20
-15.47286106797085
 30
0.0
 10
32.37372658276806
 20
-15.40140860142117
 30
0.0
 10
33.44522125173866
 20
-15.32343625107679
 30
0.0
 10
34.67317806039748
 20
-15.24182136579618
 30
0.0
 10
35.95223767314583
 20
-15.16595122309647
 30
0.0
 10
37.09297231728318
 20
-15.10558880064297
 30
0.0
 10
38.07619180591327
 20
-15.05902278849336
 30
0.0
 10
39.01057356046913
 20
-15.01953500510711
 30
0.0
 10
40.03141912189014
 20
-14.98145348765201
 30
0.0
 10
41.20751155987567
 20
-14.94470575288487
 30
0.0
 10
42.42535067145725
 20
-14.91519799075492
 30
0.0
 10
43.541496009189
 20
-14.89562729738553
 30
0.0
 10
44.64272958335556
 20
-14.88257406358508
 30
0.0
 10
45.84987753852565
 20
-14.87571014538833
 30
0.0
 10
47.18944202795179
 20
-14.87807533503208
 30
0.0
 10
48.47885062989508
 20
-14.89030583621107
 30
0.0
 10
49.66314717612993
 20
-14.90957843241643
 30
0.0
 10
50.88394883709668
 20
-14.93685068127559
 30
0.0
 10
52.35145309001658
 20
-14.98022026864551
 30
0.0
 10
54.10526193507032
 20
-15.04459797645324
 30
0.0
 10
55.27551273719681
 20
-15.10572843018642
 30
0.0
 10
55.89087558815016
 20
-15.13787317233995
 30
0.0
  0
SPLINE
  5
9D
330
1F
100
AcDbEntity
  8
0
  6
Continuous
 62
     1
370
    15
100
AcDbSpline
210
0.0
220
0.0
230
1.0
 70
     8
 71
     3
 72
    20
 73
    16
 74
     0
 42
0.000000001
 43
0.00000001
 40
0.0
 40
0.0
 40
0.0
 40
0.0
 40
0.1284191969791586
 40
0.233513290994162
 40
0.3182039853687365
 40
0.3860108856429412
 40
0.4421338873359557
 40
0.4990498304934893
 40
0.5616725473181445
 40
0.6532303351854154
 40
0.7563456223870735
 40
0.8424128175019345
 40
0.910969549708578
 40
0.9688384633115928
 40
1.0
 40
1.0
 40
1.0
 40
1.0
 10
159.549448475435
 20
15.1378699290155
 30
0.0
 10
158.9044138923007
 20
15.10501239213899
 30
0.0
 10
157.7315039858701
 20
15.0452653157635
 30
0.0
 10
156.0871243596518
 20
14.98256890774583
 30
0.0
 10
154.7396229500881
 20
14.94243679739156
 30
0.0
 10
153.6555669652128
 20
14.91662395837328
 30
0.0
 10
152.7255046065237
 20
14.89946964956985
 30
0.0
 10
151.8201355175017
 20
14.88712844452568
 30
0.0
 10
150.7324993515473
 20
14.8778958490052
 30
0.0
 10
149.4068122141908
 20
14.87548655156522
 30
0.0
 10
147.9604924995308
 20
14.8850092977666
 30
0.0
 10
146.6329726483307
 20
14.90447837238598
 30
0.0
 10
145.5384930173331
 20
14.92805784313193
 30
0.0
 10
144.7270664045571
 20
14.9493885185092
 30
0.0
 10
144.2693311831661
 20
14.9639626221228
 30
0.0
 10
144.109119336003
 20
14.96906370229222
 30
0.0
  0
SPLINE
  5
9E
330
1F
100
AcDbEntity
  8
0
  6
Continuous
 62
     1
370
    15
100
AcDbSpline
210
0.0
220
0.0
230
1.0
 70
     8
 71
     3
 72
    28
 73
    24
 74
     0
 42
0.000000001
 43
0.00000001
 40
0.0
 40
0.0
 40
0.0
 40
0.0
 40
0.0592657614448071
 40
0.1078664328966751
 40
0.1459380602540772
 40
0.1786040318365908
 40
0.2276848715154167
 40
0.268139803356991
 40
0.304838485349666
 40
0.3544276796811768
 40
0.4082407191458901
 40
0.446060383932365
 40
0.477775481624905
 40
0.5182799982463925
 40
0.5700249759200519
 40
0.6374788569095555
 40
0.7010746309643281
 40
0.7464447218255261
 40
0.779752529827632
 40
0.8165775287946936
 40
0.8642645198174717
 40
0.9245523610206203
 40
1.0
 40
1.0
 40
1.0
 40
1.0
 10
130.89741605769
 20
-15.8522403364413
 30
0.0
 10
131.4552903240415
 20
-15.79748305201437
 30
0.0
 10
132.4706473472062
 20
-15.69782225626569
 30
0.0
 10
133.858338798647
 20
-15.57487738393675
 30
0.0
 10
135.0094380911511
 20
-15.48033527215907
 30
0.0
 10
136.1661590691809
 20
-15.39095166944345
 30
0.0
 10
137.3372502578945
 20
-15.30716686684225
 30
0.0
 10
138.5424366122817
 20
-15.22924220340757
 30
0.0
 10
139.7548103790842
 20
-15.15786465315158
 30
0.0
 10
141.0952557726239
 20
-15.08764517145727
 30
0.0
 10
142.4466327224437
 20
-15.0276481271995
 30
0.0
 10
143.6244186732081
 20
-14.98392052043967
 30
0.0
 10
144.6732964621526
 20
-14.9506722753323
 30
0.0
 10
145.8577756120532
 20
-14.91981698517305
 30
0.0
 10
147.383630649802
 20
-14.89123764258138
 30
0.0
 10
149.1306082819554
 20
-14.87521547701843
 30
0.0
 10
150.8166200749477
 20
-14.87736858854278
 30
0.0
 10
152.1771588695629
 20
-14.89102921190581
 30
0.0
 10
153.2796271449946
 20
-14.90896467812399
 30
0.0
 10
154.4104045255043
 20
-14.93372161567526
 30
0.0
 10
155.8147790819334
 20
-14.97341820972509
 30
0.0
 10
157.5814254761349
 20
-15.03796113352148
 30
0.0
 10
158.8463492440969
 20
-15.10217634345234
 30
0.0
 10
159.549448475435
 20
-15.13786992901548
 30
0.0
  0
SPLINE
  5
9F
330
1F
100
AcDbEntity
  8
0
  6
Continuous
 62
     1
370
    15
100
AcDbSpline
210
0.0
220
0.0
230
1.0
 70
     8
 71
     3
 72
    20
 73
    16
 74
     0
 42
0.000000001
 43
0.00000001
 40
0.0
 40
0.0
 40
0.0
 40
0.0
 40
0.1064818546114871
 40
0.2036753799755611
 40
0.2909316027672563
 40
0.3602826959031383
 40
0.4203514136441492
 40
0.4971546720970811
 40
0.5798042993757657
 40
0.6653316333865865
 40
0.7392381615515682
 40
0.7953643894655551
 40
0.8617362577773928
 40
0.9699205635257597
 40
1.0
 40
1.0
 40
1.0
 40
1.0
 10
55.89087558815016
 20
15.13787317233996
 30
0.0
 10
55.36618636782038
 20
15.11036717645866
 30
0.0
 10
54.36257615921097
 20
15.05775451129451
 30
0.0
 10
52.83018456192061
 20
14.99639448346813
 30
0.0
 10
51.4897963706411
 20
14.95417994531467
 30
0.0
 10
50.34750921528776
 20
14.92412690296985
 30
0.0
 10
49.29303413363753
 20
14.9029618411191
 30
0.0
 10
48.15181828466737
 20
14.88635723389877
 30
0.0
 10
46.87969948140337
 20
14.87678846294145
 30
0.0
 10
45.6224335795084
 20
14.87650613294563
 30
0.0
 10
44.50302844226055
 20
14.8840429185153
 30
0.0
 10
43.48267772466903
 20
14.89655330833588
 30
0.0
 10
42.28448386848078
 20
14.91817356993975
 30
0.0
 10
41.22162786327907
 20
14.94305475841823
 30
0.0
 10
40.50341621322513
 20
14.96790832464653
 30
0.0
 10
40.34716844099229
 20
14.97331524662409
 30
0.0
  0
SPLINE
  5
A0
330
1F
100
AcDbEntity
  8
0
  6
Continuous
 62
     1
370
    15
100
AcDbSpline
210
0.0
220
0.0
230
1.0
 70
     8
 71
     3
 72
    20
 73
    16
 74
     0
 42
0.000000001
 43
0.00000001
 40
0.0
 40
0.0
 40
0.0
 40
0.0
 40
0.1067280067702072
 40
0.2087707459521994
 40
0.3092704196130357
 40
0.4008552715312071
 40
0.4827348850405273
 40
0.5589927717958143
 40
0.6337941875737801
 40
0.7044714006218051
 40
0.7881519494122232
 40
0.8784322526321532
 40
0.9468485248082369
 40
0.9980842344553366
 40
0.9999999999999999
 40
0.9999999999999999
 40
0.9999999999999999
 40
0.9999999999999999
 10
71.18475210895545
 20
-14.32813512519777
 30
0.0
 10
71.66050041330793
 20
-14.25354885750915
 30
0.0
 10
72.59111208114325
 20
-14.10765059505335
 30
0.0
 10
74.08608317194211
 20
-13.89356690257833
 30
0.0
 10
75.51844718849676
 20
-13.7039726263311
 30
0.0
 10
76.85479219855526
 20
-13.53302351036423
 30
0.0
 10
78.05158669904696
 20
-13.39424129990477
 30
0.0
 10
79.08026228573846
 20
-13.28514085844751
 30
0.0
 10
80.1156752377826
 20
-13.17971605157135
 30
0.0
 10
81.20865949851594
 20
-13.07688261220234
 30
0.0
 10
82.37106152278207
 20
-12.97652397728704
 30
0.0
 10
83.52326517717538
 20
-12.88743483027155
 30
0.0
 10
84.52159777090534
 20
-12.81959755450145
 30
0.0
 10
85.09956806654645
 20
-12.78225724636513
 30
0.0
 10
85.35361902012806
 20
-12.76803915050283
 30
0.0
 10
85.36277590733962
 20
-12.76752668047137
 30
0.0
  0
SPLINE
  5
A1
330
1F
100
AcDbEntity
  8
0
  6
Continuous
 62
     1
370
    15
100
AcDbSpline
210
0.0
220
0.0
230
1.0
 70
     8
 71
     3
 72
    36
 73
    32
 74
     0
 42
0.000000001
 43
0.00000001
 40
0.0
 40
0.0
 40
0.0
 40
0.0
 40
0.0467288356255067
 40
0.0889785288058458
 40
0.1279571386132122
 40
0.1594311483207332
 40
0.1864212986504123
 40
0.2272360351624174
 40
0.2794611707662836
 40
0.320064417907568
 40
0.3521464591029968
 40
0.379620826751291
 40
0.4048848252610525
 40
0.4302275887302256
 40
0.4657895767122545
 40
0.5065944939258078
 40
0.5389710149893412
 40
0.564141787297616
 40
0.5986457685224824
 40
0.6439330787715201
 40
0.6853769587988173
 40
0.7192072667761428
 40
0.7466643026752177
 40
0.7664424240648615
 40
0.7848293389256144
 40
0.8025156804169576
 40
0.8252411117971395
 40
0.8543391126534394
 40
0.8915836258633812
 40
0.9401577263925703
 40
1.0
 40
1.0
 40
1.0
 40
1.0
 10
208.135541340216
 20
13.03049950965858
 30
0.0
 10
207.6696700068722
 20
12.9901984440468
 30
0.0
 10
206.7825829374243
 20
12.91345932826436
 30
0.0
 10
205.3276864962107
 20
12.81118706162398
 30
0.0
 10
204.034739151567
 20
12.73804761402151
 30
0.0
 10
202.9158311169757
 20
12.68018184863269
 30
0.0
 10
201.8319523529915
 20
12.63349574673928
 30
0.0
 10
200.4988246132721
 20
12.58667945950892
 30
0.0
 10
199.0122797074544
 20
12.55246285567536
 30
0.0
 10
197.6234179006655
 20
12.53708877102169
 30
0.0
 10
196.5097703309077
 20
12.53517286174513
 30
0.0
 10
195.566700549095
 20
12.5407981991295
 30
0.0
 10
194.698475961908
 20
12.55190348015045
 30
0.0
 10
193.7396463192447
 20
12.57039434540634
 30
0.0
 10
192.6081721243455
 20
12.60104724809851
 30
0.0
 10
191.3985746113075
 20
12.64561450162885
 30
0.0
 10
190.3049173075653
 20
12.69623440794408
 30
0.0
 10
189.2809128067161
 20
12.75103776704298
 30
0.0
 10
188.1137793199995
 20
12.82217552378059
 30
0.0
 10
186.765462435815
 20
12.91768592247616
 30
0.0
 10
185.4246765848923
 20
13.02727631363831
 30
0.0
 10
184.2816080019047
 20
13.13107307632383
 30
0.0
 10
183.3792447298967
 20
13.21951874337287
 30
0.0
 10
182.6491402745554
 20
13.2951519422345
 30
0.0
 10
182.0278980334704
 20
13.36230834471698
 30
0.0
 10
181.374688393055
 20
13.43568229483426
 30
0.0
 10
180.5944345805052
 20
13.52713248809262
 30
0.0
 10
179.5900036456329
 20
13.65060565228883
 30
0.0
 10
178.29803139214
 20
13.81882590824876
 30
0.0
 10
176.68797824952
 20
14.04350005767334
 30
0.0
 10
175.4994580237906
 20
14.22689794195896
 30
0.0
 10
174.8434339397677
 20
14.32812754364822
 30
0.0
  0
SPLINE
  5
A2
330
1F
100
AcDbEntity
  8
0
  6
Continuous
 62
     1
370
    15
100
AcDbSpline
210
0.0
220
0.0
230
1.0
 70
     8
 71
     3
 72
    19
 73
    15
 74
     0
 42
0.000000001
 43
0.00000001
 40
0.0
 40
0.0
 40
0.0
 40
0.0
 40
0.1589838745950028
 40
0.2832920998248418
 40
0.3746565896734169
 40
0.4445221524716784
 40
0.4956606760762881
 40
0.5602277094843111
 40
0.6321085188023831
 40
0.7181109843694913
 40
0.8004737900581844
 40
0.8971212835239363
 40
0.984224216174489
 40
1.0
 40
1.0
 40
1.0
 40
1.0
 10
174.8434339397678
 20
-14.32812754364819
 30
0.0
 10
175.5817246270499
 20
-14.21449705035415
 30
0.0
 10
176.8972789221886
 20
-14.01201977942712
 30
0.0
 10
178.6555734310697
 20
-13.77054949322968
 30
0.0
 10
180.0211904119757
 20
-13.59655829756236
 30
0.0
 10
181.0338710003829
 20
-13.47490486022084
 30
0.0
 10
181.9101592813878
 20
-13.37496359936872
 30
0.0
 10
182.7930083198747
 20
-13.27938733303596
 30
0.0
 10
183.8419526999179
 20
-13.17295754345507
 30
0.0
 10
184.9745453937638
 20
-13.06704392832989
 30
0.0
 10
186.223056009985
 20
-12.96060825192176
 30
0.0
 10
187.47677254676
 20
-12.86642311241915
 30
0.0
 10
188.4165969665778
 20
-12.80285690213136
 30
0.0
 10
188.9012536450211
 20
-12.77500026197427
 30
0.0
 10
188.9755726028251
 20
-12.77072862690459
 30
0.0
  0
SPLINE
  5
A3
330
1F
100
AcDbEntity
  8
0
  6
Continuous
 62
     1
370
    15
100
AcDbSpline
210
0.0
220
0.0
230
1.0
 70
     8
 71
     3
 72
    35
 73
    31
 74
     0
 42
0.000000001
 43
0.00000001
 40
0.0
 40
0.0
 40
0.0
 40
0.0
 40
0.0488807804485143
 40
0.0894736953261805
 40
0.121875001971577
 40
0.1578184509003609
 40
0.1823178149205045
 40
0.2156342118822122
 40
0.2538916700777883
 40
0.2843869469015967
 40
0.3079289537271416
 40
0.3387645083190697
 40
0.3840164605440418
 40
0.4274160396404262
 40
0.4632744863887732
 40
0.4925095721732211
 40
0.5187196816162332
 40
0.5431324955329028
 40
0.5734662879027014
 40
0.6162932385629996
 40
0.6560012188647703
 40
0.6842985708908345
 40
0.7175677006332526
 40
0.7635682797730731
 40
0.8039022618343554
 40
0.8364575151923249
 40
0.8634708618421838
 40
0.8985630554517599
 40
0.9441293403422807
 40
1.0
 40
1.0
 40
1.0
 40
1.0
 10
104.4630338509606
 20
13.0293080238882
 30
0.0
 10
103.9182437061088
 20
12.9843228452837
 30
0.0
 10
102.9210340259459
 20
12.90197984405251
 30
0.0
 10
101.5662148995573
 20
12.80912942423496
 30
0.0
 10
100.3570035608065
 20
12.73644849699304
 30
0.0
 10
99.32902392882949
 20
12.68380261067166
 30
0.0
 10
98.2957556514603
 20
12.63866382010935
 30
0.0
 10
97.23079799850649
 20
12.59985555163987
 30
0.0
 10
96.09955335906156
 20
12.5689192405406
 30
0.0
 10
95.07642503355865
 20
12.55002132693976
 30
0.0
 10
94.13438740073263
 20
12.53915332519744
 30
0.0
 10
93.02860299415164
 20
12.5341191205509
 30
0.0
 10
91.70341151196746
 20
12.54106492310888
 30
0.0
 10
90.32276544136676
 20
12.56406708190855
 30
0.0
 10
89.1194842730172
 20
12.59627587787376
 30
0.0
 10
88.10668468960662
 20
12.63179904993494
 30
0.0
 10
87.22105255852313
 20
12.66913578304506
 30
0.0
 10
86.32343307253018
 20
12.71281808857441
 30
0.0
 10
85.24129651389597
 20
12.77283800085811
 30
0.0
 10
83.98915531506293
 20
12.85366865614808
 30
0.0
 10
82.75942210914113
 20
12.94560604727087
 30
0.0
 10
81.63611143529138
 20
13.03917731750015
 30
0.0
 10
80.44380476192148
 20
13.14725026511519
 30
0.0
 10
79.11815869182834
 20
13.27975085243547
 30
0.0
 10
77.79727448619033
 20
13.42514800736136
 30
0.0
 10
76.68440174094678
 20
13.55737771902271
 30
0.0
 10
75.62417890299523
 20
13.6901874392012
 30
0.0
 10
74.42994132025709
 20
13.84822735873638
 30
0.0
 10
72.92054777119012
 20
14.06014165787502
 30
0.0
 10
71.80125154119573
 20
14.2329523660498
 30
0.0
 10
71.18475210895538
 20
14.32813512519779
 30
0.0
  0
SPLINE
  5
A4
330
1F
100
AcDbEntity
  8
0
  6
Continuous
 62
     1
370
    15
100
AcDbSpline
210
0.0
220
0.0
230
1.0
 70
     8
 71
     3
 72
    31
 73
    27
 74
     0
 42
0.000000001
 43
0.00000001
 40
0.0
 40
0.0
 40
0.0
 40
0.0
 40
0.0360727873763447
 40
0.0743787549266144
 40
0.1195272364679153
 40
0.1646770725852943
 40
0.209824616590471
 40
0.2549662273334365
 40
0.2932736692443764
 40
0.3315808582284395
 40
0.3698878114873295
 40
0.4081945462385807
 40
0.4465010797144082
 40
0.4848074291605521
 40
0.5299491049027641
 40
0.5750821099342072
 40
0.6202197675221205
 40
0.6653650308603176
 40
0.7086172167950777
 40
0.7518700913011315
 40
0.7951225265525015
 40
0.838373395207059
 40
0.8816215716476634
 40
0.9240951881956024
 40
0.9665657573108921
 40
1.0
 40
1.0
 40
1.0
 40
1.0
 10
144.108294839057
 20
-14.96933289155687
 30
0.0
 10
142.5976773296032
 20
-15.48464750050305
 30
0.0
 10
139.4829235859766
 20
-16.54717861596786
 30
0.0
 10
134.4777045131819
 20
-17.80133751104355
 30
0.0
 10
129.0913550394358
 20
-18.7212147731794
 30
0.0
 10
123.4186964490155
 20
-19.12904677967946
 30
0.0
 10
117.7463427124355
 20
-18.97549156858144
 30
0.0
 10
112.3605945049864
 20
-18.29779721692191
 30
0.0
 10
107.2619242370186
 20
-17.20937712470398
 30
0.0
 10
102.4493327926842
 20
-15.8165731800688
 30
0.0
 10
97.63680992763179
 20
-14.08790811309349
 30
0.0
 10
92.82432379272427
 20
-12.06009085990835
 30
0.0
 10
88.01181978770668
 20
-9.776157186080574
 30
0.0
 10
82.91329325133853
 20
-7.136523825108313
 30
0.0
 10
77.52804742993499
 20
-4.159965977095961
 30
0.0
 10
71.85732901169872
 20
-0.9020973867873695
 30
0.0
 10
66.18619584962553
 20
2.382101389313101
 30
0.0
 10
60.59355403025825
 20
5.551083200380489
 30
0.0
 10
55.08007691911106
 20
8.518262891210226
 30
0.0
 10
49.64578289369109
 20
11.21219588072688
 30
0.0
 10
44.21157304057562
 20
13.60302405907376
 30
0.0
 10
38.77759812843065
 20
15.62460823824729
 30
0.0
 10
33.3762940658351
 20
17.21809021460304
 30
0.0
 10
28.00781551680052
 20
18.33008759371506
 30
0.0
 10
23.05040961082493
 20
18.96570887309104
 30
0.0
 10
19.87167729283478
 20
18.99528642804111
 30
0.0
 10
18.47152221390161
 20
19.00831462911089
 30
0.0
  0
SPLINE
  5
A5
330
1F
100
AcDbEntity
  8
0
  6
Continuous
 62
     1
370
    15
100
AcDbSpline
210
0.0
220
0.0
230
1.0
 70
     8
 71
     3
 72
    21
 73
    17
 74
     0
 42
0.000000001
 43
0.00000001
 40
0.0
 40
0.0
 40
0.0
 40
0.0
 40
0.048897966601211
 40
0.1238291027786174
 40
0.1987589767808893
 40
0.2736874033870708
 40
0.3486141976891736
 40
0.4235391751319191
 40
0.4984628343990795
 40
0.5733880887045638
 40
0.6483151329370316
 40
0.7232437824872157
 40
0.7981738523989353
 40
0.8731051574088556
 40
0.9480375119863999
 40
1.0
 40
1.0
 40
1.0
 40
1.0
 10
130.9077240644784
 20
-15.80706980113281
 30
0.0
 10
129.786115223256
 20
-15.92096651868024
 30
0.0
 10
126.9457554674032
 20
-16.20939831500322
 30
0.0
 10
122.3866858183841
 20
-16.22645816998892
 30
0.0
 10
117.2305492602744
 20
-15.90801068603675
 30
0.0
 10
112.0745274519804
 20
-15.18642382460406
 30
0.0
 10
106.9186346544996
 20
-14.09889583963078
 30
0.0
 10
101.7628693537888
 20
-12.66668626390394
 30
0.0
 10
96.60716148666464
 20
-10.92606913808023
 30
0.0
 10
91.45138043547624
 20
-8.919152193286445
 30
0.0
 10
86.29546813619316
 20
-6.694801460589212
 30
0.0
 10
81.13942854956741
 20
-4.307582295182979
 30
0.0
 10
75.98327689726136
 20
-1.814221662265111
 30
0.0
 10
70.82702732202063
 20
0.719084270506078
 30
0.0
 10
66.19759241727802
 20
2.992161309899497
 30
0.0
 10
63.28690589605347
 20
4.354919454081021
 30
0.0
 10
62.09500155713722
 20
4.912958711520552
 30
0.0
  0
SPLINE
  5
A6
330
1F
100
AcDbEntity
  8
0
  6
Continuous
 62
     1
370
    15
100
AcDbSpline
210
0.0
220
0.0
230
1.0
 70
     8
 71
     3
 72
    26
 73
    22
 74
     0
 42
0.000000001
 43
0.00000001
 40
0.0
 40
0.0
 40
0.0
 40
0.0
 40
0.0517136534189739
 40
0.103426865376035
 40
0.1551396589819723
 40
0.2068520573756208
 40
0.258564083722326
 40
0.3102757612123951
 40
0.3712044750885006
 40
0.4321329546597563
 40
0.4930730408750916
 40
0.5540198326883353
 40
0.6057291516786822
 40
0.6574385445350224
 40
0.709148034624664
 40
0.7608576453083707
 40
0.81256739993879
 40
0.8642773218588855
 40
0.9252240777983556
 40
0.9861726623046969
 40
0.9999999999999999
 40
0.9999999999999999
 40
0.9999999999999999
 40
0.9999999999999999
 10
215.2
 20
-18.0773235588677
 30
0.0
 10
213.5957343274048
 20
-17.74808578104204
 30
0.0
 10
210.3872166772862
 20
-17.08961303598191
 30
0.0
 10
205.5744710393948
 20
-15.63612508218515
 30
0.0
 10
200.7617695370538
 20
-13.87815261041803
 30
0.0
 10
195.9491196705267
 20
-11.81810452997843
 30
0.0
 10
191.1364839021689
 20
-9.509013504196037
 30
0.0
 10
186.0380546085034
 20
-6.84849558191119
 30
0.0
 10
180.653261067531
 20
-3.856799994303203
 30
0.0
 10
174.9823691579223
 20
-0.5924364145970167
 30
0.0
 10
169.3106503568588
 20
2.68923401269258
 30
0.0
 10
163.9245367139891
 20
5.729930645071728
 30
0.0
 10
158.8258651316799
 20
8.464747295801894
 30
0.0
 10
154.0134946782619
 20
10.8661645995987
 30
0.0
 10
149.2011740847047
 20
13.03665609164369
 30
0.0
 10
144.3888387611339
 20
14.93102336028021
 30
0.0
 10
139.5764316936583
 20
16.50570536275611
 30
0.0
 10
134.4777046936688
 20
17.81318152652905
 30
0.0
 10
129.0913562517396
 20
18.69027921398723
 30
0.0
 10
124.8805393762433
 20
19.09734936184519
 30
0.0
 10
122.560616715374
 20
19.01577085319597
 30
0.0
 10
122.131623623556
 20
19.00068560175996
 30
0.0
  0
SPLINE
  5
A7
330
1F
100
AcDbEntity
  8
0
  6
Continuous
 62
     1
370
    15
100
AcDbSpline
210
0.0
220
0.0
230
1.0
 70
     8
 71
     3
 72
    13
 73
     9
 74
     0
 42
0.000000001
 43
0.00000001
 40
0.0
 40
0.0
 40
0.0
 40
0.0
 40
0.0554010986159481
 40
0.2470719819389486
 40
0.4353101059867084
 40
0.6235347241677275
 40
0.8117607144891089
 40
1.0
 40
1.0
 40
1.0
 40
1.0
 10
40.34806111839256
 20
-14.97298449752331
 30
0.0
 10
39.82453841177384
 20
-15.17087221861065
 30
0.0
 10
37.48978700890011
 20
-16.05339102549143
 30
0.0
 10
33.37629582159626
 20
-17.19664855151598
 30
0.0
 10
28.00781647165729
 20
-18.3461270203756
 30
0.0
 10
22.67197130241818
 20
-18.97128936268213
 30
0.0
 10
17.33611091241667
 20
-19.14407287877807
 30
0.0
 10
13.77874551459448
 20
-18.83775806722855
 30
0.0
 10
12.00000000000003
 20
-18.68459525257052
 30
0.0
  0
SPLINE
  5
A8
330
1F
100
AcDbEntity
  8
외형선
  6
Continuous
370
    15
100
AcDbSpline
210
0.0
220
0.0
230
1.0
 70
    24
 71
     3
 72
     8
 73
     4
 74
     0
 42
0.000000001
 43
0.00000001
 40
0.0
 40
0.0
 40
0.0
 40
0.0
 40
1.0
 40
1.0
 40
1.0
 40
1.0
 10
12.00000000000003
 20
-15.66279729049144
 30
0.0
 10
12.00000000000003
 20
-16.67511072627716
 30
0.0
 10
12.00000000000003
 20
-17.68887284023873
 30
0.0
 10
12.00000000000003
 20
-18.68459525256543
 30
0.0
  0
SPLINE
  5
A9
330
1F
100
AcDbEntity
  8
0
  6
Continuous
 62
     1
370
    15
100
AcDbSpline
210
0.0
220
0.0
230
1.0
 70
     8
 71
     3
 72
    17
 73
    13
 74
     0
 42
0.000000001
 43
0.00000001
 40
0.0
 40
0.0
 40
0.0
 40
0.0
 40
0.1042860270905239
 40
0.2085746925631889
 40
0.3128657397641083
 40
0.4171589115249105
 40
0.5214539502179656
 40
0.6257505978118157
 40
0.7300485959267968
 40
0.8343476858908215
 40
0.9386476087952947
 40
1.0
 40
1.0
 40
1.0
 40
1.0
 10
215.2
 20
-15.02992163621451
 30
0.0
 10
213.4814389059707
 20
-14.68071075606624
 30
0.0
 10
210.0442732392119
 20
-13.98228016091642
 30
0.0
 10
204.888438688282
 20
-12.49576234020612
 30
0.0
 10
199.7324704362665
 20
-10.73100241836093
 30
0.0
 10
194.5763811470898
 20
-8.697692988460217
 30
0.0
 10
189.4201859684358
 20
-6.454188955240101
 30
0.0
 10
184.2638993978818
 20
-4.053250736596761
 30
0.0
 10
179.107536190902
 20
-1.552239946850961
 30
0.0
 10
173.9511108433421
 20
0.9813696122093271
 30
0.0
 10
169.5024081667125
 20
3.163576979754145
 30
0.0
 10
166.7725146150299
 20
4.435783007686705
 30
0.0
 10
165.7614481652147
 20
4.906967985321605
 30
0.0
  0
SPLINE
  5
AA
330
1F
100
AcDbEntity
  8
0
  6
Continuous
 62
     1
370
    15
100
AcDbSpline
210
0.0
220
0.0
230
1.0
 70
     8
 71
     3
 72
    10
 73
     6
 74
     0
 42
0.000000001
 43
0.00000001
 40
0.0
 40
0.0
 40
0.0
 40
0.0
 40
0.2549037955508821
 40
0.6274434494917102
 40
1.0
 40
1.0
 40
1.0
 40
1.0
 10
27.25219427138885
 20
-15.79976499192762
 30
0.0
 10
25.95621091837846
 20
-15.92771022581831
 30
0.0
 10
22.76615930012253
 20
-16.2426462930703
 30
0.0
 10
17.68222257278799
 20
-16.22573033463791
 30
0.0
 10
13.89410282536181
 20
-15.85044447532957
 30
0.0
 10
12.00000000000001
 20
-15.66279729049144
 30
0.0
  0
LINE
  5
AB
330
1F
100
AcDbEntity
  8
0
  6
Continuous
 62
     1
370
    15
100
AcDbLine
 10
215.2
 20
-18.07732355886772
 30
0.0
 11
215.2
 21
-15.02992163621451
 31
0.0
  0
SPLINE
  5
AC
330
1F
100
AcDbEntity
  8
0
  6
Continuous
 62
     1
370
    15
100
AcDbSpline
210
0.0
220
0.0
230
1.0
 70
     8
 71
     3
 72
    28
 73
    24
 74
     0
 42
0.000000001
 43
0.00000001
 40
0.0
 40
0.0
 40
0.0
 40
0.0
 40
0.0296035970458386
 40
0.0592679712999143
 40
0.0891161313701919
 40
0.1190266342225167
 40
0.1733790485253828
 40
0.2281090568491796
 40
0.2824406536188665
 40
0.3371492385179758
 40
0.3914427164802923
 40
0.4461126551345665
 40
0.5003943822165886
 40
0.5550528648623795
 40
0.6093345155666524
 40
0.6639924623900548
 40
0.7182740593048402
 40
0.772931614147542
 40
0.8272132187443914
 40
0.8818708749439756
 40
0.9361525507434656
 40
0.9908107633174998
 40
1.0
 40
1.0
 40
1.0
 40
1.0
 10
12.00000000000003
 20
18.98340588422377
 30
0.0
 10
12.99534969849212
 20
18.92039035771461
 30
0.0
 10
14.98809258282009
 20
18.79422993164168
 30
0.0
 10
17.98461988413086
 20
18.40815946695063
 30
0.0
 10
20.99219745867934
 20
17.87990064274293
 30
0.0
 10
24.82822507664691
 20
17.01128609138496
 30
0.0
 10
29.50388601758193
 20
15.64116732028714
 30
0.0
 10
34.99989392022522
 20
13.59594558913417
 30
0.0
 10
40.50814304961315
 20
11.16910927730088
 30
0.0
 10
46.00166138462603
 20
8.439189914630065
 30
0.0
 10
51.50642710249634
 20
5.46963722166277
 30
0.0
 10
56.99677256934361
 20
2.356098618903045
 30
0.0
 10
62.49917286118905
 20
-0.8297454101933088
 30
0.0
 10
67.98876053661472
 20
-3.985011194354981
 30
0.0
 10
73.49104476188671
 20
-7.036673911009367
 30
0.0
 10
78.98080309575997
 20
-9.886919262428963
 30
0.0
 10
84.48315558984828
 20
-12.46930044231445
 30
0.0
 10
89.97292838825805
 20
-14.70213099972395
 30
0.0
 10
95.47522356573813
 20
-16.52918444702435
 30
0.0
 10
100.9648583485409
 20
-17.90818967338897
 30
0.0
 10
106.4669810195042
 20
-18.74579718759427
 30
0.0
 10
110.4398118134508
 20
-19.10595593419453
 30
0.0
 10
112.5871659048232
 20
-19.02481695111215
 30
0.0
 10
112.8962235918025
 20
-19.01313903244189
 30
0.0
  0
SPLINE
  5
AD
330
1F
100
AcDbEntity
  8
0
  6
Continuous
 62
     1
370
    15
100
AcDbSpline
210
0.0
220
0.0
230
1.0
 70
     8
 71
     3
 72
    13
 73
     9
 74
     0
 42
0.000000001
 43
0.00000001
 40
0.0
 40
0.0
 40
0.0
 40
0.0
 40
0.2063558589082206
 40
0.4166374804669641
 40
0.5612650164545548
 40
0.7063721158607155
 40
0.8529369513582307
 40
1.0
 40
1.0
 40
1.0
 40
1.0
 10
188.976813901618
 20
12.77121909923684
 30
0.0
 10
190.7807515780434
 20
13.51169914379614
 30
0.0
 10
194.4229454677725
 20
15.00674630036108
 30
0.0
 10
199.3296493533983
 20
16.56461384041
 30
0.0
 10
203.6999993824039
 20
17.6622714421741
 30
0.0
 10
207.5132143668319
 20
18.37688795383622
 30
0.0
 10
211.3477848599512
 20
18.86757141549328
 30
0.0
 10
213.9144766084829
 20
18.97839394586743
 30
0.0
 10
215.2000000000001
 20
19.05
 30
0.0
  0
SPLINE
  5
AE
330
1F
100
AcDbEntity
  8
0
  6
Continuous
 62
     1
370
    15
100
AcDbSpline
210
0.0
220
0.0
230
1.0
 70
    24
 71
     3
 72
    14
 73
    10
 74
     0
 42
0.000000001
 43
0.00000001
 40
0.0
 40
0.0
 40
0.0
 40
0.0
 40
0.2500000000000004
 40
0.2500000000000004
 40
0.5000000000000009
 40
0.5000000000000009
 40
0.7500000000000004
 40
0.7500000000000004
 40
1.0
 40
1.0
 40
1.0
 40
1.0
 10
215.2
 20
13.33500000000001
 30
0.0
 10
215.2000000000001
 20
13.73916724608967
 30
0.0
 10
215.2
 20
14.17509742113076
 30
0.0
 10
215.2000000000001
 20
15.09325330177686
 30
0.0
 10
215.2
 20
15.57538747801502
 30
0.0
 10
215.2000000000001
 20
16.56077437020788
 30
0.0
 10
215.2
 20
17.06386132050919
 30
0.0
 10
215.2
 20
18.06200198620704
 30
0.0
 10
215.2
 20
18.5568740910714
 30
0.0
 10
215.2000000000001
 20
19.05000000000002
 30
0.0
  0
SPLINE
  5
AF
330
1F
100
AcDbEntity
  8
0
  6
Continuous
 62
     1
370
    15
100
AcDbSpline
210
0.0
220
0.0
230
1.0
 70
     8
 71
     3
 72
     9
 73
     5
 74
     0
 42
0.000000001
 43
0.00000001
 40
0.0
 40
0.0
 40
0.0
 40
0.0
 40
0.9116449262611206
 40
0.9999999999999999
 40
0.9999999999999999
 40
0.9999999999999999
 40
0.9999999999999999
 10
215.2
 20
13.335
 30
0.0
 10
213.0519973666653
 20
13.32604172640241
 30
0.0
 10
210.6958139761164
 20
13.31621523218351
 30
0.0
 10
208.3394761968562
 20
13.03361915073876
 30
0.0
 10
208.131281798616
 20
13.00865035312439
 30
0.0
  0
SPLINE
  5
B0
330
1F
100
AcDbEntity
  8
0
  6
Continuous
 62
     1
370
    15
100
AcDbSpline
210
0.0
220
0.0
230
1.0
 70
     8
 71
     3
 72
    16
 73
    12
 74
     0
 42
0.000000001
 43
0.00000001
 40
0.0
 40
0.0
 40
0.0
 40
0.0
 40
0.0707378465744806
 40
0.1942232865530202
 40
0.3176701203086489
 40
0.4410896144341865
 40
0.5645713430749982
 40
0.6734495400687587
 40
0.7823137407696379
 40
0.8911543013785389
 40
1.0
 40
1.0
 40
1.0
 40
1.0
 10
64.2074793454658
 20
-1.803155613704012
 30
0.0
 10
62.97645764986762
 20
-1.31106182890159
 30
0.0
 10
59.596469551341
 20
0.0400688148056371
 30
0.0
 10
54.06780454112982
 20
2.285938019719768
 30
0.0
 10
47.6226502170849
 20
4.80695783293321
 30
0.0
 10
41.1778897475408
 20
7.148873912407272
 30
0.0
 10
34.98587813817539
 20
9.134779669398576
 30
0.0
 10
29.04794993470796
 20
10.7383673577221
 30
0.0
 10
23.36468555921129
 20
11.94786799144639
 30
0.0
 10
17.68223338142332
 20
12.83200286124013
 30
0.0
 10
13.89410759730871
 20
13.09823894873527
 30
0.0
 10
12.00000000000008
 20
13.23136013444588
 30
0.0
  0
SPLINE
  5
B1
330
1F
100
AcDbEntity
  8
외형선
  6
Continuous
370
    15
100
AcDbSpline
210
0.0
220
0.0
230
1.0
 70
    24
 71
     3
 72
    14
 73
    10
 74
     0
 42
0.000000001
 43
0.00000001
 40
0.0
 40
0.0
 40
0.0
 40
0.0
 40
0.25
 40
0.25
 40
0.5
 40
0.5
 40
0.75
 40
0.75
 40
1.0
 40
1.0
 40
1.0
 40
1.0
 10
12.00000000000003
 20
18.98340588422373
 30
0.0
 10
12.00000000000003
 20
18.52527625458237
 30
0.0
 10
12.00000000000003
 20
18.04381760682769
 30
0.0
 10
12.00000000000003
 20
17.06025683792534
 30
0.0
 10
12.00000000000003
 20
16.55833118608598
 30
0.0
 10
12.00000000000003
 20
15.56309812979029
 30
0.0
 10
12.00000000000003
 20
15.06996448105749
 30
0.0
 10
12.00000000000003
 20
14.1190722121269
 30
0.0
 10
12.00000000000003
 20
13.66142219383748
 30
0.0
 10
12.00000000000003
 20
13.23136013444588
 30
0.0
  0
SPLINE
  5
B2
330
1F
100
AcDbEntity
  8
0
  6
Continuous
 62
     1
370
    15
100
AcDbSpline
210
0.0
220
0.0
230
1.0
 70
     8
 71
     3
 72
    32
 73
    28
 74
     0
 42
0.000000001
 43
0.00000001
 40
0.0
 40
0.0
 40
0.0
 40
0.0
 40
0.0356029554435002
 40
0.07778549434354
 40
0.1202602650498906
 40
0.1624428592819012
 40
0.2049180623499525
 40
0.2471006726788597
 40
0.2895759096545423
 40
0.3317584530973573
 40
0.374233222244645
 40
0.4164157534173072
 40
0.4588904462217865
 40
0.5010730106947262
 40
0.5435480074596598
 40
0.5857295995992411
 40
0.6282040276446835
 40
0.6703855287409332
 40
0.7128593563803469
 40
0.7550408254532055
 40
0.7975144197117898
 40
0.8396959028546488
 40
0.882169644832265
 40
0.9114306130361327
 40
0.9406916231384204
 40
0.9703458482922329
 40
1.0
 40
1.0
 40
1.0
 40
1.0
 10
85.36276847172402
 20
12.76752367123172
 30
0.0
 10
86.9037008672843
 20
13.41265607832208
 30
0.0
 10
90.27033677280184
 20
14.82214421146871
 30
0.0
 10
95.47522340482399
 20
16.52507428952112
 30
0.0
 10
100.9648606637836
 20
17.90175563447033
 30
0.0
 10
106.4669719706081
 20
18.77544921533389
 30
0.0
 10
111.9563619167992
 20
19.13065070249383
 30
0.0
 10
117.4585811933124
 20
18.95567115753055
 30
0.0
 10
122.9482854441415
 20
18.25719266787301
 30
0.0
 10
128.4506307900377
 20
17.05124769942509
 30
0.0
 10
133.9404154341026
 20
15.37665131640248
 30
0.0
 10
139.4427481661344
 20
13.27225057116326
 30
0.0
 10
144.932455746292
 20
10.80554501087779
 30
0.0
 10
150.4346713186393
 20
8.033796155392938
 30
0.0
 10
155.9240810960104
 20
5.045780236788295
 30
0.0
 10
161.4260425756505
 20
1.911230761793292
 30
0.0
 10
166.915547759213
 20
-1.268853522548967
 30
0.0
 10
172.4177197344676
 20
-4.420715906317503
 30
0.0
 10
177.9073571764376
 20
-7.443209593527338
 30
0.0
 10
183.4095535379622
 20
-10.26622997140366
 30
0.0
 10
188.8992260990655
 20
-12.79913054143675
 30
0.0
 10
194.4011639020962
 20
-14.98331706957839
 30
0.0
 10
199.332075544198
 20
-16.56813694768359
 30
0.0
 10
203.7012719909802
 20
-17.66228464561498
 30
0.0
 10
207.5173770404003
 20
-18.37784293333937
 30
0.0
 10
211.3512656260826
 20
-18.86710813427773
 30
0.0
 10
213.9170896011788
 20
-18.97830224407574
 30
0.0
 10
215.2000000000001
 20
-19.04999999999995
 30
0.0
  0
SPLINE
  5
B3
330
1F
100
AcDbEntity
  8
0
  6
Continuous
 62
     1
370
    15
100
AcDbSpline
210
0.0
220
0.0
230
1.0
 70
     8
 71
     3
 72
    18
 73
    14
 74
     0
 42
0.000000001
 43
0.00000001
 40
0.0
 40
0.0
 40
0.0
 40
0.0
 40
0.0666079544312435
 40
0.1682762869094958
 40
0.2698927742748626
 40
0.3715342034819673
 40
0.473205981518754
 40
0.5748403406224805
 40
0.6764626797877552
 40
0.7781329299031867
 40
0.8797841034962369
 40
0.9813947285098055
 40
1.0
 40
1.0
 40
1.0
 40
1.0
 10
167.8618230578023
 20
-1.802589320918391
 30
0.0
 10
166.4539446057956
 20
-1.238635637790888
 30
0.0
 10
162.8971237974321
 20
0.1861195974654613
 30
0.0
 10
157.1922019221897
 20
2.499167636318762
 30
0.0
 10
150.7474311942434
 20
5.009742303333041
 30
0.0
 10
144.30225196866
 20
7.331497118057499
 30
0.0
 10
137.8563792807132
 20
9.37306708626492
 30
0.0
 10
131.4113177770519
 20
11.0598294644284
 30
0.0
 10
124.9664418667027
 20
12.32274126282702
 30
0.0
 10
118.5206614454311
 20
13.12828220772906
 30
0.0
 10
112.0752915954004
 20
13.39075757179958
 30
0.0
 10
107.3861417593094
 20
13.33061510491543
 30
0.0
 10
104.8451154439967
 20
13.03698381152359
 30
0.0
 10
104.45185227469
 20
12.9915398220808
 30
0.0
  0
LINE
  5
B4
330
1F
100
AcDbEntity
  8
외형선
  6
Continuous
370
    15
100
AcDbLine
 10
12.00000000000003
 20
-19.05000000000001
 30
0.0
 11
12.00000000000004
 21
-18.68459525257051
 31
0.0
  0
LINE
  5
B5
330
1F
100
AcDbEntity
  8
0
  6
Continuous
 62
     1
370
    15
100
AcDbLine
 10
215.2000000000001
 20
-19.04999999999998
 30
0.0
 11
215.2
 21
-18.07732355886772
 31
0.0
  0
SPLINE
  5
B6
330
1F
100
AcDbEntity
  8
외형선
  6
Continuous
370
    15
100
AcDbSpline
210
0.0
220
0.0
230
1.0
 70
    24
 71
     3
 72
    14
 73
    10
 74
     0
 42
0.000000001
 43
0.00000001
 40
0.0
 40
0.0
 40
0.0
 40
0.0
 40
0.25
 40
0.25
 40
0.5
 40
0.5
 40
0.75
 40
0.75
 40
1.0
 40
1.0
 40
1.0
 40
1.0
 10
12.00000000000003
 20
-1.896362659743312
 30
0.0
 10
12.00000000000003
 20
-3.323215704030001
 30
0.0
 10
12.00000000000003
 20
-4.746721007446948
 30
0.0
 10
12.00000000000003
 20
-7.481137863254664
 30
0.0
 10
12.00000000000003
 20
-8.79119078087134
 30
0.0
 10
12.00000000000003
 20
-11.1972163134843
 30
0.0
 10
12.00000000000003
 20
-12.29249414134433
 30
0.0
 10
12.00000000000003
 20
-14.19805276826669
 30
0.0
 10
12.00000000000004
 20
-15.00812761015623
 30
0.0
 10
12.00000000000003
 20
-15.66279729049145
 30
0.0
  0
SPLINE
  5
B7
330
1F
100
AcDbEntity
  8
0
  6
Continuous
 62
     1
370
    15
100
AcDbSpline
210
0.0
220
0.0
230
1.0
 70
     8
 71
     3
 72
    18
 73
    14
 74
     0
 42
0.000000001
 43
0.00000001
 40
0.0
 40
0.0
 40
0.0
 40
0.0
 40
0.0926376062071793
 40
0.1852775888182435
 40
0.2779197166706248
 40
0.3705637581369889
 40
0.4632094811751222
 40
0.5558566533780008
 40
0.6485050420240424
 40
0.7411544141274969
 40
0.833804536488954
 40
0.926455175745963
 40
0.9999999999999999
 40
0.9999999999999999
 40
0.9999999999999999
 40
0.9999999999999999
 10
215.2
 20
0.0000000000000151
 30
0.0
 10
213.4814394623678
 20
0.7938246638791818
 30
0.0
 10
210.0442743014009
 20
2.381494355376309
 30
0.0
 10
204.8884420174244
 20
4.704944011518229
 30
0.0
 10
199.7324758909966
 20
6.913754695071543
 30
0.0
 10
194.57638876871
 20
8.954108276112771
 30
0.0
 10
189.4201957453561
 20
10.77620214224696
 30
0.0
 10
184.2639113447966
 20
12.33589883090994
 30
0.0
 10
179.1075502676413
 20
13.59415637991166
 30
0.0
 10
173.9511272002908
 20
14.52412900796223
 30
0.0
 10
168.7946568115512
 20
15.08887306797268
 30
0.0
 10
163.9926063730086
 20
15.31146517523834
 30
0.0
 10
160.9093807583372
 20
15.16995804553889
 30
0.0
 10
159.5449916157209
 20
15.1073383039131
 30
0.0
  0
SPLINE
  5
B8
330
1F
100
AcDbEntity
  8
0
  6
Continuous
 62
     1
370
    15
100
AcDbSpline
210
0.0
220
0.0
230
1.0
 70
     8
 71
     3
 72
    19
 73
    15
 74
     0
 42
0.000000001
 43
0.00000001
 40
0.0
 40
0.0
 40
0.0
 40
0.0
 40
0.0061137300558995
 40
0.0932312682241271
 40
0.1803498247585025
 40
0.267469180459813
 40
0.3545891159551957
 40
0.4417094117457701
 40
0.5288298482543338
 40
0.6159502058730907
 40
0.7119807221297456
 40
0.8079992151409867
 40
0.9039974006033441
 40
1.0
 40
1.0
 40
1.0
 40
1.0
 10
71.18896794341413
 20
-14.31625994264363
 30
0.0
 10
71.06834786126534
 20
-14.3389381786144
 30
0.0
 10
69.22895306803598
 20
-14.68476972192912
 30
0.0
 10
65.67075409209797
 20
-15.02992616752456
 30
0.0
 10
60.51435647035787
 20
-15.30392256344612
 30
0.0
 10
55.35790473512652
 20
-15.16739935250563
 30
0.0
 10
50.20141222347285
 20
-14.67128489903882
 30
0.0
 10
45.04490372111452
 20
-13.81490727066014
 30
0.0
 10
39.8883550362307
 20
-12.6225774812646
 30
0.0
 10
34.55613068873345
 20
-11.07121027045555
 30
0.0
 10
29.04787666054944
 20
-9.164750363194385
 30
0.0
 10
23.36467374357945
 20
-6.925191687547912
 30
0.0
 10
17.68223242848279
 20
-4.48446989409156
 30
0.0
 10
13.89410650475573
 20
-2.759078292953206
 30
0.0
 10
12.00000000000003
 20
-1.896362659743312
 30
0.0
  0
SPLINE
  5
B9
330
1F
100
AcDbEntity
  8
0
  6
Continuous
 62
     1
370
    15
100
AcDbSpline
210
0.0
220
0.0
230
1.0
 70
    24
 71
     3
 72
     8
 73
     4
 74
     0
 42
0.000000001
 43
0.00000001
 40
0.0
 40
0.0
 40
0.0
 40
0.0
 40
1.0
 40
1.0
 40
1.0
 40
1.0
 10
215.2
 20
-1.552895695127768
 30
0.0
 10
215.2
 20
-1.034735970232299
 30
0.0
 10
215.2
 20
-0.5163603393623841
 30
0.0
 10
215.2
 20
0.0000000000000151
 30
0.0
  0
SPLINE
  5
BA
330
1F
100
AcDbEntity
  8
0
  6
Continuous
 62
     1
370
    15
100
AcDbSpline
210
0.0
220
0.0
230
1.0
 70
     8
 71
     3
 72
     8
 73
     4
 74
     0
 42
0.000000001
 43
0.00000001
 40
0.0
 40
0.0
 40
0.0
 40
0.0
 40
1.0
 40
1.0
 40
1.0
 40
1.0
 10
215.2
 20
-1.552895695114132
 30
0.0
 10
214.9629888368713
 20
-2.532228871142105
 30
0.0
 10
214.6545323989842
 20
-3.467935607028046
 30
0.0
 10
214.290601493015
 20
-4.369768114430901
 30
0.0
  0
SPLINE
  5
BB
330
1F
100
AcDbEntity
  8
0
  6
Continuous
 62
     1
370
    15
100
AcDbSpline
210
0.0
220
0.0
230
1.0
 70
     8
 71
     3
 72
     8
 73
     4
 74
     0
 42
0.000000001
 43
0.00000001
 40
0.0
 40
0.0
 40
0.0
 40
0.0
 40
1.0
 40
1.0
 40
1.0
 40
1.0
 10
215.2
 20
-5.090978121864722
 30
0.0
 10
214.896319220574
 20
-4.852235721554337
 30
0.0
 10
214.5931881605242
 20
-4.611827003481402
 30
0.0
 10
214.2906014930151
 20
-4.369768114430927
 30
0.0
  0
SPLINE
  5
BC
330
1F
100
AcDbEntity
  8
0
  6
Continuous
 62
     1
370
    15
100
AcDbSpline
210
0.0
220
0.0
230
1.0
 70
    24
 71
     3
 72
    14
 73
    10
 74
     0
 42
0.000000001
 43
0.00000001
 40
0.0
 40
0.0
 40
0.0
 40
0.0
 40
0.25
 40
0.25
 40
0.5
 40
0.5
 40
0.75
 40
0.75
 40
1.0
 40
1.0
 40
1.0
 40
1.0
 10
215.2
 20
-15.02992163621451
 30
0.0
 10
215.2
 20
-14.45384129836849
 30
0.0
 10
215.2
 20
-13.80325256384739
 30
0.0
 10
215.2
 20
-12.36422548531382
 30
0.0
 10
215.2
 20
-11.57581351426878
 30
0.0
 10
215.2
 20
-9.883517005969887
 30
0.0
 10
215.2
 20
-8.979726836109
 30
0.0
 10
215.2
 20
-7.088517908366701
 30
0.0
 10
215.2
 20
-6.101242455996388
 30
0.0
 10
215.2
 20
-5.090978121865334
 30
0.0
  0
SPLINE
  5
BD
330
1F
100
AcDbEntity
  8
0
  6
Continuous
 62
     1
370
    15
100
AcDbSpline
210
0.0
220
0.0
230
1.0
 70
     8
 71
     3
 72
    31
 73
    27
 74
     0
 42
0.000000001
 43
0.00000001
 40
0.0
 40
0.0
 40
0.0
 40
0.0
 40
0.0075950531526491
 40
0.0509389260859547
 40
0.0942830408349703
 40
0.1376272881747742
 40
0.1809715588516194
 40
0.2243157436066859
 40
0.2676597331998338
 40
0.3110034184333466
 40
0.3543466901756579
 40
0.3976894393850448
 40
0.4410315571332804
 40
0.4843729346292335
 40
0.5277134632424063
 40
0.571053034526395
 40
0.6143915402422668
 40
0.6577292725764031
 40
0.7010679402042278
 40
0.7444076576503293
 40
0.787748316644109
 40
0.831089808710896
 40
0.8744320251953356
 40
0.9177748572848652
 40
0.9611181960332589
 40
1.0
 40
1.0
 40
1.0
 40
1.0
 10
174.8546970831422
 20
-14.30137453842921
 30
0.0
 10
174.5535114752593
 20
-14.35668789665665
 30
0.0
 10
172.5335030421718
 20
-14.72766661262929
 30
0.0
 10
168.7946564762529
 20
-15.07627909916917
 30
0.0
 10
163.6381539699974
 20
-15.306913060856
 30
0.0
 10
158.4816330314725
 20
-15.13307036862956
 30
0.0
 10
153.3251090998494
 20
-14.59883021020634
 30
0.0
 10
148.1685967055784
 20
-13.70653775447239
 30
0.0
 10
143.0121106201951
 20
-12.48080228429606
 30
0.0
 10
137.8556655441513
 20
-10.95073354530225
 30
0.0
 10
132.6992761860234
 20
-9.153830896018516
 30
0.0
 10
127.5429572382061
 20
-7.133836645890789
 30
0.0
 10
122.3867233753101
 20
-4.939999642364197
 30
0.0
 10
117.2305892652965
 20
-2.625785985825856
 30
0.0
 10
112.0745695070044
 20
-0.2475990616730846
 30
0.0
 10
106.9186788494121
 20
2.136601732444423
 30
0.0
 10
101.7629154879969
 20
4.468720360584624
 30
0.0
 10
96.6072080017766
 20
6.691960074069791
 30
0.0
 10
91.4514291175089
 20
8.752107117566172
 30
0.0
 10
86.29551896678959
 20
10.59894085612316
 30
0.0
 10
81.13948158860651
 20
12.18766720128863
 30
0.0
 10
75.98333204857227
 20
13.47873775473949
 30
0.0
 10
70.82708490268536
 20
14.44375634068267
 30
0.0
 10
65.67075469420175
 20
15.04771928320565
 30
0.0
 10
60.69129671567055
 20
15.30944126485956
 30
0.0
 10
57.43061467235989
 20
15.1812611761059
 30
0.0
 10
55.88873592554999
 20
15.12064865639735
 30
0.0
  0
SPLINE
  5
BE
330
1F
100
AcDbEntity
  8
0
  6
Continuous
 62
     1
370
    15
100
AcDbSpline
210
0.0
220
0.0
230
1.0
 70
    24
 71
     3
 72
    10
 73
     6
 74
     0
 42
0.000000001
 43
0.00000001
 40
0.0
 40
0.0
 40
0.0
 40
0.0
 40
0.5000000000000002
 40
0.5000000000000002
 40
1.0
 40
1.0
 40
1.0
 40
1.0
 10
210.2
 20
7.736872478995716
 30
0.0
 10
210.2000000000001
 20
8.611736677061227
 30
0.0
 10
210.2
 20
9.404063859155888
 30
0.0
 10
210.2
 20
10.77840933395851
 30
0.0
 10
210.2
 20
11.36022994001372
 30
0.0
 10
210.2
 20
11.82493140031237
 30
0.0
  0
SPLINE
  5
BF
330
1F
100
AcDbEntity
  8
외형선
  6
Continuous
370
    15
100
AcDbSpline
210
0.0
220
0.0
230
1.0
 70
    24
 71
     3
 72
    14
 73
    10
 74
     0
 42
0.000000001
 43
0.00000001
 40
0.0
 40
0.0
 40
0.0
 40
0.0
 40
0.2499999999999999
 40
0.2499999999999999
 40
0.4999999999999999
 40
0.4999999999999999
 40
0.7499999999999999
 40
0.7499999999999999
 40
1.0
 40
1.0
 40
1.0
 40
1.0
 10
12.00000000000001
 20
13.23136013444588
 30
0.0
 10
12.00000000000001
 20
12.66971249977874
 30
0.0
 10
12.00000000000001
 20
11.89497094670016
 30
0.0
 10
12.00000000000001
 20
9.933013868290669
 30
0.0
 10
12.00000000000001
 20
8.745950047984799
 30
0.0
 10
12.00000000000001
 20
6.057317558416156
 30
0.0
 10
12.00000000000001
 20
4.557181504950762
 30
0.0
 10
12.00000000000001
 20
1.402318062541888
 30
0.0
 10
12.00000000000001
 20
-0.2505821200220797
 30
0.0
 10
12.00000000000001
 20
-1.896362659743298
 30
0.0
  0
SPLINE
  5
C0
330
1F
100
AcDbEntity
  8
0
  6
Continuous
 62
     1
370
    15
100
AcDbSpline
210
0.0
220
0.0
230
1.0
 70
     8
 71
     3
 72
     8
 73
     4
 74
     0
 42
0.000000001
 43
0.00000001
 40
0.0
 40
0.0
 40
0.0
 40
0.0
 40
1.0
 40
1.0
 40
1.0
 40
1.0
 10
215.2
 20
13.33500000000003
 30
0.0
 10
213.524608037331
 20
12.88087558296494
 30
0.0
 10
211.8577983692648
 20
12.37832625699702
 30
0.0
 10
210.2000000000001
 20
11.8249314003128
 30
0.0
  0
SPLINE
  5
C1
330
1F
100
AcDbEntity
  8
0
  6
Continuous
 62
     1
370
    15
100
AcDbSpline
210
0.0
220
0.0
230
1.0
 70
    24
 71
     3
 72
     8
 73
     4
 74
     0
 42
0.000000001
 43
0.00000001
 40
0.0
 40
0.0
 40
0.0
 40
0.0
 40
1.0
 40
1.0
 40
1.0
 40
1.0
 10
215.2
 20
0.0000000000000172
 30
0.0
 10
215.2
 20
0.2105471666334564
 30
0.0
 10
215.2
 20
0.4207411103080992
 30
0.0
 10
215.2
 20
0.6303976771146933
 30
0.0
  0
SPLINE
  5
C2
330
1F
100
AcDbEntity
  8
0
  6
Continuous
 62
     1
370
    15
100
AcDbSpline
210
0.0
220
0.0
230
1.0
 70
     8
 71
     3
 72
    14
 73
    10
 74
     0
 42
0.000000001
 43
0.00000001
 40
0.0
 40
0.0
 40
0.0
 40
0.0
 40
0.5000000000000003
 40
0.5000000000000003
 40
0.6250000000000003
 40
0.6250000000000003
 40
0.7500000000000002
 40
0.7500000000000002
 40
1.0
 40
1.0
 40
1.0
 40
1.0
 10
210.2
 20
7.73687247899562
 30
0.0
 10
211.2374642998752
 20
6.823668196229002
 30
0.0
 10
212.1869973979323
 20
5.786264797495691
 30
0.0
 10
213.2447705627657
 20
4.307101211976545
 30
0.0
 10
213.4497861261345
 20
4.002032334709786
 30
0.0
 10
213.8458759820077
 20
3.372203122752773
 30
0.0
 10
214.037189569415
 20
3.046879165154501
 30
0.0
 10
214.5826587184807
 20
2.050711573763133
 30
0.0
 10
214.9105573967501
 20
1.356659252005198
 30
0.0
 10
215.2
 20
0.6303976771146609
 30
0.0
  0
LINE
  5
C3
330
1F
100
AcDbEntity
  8
0
  6
Continuous
 62
     1
370
    15
100
AcDbLine
 10
215.2
 20
-1.624659125799644
 30
0.0
 11
215.2
 21
-5.090978121864707
 31
0.0
  0
LINE
  5
C4
330
1F
100
AcDbEntity
  8
0
  6
Continuous
 62
     1
370
    15
100
AcDbLine
 10
215.2
 20
0.6457445943377914
 30
0.0
 11
215.2
 21
13.33500000000003
 31
0.0
  0
LINE
  5
C6
330
1F
100
AcDbEntity
  8
참조1
100
AcDbLine
 10
79.94057883212693
 20
0.0010749287238892
 30
0.0
 11
79.94057883212693
 21
-39.9989250712761
 31
0.0
  0
LINE
  5
C7
330
1F
100
AcDbEntity
  8
참조1
100
AcDbLine
 10
79.94057883212693
 20
-39.9989250712761
 30
0.0
 11
-22.53075298218174
 21
-39.9989250712761
 31
0.0
  0
INSERT
  5
C9
330
1F
100
AcDbEntity
  8
0
  6
Continuous
 62
     7
100
AcDbBlockReference
 66
     1
  2
블럭10
 10
74.25972706787482
 20
-52.04717430164392
 30
0.0
  0
ATTRIB
  5
CA
330
C9
100
AcDbEntity
  8
FORMAT
 62
     2
100
AcDbText
 10
65.07843177913352
 20
-49.97180738881173
 30
0.0
 40
4.233333333333333
  1
E1072132 [ 2 FLUTE ]
 41
0.75
  7
SLDTEXTSTYLE0
 11
65.07843177913352
 21
-52.0884740554784
 31
0.0
100
AcDbAttribute
  2
AUTOATTR0
 70
     0
 74
     1
  0
SEQEND
  5
CB
330
C9
100
AcDbEntity
  8
0
  6
Continuous
 62
     7
  0
HATCH
  5
CC
330
1F
100
AcDbEntity
  8
중심선
100
AcDbHatch
 10
0.0
 20
0.0
 30
0.0
210
0.0
220
0.0
230
1.0
  2
SOLID
 70
     1
 71
     0
 91
        1
 92
        0
 93
        4
 72
     1
 10
79.97463637225567
 20
-35.79999999999999
 11
76.5283611284184
 21
-35.79999999999999
 72
     1
 10
76.5283611284184
 20
-35.79999999999999
 11
74.40013126921443
 21
-38.33632558057259
 72
     1
 10
74.40013126921443
 20
-38.33632558057259
 11
77.84643959816475
 21
-38.3362861512701
 72
     1
 10
77.84643959816475
 20
-38.3362861512701
 11
79.97463637225567
 21
-35.79999999999999
 97
        0
 75
     0
 76
     1
 98
        1
 10
8.259421167873093
 20
-0.0010749287238863
  0
HATCH
  5
CD
330
1F
100
AcDbEntity
  8
중심선
100
AcDbHatch
 10
0.0
 20
0.0
 30
0.0
210
0.0
220
0.0
230
1.0
  2
SOLID
 70
     1
 71
     0
 91
        1
 92
        0
 93
        4
 72
     1
 10
84.98740036329164
 20
-35.79999999999999
 11
81.54112511945442
 21
-35.79999999999997
 72
     1
 10
81.54112511945442
 20
-35.79999999999997
 11
77.00998711109695
 21
-41.20000000000001
 72
     1
 10
77.00998711109693
 20
-41.20000000000001
 11
80.45626235493421
 21
-41.20000000000001
 72
     1
 10
80.45626235493421
 20
-41.20000000000001
 11
84.98740036329163
 21
-35.79999999999999
 97
        0
 75
     0
 76
     1
 98
        1
 10
8.259421167873093
 20
-0.0010749287238863
  0
HATCH
  5
CE
330
1F
100
AcDbEntity
  8
중심선
100
AcDbHatch
 10
0.0
 20
0.0
 30
0.0
210
0.0
220
0.0
230
1.0
  2
SOLID
 70
     1
 71
     0
 91
        1
 92
        0
 93
        4
 72
     1
 10
90.00016435432764
 20
-35.79999999999997
 11
86.55388911049042
 21
-35.79999999999997
 72
     1
 10
86.55388911049042
 20
-35.79999999999997
 11
79.50545220860113
 21
-44.20000000000001
 72
     1
 10
79.50545220860113
 20
-44.20000000000001
 11
82.95172745243842
 21
-44.20000000000001
 72
     1
 10
82.95172745243843
 20
-44.20000000000001
 11
90.00016435432765
 21
-35.79999999999997
 97
        0
 75
     0
 76
     1
 98
        1
 10
8.259421167873093
 20
-0.0010749287238863
  0
HATCH
  5
CF
330
1F
100
AcDbEntity
  8
중심선
100
AcDbHatch
 10
0.0
 20
0.0
 30
0.0
210
0.0
220
0.0
230
1.0
  2
SOLID
 70
     1
 71
     0
 91
        1
 92
        0
 93
        6
 72
     3
 10
94.80005478533974
 20
-40.00000000005127
 11
3.960054785062283
 21
1.540882976769353E-10
 40
0.3939339440162628
 50
17.09539180608459
 51
320.0019657685078
 73
     0
 72
     1
 10
96.48305444104037
 20
-38.58789400463827
 11
98.78835631474129
 21
-36.65356729459037
 72
     3
 10
94.80005478528687
 20
-40.00000000000014
 11
6.600054785286829
 21
-1.278976924368180E-13
 40
0.636358354079598
 50
39.99873849337467
 51
368.4976242363724
 73
     1
 72
     1
 10
101.2253872771875
 20
-39.03999999993002
 11
93.48012209212278
 21
-39.03999999993002
 72
     1
 10
93.48012209212277
 20
-39.03999999993002
 11
93.48009704767686
 21
-40.95999999992991
 72
     1
 10
93.48009704767688
 20
-40.95999999992991
 11
97.92147681714889
 21
-40.95999999992988
 97
        0
 75
     0
 76
     1
 98
        1
 10
8.259421167873093
 20
-0.0010749287238863
  0
DIMENSION
  5
DE
330
1F
100
AcDbEntity
  8
0
  6
Continuous
 62
     0
370
    15
100
AcDbDimension
  2
_D_1
 10
12.00000000000003
 20
30.16629067197466
 30
0.0
 11
113.63125
 21
30.16629067197466
 31
0.0
 70
   160
  1
<>
 71
     2
 42
203.2
  3
SLDDIMSTYLE3
100
AcDbAlignedDimension
 13
215.2000000000001
 23
19.05000000000002
 33
0.0
 14
12.00000000000003
 24
18.98340588422373
 34
0.0
100
AcDbRotatedDimension
1001
ACAD
1000
DSTYLE
1002
{
1070
   171
1070
     6
1070
   273
1070
     7
1002
}
  0
DIMENSION
  5
108
330
1F
100
AcDbEntity
  8
0
  6
Continuous
 62
     0
370
    15
100
AcDbDimension
  2
_D_3
 10
234.2000000000002
 20
19.05000000000009
 30
0.0
 11
234.2000000000001
 21
38.3207500000001
 31
0.0
 70
   160
  1
%%c<>
 71
     2
 42
38.10000000000001
 52
-270.0
  3
SLDDIMSTYLE3
100
AcDbAlignedDimension
 13
215.2000000000001
 23
-19.04999999999998
 33
0.0
 14
215.2000000000001
 24
19.05000000000003
 34
0.0
 50
90.0000000000002
100
AcDbRotatedDimension
1001
ACAD
1000
DSTYLE
1002
{
1070
   171
1070
     6
1070
   273
1070
     7
1002
}
  0
LINE
  5
11C
330
1F
100
AcDbEntity
  8
참조1
100
AcDbLine
 10
75.44158764747253
 20
7.441074928723896
 30
0.0
 11
75.44158764747253
 21
-7.438925071276109
 31
0.0
  0
LINE
  5
11D
330
1F
100
AcDbEntity
  8
참조1
100
AcDbLine
 10
88.14158764747253
 20
5.441074928723896
 30
0.0
 11
75.44158764747253
 21
5.441074928723896
 31
0.0
  0
SOLID
  5
11E
330
1F
100
AcDbEntity
  8
참조1
100
AcDbTrace
 10
75.44158764747253
 20
5.441074928723896
 30
0.0
 11
81.79158764747253
 21
4.425074928723896
 31
0.0
 12
81.79158764747253
 22
6.457074928723896
 32
0.0
 13
81.79158764747253
 23
6.457074928723896
 33
0.0
  0
LINE
  5
11F
330
1F
100
AcDbEntity
  8
참조1
100
AcDbLine
 10
88.14158764747253
 20
-5.438925071276109
 30
0.0
 11
75.44158764747253
 21
-5.438925071276109
 31
0.0
  0
SOLID
  5
120
330
1F
100
AcDbEntity
  8
참조1
100
AcDbTrace
 10
75.44158764747253
 20
-5.438925071276109
 30
0.0
 11
81.79158764747253
 21
-6.454925071276109
 31
0.0
 12
81.79158764747253
 22
-4.422925071276109
 32
0.0
 13
81.79158764747253
 23
-4.422925071276109
 33
0.0
  0
MTEXT
  5
121
330
1F
100
AcDbEntity
  8
참조1
100
AcDbMText
 10
84.82593778009851
 20
11.01136670591222
 30
0.0
 40
3.5
 41
0.0
 71
     1
 72
     1
  1
A
  7
SLDTEXTSTYLE0
 73
     1
 44
1.0
  0
MTEXT
  5
122
330
1F
100
AcDbEntity
  8
참조1
100
AcDbMText
 10
84.82593778009851
 20
0.1313667059122201
 30
0.0
 40
3.5
 41
0.0
 71
     1
 72
     1
  1
A
  7
SLDTEXTSTYLE0
 73
     1
 44
1.0
  0
LINE
  5
277
330
1F
100
AcDbEntity
  8
외형선
  6
Continuous
370
    15
100
AcDbLine
 10
12.00000000000001
 20
15.87500000000001
 30
0.0
 11
-13.53731429072291
 21
15.875
 31
0.0
  0
LINE
  5
278
330
1F
100
AcDbEntity
  8
외형선
  6
Continuous
370
    15
100
AcDbLine
 10
-47.44998929072295
 20
-15.87500000000001
 30
0.0
 11
12.00000000000001
 21
-15.87500000000001
 31
0.0
  0
LINE
  5
27A
330
1F
100
AcDbEntity
  8
외형선
  6
Continuous
370
    15
100
AcDbLine
 10
-51.44998929072295
 20
-14.87500000000001
 30
0.0
 11
-50.44998929072297
 21
-15.87500000000001
 31
0.0
  0
LINE
  5
28F
330
1F
100
AcDbEntity
  8
외형선
  6
Continuous
370
    15
100
AcDbLine
 10
-50.44998929072297
 20
13.48739999999998
 30
0.0
 11
-50.44998929072297
 21
-15.87499999999995
 31
0.0
  0
LINE
  5
291
330
1F
100
AcDbEntity
  8
외형선
  6
Continuous
370
    15
100
AcDbLine
 10
-51.44998929072295
 20
13.48739999999998
 30
0.0
 11
-51.44998929072295
 21
-14.87500000000001
 31
0.0
  0
LINE
  5
2BA
330
1F
100
AcDbEntity
  8
중심선
100
AcDbLine
 10
-58.49999999999996
 20
-0.0000000000000059
 30
0.0
 11
222.2
 21
0.0000000000000225
 31
0.0
  0
CIRCLE
  5
2BB
330
1F
100
AcDbEntity
  8
해칭선
100
AcDbCircle
 10
0.0
 20
0.0
 30
0.0
 40
2.999999999999995
  0
DIMENSION
  5
2C3
330
1F
100
AcDbEntity
  8
0
  6
Continuous
 62
     0
370
    15
100
AcDbDimension
  2
*D11
 10
-73.04149206294653
 20
-15.8750000000001
 30
0.0
 11
-73.04149206294659
 21
0.000000000000023
 31
0.0
 70
   160
  1
%%c<>
 71
     2
 42
31.75000000000001
 52
-270.0
  3
SLDDIMSTYLE3
100
AcDbAlignedDimension
 13
-47.44998929072295
 23
15.87500000000001
 33
0.0
 14
-47.44998929072295
 24
-15.87500000000001
 34
0.0
 50
90.0000000000002
100
AcDbRotatedDimension
1001
ACAD
1000
DSTYLE
1002
{
1070
   171
1070
     6
1070
   273
1070
     7
1002
}
  0
DIMENSION
  5
2C5
330
1F
100
AcDbEntity
  8
0
  6
Continuous
 62
     0
370
    15
100
AcDbDimension
  2
*D13
 10
-51.44998929072297
 20
45.58996586444055
 30
0.0
 11
56.50001070927645
 21
45.58996586444055
 31
0.0
 70
   160
  1
<>
 71
     2
 42
266.649989290723
  3
SLDDIMSTYLE3
100
AcDbAlignedDimension
 13
215.2000000000001
 23
19.05000000000002
 33
0.0
 14
-51.44998929072295
 24
14.87499999999999
 34
0.0
 50
0.0000000000000038
100
AcDbRotatedDimension
1001
ACAD
1000
DSTYLE
1002
{
1070
   171
1070
     6
1070
   273
1070
     7
1002
}
  0
INSERT
  5
2C7
330
1F
100
AcDbEntity
  8
해칭선
100
AcDbBlockReference
  2
SW_DOWELSYMBOL_0
 10
0.0
 20
0.0
 30
0.0
  0
LINE
  5
35F
330
1F
100
AcDbEntity
  8
외형선
  6
Continuous
370
    15
100
AcDbLine
 10
-36.36238929072306
 20
15.87499999999999
 30
0.0
 11
-31.41891429072297
 21
15.87499999999999
 31
0.0
  0
LINE
  5
360
330
1F
100
AcDbEntity
  8
외형선
  6
Continuous
370
    15
100
AcDbLine
 10
-29.03131429072295
 20
13.48739999999998
 30
0.0
 11
-15.92491429072294
 21
13.48739999999998
 31
0.0
  0
LINE
  5
361
330
1F
100
AcDbEntity
  8
외형선
  6
Continuous
370
    15
100
AcDbLine
 10
-15.92491429072294
 20
13.48739999999998
 30
0.0
 11
-13.53731429072292
 21
15.875
 31
0.0
  0
LINE
  5
362
330
1F
100
AcDbEntity
  8
외형선
  6
Continuous
370
    15
100
AcDbLine
 10
-29.03131429072295
 20
13.48739999999998
 30
0.0
 11
-31.41891429072297
 21
15.875
 31
0.0
  0
LINE
  5
363
330
1F
100
AcDbEntity
  8
외형선
  6
Continuous
370
    15
100
AcDbLine
 10
-51.44998929072295
 20
13.48739999999998
 30
0.0
 11
-38.74998929072297
 21
13.48739999999998
 31
0.0
  0
LINE
  5
364
330
1F
100
AcDbEntity
  8
외형선
  6
Continuous
370
    15
100
AcDbLine
 10
-38.74998929072297
 20
13.48739999999998
 30
0.0
 11
-36.36238929072306
 21
15.87499999999997
 31
0.0
  0
LINE
  5
365
330
1F
100
AcDbEntity
  8
외형선
  6
Continuous
370
    15
100
AcDbLine
 10
-31.41891429072296
 20
15.87499999999999
 30
0.0
 11
-36.36238929072304
 21
15.87499999999999
 31
0.0
  0
ENDSEC
  0
SECTION
  2
OBJECTS
  0
DICTIONARY
  5
C
330
0
100
AcDbDictionary
281
     1
  3
ACAD_GROUP
350
D
  3
ACAD_IMAGE_VARS
350
14D
  3
ACAD_LAYOUT
350
1A
  3
ACAD_MLINESTYLE
350
17
  3
ACAD_PLOTSETTINGS
350
19
  3
ACAD_PLOTSTYLENAME
350
E
  3
ACAD_SCALELIST
350
47
  3
APPDATA
350
14B
  3
DWGPROPS
350
367
  0
DICTIONARY
  5
174
330
2
100
AcDbDictionary
280
     1
281
     1
  3
ACAD_LAYERSTATES
360
175
  0
DICTIONARY
  5
D
102
{ACAD_REACTORS
330
C
102
}
330
C
100
AcDbDictionary
281
     1
  0
RASTERVARIABLES
  5
14D
102
{ACAD_REACTORS
330
C
102
}
330
C
100
AcDbRasterVariables
 90
        0
 70
     1
 71
     1
 72
     1
  0
DICTIONARY
  5
1A
102
{ACAD_REACTORS
330
C
102
}
330
C
100
AcDbDictionary
281
     1
  3
Layout1
350
1E
  3
Layout2
350
26
  3
Model
350
22
  0
DICTIONARY
  5
17
102
{ACAD_REACTORS
330
C
102
}
330
C
100
AcDbDictionary
281
     1
  3
Standard
350
18
  0
DICTIONARY
  5
19
102
{ACAD_REACTORS
330
C
102
}
330
C
100
AcDbDictionary
281
     1
  0
ACDBDICTIONARYWDFLT
  5
E
102
{ACAD_REACTORS
330
C
102
}
330
C
100
AcDbDictionary
281
     1
  3
Normal
350
F
100
AcDbDictionaryWithDefault
340
F
  0
DICTIONARY
  5
47
102
{ACAD_REACTORS
330
C
102
}
330
C
100
AcDbDictionary
281
     1
  3
A0
350
48
  3
A1
350
49
  3
A2
350
4A
  3
A3
350
4B
  3
A4
350
4C
  3
A5
350
4D
  3
A6
350
4E
  3
A7
350
4F
  3
A8
350
50
  3
A9
350
51
  3
B0
350
52
  3
B1
350
53
  3
B2
350
54
  3
B3
350
55
  3
B4
350
56
  3
B5
350
57
  3
B6
350
58
  3
B7
350
59
  3
B8
350
5A
  3
B9
350
5B
  3
C0
350
5C
  3
C1
350
5D
  3
C2
350
5E
  3
C3
350
5F
  3
C4
350
60
  3
C5
350
61
  3
C6
350
62
  3
C7
350
63
  3
C8
350
64
  3
C9
350
65
  3
D0
350
66
  3
D1
350
67
  3
D2
350
68
  0
DICTIONARY
  5
14B
102
{ACAD_REACTORS
330
C
102
}
330
C
100
AcDbDictionary
281
     1
  0
XRECORD
  5
367
102
{ACAD_REACTORS
330
C
102
}
330
C
100
AcDbXrecord
280
     1
  1
DWGPROPS COOKIE
  2

  3

  4

  6

  7

  8
12016016
  9

300
=
301
=
302
=
303
=
304
=
305
=
306
=
307
=
308
=
309
=
 40
0.0
 41
2458311.198897153
 42
2458318.321501702
  1

 90
        0
  0
DICTIONARY
  5
175
102
{ACAD_REACTORS
330
174
102
}
330
174
100
AcDbDictionary
281
     1
  0
LAYOUT
  5
1E
102
{ACAD_REACTORS
330
1A
102
}
330
1A
100
AcDbPlotSettings
  1

  2
none_device
  4

  6

 40
0.0
 41
0.0
 42
0.0
 43
0.0
 44
0.0
 45
0.0
 46
0.0
 47
0.0
 48
0.0
 49
0.0
140
0.0
141
0.0
142
1.0
143
1.0
 70
   688
 72
     1
 73
     0
 74
     5
  7

 75
    16
147
1.0
148
0.0
149
0.0
100
AcDbLayout
  1
Layout1
 70
     1
 71
     1
 10
0.0
 20
0.0
 11
420.0
 21
297.0
 12
0.0
 22
0.0
 32
0.0
 14
1.000000000000000E+20
 24
1.000000000000000E+20
 34
1.000000000000000E+20
 15
-1.000000000000000E+20
 25
-1.000000000000000E+20
 35
-1.000000000000000E+20
146
0.0
 13
0.0
 23
0.0
 33
0.0
 16
1.0
 26
0.0
 36
0.0
 17
0.0
 27
1.0
 37
0.0
 76
     0
330
1B
  0
LAYOUT
  5
26
102
{ACAD_REACTORS
330
1A
102
}
330
1A
100
AcDbPlotSettings
  1

  2
none_device
  4

  6

 40
0.0
 41
0.0
 42
0.0
 43
0.0
 44
0.0
 45
0.0
 46
0.0
 47
0.0
 48
0.0
 49
0.0
140
0.0
141
0.0
142
1.0
143
1.0
 70
   688
 72
     1
 73
     0
 74
     5
  7

 75
    16
147
1.0
148
0.0
149
0.0
100
AcDbLayout
  1
Layout2
 70
     1
 71
     2
 10
0.0
 20
0.0
 11
0.0
 21
0.0
 12
0.0
 22
0.0
 32
0.0
 14
0.0
 24
0.0
 34
0.0
 15
0.0
 25
0.0
 35
0.0
146
0.0
 13
0.0
 23
0.0
 33
0.0
 16
1.0
 26
0.0
 36
0.0
 17
0.0
 27
1.0
 37
0.0
 76
     0
330
23
  0
LAYOUT
  5
22
102
{ACAD_REACTORS
330
1A
102
}
330
1A
100
AcDbPlotSettings
  1

  2
none_device
  4
ANSI_A_(11.00_x_8.50_Inches)
  6

 40
6.35
 41
19.05
 42
6.35000508
 43
19.05000254
 44
279.4
 45
215.9
 46
55.98611680886135
 47
81.68788014594726
 48
0.0
 49
0.0
140
0.0
141
0.0
142
0.0374142963615173
143
1.0
 70
  1696
 72
     0
 73
     0
 74
     0
  7

 75
     0
147
0.0235690232323232
148
0.0
149
0.0
100
AcDbLayout
  1
Model
 70
     1
 71
     0
 10
0.0
 20
0.0
 11
420.0
 21
297.0
 12
0.0
 22
0.0
 32
0.0
 14
1.000000000000000E+20
 24
1.000000000000000E+20
 34
1.000000000000000E+20
 15
-1.000000000000000E+20
 25
-1.000000000000000E+20
 35
-1.000000000000000E+20
146
0.0
 13
0.0
 23
0.0
 33
0.0
 16
1.0
 26
0.0
 36
0.0
 17
0.0
 27
1.0
 37
0.0
 76
     0
330
1F
331
29
  0
MLINESTYLE
  5
18
102
{ACAD_REACTORS
330
17
102
}
330
17
100
AcDbMlineStyle
  2
Standard
 70
     0
  3

 62
   256
 51
90.0
 52
90.0
 71
     2
 49
0.5
 62
   256
  6
BYLAYER
 49
-0.5
 62
   256
  6
BYLAYER
  0
ACDBPLACEHOLDER
  5
F
102
{ACAD_REACTORS
330
E
102
}
330
E
  0
SCALE
  5
48
102
{ACAD_REACTORS
330
47
102
}
330
47
100
AcDbScale
 70
     0
300
1:1
140
1.0
141
1.0
290
     1
  0
SCALE
  5
49
102
{ACAD_REACTORS
330
47
102
}
330
47
100
AcDbScale
 70
     0
300
1:2
140
1.0
141
2.0
290
     0
  0
SCALE
  5
4A
102
{ACAD_REACTORS
330
47
102
}
330
47
100
AcDbScale
 70
     0
300
1:4
140
1.0
141
4.0
290
     0
  0
SCALE
  5
4B
102
{ACAD_REACTORS
330
47
102
}
330
47
100
AcDbScale
 70
     0
300
1:5
140
1.0
141
5.0
290
     0
  0
SCALE
  5
4C
102
{ACAD_REACTORS
330
47
102
}
330
47
100
AcDbScale
 70
     0
300
1:8
140
1.0
141
8.0
290
     0
  0
SCALE
  5
4D
102
{ACAD_REACTORS
330
47
102
}
330
47
100
AcDbScale
 70
     0
300
1:10
140
1.0
141
10.0
290
     0
  0
SCALE
  5
4E
102
{ACAD_REACTORS
330
47
102
}
330
47
100
AcDbScale
 70
     0
300
1:16
140
1.0
141
16.0
290
     0
  0
SCALE
  5
4F
102
{ACAD_REACTORS
330
47
102
}
330
47
100
AcDbScale
 70
     0
300
1:20
140
1.0
141
20.0
290
     0
  0
SCALE
  5
50
102
{ACAD_REACTORS
330
47
102
}
330
47
100
AcDbScale
 70
     0
300
1:30
140
1.0
141
30.0
290
     0
  0
SCALE
  5
51
102
{ACAD_REACTORS
330
47
102
}
330
47
100
AcDbScale
 70
     0
300
1:40
140
1.0
141
40.0
290
     0
  0
SCALE
  5
52
102
{ACAD_REACTORS
330
47
102
}
330
47
100
AcDbScale
 70
     0
300
1:50
140
1.0
141
50.0
290
     0
  0
SCALE
  5
53
102
{ACAD_REACTORS
330
47
102
}
330
47
100
AcDbScale
 70
     0
300
1:100
140
1.0
141
100.0
290
     0
  0
SCALE
  5
54
102
{ACAD_REACTORS
330
47
102
}
330
47
100
AcDbScale
 70
     0
300
2:1
140
2.0
141
1.0
290
     0
  0
SCALE
  5
55
102
{ACAD_REACTORS
330
47
102
}
330
47
100
AcDbScale
 70
     0
300
4:1
140
4.0
141
1.0
290
     0
  0
SCALE
  5
56
102
{ACAD_REACTORS
330
47
102
}
330
47
100
AcDbScale
 70
     0
300
8:1
140
8.0
141
1.0
290
     0
  0
SCALE
  5
57
102
{ACAD_REACTORS
330
47
102
}
330
47
100
AcDbScale
 70
     0
300
10:1
140
10.0
141
1.0
290
     0
  0
SCALE
  5
58
102
{ACAD_REACTORS
330
47
102
}
330
47
100
AcDbScale
 70
     0
300
100:1
140
100.0
141
1.0
290
     0
  0
SCALE
  5
59
102
{ACAD_REACTORS
330
47
102
}
330
47
100
AcDbScale
 70
     0
300
1/128" = 1'-0"
140
0.0078125
141
12.0
290
     0
  0
SCALE
  5
5A
102
{ACAD_REACTORS
330
47
102
}
330
47
100
AcDbScale
 70
     0
300
1/64" = 1'-0"
140
0.015625
141
12.0
290
     0
  0
SCALE
  5
5B
102
{ACAD_REACTORS
330
47
102
}
330
47
100
AcDbScale
 70
     0
300
1/32" = 1'-0"
140
0.03125
141
12.0
290
     0
  0
SCALE
  5
5C
102
{ACAD_REACTORS
330
47
102
}
330
47
100
AcDbScale
 70
     0
300
1/16" = 1'-0"
140
0.0625
141
12.0
290
     0
  0
SCALE
  5
5D
102
{ACAD_REACTORS
330
47
102
}
330
47
100
AcDbScale
 70
     0
300
3/32" = 1'-0"
140
0.09375
141
12.0
290
     0
  0
SCALE
  5
5E
102
{ACAD_REACTORS
330
47
102
}
330
47
100
AcDbScale
 70
     0
300
1/8" = 1'-0"
140
0.125
141
12.0
290
     0
  0
SCALE
  5
5F
102
{ACAD_REACTORS
330
47
102
}
330
47
100
AcDbScale
 70
     0
300
3/16" = 1'-0"
140
0.1875
141
12.0
290
     0
  0
SCALE
  5
60
102
{ACAD_REACTORS
330
47
102
}
330
47
100
AcDbScale
 70
     0
300
1/4" = 1'-0"
140
0.25
141
12.0
290
     0
  0
SCALE
  5
61
102
{ACAD_REACTORS
330
47
102
}
330
47
100
AcDbScale
 70
     0
300
3/8" = 1'-0"
140
0.375
141
12.0
290
     0
  0
SCALE
  5
62
102
{ACAD_REACTORS
330
47
102
}
330
47
100
AcDbScale
 70
     0
300
1/2" = 1'-0"
140
0.5
141
12.0
290
     0
  0
SCALE
  5
63
102
{ACAD_REACTORS
330
47
102
}
330
47
100
AcDbScale
 70
     0
300
3/4" = 1'-0"
140
0.75
141
12.0
290
     0
  0
SCALE
  5
64
102
{ACAD_REACTORS
330
47
102
}
330
47
100
AcDbScale
 70
     0
300
1" = 1'-0"
140
1.0
141
12.0
290
     0
  0
SCALE
  5
65
102
{ACAD_REACTORS
330
47
102
}
330
47
100
AcDbScale
 70
     0
300
1-1/2" = 1'-0"
140
1.5
141
12.0
290
     0
  0
SCALE
  5
66
102
{ACAD_REACTORS
330
47
102
}
330
47
100
AcDbScale
 70
     0
300
3" = 1'-0"
140
3.0
141
12.0
290
     0
  0
SCALE
  5
67
102
{ACAD_REACTORS
330
47
102
}
330
47
100
AcDbScale
 70
     0
300
6" = 1'-0"
140
6.0
141
12.0
290
     0
  0
SCALE
  5
68
102
{ACAD_REACTORS
330
47
102
}
330
47
100
AcDbScale
 70
     0
300
1'-0" = 1'-0"
140
12.0
141
12.0
290
     0
  0
ENDSEC
  0
EOF
