  0
SECTION
  2
HEADER
  9
$ACADVER
  1
AC1015
  9
$ACADMAINTVER
 70
     6
  9
$DWGCODEPAGE
  3
ANSI_949
  9
$INSBASE
 10
0.0
 20
0.0
 30
0.0
  9
$EXTMIN
 10
1.000000000000000E+20
 20
1.000000000000000E+20
 30
1.000000000000000E+20
  9
$EXTMAX
 10
-1.000000000000000E+20
 20
-1.000000000000000E+20
 30
-1.000000000000000E+20
  9
$LIMMIN
 10
0.0
 20
0.0
  9
$LIMMAX
 10
420.0
 20
297.0
  9
$ORTHOMODE
 70
     1
  9
$REGENMODE
 70
     1
  9
$FILLMODE
 70
     1
  9
$QTEXTMODE
 70
     0
  9
$MIRRTEXT
 70
     1
  9
$LTSCALE
 40
1.0
  9
$ATTMODE
 70
     1
  9
$TEXTSIZE
 40
3.5
  9
$TRACEWID
 40
1.0
  9
$TEXTSTYLE
  7
Standard
  9
$CLAYER
  8
0
  9
$CELTYPE
  6
ByLayer
  9
$CECOLOR
 62
   256
  9
$CELTSCALE
 40
1.0
  9
$DISPSILH
 70
     0
  9
$DIMSCALE
 40
1.0
  9
$DIMASZ
 40
3.302
  9
$DIMEXO
 40
1.0
  9
$DIMDLI
 40
3.75
  9
$DIMRND
 40
0.0
  9
$DIMDLE
 40
0.0
  9
$DIMEXE
 40
1.0
  9
$DIMTP
 40
0.0
  9
$DIMTM
 40
0.0
  9
$DIMTXT
 40
3.5
  9
$DIMCEN
 40
2.5
  9
$DIMTSZ
 40
0.0
  9
$DIMTOL
 70
     0
  9
$DIMLIM
 70
     0
  9
$DIMTIH
 70
     1
  9
$DIMTOH
 70
     1
  9
$DIMSE1
 70
     0
  9
$DIMSE2
 70
     0
  9
$DIMTAD
 70
     1
  9
$DIMZIN
 70
     0
  9
$DIMBLK
  1

  9
$DIMASO
 70
     1
  9
$DIMSHO
 70
     1
  9
$DIMPOST
  1

  9
$DIMAPOST
  1

  9
$DIMALT
 70
     0
  9
$DIMALTD
 70
     3
  9
$DIMALTF
 40
0.0393700787401575
  9
$DIMLFAC
 40
1.0
  9
$DIMTOFL
 70
     1
  9
$DIMTVP
 40
0.0
  9
$DIMTIX
 70
     0
  9
$DIMSOXD
 70
     0
  9
$DIMSAH
 70
     0
  9
$DIMBLK1
  1

  9
$DIMBLK2
  1

  9
$DIMSTYLE
  2
ISO-25
  9
$DIMCLRD
 70
     0
  9
$DIMCLRE
 70
     0
  9
$DIMCLRT
 70
     0
  9
$DIMTFAC
 40
1.0
  9
$DIMGAP
 40
1.524
  9
$DIMJUST
 70
     0
  9
$DIMSD1
 70
     0
  9
$DIMSD2
 70
     0
  9
$DIMTOLJ
 70
     0
  9
$DIMTZIN
 70
     0
  9
$DIMALTZ
 70
     0
  9
$DIMALTTZ
 70
     0
  9
$DIMUPT
 70
     0
  9
$DIMDEC
 70
     2
  9
$DIMTDEC
 70
     2
  9
$DIMALTU
 70
     2
  9
$DIMALTTD
 70
     3
  9
$DIMTXSTY
  7
Standard
  9
$DIMAUNIT
 70
     0
  9
$DIMADEC
 70
     2
  9
$DIMALTRND
 40
0.0
  9
$DIMAZIN
 70
     0
  9
$DIMDSEP
 70
    44
  9
$DIMATFIT
 70
     3
  9
$DIMFRAC
 70
     0
  9
$DIMLDRBLK
  1

  9
$DIMLUNIT
 70
     2
  9
$DIMLWD
 70
    -2
  9
$DIMLWE
 70
    -2
  9
$DIMTMOVE
 70
     0
  9
$LUNITS
 70
     2
  9
$LUPREC
 70
     2
  9
$SKETCHINC
 40
1.0
  9
$FILLETRAD
 40
10.0
  9
$AUNITS
 70
     0
  9
$AUPREC
 70
     2
  9
$MENU
  1
.
  9
$ELEVATION
 40
0.0
  9
$PELEVATION
 40
0.0
  9
$THICKNESS
 40
0.0
  9
$LIMCHECK
 70
     0
  9
$CHAMFERA
 40
0.0
  9
$CHAMFERB
 40
0.0
  9
$CHAMFERC
 40
0.0
  9
$CHAMFERD
 40
0.0
  9
$SKPOLY
 70
     0
  9
$TDCREATE
 40
2458311.469403577
  9
$TDUCREATE
 40
2458311.094403577
  9
$TDUPDATE
 40
2458318.696689595
  9
$TDUUPDATE
 40
2458318.321689595
  9
$TDINDWG
 40
0.001451412
  9
$TDUSRTIMER
 40
2458318.321516077
  9
$USRTIMER
 70
     1
  9
$ANGBASE
 50
0.0
  9
$ANGDIR
 70
     0
  9
$PDMODE
 70
     0
  9
$PDSIZE
 40
-1.0
  9
$PLINEWID
 40
0.0
  9
$SPLFRAME
 70
     0
  9
$SPLINETYPE
 70
     6
  9
$SPLINESEGS
 70
     8
  9
$HANDSEED
  5
1FB
  9
$SURFTAB1
 70
     6
  9
$SURFTAB2
 70
     6
  9
$SURFTYPE
 70
     6
  9
$SURFU
 70
     6
  9
$SURFV
 70
     6
  9
$UCSBASE
  2

  9
$UCSNAME
  2

  9
$UCSORG
 10
0.0
 20
0.0
 30
0.0
  9
$UCSXDIR
 10
1.0
 20
0.0
 30
0.0
  9
$UCSYDIR
 10
0.0
 20
1.0
 30
0.0
  9
$UCSORTHOREF
  2

  9
$UCSORTHOVIEW
 70
     0
  9
$UCSORGTOP
 10
0.0
 20
0.0
 30
0.0
  9
$UCSORGBOTTOM
 10
0.0
 20
0.0
 30
0.0
  9
$UCSORGLEFT
 10
0.0
 20
0.0
 30
0.0
  9
$UCSORGRIGHT
 10
0.0
 20
0.0
 30
0.0
  9
$UCSORGFRONT
 10
0.0
 20
0.0
 30
0.0
  9
$UCSORGBACK
 10
0.0
 20
0.0
 30
0.0
  9
$PUCSBASE
  2

  9
$PUCSNAME
  2

  9
$PUCSORG
 10
0.0
 20
0.0
 30
0.0
  9
$PUCSXDIR
 10
1.0
 20
0.0
 30
0.0
  9
$PUCSYDIR
 10
0.0
 20
1.0
 30
0.0
  9
$PUCSORTHOREF
  2

  9
$PUCSORTHOVIEW
 70
     0
  9
$PUCSORGTOP
 10
0.0
 20
0.0
 30
0.0
  9
$PUCSORGBOTTOM
 10
0.0
 20
0.0
 30
0.0
  9
$PUCSORGLEFT
 10
0.0
 20
0.0
 30
0.0
  9
$PUCSORGRIGHT
 10
0.0
 20
0.0
 30
0.0
  9
$PUCSORGFRONT
 10
0.0
 20
0.0
 30
0.0
  9
$PUCSORGBACK
 10
0.0
 20
0.0
 30
0.0
  9
$USERI1
 70
     0
  9
$USERI2
 70
     0
  9
$USERI3
 70
     0
  9
$USERI4
 70
     0
  9
$USERI5
 70
     0
  9
$USERR1
 40
0.0
  9
$USERR2
 40
0.0
  9
$USERR3
 40
0.0
  9
$USERR4
 40
0.0
  9
$USERR5
 40
0.0
  9
$WORLDVIEW
 70
     1
  9
$SHADEDGE
 70
     3
  9
$SHADEDIF
 70
    70
  9
$TILEMODE
 70
     1
  9
$MAXACTVP
 70
    64
  9
$PINSBASE
 10
0.0
 20
0.0
 30
0.0
  9
$PLIMCHECK
 70
     0
  9
$PEXTMIN
 10
1.000000000000000E+20
 20
1.000000000000000E+20
 30
1.000000000000000E+20
  9
$PEXTMAX
 10
-1.000000000000000E+20
 20
-1.000000000000000E+20
 30
-1.000000000000000E+20
  9
$PLIMMIN
 10
0.0
 20
0.0
  9
$PLIMMAX
 10
0.0
 20
0.0
  9
$UNITMODE
 70
     0
  9
$VISRETAIN
 70
     1
  9
$PLINEGEN
 70
     0
  9
$PSLTSCALE
 70
     1
  9
$TREEDEPTH
 70
  3020
  9
$CMLSTYLE
  2
Standard
  9
$CMLJUST
 70
     0
  9
$CMLSCALE
 40
20.0
  9
$PROXYGRAPHICS
 70
     1
  9
$MEASUREMENT
 70
     1
  9
$CELWEIGHT
370
    -1
  9
$ENDCAPS
280
     0
  9
$JOINSTYLE
280
     0
  9
$LWDISPLAY
290
     1
  9
$INSUNITS
 70
     4
  9
$HYPERLINKBASE
  1

  9
$STYLESHEET
  1

  9
$XEDIT
290
     1
  9
$CEPSNTYPE
380
     0
  9
$PSTYLEMODE
290
     1
  9
$FINGERPRINTGUID
  2
{AD50684E-A54F-41BE-BE62-5B60886AEBD0}
  9
$VERSIONGUID
  2
{FAEB1C32-E019-11D5-929B-00C0DF256EC4}
  9
$EXTNAMES
290
     1
  9
$PSVPSCALE
 40
0.0
  9
$OLESTARTUP
290
     0
  0
ENDSEC
  0
SECTION
  2
CLASSES
  0
CLASS
  1
ACDBDICTIONARYWDFLT
  2
AcDbDictionaryWithDefault
  3
ObjectDBX Classes
 90
        0
280
     0
281
     0
  0
CLASS
  1
VISUALSTYLE
  2
AcDbVisualStyle
  3
ObjectDBX Classes
 90
     4095
280
     0
281
     0
  0
CLASS
  1
MATERIAL
  2
AcDbMaterial
  3
ObjectDBX Classes
 90
     1153
280
     0
281
     0
  0
CLASS
  1
SCALE
  2
AcDbScale
  3
ObjectDBX Classes
 90
     1153
280
     0
281
     0
  0
CLASS
  1
SUN
  2
AcDbSun
  3
SCENEOE
 90
     1153
280
     0
281
     0
  0
CLASS
  1
ACDBPLACEHOLDER
  2
AcDbPlaceHolder
  3
ObjectDBX Classes
 90
        0
280
     0
281
     0
  0
CLASS
  1
LAYOUT
  2
AcDbLayout
  3
ObjectDBX Classes
 90
        0
280
     0
281
     0
  0
CLASS
  1
TABLESTYLE
  2
AcDbTableStyle
  3
ObjectDBX Classes
 90
     4095
280
     0
281
     0
  0
CLASS
  1
MLEADERSTYLE
  2
AcDbMLeaderStyle
  3
ACDB_MLEADERSTYLE_CLASS
 90
     4095
280
     0
281
     0
  0
CLASS
  1
RASTERVARIABLES
  2
AcDbRasterVariables
  3
ISM
 90
        0
280
     0
281
     0
  0
ENDSEC
  0
SECTION
  2
TABLES
  0
TABLE
  2
VPORT
  5
8
330
0
100
AcDbSymbolTable
 70
     1
  0
VPORT
  5
29
330
8
100
AcDbSymbolTableRecord
100
AcDbViewportTableRecord
  2
*Active
 70
     0
 10
0.0
 20
0.0
 11
1.0
 21
1.0
 12
20.13561481696857
 22
-18.13415537530398
 13
0.0
 23
0.0
 14
10.0
 24
10.0
 15
10.0
 25
10.0
 16
0.0
 26
0.0
 36
1.0
 17
0.0
 27
0.0
 37
0.0
 40
203.8278481499447
 41
1.740812379110251
 42
50.0
 43
0.0
 44
0.0
 50
0.0
 51
0.0
 71
    16
 72
  2000
 73
     1
 74
     3
 75
     0
 76
     0
 77
     0
 78
     0
281
     0
 65
     1
110
0.0
120
0.0
130
0.0
111
1.0
121
0.0
131
0.0
112
0.0
122
1.0
132
0.0
 79
     0
146
0.0
  0
ENDTAB
  0
TABLE
  2
LTYPE
  5
5
330
0
100
AcDbSymbolTable
 70
     6
  0
LTYPE
  5
14
330
5
100
AcDbSymbolTableRecord
100
AcDbLinetypeTableRecord
  2
ByBlock
 70
     0
  3

 72
    65
 73
     0
 40
0.0
  0
LTYPE
  5
15
330
5
100
AcDbSymbolTableRecord
100
AcDbLinetypeTableRecord
  2
ByLayer
 70
     0
  3

 72
    65
 73
     0
 40
0.0
  0
LTYPE
  5
16
330
5
100
AcDbSymbolTableRecord
100
AcDbLinetypeTableRecord
  2
Continuous
 70
     0
  3
Solid line
 72
    65
 73
     0
 40
0.0
  0
LTYPE
  5
6A
330
5
100
AcDbSymbolTableRecord
100
AcDbLinetypeTableRecord
  2
HIDDEN
 70
     0
  3
Hidden __ __ __ __ __ __ __ __ __ __ __ __ __ __
 72
    65
 73
     2
 40
1.905
 49
1.27
 74
     0
 49
-0.635
 74
     0
  0
LTYPE
  5
6B
330
5
100
AcDbSymbolTableRecord
100
AcDbLinetypeTableRecord
  2
PHANTOM
 70
     0
  3
Phantom ______  __  __  ______  __  __  ______
 72
    65
 73
     6
 40
12.7
 49
6.35
 74
     0
 49
-1.27
 74
     0
 49
1.27
 74
     0
 49
-1.27
 74
     0
 49
1.27
 74
     0
 49
-1.27
 74
     0
  0
LTYPE
  5
6C
330
5
100
AcDbSymbolTableRecord
100
AcDbLinetypeTableRecord
  2
CENTER
 70
     0
  3
Center ____ _ ____ _ ____ _ ____ _ ____ _ ____
 72
    65
 73
     4
 40
10.16
 49
6.35
 74
     0
 49
-1.27
 74
     0
 49
1.27
 74
     0
 49
-1.27
 74
     0
  0
LTYPE
  5
6D
330
5
100
AcDbSymbolTableRecord
100
AcDbLinetypeTableRecord
  2
CENTERX2
 70
     0
  3
Center (2x) ________  __  ________  __  _____
 72
    65
 73
     4
 40
20.32
 49
12.7
 74
     0
 49
-2.54
 74
     0
 49
2.54
 74
     0
 49
-2.54
 74
     0
  0
LTYPE
  5
6E
330
5
100
AcDbSymbolTableRecord
100
AcDbLinetypeTableRecord
  2
DOT2
 70
     0
  3
Dot (.5x) ........................................
 72
    65
 73
     2
 40
0.635
 49
0.0
 74
     0
 49
-0.635
 74
     0
  0
ENDTAB
  0
TABLE
  2
LAYER
  5
2
102
{ACAD_XDICTIONARY
360
18A
102
}
330
0
100
AcDbSymbolTable
 70
    18
  0
LAYER
  5
10
330
2
100
AcDbSymbolTableRecord
100
AcDbLayerTableRecord
  2
0
 70
     0
 62
     7
  6
Continuous
370
    -3
390
F
  0
LAYER
  5
6F
330
2
100
AcDbSymbolTableRecord
100
AcDbLayerTableRecord
  2
FORMAT
 70
     0
 62
     2
  6
Continuous
370
    -3
390
F
  0
LAYER
  5
70
330
2
100
AcDbSymbolTableRecord
100
AcDbLayerTableRecord
  2
외형선
 70
     0
 62
     4
  6
Continuous
370
    30
390
F
  0
LAYER
  5
71
330
2
100
AcDbSymbolTableRecord
100
AcDbLayerTableRecord
  2
숨은선
 70
     0
 62
     2
  6
HIDDEN
370
    15
390
F
  0
LAYER
  5
72
330
2
100
AcDbSymbolTableRecord
100
AcDbLayerTableRecord
  2
중심선
 70
     0
 62
     1
  6
CENTERX2
370
    -3
390
F
  0
LAYER
  5
73
330
2
100
AcDbSymbolTableRecord
100
AcDbLayerTableRecord
  2
파단선
 70
     0
 62
     4
  6
Continuous
370
    -3
390
F
  0
LAYER
  5
74
330
2
100
AcDbSymbolTableRecord
100
AcDbLayerTableRecord
  2
해칭선
 70
     0
 62
   100
  6
Continuous
370
    -3
390
F
  0
LAYER
  5
75
330
2
100
AcDbSymbolTableRecord
100
AcDbLayerTableRecord
  2
가는실선
 70
     0
 62
     4
  6
Continuous
370
    -3
390
F
  0
LAYER
  5
76
330
2
100
AcDbSymbolTableRecord
100
AcDbLayerTableRecord
  2
치수_보조선
 70
     0
 62
     4
  6
Continuous
370
    -3
390
F
  0
LAYER
  5
77
330
2
100
AcDbSymbolTableRecord
100
AcDbLayerTableRecord
  2
치수문자_일반주서
 70
     0
 62
     7
  6
Continuous
370
    15
390
F
  0
LAYER
  5
78
330
2
100
AcDbSymbolTableRecord
100
AcDbLayerTableRecord
  2
개별주서
 70
     0
 62
   100
  6
Continuous
370
    30
390
F
  0
LAYER
  5
79
330
2
100
AcDbSymbolTableRecord
100
AcDbLayerTableRecord
  2
중간선
 70
     0
 62
     2
  6
Continuous
370
    15
390
F
  0
LAYER
  5
7A
330
2
100
AcDbSymbolTableRecord
100
AcDbLayerTableRecord
  2
윤곽선
 70
     0
 62
     3
  6
Continuous
370
    40
390
F
  0
LAYER
  5
7B
330
2
100
AcDbSymbolTableRecord
100
AcDbLayerTableRecord
  2
중심마크
 70
     0
 62
   100
  6
Continuous
370
    30
390
F
  0
LAYER
  5
7C
330
2
100
AcDbSymbolTableRecord
100
AcDbLayerTableRecord
  2
가상선
 70
     0
 62
     4
  6
PHANTOM
370
    -3
390
F
  0
LAYER
  5
7D
330
2
100
AcDbSymbolTableRecord
100
AcDbLayerTableRecord
  2
특수지정선
 70
     0
 62
     5
  6
CENTERX2
370
    60
390
F
  0
LAYER
  5
7E
330
2
100
AcDbSymbolTableRecord
100
AcDbLayerTableRecord
  2
참조1
 70
     0
 62
    -4
  6
Continuous
370
    -3
390
F
  0
LAYER
  5
191
330
2
100
AcDbSymbolTableRecord
100
AcDbLayerTableRecord
  2
Defpoints
 70
     0
 62
     7
  6
Continuous
290
     0
370
    -3
390
F
  0
ENDTAB
  0
TABLE
  2
STYLE
  5
3
330
0
100
AcDbSymbolTable
 70
     2
  0
STYLE
  5
11
330
3
100
AcDbSymbolTableRecord
100
AcDbTextStyleTableRecord
  2
Standard
 70
     0
 40
0.0
 41
1.0
 50
0.0
 71
     0
 42
3.5
  3
txt
  4

  0
STYLE
  5
94
330
3
100
AcDbSymbolTableRecord
100
AcDbTextStyleTableRecord
  2
SLDTEXTSTYLE0
 70
     0
 40
0.0
 41
0.75
 50
0.0
 71
     0
 42
3.5
  3
TXT
  4

  0
ENDTAB
  0
TABLE
  2
VIEW
  5
6
330
0
100
AcDbSymbolTable
 70
     0
  0
ENDTAB
  0
TABLE
  2
UCS
  5
7
330
0
100
AcDbSymbolTable
 70
     0
  0
ENDTAB
  0
TABLE
  2
APPID
  5
9
330
0
100
AcDbSymbolTable
 70
     1
  0
APPID
  5
12
330
9
100
AcDbSymbolTableRecord
100
AcDbRegAppTableRecord
  2
ACAD
 70
     0
  0
ENDTAB
  0
TABLE
  2
DIMSTYLE
  5
A
330
0
100
AcDbSymbolTable
 70
     3
100
AcDbDimStyleTable
  0
DIMSTYLE
105
27
330
A
100
AcDbSymbolTableRecord
100
AcDbDimStyleTableRecord
  2
ISO-25
 70
     0
 41
2.5
 42
0.625
 43
3.75
 44
1.25
 73
     0
 74
     0
 77
     1
 78
     8
140
2.5
141
2.5
143
0.03937007874016
147
0.625
171
     3
172
     1
178
     0
271
     2
272
     2
274
     3
278
    44
283
     0
284
     8
340
11
  0
DIMSTYLE
105
E5
102
{ACAD_REACTORS
330
E4
330
11F
330
F7
330
10C
102
}
330
A
100
AcDbSymbolTableRecord
100
AcDbDimStyleTableRecord
  2
SLDDIMSTYLE0
 70
     0
 41
3.302
 44
0.0
 45
0.000000001
 73
     0
 74
     0
 77
     1
 78
    12
 79
     3
140
3.5
143
0.0393700787401575
147
0.875
148
0.000000001
170
     1
173
     1
178
     0
271
     2
272
     2
276
     2
284
    12
340
94
  0
DIMSTYLE
105
F8
330
A
100
AcDbSymbolTableRecord
100
AcDbDimStyleTableRecord
  2
SLDDIMSTYLE1
 70
     0
 41
3.302
 44
0.0
 45
0.000000001
 73
     0
 74
     0
 77
     1
 78
     4
 79
     1
140
3.5
143
0.0393700787401575
147
0.875
148
0.000000001
170
     1
173
     1
178
     0
271
     2
272
     2
276
     2
284
    12
340
94
  0
ENDTAB
  0
TABLE
  2
BLOCK_RECORD
  5
1
330
0
100
AcDbSymbolTable
 70
     8
  0
BLOCK_RECORD
  5
1F
330
1
100
AcDbSymbolTableRecord
100
AcDbBlockTableRecord
  2
*Model_Space
340
22
  0
BLOCK_RECORD
  5
1B
330
1
100
AcDbSymbolTableRecord
100
AcDbBlockTableRecord
  2
*Paper_Space
340
1E
  0
BLOCK_RECORD
  5
23
330
1
100
AcDbSymbolTableRecord
100
AcDbBlockTableRecord
  2
*Paper_Space0
340
26
  0
BLOCK_RECORD
  5
7F
330
1
100
AcDbSymbolTableRecord
100
AcDbBlockTableRecord
  2
블럭10
340
0
102
{BLKREFS
331
DD
102
}
  0
BLOCK_RECORD
  5
E6
330
1
100
AcDbSymbolTableRecord
100
AcDbBlockTableRecord
  2
_D
340
0
  0
BLOCK_RECORD
  5
F9
330
1
100
AcDbSymbolTableRecord
100
AcDbBlockTableRecord
  2
_D_1
340
0
  0
BLOCK_RECORD
  5
10D
330
1
100
AcDbSymbolTableRecord
100
AcDbBlockTableRecord
  2
_D_2
340
0
  0
BLOCK_RECORD
  5
120
330
1
100
AcDbSymbolTableRecord
100
AcDbBlockTableRecord
  2
_D_3
340
0
  0
BLOCK_RECORD
  5
139
330
1
100
AcDbSymbolTableRecord
100
AcDbBlockTableRecord
  2
SW_DOWELSYMBOL_0
340
0
102
{BLKREFS
331
13F
102
}
  0
ENDTAB
  0
ENDSEC
  0
SECTION
  2
BLOCKS
  0
BLOCK
  5
20
330
1F
100
AcDbEntity
  8
0
100
AcDbBlockBegin
  2
*Model_Space
 70
     0
 10
0.0
 20
0.0
 30
0.0
  3
*Model_Space
  1
*Model_Space
  0
ENDBLK
  5
21
330
1F
100
AcDbEntity
  8
0
100
AcDbBlockEnd
  0
BLOCK
  5
1C
330
1B
100
AcDbEntity
 67
     1
  8
0
100
AcDbBlockBegin
  2
*Paper_Space
 70
     0
 10
0.0
 20
0.0
 30
0.0
  3
*Paper_Space
  1
*Paper_Space
  0
ENDBLK
  5
1D
330
1B
100
AcDbEntity
 67
     1
  8
0
100
AcDbBlockEnd
  0
BLOCK
  5
24
330
23
100
AcDbEntity
  8
0
100
AcDbBlockBegin
  2
*Paper_Space0
 70
     0
 10
0.0
 20
0.0
 30
0.0
  3
*Paper_Space0
  1
*Paper_Space0
  0
ENDBLK
  5
25
330
23
100
AcDbEntity
  8
0
100
AcDbBlockEnd
  0
BLOCK
  5
80
330
7F
100
AcDbEntity
  8
0
100
AcDbBlockBegin
  2
블럭10
 70
     2
 10
0.0
 20
0.0
 30
0.0
  3
블럭10
  1
블럭10
  0
ELLIPSE
  5
82
330
7F
100
AcDbEntity
  8
중심선
100
AcDbEllipse
 10
20.54032771741204
 20
12.0471743016438
 30
0.0
 11
6.600054785286829
 21
-1.261213355974178E-13
 31
0.0
210
0.0
220
0.0
230
1.0
 40
0.636358354079598
 41
0.9219305317359503
 42
6.513795318482858
  0
ELLIPSE
  5
83
330
7F
100
AcDbEntity
  8
중심선
100
AcDbEllipse
 10
20.54032771746488
 20
12.04717430159265
 30
0.0
 11
3.960054785062283
 21
1.540847449632565E-10
 31
0.0
210
0.0
220
0.0
230
1.0
 40
0.3939339440162632
 41
1.131841032648279
 42
5.62031148352944
  0
LINE
  5
84
330
7F
100
AcDbEntity
  8
중심선
100
AcDbLine
 10
2.268634060543552
 20
16.24717430164393
 30
0.0
 11
5.714909304380834
 21
16.24717430164393
 31
0.0
  0
LINE
  5
85
330
7F
100
AcDbEntity
  8
중심선
100
AcDbLine
 10
5.245725140726316
 20
7.84717430164391
 30
0.0
 11
8.692000384563599
 21
7.84717430164391
 31
0.0
  0
LINE
  5
86
330
7F
100
AcDbEntity
  8
중심선
100
AcDbLine
 10
15.74043728645272
 20
16.24717430164393
 30
0.0
 11
8.692000384563599
 21
7.84717430164391
 31
0.0
  0
LINE
  5
87
330
7F
100
AcDbEntity
  8
중심선
100
AcDbLine
 10
0.1404042013395286
 20
13.71084872107135
 30
0.0
 11
3.58671253028996
 21
13.71088815037384
 31
0.0
  0
LINE
  5
88
330
7F
100
AcDbEntity
  8
중심선
100
AcDbLine
 10
2.750260043222114
 20
10.84717430164391
 30
0.0
 11
6.196535287059397
 21
10.84717430164391
 31
0.0
  0
LINE
  5
89
330
7F
100
AcDbEntity
  8
중심선
100
AcDbLine
 10
12.29416204261559
 20
16.24717430164393
 30
0.0
 11
5.245725140726316
 21
7.84717430164391
 31
0.0
  0
LINE
  5
8A
330
7F
100
AcDbEntity
  8
중심선
100
AcDbLine
 10
10.72767329541681
 20
16.24717430164393
 30
0.0
 11
6.196535287059397
 21
10.84717430164391
 31
0.0
  0
LINE
  5
8B
330
7F
100
AcDbEntity
  8
중심선
100
AcDbLine
 10
7.28139805157953
 20
16.24717430164393
 30
0.0
 11
2.750260043222114
 21
10.84717430164391
 31
0.0
  0
LINE
  5
8C
330
7F
100
AcDbEntity
  8
중심선
100
AcDbLine
 10
5.714909304380834
 20
16.24717430164393
 30
0.0
 11
3.58671253028996
 21
13.71088815037384
 31
0.0
  0
LINE
  5
8D
330
7F
100
AcDbEntity
  8
중심선
100
AcDbLine
 10
2.268634060543552
 20
16.24717430164393
 30
0.0
 11
0.1404042013395286
 21
13.71084872107135
 31
0.0
  0
LINE
  5
8E
330
7F
100
AcDbEntity
  8
중심선
100
AcDbLine
 10
7.28139805157953
 20
16.24717430164393
 30
0.0
 11
10.72767329541681
 21
16.24717430164393
 31
0.0
  0
LINE
  5
8F
330
7F
100
AcDbEntity
  8
중심선
100
AcDbLine
 10
12.29416204261559
 20
16.24717430164393
 30
0.0
 11
15.74043728645272
 21
16.24717430164393
 31
0.0
  0
LINE
  5
90
330
7F
100
AcDbEntity
  8
중심선
100
AcDbLine
 10
19.22036997980202
 20
11.08717430171403
 30
0.0
 11
23.66174974927406
 21
11.08717430171406
 31
0.0
  0
LINE
  5
91
330
7F
100
AcDbEntity
  8
중심선
100
AcDbLine
 10
19.22039502424796
 20
13.00717430171391
 30
0.0
 11
19.22036997980202
 21
11.08717430171403
 31
0.0
  0
LINE
  5
92
330
7F
100
AcDbEntity
  8
중심선
100
AcDbLine
 10
19.22039502424796
 20
13.00717430171391
 30
0.0
 11
26.96566020931264
 21
13.00717430171391
 31
0.0
  0
LINE
  5
93
330
7F
100
AcDbEntity
  8
중심선
100
AcDbLine
 10
22.22332737316547
 20
13.45928029700563
 30
0.0
 11
24.52862924686651
 21
15.39360700705356
 31
0.0
  0
ATTDEF
  5
95
330
7F
100
AcDbEntity
  8
FORMAT
 62
     2
100
AcDbText
 10
4.408487351596664
 20
2.075366912832191
 30
0.0
 40
4.233333333333333
  1
E1072116
 41
0.75
  7
SLDTEXTSTYLE0
 11
4.408487351596664
 21
-0.0412997538344756
 31
0.0
100
AcDbAttributeDefinition
  3

  2
AUTOATTR0
 70
     0
 74
     1
  0
ENDBLK
  5
81
330
7F
100
AcDbEntity
  8
0
100
AcDbBlockEnd
  0
BLOCK
  5
E7
330
E6
100
AcDbEntity
  8
0
100
AcDbBlockBegin
  2
_D
 70
     0
 10
0.0
 20
0.0
 30
0.0
  3
_D
  1
_D
  0
LINE
  5
E9
330
E6
100
AcDbEntity
  8
치수문자_일반주서
 62
     0
370
    -2
100
AcDbLine
 10
-50.5625
 20
15.875
 30
0.0
 11
-64.00000000000007
 21
15.87499999999995
 31
0.0
  0
LINE
  5
EA
330
E6
100
AcDbEntity
  8
치수문자_일반주서
 62
     0
370
    -2
100
AcDbLine
 10
-50.5625
 20
-15.875
 30
0.0
 11
-63.99999999999996
 21
-15.87500000000005
 31
0.0
  0
LINE
  5
EB
330
E6
100
AcDbEntity
  8
치수문자_일반주서
 62
     0
370
    -2
100
AcDbLine
 10
-64.00000000000006
 20
12.57299999999995
 30
0.0
 11
-63.99999999999997
 21
-12.57300000000005
 31
0.0
  0
SOLID
  5
EC
330
E6
100
AcDbEntity
  8
치수문자_일반주서
 62
     0
100
AcDbTrace
 10
-63.44966666666672
 20
12.57299999999995
 30
0.0
 11
-64.55033333333338
 21
12.57299999999995
 31
0.0
 12
-64.00000000000007
 22
15.87499999999995
 32
0.0
 13
-64.00000000000007
 23
15.87499999999995
 33
0.0
  0
SOLID
  5
ED
330
E6
100
AcDbEntity
  8
치수문자_일반주서
 62
     0
100
AcDbTrace
 10
-64.5503333333333
 20
-12.57300000000006
 30
0.0
 11
-63.44966666666664
 21
-12.57300000000005
 31
0.0
 12
-63.99999999999996
 22
-15.87500000000005
 32
0.0
 13
-63.99999999999996
 23
-15.87500000000005
 33
0.0
  0
MTEXT
  5
EE
330
E6
100
AcDbEntity
  8
치수문자_일반주서
 62
     0
100
AcDbMText
 10
-68.37500000000001
 20
-0.0000000000000083
 30
0.0
 40
3.5
 41
0.0
 71
     2
 72
     1
  1
\A1;%%c31.75 [1 1/4]
  7
SLDTEXTSTYLE0
 11
-3.580687802255623E-15
 21
1.0
 31
0.0
 73
     1
 44
1.0
  0
POINT
  5
EF
330
E6
100
AcDbEntity
  8
Defpoints
 62
     0
100
AcDbPoint
 10
-50.5
 20
15.875
 30
0.0
  0
POINT
  5
F0
330
E6
100
AcDbEntity
  8
Defpoints
 62
     0
100
AcDbPoint
 10
-50.5
 20
-15.875
 30
0.0
  0
POINT
  5
F1
330
E6
100
AcDbEntity
  8
Defpoints
 62
     0
100
AcDbPoint
 10
-63.99999999999996
 20
-15.87500000000005
 30
0.0
  0
ENDBLK
  5
E8
330
E6
100
AcDbEntity
  8
0
100
AcDbBlockEnd
  0
BLOCK
  5
FA
330
F9
100
AcDbEntity
  8
0
100
AcDbBlockBegin
  2
_D_1
 70
     0
 10
0.0
 20
0.0
 30
0.0
  3
_D_1
  1
_D_1
  0
LINE
  5
FC
330
F9
100
AcDbEntity
  8
치수문자_일반주서
 62
     0
370
    -2
100
AcDbLine
 10
164.4
 20
15.93750000000004
 30
0.0
 11
164.4
 21
29.03792442259354
 31
0.0
  0
LINE
  5
FD
330
F9
100
AcDbEntity
  8
치수문자_일반주서
 62
     0
370
    -2
100
AcDbLine
 10
12.0
 20
14.55999102020658
 30
0.0
 11
12.0
 21
29.03792442259354
 31
0.0
  0
LINE
  5
FE
330
F9
100
AcDbEntity
  8
치수문자_일반주서
 62
     0
370
    -2
100
AcDbLine
 10
161.098
 20
29.03792442259354
 30
0.0
 11
15.302
 21
29.03792442259354
 31
0.0
  0
SOLID
  5
FF
330
F9
100
AcDbEntity
  8
치수문자_일반주서
 62
     0
100
AcDbTrace
 10
161.098
 20
28.48759108926021
 30
0.0
 11
161.098
 21
29.58825775592688
 31
0.0
 12
164.4
 22
29.03792442259354
 32
0.0
 13
164.4
 23
29.03792442259354
 33
0.0
  0
SOLID
  5
100
330
F9
100
AcDbEntity
  8
치수문자_일반주서
 62
     0
100
AcDbTrace
 10
15.302
 20
29.58825775592688
 30
0.0
 11
15.302
 21
28.48759108926021
 31
0.0
 12
12.0
 22
29.03792442259354
 32
0.0
 13
12.0
 23
29.03792442259354
 33
0.0
  0
MTEXT
  5
101
330
F9
100
AcDbEntity
  8
치수문자_일반주서
 62
     0
100
AcDbMText
 10
88.19999999999999
 20
33.41292442259355
 30
0.0
 40
3.5
 41
0.0
 71
     2
 72
     1
  1
\A1;152.4 [6]
  7
SLDTEXTSTYLE0
 73
     1
 44
1.0
  0
POINT
  5
102
330
F9
100
AcDbEntity
  8
Defpoints
 62
     0
100
AcDbPoint
 10
164.4
 20
15.87500000000004
 30
0.0
  0
POINT
  5
103
330
F9
100
AcDbEntity
  8
Defpoints
 62
     0
100
AcDbPoint
 10
12.0
 20
14.49749102020658
 30
0.0
  0
POINT
  5
104
330
F9
100
AcDbEntity
  8
Defpoints
 62
     0
100
AcDbPoint
 10
12.0
 20
29.03792442259354
 30
0.0
  0
ENDBLK
  5
FB
330
F9
100
AcDbEntity
  8
0
100
AcDbBlockEnd
  0
BLOCK
  5
10E
330
10D
100
AcDbEntity
  8
0
100
AcDbBlockBegin
  2
_D_2
 70
     0
 10
0.0
 20
0.0
 30
0.0
  3
_D_2
  1
_D_2
  0
LINE
  5
110
330
10D
100
AcDbEntity
  8
치수문자_일반주서
 62
     0
370
    -2
100
AcDbLine
 10
164.4
 20
15.93750000000004
 30
0.0
 11
164.4
 21
45.58996586444054
 31
0.0
  0
LINE
  5
111
330
10D
100
AcDbEntity
  8
치수문자_일반주서
 62
     0
370
    -2
100
AcDbLine
 10
-51.49999999999997
 20
14.93749999999998
 30
0.0
 11
-51.49999999999997
 21
45.58996586444054
 31
0.0
  0
LINE
  5
112
330
10D
100
AcDbEntity
  8
치수문자_일반주서
 62
     0
370
    -2
100
AcDbLine
 10
161.098
 20
45.58996586444054
 30
0.0
 11
-48.19799999999997
 21
45.58996586444054
 31
0.0
  0
SOLID
  5
113
330
10D
100
AcDbEntity
  8
치수문자_일반주서
 62
     0
100
AcDbTrace
 10
161.098
 20
45.0396325311072
 30
0.0
 11
161.098
 21
46.14029919777387
 31
0.0
 12
164.4
 22
45.58996586444054
 32
0.0
 13
164.4
 23
45.58996586444054
 33
0.0
  0
SOLID
  5
114
330
10D
100
AcDbEntity
  8
치수문자_일반주서
 62
     0
100
AcDbTrace
 10
-48.19799999999997
 20
46.14029919777387
 30
0.0
 11
-48.19799999999997
 21
45.0396325311072
 31
0.0
 12
-51.49999999999997
 22
45.58996586444054
 32
0.0
 13
-51.49999999999997
 23
45.58996586444054
 33
0.0
  0
MTEXT
  5
115
330
10D
100
AcDbEntity
  8
치수문자_일반주서
 62
     0
100
AcDbMText
 10
56.44999999999945
 20
49.96496586444054
 30
0.0
 40
3.5
 41
0.0
 71
     2
 72
     1
  1
\A1;215.9 [8 1/2]
  7
SLDTEXTSTYLE0
 73
     1
 44
1.0
  0
POINT
  5
116
330
10D
100
AcDbEntity
  8
Defpoints
 62
     0
100
AcDbPoint
 10
164.4
 20
15.87500000000004
 30
0.0
  0
POINT
  5
117
330
10D
100
AcDbEntity
  8
Defpoints
 62
     0
100
AcDbPoint
 10
-51.49999999999997
 20
14.87499999999998
 30
0.0
  0
POINT
  5
118
330
10D
100
AcDbEntity
  8
Defpoints
 62
     0
100
AcDbPoint
 10
-51.49999999999997
 20
45.58996586444054
 30
0.0
  0
ENDBLK
  5
10F
330
10D
100
AcDbEntity
  8
0
100
AcDbBlockEnd
  0
BLOCK
  5
121
330
120
100
AcDbEntity
  8
0
100
AcDbBlockBegin
  2
_D_3
 70
     0
 10
0.0
 20
0.0
 30
0.0
  3
_D_3
  1
_D_3
  0
LINE
  5
123
330
120
100
AcDbEntity
  8
치수문자_일반주서
 62
     0
370
    -2
100
AcDbLine
 10
164.4625
 20
-15.87499999999999
 30
0.0
 11
188.2410220600218
 21
-15.87499999999991
 31
0.0
  0
LINE
  5
124
330
120
100
AcDbEntity
  8
치수문자_일반주서
 62
     0
370
    -2
100
AcDbLine
 10
164.4625
 20
15.87500000000004
 30
0.0
 11
188.2410220600217
 21
15.87500000000012
 31
0.0
  0
LINE
  5
125
330
120
100
AcDbEntity
  8
치수문자_일반주서
 62
     0
370
    -2
100
AcDbLine
 10
188.2410220600217
 20
15.87500000000012
 30
0.0
 11
188.2410220600216
 21
53.63903717995368
 31
0.0
  0
LINE
  5
126
330
120
100
AcDbEntity
  8
치수문자_일반주서
 62
     0
370
    -2
100
AcDbLine
 10
188.2410220600218
 20
-12.57299999999991
 30
0.0
 11
188.2410220600217
 21
12.57300000000012
 31
0.0
  0
SOLID
  5
127
330
120
100
AcDbEntity
  8
치수문자_일반주서
 62
     0
100
AcDbTrace
 10
187.6906887266885
 20
-12.57299999999991
 30
0.0
 11
188.7913553933552
 21
-12.57299999999991
 31
0.0
 12
188.2410220600218
 22
-15.87499999999991
 32
0.0
 13
188.2410220600218
 23
-15.87499999999991
 33
0.0
  0
SOLID
  5
128
330
120
100
AcDbEntity
  8
치수문자_일반주서
 62
     0
100
AcDbTrace
 10
188.791355393355
 20
12.57300000000013
 30
0.0
 11
187.6906887266884
 21
12.57300000000012
 31
0.0
 12
188.2410220600217
 22
15.87500000000012
 32
0.0
 13
188.2410220600217
 23
15.87500000000012
 33
0.0
  0
MTEXT
  5
129
330
120
100
AcDbEntity
  8
치수문자_일반주서
 62
     0
100
AcDbMText
 10
183.8660220600216
 20
37.88903717995366
 30
0.0
 40
3.5
 41
0.0
 71
     2
 72
     1
  1
\A1;%%c31.75 [1 1/4]
  7
SLDTEXTSTYLE0
 11
-3.580687802255619E-15
 21
1.0
 31
0.0
 73
     1
 44
1.0
  0
POINT
  5
12A
330
120
100
AcDbEntity
  8
Defpoints
 62
     0
100
AcDbPoint
 10
164.4
 20
-15.87499999999999
 30
0.0
  0
POINT
  5
12B
330
120
100
AcDbEntity
  8
Defpoints
 62
     0
100
AcDbPoint
 10
164.4
 20
15.87500000000004
 30
0.0
  0
POINT
  5
12C
330
120
100
AcDbEntity
  8
Defpoints
 62
     0
100
AcDbPoint
 10
188.2410220600217
 20
15.87500000000013
 30
0.0
  0
ENDBLK
  5
122
330
120
100
AcDbEntity
  8
0
100
AcDbBlockEnd
  0
BLOCK
  5
13A
330
139
100
AcDbEntity
  8
0
100
AcDbBlockBegin
  2
SW_DOWELSYMBOL_0
 70
     0
 10
0.0
 20
0.0
 30
0.0
  3
SW_DOWELSYMBOL_0
  1
SW_DOWELSYMBOL_0
  0
CIRCLE
  5
13C
330
139
100
AcDbEntity
  8
해칭선
 62
     0
100
AcDbCircle
 10
0.0
 20
0.0
 30
0.0
 40
2.999999999999996
  0
HATCH
  5
13D
330
139
100
AcDbEntity
  8
0
  6
Continuous
 62
     0
370
     0
100
AcDbHatch
 10
0.0
 20
0.0
 30
0.0
210
0.0
220
0.0
230
1.0
  2
SOLID
 70
     1
 71
     0
 91
        1
 92
        0
 93
        3
 72
     2
 10
0.0
 20
0.0
 40
2.999999999999996
 50
0.0
 51
90.0
 73
     1
 72
     1
 10
0.0
 20
2.999999999999996
 11
0.0
 21
0.0
 72
     1
 10
0.0
 20
0.0
 11
2.999999999999996
 21
0.0
 97
        0
 75
     0
 76
     1
 98
        1
 10
0.0
 20
0.0
  0
HATCH
  5
13E
330
139
100
AcDbEntity
  8
0
  6
Continuous
 62
     0
370
     0
100
AcDbHatch
 10
0.0
 20
0.0
 30
0.0
210
0.0
220
0.0
230
1.0
  2
SOLID
 70
     1
 71
     0
 91
        1
 92
        0
 93
        3
 72
     2
 10
0.0
 20
0.0
 40
2.999999999999996
 50
180.0
 51
270.0000000000007
 73
     1
 72
     1
 10
0.0
 20
-2.999999999999996
 11
0.0
 21
0.0
 72
     1
 10
0.0
 20
0.0
 11
-2.999999999999996
 21
0.0
 97
        0
 75
     0
 76
     1
 98
        1
 10
0.0
 20
0.0
  0
ENDBLK
  5
13B
330
139
100
AcDbEntity
  8
0
100
AcDbBlockEnd
  0
ENDSEC
  0
SECTION
  2
ENTITIES
  0
LINE
  5
96
330
1F
100
AcDbEntity
  8
외형선
  6
Continuous
370
    15
100
AcDbLine
 10
8.949989290722973
 20
15.875
 30
0.0
 11
-13.58732499999994
 21
15.875
 31
0.0
  0
LINE
  5
97
330
1F
100
AcDbEntity
  8
외형선
  6
Continuous
370
    15
100
AcDbLine
 10
-50.49999999999999
 20
-15.87500000000001
 30
0.0
 11
8.949989290722973
 21
-15.875
 31
0.0
  0
LINE
  5
99
330
1F
100
AcDbEntity
  8
외형선
  6
Continuous
370
    15
100
AcDbLine
 10
-51.49999999999997
 20
-14.875
 30
0.0
 11
-50.49999999999999
 21
-15.875
 31
0.0
  0
SPLINE
  5
9A
330
1F
100
AcDbEntity
  8
외형선
  6
Continuous
370
    15
100
AcDbSpline
210
0.0
220
0.0
230
1.0
 70
     8
 71
     3
 72
    13
 73
     9
 74
     0
 42
0.000000001
 43
0.00000001
 40
0.0
 40
0.0
 40
0.0
 40
0.0
 40
0.1081626921287972
 40
0.2230924520792819
 40
0.5031076346031595
 40
0.7818792109953576
 40
0.8946532489734894
 40
1.0
 40
1.0
 40
1.0
 40
1.0
 10
8.949989290722979
 20
-13.5120305773664
 30
0.0
 10
8.95133968713283
 20
-13.51030443902988
 30
0.0
 10
8.954124965868255
 20
-13.5067441686026
 30
0.0
 10
9.006045465488645
 20
-13.44448470299013
 30
0.0
 10
9.156155813618096
 20
-13.27642745493226
 30
0.0
 10
9.318673561044571
 20
-13.11575637738576
 30
0.0
 10
9.389745430804263
 20
-13.05896722490205
 30
0.0
 10
9.399903943010816
 20
-13.05541791255902
 30
0.0
 10
9.404810244061288
 20
-13.05370368566014
 30
0.0
  0
SPLINE
  5
9B
330
1F
100
AcDbEntity
  8
외형선
  6
Continuous
370
    15
100
AcDbSpline
210
0.0
220
0.0
230
1.0
 70
     8
 71
     3
 72
     9
 73
     5
 74
     0
 42
0.000000001
 43
0.00000001
 40
0.0
 40
0.0
 40
0.0
 40
0.0
 40
0.4998708756456379
 40
1.0
 40
1.0
 40
1.0
 40
1.0
 10
9.384579096714724
 20
-13.05198104304045
 30
0.0
 10
9.820217151904576
 20
-13.01447942057251
 30
0.0
 10
10.69171832633723
 20
-12.93945680114203
 30
0.0
 10
11.56383103478547
 20
-12.87203270643215
 30
0.0
 10
12.0
 20
-12.83831195298451
 30
0.0
  0
LINE
  5
9C
330
1F
100
AcDbEntity
  8
0
  6
Continuous
 62
     1
370
    15
100
AcDbLine
 10
114.49098971845
 20
4.470436125590838
 30
0.0
 11
114.320640377246
 21
4.564101105215039
 31
0.0
  0
SPLINE
  5
9D
330
1F
100
AcDbEntity
  8
0
  6
Continuous
 62
     1
370
    15
100
AcDbSpline
210
0.0
220
0.0
230
1.0
 70
     8
 71
     3
 72
    10
 73
     6
 74
     0
 42
0.000000001
 43
0.00000001
 40
0.0
 40
0.0
 40
0.0
 40
0.0
 40
0.4989489135778184
 40
0.6864629221975247
 40
1.0
 40
1.0
 40
1.0
 40
1.0
 10
123.2712949598062
 20
4.067957575865123
 30
0.0
 10
122.5389675215899
 20
4.417531753183412
 30
0.0
 10
121.5314182123059
 20
4.898482216760845
 30
0.0
 10
120.0640787650409
 20
5.643107410247968
 30
0.0
 10
119.3282272373544
 20
6.029130317321645
 30
0.0
 10
118.8677617400439
 20
6.27068751084645
 30
0.0
  0
SPLINE
  5
9E
330
1F
100
AcDbEntity
  8
0
  6
Continuous
 62
     1
370
    15
100
AcDbSpline
210
0.0
220
0.0
230
1.0
 70
     8
 71
     3
 72
     9
 73
     5
 74
     0
 42
0.000000001
 43
0.00000001
 40
0.0
 40
0.0
 40
0.0
 40
0.0
 40
0.5253317451753035
 40
1.0
 40
1.0
 40
1.0
 40
1.0
 10
36.8890270945212
 20
4.067991765967355
 30
0.0
 10
36.11814554626569
 20
4.436009630185644
 30
0.0
 10
34.65072699534936
 20
5.13655336773473
 30
0.0
 10
33.18263526060622
 20
5.905554779572094
 30
0.0
 10
32.48577871895314
 20
6.270575337686664
 30
0.0
  0
LINE
  5
9F
330
1F
100
AcDbEntity
  8
0
  6
Continuous
 62
     1
370
    15
100
AcDbLine
 10
79.14884342463013
 20
-15.87500000000002
 30
0.0
 11
86.84187955115162
 21
-15.87500000000002
 31
0.0
  0
LINE
  5
A0
330
1F
100
AcDbEntity
  8
0
  6
Continuous
 62
     1
370
    15
100
AcDbLine
 10
86.84187955115162
 20
15.87500000000001
 30
0.0
 11
79.14884342463014
 21
15.87500000000001
 31
0.0
  0
SPLINE
  5
A1
330
1F
100
AcDbEntity
  8
0
  6
Continuous
 62
     1
370
    15
100
AcDbSpline
210
0.0
220
0.0
230
1.0
 70
     8
 71
     3
 72
    30
 73
    26
 74
     0
 42
0.000000001
 43
0.00000001
 40
0.0
 40
0.0
 40
0.0
 40
0.0
 40
0.0726280833988574
 40
0.1307156393638685
 40
0.1748865519306289
 40
0.2003902810876574
 40
0.2257598832892003
 40
0.2555512714752894
 40
0.2933570427317571
 40
0.3392418784844907
 40
0.3922937567880397
 40
0.4356223176264132
 40
0.4675557466123576
 40
0.5162106730713296
 40
0.5685023410356859
 40
0.6086475142344197
 40
0.6486331677524588
 40
0.6936307021014297
 40
0.7392976315112866
 40
0.7888136872480537
 40
0.8271921099867958
 40
0.8485722934564323
 40
0.8813387802605133
 40
0.9318549701797746
 40
1.0
 40
1.0
 40
1.0
 40
1.0
 10
94.14814126390718
 20
-13.21020516140025
 30
0.0
 10
94.71565998398343
 20
-13.15445169316751
 30
0.0
 10
95.73707716689783
 20
-13.05410689669572
 30
0.0
 10
97.15547853915709
 20
-12.93479586432359
 30
0.0
 10
98.20321756708641
 20
-12.84779735342791
 30
0.0
 10
98.93723459766039
 20
-12.7962983082093
 30
0.0
 10
99.53087463831292
 20
-12.75584007864559
 30
0.0
 10
100.267459852919
 20
-12.70686608398171
 30
0.0
 10
101.1733863221373
 20
-12.65168658338728
 30
0.0
 10
102.2644863634454
 20
-12.59209906356883
 30
0.0
 10
103.3995454547516
 20
-12.53874119665315
 30
0.0
 10
104.4228650771642
 20
-12.49820593099125
 30
0.0
 10
105.4116892668694
 20
-12.46499971509992
 30
0.0
 10
106.471945810669
 20
-12.43616412450777
 30
0.0
 10
107.5975252488505
 20
-12.41455143604596
 30
0.0
 10
108.6544891363619
 20
-12.40203789876093
 30
0.0
 10
109.6500543033044
 20
-12.3966766925807
 30
0.0
 10
110.6884999010952
 20
-12.39807861665424
 30
0.0
 10
111.8080572224541
 20
-12.40773449317157
 30
0.0
 10
112.8761982814629
 20
-12.42516878387461
 30
0.0
 10
113.7495801183918
 20
-12.44553873179838
 30
0.0
 10
114.4863337409122
 20
-12.4661585960527
 30
0.0
 10
115.3208997094278
 20
-12.49317874027827
 30
0.0
 10
116.5296765364459
 20
-12.53950041311976
 30
0.0
 10
117.4782907114688
 20
-12.58739065930997
 30
0.0
 10
118.0230629747806
 20
-12.61489317666058
 30
0.0
  0
SPLINE
  5
A2
330
1F
100
AcDbEntity
  8
0
  6
Continuous
 62
     1
370
    15
100
AcDbSpline
210
0.0
220
0.0
230
1.0
 70
     8
 71
     3
 72
    20
 73
    16
 74
     0
 42
0.000000001
 43
0.00000001
 40
0.0
 40
0.0
 40
0.0
 40
0.0
 40
0.1138301314187769
 40
0.2032425124894151
 40
0.268282213444993
 40
0.3293534189687718
 40
0.4019556890482952
 40
0.4846901045268115
 40
0.5653890986932988
 40
0.6237086735126333
 40
0.6976896239083202
 40
0.7837356270211593
 40
0.871878807655555
 40
0.9540728196149881
 40
1.0
 40
1.0
 40
1.0
 40
1.0
 10
31.64073584748092
 20
12.61488611076981
 30
0.0
 10
31.15215194229109
 20
12.59005268312934
 30
0.0
 10
30.27979047512081
 20
12.54571285707042
 30
0.0
 10
29.12371532962403
 20
12.49965806238319
 30
0.0
 10
28.18487891601794
 20
12.46825834052029
 30
0.0
 10
27.31705221790567
 20
12.44401465856257
 30
0.0
 10
26.37713229610998
 20
12.42302270338191
 30
0.0
 10
25.35524817805696
 20
12.40709586367113
 30
0.0
 10
24.39551629593037
 20
12.39898049528851
 30
0.0
 10
23.47326299029115
 20
12.39673688033384
 30
0.0
 10
22.52764771716747
 20
12.39989297590779
 30
0.0
 10
21.45351157769653
 20
12.41087075916064
 30
0.0
 10
20.34276138935142
 20
12.43106149003287
 30
0.0
 10
19.40872271032709
 20
12.4535079305293
 30
0.0
 10
18.85573675105071
 20
12.47216989812418
 30
0.0
 10
18.6575097018223
 20
12.47885959197097
 30
0.0
  0
SPLINE
  5
A3
330
1F
100
AcDbEntity
  8
0
  6
Continuous
 62
     1
370
    15
100
AcDbSpline
210
0.0
220
0.0
230
1.0
 70
     8
 71
     3
 72
    26
 73
    22
 74
     0
 42
0.000000001
 43
0.00000001
 40
0.0
 40
0.0
 40
0.0
 40
0.0
 40
0.0616265693618854
 40
0.106314399520492
 40
0.1360321588760877
 40
0.1691055744138555
 40
0.210138025685139
 40
0.2568887012130944
 40
0.2994497984844258
 40
0.3642005313487821
 40
0.4213158927985615
 40
0.4820848008455245
 40
0.5399662923319418
 40
0.5893354082087945
 40
0.6287994801644491
 40
0.6843095495812103
 40
0.7488561947361513
 40
0.8020407573219118
 40
0.8485054790845592
 40
0.9130491826412865
 40
1.0
 40
1.0
 40
1.0
 40
1.0
 10
11.99999999999992
 20
-12.83831195298451
 30
0.0
 10
12.4010753498941
 20
-12.8090365374309
 30
0.0
 10
13.09298608625325
 20
-12.758532375711
 30
0.0
 10
13.97889969124693
 20
-12.70116996516269
 30
0.0
 10
14.68282839660873
 20
-12.65861206579904
 30
0.0
 10
15.36439103119017
 20
-12.62015601091578
 30
0.0
 10
16.15804228254332
 20
-12.57905330902631
 30
0.0
 10
17.01434944914869
 20
-12.53944257282187
 30
0.0
 10
18.02472570187328
 20
-12.49841114071478
 30
0.0
 10
19.09798077205067
 20
-12.46241852544536
 30
0.0
 10
20.29133001759281
 20
-12.43176364210238
 30
0.0
 10
21.44368427537886
 20
-12.41099615813882
 30
0.0
 10
22.54415762117549
 20
-12.39972821118846
 30
0.0
 10
23.50567204000082
 20
-12.39669906955777
 30
0.0
 10
24.45141748303805
 20
-12.399240030632
 30
0.0
 10
25.49607831810633
 20
-12.40855370590733
 30
0.0
 10
26.63143871970206
 20
-12.42769404895971
 30
0.0
 10
27.71226997296075
 20
-12.45419244467921
 30
0.0
 10
28.79912084231053
 20
-12.48779362217513
 30
0.0
 10
30.09197576413006
 20
-12.53675671513263
 30
0.0
 10
31.0759692803733
 20
-12.58639566151396
 30
0.0
 10
31.64073584748092
 20
-12.61488611076982
 30
0.0
  0
SPLINE
  5
A4
330
1F
100
AcDbEntity
  8
0
  6
Continuous
 62
     1
370
    15
100
AcDbSpline
210
0.0
220
0.0
230
1.0
 70
     8
 71
     3
 72
    21
 73
    17
 74
     0
 42
0.000000001
 43
0.00000001
 40
0.0
 40
0.0
 40
0.0
 40
0.0
 40
0.1249030429465573
 40
0.2259218321246412
 40
0.3051323377310394
 40
0.3630351728673339
 40
0.4118435295860552
 40
0.4717190939063746
 40
0.5276851223743173
 40
0.5949705552259786
 40
0.6739574930805793
 40
0.754987160374095
 40
0.8160559996679007
 40
0.8643134269480874
 40
0.9525946982321285
 40
0.9999999999999999
 40
0.9999999999999999
 40
0.9999999999999999
 40
0.9999999999999999
 10
118.0230629747806
 20
12.61489317666058
 30
0.0
 10
117.4981023382738
 20
12.58797275232694
 30
0.0
 10
116.5485652734028
 20
12.53927969054437
 30
0.0
 10
115.2147897436166
 20
12.48872679139049
 30
0.0
 10
114.1668835521138
 20
12.45640411957802
 30
0.0
 10
113.354641946247
 20
12.43583085907854
 30
0.0
 10
112.652148150258
 20
12.42168443174019
 30
0.0
 10
111.9414453329128
 20
12.41030199308356
 30
0.0
 10
111.1498474707694
 20
12.40173498786324
 30
0.0
 10
110.275366123614
 20
12.39691611298761
 30
0.0
 10
109.2927266719664
 20
12.39773362595313
 30
0.0
 10
108.33726253089
 20
12.40519890252273
 30
0.0
 10
107.5146313306397
 20
12.41664195997523
 30
0.0
 10
106.6602529857824
 20
12.43279646458196
 30
0.0
 10
105.8651207448103
 20
12.45125454648383
 30
0.0
 10
105.2785803858797
 20
12.47098584802826
 30
0.0
 10
105.0736586895856
 20
12.47787944319356
 30
0.0
  0
SPLINE
  5
A5
330
1F
100
AcDbEntity
  8
0
  6
Continuous
 62
     1
370
    15
100
AcDbSpline
210
0.0
220
0.0
230
1.0
 70
     8
 71
     3
 72
    17
 73
    13
 74
     0
 42
0.000000001
 43
0.00000001
 40
0.0
 40
0.0
 40
0.0
 40
0.0
 40
0.1717472425697531
 40
0.2965291327955606
 40
0.394470820244658
 40
0.4785794634409111
 40
0.5621961098476682
 40
0.6377540498969624
 40
0.7150503448734074
 40
0.8068201422725978
 40
0.9239192396350174
 40
1.0
 40
1.0
 40
1.0
 40
1.0
 10
130.767647847449
 20
-11.94015415010874
 30
0.0
 10
131.4467751211657
 20
-11.8362516086942
 30
0.0
 10
132.6193180890753
 20
-11.65685932244894
 30
0.0
 10
134.175916615477
 20
-11.44546166317483
 30
0.0
 10
135.3914572577185
 20
-11.29216772031491
 30
0.0
 10
136.4430976673182
 20
-11.16931918213122
 30
0.0
 10
137.4035876788454
 20
-11.06496252389188
 30
0.0
 10
138.3376484438336
 20
-10.9707869893571
 30
0.0
 10
139.3042649944341
 20
-10.8807054097621
 30
0.0
 10
140.4358636767297
 20
-10.78568497574883
 30
0.0
 10
141.5628679527009
 20
-10.70217887720492
 30
0.0
 10
142.326477114837
 20
-10.65579818292598
 30
0.0
 10
142.6272122243895
 20
-10.63753189715215
 30
0.0
  0
SPLINE
  5
A6
330
1F
100
AcDbEntity
  8
0
  6
Continuous
 62
     1
370
    15
100
AcDbSpline
210
0.0
220
0.0
230
1.0
 70
     8
 71
     3
 72
    32
 73
    28
 74
     0
 42
0.000000001
 43
0.00000001
 40
0.0
 40
0.0
 40
0.0
 40
0.0
 40
0.0530370390096245
 40
0.0962028504875842
 40
0.1295386094811243
 40
0.1681490359518379
 40
0.2025260118876789
 40
0.2420117383338277
 40
0.2761379940324278
 40
0.3069766895416655
 40
0.3430519003842425
 40
0.3821434369858655
 40
0.4176101145803705
 40
0.4445819895759803
 40
0.4665920794545297
 40
0.4993239532095053
 40
0.5591630273325384
 40
0.61187074845567
 40
0.6550451859672424
 40
0.6940835117661831
 40
0.753796776837364
 40
0.7852807973602772
 40
0.8102723044665516
 40
0.8448290388233146
 40
0.8893188369928453
 40
0.9410773469509505
 40
1.0
 40
1.0
 40
1.0
 40
1.0
 10
72.1194530892049
 20
10.85775268483989
 30
0.0
 10
71.62694952874544
 20
10.81722769315715
 30
0.0
 10
70.73360692749493
 20
10.74372020124838
 30
0.0
 10
69.53393275501968
 20
10.66324375287099
 30
0.0
 10
68.469128921807
 20
10.60110303834332
 30
0.0
 10
67.48968317240035
 20
10.55315546224008
 30
0.0
 10
66.452083962365
 20
10.51181081556103
 30
0.0
 10
65.45366350274044
 20
10.48138233342039
 30
0.0
 10
64.48844498238539
 20
10.46102722670486
 30
0.0
 10
63.55328313445038
 20
10.44917130726691
 30
0.0
 10
62.57262899118163
 20
10.44517695384573
 30
0.0
 10
61.54942569875867
 20
10.45088419754348
 30
0.0
 10
60.61100076499712
 20
10.46515566416739
 30
0.0
 10
59.83028827663017
 20
10.48328491554347
 30
0.0
 10
59.07437458534297
 20
10.50555212364854
 30
0.0
 10
58.01479404411644
 20
10.5441354312702
 30
0.0
 10
56.67163843102296
 20
10.60887802130057
 30
0.0
 10
55.23163080721214
 20
10.69882508336111
 30
0.0
 10
53.98344179449283
 20
10.79138440275998
 30
0.0
 10
52.67180805841022
 20
10.90184637630628
 30
0.0
 10
51.46658047620436
 20
11.01809065449809
 30
0.0
 10
50.39267568881908
 20
11.13286155729579
 30
0.0
 10
49.54871311638534
 20
11.22856759603738
 30
0.0
 10
48.57082082614585
 20
11.34603549137378
 30
0.0
 10
47.33883633804106
 20
11.50470246499235
 30
0.0
 10
45.90847041169259
 20
11.70485716683382
 30
0.0
 10
44.91465763385435
 20
11.85839499403896
 30
0.0
 10
44.385587610435
 20
11.94013298699562
 30
0.0
  0
SPLINE
  5
A7
330
1F
100
AcDbEntity
  8
0
  6
Continuous
 62
     1
370
    15
100
AcDbSpline
210
0.0
220
0.0
230
1.0
 70
     8
 71
     3
 72
    16
 73
    12
 74
     0
 42
0.000000001
 43
0.00000001
 40
0.0
 40
0.0
 40
0.0
 40
0.0
 40
0.172636458682438
 40
0.3182283329715391
 40
0.4312304778977059
 40
0.5081348590099343
 40
0.6100140508046777
 40
0.7242043611270319
 40
0.8122758752133569
 40
0.912622916890154
 40
1.0
 40
1.0
 40
1.0
 40
1.0
 10
44.385587610435
 20
-11.94013298699562
 30
0.0
 10
45.04815133736876
 20
-11.83819540568343
 30
0.0
 10
46.26948402641213
 20
-11.65028940473956
 30
0.0
 10
47.98805631112246
 20
-11.418395488167
 30
0.0
 10
49.34111367194765
 20
-11.25222630662012
 30
0.0
 10
50.49730677521023
 20
-11.12067838366858
 30
0.0
 10
51.65391924056559
 20
-10.99931642591932
 30
0.0
 10
52.85585520155604
 20
-10.8858821424522
 30
0.0
 10
54.050454069753
 20
-10.78645084388651
 30
0.0
 10
55.14037664405485
 20
-10.70476211458454
 30
0.0
 10
55.88184902623816
 20
-10.66051932404986
 30
0.0
 10
56.22697085879598
 20
-10.63992630762241
 30
0.0
  0
SPLINE
  5
A8
330
1F
100
AcDbEntity
  8
0
  6
Continuous
 62
     1
370
    15
100
AcDbSpline
210
0.0
220
0.0
230
1.0
 70
     8
 71
     3
 72
    33
 73
    29
 74
     0
 42
0.000000001
 43
0.00000001
 40
0.0
 40
0.0
 40
0.0
 40
0.0
 40
0.0541319902206321
 40
0.1013049013549165
 40
0.1432411057833132
 40
0.1802559385336129
 40
0.2134385265254366
 40
0.2480720389106957
 40
0.2870660549943204
 40
0.3264019630124477
 40
0.3605231988895559
 40
0.3953207284904308
 40
0.4342420274069659
 40
0.484283911188796
 40
0.5262232578057923
 40
0.5543272018339679
 40
0.5755738956636809
 40
0.6043731974074799
 40
0.6409715664671684
 40
0.6773993653813422
 40
0.7090985674677619
 40
0.7580399999598738
 40
0.8127883281523838
 40
0.8309626985012442
 40
0.8490957962908116
 40
0.8734741664067454
 40
0.9267172745267399
 40
1.0
 40
1.0
 40
1.0
 40
1.0
 10
158.5015879606448
 20
10.85774753947943
 30
0.0
 10
158.0249670293364
 20
10.81786872325344
 30
0.0
 10
157.1329984127552
 20
10.74323781595707
 30
0.0
 10
155.7792905460625
 20
10.65364420390378
 30
0.0
 10
154.5739381216686
 20
10.58610668177114
 30
0.0
 10
153.4997640753558
 20
10.53457626286919
 30
0.0
 10
152.5693435842909
 20
10.5028514801973
 30
0.0
 10
151.6279386509707
 20
10.47633420771325
 30
0.0
 10
150.5780457817711
 20
10.45584019714709
 30
0.0
 10
149.5370605837314
 20
10.44635309402503
 30
0.0
 10
148.5343635476171
 20
10.44659953563621
 30
0.0
 10
147.5354171038468
 20
10.45572810895388
 30
0.0
 10
146.3891069858093
 20
10.47715027874914
 30
0.0
 10
145.1764633033632
 20
10.51359401441418
 30
0.0
 10
144.0640574557655
 20
10.56004361037363
 30
0.0
 10
143.218345644429
 20
10.6029010127691
 30
0.0
 10
142.4943587825818
 20
10.64418868173902
 30
0.0
 10
141.6916588090938
 20
10.69493120099346
 30
0.0
 10
140.7479082280409
 20
10.76218346004762
 30
0.0
 10
139.7772735874734
 20
10.84004939349399
 30
0.0
 10
138.6926361946168
 20
10.93615956876874
 30
0.0
 10
137.4393589174321
 20
11.05961422754555
 30
0.0
 10
136.3115493954463
 20
11.18403145910908
 30
0.0
 10
135.4667086846894
 20
11.28437364141984
 30
0.0
 10
134.9025655902867
 20
11.35371580744569
 30
0.0
 10
134.0153856486023
 20
11.46733439821379
 30
0.0
 10
132.6190867901776
 20
11.65685761103359
 30
0.0
 10
131.4466902888957
 20
11.83625098100747
 30
0.0
 10
130.767647847449
 20
11.94015415010873
 30
0.0
  0
SPLINE
  5
A9
330
1F
100
AcDbEntity
  8
외형선
  6
Continuous
370
    15
100
AcDbSpline
210
0.0
220
0.0
230
1.0
 70
     8
 71
     3
 72
     8
 73
     4
 74
     0
 42
0.000000001
 43
0.00000001
 40
0.0
 40
0.0
 40
0.0
 40
0.0
 40
1.0
 40
1.0
 40
1.0
 40
1.0
 10
11.99999999999994
 20
-14.4974910202066
 30
0.0
 10
10.98305291101786
 20
-14.73660888596729
 30
0.0
 10
9.96325596721663
 20
-14.94613789481474
 30
0.0
 10
8.949978089937545
 20
-15.12426156827756
 30
0.0
  0
LINE
  5
AA
330
1F
100
AcDbEntity
  8
외형선
  6
Continuous
370
    15
100
AcDbLine
 10
8.949989290722975
 20
15.12446830350279
 30
0.0
 11
8.949989290722973
 21
15.875
 31
0.0
  0
SPLINE
  5
AB
330
1F
100
AcDbEntity
  8
외형선
  6
Continuous
370
    15
100
AcDbSpline
210
0.0
220
0.0
230
1.0
 70
     8
 71
     3
 72
     8
 73
     4
 74
     0
 42
0.000000001
 43
0.00000001
 40
0.0
 40
0.0
 40
0.0
 40
0.0
 40
1.0
 40
1.0
 40
1.0
 40
1.0
 10
11.99999999999994
 20
14.49749102020659
 30
0.0
 10
10.98305291101786
 20
14.73660888596728
 30
0.0
 10
9.96325596721663
 20
14.94613789481474
 30
0.0
 10
8.949978089937545
 20
15.12426156827756
 30
0.0
  0
LINE
  5
AC
330
1F
100
AcDbEntity
  8
외형선
  6
Continuous
370
    15
100
AcDbLine
 10
12.0
 20
14.49749102020657
 30
0.0
 11
12.0
 21
12.14721246985895
 31
0.0
  0
SPLINE
  5
AD
330
1F
100
AcDbEntity
  8
외형선
  6
Continuous
370
    15
100
AcDbSpline
210
0.0
220
0.0
230
1.0
 70
     8
 71
     3
 72
     8
 73
     4
 74
     0
 42
0.000000001
 43
0.00000001
 40
0.0
 40
0.0
 40
0.0
 40
0.0
 40
1.0
 40
1.0
 40
1.0
 40
1.0
 10
11.99999999999994
 20
12.14721246985896
 30
0.0
 10
10.98305665813275
 20
12.52504538276601
 30
0.0
 10
9.96326348234335
 20
12.87825065803615
 30
0.0
 10
8.949989290722979
 20
13.20367548755876
 30
0.0
  0
LINE
  5
AE
330
1F
100
AcDbEntity
  8
외형선
  6
Continuous
370
    15
100
AcDbLine
 10
-50.49999999999999
 20
13.48739999999998
 30
0.0
 11
-50.49999999999999
 21
-15.87499999999997
 31
0.0
  0
LINE
  5
AF
330
1F
100
AcDbEntity
  8
외형선
  6
Continuous
370
    15
100
AcDbLine
 10
8.949989290722973
 20
-15.875
 30
0.0
 11
8.949989290722979
 21
13.20367860198137
 31
0.0
  0
LINE
  5
B0
330
1F
100
AcDbEntity
  8
외형선
  6
Continuous
370
    15
100
AcDbLine
 10
-51.49999999999997
 20
13.48739999999998
 30
0.0
 11
-51.49999999999997
 21
-14.87500000000001
 31
0.0
  0
SPLINE
  5
B1
330
1F
100
AcDbEntity
  8
외형선
  6
Continuous
370
    15
100
AcDbSpline
210
0.0
220
0.0
230
1.0
 70
     8
 71
     3
 72
    12
 73
     8
 74
     0
 42
0.000000001
 43
0.00000001
 40
0.0
 40
0.0
 40
0.0
 40
0.0
 40
0.5000000000000001
 40
0.5000000000000001
 40
0.75
 40
0.75
 40
1.0
 40
1.0
 40
1.0
 40
1.0
 10
8.949989290722979
 20
9.481175443373887
 30
0.0
 10
8.949989290719055
 20
9.356231982786559
 30
0.0
 10
8.988425841856357
 20
9.232240049940957
 30
0.0
 10
9.085660621448575
 20
9.069195524653402
 30
0.0
 10
9.124044120781448
 20
9.020208800315253
 30
0.0
 10
9.217315448336219
 20
8.936847082032198
 30
0.0
 10
9.270868561699956
 20
8.904083624062128
 30
0.0
 10
9.330021765548581
 20
8.889724916600997
 30
0.0
  0
SPLINE
  5
B2
330
1F
100
AcDbEntity
  8
외형선
  6
Continuous
370
    15
100
AcDbSpline
210
0.0
220
0.0
230
1.0
 70
     8
 71
     3
 72
     8
 73
     4
 74
     0
 42
0.000000001
 43
0.00000001
 40
0.0
 40
0.0
 40
0.0
 40
0.0
 40
1.0
 40
1.0
 40
1.0
 40
1.0
 10
12.0
 20
8.201776405870078
 30
0.0
 10
11.11009702250422
 20
8.444330498518244
 30
0.0
 10
10.21800952883048
 20
8.674176887204988
 30
0.0
 10
9.330021765548581
 20
8.889724916600997
 30
0.0
  0
SPLINE
  5
B3
330
1F
100
AcDbEntity
  8
외형선
  6
Continuous
370
    15
100
AcDbSpline
210
0.0
220
0.0
230
1.0
 70
    24
 71
     3
 72
    14
 73
    10
 74
     0
 42
0.000000001
 43
0.00000001
 40
0.0
 40
0.0
 40
0.0
 40
0.0
 40
0.25
 40
0.25
 40
0.5
 40
0.5
 40
0.75
 40
0.75
 40
1.0
 40
1.0
 40
1.0
 40
1.0
 10
12.0
 20
8.201776405870074
 30
0.0
 10
12.0
 20
7.053704103006054
 30
0.0
 10
12.0
 20
5.769217716053733
 30
0.0
 10
12.0
 20
3.016025938612614
 30
0.0
 10
12.0
 20
1.548300757274259
 30
0.0
 10
12.0
 20
-1.43235501979959
 30
0.0
 10
12.0
 20
-2.943697397521142
 30
0.0
 10
12.0
 20
-5.863084786180244
 30
0.0
 10
12.0
 20
-7.269916157263895
 30
0.0
 10
12.0
 20
-8.569029762475338
 30
0.0
  0
SPLINE
  5
B4
330
1F
100
AcDbEntity
  8
외형선
  6
Continuous
370
    15
100
AcDbSpline
210
0.0
220
0.0
230
1.0
 70
     8
 71
     3
 72
     8
 73
     4
 74
     0
 42
0.000000001
 43
0.00000001
 40
0.0
 40
0.0
 40
0.0
 40
0.0
 40
1.0
 40
1.0
 40
1.0
 40
1.0
 10
12.0
 20
-8.569029762475342
 30
0.0
 10
11.15911397548599
 20
-8.282504281731093
 30
0.0
 10
10.31627690209211
 20
-7.983722899002957
 30
0.0
 10
9.476792363902156
 20
-7.674584933713787
 30
0.0
  0
SPLINE
  5
B5
330
1F
100
AcDbEntity
  8
외형선
  6
Continuous
370
    15
100
AcDbSpline
210
0.0
220
0.0
230
1.0
 70
     8
 71
     3
 72
    16
 73
    12
 74
     0
 42
0.000000001
 43
0.00000001
 40
0.0
 40
0.0
 40
0.0
 40
0.0
 40
0.1886978596452987
 40
0.366345856545362
 40
0.5293439026479158
 40
0.6677521456862099
 40
0.7816417603151778
 40
0.871137094458613
 40
0.9364960364227264
 40
0.9784173111691334
 40
1.0
 40
1.0
 40
1.0
 40
1.0
 10
9.240254757500969
 20
-7.998875475289667
 30
0.0
 10
9.253691594414846
 20
-7.977322966678208
 30
0.0
 10
9.279778427290047
 20
-7.93548003193158
 30
0.0
 10
9.318354169177296
 20
-7.875560483391493
 30
0.0
 10
9.353936971365652
 20
-7.821776453547858
 30
0.0
 10
9.38558991699662
 20
-7.77560338080154
 30
0.0
 10
9.412630435862255
 20
-7.738408037360593
 30
0.0
 10
9.434827168584796
 20
-7.709383587559076
 30
0.0
 10
9.452692242434352
 20
-7.690302370365646
 30
0.0
 10
9.465181270547369
 20
-7.676643836757322
 30
0.0
 10
9.473832275104952
 20
-7.675141778450569
 30
0.0
 10
9.476772437087337
 20
-7.674631283432396
 30
0.0
  0
SPLINE
  5
B6
330
1F
100
AcDbEntity
  8
외형선
  6
Continuous
370
    15
100
AcDbSpline
210
0.0
220
0.0
230
1.0
 70
     8
 71
     3
 72
    18
 73
    14
 74
     0
 42
0.000000001
 43
0.00000001
 40
0.0
 40
0.0
 40
0.0
 40
0.0
 40
0.2499999999999948
 40
0.2499999999999948
 40
0.3749999999999955
 40
0.3749999999999955
 40
0.4999999999999962
 40
0.4999999999999962
 40
0.6249999999999962
 40
0.6249999999999962
 40
0.7499999999999963
 40
0.7499999999999963
 40
1.0
 40
1.0
 40
1.0
 40
1.0
 10
9.240254157275187
 20
-7.99892075056123
 30
0.0
 10
9.21156162861457
 20
-8.045231588430614
 30
0.0
 10
9.18119544922182
 20
-8.090586119380967
 30
0.0
 10
9.129691374321139
 20
-8.155211165884264
 30
0.0
 10
9.111722049903573
 20
-8.175838513616789
 30
0.0
 10
9.074448763861387
 20
-8.212017675704166
 30
0.0
 10
9.05448393822354
 20
-8.227925159901833
 30
0.0
 10
9.017968493588231
 20
-8.245712254443212
 30
0.0
 10
9.002254896533925
 20
-8.24700469147944
 30
0.0
 10
8.978600288296619
 20
-8.237269618830808
 30
0.0
 10
8.970490326084967
 20
-8.226872308860052
 30
0.0
 10
8.953184910950444
 20
-8.189041768591595
 30
0.0
 10
8.949989290722963
 20
-8.153829498408697
 30
0.0
 10
8.949989290722963
 20
-8.11770907676156
 30
0.0
  0
LINE
  5
B7
330
1F
100
AcDbEntity
  8
외형선
  6
Continuous
370
    15
100
AcDbLine
 10
9.406452171833713
 20
-13.02994065801298
 30
0.0
 11
9.404542412429063
 21
-13.02791113941641
 31
0.0
  0
SPLINE
  5
B8
330
1F
100
AcDbEntity
  8
외형선
  6
Continuous
370
    15
100
AcDbSpline
210
0.0
220
0.0
230
1.0
 70
    24
 71
     3
 72
    14
 73
    10
 74
     0
 42
0.000000001
 43
0.00000001
 40
0.0
 40
0.0
 40
0.0
 40
0.0
 40
0.25
 40
0.25
 40
0.5
 40
0.5
 40
0.7499999999999999
 40
0.7499999999999999
 40
1.0
 40
1.0
 40
1.0
 40
1.0
 10
12.0
 20
12.14721246985894
 30
0.0
 10
12.0
 20
11.92244490801133
 30
0.0
 10
12.0
 20
11.6613021219741
 30
0.0
 10
12.0
 20
11.07821719680437
 30
0.0
 10
12.0
 20
10.75636990491693
 30
0.0
 10
12.0
 20
10.07120395626785
 30
0.0
 10
12.0
 20
9.70802918073321
 30
0.0
 10
12.0
 20
8.963141907742981
 30
0.0
 10
12.0
 20
8.581566065555247
 30
0.0
 10
12.0
 20
8.201776405870078
 30
0.0
  0
SPLINE
  5
B9
330
1F
100
AcDbEntity
  8
외형선
  6
Continuous
370
    15
100
AcDbSpline
210
0.0
220
0.0
230
1.0
 70
    24
 71
     3
 72
    13
 73
     9
 74
     0
 42
0.000000001
 43
0.00000001
 40
0.0
 40
0.0
 40
0.0
 40
0.0
 40
0.1568766912034193
 40
0.3157887348223811
 40
0.5471176499679701
 40
0.7851551193241152
 40
0.9943221759445457
 40
1.0
 40
1.0
 40
1.0
 40
1.0
 10
12.0
 20
-8.569029762475342
 30
0.0
 10
12.0
 20
-8.982683616573453
 30
0.0
 10
12.0
 20
-9.81535816011455
 30
0.0
 10
12.0
 20
-10.98979885017141
 30
0.0
 10
12.0
 20
-12.04313341358846
 30
0.0
 10
12.0
 20
-12.66378457124226
 30
0.0
 10
12.00000000000001
 20
-12.905614046102
 30
0.0
 10
12.0
 20
-12.83485806957772
 30
0.0
 10
12.0
 20
-12.83298816239487
 30
0.0
  0
SPLINE
  5
BA
330
1F
100
AcDbEntity
  8
외형선
  6
Continuous
370
    15
100
AcDbSpline
210
0.0
220
0.0
230
1.0
 70
    24
 71
     3
 72
    12
 73
     8
 74
     0
 42
0.000000001
 43
0.00000001
 40
0.0
 40
0.0
 40
0.0
 40
0.0
 40
0.0417549174898524
 40
0.3007785188257759
 40
0.5595016511412687
 40
0.8185252524771932
 40
1.0
 40
1.0
 40
1.0
 40
1.0
 10
12.0
 20
-12.98351303343978
 30
0.0
 10
12.0
 20
-13.00611146631061
 30
0.0
 10
12.0
 20
-13.1688976379831
 30
0.0
 10
12.0
 20
-13.46042022220098
 30
0.0
 10
12.0
 20
-13.85665885390934
 30
0.0
 10
12.0
 20
-14.20156557530024
 30
0.0
 10
12.0
 20
-14.41114806466618
 30
0.0
 10
12.0
 20
-14.49749102018787
 30
0.0
  0
SPLINE
  5
BB
330
1F
100
AcDbEntity
  8
0
  6
Continuous
 62
     1
370
    15
100
AcDbSpline
210
0.0
220
0.0
230
1.0
 70
     8
 71
     3
 72
    30
 73
    26
 74
     0
 42
0.000000001
 43
0.00000001
 40
0.0
 40
0.0
 40
0.0
 40
0.0
 40
0.0120186283152588
 40
0.0569302080543132
 40
0.1018440766456421
 40
0.1467578394858151
 40
0.1916691021684126
 40
0.2365754749429045
 40
0.281474589076045
 40
0.3263742827695877
 40
0.3712810792468504
 40
0.4161925970656999
 40
0.4611064460006414
 40
0.506020231484865
 40
0.5509315590697665
 40
0.5958380388839963
 40
0.6407372930543954
 40
0.6856368399853954
 40
0.730543531651072
 40
0.7754549868041366
 40
0.8203688153357569
 40
0.8652826227171341
 40
0.9101940144588703
 40
0.9551006005701822
 40
0.9999999999999999
 40
0.9999999999999999
 40
0.9999999999999999
 40
0.9999999999999999
 10
56.22687237301976
 20
10.63988273349269
 30
0.0
 10
56.66023308467012
 20
10.83441729889014
 30
0.0
 10
58.71298942505042
 20
11.75589460822432
 30
0.0
 10
62.38533607524934
 20
13.06746233183038
 30
0.0
 10
67.24384619360941
 20
14.48961901035597
 30
0.0
 10
72.10235331157857
 20
15.43551109811841
 30
0.0
 10
76.96052908520713
 20
15.90756878498061
 30
0.0
 10
81.81808808313723
 20
15.88260083789382
 30
0.0
 10
86.67501094835957
 20
15.36367637194899
 30
0.0
 10
91.53197205279288
 20
14.3663293629914
 30
0.0
 10
96.38958271299077
 20
12.92183503689989
 30
0.0
 10
101.2477929185192
 20
11.07498315015025
 30
0.0
 10
106.106308758177
 20
8.883293740978255
 30
0.0
 10
110.9648165558984
 20
6.415036026945263
 30
0.0
 10
115.8230015105145
 20
3.74710843122876
 30
0.0
 10
120.6805732877445
 20
0.9626742275839617
 30
0.0
 10
125.5375053699844
 20
-1.851848977948397
 30
0.0
 10
130.3944566864786
 20
-4.608718376593173
 30
0.0
 10
135.2520544448541
 20
-7.221972371160283
 30
0.0
 10
140.1102563305455
 20
-9.6107120764817
 30
0.0
 10
144.9687695861679
 20
-11.69959922907306
 30
0.0
 10
149.8272801622028
 20
-13.42678159850842
 30
0.0
 10
154.6854736277465
 20
-14.72641066419731
 30
0.0
 10
159.5430584009497
 20
-15.60300321634184
 30
0.0
 10
162.7811058413879
 20
-15.77539413179482
 30
0.0
 10
164.4
 20
-15.87499999999998
 30
0.0
  0
SPLINE
  5
BC
330
1F
100
AcDbEntity
  8
0
  6
Continuous
 62
     1
370
    15
100
AcDbSpline
210
0.0
220
0.0
230
1.0
 70
     8
 71
     3
 72
    18
 73
    14
 74
     0
 42
0.000000001
 43
0.00000001
 40
0.0
 40
0.0
 40
0.0
 40
0.0
 40
0.0581985975992164
 40
0.1576756403425294
 40
0.25920864951109
 40
0.3607726249470855
 40
0.4623286211186379
 40
0.5638392983884506
 40
0.6653653469928102
 40
0.7669274724505828
 40
0.86848674245536
 40
0.9700042496531136
 40
1.0
 40
1.0
 40
1.0
 40
1.0
 10
124.9377609445927
 20
-1.496508838923929
 30
0.0
 10
123.9128407384996
 20
-1.086721728732599
 30
0.0
 10
121.1360564780158
 20
0.023501673014845
 30
0.0
 10
116.5715599320698
 20
1.878662335502174
 30
0.0
 10
111.2430465899384
 20
3.965069800212806
 30
0.0
 10
105.8777648802455
 20
5.917388615878959
 30
0.0
 10
100.5128779354108
 20
7.644327998188139
 30
0.0
 10
95.14907046989117
 20
9.082487583684864
 30
0.0
 10
89.78498924583955
 20
10.17349264800609
 30
0.0
 10
84.41980130130153
 20
10.88654502449934
 30
0.0
 10
79.05475390705826
 20
11.15623999684456
 30
0.0
 10
74.95036771370172
 20
11.12541754034088
 30
0.0
 10
72.63438647654223
 20
10.87177808444071
 30
0.0
 10
72.10615383829031
 20
10.81392759895091
 30
0.0
  0
SPLINE
  5
BD
330
1F
100
AcDbEntity
  8
0
  6
Continuous
 62
     1
370
    15
100
AcDbSpline
210
0.0
220
0.0
230
1.0
 70
     8
 71
     3
 72
    21
 73
    17
 74
     0
 42
0.000000001
 43
0.00000001
 40
0.0
 40
0.0
 40
0.0
 40
0.0
 40
0.076188880347141
 40
0.1523577556453059
 40
0.2285446767924822
 40
0.3047472696315549
 40
0.3809530507004453
 40
0.4571495234857315
 40
0.5333242727733664
 40
0.6056567024356537
 40
0.6780005069022786
 40
0.7503518494225789
 40
0.8227068792221033
 40
0.8950617386593702
 40
0.9674125704102776
 40
1.0
 40
1.0
 40
1.0
 40
1.0
 10
11.99999999999994
 20
12.14721246985898
 30
0.0
 10
13.70537716516512
 20
11.47276581552702
 30
0.0
 10
17.11568371159897
 20
10.12404959751322
 30
0.0
 10
22.23081006285873
 20
7.638387617110864
 30
0.0
 10
27.34668649737782
 20
4.919601145417286
 30
0.0
 10
32.46358306865324
 20
2.022807537864056
 30
0.0
 10
37.5807359097205
 20
-0.9417264757719037
 30
0.0
 10
42.69715829334987
 20
-3.8741005424754
 30
0.0
 10
47.72652340158284
 20
-6.625952538210726
 30
0.0
 10
52.66947850538759
 20
-9.113198069370336
 30
0.0
 10
57.52711373416778
 20
-11.27401701925088
 30
0.0
 10
62.38532855562235
 20
-13.08192067976679
 30
0.0
 10
67.24384954629714
 20
-14.4901277126315
 30
0.0
 10
72.10234742080645
 20
-15.41901810461325
 30
0.0
 10
76.0707010112602
 20
-15.87155071314232
 30
0.0
 10
78.4194615288967
 20
-15.82741785287173
 30
0.0
 10
79.14884342463014
 20
-15.81371287569479
 30
0.0
  0
SPLINE
  5
BE
330
1F
100
AcDbEntity
  8
0
  6
Continuous
 62
     1
370
    15
100
AcDbSpline
210
0.0
220
0.0
230
1.0
 70
     8
 71
     3
 72
    12
 73
     8
 74
     0
 42
0.000000001
 43
0.00000001
 40
0.0
 40
0.0
 40
0.0
 40
0.0
 40
0.1075764349522983
 40
0.3307121904619763
 40
0.5538359448609105
 40
0.7769358244641427
 40
1.0
 40
1.0
 40
1.0
 40
1.0
 10
142.6263864417708
 20
10.63717860476272
 30
0.0
 10
143.4071808002424
 20
10.97912548958765
 30
0.0
 10
145.8075040002533
 20
12.03034087288462
 30
0.0
 10
149.8272810625863
 20
13.41561235282354
 30
0.0
 10
154.6854733876771
 20
14.72938872208716
 30
0.0
 10
159.5430584609532
 20
15.60225887406541
 30
0.0
 10
162.781105861388
 20
15.77514603093984
 30
0.0
 10
164.4
 20
15.87500000000002
 30
0.0
  0
SPLINE
  5
BF
330
1F
100
AcDbEntity
  8
0
  6
Continuous
 62
     1
370
    15
100
AcDbSpline
210
0.0
220
0.0
230
1.0
 70
    24
 71
     3
 72
    14
 73
    10
 74
     0
 42
0.000000001
 43
0.00000001
 40
0.0
 40
0.0
 40
0.0
 40
0.0
 40
0.25
 40
0.25
 40
0.5
 40
0.5
 40
0.75
 40
0.75
 40
1.0
 40
1.0
 40
1.0
 40
1.0
 10
164.4
 20
11.1125
 30
0.0
 10
164.4
 20
11.44930603840805
 30
0.0
 10
164.4
 20
11.81258118427563
 30
0.0
 10
164.4
 20
12.57771108481404
 30
0.0
 10
164.4
 20
12.97948956501251
 30
0.0
 10
164.4
 20
13.80064530850656
 30
0.0
 10
164.4
 20
14.21988443375765
 30
0.0
 10
164.4
 20
15.05166832183919
 30
0.0
 10
164.4
 20
15.4640617425595
 30
0.0
 10
164.4
 20
15.87500000000004
 30
0.0
  0
SPLINE
  5
C0
330
1F
100
AcDbEntity
  8
0
  6
Continuous
 62
     1
370
    15
100
AcDbSpline
210
0.0
220
0.0
230
1.0
 70
     8
 71
     3
 72
     9
 73
     5
 74
     0
 42
0.000000001
 43
0.00000001
 40
0.0
 40
0.0
 40
0.0
 40
0.0
 40
0.9066007256710427
 40
1.0
 40
1.0
 40
1.0
 40
1.0
 10
164.4
 20
11.11249999999999
 30
0.0
 10
162.61618320781
 20
11.10474860629587
 30
0.0
 10
160.6485951156323
 20
11.09619865317467
 30
0.0
 10
158.6808838884755
 20
10.86059715633368
 30
0.0
 10
158.4971010877701
 20
10.83859214749793
 30
0.0
  0
SPLINE
  5
C1
330
1F
100
AcDbEntity
  8
0
  6
Continuous
 62
     1
370
    15
100
AcDbSpline
210
0.0
220
0.0
230
1.0
 70
     8
 71
     3
 72
    12
 73
     8
 74
     0
 42
0.000000001
 43
0.00000001
 40
0.0
 40
0.0
 40
0.0
 40
0.0
 40
0.1116207848042019
 40
0.3336500812073707
 40
0.5558207200881193
 40
0.7779526659267378
 40
1.0
 40
1.0
 40
1.0
 40
1.0
 10
38.56698548662024
 20
-1.498436521642537
 30
0.0
 10
37.57846434952333
 20
-1.104410903870157
 30
0.0
 10
34.6236369108332
 20
0.0733865789028746
 30
0.0
 10
29.70192362201754
 20
2.079318370368009
 30
0.0
 10
23.8007194478682
 20
4.365669285028486
 30
0.0
 10
17.89968049034476
 20
6.483249876772324
 30
0.0
 10
13.96631040739881
 20
7.629006981307832
 30
0.0
 10
11.99999999999992
 20
8.201776405870095
 30
0.0
  0
SPLINE
  5
C2
330
1F
100
AcDbEntity
  8
외형선
  6
Continuous
370
    15
100
AcDbSpline
210
0.0
220
0.0
230
1.0
 70
    24
 71
     3
 72
    14
 73
    10
 74
     0
 42
0.000000001
 43
0.00000001
 40
0.0
 40
0.0
 40
0.0
 40
0.0
 40
0.25
 40
0.25
 40
0.5
 40
0.5
 40
0.75
 40
0.75
 40
1.0
 40
1.0
 40
1.0
 40
1.0
 10
12.0
 20
12.14721246985895
 30
0.0
 10
12.0
 20
11.92244490801133
 30
0.0
 10
12.0
 20
11.66130212197411
 30
0.0
 10
12.0
 20
11.07821719680438
 30
0.0
 10
12.0
 20
10.75636990491693
 30
0.0
 10
12.0
 20
10.07120395626785
 30
0.0
 10
12.0
 20
9.70802918073321
 30
0.0
 10
12.0
 20
8.963141907742985
 30
0.0
 10
12.0
 20
8.581566065555243
 30
0.0
 10
12.0
 20
8.201776405870078
 30
0.0
  0
SPLINE
  5
C3
330
1F
100
AcDbEntity
  8
0
  6
Continuous
 62
     1
370
    15
100
AcDbSpline
210
0.0
220
0.0
230
1.0
 70
     8
 71
     3
 72
    23
 73
    19
 74
     0
 42
0.000000001
 43
0.00000001
 40
0.0
 40
0.0
 40
0.0
 40
0.0
 40
0.0626227239551519
 40
0.1252554714303087
 40
0.1878949214860567
 40
0.2505377407144345
 40
0.3131805894331065
 40
0.3758201279047976
 40
0.4384530225569488
 40
0.5010759521765524
 40
0.5636984735920687
 40
0.6263310728549493
 40
0.6889704334555841
 40
0.751613222152541
 40
0.8142560993203637
 40
0.8768957251687763
 40
0.9395287659625541
 40
1.0
 40
1.0
 40
1.0
 40
1.0
 10
164.4
 20
-15.06443629905642
 30
0.0
 10
162.7811057245093
 20
-14.7241786220816
 30
0.0
 10
159.5430580500319
 20
-14.04360880579916
 30
0.0
 10
154.6854729252744
 20
-12.45999141328108
 30
0.0
 10
149.8272791077853
 20
-10.52207530115382
 30
0.0
 10
144.9687681800055
 20
-8.247505003524472
 30
0.0
 10
140.1102545734206
 20
-5.718577915407418
 30
0.0
 10
135.2520523382735
 20
-3.011015336368788
 30
0.0
 10
130.3944542321053
 20
-0.210030843303447
 30
0.0
 10
125.537502567777
 20
2.597636389187313
 30
0.0
 10
120.680570131078
 20
5.324451112957665
 30
0.0
 10
115.8229980014065
 20
7.885347939038335
 30
0.0
 10
110.9648126813535
 20
10.20109684848952
 30
0.0
 10
106.1063045719617
 20
12.19855197405817
 30
0.0
 10
101.2477882293564
 20
13.81899531272103
 30
0.0
 10
96.3895782466839
 20
14.99883466766522
 30
0.0
 10
91.58759753932928
 20
15.74169929461866
 30
0.0
 10
88.40515683638098
 20
15.8255905290215
 30
0.0
 10
86.84187955115164
 20
15.86679954858008
 30
0.0
  0
SPLINE
  5
C4
330
1F
100
AcDbEntity
  8
0
  6
Continuous
 62
     1
370
    15
100
AcDbSpline
210
0.0
220
0.0
230
1.0
 70
     8
 71
     3
 72
     9
 73
     5
 74
     0
 42
0.000000001
 43
0.00000001
 40
0.0
 40
0.0
 40
0.0
 40
0.0
 40
0.2315083076060439
 40
1.0
 40
1.0
 40
1.0
 40
1.0
 10
18.65717349621135
 20
-12.47898430407399
 30
0.0
 10
18.14346701514822
 20
-12.67477974204233
 30
0.0
 10
15.92451216909879
 20
-13.52051802242194
 30
0.0
 10
13.7053826215966
 20
-14.07295092441837
 30
0.0
 10
11.9999999999952
 20
-14.49749102020772
 30
0.0
  0
SPLINE
  5
C5
330
1F
100
AcDbEntity
  8
외형선
  6
Continuous
370
    15
100
AcDbSpline
210
0.0
220
0.0
230
1.0
 70
    24
 71
     3
 72
    12
 73
     8
 74
     0
 42
0.000000001
 43
0.00000001
 40
0.0
 40
0.0
 40
0.0
 40
0.0
 40
0.041754917489854
 40
0.3007785188257864
 40
0.5595016511412925
 40
0.8185252524772241
 40
1.0
 40
1.0
 40
1.0
 40
1.0
 10
12.0
 20
-12.98351303343978
 30
0.0
 10
12.0
 20
-13.00611146631061
 30
0.0
 10
12.0
 20
-13.16889763798309
 30
0.0
 10
12.0
 20
-13.46042022220098
 30
0.0
 10
12.0
 20
-13.85665885390934
 30
0.0
 10
12.0
 20
-14.20156557530021
 30
0.0
 10
12.0
 20
-14.41114806466615
 30
0.0
 10
12.0
 20
-14.49749102018782
 30
0.0
  0
SPLINE
  5
C6
330
1F
100
AcDbEntity
  8
0
  6
Continuous
 62
     1
370
    15
100
AcDbSpline
210
0.0
220
0.0
230
1.0
 70
     8
 71
     3
 72
    16
 73
    12
 74
     0
 42
0.000000001
 43
0.00000001
 40
0.0
 40
0.0
 40
0.0
 40
0.0
 40
0.1178500925148222
 40
0.2357198919569991
 40
0.3536028693059712
 40
0.4714924708192497
 40
0.5893821303138481
 40
0.7072652814978488
 40
0.8251353703024085
 40
0.9429858671645015
 40
1.0
 40
1.0
 40
1.0
 40
1.0
 10
164.4
 20
-12.52493469684544
 30
0.0
 10
162.7811031047113
 20
-12.19156662134239
 30
0.0
 10
159.5430386017158
 20
-11.52477472442803
 30
0.0
 10
154.6854618532142
 20
-10.06141391650476
 30
0.0
 10
149.8272731112242
 20
-8.312790186259509
 30
0.0
 10
144.9687681813962
 20
-6.2976879343717
 30
0.0
 10
140.1102602575606
 20
-4.089024035126729
 30
0.0
 10
135.2520640440759
 20
-1.750704606727113
 30
0.0
 10
130.3944708472138
 20
0.634924566996599
 30
0.0
 10
126.3732048888248
 20
2.6152224891152
 30
0.0
 10
123.9710898030273
 20
3.728198602387388
 30
0.0
 10
123.1878867686306
 20
4.091081411075321
 30
0.0
  0
LINE
  5
C7
330
1F
100
AcDbEntity
  8
0
  6
Continuous
 62
     1
370
    15
100
AcDbLine
 10
164.3999999999989
 20
-15.06443629905644
 30
0.0
 11
164.4
 21
-12.52493469684544
 31
0.0
  0
SPLINE
  5
C8
330
1F
100
AcDbEntity
  8
0
  6
Continuous
 62
     1
370
    15
100
AcDbSpline
210
0.0
220
0.0
230
1.0
 70
     8
 71
     3
 72
    26
 73
    22
 74
     0
 42
0.000000001
 43
0.00000001
 40
0.0
 40
0.0
 40
0.0
 40
0.0
 40
0.0411365047845858
 40
0.0933329163606017
 40
0.1455238407355478
 40
0.1977065101792638
 40
0.2498885062491247
 40
0.302078938339665
 40
0.3542750534826151
 40
0.4064740742915154
 40
0.4586732179688571
 40
0.5108697014882313
 40
0.5630607467773985
 40
0.6152435858814129
 40
0.6701983759899963
 40
0.7251688379865443
 40
0.7801460151763893
 40
0.8351208922318452
 40
0.8900844632410313
 40
0.94503501549501
 40
1.0
 40
1.0
 40
1.0
 40
1.0
 10
105.076619683358
 20
-12.47689832574725
 30
0.0
 10
103.8003154570804
 20
-12.92050253265205
 30
0.0
 10
100.9045615220869
 20
-13.92697779245031
 30
0.0
 10
96.38957808875442
 20
-14.99771583038515
 30
0.0
 10
91.5319667125054
 20
-15.7282027601291
 30
0.0
 10
86.67500537420698
 20
-15.95695528281757
 30
0.0
 10
81.81808207968687
 20
-15.69218707882388
 30
0.0
 10
76.96052290364663
 20
-14.93807299683645
 30
0.0
 10
72.10234612171965
 20
-13.71911195207274
 30
0.0
 10
67.24384107435145
 20
-12.07293832752013
 30
0.0
 10
62.38532156138271
 20
-10.05090375833249
 30
0.0
 10
57.5271059056688
 20
-7.715992589347451
 30
0.0
 10
52.66947046772721
 20
-5.140978695489274
 30
0.0
 10
47.72651550211508
 20
-2.357481315959732
 30
0.0
 10
42.69715107911571
 20
0.5545440919976036
 30
0.0
 10
37.58072988656345
 20
3.496992138166033
 30
0.0
 10
32.46357824847934
 20
6.318251214225433
 30
0.0
 10
27.34668288466573
 20
8.923898533343129
 30
0.0
 10
22.23080765776568
 20
11.211772719127
 30
0.0
 10
17.11568250973271
 20
13.14887337639918
 30
0.0
 10
13.70537676448287
 20
14.0479124567313
 30
0.0
 10
11.9999999999952
 20
14.49749102020771
 30
0.0
  0
SPLINE
  5
C9
330
1F
100
AcDbEntity
  8
0
  6
Continuous
 62
     1
370
    15
100
AcDbSpline
210
0.0
220
0.0
230
1.0
 70
     8
 71
     3
 72
    20
 73
    16
 74
     0
 42
0.000000001
 43
0.00000001
 40
0.0
 40
0.0
 40
0.0
 40
0.0
 40
0.0458188758606537
 40
0.1304899339719949
 40
0.2151598506194972
 40
0.2998440676165584
 40
0.3845379183881823
 40
0.4692366948152412
 40
0.5539356795282319
 40
0.6386301547663348
 40
0.7233154112380602
 40
0.807986756947748
 40
0.8926564080664778
 40
0.9773404127818301
 40
1.0
 40
1.0
 40
1.0
 40
1.0
 10
94.1599927399038
 20
-13.15765230318112
 30
0.0
 10
93.28390617443449
 20
-13.25376140873546
 30
0.0
 10
90.78885416945906
 20
-13.52747547531433
 30
0.0
 10
86.67501052572295
 20
-13.52170652771023
 30
0.0
 10
81.81806131898601
 20
-13.16876439586827
 30
0.0
 10
76.9605119158603
 20
-12.38585504693311
 30
0.0
 10
72.10233989768471
 20
-11.22269619603381
 30
0.0
 10
67.24384067521775
 20
-9.708656455573555
 30
0.0
 10
62.38532784762052
 20
-7.892791233900443
 30
0.0
 10
57.5271143776742
 20
-5.830924048601998
 30
0.0
 10
52.6694981914823
 20
-3.588440289258547
 30
0.0
 10
47.81251178506558
 20
-1.231294282584724
 30
0.0
 10
42.95557096731523
 20
1.15351033667207
 30
0.0
 10
39.28417350355143
 20
2.958964590994249
 30
0.0
 10
37.23166967046544
 20
3.898759361492856
 30
0.0
 10
36.79839844501359
 20
4.097144390218943
 30
0.0
  0
LINE
  5
CA
330
1F
100
AcDbEntity
  8
0
  6
Continuous
 62
     1
370
    15
100
AcDbLine
 10
164.4
 20
-15.87499999999999
 30
0.0
 11
164.3999999999998
 21
-15.06443629905636
 31
0.0
  0
SPLINE
  5
CB
330
1F
100
AcDbEntity
  8
0
  6
Continuous
 62
     1
370
    15
100
AcDbSpline
210
0.0
220
0.0
230
1.0
 70
     8
 71
     3
 72
    27
 73
    23
 74
     0
 42
0.000000001
 43
0.00000001
 40
0.0
 40
0.0
 40
0.0
 40
0.0
 40
0.0008483749973969
 40
0.0527792796538854
 40
0.108771671662796
 40
0.1647892207637201
 40
0.2207988021684311
 40
0.2767811611213491
 40
0.3327901657055626
 40
0.388807905265535
 40
0.4448012496799292
 40
0.5007933294856148
 40
0.556810811151206
 40
0.612820580890058
 40
0.6688029497120875
 40
0.7248117580838227
 40
0.7808295571810357
 40
0.8368232162919336
 40
0.8884232826876808
 40
0.9400389375002683
 40
0.9916612718770832
 40
0.9999999999999999
 40
0.9999999999999999
 40
0.9999999999999999
 40
0.9999999999999999
 10
130.7693261612632
 20
-11.93661117544276
 30
0.0
 10
130.7412928408665
 20
-11.94211430955922
 30
0.0
 10
128.9972781523366
 20
-12.28447641994242
 30
0.0
 10
125.4033757876036
 20
-12.59881796982858
 30
0.0
 10
119.9861491883757
 20
-12.78309616874994
 30
0.0
 10
114.4337612092728
 20
-12.39794368751265
 30
0.0
 10
108.8817879984776
 20
-11.52393669842169
 30
0.0
 10
103.3307789975065
 20
-10.17708520694007
 30
0.0
 10
97.77883761859687
 20
-8.418446932345784
 30
0.0
 10
92.22640017591243
 20
-6.317746092362848
 30
0.0
 10
86.67502810942895
 20
-3.959715888690105
 30
0.0
 10
81.1236976303174
 20
-1.440661890572121
 30
0.0
 10
75.57128579347474
 20
1.136015202498688
 30
0.0
 10
70.01931227368932
 20
3.666657709399188
 30
0.0
 10
64.46830247839979
 20
6.04959970847716
 30
0.0
 10
58.91636341364874
 20
8.185311239335178
 30
0.0
 10
53.36394380248586
 20
9.989385507279062
 30
0.0
 10
47.95759072143879
 20
11.34837038534359
 30
0.0
 10
42.6971318116761
 20
12.2606634153818
 30
0.0
 10
37.58071335675568
 20
12.68427221503913
 30
0.0
 10
33.8937658178198
 20
12.78248120296312
 30
0.0
 10
31.91243219186414
 20
12.60934520447416
 30
0.0
 10
31.63689000266911
 20
12.5852673452852
 30
0.0
  0
SPLINE
  5
CC
330
1F
100
AcDbEntity
  8
외형선
  6
Continuous
370
    15
100
AcDbSpline
210
0.0
220
0.0
230
1.0
 70
    24
 71
     3
 72
    13
 73
     9
 74
     0
 42
0.000000001
 43
0.00000001
 40
0.0
 40
0.0
 40
0.0
 40
0.0
 40
0.156877001703268
 40
0.3157893598505712
 40
0.5471187328563596
 40
0.7851566733506806
 40
0.9943241439672185
 40
1.0
 40
1.0
 40
1.0
 40
1.0
 10
12.0
 20
-8.569029762475342
 30
0.0
 10
12.0
 20
-8.982683618459678
 30
0.0
 10
12.0
 20
-9.815358165797692
 30
0.0
 10
12.0
 20
-10.98979882270688
 30
0.0
 10
12.0
 20
-12.04313357211282
 30
0.0
 10
12.0
 20
-12.66378399900051
 30
0.0
 10
12.0
 20
-12.90561408577574
 30
0.0
 10
12.0
 20
-12.83485931350413
 30
0.0
 10
12.0
 20
-12.8329900727541
 30
0.0
  0
SPLINE
  5
CD
330
1F
100
AcDbEntity
  8
0
  6
Continuous
 62
     1
370
    15
100
AcDbSpline
210
0.0
220
0.0
230
1.0
 70
     8
 71
     3
 72
    16
 73
    12
 74
     0
 42
0.000000001
 43
0.00000001
 40
0.0
 40
0.0
 40
0.0
 40
0.0
 40
0.1182012399544511
 40
0.236363456064164
 40
0.3545420884998919
 40
0.4727531258364583
 40
0.5909735851855833
 40
0.7091804414388873
 40
0.8273507304340918
 40
0.9547630524221902
 40
1.0
 40
1.0
 40
1.0
 40
1.0
 10
161.5794402669373
 20
1.300194242658466
 30
0.0
 10
159.8629997179784
 20
2.08432950199527
 30
0.0
 10
156.4306852986294
 20
3.65234114036757
 30
0.0
 10
151.2826422413371
 20
5.865293736783124
 30
0.0
 10
146.1342755530499
 20
7.875954269049097
 30
0.0
 10
140.9848356721167
 20
9.610900925398646
 30
0.0
 10
135.8349534732586
 20
11.0079189906651
 30
0.0
 10
130.6856936771063
 20
12.02814144886368
 30
0.0
 10
125.4033462224697
 20
12.61216871745455
 30
0.0
 10
121.1803014095531
 20
12.80093805753336
 30
0.0
 10
118.6730430447126
 20
12.60667371580304
 30
0.0
 10
118.016100125119
 20
12.55577326389156
 30
0.0
  0
SPLINE
  5
CE
330
1F
100
AcDbEntity
  8
0
  6
Continuous
 62
     1
370
    15
100
AcDbSpline
210
0.0
220
0.0
230
1.0
 70
     8
 71
     3
 72
    14
 73
    10
 74
     0
 42
0.000000001
 43
0.00000001
 40
0.0
 40
0.0
 40
0.0
 40
0.0
 40
0.0527149455501769
 40
0.2106065121482879
 40
0.3685185114400047
 40
0.5264235121115342
 40
0.6842941117801155
 40
0.8421250996387406
 40
1.0
 40
1.0
 40
1.0
 40
1.0
 10
44.40580116167567
 20
-11.89159909408064
 30
0.0
 10
43.83639737202252
 20
-11.99393225679525
 30
0.0
 10
41.56151792576148
 20
-12.40277324584478
 30
0.0
 10
37.58070722935101
 20
-12.69177334213882
 30
0.0
 10
32.46359000491637
 20
-12.73088074968227
 30
0.0
 10
27.34671495905188
 20
-12.3035467446562
 30
0.0
 10
22.23085524009894
 20
-11.45347994051398
 30
0.0
 10
17.11563126061479
 20
-10.22692758665935
 30
0.0
 10
13.70536853484735
 20
-9.121713613073187
 30
0.0
 10
11.99999999999992
 20
-8.569029762475315
 30
0.0
  0
SPLINE
  5
CF
330
1F
100
AcDbEntity
  8
0
  6
Continuous
 62
     1
370
    15
100
AcDbSpline
210
0.0
220
0.0
230
1.0
 70
     8
 71
     3
 72
     8
 73
     4
 74
     0
 42
0.000000001
 43
0.00000001
 40
0.0
 40
0.0
 40
0.0
 40
0.0
 40
1.0
 40
1.0
 40
1.0
 40
1.0
 10
161.5794402669372
 20
1.300194242658502
 30
0.0
 10
161.562404421881
 20
0.2921095860622158
 30
0.0
 10
161.4366008236008
 20
-0.6903983468761286
 30
0.0
 10
161.2228879835563
 20
-1.652234432534926
 30
0.0
  0
SPLINE
  5
D0
330
1F
100
AcDbEntity
  8
0
  6
Continuous
 62
     1
370
    15
100
AcDbSpline
210
0.0
220
0.0
230
1.0
 70
     8
 71
     3
 72
     8
 73
     4
 74
     0
 42
0.000000001
 43
0.00000001
 40
0.0
 40
0.0
 40
0.0
 40
0.0
 40
1.0
 40
1.0
 40
1.0
 40
1.0
 10
164.4
 20
-4.242481768220595
 30
0.0
 10
163.3317805040063
 20
-3.402687243110345
 30
0.0
 10
162.2727562284875
 20
-2.539237859000422
 30
0.0
 10
161.2228879835561
 20
-1.652234432534667
 30
0.0
  0
SPLINE
  5
D1
330
1F
100
AcDbEntity
  8
0
  6
Continuous
 62
     1
370
    15
100
AcDbSpline
210
0.0
220
0.0
230
1.0
 70
    24
 71
     3
 72
    14
 73
    10
 74
     0
 42
0.000000001
 43
0.00000001
 40
0.0
 40
0.0
 40
0.0
 40
0.0
 40
0.25
 40
0.25
 40
0.5
 40
0.5
 40
0.75
 40
0.75
 40
1.0
 40
1.0
 40
1.0
 40
1.0
 10
164.4
 20
-12.52493469684543
 30
0.0
 10
164.4
 20
-12.04486774864042
 30
0.0
 10
164.4000000000001
 20
-11.50271046987282
 30
0.0
 10
164.4000000000001
 20
-10.30352123776153
 30
0.0
 10
164.4
 20
-9.646511261890652
 30
0.0
 10
164.4
 20
-8.236264171641576
 30
0.0
 10
164.4
 20
-7.483105696757502
 30
0.0
 10
164.3999999999999
 20
-5.907098256972251
 30
0.0
 10
164.4
 20
-5.084368713330319
 30
0.0
 10
164.4
 20
-4.242481768221106
 30
0.0
  0
SPLINE
  5
D2
330
1F
100
AcDbEntity
  8
0
  6
Continuous
 62
     1
370
    15
100
AcDbSpline
210
0.0
220
0.0
230
1.0
 70
    24
 71
     3
 72
    10
 73
     6
 74
     0
 42
0.000000001
 43
0.00000001
 40
0.0
 40
0.0
 40
0.0
 40
0.0
 40
0.5
 40
0.5
 40
1.0
 40
1.0
 40
1.0
 40
1.0
 10
159.4
 20
4.691538593597905
 30
0.0
 10
159.4000000000001
 20
5.728628384846499
 30
0.0
 10
159.4
 20
6.684238768094228
 30
0.0
 10
159.4000000000001
 20
8.33674841224509
 30
0.0
 10
159.4
 20
9.032833253919865
 30
0.0
 10
159.4
 20
9.570389447124672
 30
0.0
  0
SPLINE
  5
D3
330
1F
100
AcDbEntity
  8
외형선
  6
Continuous
370
    15
100
AcDbSpline
210
0.0
220
0.0
230
1.0
 70
    24
 71
     3
 72
    14
 73
    10
 74
     0
 42
0.000000001
 43
0.00000001
 40
0.0
 40
0.0
 40
0.0
 40
0.0
 40
0.25
 40
0.25
 40
0.5
 40
0.5
 40
0.75
 40
0.75
 40
1.0
 40
1.0
 40
1.0
 40
1.0
 10
12.0
 20
8.201776405870074
 30
0.0
 10
12.0
 20
7.053704103006054
 30
0.0
 10
12.0
 20
5.769217716053733
 30
0.0
 10
12.0
 20
3.016025938612614
 30
0.0
 10
12.0
 20
1.548300757274259
 30
0.0
 10
12.0
 20
-1.43235501979959
 30
0.0
 10
12.0
 20
-2.943697397521142
 30
0.0
 10
12.0
 20
-5.863084786180244
 30
0.0
 10
12.0
 20
-7.269916157263895
 30
0.0
 10
12.0
 20
-8.569029762475338
 30
0.0
  0
SPLINE
  5
D4
330
1F
100
AcDbEntity
  8
0
  6
Continuous
 62
     1
370
    15
100
AcDbSpline
210
0.0
220
0.0
230
1.0
 70
     8
 71
     3
 72
     8
 73
     4
 74
     0
 42
0.000000001
 43
0.00000001
 40
0.0
 40
0.0
 40
0.0
 40
0.0
 40
1.0
 40
1.0
 40
1.0
 40
1.0
 10
164.4
 20
11.11250000000001
 30
0.0
 10
162.7225937619391
 20
10.65780123202018
 30
0.0
 10
161.0556583168522
 20
10.1452494306615
 30
0.0
 10
159.4
 20
9.570389447124676
 30
0.0
  0
SPLINE
  5
D5
330
1F
100
AcDbEntity
  8
0
  6
Continuous
 62
     1
370
    15
100
AcDbSpline
210
0.0
220
0.0
230
1.0
 70
     8
 71
     3
 72
     8
 73
     4
 74
     0
 42
0.000000001
 43
0.00000001
 40
0.0
 40
0.0
 40
0.0
 40
0.0
 40
1.0
 40
1.0
 40
1.0
 40
1.0
 10
159.4
 20
4.691538593597912
 30
0.0
 10
160.2425656748897
 20
3.688219129697091
 30
0.0
 10
160.9761449548425
 20
2.565545540272598
 30
0.0
 10
161.5794402669372
 20
1.300194242658492
 30
0.0
  0
LINE
  5
D6
330
1F
100
AcDbEntity
  8
0
  6
Continuous
 62
     1
370
    15
100
AcDbLine
 10
161.3141041370709
 20
1.813099250365624
 30
0.0
 11
164.4
 21
0.0000000000000164
 31
0.0
  0
LINE
  5
D7
330
1F
100
AcDbEntity
  8
0
  6
Continuous
 62
     1
370
    15
100
AcDbLine
 10
164.4
 20
0.0000000000000164
 30
0.0
 11
164.4
 21
-4.242481768220597
 31
0.0
  0
LINE
  5
D8
330
1F
100
AcDbEntity
  8
0
  6
Continuous
 62
     1
370
    15
100
AcDbLine
 10
164.4
 20
0.0000000000000164
 30
0.0
 11
164.4
 21
11.11250000000001
 31
0.0
  0
LINE
  5
D9
330
1F
100
AcDbEntity
  8
중심선
100
AcDbLine
 10
-54.49999999999999
 20
-0.0000000000000067
 30
0.0
 11
167.4
 21
0.0000000000000205
 31
0.0
  0
LINE
  5
DA
330
1F
100
AcDbEntity
  8
참조1
100
AcDbLine
 10
59.29926131403118
 20
0.0010749287238892
 30
0.0
 11
59.29926131403118
 21
-39.99892507127611
 31
0.0
  0
LINE
  5
DB
330
1F
100
AcDbEntity
  8
참조1
100
AcDbLine
 10
59.29926131403118
 20
-39.99892507127611
 30
0.0
 11
-20.15080122126847
 21
-39.9989250712761
 31
0.0
  0
CIRCLE
  5
DC
330
1F
100
AcDbEntity
  8
해칭선
100
AcDbCircle
 10
0.0
 20
0.0
 30
0.0
 40
2.999999999999995
  0
INSERT
  5
DD
330
1F
100
AcDbEntity
  8
0
  6
Continuous
 62
     7
100
AcDbBlockReference
 66
     1
  2
블럭10
 10
42.50972706787481
 20
-52.04717430164393
 30
0.0
  0
ATTRIB
  5
DE
330
DD
100
AcDbEntity
  8
FORMAT
 62
     2
100
AcDbText
 10
33.32843177913352
 20
-49.97180738881174
 30
0.0
 40
4.233333333333333
  1
E1072116 [ 2 FLUTE ]
 41
0.75
  7
SLDTEXTSTYLE0
 11
33.32843177913352
 21
-52.08847405547841
 31
0.0
100
AcDbAttribute
  2
AUTOATTR0
 70
     0
 74
     1
  0
SEQEND
  5
DF
330
DD
100
AcDbEntity
  8
0
  6
Continuous
 62
     7
  0
HATCH
  5
E0
330
1F
100
AcDbEntity
  8
중심선
100
AcDbHatch
 10
0.0
 20
0.0
 30
0.0
210
0.0
220
0.0
230
1.0
  2
SOLID
 70
     1
 71
     0
 91
        1
 92
        0
 93
        4
 72
     1
 10
48.22463637225565
 20
-35.8
 11
44.77836112841836
 21
-35.8
 72
     1
 10
44.77836112841837
 20
-35.8
 11
42.65013126921441
 21
-38.33632558057257
 72
     1
 10
42.6501312692144
 20
-38.33632558057257
 11
46.09643959816471
 21
-38.33628615127008
 72
     1
 10
46.09643959816472
 20
-38.33628615127008
 11
48.22463637225565
 21
-35.8
 97
        0
 75
     0
 76
     1
 98
        1
 10
-2.849261314031164
 20
-0.0010749287238964
  0
HATCH
  5
E1
330
1F
100
AcDbEntity
  8
중심선
100
AcDbHatch
 10
0.0
 20
0.0
 30
0.0
210
0.0
220
0.0
230
1.0
  2
SOLID
 70
     1
 71
     0
 91
        1
 92
        0
 93
        4
 72
     1
 10
53.2374003632916
 20
-35.8
 11
49.79112511945437
 21
-35.79999999999998
 72
     1
 10
49.79112511945438
 20
-35.79999999999998
 11
45.2599871110969
 21
-41.20000000000002
 72
     1
 10
45.2599871110969
 20
-41.20000000000002
 11
48.70626235493419
 21
-41.20000000000002
 72
     1
 10
48.70626235493418
 20
-41.20000000000002
 11
53.2374003632916
 21
-35.8
 97
        0
 75
     0
 76
     1
 98
        1
 10
-2.849261314031164
 20
-0.0010749287238964
  0
HATCH
  5
E2
330
1F
100
AcDbEntity
  8
중심선
100
AcDbHatch
 10
0.0
 20
0.0
 30
0.0
210
0.0
220
0.0
230
1.0
  2
SOLID
 70
     1
 71
     0
 91
        1
 92
        0
 93
        4
 72
     1
 10
58.25016435432761
 20
-35.79999999999998
 11
54.80388911049038
 21
-35.8
 72
     1
 10
54.80388911049037
 20
-35.8
 11
47.7554522086011
 21
-44.20000000000002
 72
     1
 10
47.7554522086011
 20
-44.20000000000002
 11
51.20172745243838
 21
-44.20000000000002
 72
     1
 10
51.20172745243839
 20
-44.20000000000002
 11
58.25016435432761
 21
-35.79999999999998
 97
        0
 75
     0
 76
     1
 98
        1
 10
-2.849261314031164
 20
-0.0010749287238964
  0
HATCH
  5
E3
330
1F
100
AcDbEntity
  8
중심선
100
AcDbHatch
 10
0.0
 20
0.0
 30
0.0
210
0.0
220
0.0
230
1.0
  2
SOLID
 70
     1
 71
     0
 91
        1
 92
        0
 93
        6
 72
     3
 10
63.0500547853397
 20
-40.00000000005127
 11
3.960054785062283
 21
1.540882976769353E-10
 40
0.3939339440162628
 50
17.09539180608451
 51
320.0019657685078
 73
     0
 72
     1
 10
64.73305444104031
 20
-38.58789400463827
 11
67.03835631474129
 21
-36.65356729459044
 72
     3
 10
63.05005478528685
 20
-40.00000000000015
 11
6.600054785286829
 21
-1.278976924368180E-13
 40
0.636358354079598
 50
39.99873849337385
 51
368.4976242363724
 73
     1
 72
     1
 10
69.47538727718742
 20
-39.03999999993002
 11
61.7301220921228
 21
-39.03999999993002
 72
     1
 10
61.7301220921228
 20
-39.03999999993002
 11
61.73009704767684
 21
-40.95999999992991
 72
     1
 10
61.73009704767684
 20
-40.95999999992991
 11
66.17147681714884
 21
-40.95999999992988
 97
        0
 75
     0
 76
     1
 98
        1
 10
-2.849261314031164
 20
-0.0010749287238964
  0
DIMENSION
  5
E4
330
1F
100
AcDbEntity
  8
치수문자_일반주서
100
AcDbDimension
  2
_D
 10
-63.99999999999996
 20
-15.87500000000005
 30
0.0
 11
-64.00000000000001
 21
0.0000000000000072
 31
0.0
 70
   160
  1
%%c<>
 71
     2
 42
31.75
 52
-270.0
  3
SLDDIMSTYLE0
100
AcDbAlignedDimension
 13
-50.5
 23
15.875
 33
0.0
 14
-50.5
 24
-15.875
 34
0.0
 50
90.0000000000002
100
AcDbRotatedDimension
1001
ACAD
1000
DSTYLE
1002
{
1070
   171
1070
     6
1070
   273
1070
     7
1002
}
  0
DIMENSION
  5
F7
330
1F
100
AcDbEntity
  8
치수문자_일반주서
100
AcDbDimension
  2
_D_1
 10
12.0
 20
29.03792442259354
 30
0.0
 11
88.19999999999999
 21
29.03792442259354
 31
0.0
 70
   160
  1
<>
 71
     2
 42
152.4
  3
SLDDIMSTYLE0
100
AcDbAlignedDimension
 13
164.4
 23
15.87500000000004
 33
0.0
 14
12.0
 24
14.49749102020658
 34
0.0
 50
0.0000000000000027
100
AcDbRotatedDimension
1001
ACAD
1000
DSTYLE
1002
{
1070
   171
1070
     6
1070
   273
1070
     7
1002
}
  0
DIMENSION
  5
10C
330
1F
100
AcDbEntity
  8
치수문자_일반주서
100
AcDbDimension
  2
_D_2
 10
-51.49999999999997
 20
45.58996586444054
 30
0.0
 11
56.44999999999945
 21
45.58996586444054
 31
0.0
 70
   160
  1
<>
 71
     2
 42
215.8999999999999
  3
SLDDIMSTYLE0
100
AcDbAlignedDimension
 13
164.4
 23
15.87500000000004
 33
0.0
 14
-51.49999999999997
 24
14.87499999999998
 34
0.0
 50
0.0000000000000038
100
AcDbRotatedDimension
1001
ACAD
1000
DSTYLE
1002
{
1070
   171
1070
     6
1070
   273
1070
     7
1002
}
  0
DIMENSION
  5
11F
330
1F
100
AcDbEntity
  8
치수문자_일반주서
100
AcDbDimension
  2
_D_3
 10
188.2410220600217
 20
15.87500000000012
 30
0.0
 11
188.2410220600216
 21
37.88903717995368
 31
0.0
 70
   160
  1
%%c<>
 71
     2
 42
31.75000000000003
 52
-270.0
  3
SLDDIMSTYLE0
100
AcDbAlignedDimension
 13
164.4
 23
-15.87499999999999
 33
0.0
 14
164.4
 24
15.87500000000004
 34
0.0
 50
90.0000000000002
100
AcDbRotatedDimension
1001
ACAD
1000
DSTYLE
1002
{
1070
   171
1070
     6
1070
   273
1070
     7
1002
}
  0
LINE
  5
132
330
1F
100
AcDbEntity
  8
참조1
100
AcDbLine
 10
77.82153940838579
 20
7.441074928723896
 30
0.0
 11
77.82153940838579
 21
-7.438925071276109
 31
0.0
  0
LINE
  5
133
330
1F
100
AcDbEntity
  8
참조1
100
AcDbLine
 10
90.52153940838579
 20
5.441074928723896
 30
0.0
 11
77.82153940838579
 21
5.441074928723896
 31
0.0
  0
SOLID
  5
134
330
1F
100
AcDbEntity
  8
참조1
100
AcDbTrace
 10
77.82153940838579
 20
5.441074928723896
 30
0.0
 11
84.17153940838578
 21
4.425074928723896
 31
0.0
 12
84.17153940838578
 22
6.457074928723896
 32
0.0
 13
84.17153940838578
 23
6.457074928723896
 33
0.0
  0
LINE
  5
135
330
1F
100
AcDbEntity
  8
참조1
100
AcDbLine
 10
90.52153940838579
 20
-5.438925071276109
 30
0.0
 11
77.82153940838579
 21
-5.438925071276109
 31
0.0
  0
SOLID
  5
136
330
1F
100
AcDbEntity
  8
참조1
100
AcDbTrace
 10
77.82153940838579
 20
-5.438925071276109
 30
0.0
 11
84.17153940838578
 21
-6.454925071276109
 31
0.0
 12
84.17153940838578
 22
-4.422925071276109
 32
0.0
 13
84.17153940838578
 23
-4.422925071276109
 33
0.0
  0
MTEXT
  5
137
330
1F
100
AcDbEntity
  8
참조1
100
AcDbMText
 10
87.20588954101179
 20
11.01136670591222
 30
0.0
 40
3.5
 41
0.0
 71
     1
 72
     1
  1
A
  7
SLDTEXTSTYLE0
 73
     1
 44
1.0
  0
MTEXT
  5
138
330
1F
100
AcDbEntity
  8
참조1
100
AcDbMText
 10
87.20588954101179
 20
0.1313667059122192
 30
0.0
 40
3.5
 41
0.0
 71
     1
 72
     1
  1
A
  7
SLDTEXTSTYLE0
 73
     1
 44
1.0
  0
INSERT
  5
13F
330
1F
100
AcDbEntity
  8
해칭선
100
AcDbBlockReference
  2
SW_DOWELSYMBOL_0
 10
0.0
 20
0.0
 30
0.0
  0
LINE
  5
1F2
330
1F
100
AcDbEntity
  8
외형선
  6
Continuous
370
    15
100
AcDbLine
 10
-36.41240000000008
 20
15.87499999999999
 30
0.0
 11
-31.46892499999998
 21
15.87499999999999
 31
0.0
  0
LINE
  5
1F3
330
1F
100
AcDbEntity
  8
외형선
  6
Continuous
370
    15
100
AcDbLine
 10
-29.08132499999996
 20
13.48739999999998
 30
0.0
 11
-15.97492499999996
 21
13.48739999999998
 31
0.0
  0
LINE
  5
1F4
330
1F
100
AcDbEntity
  8
외형선
  6
Continuous
370
    15
100
AcDbLine
 10
-15.97492499999996
 20
13.48739999999998
 30
0.0
 11
-13.58732499999994
 21
15.875
 31
0.0
  0
LINE
  5
1F5
330
1F
100
AcDbEntity
  8
외형선
  6
Continuous
370
    15
100
AcDbLine
 10
-29.08132499999996
 20
13.48739999999998
 30
0.0
 11
-31.46892499999998
 21
15.875
 31
0.0
  0
LINE
  5
1F6
330
1F
100
AcDbEntity
  8
외형선
  6
Continuous
370
    15
100
AcDbLine
 10
-51.49999999999997
 20
13.48739999999998
 30
0.0
 11
-38.79999999999998
 21
13.48739999999998
 31
0.0
  0
LINE
  5
1F7
330
1F
100
AcDbEntity
  8
외형선
  6
Continuous
370
    15
100
AcDbLine
 10
-38.79999999999998
 20
13.48739999999998
 30
0.0
 11
-36.41240000000008
 21
15.87499999999997
 31
0.0
  0
LINE
  5
1F8
330
1F
100
AcDbEntity
  8
외형선
  6
Continuous
370
    15
100
AcDbLine
 10
-31.46892499999998
 20
15.87499999999999
 30
0.0
 11
-36.41240000000005
 21
15.87499999999999
 31
0.0
  0
ENDSEC
  0
SECTION
  2
OBJECTS
  0
DICTIONARY
  5
C
330
0
100
AcDbDictionary
281
     1
  3
ACAD_GROUP
350
D
  3
ACAD_IMAGE_VARS
350
163
  3
ACAD_LAYOUT
350
1A
  3
ACAD_MLINESTYLE
350
17
  3
ACAD_PLOTSETTINGS
350
19
  3
ACAD_PLOTSTYLENAME
350
E
  3
ACAD_SCALELIST
350
47
  3
APPDATA
350
161
  3
DWGPROPS
350
1FA
  0
DICTIONARY
  5
18A
330
2
100
AcDbDictionary
280
     1
281
     1
  3
ACAD_LAYERSTATES
360
18B
  0
DICTIONARY
  5
D
102
{ACAD_REACTORS
330
C
102
}
330
C
100
AcDbDictionary
281
     1
  0
RASTERVARIABLES
  5
163
102
{ACAD_REACTORS
330
C
102
}
330
C
100
AcDbRasterVariables
 90
        0
 70
     1
 71
     1
 72
     1
  0
DICTIONARY
  5
1A
102
{ACAD_REACTORS
330
C
102
}
330
C
100
AcDbDictionary
281
     1
  3
Layout1
350
1E
  3
Layout2
350
26
  3
Model
350
22
  0
DICTIONARY
  5
17
102
{ACAD_REACTORS
330
C
102
}
330
C
100
AcDbDictionary
281
     1
  3
Standard
350
18
  0
DICTIONARY
  5
19
102
{ACAD_REACTORS
330
C
102
}
330
C
100
AcDbDictionary
281
     1
  0
ACDBDICTIONARYWDFLT
  5
E
102
{ACAD_REACTORS
330
C
102
}
330
C
100
AcDbDictionary
281
     1
  3
Normal
350
F
100
AcDbDictionaryWithDefault
340
F
  0
DICTIONARY
  5
47
102
{ACAD_REACTORS
330
C
102
}
330
C
100
AcDbDictionary
281
     1
  3
A0
350
48
  3
A1
350
49
  3
A2
350
4A
  3
A3
350
4B
  3
A4
350
4C
  3
A5
350
4D
  3
A6
350
4E
  3
A7
350
4F
  3
A8
350
50
  3
A9
350
51
  3
B0
350
52
  3
B1
350
53
  3
B2
350
54
  3
B3
350
55
  3
B4
350
56
  3
B5
350
57
  3
B6
350
58
  3
B7
350
59
  3
B8
350
5A
  3
B9
350
5B
  3
C0
350
5C
  3
C1
350
5D
  3
C2
350
5E
  3
C3
350
5F
  3
C4
350
60
  3
C5
350
61
  3
C6
350
62
  3
C7
350
63
  3
C8
350
64
  3
C9
350
65
  3
D0
350
66
  3
D1
350
67
  3
D2
350
68
  0
DICTIONARY
  5
161
102
{ACAD_REACTORS
330
C
102
}
330
C
100
AcDbDictionary
281
     1
  0
XRECORD
  5
1FA
102
{ACAD_REACTORS
330
C
102
}
330
C
100
AcDbXrecord
280
     1
  1
DWGPROPS COOKIE
  2

  3

  4

  6

  7

  8
12016016
  9

300
=
301
=
302
=
303
=
304
=
305
=
306
=
307
=
308
=
309
=
 40
0.0
 41
2458311.094403577
 42
2458318.321689595
  1

 90
        0
  0
DICTIONARY
  5
18B
102
{ACAD_REACTORS
330
18A
102
}
330
18A
100
AcDbDictionary
281
     1
  0
LAYOUT
  5
1E
102
{ACAD_REACTORS
330
1A
102
}
330
1A
100
AcDbPlotSettings
  1

  2
none_device
  4

  6

 40
0.0
 41
0.0
 42
0.0
 43
0.0
 44
0.0
 45
0.0
 46
0.0
 47
0.0
 48
0.0
 49
0.0
140
0.0
141
0.0
142
1.0
143
1.0
 70
   688
 72
     1
 73
     0
 74
     5
  7

 75
    16
147
1.0
148
0.0
149
0.0
100
AcDbLayout
  1
Layout1
 70
     1
 71
     1
 10
0.0
 20
0.0
 11
420.0
 21
297.0
 12
0.0
 22
0.0
 32
0.0
 14
1.000000000000000E+20
 24
1.000000000000000E+20
 34
1.000000000000000E+20
 15
-1.000000000000000E+20
 25
-1.000000000000000E+20
 35
-1.000000000000000E+20
146
0.0
 13
0.0
 23
0.0
 33
0.0
 16
1.0
 26
0.0
 36
0.0
 17
0.0
 27
1.0
 37
0.0
 76
     0
330
1B
  0
LAYOUT
  5
26
102
{ACAD_REACTORS
330
1A
102
}
330
1A
100
AcDbPlotSettings
  1

  2
none_device
  4

  6

 40
0.0
 41
0.0
 42
0.0
 43
0.0
 44
0.0
 45
0.0
 46
0.0
 47
0.0
 48
0.0
 49
0.0
140
0.0
141
0.0
142
1.0
143
1.0
 70
   688
 72
     1
 73
     0
 74
     5
  7

 75
    16
147
1.0
148
0.0
149
0.0
100
AcDbLayout
  1
Layout2
 70
     1
 71
     2
 10
0.0
 20
0.0
 11
0.0
 21
0.0
 12
0.0
 22
0.0
 32
0.0
 14
0.0
 24
0.0
 34
0.0
 15
0.0
 25
0.0
 35
0.0
146
0.0
 13
0.0
 23
0.0
 33
0.0
 16
1.0
 26
0.0
 36
0.0
 17
0.0
 27
1.0
 37
0.0
 76
     0
330
23
  0
LAYOUT
  5
22
102
{ACAD_REACTORS
330
1A
102
}
330
1A
100
AcDbPlotSettings
  1

  2
none_device
  4
ANSI_A_(11.00_x_8.50_Inches)
  6

 40
6.35
 41
19.05
 42
6.35000508
 43
19.05000254
 44
279.4
 45
215.9
 46
43.85998331953295
 47
53.15400518913953
 48
0.0
 49
0.0
140
0.0
141
0.0
142
0.026712182207309
143
1.0
 70
  1696
 72
     0
 73
     0
 74
     0
  7

 75
     0
147
0.0235690232323232
148
0.0
149
0.0
100
AcDbLayout
  1
Model
 70
     1
 71
     0
 10
0.0
 20
0.0
 11
420.0
 21
297.0
 12
0.0
 22
0.0
 32
0.0
 14
1.000000000000000E+20
 24
1.000000000000000E+20
 34
1.000000000000000E+20
 15
-1.000000000000000E+20
 25
-1.000000000000000E+20
 35
-1.000000000000000E+20
146
0.0
 13
0.0
 23
0.0
 33
0.0
 16
1.0
 26
0.0
 36
0.0
 17
0.0
 27
1.0
 37
0.0
 76
     0
330
1F
331
29
  0
MLINESTYLE
  5
18
102
{ACAD_REACTORS
330
17
102
}
330
17
100
AcDbMlineStyle
  2
Standard
 70
     0
  3

 62
   256
 51
90.0
 52
90.0
 71
     2
 49
0.5
 62
   256
  6
BYLAYER
 49
-0.5
 62
   256
  6
BYLAYER
  0
ACDBPLACEHOLDER
  5
F
102
{ACAD_REACTORS
330
E
102
}
330
E
  0
SCALE
  5
48
102
{ACAD_REACTORS
330
47
102
}
330
47
100
AcDbScale
 70
     0
300
1:1
140
1.0
141
1.0
290
     1
  0
SCALE
  5
49
102
{ACAD_REACTORS
330
47
102
}
330
47
100
AcDbScale
 70
     0
300
1:2
140
1.0
141
2.0
290
     0
  0
SCALE
  5
4A
102
{ACAD_REACTORS
330
47
102
}
330
47
100
AcDbScale
 70
     0
300
1:4
140
1.0
141
4.0
290
     0
  0
SCALE
  5
4B
102
{ACAD_REACTORS
330
47
102
}
330
47
100
AcDbScale
 70
     0
300
1:5
140
1.0
141
5.0
290
     0
  0
SCALE
  5
4C
102
{ACAD_REACTORS
330
47
102
}
330
47
100
AcDbScale
 70
     0
300
1:8
140
1.0
141
8.0
290
     0
  0
SCALE
  5
4D
102
{ACAD_REACTORS
330
47
102
}
330
47
100
AcDbScale
 70
     0
300
1:10
140
1.0
141
10.0
290
     0
  0
SCALE
  5
4E
102
{ACAD_REACTORS
330
47
102
}
330
47
100
AcDbScale
 70
     0
300
1:16
140
1.0
141
16.0
290
     0
  0
SCALE
  5
4F
102
{ACAD_REACTORS
330
47
102
}
330
47
100
AcDbScale
 70
     0
300
1:20
140
1.0
141
20.0
290
     0
  0
SCALE
  5
50
102
{ACAD_REACTORS
330
47
102
}
330
47
100
AcDbScale
 70
     0
300
1:30
140
1.0
141
30.0
290
     0
  0
SCALE
  5
51
102
{ACAD_REACTORS
330
47
102
}
330
47
100
AcDbScale
 70
     0
300
1:40
140
1.0
141
40.0
290
     0
  0
SCALE
  5
52
102
{ACAD_REACTORS
330
47
102
}
330
47
100
AcDbScale
 70
     0
300
1:50
140
1.0
141
50.0
290
     0
  0
SCALE
  5
53
102
{ACAD_REACTORS
330
47
102
}
330
47
100
AcDbScale
 70
     0
300
1:100
140
1.0
141
100.0
290
     0
  0
SCALE
  5
54
102
{ACAD_REACTORS
330
47
102
}
330
47
100
AcDbScale
 70
     0
300
2:1
140
2.0
141
1.0
290
     0
  0
SCALE
  5
55
102
{ACAD_REACTORS
330
47
102
}
330
47
100
AcDbScale
 70
     0
300
4:1
140
4.0
141
1.0
290
     0
  0
SCALE
  5
56
102
{ACAD_REACTORS
330
47
102
}
330
47
100
AcDbScale
 70
     0
300
8:1
140
8.0
141
1.0
290
     0
  0
SCALE
  5
57
102
{ACAD_REACTORS
330
47
102
}
330
47
100
AcDbScale
 70
     0
300
10:1
140
10.0
141
1.0
290
     0
  0
SCALE
  5
58
102
{ACAD_REACTORS
330
47
102
}
330
47
100
AcDbScale
 70
     0
300
100:1
140
100.0
141
1.0
290
     0
  0
SCALE
  5
59
102
{ACAD_REACTORS
330
47
102
}
330
47
100
AcDbScale
 70
     0
300
1/128" = 1'-0"
140
0.0078125
141
12.0
290
     0
  0
SCALE
  5
5A
102
{ACAD_REACTORS
330
47
102
}
330
47
100
AcDbScale
 70
     0
300
1/64" = 1'-0"
140
0.015625
141
12.0
290
     0
  0
SCALE
  5
5B
102
{ACAD_REACTORS
330
47
102
}
330
47
100
AcDbScale
 70
     0
300
1/32" = 1'-0"
140
0.03125
141
12.0
290
     0
  0
SCALE
  5
5C
102
{ACAD_REACTORS
330
47
102
}
330
47
100
AcDbScale
 70
     0
300
1/16" = 1'-0"
140
0.0625
141
12.0
290
     0
  0
SCALE
  5
5D
102
{ACAD_REACTORS
330
47
102
}
330
47
100
AcDbScale
 70
     0
300
3/32" = 1'-0"
140
0.09375
141
12.0
290
     0
  0
SCALE
  5
5E
102
{ACAD_REACTORS
330
47
102
}
330
47
100
AcDbScale
 70
     0
300
1/8" = 1'-0"
140
0.125
141
12.0
290
     0
  0
SCALE
  5
5F
102
{ACAD_REACTORS
330
47
102
}
330
47
100
AcDbScale
 70
     0
300
3/16" = 1'-0"
140
0.1875
141
12.0
290
     0
  0
SCALE
  5
60
102
{ACAD_REACTORS
330
47
102
}
330
47
100
AcDbScale
 70
     0
300
1/4" = 1'-0"
140
0.25
141
12.0
290
     0
  0
SCALE
  5
61
102
{ACAD_REACTORS
330
47
102
}
330
47
100
AcDbScale
 70
     0
300
3/8" = 1'-0"
140
0.375
141
12.0
290
     0
  0
SCALE
  5
62
102
{ACAD_REACTORS
330
47
102
}
330
47
100
AcDbScale
 70
     0
300
1/2" = 1'-0"
140
0.5
141
12.0
290
     0
  0
SCALE
  5
63
102
{ACAD_REACTORS
330
47
102
}
330
47
100
AcDbScale
 70
     0
300
3/4" = 1'-0"
140
0.75
141
12.0
290
     0
  0
SCALE
  5
64
102
{ACAD_REACTORS
330
47
102
}
330
47
100
AcDbScale
 70
     0
300
1" = 1'-0"
140
1.0
141
12.0
290
     0
  0
SCALE
  5
65
102
{ACAD_REACTORS
330
47
102
}
330
47
100
AcDbScale
 70
     0
300
1-1/2" = 1'-0"
140
1.5
141
12.0
290
     0
  0
SCALE
  5
66
102
{ACAD_REACTORS
330
47
102
}
330
47
100
AcDbScale
 70
     0
300
3" = 1'-0"
140
3.0
141
12.0
290
     0
  0
SCALE
  5
67
102
{ACAD_REACTORS
330
47
102
}
330
47
100
AcDbScale
 70
     0
300
6" = 1'-0"
140
6.0
141
12.0
290
     0
  0
SCALE
  5
68
102
{ACAD_REACTORS
330
47
102
}
330
47
100
AcDbScale
 70
     0
300
1'-0" = 1'-0"
140
12.0
141
12.0
290
     0
  0
ENDSEC
  0
EOF
