  0
SECTION
  2
HEADER
  9
$ACADVER
  1
AC1015
  9
$ACADMAINTVER
 70
     6
  9
$DWGCODEPAGE
  3
ANSI_949
  9
$INSBASE
 10
0.0
 20
0.0
 30
0.0
  9
$EXTMIN
 10
1.000000000000000E+20
 20
1.000000000000000E+20
 30
1.000000000000000E+20
  9
$EXTMAX
 10
-1.000000000000000E+20
 20
-1.000000000000000E+20
 30
-1.000000000000000E+20
  9
$LIMMIN
 10
0.0
 20
0.0
  9
$LIMMAX
 10
420.0
 20
297.0
  9
$ORTHOMODE
 70
     1
  9
$REGENMODE
 70
     1
  9
$FILLMODE
 70
     1
  9
$QTEXTMODE
 70
     0
  9
$MIRRTEXT
 70
     1
  9
$LTSCALE
 40
1.0
  9
$ATTMODE
 70
     1
  9
$TEXTSIZE
 40
3.5
  9
$TRACEWID
 40
1.0
  9
$TEXTSTYLE
  7
Standard
  9
$CLAYER
  8
0
  9
$CELTYPE
  6
ByLayer
  9
$CECOLOR
 62
   256
  9
$CELTSCALE
 40
1.0
  9
$DISPSILH
 70
     0
  9
$DIMSCALE
 40
1.0
  9
$DIMASZ
 40
3.302
  9
$DIMEXO
 40
1.0
  9
$DIMDLI
 40
3.75
  9
$DIMRND
 40
0.0
  9
$DIMDLE
 40
0.0
  9
$DIMEXE
 40
1.0
  9
$DIMTP
 40
0.0
  9
$DIMTM
 40
0.0
  9
$DIMTXT
 40
3.5
  9
$DIMCEN
 40
2.5
  9
$DIMTSZ
 40
0.0
  9
$DIMTOL
 70
     0
  9
$DIMLIM
 70
     0
  9
$DIMTIH
 70
     1
  9
$DIMTOH
 70
     1
  9
$DIMSE1
 70
     0
  9
$DIMSE2
 70
     0
  9
$DIMTAD
 70
     1
  9
$DIMZIN
 70
     0
  9
$DIMBLK
  1

  9
$DIMASO
 70
     1
  9
$DIMSHO
 70
     1
  9
$DIMPOST
  1

  9
$DIMAPOST
  1

  9
$DIMALT
 70
     0
  9
$DIMALTD
 70
     3
  9
$DIMALTF
 40
0.0393700787401575
  9
$DIMLFAC
 40
1.0
  9
$DIMTOFL
 70
     1
  9
$DIMTVP
 40
0.0
  9
$DIMTIX
 70
     0
  9
$DIMSOXD
 70
     0
  9
$DIMSAH
 70
     0
  9
$DIMBLK1
  1

  9
$DIMBLK2
  1

  9
$DIMSTYLE
  2
ISO-25
  9
$DIMCLRD
 70
     0
  9
$DIMCLRE
 70
     0
  9
$DIMCLRT
 70
     0
  9
$DIMTFAC
 40
1.0
  9
$DIMGAP
 40
1.524
  9
$DIMJUST
 70
     0
  9
$DIMSD1
 70
     0
  9
$DIMSD2
 70
     0
  9
$DIMTOLJ
 70
     0
  9
$DIMTZIN
 70
     0
  9
$DIMALTZ
 70
     0
  9
$DIMALTTZ
 70
     0
  9
$DIMUPT
 70
     0
  9
$DIMDEC
 70
     2
  9
$DIMTDEC
 70
     2
  9
$DIMALTU
 70
     2
  9
$DIMALTTD
 70
     3
  9
$DIMTXSTY
  7
Standard
  9
$DIMAUNIT
 70
     0
  9
$DIMADEC
 70
     2
  9
$DIMALTRND
 40
0.0
  9
$DIMAZIN
 70
     0
  9
$DIMDSEP
 70
    44
  9
$DIMATFIT
 70
     3
  9
$DIMFRAC
 70
     0
  9
$DIMLDRBLK
  1

  9
$DIMLUNIT
 70
     2
  9
$DIMLWD
 70
    -2
  9
$DIMLWE
 70
    -2
  9
$DIMTMOVE
 70
     0
  9
$LUNITS
 70
     2
  9
$LUPREC
 70
     2
  9
$SKETCHINC
 40
1.0
  9
$FILLETRAD
 40
10.0
  9
$AUNITS
 70
     0
  9
$AUPREC
 70
     2
  9
$MENU
  1
.
  9
$ELEVATION
 40
0.0
  9
$PELEVATION
 40
0.0
  9
$THICKNESS
 40
0.0
  9
$LIMCHECK
 70
     0
  9
$CHAMFERA
 40
0.0
  9
$CHAMFERB
 40
0.0
  9
$CHAMFERC
 40
0.0
  9
$CHAMFERD
 40
0.0
  9
$SKPOLY
 70
     0
  9
$TDCREATE
 40
2458311.469191771
  9
$TDUCREATE
 40
2458311.094191771
  9
$TDUPDATE
 40
2458318.696999572
  9
$TDUUPDATE
 40
2458318.321999572
  9
$TDINDWG
 40
0.0034969329
  9
$TDUSRTIMER
 40
2458318.321776921
  9
$USRTIMER
 70
     1
  9
$ANGBASE
 50
0.0
  9
$ANGDIR
 70
     0
  9
$PDMODE
 70
     0
  9
$PDSIZE
 40
-1.0
  9
$PLINEWID
 40
0.0
  9
$SPLFRAME
 70
     0
  9
$SPLINETYPE
 70
     6
  9
$SPLINESEGS
 70
     8
  9
$HANDSEED
  5
20F
  9
$SURFTAB1
 70
     6
  9
$SURFTAB2
 70
     6
  9
$SURFTYPE
 70
     6
  9
$SURFU
 70
     6
  9
$SURFV
 70
     6
  9
$UCSBASE
  2

  9
$UCSNAME
  2

  9
$UCSORG
 10
0.0
 20
0.0
 30
0.0
  9
$UCSXDIR
 10
1.0
 20
0.0
 30
0.0
  9
$UCSYDIR
 10
0.0
 20
1.0
 30
0.0
  9
$UCSORTHOREF
  2

  9
$UCSORTHOVIEW
 70
     0
  9
$UCSORGTOP
 10
0.0
 20
0.0
 30
0.0
  9
$UCSORGBOTTOM
 10
0.0
 20
0.0
 30
0.0
  9
$UCSORGLEFT
 10
0.0
 20
0.0
 30
0.0
  9
$UCSORGRIGHT
 10
0.0
 20
0.0
 30
0.0
  9
$UCSORGFRONT
 10
0.0
 20
0.0
 30
0.0
  9
$UCSORGBACK
 10
0.0
 20
0.0
 30
0.0
  9
$PUCSBASE
  2

  9
$PUCSNAME
  2

  9
$PUCSORG
 10
0.0
 20
0.0
 30
0.0
  9
$PUCSXDIR
 10
1.0
 20
0.0
 30
0.0
  9
$PUCSYDIR
 10
0.0
 20
1.0
 30
0.0
  9
$PUCSORTHOREF
  2

  9
$PUCSORTHOVIEW
 70
     0
  9
$PUCSORGTOP
 10
0.0
 20
0.0
 30
0.0
  9
$PUCSORGBOTTOM
 10
0.0
 20
0.0
 30
0.0
  9
$PUCSORGLEFT
 10
0.0
 20
0.0
 30
0.0
  9
$PUCSORGRIGHT
 10
0.0
 20
0.0
 30
0.0
  9
$PUCSORGFRONT
 10
0.0
 20
0.0
 30
0.0
  9
$PUCSORGBACK
 10
0.0
 20
0.0
 30
0.0
  9
$USERI1
 70
     0
  9
$USERI2
 70
     0
  9
$USERI3
 70
     0
  9
$USERI4
 70
     0
  9
$USERI5
 70
     0
  9
$USERR1
 40
0.0
  9
$USERR2
 40
0.0
  9
$USERR3
 40
0.0
  9
$USERR4
 40
0.0
  9
$USERR5
 40
0.0
  9
$WORLDVIEW
 70
     1
  9
$SHADEDGE
 70
     3
  9
$SHADEDIF
 70
    70
  9
$TILEMODE
 70
     1
  9
$MAXACTVP
 70
    64
  9
$PINSBASE
 10
0.0
 20
0.0
 30
0.0
  9
$PLIMCHECK
 70
     0
  9
$PEXTMIN
 10
1.000000000000000E+20
 20
1.000000000000000E+20
 30
1.000000000000000E+20
  9
$PEXTMAX
 10
-1.000000000000000E+20
 20
-1.000000000000000E+20
 30
-1.000000000000000E+20
  9
$PLIMMIN
 10
0.0
 20
0.0
  9
$PLIMMAX
 10
0.0
 20
0.0
  9
$UNITMODE
 70
     0
  9
$VISRETAIN
 70
     1
  9
$PLINEGEN
 70
     0
  9
$PSLTSCALE
 70
     1
  9
$TREEDEPTH
 70
  3020
  9
$CMLSTYLE
  2
Standard
  9
$CMLJUST
 70
     0
  9
$CMLSCALE
 40
20.0
  9
$PROXYGRAPHICS
 70
     1
  9
$MEASUREMENT
 70
     1
  9
$CELWEIGHT
370
    -1
  9
$ENDCAPS
280
     0
  9
$JOINSTYLE
280
     0
  9
$LWDISPLAY
290
     1
  9
$INSUNITS
 70
     4
  9
$HYPERLINKBASE
  1

  9
$STYLESHEET
  1

  9
$XEDIT
290
     1
  9
$CEPSNTYPE
380
     0
  9
$PSTYLEMODE
290
     1
  9
$FINGERPRINTGUID
  2
{94150619-86B6-46DD-905E-90E180C5F1ED}
  9
$VERSIONGUID
  2
{FAEB1C32-E019-11D5-929B-00C0DF256EC4}
  9
$EXTNAMES
290
     1
  9
$PSVPSCALE
 40
0.0
  9
$OLESTARTUP
290
     0
  0
ENDSEC
  0
SECTION
  2
CLASSES
  0
CLASS
  1
ACDBDICTIONARYWDFLT
  2
AcDbDictionaryWithDefault
  3
ObjectDBX Classes
 90
        0
280
     0
281
     0
  0
CLASS
  1
VISUALSTYLE
  2
AcDbVisualStyle
  3
ObjectDBX Classes
 90
     4095
280
     0
281
     0
  0
CLASS
  1
MATERIAL
  2
AcDbMaterial
  3
ObjectDBX Classes
 90
     1153
280
     0
281
     0
  0
CLASS
  1
SCALE
  2
AcDbScale
  3
ObjectDBX Classes
 90
     1153
280
     0
281
     0
  0
CLASS
  1
SUN
  2
AcDbSun
  3
SCENEOE
 90
     1153
280
     0
281
     0
  0
CLASS
  1
ACDBPLACEHOLDER
  2
AcDbPlaceHolder
  3
ObjectDBX Classes
 90
        0
280
     0
281
     0
  0
CLASS
  1
LAYOUT
  2
AcDbLayout
  3
ObjectDBX Classes
 90
        0
280
     0
281
     0
  0
CLASS
  1
TABLESTYLE
  2
AcDbTableStyle
  3
ObjectDBX Classes
 90
     4095
280
     0
281
     0
  0
CLASS
  1
MLEADERSTYLE
  2
AcDbMLeaderStyle
  3
ACDB_MLEADERSTYLE_CLASS
 90
     4095
280
     0
281
     0
  0
CLASS
  1
RASTERVARIABLES
  2
AcDbRasterVariables
  3
ISM
 90
        0
280
     0
281
     0
  0
ENDSEC
  0
SECTION
  2
TABLES
  0
TABLE
  2
VPORT
  5
8
330
0
100
AcDbSymbolTable
 70
     1
  0
VPORT
  5
29
330
8
100
AcDbSymbolTableRecord
100
AcDbViewportTableRecord
  2
*Active
 70
     0
 10
0.0
 20
0.0
 11
1.0
 21
1.0
 12
32.26361116761355
 22
59.91044198306781
 13
0.0
 23
0.0
 14
10.0
 24
10.0
 15
10.0
 25
10.0
 16
0.0
 26
0.0
 36
1.0
 17
0.0
 27
0.0
 37
0.0
 40
203.8278481499449
 41
1.740812379110251
 42
50.0
 43
0.0
 44
0.0
 50
0.0
 51
0.0
 71
    16
 72
  2000
 73
     1
 74
     3
 75
     0
 76
     0
 77
     0
 78
     0
281
     0
 65
     1
110
0.0
120
0.0
130
0.0
111
1.0
121
0.0
131
0.0
112
0.0
122
1.0
132
0.0
 79
     0
146
0.0
  0
ENDTAB
  0
TABLE
  2
LTYPE
  5
5
330
0
100
AcDbSymbolTable
 70
     6
  0
LTYPE
  5
14
330
5
100
AcDbSymbolTableRecord
100
AcDbLinetypeTableRecord
  2
ByBlock
 70
     0
  3

 72
    65
 73
     0
 40
0.0
  0
LTYPE
  5
15
330
5
100
AcDbSymbolTableRecord
100
AcDbLinetypeTableRecord
  2
ByLayer
 70
     0
  3

 72
    65
 73
     0
 40
0.0
  0
LTYPE
  5
16
330
5
100
AcDbSymbolTableRecord
100
AcDbLinetypeTableRecord
  2
Continuous
 70
     0
  3
Solid line
 72
    65
 73
     0
 40
0.0
  0
LTYPE
  5
6A
330
5
100
AcDbSymbolTableRecord
100
AcDbLinetypeTableRecord
  2
HIDDEN
 70
     0
  3
Hidden __ __ __ __ __ __ __ __ __ __ __ __ __ __
 72
    65
 73
     2
 40
1.905
 49
1.27
 74
     0
 49
-0.635
 74
     0
  0
LTYPE
  5
6B
330
5
100
AcDbSymbolTableRecord
100
AcDbLinetypeTableRecord
  2
PHANTOM
 70
     0
  3
Phantom ______  __  __  ______  __  __  ______
 72
    65
 73
     6
 40
12.7
 49
6.35
 74
     0
 49
-1.27
 74
     0
 49
1.27
 74
     0
 49
-1.27
 74
     0
 49
1.27
 74
     0
 49
-1.27
 74
     0
  0
LTYPE
  5
6C
330
5
100
AcDbSymbolTableRecord
100
AcDbLinetypeTableRecord
  2
CENTER
 70
     0
  3
Center ____ _ ____ _ ____ _ ____ _ ____ _ ____
 72
    65
 73
     4
 40
10.16
 49
6.35
 74
     0
 49
-1.27
 74
     0
 49
1.27
 74
     0
 49
-1.27
 74
     0
  0
LTYPE
  5
6D
330
5
100
AcDbSymbolTableRecord
100
AcDbLinetypeTableRecord
  2
CENTERX2
 70
     0
  3
Center (2x) ________  __  ________  __  _____
 72
    65
 73
     4
 40
20.32
 49
12.7
 74
     0
 49
-2.54
 74
     0
 49
2.54
 74
     0
 49
-2.54
 74
     0
  0
LTYPE
  5
6E
330
5
100
AcDbSymbolTableRecord
100
AcDbLinetypeTableRecord
  2
DOT2
 70
     0
  3
Dot (.5x) ........................................
 72
    65
 73
     2
 40
0.635
 49
0.0
 74
     0
 49
-0.635
 74
     0
  0
ENDTAB
  0
TABLE
  2
LAYER
  5
2
102
{ACAD_XDICTIONARY
360
191
102
}
330
0
100
AcDbSymbolTable
 70
    18
  0
LAYER
  5
10
330
2
100
AcDbSymbolTableRecord
100
AcDbLayerTableRecord
  2
0
 70
     0
 62
     7
  6
Continuous
370
    -3
390
F
  0
LAYER
  5
6F
330
2
100
AcDbSymbolTableRecord
100
AcDbLayerTableRecord
  2
FORMAT
 70
     0
 62
     2
  6
Continuous
370
    -3
390
F
  0
LAYER
  5
70
330
2
100
AcDbSymbolTableRecord
100
AcDbLayerTableRecord
  2
외형선
 70
     0
 62
     4
  6
Continuous
370
    30
390
F
  0
LAYER
  5
71
330
2
100
AcDbSymbolTableRecord
100
AcDbLayerTableRecord
  2
숨은선
 70
     0
 62
     2
  6
HIDDEN
370
    15
390
F
  0
LAYER
  5
72
330
2
100
AcDbSymbolTableRecord
100
AcDbLayerTableRecord
  2
중심선
 70
     0
 62
     1
  6
CENTERX2
370
    -3
390
F
  0
LAYER
  5
73
330
2
100
AcDbSymbolTableRecord
100
AcDbLayerTableRecord
  2
파단선
 70
     0
 62
     4
  6
Continuous
370
    -3
390
F
  0
LAYER
  5
74
330
2
100
AcDbSymbolTableRecord
100
AcDbLayerTableRecord
  2
해칭선
 70
     0
 62
   100
  6
Continuous
370
    -3
390
F
  0
LAYER
  5
75
330
2
100
AcDbSymbolTableRecord
100
AcDbLayerTableRecord
  2
가는실선
 70
     0
 62
     4
  6
Continuous
370
    -3
390
F
  0
LAYER
  5
76
330
2
100
AcDbSymbolTableRecord
100
AcDbLayerTableRecord
  2
치수_보조선
 70
     0
 62
     4
  6
Continuous
370
    -3
390
F
  0
LAYER
  5
77
330
2
100
AcDbSymbolTableRecord
100
AcDbLayerTableRecord
  2
치수문자_일반주서
 70
     0
 62
     7
  6
Continuous
370
    15
390
F
  0
LAYER
  5
78
330
2
100
AcDbSymbolTableRecord
100
AcDbLayerTableRecord
  2
개별주서
 70
     0
 62
   100
  6
Continuous
370
    30
390
F
  0
LAYER
  5
79
330
2
100
AcDbSymbolTableRecord
100
AcDbLayerTableRecord
  2
중간선
 70
     0
 62
     2
  6
Continuous
370
    15
390
F
  0
LAYER
  5
7A
330
2
100
AcDbSymbolTableRecord
100
AcDbLayerTableRecord
  2
윤곽선
 70
     0
 62
     3
  6
Continuous
370
    40
390
F
  0
LAYER
  5
7B
330
2
100
AcDbSymbolTableRecord
100
AcDbLayerTableRecord
  2
중심마크
 70
     0
 62
   100
  6
Continuous
370
    30
390
F
  0
LAYER
  5
7C
330
2
100
AcDbSymbolTableRecord
100
AcDbLayerTableRecord
  2
가상선
 70
     0
 62
     4
  6
PHANTOM
370
    -3
390
F
  0
LAYER
  5
7D
330
2
100
AcDbSymbolTableRecord
100
AcDbLayerTableRecord
  2
특수지정선
 70
     0
 62
     5
  6
CENTERX2
370
    60
390
F
  0
LAYER
  5
7E
330
2
100
AcDbSymbolTableRecord
100
AcDbLayerTableRecord
  2
참조1
 70
     0
 62
    -4
  6
Continuous
370
    -3
390
F
  0
LAYER
  5
198
330
2
100
AcDbSymbolTableRecord
100
AcDbLayerTableRecord
  2
Defpoints
 70
     0
 62
     7
  6
Continuous
290
     0
370
    -3
390
F
  0
ENDTAB
  0
TABLE
  2
STYLE
  5
3
330
0
100
AcDbSymbolTable
 70
     2
  0
STYLE
  5
11
330
3
100
AcDbSymbolTableRecord
100
AcDbTextStyleTableRecord
  2
Standard
 70
     0
 40
0.0
 41
1.0
 50
0.0
 71
     0
 42
3.5
  3
txt
  4

  0
STYLE
  5
94
330
3
100
AcDbSymbolTableRecord
100
AcDbTextStyleTableRecord
  2
SLDTEXTSTYLE0
 70
     0
 40
0.0
 41
0.75
 50
0.0
 71
     0
 42
3.5
  3
TXT
  4

  0
ENDTAB
  0
TABLE
  2
VIEW
  5
6
330
0
100
AcDbSymbolTable
 70
     0
  0
ENDTAB
  0
TABLE
  2
UCS
  5
7
330
0
100
AcDbSymbolTable
 70
     0
  0
ENDTAB
  0
TABLE
  2
APPID
  5
9
330
0
100
AcDbSymbolTable
 70
     1
  0
APPID
  5
12
330
9
100
AcDbSymbolTableRecord
100
AcDbRegAppTableRecord
  2
ACAD
 70
     0
  0
ENDTAB
  0
TABLE
  2
DIMSTYLE
  5
A
330
0
100
AcDbSymbolTable
 70
     4
100
AcDbDimStyleTable
  0
DIMSTYLE
105
27
330
A
100
AcDbSymbolTableRecord
100
AcDbDimStyleTableRecord
  2
ISO-25
 70
     0
 41
2.5
 42
0.625
 43
3.75
 44
1.25
 73
     0
 74
     0
 77
     1
 78
     8
140
2.5
141
2.5
143
0.03937007874016
147
0.625
171
     3
172
     1
178
     0
271
     2
272
     2
274
     3
278
    44
283
     0
284
     8
340
11
  0
DIMSTYLE
105
E9
102
{ACAD_REACTORS
330
E8
330
FD
330
112
330
125
102
}
330
A
100
AcDbSymbolTableRecord
100
AcDbDimStyleTableRecord
  2
SLDDIMSTYLE0
 70
     0
 41
3.302
 44
0.0
 45
0.000000001
 73
     0
 74
     0
 77
     1
 78
     4
 79
     1
140
3.5
143
0.0393700787401575
147
0.875
148
0.000000001
170
     1
172
     1
173
     1
178
     0
271
     2
272
     2
276
     2
284
    12
289
     0
340
94
  0
DIMSTYLE
105
FE
330
A
100
AcDbSymbolTableRecord
100
AcDbDimStyleTableRecord
  2
SLDDIMSTYLE1
 70
     0
 41
3.302
 44
0.0
 45
0.000000001
 73
     0
 74
     0
 77
     1
 78
     4
 79
     1
140
3.5
143
0.0393700787401575
147
0.875
148
0.000000001
170
     1
173
     1
178
     0
271
     2
272
     2
276
     2
284
    12
340
94
  0
DIMSTYLE
105
126
330
A
100
AcDbSymbolTableRecord
100
AcDbDimStyleTableRecord
  2
SLDDIMSTYLE2
 70
     0
 41
3.302
 44
0.0
 45
0.000000001
 73
     0
 74
     0
 77
     1
 78
    12
 79
     3
140
3.5
143
0.0393700787401575
147
0.875
148
0.000000001
170
     1
173
     1
178
     0
271
     2
272
     2
276
     2
284
    12
340
94
  0
ENDTAB
  0
TABLE
  2
BLOCK_RECORD
  5
1
330
0
100
AcDbSymbolTable
 70
     8
  0
BLOCK_RECORD
  5
1F
330
1
100
AcDbSymbolTableRecord
100
AcDbBlockTableRecord
  2
*Model_Space
340
22
  0
BLOCK_RECORD
  5
1B
330
1
100
AcDbSymbolTableRecord
100
AcDbBlockTableRecord
  2
*Paper_Space
340
1E
  0
BLOCK_RECORD
  5
23
330
1
100
AcDbSymbolTableRecord
100
AcDbBlockTableRecord
  2
*Paper_Space0
340
26
  0
BLOCK_RECORD
  5
7F
330
1
100
AcDbSymbolTableRecord
100
AcDbBlockTableRecord
  2
블럭10
340
0
102
{BLKREFS
331
E1
102
}
  0
BLOCK_RECORD
  5
EA
330
1
100
AcDbSymbolTableRecord
100
AcDbBlockTableRecord
  2
_D
340
0
  0
BLOCK_RECORD
  5
FF
330
1
100
AcDbSymbolTableRecord
100
AcDbBlockTableRecord
  2
_D_1
340
0
  0
BLOCK_RECORD
  5
113
330
1
100
AcDbSymbolTableRecord
100
AcDbBlockTableRecord
  2
_D_2
340
0
  0
BLOCK_RECORD
  5
127
330
1
100
AcDbSymbolTableRecord
100
AcDbBlockTableRecord
  2
_D_3
340
0
  0
BLOCK_RECORD
  5
140
330
1
100
AcDbSymbolTableRecord
100
AcDbBlockTableRecord
  2
SW_DOWELSYMBOL_0
340
0
102
{BLKREFS
331
146
102
}
  0
ENDTAB
  0
ENDSEC
  0
SECTION
  2
BLOCKS
  0
BLOCK
  5
20
330
1F
100
AcDbEntity
  8
0
100
AcDbBlockBegin
  2
*Model_Space
 70
     0
 10
0.0
 20
0.0
 30
0.0
  3
*Model_Space
  1
*Model_Space
  0
ENDBLK
  5
21
330
1F
100
AcDbEntity
  8
0
100
AcDbBlockEnd
  0
BLOCK
  5
1C
330
1B
100
AcDbEntity
 67
     1
  8
0
100
AcDbBlockBegin
  2
*Paper_Space
 70
     0
 10
0.0
 20
0.0
 30
0.0
  3
*Paper_Space
  1
*Paper_Space
  0
ENDBLK
  5
1D
330
1B
100
AcDbEntity
 67
     1
  8
0
100
AcDbBlockEnd
  0
BLOCK
  5
24
330
23
100
AcDbEntity
  8
0
100
AcDbBlockBegin
  2
*Paper_Space0
 70
     0
 10
0.0
 20
0.0
 30
0.0
  3
*Paper_Space0
  1
*Paper_Space0
  0
ENDBLK
  5
25
330
23
100
AcDbEntity
  8
0
100
AcDbBlockEnd
  0
BLOCK
  5
80
330
7F
100
AcDbEntity
  8
0
100
AcDbBlockBegin
  2
블럭10
 70
     2
 10
0.0
 20
0.0
 30
0.0
  3
블럭10
  1
블럭10
  0
ELLIPSE
  5
82
330
7F
100
AcDbEntity
  8
중심선
100
AcDbEllipse
 10
20.54032771741204
 20
12.0471743016438
 30
0.0
 11
6.600054785286829
 21
-1.261213355974178E-13
 31
0.0
210
0.0
220
0.0
230
1.0
 40
0.636358354079598
 41
0.9219305317359503
 42
6.513795318482858
  0
ELLIPSE
  5
83
330
7F
100
AcDbEntity
  8
중심선
100
AcDbEllipse
 10
20.54032771746488
 20
12.04717430159265
 30
0.0
 11
3.960054785062283
 21
1.540847449632565E-10
 31
0.0
210
0.0
220
0.0
230
1.0
 40
0.3939339440162632
 41
1.131841032648279
 42
5.62031148352944
  0
LINE
  5
84
330
7F
100
AcDbEntity
  8
중심선
100
AcDbLine
 10
2.268634060543552
 20
16.24717430164393
 30
0.0
 11
5.714909304380834
 21
16.24717430164393
 31
0.0
  0
LINE
  5
85
330
7F
100
AcDbEntity
  8
중심선
100
AcDbLine
 10
5.245725140726316
 20
7.84717430164391
 30
0.0
 11
8.692000384563599
 21
7.84717430164391
 31
0.0
  0
LINE
  5
86
330
7F
100
AcDbEntity
  8
중심선
100
AcDbLine
 10
15.74043728645272
 20
16.24717430164393
 30
0.0
 11
8.692000384563599
 21
7.84717430164391
 31
0.0
  0
LINE
  5
87
330
7F
100
AcDbEntity
  8
중심선
100
AcDbLine
 10
0.1404042013395286
 20
13.71084872107135
 30
0.0
 11
3.58671253028996
 21
13.71088815037384
 31
0.0
  0
LINE
  5
88
330
7F
100
AcDbEntity
  8
중심선
100
AcDbLine
 10
2.750260043222114
 20
10.84717430164391
 30
0.0
 11
6.196535287059397
 21
10.84717430164391
 31
0.0
  0
LINE
  5
89
330
7F
100
AcDbEntity
  8
중심선
100
AcDbLine
 10
12.29416204261559
 20
16.24717430164393
 30
0.0
 11
5.245725140726316
 21
7.84717430164391
 31
0.0
  0
LINE
  5
8A
330
7F
100
AcDbEntity
  8
중심선
100
AcDbLine
 10
10.72767329541681
 20
16.24717430164393
 30
0.0
 11
6.196535287059397
 21
10.84717430164391
 31
0.0
  0
LINE
  5
8B
330
7F
100
AcDbEntity
  8
중심선
100
AcDbLine
 10
7.28139805157953
 20
16.24717430164393
 30
0.0
 11
2.750260043222114
 21
10.84717430164391
 31
0.0
  0
LINE
  5
8C
330
7F
100
AcDbEntity
  8
중심선
100
AcDbLine
 10
5.714909304380834
 20
16.24717430164393
 30
0.0
 11
3.58671253028996
 21
13.71088815037384
 31
0.0
  0
LINE
  5
8D
330
7F
100
AcDbEntity
  8
중심선
100
AcDbLine
 10
2.268634060543552
 20
16.24717430164393
 30
0.0
 11
0.1404042013395286
 21
13.71084872107135
 31
0.0
  0
LINE
  5
8E
330
7F
100
AcDbEntity
  8
중심선
100
AcDbLine
 10
7.28139805157953
 20
16.24717430164393
 30
0.0
 11
10.72767329541681
 21
16.24717430164393
 31
0.0
  0
LINE
  5
8F
330
7F
100
AcDbEntity
  8
중심선
100
AcDbLine
 10
12.29416204261559
 20
16.24717430164393
 30
0.0
 11
15.74043728645272
 21
16.24717430164393
 31
0.0
  0
LINE
  5
90
330
7F
100
AcDbEntity
  8
중심선
100
AcDbLine
 10
19.22036997980202
 20
11.08717430171403
 30
0.0
 11
23.66174974927406
 21
11.08717430171406
 31
0.0
  0
LINE
  5
91
330
7F
100
AcDbEntity
  8
중심선
100
AcDbLine
 10
19.22039502424796
 20
13.00717430171391
 30
0.0
 11
19.22036997980202
 21
11.08717430171403
 31
0.0
  0
LINE
  5
92
330
7F
100
AcDbEntity
  8
중심선
100
AcDbLine
 10
19.22039502424796
 20
13.00717430171391
 30
0.0
 11
26.96566020931264
 21
13.00717430171391
 31
0.0
  0
LINE
  5
93
330
7F
100
AcDbEntity
  8
중심선
100
AcDbLine
 10
22.22332737316547
 20
13.45928029700563
 30
0.0
 11
24.52862924686651
 21
15.39360700705356
 31
0.0
  0
ATTDEF
  5
95
330
7F
100
AcDbEntity
  8
FORMAT
 62
     2
100
AcDbText
 10
4.408487351596664
 20
2.075366912832191
 30
0.0
 40
4.233333333333333
  1
E1072064
 41
0.75
  7
SLDTEXTSTYLE0
 11
4.408487351596664
 21
-0.0412997538344756
 31
0.0
100
AcDbAttributeDefinition
  3

  2
AUTOATTR0
 70
     0
 74
     1
  0
ENDBLK
  5
81
330
7F
100
AcDbEntity
  8
0
100
AcDbBlockEnd
  0
BLOCK
  5
EB
330
EA
100
AcDbEntity
  8
0
100
AcDbBlockBegin
  2
_D
 70
     0
 10
0.0
 20
0.0
 30
0.0
  3
_D
  1
_D
  0
LINE
  5
ED
330
EA
100
AcDbEntity
  8
치수문자_일반주서
 62
     0
370
    -2
100
AcDbLine
 10
-50.56249999999998
 20
12.69999999999999
 30
0.0
 11
-64.00000000000004
 21
12.69999999999994
 31
0.0
  0
LINE
  5
EE
330
EA
100
AcDbEntity
  8
치수문자_일반주서
 62
     0
370
    -2
100
AcDbLine
 10
-50.56249999999998
 20
-12.70000000000002
 30
0.0
 11
-63.99999999999994
 21
-12.70000000000007
 31
0.0
  0
LINE
  5
EF
330
EA
100
AcDbEntity
  8
치수문자_일반주서
 62
     0
370
    -2
100
AcDbLine
 10
-64.00000000000003
 20
9.397999999999936
 30
0.0
 11
-63.99999999999996
 21
-9.39800000000007
 31
0.0
  0
SOLID
  5
F0
330
EA
100
AcDbEntity
  8
치수문자_일반주서
 62
     0
100
AcDbTrace
 10
-63.44966666666669
 20
9.397999999999938
 30
0.0
 11
-64.55033333333336
 21
9.397999999999934
 31
0.0
 12
-64.00000000000004
 22
12.69999999999994
 32
0.0
 13
-64.00000000000004
 23
12.69999999999994
 33
0.0
  0
SOLID
  5
F1
330
EA
100
AcDbEntity
  8
치수문자_일반주서
 62
     0
100
AcDbTrace
 10
-64.55033333333328
 20
-9.398000000000073
 30
0.0
 11
-63.44966666666662
 21
-9.398000000000069
 31
0.0
 12
-63.99999999999994
 22
-12.70000000000007
 32
0.0
 13
-63.99999999999994
 23
-12.70000000000007
 33
0.0
  0
MTEXT
  5
F2
330
EA
100
AcDbEntity
  8
치수문자_일반주서
 62
     0
100
AcDbMText
 10
-68.375
 20
-0.0000000000000192
 30
0.0
 40
3.5
 41
0.0
 71
     2
 72
     1
  1
\A1;%%c25.40 [1]
  7
SLDTEXTSTYLE0
 11
-3.636636049165866E-15
 21
1.0
 31
0.0
 73
     1
 44
1.0
  0
POINT
  5
F3
330
EA
100
AcDbEntity
  8
Defpoints
 62
     0
100
AcDbPoint
 10
-50.49999999999998
 20
12.69999999999999
 30
0.0
  0
POINT
  5
F4
330
EA
100
AcDbEntity
  8
Defpoints
 62
     0
100
AcDbPoint
 10
-50.49999999999998
 20
-12.70000000000002
 30
0.0
  0
POINT
  5
F5
330
EA
100
AcDbEntity
  8
Defpoints
 62
     0
100
AcDbPoint
 10
-63.99999999999995
 20
-12.70000000000007
 30
0.0
  0
ENDBLK
  5
EC
330
EA
100
AcDbEntity
  8
0
100
AcDbBlockEnd
  0
BLOCK
  5
100
330
FF
100
AcDbEntity
  8
0
100
AcDbBlockBegin
  2
_D_1
 70
     0
 10
0.0
 20
0.0
 30
0.0
  3
_D_1
  1
_D_1
  0
LINE
  5
102
330
FF
100
AcDbEntity
  8
치수문자_일반주서
 62
     0
370
    -2
100
AcDbLine
 10
164.3999999999993
 20
12.76250000000002
 30
0.0
 11
164.3999999999993
 21
25.86560788423943
 31
0.0
  0
LINE
  5
103
330
FF
100
AcDbEntity
  8
치수문자_일반주서
 62
     0
370
    -2
100
AcDbLine
 10
12.00000000000004
 20
8.440937903516225
 30
0.0
 11
12.00000000000004
 21
25.86560788423943
 31
0.0
  0
LINE
  5
104
330
FF
100
AcDbEntity
  8
치수문자_일반주서
 62
     0
370
    -2
100
AcDbLine
 10
161.0979999999993
 20
25.86560788423943
 30
0.0
 11
15.30200000000004
 21
25.86560788423943
 31
0.0
  0
SOLID
  5
105
330
FF
100
AcDbEntity
  8
치수문자_일반주서
 62
     0
100
AcDbTrace
 10
161.0979999999993
 20
25.3152745509061
 30
0.0
 11
161.0979999999993
 21
26.41594121757277
 31
0.0
 12
164.3999999999993
 22
25.86560788423943
 32
0.0
 13
164.3999999999993
 23
25.86560788423943
 33
0.0
  0
SOLID
  5
106
330
FF
100
AcDbEntity
  8
치수문자_일반주서
 62
     0
100
AcDbTrace
 10
15.30200000000004
 20
26.41594121757277
 30
0.0
 11
15.30200000000004
 21
25.3152745509061
 31
0.0
 12
12.00000000000004
 22
25.86560788423943
 32
0.0
 13
12.00000000000004
 23
25.86560788423943
 33
0.0
  0
MTEXT
  5
107
330
FF
100
AcDbEntity
  8
치수문자_일반주서
 62
     0
100
AcDbMText
 10
84.23756704597848
 20
30.24060788423943
 30
0.0
 40
3.5
 41
0.0
 71
     2
 72
     1
  1
\A1;152.40 [6]
  7
SLDTEXTSTYLE0
 73
     1
 44
1.0
  0
POINT
  5
108
330
FF
100
AcDbEntity
  8
Defpoints
 62
     0
100
AcDbPoint
 10
164.3999999999993
 20
12.70000000000002
 30
0.0
  0
POINT
  5
109
330
FF
100
AcDbEntity
  8
Defpoints
 62
     0
100
AcDbPoint
 10
12.00000000000004
 20
8.378437903516225
 30
0.0
  0
POINT
  5
10A
330
FF
100
AcDbEntity
  8
Defpoints
 62
     0
100
AcDbPoint
 10
12.00000000000004
 20
25.86560788423943
 30
0.0
  0
ENDBLK
  5
101
330
FF
100
AcDbEntity
  8
0
100
AcDbBlockEnd
  0
BLOCK
  5
114
330
113
100
AcDbEntity
  8
0
100
AcDbBlockBegin
  2
_D_2
 70
     0
 10
0.0
 20
0.0
 30
0.0
  3
_D_2
  1
_D_2
  0
LINE
  5
116
330
113
100
AcDbEntity
  8
치수문자_일반주서
 62
     0
370
    -2
100
AcDbLine
 10
164.3999999999993
 20
12.76250000000002
 30
0.0
 11
164.3999999999993
 21
42.57707860462925
 31
0.0
  0
LINE
  5
117
330
113
100
AcDbEntity
  8
치수문자_일반주서
 62
     0
370
    -2
100
AcDbLine
 10
-51.49999999999996
 20
11.76249999999998
 30
0.0
 11
-51.49999999999995
 21
42.57707860462925
 31
0.0
  0
LINE
  5
118
330
113
100
AcDbEntity
  8
치수문자_일반주서
 62
     0
370
    -2
100
AcDbLine
 10
161.0979999999993
 20
42.57707860462925
 30
0.0
 11
-48.19799999999995
 21
42.57707860462925
 31
0.0
  0
SOLID
  5
119
330
113
100
AcDbEntity
  8
치수문자_일반주서
 62
     0
100
AcDbTrace
 10
161.0979999999993
 20
42.02674527129592
 30
0.0
 11
161.0979999999993
 21
43.12741193796258
 31
0.0
 12
164.3999999999993
 22
42.57707860462925
 32
0.0
 13
164.3999999999993
 23
42.57707860462925
 33
0.0
  0
SOLID
  5
11A
330
113
100
AcDbEntity
  8
치수문자_일반주서
 62
     0
100
AcDbTrace
 10
-48.19799999999995
 20
43.12741193796258
 30
0.0
 11
-48.19799999999995
 21
42.02674527129592
 31
0.0
 12
-51.49999999999995
 22
42.57707860462925
 32
0.0
 13
-51.49999999999995
 23
42.57707860462925
 33
0.0
  0
MTEXT
  5
11B
330
113
100
AcDbEntity
  8
치수문자_일반주서
 62
     0
100
AcDbMText
 10
56.44999999999947
 20
46.95207860462925
 30
0.0
 40
3.5
 41
0.0
 71
     2
 72
     1
  1
\A1;215.90 [8 1/2]
  7
SLDTEXTSTYLE0
 73
     1
 44
1.0
  0
POINT
  5
11C
330
113
100
AcDbEntity
  8
Defpoints
 62
     0
100
AcDbPoint
 10
164.3999999999993
 20
12.70000000000002
 30
0.0
  0
POINT
  5
11D
330
113
100
AcDbEntity
  8
Defpoints
 62
     0
100
AcDbPoint
 10
-51.49999999999996
 20
11.69999999999998
 30
0.0
  0
POINT
  5
11E
330
113
100
AcDbEntity
  8
Defpoints
 62
     0
100
AcDbPoint
 10
-51.49999999999996
 20
42.57707860462925
 30
0.0
  0
ENDBLK
  5
115
330
113
100
AcDbEntity
  8
0
100
AcDbBlockEnd
  0
BLOCK
  5
128
330
127
100
AcDbEntity
  8
0
100
AcDbBlockBegin
  2
_D_3
 70
     0
 10
0.0
 20
0.0
 30
0.0
  3
_D_3
  1
_D_3
  0
LINE
  5
12A
330
127
100
AcDbEntity
  8
치수문자_일반주서
 62
     0
370
    -2
100
AcDbLine
 10
164.4625
 20
-12.69999999999998
 30
0.0
 11
187.9464526017237
 21
-12.69999999999989
 31
0.0
  0
LINE
  5
12B
330
127
100
AcDbEntity
  8
치수문자_일반주서
 62
     0
370
    -2
100
AcDbLine
 10
164.4624999999993
 20
12.70000000000002
 30
0.0
 11
187.9464526017236
 21
12.70000000000011
 31
0.0
  0
LINE
  5
12C
330
127
100
AcDbEntity
  8
치수문자_일반주서
 62
     0
370
    -2
100
AcDbLine
 10
187.9464526017236
 20
12.70000000000011
 30
0.0
 11
187.9464526017235
 21
44.44951615341658
 31
0.0
  0
LINE
  5
12D
330
127
100
AcDbEntity
  8
치수문자_일반주서
 62
     0
370
    -2
100
AcDbLine
 10
187.9464526017237
 20
-12.69999999999989
 30
0.0
 11
187.9464526017236
 21
12.70000000000011
 31
0.0
  0
LINE
  5
12E
330
127
100
AcDbEntity
  8
치수문자_일반주서
 62
     0
370
    -2
100
AcDbLine
 10
187.9464526017237
 20
-16.00199999999989
 30
0.0
 11
187.9464526017237
 21
-19.30399999999989
 31
0.0
  0
LINE
  5
12F
330
127
100
AcDbEntity
  8
치수문자_일반주서
 62
     0
370
    -2
100
AcDbLine
 10
187.9464526017236
 20
16.00200000000011
 30
0.0
 11
187.9464526017236
 21
19.30400000000011
 31
0.0
  0
SOLID
  5
130
330
127
100
AcDbEntity
  8
치수문자_일반주서
 62
     0
100
AcDbTrace
 10
188.496785935057
 20
-16.00199999999989
 30
0.0
 11
187.3961192683904
 21
-16.00199999999989
 31
0.0
 12
187.9464526017237
 22
-12.69999999999989
 32
0.0
 13
187.9464526017237
 23
-12.69999999999989
 33
0.0
  0
SOLID
  5
131
330
127
100
AcDbEntity
  8
치수문자_일반주서
 62
     0
100
AcDbTrace
 10
187.3961192683903
 20
16.00200000000011
 30
0.0
 11
188.4967859350569
 21
16.00200000000011
 31
0.0
 12
187.9464526017236
 22
12.70000000000011
 32
0.0
 13
187.9464526017236
 23
12.70000000000011
 33
0.0
  0
MTEXT
  5
132
330
127
100
AcDbEntity
  8
치수문자_일반주서
 62
     0
100
AcDbMText
 10
183.5714526017236
 20
33.29326615341657
 30
0.0
 40
3.5
 41
0.0
 71
     2
 72
     1
  1
\A1;%%c25.40 [1]
  7
SLDTEXTSTYLE0
 11
-3.356894814614647E-15
 21
1.0
 31
0.0
 73
     1
 44
1.0
  0
POINT
  5
133
330
127
100
AcDbEntity
  8
Defpoints
 62
     0
100
AcDbPoint
 10
164.4
 20
-12.69999999999998
 30
0.0
  0
POINT
  5
19B
330
127
100
AcDbEntity
  8
Defpoints
 62
     0
100
AcDbPoint
 10
164.3999999999993
 20
12.70000000000002
 30
0.0
  0
POINT
  5
19C
330
127
100
AcDbEntity
  8
Defpoints
 62
     0
100
AcDbPoint
 10
187.9464526017236
 20
12.70000000000011
 30
0.0
  0
ENDBLK
  5
129
330
127
100
AcDbEntity
  8
0
100
AcDbBlockEnd
  0
BLOCK
  5
141
330
140
100
AcDbEntity
  8
0
100
AcDbBlockBegin
  2
SW_DOWELSYMBOL_0
 70
     0
 10
0.0
 20
0.0
 30
0.0
  3
SW_DOWELSYMBOL_0
  1
SW_DOWELSYMBOL_0
  0
CIRCLE
  5
143
330
140
100
AcDbEntity
  8
해칭선
 62
     0
100
AcDbCircle
 10
0.0
 20
0.0
 30
0.0
 40
2.999999999999996
  0
HATCH
  5
144
330
140
100
AcDbEntity
  8
0
  6
Continuous
 62
     0
370
     0
100
AcDbHatch
 10
0.0
 20
0.0
 30
0.0
210
0.0
220
0.0
230
1.0
  2
SOLID
 70
     1
 71
     0
 91
        1
 92
        0
 93
        3
 72
     2
 10
0.0
 20
0.0
 40
2.999999999999996
 50
0.0
 51
90.0
 73
     1
 72
     1
 10
0.0
 20
2.999999999999996
 11
0.0
 21
0.0
 72
     1
 10
0.0
 20
0.0
 11
2.999999999999996
 21
0.0
 97
        0
 75
     0
 76
     1
 98
        1
 10
0.0
 20
0.0
  0
HATCH
  5
145
330
140
100
AcDbEntity
  8
0
  6
Continuous
 62
     0
370
     0
100
AcDbHatch
 10
0.0
 20
0.0
 30
0.0
210
0.0
220
0.0
230
1.0
  2
SOLID
 70
     1
 71
     0
 91
        1
 92
        0
 93
        3
 72
     2
 10
0.0
 20
0.0
 40
2.999999999999996
 50
180.0
 51
270.0000000000007
 73
     1
 72
     1
 10
0.0
 20
-2.999999999999996
 11
0.0
 21
0.0
 72
     1
 10
0.0
 20
0.0
 11
-2.999999999999996
 21
0.0
 97
        0
 75
     0
 76
     1
 98
        1
 10
0.0
 20
0.0
  0
ENDBLK
  5
142
330
140
100
AcDbEntity
  8
0
100
AcDbBlockEnd
  0
ENDSEC
  0
SECTION
  2
ENTITIES
  0
LINE
  5
96
330
1F
100
AcDbEntity
  8
외형선
  6
Continuous
370
    15
100
AcDbLine
 10
8.949892619842029
 20
12.7
 30
0.0
 11
-14.06992499999993
 21
12.7
 31
0.0
  0
LINE
  5
97
330
1F
100
AcDbEntity
  8
외형선
  6
Continuous
370
    15
100
AcDbLine
 10
-50.49999999999996
 20
-12.70000000000001
 30
0.0
 11
8.949892619842029
 21
-12.7
 31
0.0
  0
LINE
  5
99
330
1F
100
AcDbEntity
  8
외형선
  6
Continuous
370
    15
100
AcDbLine
 10
-51.49999999999996
 20
-11.7
 30
0.0
 11
-50.49999999999996
 21
-12.7
 31
0.0
  0
SPLINE
  5
9A
330
1F
100
AcDbEntity
  8
외형선
  6
Continuous
370
    15
100
AcDbSpline
210
0.0
220
0.0
230
1.0
 70
     8
 71
     3
 72
     9
 73
     5
 74
     0
 42
0.000000001
 43
0.00000001
 40
0.0
 40
0.0
 40
0.0
 40
0.0
 40
0.4993373752381176
 40
1.0
 40
1.0
 40
1.0
 40
1.0
 10
12.00000000000003
 20
8.37843532840492
 30
0.0
 10
11.53775694027667
 20
8.390508064797023
 30
0.0
 10
10.6120440202235
 20
8.41468557882017
 30
0.0
 10
9.686015990059467
 20
8.460885498526572
 30
0.0
 10
9.22238836587447
 20
8.48401607159057
 30
0.0
  0
ARC
  5
9B
330
1F
100
AcDbEntity
  8
외형선
  6
Continuous
370
    15
100
AcDbCircle
 10
9.299892615815471
 20
8.830370551449226
 30
0.0
 40
0.3499999959753692
100
AcDbArc
 50
180.0306575059918
 51
268.161598357242
  0
SPLINE
  5
9C
330
1F
100
AcDbEntity
  8
0
  6
Continuous
 62
     1
370
    15
100
AcDbSpline
210
0.0
220
0.0
230
1.0
 70
     8
 71
     3
 72
     9
 73
     5
 74
     0
 42
0.000000001
 43
0.00000001
 40
0.0
 40
0.0
 40
0.0
 40
0.0
 40
0.4990876299609808
 40
1.0
 40
1.0
 40
1.0
 40
1.0
 10
62.39165826326106
 20
3.254382064619418
 30
0.0
 10
61.80564521800624
 20
3.5336687777294
 30
0.0
 10
60.63147657491517
 20
4.093263318535425
 30
0.0
 10
59.45702251994831
 20
4.708412187171076
 30
0.0
 10
58.86872395577292
 20
5.01654786488618
 30
0.0
  0
SPLINE
  5
9D
330
1F
100
AcDbEntity
  8
0
  6
Continuous
 62
     1
370
    15
100
AcDbSpline
210
0.0
220
0.0
230
1.0
 70
     8
 71
     3
 72
     9
 73
     5
 74
     0
 42
0.000000001
 43
0.00000001
 40
0.0
 40
0.0
 40
0.0
 40
0.0
 40
0.5189711017031128
 40
1.0
 40
1.0
 40
1.0
 40
1.0
 10
131.497452561587
 20
3.254364009785961
 30
0.0
 10
130.8888078996011
 20
3.544608135835611
 30
0.0
 10
129.7160168521065
 20
4.103876513394887
 30
0.0
 10
128.5401481939871
 20
4.720102984270635
 30
0.0
 10
127.97452138883
 20
5.016525724657374
 30
0.0
  0
LINE
  5
9E
330
1F
100
AcDbEntity
  8
0
  6
Continuous
 62
     1
370
    15
100
AcDbLine
 10
124.4801810856175
 20
3.572568467941216
 30
0.0
 11
124.3369722192182
 21
3.651271804755368
 31
0.0
  0
LINE
  5
9F
330
1F
100
AcDbEntity
  8
0
  6
Continuous
 62
     1
370
    15
100
AcDbLine
 10
55.36569897733597
 20
3.577383316217256
 30
0.0
 11
55.23126768415658
 21
3.651243410086185
 31
0.0
  0
LINE
  5
A0
330
1F
100
AcDbEntity
  8
0
  6
Continuous
 62
     1
370
    15
100
AcDbLine
 10
27.09273784201594
 20
-12.70000000000002
 30
0.0
 11
33.24771454221453
 21
-12.70000000000002
 31
0.0
  0
LINE
  5
A1
330
1F
100
AcDbEntity
  8
0
  6
Continuous
 62
     1
370
    15
100
AcDbLine
 10
102.3542060398166
 20
12.70000000000001
 30
0.0
 11
96.1993724865474
 21
12.70000000000001
 31
0.0
  0
LINE
  5
A2
330
1F
100
AcDbEntity
  8
0
  6
Continuous
 62
     1
370
    15
100
AcDbLine
 10
96.19937248654739
 20
-12.70000000000002
 30
0.0
 11
102.3542060398166
 21
-12.70000000000002
 31
0.0
  0
LINE
  5
A3
330
1F
100
AcDbEntity
  8
0
  6
Continuous
 62
     1
370
    15
100
AcDbLine
 10
33.24771454221437
 20
12.70000000000001
 30
0.0
 11
27.09273784201589
 21
12.70000000000001
 31
0.0
  0
SPLINE
  5
A4
330
1F
100
AcDbEntity
  8
0
  6
Continuous
 62
     1
370
    15
100
AcDbSpline
210
0.0
220
0.0
230
1.0
 70
     8
 71
     3
 72
    27
 73
    23
 74
     0
 42
0.000000001
 43
0.00000001
 40
0.0
 40
0.0
 40
0.0
 40
0.0
 40
0.0723395538477213
 40
0.1246211132626758
 40
0.1591498409478892
 40
0.1948040575785934
 40
0.2360748403469478
 40
0.277611897254146
 40
0.3115282866596257
 40
0.3639608084876406
 40
0.4255352272280665
 40
0.4998893324143861
 40
0.5518744140402064
 40
0.591942763154469
 40
0.636039082474993
 40
0.6866248121564055
 40
0.7428927351114074
 40
0.7842431732943949
 40
0.8155906428697857
 40
0.8510085641865649
 40
0.912371839618632
 40
1.0
 40
1.0
 40
1.0
 40
1.0
 10
108.1979875642873
 20
-10.56817126757906
 30
0.0
 10
108.6566312197022
 20
-10.52354571175759
 30
0.0
 10
109.4467478279547
 20
-10.44666817864281
 30
0.0
 10
110.4569196684929
 20
-10.35939650412446
 30
0.0
 10
111.2418298290027
 20
-10.29640124365282
 30
0.0
 10
111.9546525759597
 20
-10.24285531752416
 30
0.0
 10
112.7098806053783
 20
-10.19035705333276
 30
0.0
 10
113.452628545706
 20
-10.14319835712494
 30
0.0
 10
114.2666439246673
 20
-10.09617054146053
 30
0.0
 10
115.208713804232
 20
-10.04809096322099
 30
0.0
 10
116.4083669892367
 20
-9.99742487765025
 30
0.0
 10
117.6045709191157
 20
-9.959484794253648
 30
0.0
 10
118.6642275387075
 20
-9.936604321823445
 30
0.0
 10
119.5314102222234
 20
-9.92421957001231
 30
0.0
 10
120.389355086387
 20
-9.917711345674894
 30
0.0
 10
121.3501483997812
 20
-9.917710271036857
 30
0.0
 10
122.2938797108346
 20
-9.925765285115428
 30
0.0
 10
123.1152169782473
 20
-9.939180918757202
 30
0.0
 10
123.7983111344438
 20
-9.954211127245916
 30
0.0
 10
124.60880793504
 20
-9.976404117867627
 30
0.0
 10
125.7862735028231
 20
-10.01686286049633
 30
0.0
 10
126.7393486827203
 20
-10.06412012881528
 30
0.0
 10
127.2998924768221
 20
-10.09191412559657
 30
0.0
  0
SPLINE
  5
A5
330
1F
100
AcDbEntity
  8
0
  6
Continuous
 62
     1
370
    15
100
AcDbSpline
210
0.0
220
0.0
230
1.0
 70
     8
 71
     3
 72
    17
 73
    13
 74
     0
 42
0.000000001
 43
0.00000001
 40
0.0
 40
0.0
 40
0.0
 40
0.0
 40
0.1646303468285348
 40
0.2890702747196619
 40
0.3963615407482126
 40
0.4922267550473111
 40
0.5746899871014817
 40
0.6761737866858804
 40
0.7970746784548873
 40
0.9006901298811926
 40
0.9888000951139976
 40
1.0
 40
1.0
 40
1.0
 40
1.0
 10
58.19415039333926
 20
10.09191485666667
 30
0.0
 10
57.64245292163309
 20
10.06416757936407
 30
0.0
 10
56.67374124252606
 20
10.01544683481666
 30
0.0
 10
55.29319832969196
 20
9.969291969074968
 30
0.0
 10
54.15858211840958
 20
9.941216239179397
 30
0.0
 10
53.1803303734709
 20
9.925734620473973
 30
0.0
 10
52.21955967886171
 20
9.917790586995364
 30
0.0
 10
51.17357484112644
 20
9.917518666295921
 30
0.0
 10
50.05485963976309
 20
9.92770865068875
 30
0.0
 10
48.98204169111726
 20
9.948610661692305
 30
0.0
 10
48.28577177673015
 20
9.966095617948094
 30
0.0
 10
47.94500960801119
 20
9.977980727297764
 30
0.0
 10
47.90657935053694
 20
9.979321098543005
 30
0.0
  0
SPLINE
  5
A6
330
1F
100
AcDbEntity
  8
0
  6
Continuous
 62
     1
370
    15
100
AcDbSpline
210
0.0
220
0.0
230
1.0
 70
     8
 71
     3
 72
    27
 73
    23
 74
     0
 42
0.000000001
 43
0.00000001
 40
0.0
 40
0.0
 40
0.0
 40
0.0
 40
0.0737041020509704
 40
0.1262381745303565
 40
0.1600479663130309
 40
0.1954571593491341
 40
0.2373035947058151
 40
0.2797248094061134
 40
0.314085969037658
 40
0.3661322864765066
 40
0.42627071894884
 40
0.5014454576485043
 40
0.5543627906114402
 40
0.5944582129736328
 40
0.6376770495426384
 40
0.687308845255206
 40
0.7442564796441585
 40
0.7865080997605802
 40
0.818178660712559
 40
0.8533337119081266
 40
0.913843377851132
 40
1.0
 40
1.0
 40
1.0
 40
1.0
 10
39.09222681416826
 20
-10.56817176467082
 30
0.0
 10
39.56001388909718
 20
-10.52268323816313
 30
0.0
 10
40.36122555526855
 20
-10.44477185482606
 30
0.0
 10
41.37739494879212
 20
-10.35724364196199
 30
0.0
 10
42.15704164478649
 20
-10.2947925627711
 30
0.0
 10
42.86693130812633
 20
-10.24154711918056
 30
0.0
 10
43.62972691951061
 20
-10.18863003488951
 30
0.0
 10
44.38461561100124
 20
-10.14088206029275
 30
0.0
 10
45.20460198144866
 20
-10.09381267156021
 30
0.0
 10
46.13784526291636
 20
-10.04652407016204
 30
0.0
 10
47.33110845042889
 20
-9.996396600085507
 30
0.0
 10
48.52929994232392
 20
-9.958610721025888
 30
0.0
 10
49.60027294381555
 20
-9.935831864498448
 30
0.0
 10
50.46795596369888
 20
-9.923785024832467
 30
0.0
 10
51.31439135902856
 20
-9.917644617948165
 30
0.0
 10
52.26781957802793
 20
-9.917821268731895
 30
0.0
 10
53.2154959326124
 20
-9.926064467358879
 30
0.0
 10
54.04895157637255
 20
-9.939915976815639
 30
0.0
 10
54.73870853247283
 20
-9.95536518059138
 30
0.0
 10
55.54451282457277
 20
-9.97776550546747
 30
0.0
 10
56.70518628685558
 20
-10.01799545393813
 30
0.0
 10
57.64315600115125
 20
-10.06456082160299
 30
0.0
 10
58.19415039333926
 20
-10.09191485666667
 30
0.0
  0
SPLINE
  5
A7
330
1F
100
AcDbEntity
  8
0
  6
Continuous
 62
     1
370
    15
100
AcDbSpline
210
0.0
220
0.0
230
1.0
 70
     8
 71
     3
 72
    17
 73
    13
 74
     0
 42
0.000000001
 43
0.00000001
 40
0.0
 40
0.0
 40
0.0
 40
0.0
 40
0.1674530643015738
 40
0.2902616630631687
 40
0.3977424609320808
 40
0.4959649124210119
 40
0.5789079983129388
 40
0.6787798221910535
 40
0.7975943862877127
 40
0.9027625215121259
 40
0.9925966587668382
 40
1.0
 40
1.0
 40
1.0
 40
1.0
 10
127.2998924768221
 20
10.09191412559656
 30
0.0
 10
126.7370032640046
 20
10.06369942958652
 30
0.0
 10
125.7612960727737
 20
10.01479232465622
 30
0.0
 10
124.376356689207
 20
9.968652140663187
 30
0.0
 10
123.2382940638459
 20
9.940647811573665
 30
0.0
 10
122.2488607584769
 20
9.925248175444434
 30
0.0
 10
121.2831695960609
 20
9.917636836131699
 30
0.0
 10
120.2474179861763
 20
9.917730663505257
 30
0.0
 10
119.1351777334287
 20
9.928065445407936
 30
0.0
 10
118.0574202960315
 20
9.949304544654959
 30
0.0
 10
117.3624075212091
 20
9.966878774768192
 30
0.0
 10
117.028485534403
 20
9.97861402239375
 30
0.0
 10
117.0030618145367
 20
9.979507505482564
 30
0.0
  0
SPLINE
  5
A8
330
1F
100
AcDbEntity
  8
0
  6
Continuous
 62
     1
370
    15
100
AcDbSpline
210
0.0
220
0.0
230
1.0
 70
     8
 71
     3
 72
    17
 73
    13
 74
     0
 42
0.000000001
 43
0.00000001
 40
0.0
 40
0.0
 40
0.0
 40
0.0
 40
0.1318026927825414
 40
0.2525825471996219
 40
0.3595915586404897
 40
0.4385369754214585
 40
0.5067057013105498
 40
0.5884233929503743
 40
0.6808260054126107
 40
0.7951752842215418
 40
0.9294257312762016
 40
1.0
 40
1.0
 40
1.0
 40
1.0
 10
137.4954371141334
 20
-9.552087620312237
 30
0.0
 10
137.8896831197923
 20
-9.490468816289358
 30
0.0
 10
138.6452038017321
 20
-9.372384472586516
 30
0.0
 10
139.8196493852778
 20
-9.20950640121577
 30
0.0
 10
140.8160318127205
 20
-9.079852616725486
 30
0.0
 10
141.6384013652277
 20
-8.98033264499368
 30
0.0
 10
142.3207087901494
 20
-8.904082246365402
 30
0.0
 10
143.0866167693147
 20
-8.822168480888429
 30
0.0
 10
144.0025012717412
 20
-8.732970752491115
 30
0.0
 10
145.0853293157759
 20
-8.63947628497597
 30
0.0
 10
146.0980617336277
 20
-8.562994120798667
 30
0.0
 10
146.7479114181479
 20
-8.524753031211457
 30
0.0
 10
146.971823196036
 20
-8.511576706652372
 30
0.0
  0
SPLINE
  5
A9
330
1F
100
AcDbEntity
  8
0
  6
Continuous
 62
     1
370
    15
100
AcDbSpline
210
0.0
220
0.0
230
1.0
 70
     8
 71
     3
 72
    28
 73
    24
 74
     0
 42
0.000000001
 43
0.00000001
 40
0.0
 40
0.0
 40
0.0
 40
0.0
 40
0.0810072056931734
 40
0.1432537253033134
 40
0.1908280565004236
 40
0.2265466548231649
 40
0.2627186982023438
 40
0.3033379692026579
 40
0.349056610462484
 40
0.3946686925287689
 40
0.4273516150189167
 40
0.4586182991275887
 40
0.4996551451864448
 40
0.554913682844361
 40
0.5944321726014842
 40
0.6328076361729613
 40
0.6812401493817678
 40
0.7404782247180333
 40
0.7908967632716251
 40
0.8315868145480574
 40
0.8656519355266746
 40
0.9202431047588318
 40
1.0
 40
1.0
 40
1.0
 40
1.0
 10
90.57576092215265
 20
8.686196925966282
 30
0.0
 10
90.00236201290134
 20
8.639096062689593
 30
0.0
 10
88.98835925682278
 20
8.555802557233486
 30
0.0
 10
87.54944846391344
 20
8.473044560256858
 30
0.0
 10
86.44366673014835
 20
8.424109812611924
 30
0.0
 10
85.55780703053613
 20
8.393882928393666
 30
0.0
 10
84.72571825885022
 20
8.373155383882311
 30
0.0
 10
83.81861575650159
 20
8.359460052370704
 30
0.0
 10
82.84217379702426
 20
8.355637935526943
 30
0.0
 10
81.92456714670031
 20
8.362797463431885
 30
0.0
 10
81.1141335755706
 20
8.377271467523443
 30
0.0
 10
80.3357793026689
 20
8.39762661387949
 30
0.0
 10
79.38796118869337
 20
8.431131266215036
 30
0.0
 10
78.37739518340598
 20
8.479190813260065
 30
0.0
 10
77.3967770239884
 20
8.537696600386768
 30
0.0
 10
76.47079756366631
 20
8.60196435636583
 30
0.0
 10
75.39442231693283
 20
8.68777470454209
 30
0.0
 10
74.22389925941819
 20
8.796282927588685
 30
0.0
 10
73.10815824649194
 20
8.914763874952005
 30
0.0
 10
72.17815777196881
 20
9.023036091228402
 30
0.0
 10
71.21627197172089
 20
9.14323000709945
 30
0.0
 10
69.97266555940489
 20
9.310005940560236
 30
0.0
 10
68.97936723885785
 20
9.461908466254949
 30
0.0
 10
68.38968706441196
 20
9.552086719854636
 30
0.0
  0
SPLINE
  5
AA
330
1F
100
AcDbEntity
  8
0
  6
Continuous
 62
     1
370
    15
100
AcDbSpline
210
0.0
220
0.0
230
1.0
 70
     8
 71
     3
 72
    16
 73
    12
 74
     0
 42
0.000000001
 43
0.00000001
 40
0.0
 40
0.0
 40
0.0
 40
0.0
 40
0.1612719689423034
 40
0.3051334733829424
 40
0.4168782118489539
 40
0.4975682522024711
 40
0.592032590279512
 40
0.6830050744883077
 40
0.7977915367016406
 40
0.9343099201989387
 40
1.0
 40
1.0
 40
1.0
 40
1.0
 10
68.38968706441196
 20
-9.552086719854639
 30
0.0
 10
68.87477814904668
 20
-9.476586824294209
 30
0.0
 10
69.79259126023058
 20
-9.333737787828072
 30
0.0
 10
71.15211246493439
 20
-9.15115506394485
 30
0.0
 10
72.24901304642044
 20
-9.013734069529097
 30
0.0
 10
73.13109416723101
 20
-8.912923746607845
 30
0.0
 10
73.96715364867877
 20
-8.82346453723095
 30
0.0
 10
74.91833249488037
 20
-8.730989898035668
 30
0.0
 10
76.00131395994087
 20
-8.63774665806833
 30
0.0
 10
77.00394008946306
 20
-8.562104535442678
 30
0.0
 10
77.64337942549123
 20
-8.524719152801113
 30
0.0
 10
77.85110970703566
 20
-8.512574019362784
 30
0.0
  0
SPLINE
  5
AB
330
1F
100
AcDbEntity
  8
0
  6
Continuous
 62
     1
370
    15
100
AcDbSpline
210
0.0
220
0.0
230
1.0
 70
     8
 71
     3
 72
    29
 73
    25
 74
     0
 42
0.000000001
 43
0.00000001
 40
0.0
 40
0.0
 40
0.0
 40
0.0
 40
0.071998519523862
 40
0.1251664270034013
 40
0.1629417825281474
 40
0.1876951603103229
 40
0.2173654398515245
 40
0.2536195972750752
 40
0.2880308314674473
 40
0.3160619754902461
 40
0.3396500329323998
 40
0.3819971691539031
 40
0.4332717328474644
 40
0.4811638505151968
 40
0.522487364999772
 40
0.5670492387431667
 40
0.6351270877167464
 40
0.701161306107067
 40
0.7520321253970585
 40
0.7925634094135571
 40
0.8270644999328284
 40
0.874513805241952
 40
0.9342790975520352
 40
1.0
 40
1.0
 40
1.0
 40
1.0
 10
159.6815504955968
 20
8.686199832112472
 30
0.0
 10
159.1441734382107
 20
8.642721891573494
 30
0.0
 10
158.2099658090617
 20
8.567137303074745
 30
0.0
 10
157.0117468083259
 20
8.494078676288916
 30
0.0
 10
156.1909839610547
 20
8.452536139585382
 30
0.0
 10
155.6056396357735
 20
8.421137125768217
 30
0.0
 10
154.9112876866623
 20
8.39590230058633
 30
0.0
 10
154.1449511278058
 20
8.3785430267941
 30
0.0
 10
153.3884989283142
 20
8.365769273964696
 30
0.0
 10
152.732197063701
 20
8.359017280431958
 30
0.0
 10
152.0338229339495
 20
8.35642398209992
 30
0.0
 10
151.1626054702976
 20
8.360598635486292
 30
0.0
 10
150.1110917150253
 20
8.378343507714364
 30
0.0
 10
149.0675259505774
 20
8.409371699036674
 30
0.0
 10
148.0733487846517
 20
8.450182997103896
 30
0.0
 10
146.9294435336728
 20
8.509567163767807
 30
0.0
 10
145.60237369557
 20
8.597627599944753
 30
0.0
 10
144.2285978516525
 20
8.711200255546892
 30
0.0
 10
143.0549389032062
 20
8.824764225185348
 30
0.0
 10
142.1330475474512
 20
8.924601878996102
 30
0.0
 10
141.2649520575495
 20
9.023573934809049
 30
0.0
 10
140.1713637347809
 20
9.163014616593113
 30
0.0
 10
138.8442173769089
 20
9.341850995378824
 30
0.0
 10
137.959034215752
 20
9.479825968312198
 30
0.0
 10
137.4954371141334
 20
9.552087620312232
 30
0.0
  0
SPLINE
  5
AC
330
1F
100
AcDbEntity
  8
0
  6
Continuous
 62
     1
370
    15
100
AcDbSpline
210
0.0
220
0.0
230
1.0
 70
     8
 71
     3
 72
    16
 73
    12
 74
     0
 42
0.000000001
 43
0.00000001
 40
0.0
 40
0.0
 40
0.0
 40
0.0
 40
0.1715417342049145
 40
0.3110068440664148
 40
0.4208908444612014
 40
0.5016270396572807
 40
0.5738326147221066
 40
0.6536295641946653
 40
0.7344889002719325
 40
0.8500255557557791
 40
0.9999999999999999
 40
0.9999999999999999
 40
0.9999999999999999
 40
0.9999999999999999
 10
21.46996478789606
 20
8.68619345562574
 30
0.0
 10
20.94635445775145
 20
8.643293638624913
 30
0.0
 10
19.99704380134685
 20
8.56551585027333
 30
0.0
 10
18.6553096302727
 20
8.484537414086374
 30
0.0
 10
17.58686377341197
 20
8.434377496490043
 30
0.0
 10
16.74998235829996
 20
8.403385313973565
 30
0.0
 10
16.01629106374726
 20
8.382369699594184
 30
0.0
 10
15.27975814615943
 20
8.367285637962716
 30
0.0
 10
14.40689170597243
 20
8.357352755742463
 30
0.0
 10
13.31210857937731
 20
8.355617526723359
 30
0.0
 10
12.47362118329997
 20
8.370200617317654
 30
0.0
 10
12.0
 20
8.37843790347812
 30
0.0
  0
SPLINE
  5
AD
330
1F
100
AcDbEntity
  8
외형선
  6
Continuous
370
    15
100
AcDbSpline
210
0.0
220
0.0
230
1.0
 70
     8
 71
     3
 72
    10
 73
     6
 74
     0
 42
0.000000001
 43
0.00000001
 40
0.0
 40
0.0
 40
0.0
 40
0.0
 40
0.5
 40
0.5
 40
1.0
 40
1.0
 40
1.0
 40
1.0
 10
12.00000000000009
 20
-7.221924037625671
 30
0.0
 10
11.49247891239717
 20
-6.980639715807024
 30
0.0
 10
10.98574194163361
 20
-6.733705354217951
 30
0.0
 10
9.968025283279449
 20
-6.228752658098001
 30
0.0
 10
9.458378684907435
 20
-5.970944710611372
 30
0.0
 10
8.949780165291202
 20
-5.708736606938628
 30
0.0
  0
LINE
  5
AE
330
1F
100
AcDbEntity
  8
외형선
  6
Continuous
370
    15
100
AcDbLine
 10
12.00000000000003
 20
-7.221924037625626
 30
0.0
 11
12.00000000000002
 21
-9.826213708389202
 31
0.0
  0
SPLINE
  5
AF
330
1F
100
AcDbEntity
  8
외형선
  6
Continuous
370
    15
100
AcDbSpline
210
0.0
220
0.0
230
1.0
 70
     8
 71
     3
 72
    10
 73
     6
 74
     0
 42
0.000000001
 43
0.00000001
 40
0.0
 40
0.0
 40
0.0
 40
0.0
 40
0.5
 40
0.5
 40
1.0
 40
1.0
 40
1.0
 40
1.0
 10
8.949892619842029
 20
-8.619912006775206
 30
0.0
 10
9.458472551419208
 20
-8.835471817517218
 30
0.0
 10
9.968100349352127
 20
-9.044264382947986
 30
0.0
 10
10.98577938753396
 20
-9.446803163666164
 30
0.0
 10
11.49249761511497
 20
-9.640388440265133
 30
0.0
 10
12.00000000000018
 20
-9.826213708389105
 30
0.0
  0
LINE
  5
B0
330
1F
100
AcDbEntity
  8
외형선
  6
Continuous
370
    15
100
AcDbLine
 10
8.949892619842029
 20
-12.7
 30
0.0
 11
8.949892619842029
 21
-8.619909803534217
 31
0.0
  0
SPLINE
  5
B1
330
1F
100
AcDbEntity
  8
외형선
  6
Continuous
370
    15
100
AcDbSpline
210
0.0
220
0.0
230
1.0
 70
     8
 71
     3
 72
    11
 73
     7
 74
     0
 42
0.000000001
 43
0.00000001
 40
0.0
 40
0.0
 40
0.0
 40
0.0
 40
0.2345099619908923
 40
0.4894944460024568
 40
0.7447087206145713
 40
1.0
 40
1.0
 40
1.0
 40
1.0
 10
9.010877601241955
 20
8.645329324148586
 30
0.0
 10
9.244578953294099
 20
8.74341208662644
 30
0.0
 10
9.732385581556791
 20
8.948140990566795
 30
0.0
 10
10.47462791253941
 20
9.246117972093497
 30
0.0
 10
11.23736196896854
 20
9.54332806254273
 30
0.0
 10
11.74576176060965
 20
9.731909011243184
 30
0.0
 10
12.00000000000002
 20
9.826213708389906
 30
0.0
  0
LINE
  5
B2
330
1F
100
AcDbEntity
  8
외형선
  6
Continuous
370
    15
100
AcDbLine
 10
8.949892619842029
 20
-5.708250403341754
 30
0.0
 11
8.949892619842029
 21
12.7
 31
0.0
  0
LINE
  5
B3
330
1F
100
AcDbEntity
  8
외형선
  6
Continuous
370
    15
100
AcDbLine
 10
-50.49999999999996
 20
10.79499999999999
 30
0.0
 11
-50.49999999999996
 21
-12.70000000000001
 31
0.0
  0
LINE
  5
B4
330
1F
100
AcDbEntity
  8
외형선
  6
Continuous
370
    15
100
AcDbLine
 10
-51.49999999999996
 20
10.79499999999999
 30
0.0
 11
-51.49999999999996
 21
-11.7
 31
0.0
  0
SPLINE
  5
B5
330
1F
100
AcDbEntity
  8
외형선
  6
Continuous
370
    15
100
AcDbSpline
210
0.0
220
0.0
230
1.0
 70
    24
 71
     3
 72
     8
 73
     4
 74
     0
 42
0.000000001
 43
0.00000001
 40
0.0
 40
0.0
 40
0.0
 40
0.0
 40
1.0
 40
1.0
 40
1.0
 40
1.0
 10
12.00000000000003
 20
-5.592278231698591
 30
0.0
 10
12.00000000000003
 20
-6.100282144864466
 30
0.0
 10
12.00000000000003
 20
-6.646832430665278
 30
0.0
 10
12.00000000000003
 20
-7.221924037614738
 30
0.0
  0
SPLINE
  5
B6
330
1F
100
AcDbEntity
  8
외형선
  6
Continuous
370
    15
100
AcDbSpline
210
0.0
220
0.0
230
1.0
 70
     8
 71
     3
 72
    18
 73
    14
 74
     0
 42
0.000000001
 43
0.00000001
 40
0.0
 40
0.0
 40
0.0
 40
0.0
 40
0.0160305441151685
 40
0.0447978808055617
 40
0.087043860171354
 40
0.1429713799947617
 40
0.2500716794004474
 40
0.5000731360439566
 40
0.7500965052075503
 40
0.8501252174181695
 40
0.9246129241720813
 40
0.9742335651179145
 40
1.0
 40
1.0
 40
1.0
 40
1.0
 10
9.40011015000515
 20
-4.464401578503551
 30
0.0
 10
9.39685589336447
 20
-4.463686736812202
 30
0.0
 10
9.387761766549286
 20
-4.461689088282378
 30
0.0
 10
9.37236699014175
 20
-4.463427641570009
 30
0.0
 10
9.350597320927054
 20
-4.466121635457356
 30
0.0
 10
9.316693989088114
 20
-4.47275138966841
 30
0.0
 10
9.250376975757524
 20
-4.48829318950466
 30
0.0
 10
9.156641753335814
 20
-4.516020960929203
 30
0.0
 10
9.067750215398954
 20
-4.547706777000323
 30
0.0
 10
9.007220182518127
 20
-4.573076497820383
 30
0.0
 10
8.977575327611168
 20
-4.588600377220378
 30
0.0
 10
8.95717440481419
 20
-4.599060281684615
 30
0.0
 10
8.951748072982697
 20
-4.608099544897371
 30
0.0
 10
8.949893415214786
 20
-4.611189061029886
 30
0.0
  0
SPLINE
  5
B7
330
1F
100
AcDbEntity
  8
외형선
  6
Continuous
370
    15
100
AcDbSpline
210
0.0
220
0.0
230
1.0
 70
     8
 71
     3
 72
    10
 73
     6
 74
     0
 42
0.000000001
 43
0.00000001
 40
0.0
 40
0.0
 40
0.0
 40
0.0
 40
0.5
 40
0.5
 40
1.0
 40
1.0
 40
1.0
 40
1.0
 10
12.00000000000009
 20
-5.592278231698616
 30
0.0
 10
11.56733706580577
 20
-5.410469912492538
 30
0.0
 10
11.13556321005056
 20
-5.225537233672449
 30
0.0
 10
10.26842173153129
 20
-4.849291063293454
 30
0.0
 10
9.834081354320796
 20
-4.658120627746372
 30
0.0
 10
9.400109021523289
 20
-4.46440107476407
 30
0.0
  0
SPLINE
  5
B8
330
1F
100
AcDbEntity
  8
외형선
  6
Continuous
370
    15
100
AcDbSpline
210
0.0
220
0.0
230
1.0
 70
     8
 71
     3
 72
     8
 73
     4
 74
     0
 42
0.000000001
 43
0.00000001
 40
0.0
 40
0.0
 40
0.0
 40
0.0
 40
1.0
 40
1.0
 40
1.0
 40
1.0
 10
12.00000000000003
 20
6.10810249130116
 30
0.0
 10
11.16007469906862
 20
6.418439582803743
 30
0.0
 10
10.3190884503033
 20
6.715507819631363
 30
0.0
 10
9.476544915142616
 20
6.997369462934618
 30
0.0
  0
SPLINE
  5
B9
330
1F
100
AcDbEntity
  8
외형선
  6
Continuous
370
    15
100
AcDbSpline
210
0.0
220
0.0
230
1.0
 70
    24
 71
     3
 72
    14
 73
    10
 74
     0
 42
0.000000001
 43
0.00000001
 40
0.0
 40
0.0
 40
0.0
 40
0.0
 40
0.25
 40
0.25
 40
0.4999999999999999
 40
0.4999999999999999
 40
0.7499999999999999
 40
0.7499999999999999
 40
1.0
 40
1.0
 40
1.0
 40
1.0
 10
12.0
 20
6.108102491301171
 30
0.0
 10
12.0
 20
5.262611765472872
 30
0.0
 10
12.0
 20
4.34446941335067
 30
0.0
 10
12.0
 20
2.414605301401437
 30
0.0
 10
12.0
 20
1.403302924177775
 30
0.0
 10
12.0
 20
-0.6416284989484485
 30
0.0
 10
12.0
 20
-1.674667030732157
 30
0.0
 10
12.0
 20
-3.688415128444514
 30
0.0
 10
12.0
 20
-4.668639258014506
 30
0.0
 10
12.0
 20
-5.592278231698573
 30
0.0
  0
SPLINE
  5
BA
330
1F
100
AcDbEntity
  8
외형선
  6
Continuous
370
    15
100
AcDbSpline
210
0.0
220
0.0
230
1.0
 70
     8
 71
     3
 72
    16
 73
    12
 74
     0
 42
0.000000001
 43
0.00000001
 40
0.0
 40
0.0
 40
0.0
 40
0.0
 40
0.2499999999999932
 40
0.2499999999999932
 40
0.3749999999999943
 40
0.3749999999999943
 40
0.4999999999999954
 40
0.4999999999999954
 40
0.7499999999999977
 40
0.7499999999999977
 40
1.0
 40
1.0
 40
1.0
 40
1.0
 10
9.23897671630476
 20
6.888636795810627
 30
0.0
 10
9.210246318456113
 20
6.872958877022343
 30
0.0
 10
9.179848980091151
 20
6.861370693358393
 30
0.0
 10
9.128437801573872
 20
6.858316114525455
 30
0.0
 10
9.11048557847277
 20
6.859850091010806
 30
0.0
 10
9.073413706296307
 20
6.871821563758318
 30
0.0
 10
9.053676070480062
 20
6.882811167925384
 30
0.0
 10
8.999459954461999
 20
6.93509341468939
 30
0.0
 10
8.976119036136742
 20
6.992079884335816
 30
0.0
 10
8.953077176650888
 20
7.093888517182259
 30
0.0
 10
8.949892619842043
 20
7.143750583726004
 30
0.0
 10
8.94989261984204
 20
7.189813536796096
 30
0.0
  0
SPLINE
  5
BB
330
1F
100
AcDbEntity
  8
외형선
  6
Continuous
370
    15
100
AcDbSpline
210
0.0
220
0.0
230
1.0
 70
     8
 71
     3
 72
    16
 73
    12
 74
     0
 42
0.000000001
 43
0.00000001
 40
0.0
 40
0.0
 40
0.0
 40
0.0
 40
0.1908462915224334
 40
0.3741185767899992
 40
0.535131917410714
 40
0.6718471394803716
 40
0.7843372571604332
 40
0.8727275940992008
 40
0.937275505861758
 40
0.9786751589801966
 40
1.0
 40
1.0
 40
1.0
 40
1.0
 10
9.238973918932725
 20
6.888638047529896
 30
0.0
 10
9.252697236859486
 20
6.896091243095793
 30
0.0
 10
9.279599243341453
 20
6.910701843571217
 30
0.0
 10
9.318843699255202
 20
6.931577606799544
 30
0.0
 10
9.354730417130835
 20
6.950249052353338
 30
0.0
 10
9.386148202737813
 20
6.965990005576741
 30
0.0
 10
9.412976615796413
 20
6.978525271838016
 30
0.0
 10
9.434995988874295
 20
6.988200211166504
 30
0.0
 10
9.452704013960846
 20
6.994061712030155
 30
0.0
 10
9.46509010170421
 20
6.998329389412345
 30
0.0
 10
9.473641865148206
 20
6.9976159867992
 30
0.0
 10
9.47654926198556
 20
6.997373446823114
 30
0.0
  0
SPLINE
  5
BC
330
1F
100
AcDbEntity
  8
외형선
  6
Continuous
370
    15
100
AcDbSpline
210
0.0
220
0.0
230
1.0
 70
    24
 71
     3
 72
    11
 73
     7
 74
     0
 42
0.000000001
 43
0.00000001
 40
0.0
 40
0.0
 40
0.0
 40
0.0
 40
0.1266018873479688
 40
0.4225402493370988
 40
0.7072294427458244
 40
1.0
 40
1.0
 40
1.0
 40
1.0
 10
12.00000000000004
 20
8.330881856295452
 30
0.0
 10
12.00000000000004
 20
8.341826653896472
 30
0.0
 10
12.00000000000004
 20
8.378355473522738
 30
0.0
 10
12.00000000000004
 20
8.016796915175664
 30
0.0
 10
12.00000000000004
 20
7.29600904109158
 30
0.0
 10
12.00000000000004
 20
6.50774849234709
 30
0.0
 10
12.00000000000004
 20
6.108102491301164
 30
0.0
  0
SPLINE
  5
BD
330
1F
100
AcDbEntity
  8
외형선
  6
Continuous
370
    15
100
AcDbSpline
210
0.0
220
0.0
230
1.0
 70
    24
 71
     3
 72
    10
 73
     6
 74
     0
 42
0.000000001
 43
0.00000001
 40
0.0
 40
0.0
 40
0.0
 40
0.0
 40
0.2057253669950119
 40
0.73742911422002
 40
1.0
 40
1.0
 40
1.0
 40
1.0
 10
12.00000000000004
 20
9.826213708389048
 30
0.0
 10
12.00000000000004
 20
9.726801540865141
 30
0.0
 10
12.00000000000004
 20
9.370455467890944
 30
0.0
 10
12.00000000000004
 20
8.905797401514967
 30
0.0
 10
12.00000000000004
 20
8.593640393424304
 30
0.0
 10
12.00000000000004
 20
8.49044769569619
 30
0.0
  0
SPLINE
  5
BE
330
1F
100
AcDbEntity
  8
0
  6
Continuous
 62
     1
370
    15
100
AcDbSpline
210
0.0
220
0.0
230
1.0
 70
     8
 71
     3
 72
    28
 73
    24
 74
     0
 42
0.000000001
 43
0.00000001
 40
0.0
 40
0.0
 40
0.0
 40
0.0
 40
0.0019667889924608
 40
0.0539331954629761
 40
0.1059125437680442
 40
0.1578935251645568
 40
0.2089381941098637
 40
0.259967451458837
 40
0.3110005134264733
 40
0.3620475285943451
 40
0.4140290769093994
 40
0.4660068057354714
 40
0.5179694146764813
 40
0.5699237936722187
 40
0.621896698650524
 40
0.6729494545687462
 40
0.7240009073268326
 40
0.7750430455304379
 40
0.826070092801444
 40
0.8739587850457798
 40
0.9218528521488573
 40
0.9697506872347622
 40
1.0
 40
1.0
 40
1.0
 40
1.0
 10
116.9980507261673
 20
-9.981491958341998
 30
0.0
 10
116.9431471503243
 20
-10.00331375305373
 30
0.0
 10
115.4375838698171
 20
-10.60170998368749
 30
0.0
 10
112.4807917497883
 20
-11.42559927579072
 30
0.0
 10
108.1275764882454
 20
-12.35255583155264
 30
0.0
 10
103.8000329181317
 20
-12.75213831447805
 30
0.0
 10
99.49925577976911
 20
-12.67330181710399
 30
0.0
 10
95.2252990079418
 20
-12.11477657470781
 30
0.0
 10
90.95115836412954
 20
-11.10094888367933
 30
0.0
 10
86.65016657494826
 20
-9.66039181530402
 30
0.0
 10
82.32257751905135
 20
-7.839331955309902
 30
0.0
 10
77.96950603569852
 20
-5.701520801221283
 30
0.0
 10
73.61748517487845
 20
-3.341151852124145
 30
0.0
 10
69.26586893721807
 20
-0.8500217776086398
 30
0.0
 10
64.93910869820408
 20
1.658680529989636
 30
0.0
 10
60.63760688640984
 20
4.08867283346536
 30
0.0
 10
56.36207199300961
 20
6.349989123390339
 30
0.0
 10
52.08740840076344
 20
8.372455777432924
 30
0.0
 10
47.90137157384331
 20
10.04362516546385
 30
0.0
 10
43.80321766201966
 20
11.33147764566142
 30
0.0
 10
39.79229138311865
 20
12.198803826557
 30
0.0
 10
36.27373370622967
 20
12.66194636833624
 30
0.0
 10
34.09216093470179
 20
12.65398679912452
 30
0.0
 10
33.24771454221442
 20
12.65090579738379
 30
0.0
  0
SPLINE
  5
BF
330
1F
100
AcDbEntity
  8
0
  6
Continuous
 62
     1
370
    15
100
AcDbSpline
210
0.0
220
0.0
230
1.0
 70
     8
 71
     3
 72
    17
 73
    13
 74
     0
 42
0.000000001
 43
0.00000001
 40
0.0
 40
0.0
 40
0.0
 40
0.0
 40
0.0460069707188046
 40
0.1520031148616427
 40
0.2580430902851157
 40
0.364021314527893
 40
0.4700194123323613
 40
0.5760591666969326
 40
0.6820357194837164
 40
0.7880357270019884
 40
0.8940752160989272
 40
1.0
 40
1.0
 40
1.0
 40
1.0
 10
108.2151449685584
 20
-10.50332483388614
 30
0.0
 10
107.5123996875658
 20
-10.58859084256224
 30
0.0
 10
105.1905891011205
 20
-10.8703024768666
 30
0.0
 10
101.2490444787588
 20
-10.79779796317892
 30
0.0
 10
96.39078999999961
 20
-10.29620021340443
 30
0.0
 10
91.53337055268162
 20
-9.264057201740343
 30
0.0
 10
86.67567887387055
 20
-7.789915861124772
 30
0.0
 10
81.81743912016721
 20
-5.936482472612574
 30
0.0
 10
76.96004027801182
 20
-3.793018214134383
 30
0.0
 10
72.1023181174743
 20
-1.468716768258432
 30
0.0
 10
67.24486887023625
 20
0.9367896532234654
 30
0.0
 10
64.00727646390868
 20
2.482831326825532
 30
0.0
 10
62.38935627788178
 20
3.255433840740168
 30
0.0
  0
SPLINE
  5
C0
330
1F
100
AcDbEntity
  8
0
  6
Continuous
 62
     1
370
    15
100
AcDbSpline
210
0.0
220
0.0
230
1.0
 70
     8
 71
     3
 72
    22
 73
    18
 74
     0
 42
0.000000001
 43
0.00000001
 40
0.0
 40
0.0
 40
0.0
 40
0.0
 40
0.0701348664121094
 40
0.1402932524760781
 40
0.2104599196601988
 40
0.280619586750054
 40
0.350757008614281
 40
0.4196383401173987
 40
0.4885404102869926
 40
0.5574527134699943
 40
0.6263644302935084
 40
0.6965152825212766
 40
0.7666426974448102
 40
0.8367887368592296
 40
0.9069522456062102
 40
0.977117958756085
 40
1.0
 40
1.0
 40
1.0
 40
1.0
 10
164.4000000000001
 20
-12.05154903924514
 30
0.0
 10
162.9495627339006
 20
-11.7417656031975
 30
0.0
 10
160.0482017991276
 20
-11.12209484556083
 30
0.0
 10
155.6953242715145
 20
-9.632735045582903
 30
0.0
 10
151.3418705286424
 20
-7.801139385564017
 30
0.0
 10
146.9889091482873
 20
-5.656188402881392
 30
0.0
 10
142.6628787746481
 20
-3.30676001752071
 30
0.0
 10
138.3630533311645
 20
-0.8448743685083041
 30
0.0
 10
134.0881534942733
 20
1.63348694340774
 30
0.0
 10
129.8125285422613
 20
4.050638722245989
 30
0.0
 10
125.5111112571968
 20
6.328777777637825
 30
0.0
 10
121.1845609865425
 20
8.378322591835435
 30
0.0
 10
116.8330274908446
 20
10.1111754179251
 30
0.0
 10
112.4807953864484
 20
11.45816558543054
 30
0.0
 10
108.1275873975444
 20
12.32402004212191
 30
0.0
 10
104.7518301677314
 20
12.72109083747374
 30
0.0
 10
102.827445329859
 20
12.66151160177838
 30
0.0
 10
102.3542060398166
 20
12.6468600442277
 30
0.0
  0
SPLINE
  5
C1
330
1F
100
AcDbEntity
  8
0
  6
Continuous
 62
     1
370
    15
100
AcDbSpline
210
0.0
220
0.0
230
1.0
 70
     8
 71
     3
 72
    17
 73
    13
 74
     0
 42
0.000000001
 43
0.00000001
 40
0.0
 40
0.0
 40
0.0
 40
0.0
 40
0.0024511490104167
 40
0.1141592391882949
 40
0.2258798670901505
 40
0.3376092844190242
 40
0.4493437305920908
 40
0.56107943799021
 40
0.6708170076258365
 40
0.7805509480895663
 40
0.8902792727252804
 40
1.0
 40
1.0
 40
1.0
 40
1.0
 10
47.90176532355103
 20
-9.981231929341975
 30
0.0
 10
47.87243225188114
 20
-9.99289900770205
 30
0.0
 10
46.50628065087353
 20
-10.53627877917916
 30
0.0
 10
43.80322566438269
 20
-11.30357434923352
 30
0.0
 10
39.79229008543022
 20
-12.21642198908613
 30
0.0
 10
35.78099580523715
 20
-12.68423445962041
 30
0.0
 10
31.76948722802481
 20
-12.74226802503504
 30
0.0
 10
27.781778433619
 20
-12.37676398400406
 30
0.0
 10
23.81813946575479
 20
-11.61360514066864
 30
0.0
 10
19.87851987291147
 20
-10.47892982527793
 30
0.0
 10
15.93914543793
 20
-9.025742573939782
 30
0.0
 10
13.31301817366005
 20
-7.82318300546151
 30
0.0
 10
11.99999999999635
 20
-7.2219240376239
 30
0.0
  0
SPLINE
  5
C2
330
1F
100
AcDbEntity
  8
외형선
  6
Continuous
370
    15
100
AcDbSpline
210
0.0
220
0.0
230
1.0
 70
    24
 71
     3
 72
     8
 73
     4
 74
     0
 42
0.000000001
 43
0.00000001
 40
0.0
 40
0.0
 40
0.0
 40
0.0
 40
1.0
 40
1.0
 40
1.0
 40
1.0
 10
12.00000000000003
 20
-5.592278231698591
 30
0.0
 10
12.00000000000003
 20
-6.100282144864465
 30
0.0
 10
12.00000000000003
 20
-6.646832430665277
 30
0.0
 10
12.00000000000003
 20
-7.221924037614734
 30
0.0
  0
SPLINE
  5
C3
330
1F
100
AcDbEntity
  8
0
  6
Continuous
 62
     1
370
    15
100
AcDbSpline
210
0.0
220
0.0
230
1.0
 70
     8
 71
     3
 72
    14
 73
    10
 74
     0
 42
0.000000001
 43
0.00000001
 40
0.0
 40
0.0
 40
0.0
 40
0.0
 40
0.1471964906760956
 40
0.2944659314929939
 40
0.4416594950314735
 40
0.5888589429284923
 40
0.7361283223423183
 40
0.8833190798737253
 40
1.0
 40
1.0
 40
1.0
 40
1.0
 10
164.4
 20
-10.01994775747635
 30
0.0
 10
162.7810830690114
 20
-9.67703941067178
 30
0.0
 10
159.5424468766423
 20
-8.991052772710937
 30
0.0
 10
154.6842020854259
 20
-7.395851261425006
 30
0.0
 10
149.8266765975144
 20
-5.475711421675972
 30
0.0
 10
144.9690979796198
 20
-3.278930029263227
 30
0.0
 10
140.1108406782094
 20
-0.931424803982346
 30
0.0
 10
135.5890665331536
 20
1.314109642859641
 30
0.0
 10
132.6868012069405
 20
2.682069210231825
 30
0.0
 10
131.4034539689227
 20
3.286964674699194
 30
0.0
  0
SPLINE
  5
C4
330
1F
100
AcDbEntity
  8
0
  6
Continuous
 62
     1
370
    15
100
AcDbSpline
210
0.0
220
0.0
230
1.0
 70
     8
 71
     3
 72
    14
 73
    10
 74
     0
 42
0.000000001
 43
0.00000001
 40
0.0
 40
0.0
 40
0.0
 40
0.0
 40
0.0371397435595207
 40
0.216304081169713
 40
0.3955249055160521
 40
0.5466558841628727
 40
0.6977851201056459
 40
0.8489030163579286
 40
1.0
 40
1.0
 40
1.0
 40
1.0
 10
39.10323405991559
 20
-10.52513447409781
 30
0.0
 10
38.76765601750349
 20
-10.57176103088954
 30
0.0
 10
36.81322948764998
 20
-10.84331687803155
 30
0.0
 10
33.2401266304499
 20
-10.83555512427104
 30
0.0
 10
28.63631185924458
 20
-10.48184801810941
 30
0.0
 10
24.28667578693767
 20
-9.690634244164636
 30
0.0
 10
20.1907194133822
 20
-8.61604470988012
 30
0.0
 10
16.09516242891868
 20
-7.255165521756457
 30
0.0
 10
13.3649911690084
 20
-6.146548423756542
 30
0.0
 10
12.00000000000003
 20
-5.592278231698591
 30
0.0
  0
LINE
  5
C5
330
1F
100
AcDbEntity
  8
0
  6
Continuous
 62
     1
370
    15
100
AcDbLine
 10
164.3999999999989
 20
-12.05154903924515
 30
0.0
 11
164.4
 21
-10.01994775747635
 31
0.0
  0
SPLINE
  5
C6
330
1F
100
AcDbEntity
  8
0
  6
Continuous
 62
     1
370
    15
100
AcDbSpline
210
0.0
220
0.0
230
1.0
 70
     8
 71
     3
 72
    11
 73
     7
 74
     0
 42
0.000000001
 43
0.00000001
 40
0.0
 40
0.0
 40
0.0
 40
0.0
 40
0.2638077862344007
 40
0.5297945442979748
 40
0.7720816400118273
 40
1.0
 40
1.0
 40
1.0
 40
1.0
 10
12.00000000000002
 20
-9.82621370838957
 30
0.0
 10
13.32719401801292
 20
-10.28108666677553
 30
0.0
 10
15.99254427171387
 20
-11.19458969540652
 30
0.0
 10
19.87708321407213
 20
-12.07517452161683
 30
0.0
 10
23.58059981984034
 20
-12.61178005439214
 30
0.0
 10
25.9461206946336
 20
-12.66384664019923
 30
0.0
 10
27.09273784201593
 20
-12.68908439680844
 30
0.0
  0
SPLINE
  5
C7
330
1F
100
AcDbEntity
  8
0
  6
Continuous
 62
     1
370
    15
100
AcDbSpline
210
0.0
220
0.0
230
1.0
 70
     8
 71
     3
 72
    32
 73
    28
 74
     0
 42
0.000000001
 43
0.00000001
 40
0.0
 40
0.0
 40
0.0
 40
0.0
 40
0.0095440858958223
 40
0.0517682055853247
 40
0.0942852926159432
 40
0.1365094115315224
 40
0.1790264915239168
 40
0.22125060988018
 40
0.2637676847618515
 40
0.3059918027698667
 40
0.3485088744644512
 40
0.390732992333073
 40
0.4332500627617819
 40
0.4754741806989726
 40
0.517991251782034
 40
0.5602153699961884
 40
0.6027324436542854
 40
0.6449565623555523
 40
0.6874736405112635
 40
0.729697759912872
 40
0.7722148444921109
 40
0.8144389648116935
 40
0.8569560577451514
 40
0.8922814203536142
 40
0.927778060415061
 40
0.9637982499779457
 40
1.0
 40
1.0
 40
1.0
 40
1.0
 10
77.85006961133628
 20
8.512111652394713
 30
0.0
 10
78.12542093079313
 20
8.635974742318819
 30
0.0
 10
79.61895775238348
 20
9.3078222061426
 30
0.0
 10
82.33909593582335
 20
10.29711547405046
 30
0.0
 10
86.00212445621749
 20
11.41584131401674
 30
0.0
 10
89.67353925223479
 20
12.20087623964667
 30
0.0
 10
93.33656705548916
 20
12.65135868865694
 30
0.0
 10
97.00798167802208
 20
12.75026703127874
 30
0.0
 10
100.6710095007752
 20
12.49617019316559
 30
0.0
 10
104.3424238688502
 20
11.89450896723277
 30
0.0
 10
108.005451710131
 20
10.96477464629086
 30
0.0
 10
111.676865939452
 20
9.728559962535364
 30
0.0
 10
115.3398937455158
 20
8.225663504730536
 30
0.0
 10
119.0113079646365
 20
6.49104161983796
 30
0.0
 10
122.6743356822727
 20
4.580526307092967
 30
0.0
 10
126.3457500044819
 20
2.538558105667073
 30
0.0
 10
130.0087776412004
 20
0.4308604178189234
 30
0.0
 10
133.680191953254
 20
-1.693539347633911
 30
0.0
 10
137.3432203653224
 20
-3.766262532820126
 30
0.0
 10
141.0146313962898
 20
-5.739105685559601
 30
0.0
 10
144.677673259901
 20
-7.548525877549919
 30
0.0
 10
148.3490337543747
 20
-9.152605443098407
 30
0.0
 10
151.8132218199302
 20
-10.42590527227045
 30
0.0
 10
155.0824597252135
 20
-11.39092106863811
 30
0.0
 10
158.1645266148329
 20
-12.07375110356067
 30
0.0
 10
161.2719694436797
 20
-12.54081085643618
 30
0.0
 10
163.3555771375078
 20
-12.63969818934689
 30
0.0
 10
164.4
 20
-12.69999999999998
 30
0.0
  0
SPLINE
  5
C8
330
1F
100
AcDbEntity
  8
0
  6
Continuous
 62
     1
370
    15
100
AcDbSpline
210
0.0
220
0.0
230
1.0
 70
     8
 71
     3
 72
    17
 73
    13
 74
     0
 42
0.000000001
 43
0.00000001
 40
0.0
 40
0.0
 40
0.0
 40
0.0
 40
0.0573699491113417
 40
0.1723783680221219
 40
0.2873207853382358
 40
0.4022771063149801
 40
0.5172853755587403
 40
0.6322257091255973
 40
0.7471842849386626
 40
0.8621923546278635
 40
0.9771307028995666
 40
0.9999999999999999
 40
0.9999999999999999
 40
0.9999999999999999
 40
0.9999999999999999
 10
132.8204084990249
 20
-1.190546491963716
 30
0.0
 10
132.0124107601082
 20
-0.8683258957030738
 30
0.0
 10
129.5846357009091
 20
0.0998440501814338
 30
0.0
 10
125.5375840328292
 20
1.746018445961146
 30
0.0
 10
120.6800377564983
 20
3.627544880273058
 30
0.0
 10
115.8223569843582
 20
5.335305197531073
 30
0.0
 10
110.9642513174842
 20
6.783029184562818
 30
0.0
 10
106.1067096001215
 20
7.899922944672896
 30
0.0
 10
101.2490179566661
 20
8.64235907943186
 30
0.0
 10
96.39089257930308
 20
8.928533101229977
 30
0.0
 10
92.83039902042046
 20
8.920153964319894
 30
0.0
 10
90.88947590674155
 20
8.69030183360802
 30
0.0
 10
90.5673780491375
 20
8.6521576751165
 30
0.0
  0
SPLINE
  5
C9
330
1F
100
AcDbEntity
  8
0
  6
Continuous
 62
     1
370
    15
100
AcDbSpline
210
0.0
220
0.0
230
1.0
 70
     8
 71
     3
 72
    30
 73
    26
 74
     0
 42
0.000000001
 43
0.00000001
 40
0.0
 40
0.0
 40
0.0
 40
0.0
 40
0.0472865358571145
 40
0.0949636440737586
 40
0.1383926785337552
 40
0.1821235118604575
 40
0.2255271582679753
 40
0.2692320503747836
 40
0.3126356942260098
 40
0.3563405649925135
 40
0.3997442065717742
 40
0.4434490580487727
 40
0.4868526976271723
 40
0.5305575318510597
 40
0.57396116968786
 40
0.617665988682126
 40
0.6610696250261207
 40
0.7047744308028464
 40
0.7481780658937305
 40
0.7918828604550818
 40
0.8352864945248212
 40
0.8789912798645384
 40
0.9223949131387353
 40
0.9660996912436184
 40
1.0
 40
1.0
 40
1.0
 40
1.0
 10
12.00000000000002
 20
9.826213708389563
 30
0.0
 10
13.32719394186978
 20
10.28062203781291
 30
0.0
 10
15.9925440426555
 20
11.19319197082518
 30
0.0
 10
19.87708410476984
 20
12.08060959951275
 30
0.0
 10
23.66135085566206
 20
12.60506680323015
 30
0.0
 10
27.3258389311458
 20
12.75803880122627
 30
0.0
 10
30.99798307454755
 20
12.55844318333792
 30
0.0
 10
34.66100982715434
 20
12.01110224829846
 30
0.0
 10
38.33243095344967
 20
11.1292080041412
 30
0.0
 10
41.99545665579962
 20
9.941005891552098
 30
0.0
 10
45.66687686499153
 20
8.474180446874424
 30
0.0
 10
49.32990292816534
 20
6.775923737227603
 30
0.0
 10
53.00132196558948
 20
4.885753316589504
 30
0.0
 10
56.6643484406916
 20
2.864495525162123
 30
0.0
 10
60.33576641366191
 20
0.7591783609693235
 30
0.0
 10
63.99879325328111
 20
-1.36244622346529
 30
0.0
 10
67.67021029437143
 20
-3.451013323088736
 30
0.0
 10
71.33323744260389
 20
-5.439325485683433
 30
0.0
 10
75.00465368798734
 20
-7.281055021893276
 30
0.0
 10
78.66768107802235
 20
-8.917195309036872
 30
0.0
 10
82.33909669944028
 20
-10.30868493959127
 30
0.0
 10
86.0021241284432
 20
-11.4144691134508
 30
0.0
 10
89.673539800943
 20
-12.19489665026088
 30
0.0
 10
93.06983947593838
 20
-12.64171318927994
 30
0.0
 10
95.24791955698043
 20
-12.66144220661887
 30
0.0
 10
96.19937248654739
 20
-12.67006045326095
 30
0.0
  0
SPLINE
  5
CA
330
1F
100
AcDbEntity
  8
0
  6
Continuous
 62
     1
370
    15
100
AcDbSpline
210
0.0
220
0.0
230
1.0
 70
     8
 71
     3
 72
    13
 73
     9
 74
     0
 42
0.000000001
 43
0.00000001
 40
0.0
 40
0.0
 40
0.0
 40
0.0
 40
0.078580218561683
 40
0.2897026152350127
 40
0.4651138369976426
 40
0.641375552147171
 40
0.8202369987904238
 40
1.0
 40
1.0
 40
1.0
 40
1.0
 10
146.9709724409812
 20
8.511206736833042
 30
0.0
 10
147.4275233543777
 20
8.713373156231766
 30
0.0
 10
149.1106949721188
 20
9.458702470460315
 30
0.0
 10
151.8132258452186
 20
10.41810143528789
 30
0.0
 10
155.0824587275196
 20
11.3928553001718
 30
0.0
 10
158.1645268857764
 20
12.07322582476205
 30
0.0
 10
161.2719693751304
 20
12.54094375309721
 30
0.0
 10
163.3555771146198
 20
12.63974256241443
 30
0.0
 10
164.3999999999993
 20
12.70000000000002
 30
0.0
  0
SPLINE
  5
CB
330
1F
100
AcDbEntity
  8
0
  6
Continuous
 62
     1
370
    15
100
AcDbSpline
210
0.0
220
0.0
230
1.0
 70
    24
 71
     3
 72
    10
 73
     6
 74
     0
 42
0.000000001
 43
0.00000001
 40
0.0
 40
0.0
 40
0.0
 40
0.0
 40
0.5
 40
0.5
 40
1.0
 40
1.0
 40
1.0
 40
1.0
 10
164.4
 20
8.889999999999995
 30
0.0
 10
164.4
 20
9.428889661452882
 30
0.0
 10
164.4
 20
10.05512935461238
 30
0.0
 10
164.4
 20
11.36897854420287
 30
0.0
 10
164.4000000000001
 20
12.05323263467871
 30
0.0
 10
164.3999999999993
 20
12.70000000000002
 30
0.0
  0
LINE
  5
CC
330
1F
100
AcDbEntity
  8
0
  6
Continuous
 62
     1
370
    15
100
AcDbLine
 10
164.4
 20
8.889999999999995
 30
0.0
 11
159.6797934844683
 21
8.680200873168383
 31
0.0
  0
SPLINE
  5
CD
330
1F
100
AcDbEntity
  8
0
  6
Continuous
 62
     1
370
    15
100
AcDbSpline
210
0.0
220
0.0
230
1.0
 70
     8
 71
     3
 72
    17
 73
    13
 74
     0
 42
0.000000001
 43
0.00000001
 40
0.0
 40
0.0
 40
0.0
 40
0.0
 40
0.0312184662511217
 40
0.1461940721312102
 40
0.2612118107804846
 40
0.3761553541264146
 40
0.491133016649326
 40
0.6061503561729058
 40
0.7210923080075927
 40
0.8360719775400874
 40
0.9653381133542532
 40
1.0
 40
1.0
 40
1.0
 40
1.0
 10
63.70602551443533
 20
-1.187329916254313
 30
0.0
 10
63.26638846317707
 20
-1.01345275462888
 30
0.0
 10
61.20759639228555
 20
-0.1991971757621519
 30
0.0
 10
57.52898172265292
 20
1.307999202394514
 30
0.0
 10
52.67087474890837
 20
3.213532039927722
 30
0.0
 10
47.81340005192498
 20
4.969780066835928
 30
0.0
 10
42.95562745694055
 20
6.483063638593038
 30
0.0
 10
38.09753816021307
 20
7.678986299029209
 30
0.0
 10
33.24004359896153
 20
8.511864400983036
 30
0.0
 10
28.18170500748048
 20
8.912380897305873
 30
0.0
 10
24.25317207930998
 20
8.962504025576239
 30
0.0
 10
21.94447326907501
 20
8.690624507518802
 30
0.0
 10
21.45630867550099
 20
8.633136733953348
 30
0.0
  0
SPLINE
  5
CE
330
1F
100
AcDbEntity
  8
외형선
  6
Continuous
370
    15
100
AcDbSpline
210
0.0
220
0.0
230
1.0
 70
    24
 71
     3
 72
    10
 73
     6
 74
     0
 42
0.000000001
 43
0.00000001
 40
0.0
 40
0.0
 40
0.0
 40
0.0
 40
0.2057253669950125
 40
0.7374291142200246
 40
0.9999999999999999
 40
0.9999999999999999
 40
0.9999999999999999
 40
0.9999999999999999
 10
12.00000000000003
 20
9.826213708389046
 30
0.0
 10
12.00000000000004
 20
9.726801540865141
 30
0.0
 10
12.00000000000004
 20
9.370455467890947
 30
0.0
 10
12.00000000000004
 20
8.905797401514953
 30
0.0
 10
12.00000000000004
 20
8.593640393424304
 30
0.0
 10
12.00000000000004
 20
8.49044769569619
 30
0.0
  0
LINE
  5
CF
330
1F
100
AcDbEntity
  8
0
  6
Continuous
 62
     1
370
    15
100
AcDbLine
 10
164.4
 20
-12.69999999999998
 30
0.0
 11
164.3999999999998
 21
-12.05154903924507
 31
0.0
  0
SPLINE
  5
D0
330
1F
100
AcDbEntity
  8
0
  6
Continuous
 62
     1
370
    15
100
AcDbSpline
210
0.0
220
0.0
230
1.0
 70
     8
 71
     3
 72
    10
 73
     6
 74
     0
 42
0.000000001
 43
0.00000001
 40
0.0
 40
0.0
 40
0.0
 40
0.0
 40
0.5
 40
0.5
 40
1.0
 40
1.0
 40
1.0
 40
1.0
 10
164.4
 20
-3.393985414576473
 30
0.0
 10
163.5494022330055
 20
-2.725276500219895
 30
0.0
 10
162.7074392641504
 20
-2.038875865003505
 30
0.0
 10
161.0405403709193
 20
-0.6311881139455326
 30
0.0
 10
160.2156032680788
 20
0.0900965873561396
 30
0.0
 10
159.4000000000017
 20
0.8305052561804281
 30
0.0
  0
LINE
  5
D1
330
1F
100
AcDbEntity
  8
0
  6
Continuous
 62
     1
370
    15
100
AcDbLine
 10
159.4
 20
2.937719435296607
 30
0.0
 11
164.4
 21
0.0000000000000164
 31
0.0
  0
LINE
  5
D2
330
1F
100
AcDbEntity
  8
0
  6
Continuous
 62
     1
370
    15
100
AcDbLine
 10
164.4
 20
0.0000000000000164
 30
0.0
 11
164.4
 21
-3.393985414576474
 31
0.0
  0
SPLINE
  5
D3
330
1F
100
AcDbEntity
  8
0
  6
Continuous
 62
     1
370
    15
100
AcDbSpline
210
0.0
220
0.0
230
1.0
 70
     8
 71
     3
 72
    24
 73
    20
 74
     0
 42
0.000000001
 43
0.00000001
 40
0.0
 40
0.0
 40
0.0
 40
0.0
 40
0.0285319199255069
 40
0.0897617851242917
 40
0.1510198728854713
 40
0.2122437203257569
 40
0.2734747810573881
 40
0.3347327911667096
 40
0.3959555575552158
 40
0.4571877881054521
 40
0.5184456946797218
 40
0.5796674310982299
 40
0.6409008057455057
 40
0.7021585829021786
 40
0.7633793404385997
 40
0.8246138334541838
 40
0.885871455311528
 40
0.9470912850595978
 40
1.0
 40
1.0
 40
1.0
 40
1.0
 10
137.5167600727784
 20
-9.490857532077731
 30
0.0
 10
136.7623301406728
 20
-9.622303317459808
 30
0.0
 10
134.3888839220583
 20
-10.03583343999501
 30
0.0
 10
130.3957477097064
 20
-10.22363555552805
 30
0.0
 10
125.5375384058537
 20
-10.05138482608128
 30
0.0
 10
120.6800422764487
 20
-9.365082745662352
 30
0.0
 10
115.8223915173648
 20
-8.23060679236276
 30
0.0
 10
110.9641960011524
 20
-6.695438170939675
 30
0.0
 10
106.1067189053651
 20
-4.834394016578022
 30
0.0
 10
101.2490447107443
 20
-2.73862662880285
 30
0.0
 10
96.39085037615365
 20
-0.5110849946374578
 30
0.0
 10
91.53339478933815
 20
1.742960248816289
 30
0.0
 10
86.67569671915963
 20
3.911703495285145
 30
0.0
 10
81.8175045574103
 20
5.889758559999009
 30
0.0
 10
76.96006867038358
 20
7.582233817947778
 30
0.0
 10
72.10234983049561
 20
8.90922832414383
 30
0.0
 10
67.24415093250019
 20
9.790298912939056
 30
0.0
 10
62.60693185592441
 20
10.22393166943801
 30
0.0
 10
59.58908158047103
 20
10.11376866048223
 30
0.0
 10
58.19003999632904
 20
10.06269832348872
 30
0.0
  0
SPLINE
  5
D4
330
1F
100
AcDbEntity
  8
외형선
  6
Continuous
370
    15
100
AcDbSpline
210
0.0
220
0.0
230
1.0
 70
    24
 71
     3
 72
    14
 73
    10
 74
     0
 42
0.000000001
 43
0.00000001
 40
0.0
 40
0.0
 40
0.0
 40
0.0
 40
0.25
 40
0.25
 40
0.5
 40
0.5
 40
0.75
 40
0.75
 40
1.0
 40
1.0
 40
1.0
 40
1.0
 10
12.00000000000003
 20
6.108102491301159
 30
0.0
 10
12.00000000000003
 20
5.262611765472861
 30
0.0
 10
12.00000000000003
 20
4.344469413350656
 30
0.0
 10
12.00000000000003
 20
2.414605301401421
 30
0.0
 10
12.00000000000003
 20
1.403302924177763
 30
0.0
 10
12.00000000000003
 20
-0.6416284989484624
 30
0.0
 10
12.00000000000003
 20
-1.67466703073217
 30
0.0
 10
12.00000000000003
 20
-3.688415128444525
 30
0.0
 10
12.00000000000003
 20
-4.66863925801452
 30
0.0
 10
12.00000000000003
 20
-5.592278231698585
 30
0.0
  0
SPLINE
  5
D5
330
1F
100
AcDbEntity
  8
0
  6
Continuous
 62
     1
370
    15
100
AcDbSpline
210
0.0
220
0.0
230
1.0
 70
     8
 71
     3
 72
    14
 73
    10
 74
     0
 42
0.000000001
 43
0.00000001
 40
0.0
 40
0.0
 40
0.0
 40
0.0
 40
0.1498587391160505
 40
0.299634010649664
 40
0.4494263073544875
 40
0.6007703280502026
 40
0.7520324239273559
 40
0.9033065902183501
 40
1.0
 40
1.0
 40
1.0
 40
1.0
 10
159.4000000000001
 20
2.289784744250616
 30
0.0
 10
157.7960031735114
 20
3.000720914258469
 30
0.0
 10
154.5889029067867
 20
4.422197280547667
 30
0.0
 10
149.7790719363307
 20
6.315915035621072
 30
0.0
 10
144.9532571749095
 20
7.920171620018704
 30
0.0
 10
140.1108836243333
 20
9.150983815220423
 30
0.0
 10
135.253367270964
 20
9.92263779646418
 30
0.0
 10
130.9806173657763
 20
10.2428072336763
 30
0.0
 10
128.3265225482302
 20
10.09306422259673
 30
0.0
 10
127.2915748270122
 20
10.03467286933362
 30
0.0
  0
SPLINE
  5
D6
330
1F
100
AcDbEntity
  8
0
  6
Continuous
 62
     1
370
    15
100
AcDbSpline
210
0.0
220
0.0
230
1.0
 70
     8
 71
     3
 72
    20
 73
    16
 74
     0
 42
0.000000001
 43
0.00000001
 40
0.0
 40
0.0
 40
0.0
 40
0.0
 40
0.020609436353505
 40
0.10670389015559
 40
0.1928205017391937
 40
0.2789678484097947
 40
0.3650610693095838
 40
0.4511791812781384
 40
0.5373262367572675
 40
0.6234182966238243
 40
0.7095378727657179
 40
0.7821593511639006
 40
0.8547799808702868
 40
0.9273950853938171
 40
1.0
 40
1.0
 40
1.0
 40
1.0
 10
68.40587054782264
 20
-9.507682027984064
 30
0.0
 10
68.01834096041446
 20
-9.581396211463499
 30
0.0
 10
66.01193409816125
 20
-9.96304615093703
 30
0.0
 10
62.38675692700226
 20
-10.19097921976016
 30
0.0
 10
57.52899417576269
 20
-10.14005611250329
 30
0.0
 10
52.67081287493482
 20
-9.559787044847598
 30
0.0
 10
47.81341240782013
 20
-8.524563249317676
 30
0.0
 10
42.95565201045626
 20
-7.072786713916692
 30
0.0
 10
38.0974488172566
 20
-5.279119702880835
 30
0.0
 10
33.24014318565875
 20
-3.227190179377219
 30
0.0
 10
28.63639939798175
 20
-1.135341180915019
 30
0.0
 10
24.28671863085395
 20
0.8830109411897137
 30
0.0
 10
20.19075385980236
 20
2.749082446133021
 30
0.0
 10
16.09518223247517
 20
4.535207111785158
 30
0.0
 10
13.36499688619726
 20
5.583828558305584
 30
0.0
 10
12.00000000000003
 20
6.108102491301159
 30
0.0
  0
SPLINE
  5
D7
330
1F
100
AcDbEntity
  8
0
  6
Continuous
 62
     1
370
    15
100
AcDbSpline
210
0.0
220
0.0
230
1.0
 70
    24
 71
     3
 72
     8
 73
     4
 74
     0
 42
0.000000001
 43
0.00000001
 40
0.0
 40
0.0
 40
0.0
 40
0.0
 40
1.0
 40
1.0
 40
1.0
 40
1.0
 10
159.4000000000001
 20
0.8305052561693449
 30
0.0
 10
159.4000000000001
 20
1.322728240362223
 30
0.0
 10
159.4000000000001
 20
1.810406971894838
 30
0.0
 10
159.4000000000001
 20
2.289784744250638
 30
0.0
  0
SPLINE
  5
D8
330
1F
100
AcDbEntity
  8
0
  6
Continuous
 62
     1
370
    15
100
AcDbSpline
210
0.0
220
0.0
230
1.0
 70
    24
 71
     3
 72
    12
 73
     8
 74
     0
 42
0.000000001
 43
0.00000001
 40
0.0
 40
0.0
 40
0.0
 40
0.0
 40
0.5
 40
0.5
 40
0.75
 40
0.75
 40
1.0
 40
1.0
 40
1.0
 40
1.0
 10
164.4
 20
-10.01994775747635
 30
0.0
 10
164.4
 20
-9.251840640348323
 30
0.0
 10
164.3999999999999
 20
-8.281307845612151
 30
0.0
 10
164.4000000000001
 20
-6.58901133731326
 30
0.0
 10
164.4
 20
-5.986484557405996
 30
0.0
 10
164.4
 20
-4.725678605577795
 30
0.0
 10
164.4000000000001
 20
-4.067494970664251
 30
0.0
 10
164.4000000000001
 20
-3.393985414576882
 30
0.0
  0
SPLINE
  5
D9
330
1F
100
AcDbEntity
  8
0
  6
Continuous
 62
     1
370
    15
100
AcDbSpline
210
0.0
220
0.0
230
1.0
 70
    24
 71
     3
 72
    10
 73
     6
 74
     0
 42
0.000000001
 43
0.00000001
 40
0.0
 40
0.0
 40
0.0
 40
0.0
 40
0.4999999999999998
 40
0.4999999999999998
 40
1.0
 40
1.0
 40
1.0
 40
1.0
 10
159.4
 20
2.289784744250648
 30
0.0
 10
159.4
 20
3.318117051978208
 30
0.0
 10
159.4
 20
4.293337801787553
 30
0.0
 10
159.4000000000001
 20
6.003026800807391
 30
0.0
 10
159.4000000000001
 20
6.735761112039322
 30
0.0
 10
159.4
 20
7.298596457508389
 30
0.0
  0
SPLINE
  5
DA
330
1F
100
AcDbEntity
  8
0
  6
Continuous
 62
     1
370
    15
100
AcDbSpline
210
0.0
220
0.0
230
1.0
 70
     8
 71
     3
 72
     8
 73
     4
 74
     0
 42
0.000000001
 43
0.00000001
 40
0.0
 40
0.0
 40
0.0
 40
0.0
 40
1.0
 40
1.0
 40
1.0
 40
1.0
 10
164.4
 20
8.890000000000015
 30
0.0
 10
162.7193518865621
 20
8.434389401781306
 30
0.0
 10
161.0520423396972
 20
7.907363561684527
 30
0.0
 10
159.4000000000001
 20
7.298596457508395
 30
0.0
  0
SPLINE
  5
DB
330
1F
100
AcDbEntity
  8
외형선
  6
Continuous
370
    15
100
AcDbSpline
210
0.0
220
0.0
230
1.0
 70
    24
 71
     3
 72
    11
 73
     7
 74
     0
 42
0.000000001
 43
0.00000001
 40
0.0
 40
0.0
 40
0.0
 40
0.0
 40
0.1265900306522654
 40
0.4225324101118405
 40
0.7072254682794749
 40
1.0
 40
1.0
 40
1.0
 40
1.0
 10
12.00000000000004
 20
8.330882946019226
 30
0.0
 10
12.00000000000004
 20
8.341826028014896
 30
0.0
 10
12.00000000000004
 20
8.378351864890503
 30
0.0
 10
12.00000000000004
 20
8.016795793160998
 30
0.0
 10
12.00000000000004
 20
7.296009326222184
 30
0.0
 10
12.00000000000004
 20
6.507748588273244
 30
0.0
 10
12.00000000000004
 20
6.108102491301164
 30
0.0
  0
LINE
  5
DC
330
1F
100
AcDbEntity
  8
0
  6
Continuous
 62
     1
370
    15
100
AcDbLine
 10
164.4
 20
0.0000000000000164
 30
0.0
 11
164.4
 21
8.890000000000013
 31
0.0
  0
LINE
  5
DD
330
1F
100
AcDbEntity
  8
중심선
100
AcDbLine
 10
-54.49999999999996
 20
-0.0000000000000067
 30
0.0
 11
167.4
 21
0.0000000000000205
 31
0.0
  0
LINE
  5
DE
330
1F
100
AcDbEntity
  8
참조1
100
AcDbLine
 10
59.29926131403118
 20
0.0010749287238892
 30
0.0
 11
59.29926131403118
 21
-39.99892507127611
 31
0.0
  0
LINE
  5
DF
330
1F
100
AcDbEntity
  8
참조1
100
AcDbLine
 10
59.29926131403118
 20
-39.99892507127611
 30
0.0
 11
-20.15080122126847
 21
-39.9989250712761
 31
0.0
  0
CIRCLE
  5
E0
330
1F
100
AcDbEntity
  8
해칭선
100
AcDbCircle
 10
0.0
 20
0.0
 30
0.0
 40
2.999999999999995
  0
INSERT
  5
E1
330
1F
100
AcDbEntity
  8
0
  6
Continuous
 62
     7
100
AcDbBlockReference
 66
     1
  2
블럭10
 10
42.50972706787482
 20
-52.04717430164393
 30
0.0
  0
ATTRIB
  5
E2
330
E1
100
AcDbEntity
  8
FORMAT
 62
     2
100
AcDbText
 10
33.32843177913355
 20
-49.97180738881174
 30
0.0
 40
4.233333333333333
  1
E1072064 [ 2 FLUTE ]
 41
0.75
  7
SLDTEXTSTYLE0
 11
33.32843177913355
 21
-52.08847405547841
 31
0.0
100
AcDbAttribute
  2
AUTOATTR0
 70
     0
 74
     1
  0
SEQEND
  5
E3
330
E1
100
AcDbEntity
  8
0
  6
Continuous
 62
     7
  0
HATCH
  5
E4
330
1F
100
AcDbEntity
  8
중심선
100
AcDbHatch
 10
0.0
 20
0.0
 30
0.0
210
0.0
220
0.0
230
1.0
  2
SOLID
 70
     1
 71
     0
 91
        1
 92
        0
 93
        4
 72
     1
 10
48.22463637225567
 20
-35.8
 11
44.77836112841838
 21
-35.8
 72
     1
 10
44.77836112841838
 20
-35.8
 11
42.65013126921442
 21
-38.33632558057257
 72
     1
 10
42.65013126921442
 20
-38.33632558057257
 11
46.09643959816474
 21
-38.33628615127008
 72
     1
 10
46.09643959816474
 20
-38.33628615127008
 11
48.22463637225567
 21
-35.8
 97
        0
 75
     0
 76
     1
 98
        1
 10
-2.849261314031148
 20
-0.0010749287238964
  0
HATCH
  5
E5
330
1F
100
AcDbEntity
  8
중심선
100
AcDbHatch
 10
0.0
 20
0.0
 30
0.0
210
0.0
220
0.0
230
1.0
  2
SOLID
 70
     1
 71
     0
 91
        1
 92
        0
 93
        4
 72
     1
 10
53.23740036329162
 20
-35.8
 11
49.79112511945439
 21
-35.79999999999998
 72
     1
 10
49.79112511945439
 20
-35.79999999999998
 11
45.25998711109692
 21
-41.20000000000002
 72
     1
 10
45.25998711109692
 20
-41.20000000000002
 11
48.7062623549342
 21
-41.20000000000002
 72
     1
 10
48.7062623549342
 20
-41.20000000000002
 11
53.23740036329162
 21
-35.8
 97
        0
 75
     0
 76
     1
 98
        1
 10
-2.849261314031148
 20
-0.0010749287238964
  0
HATCH
  5
E6
330
1F
100
AcDbEntity
  8
중심선
100
AcDbHatch
 10
0.0
 20
0.0
 30
0.0
210
0.0
220
0.0
230
1.0
  2
SOLID
 70
     1
 71
     0
 91
        1
 92
        0
 93
        4
 72
     1
 10
58.25016435432762
 20
-35.79999999999998
 11
54.8038891104904
 21
-35.8
 72
     1
 10
54.8038891104904
 20
-35.8
 11
47.75545220860112
 21
-44.20000000000002
 72
     1
 10
47.75545220860112
 20
-44.20000000000002
 11
51.2017274524384
 21
-44.20000000000002
 72
     1
 10
51.2017274524384
 20
-44.20000000000002
 11
58.25016435432762
 21
-35.79999999999998
 97
        0
 75
     0
 76
     1
 98
        1
 10
-2.849261314031148
 20
-0.0010749287238964
  0
HATCH
  5
E7
330
1F
100
AcDbEntity
  8
중심선
100
AcDbHatch
 10
0.0
 20
0.0
 30
0.0
210
0.0
220
0.0
230
1.0
  2
SOLID
 70
     1
 71
     0
 91
        1
 92
        0
 93
        6
 72
     3
 10
63.05005478533972
 20
-40.00000000005127
 11
3.960054785062276
 21
1.540882976769353E-10
 40
0.3939339440162635
 50
17.09539180608455
 51
320.0019657685075
 73
     0
 72
     1
 10
64.73305444104032
 20
-38.58789400463827
 11
67.0383563147413
 21
-36.65356729459044
 72
     3
 10
63.05005478528687
 20
-40.00000000000015
 11
6.600054785286822
 21
-1.278976924368180E-13
 40
0.6363583540795986
 50
39.9987384933739
 51
368.4976242363724
 73
     1
 72
     1
 10
69.47538727718744
 20
-39.03999999993002
 11
61.73012209212281
 21
-39.03999999993002
 72
     1
 10
61.73012209212282
 20
-39.03999999993002
 11
61.73009704767686
 21
-40.95999999992991
 72
     1
 10
61.73009704767686
 20
-40.95999999992991
 11
66.17147681714886
 21
-40.95999999992988
 97
        0
 75
     0
 76
     1
 98
        1
 10
-2.849261314031148
 20
-0.0010749287238964
  0
DIMENSION
  5
E8
330
1F
100
AcDbEntity
  8
치수문자_일반주서
100
AcDbDimension
  2
_D
 10
-63.99999999999994
 20
-12.70000000000007
 30
0.0
 11
-63.99999999999999
 21
-0.0000000000000032
 31
0.0
 70
   160
  1
%%c<>
 71
     2
 42
25.40000000000001
 52
-270.0
  3
SLDDIMSTYLE0
100
AcDbAlignedDimension
 13
-50.49999999999998
 23
12.69999999999999
 33
0.0
 14
-50.49999999999998
 24
-12.70000000000002
 34
0.0
 50
90.0000000000002
100
AcDbRotatedDimension
1001
ACAD
1000
DSTYLE
1002
{
1070
   171
1070
     6
1070
   273
1070
     7
1002
}
  0
DIMENSION
  5
FD
330
1F
100
AcDbEntity
  8
치수문자_일반주서
100
AcDbDimension
  2
_D_1
 10
12.00000000000004
 20
25.86560788423943
 30
0.0
 11
84.23756704597848
 21
25.86560788423943
 31
0.0
 70
   160
  1
<>
 71
     2
 42
152.3999999999993
  3
SLDDIMSTYLE0
100
AcDbAlignedDimension
 13
164.3999999999993
 23
12.70000000000002
 33
0.0
 14
12.00000000000004
 24
8.378437903516225
 34
0.0
 50
0.000000000000004
100
AcDbRotatedDimension
1001
ACAD
1000
DSTYLE
1002
{
1070
   171
1070
     6
1070
   273
1070
     7
1002
}
  0
DIMENSION
  5
112
330
1F
100
AcDbEntity
  8
치수문자_일반주서
100
AcDbDimension
  2
_D_2
 10
-51.49999999999995
 20
42.57707860462925
 30
0.0
 11
56.44999999999947
 21
42.57707860462925
 31
0.0
 70
   160
  1
<>
 71
     2
 42
215.8999999999992
  3
SLDDIMSTYLE0
100
AcDbAlignedDimension
 13
164.3999999999993
 23
12.70000000000002
 33
0.0
 14
-51.49999999999996
 24
11.69999999999998
 34
0.0
 50
0.0000000000000038
100
AcDbRotatedDimension
1001
ACAD
1000
DSTYLE
1002
{
1070
   171
1070
     6
1070
   273
1070
     7
1002
}
  0
DIMENSION
  5
125
330
1F
100
AcDbEntity
  8
치수문자_일반주서
100
AcDbDimension
  2
_D_3
 10
187.9464526017236
 20
12.70000000000011
 30
0.0
 11
187.9464526017236
 21
33.29326615341658
 31
0.0
 70
   160
  1
%%c<>
 71
     2
 42
25.4
 52
-270.0
  3
SLDDIMSTYLE0
100
AcDbAlignedDimension
 13
164.4
 23
-12.69999999999998
 33
0.0
 14
164.3999999999993
 24
12.70000000000002
 34
0.0
 50
90.0000000000002
100
AcDbRotatedDimension
1001
ACAD
1000
DSTYLE
1002
{
1070
   171
1070
     6
1070
   273
1070
     7
1002
}
  0
LINE
  5
139
330
1F
100
AcDbEntity
  8
참조1
100
AcDbLine
 10
77.82153940838579
 20
7.441074928723896
 30
0.0
 11
77.82153940838579
 21
-7.438925071276109
 31
0.0
  0
LINE
  5
13A
330
1F
100
AcDbEntity
  8
참조1
100
AcDbLine
 10
90.52153940838579
 20
5.441074928723896
 30
0.0
 11
77.82153940838579
 21
5.441074928723896
 31
0.0
  0
SOLID
  5
13B
330
1F
100
AcDbEntity
  8
참조1
100
AcDbTrace
 10
77.82153940838579
 20
5.441074928723896
 30
0.0
 11
84.17153940838578
 21
4.425074928723896
 31
0.0
 12
84.17153940838578
 22
6.457074928723896
 32
0.0
 13
84.17153940838578
 23
6.457074928723896
 33
0.0
  0
LINE
  5
13C
330
1F
100
AcDbEntity
  8
참조1
100
AcDbLine
 10
90.52153940838579
 20
-5.438925071276109
 30
0.0
 11
77.82153940838579
 21
-5.438925071276109
 31
0.0
  0
SOLID
  5
13D
330
1F
100
AcDbEntity
  8
참조1
100
AcDbTrace
 10
77.82153940838579
 20
-5.438925071276109
 30
0.0
 11
84.17153940838578
 21
-6.454925071276109
 31
0.0
 12
84.17153940838578
 22
-4.422925071276109
 32
0.0
 13
84.17153940838578
 23
-4.422925071276109
 33
0.0
  0
MTEXT
  5
13E
330
1F
100
AcDbEntity
  8
참조1
100
AcDbMText
 10
87.20588954101179
 20
11.01136670591222
 30
0.0
 40
3.5
 41
0.0
 71
     1
 72
     1
  1
A
  7
SLDTEXTSTYLE0
 73
     1
 44
1.0
  0
MTEXT
  5
13F
330
1F
100
AcDbEntity
  8
참조1
100
AcDbMText
 10
87.20588954101179
 20
0.1313667059122192
 30
0.0
 40
3.5
 41
0.0
 71
     1
 72
     1
  1
A
  7
SLDTEXTSTYLE0
 73
     1
 44
1.0
  0
INSERT
  5
146
330
1F
100
AcDbEntity
  8
해칭선
100
AcDbBlockReference
  2
SW_DOWELSYMBOL_0
 10
0.0
 20
0.0
 30
0.0
  0
LINE
  5
207
330
1F
100
AcDbEntity
  8
외형선
  6
Continuous
370
    15
100
AcDbLine
 10
-36.89499999999997
 20
12.69999999999998
 30
0.0
 11
-30.98632499999984
 21
12.69999999999998
 31
0.0
  0
LINE
  5
208
330
1F
100
AcDbEntity
  8
외형선
  6
Continuous
370
    15
100
AcDbLine
 10
-29.08132499999986
 20
10.79499999999999
 30
0.0
 11
-15.97492499999997
 21
10.79499999999999
 31
0.0
  0
LINE
  5
209
330
1F
100
AcDbEntity
  8
외형선
  6
Continuous
370
    15
100
AcDbLine
 10
-29.08132499999986
 20
10.79499999999999
 30
0.0
 11
-30.98632499999984
 21
12.69999999999998
 31
0.0
  0
LINE
  5
20A
330
1F
100
AcDbEntity
  8
외형선
  6
Continuous
370
    15
100
AcDbLine
 10
-15.97492499999997
 20
10.79499999999999
 30
0.0
 11
-14.06992499999994
 21
12.69999999999998
 31
0.0
  0
LINE
  5
20B
330
1F
100
AcDbEntity
  8
외형선
  6
Continuous
370
    15
100
AcDbLine
 10
-51.49999999999996
 20
10.79499999999999
 30
0.0
 11
-38.79999999999994
 21
10.79499999999999
 31
0.0
  0
LINE
  5
20C
330
1F
100
AcDbEntity
  8
외형선
  6
Continuous
370
    15
100
AcDbLine
 10
-38.79999999999994
 20
10.79499999999999
 30
0.0
 11
-36.89499999999997
 21
12.69999999999997
 31
0.0
  0
LINE
  5
20D
330
1F
100
AcDbEntity
  8
외형선
  6
Continuous
370
    15
100
AcDbLine
 10
-30.98632499999986
 20
12.69999999999999
 30
0.0
 11
-36.89499999999995
 21
12.69999999999999
 31
0.0
  0
ENDSEC
  0
SECTION
  2
OBJECTS
  0
DICTIONARY
  5
C
330
0
100
AcDbDictionary
281
     1
  3
ACAD_GROUP
350
D
  3
ACAD_IMAGE_VARS
350
16A
  3
ACAD_LAYOUT
350
1A
  3
ACAD_MLINESTYLE
350
17
  3
ACAD_PLOTSETTINGS
350
19
  3
ACAD_PLOTSTYLENAME
350
E
  3
ACAD_SCALELIST
350
47
  3
APPDATA
350
168
  3
DWGPROPS
350
20E
  0
DICTIONARY
  5
191
330
2
100
AcDbDictionary
280
     1
281
     1
  3
ACAD_LAYERSTATES
360
192
  0
DICTIONARY
  5
D
102
{ACAD_REACTORS
330
C
102
}
330
C
100
AcDbDictionary
281
     1
  0
RASTERVARIABLES
  5
16A
102
{ACAD_REACTORS
330
C
102
}
330
C
100
AcDbRasterVariables
 90
        0
 70
     1
 71
     1
 72
     1
  0
DICTIONARY
  5
1A
102
{ACAD_REACTORS
330
C
102
}
330
C
100
AcDbDictionary
281
     1
  3
Layout1
350
1E
  3
Layout2
350
26
  3
Model
350
22
  0
DICTIONARY
  5
17
102
{ACAD_REACTORS
330
C
102
}
330
C
100
AcDbDictionary
281
     1
  3
Standard
350
18
  0
DICTIONARY
  5
19
102
{ACAD_REACTORS
330
C
102
}
330
C
100
AcDbDictionary
281
     1
  0
ACDBDICTIONARYWDFLT
  5
E
102
{ACAD_REACTORS
330
C
102
}
330
C
100
AcDbDictionary
281
     1
  3
Normal
350
F
100
AcDbDictionaryWithDefault
340
F
  0
DICTIONARY
  5
47
102
{ACAD_REACTORS
330
C
102
}
330
C
100
AcDbDictionary
281
     1
  3
A0
350
48
  3
A1
350
49
  3
A2
350
4A
  3
A3
350
4B
  3
A4
350
4C
  3
A5
350
4D
  3
A6
350
4E
  3
A7
350
4F
  3
A8
350
50
  3
A9
350
51
  3
B0
350
52
  3
B1
350
53
  3
B2
350
54
  3
B3
350
55
  3
B4
350
56
  3
B5
350
57
  3
B6
350
58
  3
B7
350
59
  3
B8
350
5A
  3
B9
350
5B
  3
C0
350
5C
  3
C1
350
5D
  3
C2
350
5E
  3
C3
350
5F
  3
C4
350
60
  3
C5
350
61
  3
C6
350
62
  3
C7
350
63
  3
C8
350
64
  3
C9
350
65
  3
D0
350
66
  3
D1
350
67
  3
D2
350
68
  0
DICTIONARY
  5
168
102
{ACAD_REACTORS
330
C
102
}
330
C
100
AcDbDictionary
281
     1
  0
XRECORD
  5
20E
102
{ACAD_REACTORS
330
C
102
}
330
C
100
AcDbXrecord
280
     1
  1
DWGPROPS COOKIE
  2

  3

  4

  6

  7

  8
12016016
  9

300
=
301
=
302
=
303
=
304
=
305
=
306
=
307
=
308
=
309
=
 40
0.0
 41
2458311.094191771
 42
2458318.321999572
  1

 90
        0
  0
DICTIONARY
  5
192
102
{ACAD_REACTORS
330
191
102
}
330
191
100
AcDbDictionary
281
     1
  0
LAYOUT
  5
1E
102
{ACAD_REACTORS
330
1A
102
}
330
1A
100
AcDbPlotSettings
  1

  2
none_device
  4

  6

 40
0.0
 41
0.0
 42
0.0
 43
0.0
 44
0.0
 45
0.0
 46
0.0
 47
0.0
 48
0.0
 49
0.0
140
0.0
141
0.0
142
1.0
143
1.0
 70
   688
 72
     1
 73
     0
 74
     5
  7

 75
    16
147
1.0
148
0.0
149
0.0
100
AcDbLayout
  1
Layout1
 70
     1
 71
     1
 10
0.0
 20
0.0
 11
420.0
 21
297.0
 12
0.0
 22
0.0
 32
0.0
 14
1.000000000000000E+20
 24
1.000000000000000E+20
 34
1.000000000000000E+20
 15
-1.000000000000000E+20
 25
-1.000000000000000E+20
 35
-1.000000000000000E+20
146
0.0
 13
0.0
 23
0.0
 33
0.0
 16
1.0
 26
0.0
 36
0.0
 17
0.0
 27
1.0
 37
0.0
 76
     0
330
1B
  0
LAYOUT
  5
26
102
{ACAD_REACTORS
330
1A
102
}
330
1A
100
AcDbPlotSettings
  1

  2
none_device
  4

  6

 40
0.0
 41
0.0
 42
0.0
 43
0.0
 44
0.0
 45
0.0
 46
0.0
 47
0.0
 48
0.0
 49
0.0
140
0.0
141
0.0
142
1.0
143
1.0
 70
   688
 72
     1
 73
     0
 74
     5
  7

 75
    16
147
1.0
148
0.0
149
0.0
100
AcDbLayout
  1
Layout2
 70
     1
 71
     2
 10
0.0
 20
0.0
 11
0.0
 21
0.0
 12
0.0
 22
0.0
 32
0.0
 14
0.0
 24
0.0
 34
0.0
 15
0.0
 25
0.0
 35
0.0
146
0.0
 13
0.0
 23
0.0
 33
0.0
 16
1.0
 26
0.0
 36
0.0
 17
0.0
 27
1.0
 37
0.0
 76
     0
330
23
  0
LAYOUT
  5
22
102
{ACAD_REACTORS
330
1A
102
}
330
1A
100
AcDbPlotSettings
  1

  2
none_device
  4
ANSI_A_(11.00_x_8.50_Inches)
  6

 40
6.35
 41
19.05
 42
6.35000508
 43
19.05000254
 44
279.4
 45
215.9
 46
43.85998331953296
 47
63.17020537095863
 48
0.0
 49
0.0
140
0.0
141
0.0
142
0.026712182207309
143
1.0
 70
  1696
 72
     0
 73
     0
 74
     0
  7

 75
     0
147
0.0235690232323232
148
0.0
149
0.0
100
AcDbLayout
  1
Model
 70
     1
 71
     0
 10
0.0
 20
0.0
 11
420.0
 21
297.0
 12
0.0
 22
0.0
 32
0.0
 14
1.000000000000000E+20
 24
1.000000000000000E+20
 34
1.000000000000000E+20
 15
-1.000000000000000E+20
 25
-1.000000000000000E+20
 35
-1.000000000000000E+20
146
0.0
 13
0.0
 23
0.0
 33
0.0
 16
1.0
 26
0.0
 36
0.0
 17
0.0
 27
1.0
 37
0.0
 76
     0
330
1F
331
29
  0
MLINESTYLE
  5
18
102
{ACAD_REACTORS
330
17
102
}
330
17
100
AcDbMlineStyle
  2
Standard
 70
     0
  3

 62
   256
 51
90.0
 52
90.0
 71
     2
 49
0.5
 62
   256
  6
BYLAYER
 49
-0.5
 62
   256
  6
BYLAYER
  0
ACDBPLACEHOLDER
  5
F
102
{ACAD_REACTORS
330
E
102
}
330
E
  0
SCALE
  5
48
102
{ACAD_REACTORS
330
47
102
}
330
47
100
AcDbScale
 70
     0
300
1:1
140
1.0
141
1.0
290
     1
  0
SCALE
  5
49
102
{ACAD_REACTORS
330
47
102
}
330
47
100
AcDbScale
 70
     0
300
1:2
140
1.0
141
2.0
290
     0
  0
SCALE
  5
4A
102
{ACAD_REACTORS
330
47
102
}
330
47
100
AcDbScale
 70
     0
300
1:4
140
1.0
141
4.0
290
     0
  0
SCALE
  5
4B
102
{ACAD_REACTORS
330
47
102
}
330
47
100
AcDbScale
 70
     0
300
1:5
140
1.0
141
5.0
290
     0
  0
SCALE
  5
4C
102
{ACAD_REACTORS
330
47
102
}
330
47
100
AcDbScale
 70
     0
300
1:8
140
1.0
141
8.0
290
     0
  0
SCALE
  5
4D
102
{ACAD_REACTORS
330
47
102
}
330
47
100
AcDbScale
 70
     0
300
1:10
140
1.0
141
10.0
290
     0
  0
SCALE
  5
4E
102
{ACAD_REACTORS
330
47
102
}
330
47
100
AcDbScale
 70
     0
300
1:16
140
1.0
141
16.0
290
     0
  0
SCALE
  5
4F
102
{ACAD_REACTORS
330
47
102
}
330
47
100
AcDbScale
 70
     0
300
1:20
140
1.0
141
20.0
290
     0
  0
SCALE
  5
50
102
{ACAD_REACTORS
330
47
102
}
330
47
100
AcDbScale
 70
     0
300
1:30
140
1.0
141
30.0
290
     0
  0
SCALE
  5
51
102
{ACAD_REACTORS
330
47
102
}
330
47
100
AcDbScale
 70
     0
300
1:40
140
1.0
141
40.0
290
     0
  0
SCALE
  5
52
102
{ACAD_REACTORS
330
47
102
}
330
47
100
AcDbScale
 70
     0
300
1:50
140
1.0
141
50.0
290
     0
  0
SCALE
  5
53
102
{ACAD_REACTORS
330
47
102
}
330
47
100
AcDbScale
 70
     0
300
1:100
140
1.0
141
100.0
290
     0
  0
SCALE
  5
54
102
{ACAD_REACTORS
330
47
102
}
330
47
100
AcDbScale
 70
     0
300
2:1
140
2.0
141
1.0
290
     0
  0
SCALE
  5
55
102
{ACAD_REACTORS
330
47
102
}
330
47
100
AcDbScale
 70
     0
300
4:1
140
4.0
141
1.0
290
     0
  0
SCALE
  5
56
102
{ACAD_REACTORS
330
47
102
}
330
47
100
AcDbScale
 70
     0
300
8:1
140
8.0
141
1.0
290
     0
  0
SCALE
  5
57
102
{ACAD_REACTORS
330
47
102
}
330
47
100
AcDbScale
 70
     0
300
10:1
140
10.0
141
1.0
290
     0
  0
SCALE
  5
58
102
{ACAD_REACTORS
330
47
102
}
330
47
100
AcDbScale
 70
     0
300
100:1
140
100.0
141
1.0
290
     0
  0
SCALE
  5
59
102
{ACAD_REACTORS
330
47
102
}
330
47
100
AcDbScale
 70
     0
300
1/128" = 1'-0"
140
0.0078125
141
12.0
290
     0
  0
SCALE
  5
5A
102
{ACAD_REACTORS
330
47
102
}
330
47
100
AcDbScale
 70
     0
300
1/64" = 1'-0"
140
0.015625
141
12.0
290
     0
  0
SCALE
  5
5B
102
{ACAD_REACTORS
330
47
102
}
330
47
100
AcDbScale
 70
     0
300
1/32" = 1'-0"
140
0.03125
141
12.0
290
     0
  0
SCALE
  5
5C
102
{ACAD_REACTORS
330
47
102
}
330
47
100
AcDbScale
 70
     0
300
1/16" = 1'-0"
140
0.0625
141
12.0
290
     0
  0
SCALE
  5
5D
102
{ACAD_REACTORS
330
47
102
}
330
47
100
AcDbScale
 70
     0
300
3/32" = 1'-0"
140
0.09375
141
12.0
290
     0
  0
SCALE
  5
5E
102
{ACAD_REACTORS
330
47
102
}
330
47
100
AcDbScale
 70
     0
300
1/8" = 1'-0"
140
0.125
141
12.0
290
     0
  0
SCALE
  5
5F
102
{ACAD_REACTORS
330
47
102
}
330
47
100
AcDbScale
 70
     0
300
3/16" = 1'-0"
140
0.1875
141
12.0
290
     0
  0
SCALE
  5
60
102
{ACAD_REACTORS
330
47
102
}
330
47
100
AcDbScale
 70
     0
300
1/4" = 1'-0"
140
0.25
141
12.0
290
     0
  0
SCALE
  5
61
102
{ACAD_REACTORS
330
47
102
}
330
47
100
AcDbScale
 70
     0
300
3/8" = 1'-0"
140
0.375
141
12.0
290
     0
  0
SCALE
  5
62
102
{ACAD_REACTORS
330
47
102
}
330
47
100
AcDbScale
 70
     0
300
1/2" = 1'-0"
140
0.5
141
12.0
290
     0
  0
SCALE
  5
63
102
{ACAD_REACTORS
330
47
102
}
330
47
100
AcDbScale
 70
     0
300
3/4" = 1'-0"
140
0.75
141
12.0
290
     0
  0
SCALE
  5
64
102
{ACAD_REACTORS
330
47
102
}
330
47
100
AcDbScale
 70
     0
300
1" = 1'-0"
140
1.0
141
12.0
290
     0
  0
SCALE
  5
65
102
{ACAD_REACTORS
330
47
102
}
330
47
100
AcDbScale
 70
     0
300
1-1/2" = 1'-0"
140
1.5
141
12.0
290
     0
  0
SCALE
  5
66
102
{ACAD_REACTORS
330
47
102
}
330
47
100
AcDbScale
 70
     0
300
3" = 1'-0"
140
3.0
141
12.0
290
     0
  0
SCALE
  5
67
102
{ACAD_REACTORS
330
47
102
}
330
47
100
AcDbScale
 70
     0
300
6" = 1'-0"
140
6.0
141
12.0
290
     0
  0
SCALE
  5
68
102
{ACAD_REACTORS
330
47
102
}
330
47
100
AcDbScale
 70
     0
300
1'-0" = 1'-0"
140
12.0
141
12.0
290
     0
  0
ENDSEC
  0
EOF
