  0
SECTION
  2
HEADER
  9
$ACADVER
  1
AC1015
  9
$ACADMAINTVER
 70
     6
  9
$DWGCODEPAGE
  3
ANSI_949
  9
$INSBASE
 10
0.0
 20
0.0
 30
0.0
  9
$EXTMIN
 10
1.000000000000000E+20
 20
1.000000000000000E+20
 30
1.000000000000000E+20
  9
$EXTMAX
 10
-1.000000000000000E+20
 20
-1.000000000000000E+20
 30
-1.000000000000000E+20
  9
$LIMMIN
 10
0.0
 20
0.0
  9
$LIMMAX
 10
420.0
 20
297.0
  9
$ORTHOMODE
 70
     1
  9
$REGENMODE
 70
     1
  9
$FILLMODE
 70
     1
  9
$QTEXTMODE
 70
     0
  9
$MIRRTEXT
 70
     1
  9
$LTSCALE
 40
1.0
  9
$ATTMODE
 70
     1
  9
$TEXTSIZE
 40
3.5
  9
$TRACEWID
 40
1.0
  9
$TEXTSTYLE
  7
Standard
  9
$CLAYER
  8
0
  9
$CELTYPE
  6
ByLayer
  9
$CECOLOR
 62
   256
  9
$CELTSCALE
 40
1.0
  9
$DISPSILH
 70
     0
  9
$DIMSCALE
 40
1.0
  9
$DIMASZ
 40
3.302
  9
$DIMEXO
 40
1.0
  9
$DIMDLI
 40
3.75
  9
$DIMRND
 40
0.0
  9
$DIMDLE
 40
0.0
  9
$DIMEXE
 40
1.0
  9
$DIMTP
 40
0.0
  9
$DIMTM
 40
0.0
  9
$DIMTXT
 40
3.5
  9
$DIMCEN
 40
2.5
  9
$DIMTSZ
 40
0.0
  9
$DIMTOL
 70
     0
  9
$DIMLIM
 70
     0
  9
$DIMTIH
 70
     1
  9
$DIMTOH
 70
     1
  9
$DIMSE1
 70
     0
  9
$DIMSE2
 70
     0
  9
$DIMTAD
 70
     1
  9
$DIMZIN
 70
     0
  9
$DIMBLK
  1

  9
$DIMASO
 70
     1
  9
$DIMSHO
 70
     1
  9
$DIMPOST
  1

  9
$DIMAPOST
  1

  9
$DIMALT
 70
     0
  9
$DIMALTD
 70
     3
  9
$DIMALTF
 40
0.0393700787401575
  9
$DIMLFAC
 40
1.0
  9
$DIMTOFL
 70
     1
  9
$DIMTVP
 40
0.0
  9
$DIMTIX
 70
     0
  9
$DIMSOXD
 70
     0
  9
$DIMSAH
 70
     0
  9
$DIMBLK1
  1

  9
$DIMBLK2
  1

  9
$DIMSTYLE
  2
ISO-25
  9
$DIMCLRD
 70
     0
  9
$DIMCLRE
 70
     0
  9
$DIMCLRT
 70
     0
  9
$DIMTFAC
 40
1.0
  9
$DIMGAP
 40
1.524
  9
$DIMJUST
 70
     0
  9
$DIMSD1
 70
     0
  9
$DIMSD2
 70
     0
  9
$DIMTOLJ
 70
     0
  9
$DIMTZIN
 70
     0
  9
$DIMALTZ
 70
     0
  9
$DIMALTTZ
 70
     0
  9
$DIMUPT
 70
     0
  9
$DIMDEC
 70
     2
  9
$DIMTDEC
 70
     2
  9
$DIMALTU
 70
     2
  9
$DIMALTTD
 70
     3
  9
$DIMTXSTY
  7
Standard
  9
$DIMAUNIT
 70
     0
  9
$DIMADEC
 70
     2
  9
$DIMALTRND
 40
0.0
  9
$DIMAZIN
 70
     0
  9
$DIMDSEP
 70
    44
  9
$DIMATFIT
 70
     3
  9
$DIMFRAC
 70
     0
  9
$DIMLDRBLK
  1

  9
$DIMLUNIT
 70
     2
  9
$DIMLWD
 70
    -2
  9
$DIMLWE
 70
    -2
  9
$DIMTMOVE
 70
     0
  9
$LUNITS
 70
     2
  9
$LUPREC
 70
     2
  9
$SKETCHINC
 40
1.0
  9
$FILLETRAD
 40
10.0
  9
$AUNITS
 70
     0
  9
$AUPREC
 70
     2
  9
$MENU
  1
.
  9
$ELEVATION
 40
0.0
  9
$PELEVATION
 40
0.0
  9
$THICKNESS
 40
0.0
  9
$LIMCHECK
 70
     0
  9
$CHAMFERA
 40
0.0
  9
$CHAMFERB
 40
0.0
  9
$CHAMFERC
 40
0.0
  9
$CHAMFERD
 40
0.0
  9
$SKPOLY
 70
     0
  9
$TDCREATE
 40
2458311.468768183
  9
$TDUCREATE
 40
2458311.093768183
  9
$TDUPDATE
 40
2458318.697200185
  9
$TDUUPDATE
 40
2458318.322200185
  9
$TDINDWG
 40
0.0002446991
  9
$TDUSRTIMER
 40
2458318.322077754
  9
$USRTIMER
 70
     1
  9
$ANGBASE
 50
0.0
  9
$ANGDIR
 70
     0
  9
$PDMODE
 70
     0
  9
$PDSIZE
 40
-1.0
  9
$PLINEWID
 40
0.0
  9
$SPLFRAME
 70
     0
  9
$SPLINETYPE
 70
     6
  9
$SPLINESEGS
 70
     8
  9
$HANDSEED
  5
200
  9
$SURFTAB1
 70
     6
  9
$SURFTAB2
 70
     6
  9
$SURFTYPE
 70
     6
  9
$SURFU
 70
     6
  9
$SURFV
 70
     6
  9
$UCSBASE
  2

  9
$UCSNAME
  2

  9
$UCSORG
 10
0.0
 20
0.0
 30
0.0
  9
$UCSXDIR
 10
1.0
 20
0.0
 30
0.0
  9
$UCSYDIR
 10
0.0
 20
1.0
 30
0.0
  9
$UCSORTHOREF
  2

  9
$UCSORTHOVIEW
 70
     0
  9
$UCSORGTOP
 10
0.0
 20
0.0
 30
0.0
  9
$UCSORGBOTTOM
 10
0.0
 20
0.0
 30
0.0
  9
$UCSORGLEFT
 10
0.0
 20
0.0
 30
0.0
  9
$UCSORGRIGHT
 10
0.0
 20
0.0
 30
0.0
  9
$UCSORGFRONT
 10
0.0
 20
0.0
 30
0.0
  9
$UCSORGBACK
 10
0.0
 20
0.0
 30
0.0
  9
$PUCSBASE
  2

  9
$PUCSNAME
  2

  9
$PUCSORG
 10
0.0
 20
0.0
 30
0.0
  9
$PUCSXDIR
 10
1.0
 20
0.0
 30
0.0
  9
$PUCSYDIR
 10
0.0
 20
1.0
 30
0.0
  9
$PUCSORTHOREF
  2

  9
$PUCSORTHOVIEW
 70
     0
  9
$PUCSORGTOP
 10
0.0
 20
0.0
 30
0.0
  9
$PUCSORGBOTTOM
 10
0.0
 20
0.0
 30
0.0
  9
$PUCSORGLEFT
 10
0.0
 20
0.0
 30
0.0
  9
$PUCSORGRIGHT
 10
0.0
 20
0.0
 30
0.0
  9
$PUCSORGFRONT
 10
0.0
 20
0.0
 30
0.0
  9
$PUCSORGBACK
 10
0.0
 20
0.0
 30
0.0
  9
$USERI1
 70
     0
  9
$USERI2
 70
     0
  9
$USERI3
 70
     0
  9
$USERI4
 70
     0
  9
$USERI5
 70
     0
  9
$USERR1
 40
0.0
  9
$USERR2
 40
0.0
  9
$USERR3
 40
0.0
  9
$USERR4
 40
0.0
  9
$USERR5
 40
0.0
  9
$WORLDVIEW
 70
     1
  9
$SHADEDGE
 70
     3
  9
$SHADEDIF
 70
    70
  9
$TILEMODE
 70
     1
  9
$MAXACTVP
 70
    64
  9
$PINSBASE
 10
0.0
 20
0.0
 30
0.0
  9
$PLIMCHECK
 70
     0
  9
$PEXTMIN
 10
1.000000000000000E+20
 20
1.000000000000000E+20
 30
1.000000000000000E+20
  9
$PEXTMAX
 10
-1.000000000000000E+20
 20
-1.000000000000000E+20
 30
-1.000000000000000E+20
  9
$PLIMMIN
 10
0.0
 20
0.0
  9
$PLIMMAX
 10
0.0
 20
0.0
  9
$UNITMODE
 70
     0
  9
$VISRETAIN
 70
     1
  9
$PLINEGEN
 70
     0
  9
$PSLTSCALE
 70
     1
  9
$TREEDEPTH
 70
  3020
  9
$CMLSTYLE
  2
Standard
  9
$CMLJUST
 70
     0
  9
$CMLSCALE
 40
20.0
  9
$PROXYGRAPHICS
 70
     1
  9
$MEASUREMENT
 70
     1
  9
$CELWEIGHT
370
    -1
  9
$ENDCAPS
280
     0
  9
$JOINSTYLE
280
     0
  9
$LWDISPLAY
290
     1
  9
$INSUNITS
 70
     4
  9
$HYPERLINKBASE
  1

  9
$STYLESHEET
  1

  9
$XEDIT
290
     1
  9
$CEPSNTYPE
380
     0
  9
$PSTYLEMODE
290
     1
  9
$FINGERPRINTGUID
  2
{AAA952B1-B763-420C-BF4F-C5250DE9D718}
  9
$VERSIONGUID
  2
{FAEB1C32-E019-11D5-929B-00C0DF256EC4}
  9
$EXTNAMES
290
     1
  9
$PSVPSCALE
 40
0.0
  9
$OLESTARTUP
290
     0
  0
ENDSEC
  0
SECTION
  2
CLASSES
  0
CLASS
  1
ACDBDICTIONARYWDFLT
  2
AcDbDictionaryWithDefault
  3
ObjectDBX Classes
 90
        0
280
     0
281
     0
  0
CLASS
  1
VISUALSTYLE
  2
AcDbVisualStyle
  3
ObjectDBX Classes
 90
     4095
280
     0
281
     0
  0
CLASS
  1
MATERIAL
  2
AcDbMaterial
  3
ObjectDBX Classes
 90
     1153
280
     0
281
     0
  0
CLASS
  1
SCALE
  2
AcDbScale
  3
ObjectDBX Classes
 90
     1153
280
     0
281
     0
  0
CLASS
  1
SUN
  2
AcDbSun
  3
SCENEOE
 90
     1153
280
     0
281
     0
  0
CLASS
  1
ACDBPLACEHOLDER
  2
AcDbPlaceHolder
  3
ObjectDBX Classes
 90
        0
280
     0
281
     0
  0
CLASS
  1
LAYOUT
  2
AcDbLayout
  3
ObjectDBX Classes
 90
        0
280
     0
281
     0
  0
CLASS
  1
TABLESTYLE
  2
AcDbTableStyle
  3
ObjectDBX Classes
 90
     4095
280
     0
281
     0
  0
CLASS
  1
MLEADERSTYLE
  2
AcDbMLeaderStyle
  3
ACDB_MLEADERSTYLE_CLASS
 90
     4095
280
     0
281
     0
  0
CLASS
  1
RASTERVARIABLES
  2
AcDbRasterVariables
  3
ISM
 90
        0
280
     0
281
     0
  0
ENDSEC
  0
SECTION
  2
TABLES
  0
TABLE
  2
VPORT
  5
8
330
0
100
AcDbSymbolTable
 70
     1
  0
VPORT
  5
29
330
8
100
AcDbSymbolTableRecord
100
AcDbViewportTableRecord
  2
*Active
 70
     0
 10
0.0
 20
0.0
 11
1.0
 21
1.0
 12
-32.63811884137841
 22
-19.41808376492266
 13
0.0
 23
0.0
 14
10.0
 24
10.0
 15
10.0
 25
10.0
 16
0.0
 26
0.0
 36
1.0
 17
0.0
 27
0.0
 37
0.0
 40
118.8606337221653
 41
1.740812379110251
 42
50.0
 43
0.0
 44
0.0
 50
0.0
 51
0.0
 71
    16
 72
  2000
 73
     1
 74
     3
 75
     0
 76
     0
 77
     0
 78
     0
281
     0
 65
     1
110
0.0
120
0.0
130
0.0
111
1.0
121
0.0
131
0.0
112
0.0
122
1.0
132
0.0
 79
     0
146
0.0
  0
ENDTAB
  0
TABLE
  2
LTYPE
  5
5
330
0
100
AcDbSymbolTable
 70
     6
  0
LTYPE
  5
14
330
5
100
AcDbSymbolTableRecord
100
AcDbLinetypeTableRecord
  2
ByBlock
 70
     0
  3

 72
    65
 73
     0
 40
0.0
  0
LTYPE
  5
15
330
5
100
AcDbSymbolTableRecord
100
AcDbLinetypeTableRecord
  2
ByLayer
 70
     0
  3

 72
    65
 73
     0
 40
0.0
  0
LTYPE
  5
16
330
5
100
AcDbSymbolTableRecord
100
AcDbLinetypeTableRecord
  2
Continuous
 70
     0
  3
Solid line
 72
    65
 73
     0
 40
0.0
  0
LTYPE
  5
6A
330
5
100
AcDbSymbolTableRecord
100
AcDbLinetypeTableRecord
  2
HIDDEN
 70
     0
  3
Hidden __ __ __ __ __ __ __ __ __ __ __ __ __ __
 72
    65
 73
     2
 40
1.905
 49
1.27
 74
     0
 49
-0.635
 74
     0
  0
LTYPE
  5
6B
330
5
100
AcDbSymbolTableRecord
100
AcDbLinetypeTableRecord
  2
PHANTOM
 70
     0
  3
Phantom ______  __  __  ______  __  __  ______
 72
    65
 73
     6
 40
12.7
 49
6.35
 74
     0
 49
-1.27
 74
     0
 49
1.27
 74
     0
 49
-1.27
 74
     0
 49
1.27
 74
     0
 49
-1.27
 74
     0
  0
LTYPE
  5
6C
330
5
100
AcDbSymbolTableRecord
100
AcDbLinetypeTableRecord
  2
CENTER
 70
     0
  3
Center ____ _ ____ _ ____ _ ____ _ ____ _ ____
 72
    65
 73
     4
 40
10.16
 49
6.35
 74
     0
 49
-1.27
 74
     0
 49
1.27
 74
     0
 49
-1.27
 74
     0
  0
LTYPE
  5
6D
330
5
100
AcDbSymbolTableRecord
100
AcDbLinetypeTableRecord
  2
CENTERX2
 70
     0
  3
Center (2x) ________  __  ________  __  _____
 72
    65
 73
     4
 40
20.32
 49
12.7
 74
     0
 49
-2.54
 74
     0
 49
2.54
 74
     0
 49
-2.54
 74
     0
  0
LTYPE
  5
6E
330
5
100
AcDbSymbolTableRecord
100
AcDbLinetypeTableRecord
  2
DOT2
 70
     0
  3
Dot (.5x) ........................................
 72
    65
 73
     2
 40
0.635
 49
0.0
 74
     0
 49
-0.635
 74
     0
  0
ENDTAB
  0
TABLE
  2
LAYER
  5
2
102
{ACAD_XDICTIONARY
360
191
102
}
330
0
100
AcDbSymbolTable
 70
    18
  0
LAYER
  5
10
330
2
100
AcDbSymbolTableRecord
100
AcDbLayerTableRecord
  2
0
 70
     0
 62
     7
  6
Continuous
370
    -3
390
F
  0
LAYER
  5
6F
330
2
100
AcDbSymbolTableRecord
100
AcDbLayerTableRecord
  2
FORMAT
 70
     0
 62
     2
  6
Continuous
370
    -3
390
F
  0
LAYER
  5
70
330
2
100
AcDbSymbolTableRecord
100
AcDbLayerTableRecord
  2
외형선
 70
     0
 62
     4
  6
Continuous
370
    30
390
F
  0
LAYER
  5
71
330
2
100
AcDbSymbolTableRecord
100
AcDbLayerTableRecord
  2
숨은선
 70
     0
 62
     2
  6
HIDDEN
370
    15
390
F
  0
LAYER
  5
72
330
2
100
AcDbSymbolTableRecord
100
AcDbLayerTableRecord
  2
중심선
 70
     0
 62
     1
  6
CENTERX2
370
    -3
390
F
  0
LAYER
  5
73
330
2
100
AcDbSymbolTableRecord
100
AcDbLayerTableRecord
  2
파단선
 70
     0
 62
     4
  6
Continuous
370
    -3
390
F
  0
LAYER
  5
74
330
2
100
AcDbSymbolTableRecord
100
AcDbLayerTableRecord
  2
해칭선
 70
     0
 62
   100
  6
Continuous
370
    -3
390
F
  0
LAYER
  5
75
330
2
100
AcDbSymbolTableRecord
100
AcDbLayerTableRecord
  2
가는실선
 70
     0
 62
     4
  6
Continuous
370
    -3
390
F
  0
LAYER
  5
76
330
2
100
AcDbSymbolTableRecord
100
AcDbLayerTableRecord
  2
치수_보조선
 70
     0
 62
     4
  6
Continuous
370
    -3
390
F
  0
LAYER
  5
77
330
2
100
AcDbSymbolTableRecord
100
AcDbLayerTableRecord
  2
치수문자_일반주서
 70
     0
 62
     7
  6
Continuous
370
    15
390
F
  0
LAYER
  5
78
330
2
100
AcDbSymbolTableRecord
100
AcDbLayerTableRecord
  2
개별주서
 70
     0
 62
   100
  6
Continuous
370
    30
390
F
  0
LAYER
  5
79
330
2
100
AcDbSymbolTableRecord
100
AcDbLayerTableRecord
  2
중간선
 70
     0
 62
     2
  6
Continuous
370
    15
390
F
  0
LAYER
  5
7A
330
2
100
AcDbSymbolTableRecord
100
AcDbLayerTableRecord
  2
윤곽선
 70
     0
 62
     3
  6
Continuous
370
    40
390
F
  0
LAYER
  5
7B
330
2
100
AcDbSymbolTableRecord
100
AcDbLayerTableRecord
  2
중심마크
 70
     0
 62
   100
  6
Continuous
370
    30
390
F
  0
LAYER
  5
7C
330
2
100
AcDbSymbolTableRecord
100
AcDbLayerTableRecord
  2
가상선
 70
     0
 62
     4
  6
PHANTOM
370
    -3
390
F
  0
LAYER
  5
7D
330
2
100
AcDbSymbolTableRecord
100
AcDbLayerTableRecord
  2
특수지정선
 70
     0
 62
     5
  6
CENTERX2
370
    60
390
F
  0
LAYER
  5
7E
330
2
100
AcDbSymbolTableRecord
100
AcDbLayerTableRecord
  2
참조1
 70
     0
 62
    -4
  6
Continuous
370
    -3
390
F
  0
LAYER
  5
198
330
2
100
AcDbSymbolTableRecord
100
AcDbLayerTableRecord
  2
Defpoints
 70
     0
 62
     7
  6
Continuous
290
     0
370
    -3
390
F
  0
ENDTAB
  0
TABLE
  2
STYLE
  5
3
330
0
100
AcDbSymbolTable
 70
     2
  0
STYLE
  5
11
330
3
100
AcDbSymbolTableRecord
100
AcDbTextStyleTableRecord
  2
Standard
 70
     0
 40
0.0
 41
1.0
 50
0.0
 71
     0
 42
3.5
  3
txt
  4

  0
STYLE
  5
94
330
3
100
AcDbSymbolTableRecord
100
AcDbTextStyleTableRecord
  2
SLDTEXTSTYLE0
 70
     0
 40
0.0
 41
0.75
 50
0.0
 71
     0
 42
3.5
  3
TXT
  4

  0
ENDTAB
  0
TABLE
  2
VIEW
  5
6
330
0
100
AcDbSymbolTable
 70
     0
  0
ENDTAB
  0
TABLE
  2
UCS
  5
7
330
0
100
AcDbSymbolTable
 70
     0
  0
ENDTAB
  0
TABLE
  2
APPID
  5
9
330
0
100
AcDbSymbolTable
 70
     1
  0
APPID
  5
12
330
9
100
AcDbSymbolTableRecord
100
AcDbRegAppTableRecord
  2
ACAD
 70
     0
  0
ENDTAB
  0
TABLE
  2
DIMSTYLE
  5
A
330
0
100
AcDbSymbolTable
 70
     4
100
AcDbDimStyleTable
  0
DIMSTYLE
105
27
330
A
100
AcDbSymbolTableRecord
100
AcDbDimStyleTableRecord
  2
ISO-25
 70
     0
 41
2.5
 42
0.625
 43
3.75
 44
1.25
 73
     0
 74
     0
 77
     1
 78
     8
140
2.5
141
2.5
143
0.03937007874016
147
0.625
171
     3
172
     1
178
     0
271
     2
272
     2
274
     3
278
    44
283
     0
284
     8
340
11
  0
DIMSTYLE
105
E9
102
{ACAD_REACTORS
330
E8
330
FD
330
112
330
126
102
}
330
A
100
AcDbSymbolTableRecord
100
AcDbDimStyleTableRecord
  2
SLDDIMSTYLE0
 70
     0
 41
3.302
 44
0.0
 45
0.000000001
 73
     0
 74
     0
 77
     1
 78
    12
 79
     3
140
3.5
143
0.0393700787401575
147
0.875
148
0.000000001
170
     1
172
     1
173
     1
178
     0
271
     2
272
     2
276
     2
284
    12
289
     0
340
94
  0
DIMSTYLE
105
FE
330
A
100
AcDbSymbolTableRecord
100
AcDbDimStyleTableRecord
  2
SLDDIMSTYLE1
 70
     0
 41
3.302
 44
0.0
 45
0.000000001
 73
     0
 74
     0
 77
     1
 78
     4
 79
     1
140
3.5
143
0.0393700787401575
147
0.875
148
0.000000001
170
     1
173
     1
178
     0
271
     2
272
     2
276
     2
284
    12
340
94
  0
DIMSTYLE
105
113
330
A
100
AcDbSymbolTableRecord
100
AcDbDimStyleTableRecord
  2
SLDDIMSTYLE2
 70
     0
 41
3.302
 44
0.0
 45
0.000000001
 73
     0
 74
     0
 77
     1
 78
    12
 79
     3
140
3.5
143
0.0393700787401575
147
0.875
148
0.000000001
170
     1
173
     1
178
     0
271
     2
272
     2
276
     2
284
    12
340
94
  0
ENDTAB
  0
TABLE
  2
BLOCK_RECORD
  5
1
330
0
100
AcDbSymbolTable
 70
     8
  0
BLOCK_RECORD
  5
1F
330
1
100
AcDbSymbolTableRecord
100
AcDbBlockTableRecord
  2
*Model_Space
340
22
  0
BLOCK_RECORD
  5
1B
330
1
100
AcDbSymbolTableRecord
100
AcDbBlockTableRecord
  2
*Paper_Space
340
1E
  0
BLOCK_RECORD
  5
23
330
1
100
AcDbSymbolTableRecord
100
AcDbBlockTableRecord
  2
*Paper_Space0
340
26
  0
BLOCK_RECORD
  5
7F
330
1
100
AcDbSymbolTableRecord
100
AcDbBlockTableRecord
  2
블럭10
340
0
102
{BLKREFS
331
E1
102
}
  0
BLOCK_RECORD
  5
EA
330
1
100
AcDbSymbolTableRecord
100
AcDbBlockTableRecord
  2
_D
340
0
  0
BLOCK_RECORD
  5
FF
330
1
100
AcDbSymbolTableRecord
100
AcDbBlockTableRecord
  2
_D_1
340
0
  0
BLOCK_RECORD
  5
114
330
1
100
AcDbSymbolTableRecord
100
AcDbBlockTableRecord
  2
_D_2
340
0
  0
BLOCK_RECORD
  5
127
330
1
100
AcDbSymbolTableRecord
100
AcDbBlockTableRecord
  2
_D_3
340
0
  0
BLOCK_RECORD
  5
140
330
1
100
AcDbSymbolTableRecord
100
AcDbBlockTableRecord
  2
SW_DOWELSYMBOL_0
340
0
102
{BLKREFS
331
146
102
}
  0
ENDTAB
  0
ENDSEC
  0
SECTION
  2
BLOCKS
  0
BLOCK
  5
20
330
1F
100
AcDbEntity
  8
0
100
AcDbBlockBegin
  2
*Model_Space
 70
     0
 10
0.0
 20
0.0
 30
0.0
  3
*Model_Space
  1
*Model_Space
  0
ENDBLK
  5
21
330
1F
100
AcDbEntity
  8
0
100
AcDbBlockEnd
  0
BLOCK
  5
1C
330
1B
100
AcDbEntity
 67
     1
  8
0
100
AcDbBlockBegin
  2
*Paper_Space
 70
     0
 10
0.0
 20
0.0
 30
0.0
  3
*Paper_Space
  1
*Paper_Space
  0
ENDBLK
  5
1D
330
1B
100
AcDbEntity
 67
     1
  8
0
100
AcDbBlockEnd
  0
BLOCK
  5
24
330
23
100
AcDbEntity
  8
0
100
AcDbBlockBegin
  2
*Paper_Space0
 70
     0
 10
0.0
 20
0.0
 30
0.0
  3
*Paper_Space0
  1
*Paper_Space0
  0
ENDBLK
  5
25
330
23
100
AcDbEntity
  8
0
100
AcDbBlockEnd
  0
BLOCK
  5
80
330
7F
100
AcDbEntity
  8
0
100
AcDbBlockBegin
  2
블럭10
 70
     2
 10
0.0
 20
0.0
 30
0.0
  3
블럭10
  1
블럭10
  0
ELLIPSE
  5
82
330
7F
100
AcDbEntity
  8
중심선
100
AcDbEllipse
 10
20.54032771741204
 20
12.0471743016438
 30
0.0
 11
6.600054785286829
 21
-1.261213355974178E-13
 31
0.0
210
0.0
220
0.0
230
1.0
 40
0.636358354079598
 41
0.9219305317359503
 42
6.513795318482858
  0
ELLIPSE
  5
83
330
7F
100
AcDbEntity
  8
중심선
100
AcDbEllipse
 10
20.54032771746488
 20
12.04717430159265
 30
0.0
 11
3.960054785062283
 21
1.540847449632565E-10
 31
0.0
210
0.0
220
0.0
230
1.0
 40
0.3939339440162632
 41
1.131841032648279
 42
5.62031148352944
  0
LINE
  5
84
330
7F
100
AcDbEntity
  8
중심선
100
AcDbLine
 10
2.268634060543552
 20
16.24717430164393
 30
0.0
 11
5.714909304380834
 21
16.24717430164393
 31
0.0
  0
LINE
  5
85
330
7F
100
AcDbEntity
  8
중심선
100
AcDbLine
 10
5.245725140726316
 20
7.84717430164391
 30
0.0
 11
8.692000384563599
 21
7.84717430164391
 31
0.0
  0
LINE
  5
86
330
7F
100
AcDbEntity
  8
중심선
100
AcDbLine
 10
15.74043728645272
 20
16.24717430164393
 30
0.0
 11
8.692000384563599
 21
7.84717430164391
 31
0.0
  0
LINE
  5
87
330
7F
100
AcDbEntity
  8
중심선
100
AcDbLine
 10
0.1404042013395286
 20
13.71084872107135
 30
0.0
 11
3.58671253028996
 21
13.71088815037384
 31
0.0
  0
LINE
  5
88
330
7F
100
AcDbEntity
  8
중심선
100
AcDbLine
 10
2.750260043222114
 20
10.84717430164391
 30
0.0
 11
6.196535287059397
 21
10.84717430164391
 31
0.0
  0
LINE
  5
89
330
7F
100
AcDbEntity
  8
중심선
100
AcDbLine
 10
12.29416204261559
 20
16.24717430164393
 30
0.0
 11
5.245725140726316
 21
7.84717430164391
 31
0.0
  0
LINE
  5
8A
330
7F
100
AcDbEntity
  8
중심선
100
AcDbLine
 10
10.72767329541681
 20
16.24717430164393
 30
0.0
 11
6.196535287059397
 21
10.84717430164391
 31
0.0
  0
LINE
  5
8B
330
7F
100
AcDbEntity
  8
중심선
100
AcDbLine
 10
7.28139805157953
 20
16.24717430164393
 30
0.0
 11
2.750260043222114
 21
10.84717430164391
 31
0.0
  0
LINE
  5
8C
330
7F
100
AcDbEntity
  8
중심선
100
AcDbLine
 10
5.714909304380834
 20
16.24717430164393
 30
0.0
 11
3.58671253028996
 21
13.71088815037384
 31
0.0
  0
LINE
  5
8D
330
7F
100
AcDbEntity
  8
중심선
100
AcDbLine
 10
2.268634060543552
 20
16.24717430164393
 30
0.0
 11
0.1404042013395286
 21
13.71084872107135
 31
0.0
  0
LINE
  5
8E
330
7F
100
AcDbEntity
  8
중심선
100
AcDbLine
 10
7.28139805157953
 20
16.24717430164393
 30
0.0
 11
10.72767329541681
 21
16.24717430164393
 31
0.0
  0
LINE
  5
8F
330
7F
100
AcDbEntity
  8
중심선
100
AcDbLine
 10
12.29416204261559
 20
16.24717430164393
 30
0.0
 11
15.74043728645272
 21
16.24717430164393
 31
0.0
  0
LINE
  5
90
330
7F
100
AcDbEntity
  8
중심선
100
AcDbLine
 10
19.22036997980202
 20
11.08717430171403
 30
0.0
 11
23.66174974927406
 21
11.08717430171406
 31
0.0
  0
LINE
  5
91
330
7F
100
AcDbEntity
  8
중심선
100
AcDbLine
 10
19.22039502424796
 20
13.00717430171391
 30
0.0
 11
19.22036997980202
 21
11.08717430171403
 31
0.0
  0
LINE
  5
92
330
7F
100
AcDbEntity
  8
중심선
100
AcDbLine
 10
19.22039502424796
 20
13.00717430171391
 30
0.0
 11
26.96566020931264
 21
13.00717430171391
 31
0.0
  0
LINE
  5
93
330
7F
100
AcDbEntity
  8
중심선
100
AcDbLine
 10
22.22332737316547
 20
13.45928029700563
 30
0.0
 11
24.52862924686651
 21
15.39360700705356
 31
0.0
  0
ATTDEF
  5
95
330
7F
100
AcDbEntity
  8
FORMAT
 62
     2
100
AcDbText
 10
4.408487351596664
 20
2.075366912832191
 30
0.0
 40
4.233333333333333
  1
E1072048
 41
0.75
  7
SLDTEXTSTYLE0
 11
4.408487351596664
 21
-0.0412997538344756
 31
0.0
100
AcDbAttributeDefinition
  3

  2
AUTOATTR0
 70
     0
 74
     1
  0
ENDBLK
  5
81
330
7F
100
AcDbEntity
  8
0
100
AcDbBlockEnd
  0
BLOCK
  5
EB
330
EA
100
AcDbEntity
  8
0
100
AcDbBlockBegin
  2
_D
 70
     0
 10
0.0
 20
0.0
 30
0.0
  3
_D
  1
_D
  0
LINE
  5
ED
330
EA
100
AcDbEntity
  8
치수문자_일반주서
 62
     0
370
    -2
100
AcDbLine
 10
-44.21250000000001
 20
9.525000000000004
 30
0.0
 11
-57.65000000000005
 21
9.524999999999954
 31
0.0
  0
LINE
  5
EE
330
EA
100
AcDbEntity
  8
치수문자_일반주서
 62
     0
370
    -2
100
AcDbLine
 10
-44.21250000000001
 20
-9.525000000000007
 30
0.0
 11
-57.64999999999998
 21
-9.525000000000057
 31
0.0
  0
LINE
  5
EF
330
EA
100
AcDbEntity
  8
치수문자_일반주서
 62
     0
370
    -2
100
AcDbLine
 10
-57.65000000000003
 20
6.222999999999955
 30
0.0
 11
-57.65
 21
-6.223000000000058
 31
0.0
  0
SOLID
  5
F0
330
EA
100
AcDbEntity
  8
치수문자_일반주서
 62
     0
100
AcDbTrace
 10
-57.0996666666667
 20
6.222999999999956
 30
0.0
 11
-58.20033333333337
 21
6.222999999999953
 31
0.0
 12
-57.65000000000005
 22
9.524999999999954
 32
0.0
 13
-57.65000000000005
 23
9.524999999999954
 33
0.0
  0
SOLID
  5
F1
330
EA
100
AcDbEntity
  8
치수문자_일반주서
 62
     0
100
AcDbTrace
 10
-58.20033333333333
 20
-6.223000000000059
 30
0.0
 11
-57.09966666666666
 21
-6.223000000000056
 31
0.0
 12
-57.64999999999998
 22
-9.525000000000057
 32
0.0
 13
-57.64999999999998
 23
-9.525000000000057
 33
0.0
  0
MTEXT
  5
F2
330
EA
100
AcDbEntity
  8
치수문자_일반주서
 62
     0
100
AcDbMText
 10
-62.02500000000002
 20
-0.0000000000000097
 30
0.0
 40
3.5
 41
0.0
 71
     2
 72
     1
  1
\A1;%%c19.05 [3/4]
  7
SLDTEXTSTYLE0
 11
-3.356894814614645E-15
 21
1.0
 31
0.0
 73
     1
 44
1.0
  0
POINT
  5
F3
330
EA
100
AcDbEntity
  8
Defpoints
 62
     0
100
AcDbPoint
 10
-44.15000000000001
 20
9.525000000000004
 30
0.0
  0
POINT
  5
F4
330
EA
100
AcDbEntity
  8
Defpoints
 62
     0
100
AcDbPoint
 10
-44.15000000000001
 20
-9.525000000000007
 30
0.0
  0
POINT
  5
F5
330
EA
100
AcDbEntity
  8
Defpoints
 62
     0
100
AcDbPoint
 10
-57.64999999999999
 20
-9.525000000000057
 30
0.0
  0
ENDBLK
  5
EC
330
EA
100
AcDbEntity
  8
0
100
AcDbBlockEnd
  0
BLOCK
  5
100
330
FF
100
AcDbEntity
  8
0
100
AcDbBlockBegin
  2
_D_1
 70
     0
 10
0.0
 20
0.0
 30
0.0
  3
_D_1
  1
_D_1
  0
LINE
  5
102
330
FF
100
AcDbEntity
  8
치수문자_일반주서
 62
     0
370
    -2
100
AcDbLine
 10
113.6
 20
9.587500000000013
 30
0.0
 11
113.6
 21
22.69329134588531
 31
0.0
  0
LINE
  5
103
330
FF
100
AcDbEntity
  8
치수문자_일반주서
 62
     0
370
    -2
100
AcDbLine
 10
11.99999999999999
 20
9.554214560565088
 30
0.0
 11
11.99999999999999
 21
22.69329134588531
 31
0.0
  0
LINE
  5
104
330
FF
100
AcDbEntity
  8
치수문자_일반주서
 62
     0
370
    -2
100
AcDbLine
 10
110.298
 20
22.69329134588531
 30
0.0
 11
15.30199999999999
 21
22.69329134588531
 31
0.0
  0
SOLID
  5
105
330
FF
100
AcDbEntity
  8
치수문자_일반주서
 62
     0
100
AcDbTrace
 10
110.298
 20
22.14295801255197
 30
0.0
 11
110.298
 21
23.24362467921864
 31
0.0
 12
113.6
 22
22.69329134588531
 32
0.0
 13
113.6
 23
22.69329134588531
 33
0.0
  0
SOLID
  5
106
330
FF
100
AcDbEntity
  8
치수문자_일반주서
 62
     0
100
AcDbTrace
 10
15.30199999999999
 20
23.24362467921864
 30
0.0
 11
15.30199999999999
 21
22.14295801255197
 31
0.0
 12
11.99999999999999
 22
22.69329134588531
 32
0.0
 13
11.99999999999999
 23
22.69329134588531
 33
0.0
  0
MTEXT
  5
107
330
FF
100
AcDbEntity
  8
치수문자_일반주서
 62
     0
100
AcDbMText
 10
62.80000000000001
 20
27.06829134588531
 30
0.0
 40
3.5
 41
0.0
 71
     2
 72
     1
  1
\A1;101.6 [4]
  7
SLDTEXTSTYLE0
 73
     1
 44
1.0
  0
POINT
  5
108
330
FF
100
AcDbEntity
  8
Defpoints
 62
     0
100
AcDbPoint
 10
113.6
 20
9.525000000000013
 30
0.0
  0
POINT
  5
109
330
FF
100
AcDbEntity
  8
Defpoints
 62
     0
100
AcDbPoint
 10
11.99999999999999
 20
9.491714560565088
 30
0.0
  0
POINT
  5
10A
330
FF
100
AcDbEntity
  8
Defpoints
 62
     0
100
AcDbPoint
 10
11.99999999999999
 20
22.69329134588531
 30
0.0
  0
ENDBLK
  5
101
330
FF
100
AcDbEntity
  8
0
100
AcDbBlockEnd
  0
BLOCK
  5
115
330
114
100
AcDbEntity
  8
0
100
AcDbBlockBegin
  2
_D_2
 70
     0
 10
0.0
 20
0.0
 30
0.0
  3
_D_2
  1
_D_2
  0
LINE
  5
117
330
114
100
AcDbEntity
  8
치수문자_일반주서
 62
     0
370
    -2
100
AcDbLine
 10
113.6
 20
9.58750000000001
 30
0.0
 11
113.6
 21
39.56419134481796
 31
0.0
  0
LINE
  5
118
330
114
100
AcDbEntity
  8
치수문자_일반주서
 62
     0
370
    -2
100
AcDbLine
 10
-45.15000000000001
 20
8.587499999999993
 30
0.0
 11
-45.15000000000001
 21
39.56419134481796
 31
0.0
  0
LINE
  5
119
330
114
100
AcDbEntity
  8
치수문자_일반주서
 62
     0
370
    -2
100
AcDbLine
 10
110.298
 20
39.56419134481796
 30
0.0
 11
-41.84800000000001
 21
39.56419134481796
 31
0.0
  0
SOLID
  5
11A
330
114
100
AcDbEntity
  8
치수문자_일반주서
 62
     0
100
AcDbTrace
 10
110.298
 20
39.01385801148463
 30
0.0
 11
110.298
 21
40.1145246781513
 31
0.0
 12
113.6
 22
39.56419134481796
 32
0.0
 13
113.6
 23
39.56419134481796
 33
0.0
  0
SOLID
  5
11B
330
114
100
AcDbEntity
  8
치수문자_일반주서
 62
     0
100
AcDbTrace
 10
-41.84800000000001
 20
40.1145246781513
 30
0.0
 11
-41.84800000000001
 21
39.01385801148463
 31
0.0
 12
-45.15000000000001
 22
39.56419134481796
 32
0.0
 13
-45.15000000000001
 23
39.56419134481796
 33
0.0
  0
MTEXT
  5
11C
330
114
100
AcDbEntity
  8
치수문자_일반주서
 62
     0
100
AcDbMText
 10
34.22499999999999
 20
43.93919134481796
 30
0.0
 40
3.5
 41
0.0
 71
     2
 72
     1
  1
\A1;158.75 [6 1/4]
  7
SLDTEXTSTYLE0
 73
     1
 44
1.0
  0
POINT
  5
11D
330
114
100
AcDbEntity
  8
Defpoints
 62
     0
100
AcDbPoint
 10
113.6
 20
9.52500000000001
 30
0.0
  0
POINT
  5
11E
330
114
100
AcDbEntity
  8
Defpoints
 62
     0
100
AcDbPoint
 10
-45.15000000000001
 20
8.524999999999993
 30
0.0
  0
POINT
  5
11F
330
114
100
AcDbEntity
  8
Defpoints
 62
     0
100
AcDbPoint
 10
-45.15000000000001
 20
39.56419134481796
 30
0.0
  0
ENDBLK
  5
116
330
114
100
AcDbEntity
  8
0
100
AcDbBlockEnd
  0
BLOCK
  5
128
330
127
100
AcDbEntity
  8
0
100
AcDbBlockBegin
  2
_D_3
 70
     0
 10
0.0
 20
0.0
 30
0.0
  3
_D_3
  1
_D_3
  0
LINE
  5
12A
330
127
100
AcDbEntity
  8
치수문자_일반주서
 62
     0
370
    -2
100
AcDbLine
 10
113.6625
 20
-9.524999999999999
 30
0.0
 11
131.7257559180969
 21
-9.524999999999935
 31
0.0
  0
LINE
  5
12B
330
127
100
AcDbEntity
  8
치수문자_일반주서
 62
     0
370
    -2
100
AcDbLine
 10
113.6625
 20
9.525000000000013
 30
0.0
 11
131.7257559180968
 21
9.52500000000008
 31
0.0
  0
LINE
  5
12C
330
127
100
AcDbEntity
  8
치수문자_일반주서
 62
     0
370
    -2
100
AcDbLine
 10
131.7257559180968
 20
9.52500000000008
 30
0.0
 11
131.7257559180968
 21
46.4299215637198
 31
0.0
  0
LINE
  5
12D
330
127
100
AcDbEntity
  8
치수문자_일반주서
 62
     0
370
    -2
100
AcDbLine
 10
131.7257559180969
 20
-9.524999999999935
 30
0.0
 11
131.7257559180968
 21
9.52500000000008
 31
0.0
  0
LINE
  5
12E
330
127
100
AcDbEntity
  8
치수문자_일반주서
 62
     0
370
    -2
100
AcDbLine
 10
131.7257559180969
 20
-12.82699999999993
 30
0.0
 11
131.7257559180969
 21
-16.12899999999993
 31
0.0
  0
LINE
  5
12F
330
127
100
AcDbEntity
  8
치수문자_일반주서
 62
     0
370
    -2
100
AcDbLine
 10
131.7257559180968
 20
12.82700000000008
 30
0.0
 11
131.7257559180968
 21
16.12900000000008
 31
0.0
  0
SOLID
  5
130
330
127
100
AcDbEntity
  8
치수문자_일반주서
 62
     0
100
AcDbTrace
 10
132.2760892514302
 20
-12.82699999999993
 30
0.0
 11
131.1754225847636
 21
-12.82699999999994
 31
0.0
 12
131.7257559180969
 22
-9.524999999999935
 32
0.0
 13
131.7257559180969
 23
-9.524999999999935
 33
0.0
  0
SOLID
  5
131
330
127
100
AcDbEntity
  8
치수문자_일반주서
 62
     0
100
AcDbTrace
 10
131.1754225847635
 20
12.82700000000008
 30
0.0
 11
132.2760892514302
 21
12.82700000000008
 31
0.0
 12
131.7257559180968
 22
9.52500000000008
 32
0.0
 13
131.7257559180968
 23
9.52500000000008
 33
0.0
  0
MTEXT
  5
132
330
127
100
AcDbEntity
  8
치수문자_일반주서
 62
     0
100
AcDbMText
 10
127.3507559180968
 20
32.64867156371979
 30
0.0
 40
3.5
 41
0.0
 71
     2
 72
     1
  1
\A1;%%c19.05 [3/4]
  7
SLDTEXTSTYLE0
 11
-2.983906501879684E-15
 21
1.0
 31
0.0
 73
     1
 44
1.0
  0
POINT
  5
133
330
127
100
AcDbEntity
  8
Defpoints
 62
     0
100
AcDbPoint
 10
113.6
 20
-9.524999999999999
 30
0.0
  0
POINT
  5
19B
330
127
100
AcDbEntity
  8
Defpoints
 62
     0
100
AcDbPoint
 10
113.6
 20
9.525000000000013
 30
0.0
  0
POINT
  5
19C
330
127
100
AcDbEntity
  8
Defpoints
 62
     0
100
AcDbPoint
 10
131.7257559180968
 20
9.52500000000008
 30
0.0
  0
ENDBLK
  5
129
330
127
100
AcDbEntity
  8
0
100
AcDbBlockEnd
  0
BLOCK
  5
141
330
140
100
AcDbEntity
  8
0
100
AcDbBlockBegin
  2
SW_DOWELSYMBOL_0
 70
     0
 10
0.0
 20
0.0
 30
0.0
  3
SW_DOWELSYMBOL_0
  1
SW_DOWELSYMBOL_0
  0
CIRCLE
  5
143
330
140
100
AcDbEntity
  8
해칭선
 62
     0
100
AcDbCircle
 10
0.0
 20
0.0
 30
0.0
 40
2.999999999999996
  0
HATCH
  5
144
330
140
100
AcDbEntity
  8
0
  6
Continuous
 62
     0
370
     0
100
AcDbHatch
 10
0.0
 20
0.0
 30
0.0
210
0.0
220
0.0
230
1.0
  2
SOLID
 70
     1
 71
     0
 91
        1
 92
        0
 93
        3
 72
     2
 10
0.0
 20
0.0
 40
2.999999999999996
 50
0.0
 51
90.0
 73
     1
 72
     1
 10
0.0
 20
2.999999999999996
 11
0.0
 21
0.0
 72
     1
 10
0.0
 20
0.0
 11
2.999999999999996
 21
0.0
 97
        0
 75
     0
 76
     1
 98
        1
 10
0.0
 20
0.0
  0
HATCH
  5
145
330
140
100
AcDbEntity
  8
0
  6
Continuous
 62
     0
370
     0
100
AcDbHatch
 10
0.0
 20
0.0
 30
0.0
210
0.0
220
0.0
230
1.0
  2
SOLID
 70
     1
 71
     0
 91
        1
 92
        0
 93
        3
 72
     2
 10
0.0
 20
0.0
 40
2.999999999999996
 50
180.0
 51
270.0000000000007
 73
     1
 72
     1
 10
0.0
 20
-2.999999999999996
 11
0.0
 21
0.0
 72
     1
 10
0.0
 20
0.0
 11
-2.999999999999996
 21
0.0
 97
        0
 75
     0
 76
     1
 98
        1
 10
0.0
 20
0.0
  0
ENDBLK
  5
142
330
140
100
AcDbEntity
  8
0
100
AcDbBlockEnd
  0
ENDSEC
  0
SECTION
  2
ENTITIES
  0
LINE
  5
96
330
1F
100
AcDbEntity
  8
외형선
  6
Continuous
370
    15
100
AcDbLine
 10
8.950093413337894
 20
9.525
 30
0.0
 11
-11.65692500000002
 21
9.524999999999999
 31
0.0
  0
LINE
  5
97
330
1F
100
AcDbEntity
  8
외형선
  6
Continuous
370
    15
100
AcDbLine
 10
11.99999999999999
 20
9.525
 30
0.0
 11
10.62057739024362
 21
9.525
 31
0.0
  0
LINE
  5
98
330
1F
100
AcDbEntity
  8
외형선
  6
Continuous
370
    15
100
AcDbLine
 10
10.62057739024358
 20
-9.525
 30
0.0
 11
11.99999999999999
 21
-9.525
 31
0.0
  0
LINE
  5
99
330
1F
100
AcDbEntity
  8
외형선
  6
Continuous
370
    15
100
AcDbLine
 10
-44.15000000000001
 20
-9.525000000000004
 30
0.0
 11
8.950093413337894
 21
-9.525
 31
0.0
  0
LINE
  5
9A
330
1F
100
AcDbEntity
  8
외형선
  6
Continuous
370
    15
100
AcDbLine
 10
-44.15000000000001
 20
9.524999999999993
 30
0.0
 11
-45.15000000000001
 21
8.524999999999993
 31
0.0
  0
LINE
  5
9B
330
1F
100
AcDbEntity
  8
외형선
  6
Continuous
370
    15
100
AcDbLine
 10
-45.15000000000001
 20
-8.525000000000004
 30
0.0
 11
-44.15000000000001
 21
-9.525000000000004
 31
0.0
  0
LINE
  5
9C
330
1F
100
AcDbEntity
  8
0
  6
Continuous
 62
     1
370
    15
100
AcDbLine
 10
83.66034983273799
 20
2.678893001025496
 30
0.0
 11
83.55182461876025
 21
2.738482789236434
 31
0.0
  0
SPLINE
  5
9D
330
1F
100
AcDbEntity
  8
0
  6
Continuous
 62
     1
370
    15
100
AcDbSpline
210
0.0
220
0.0
230
1.0
 70
     8
 71
     3
 72
     9
 73
     5
 74
     0
 42
0.000000001
 43
0.00000001
 40
0.0
 40
0.0
 40
0.0
 40
0.0
 40
0.4992143077385808
 40
1.0
 40
1.0
 40
1.0
 40
1.0
 10
88.92346662074237
 20
2.440760968041425
 30
0.0
 10
88.48368607983247
 20
2.650296209065242
 30
0.0
 10
87.60274069406799
 20
3.070026248400455
 30
0.0
 10
86.72169833772705
 20
3.53136879959127
 30
0.0
 10
86.28048493139522
 20
3.762402548459013
 30
0.0
  0
SPLINE
  5
9E
330
1F
100
AcDbEntity
  8
0
  6
Continuous
 62
     1
370
    15
100
AcDbSpline
210
0.0
220
0.0
230
1.0
 70
     8
 71
     3
 72
     9
 73
     5
 74
     0
 42
0.000000001
 43
0.00000001
 40
0.0
 40
0.0
 40
0.0
 40
0.0
 40
0.4929422828590124
 40
1.0
 40
1.0
 40
1.0
 40
1.0
 10
37.0942844202423
 20
2.440697883407431
 30
0.0
 10
36.65920388870722
 20
2.647967422261834
 30
0.0
 10
35.77658426636188
 20
3.068441676676086
 30
0.0
 10
34.89704500705436
 20
3.52895102499128
 30
0.0
 10
34.45106783809402
 20
3.762455843870066
 30
0.0
  0
LINE
  5
9F
330
1F
100
AcDbEntity
  8
0
  6
Continuous
 62
     1
370
    15
100
AcDbLine
 10
12.0
 20
-9.525000000000011
 30
0.0
 11
15.2371073142076
 21
-9.525000000000011
 31
0.0
  0
LINE
  5
A0
330
1F
100
AcDbEntity
  8
0
  6
Continuous
 62
     1
370
    15
100
AcDbLine
 10
67.06609365129991
 20
9.525000000000007
 30
0.0
 11
62.4494671393787
 21
9.525000000000007
 31
0.0
  0
LINE
  5
A1
330
1F
100
AcDbEntity
  8
0
  6
Continuous
 62
     1
370
    15
100
AcDbLine
 10
62.44946713937874
 20
-9.525000000000011
 30
0.0
 11
67.06609365129994
 21
-9.525000000000011
 31
0.0
  0
LINE
  5
A2
330
1F
100
AcDbEntity
  8
0
  6
Continuous
 62
     1
370
    15
100
AcDbLine
 10
15.23710731420756
 20
9.525000000000007
 30
0.0
 11
12.0
 21
9.525000000000007
 31
0.0
  0
SPLINE
  5
A3
330
1F
100
AcDbEntity
  8
0
  6
Continuous
 62
     1
370
    15
100
AcDbSpline
210
0.0
220
0.0
230
1.0
 70
     8
 71
     3
 72
    24
 73
    20
 74
     0
 42
0.000000001
 43
0.00000001
 40
0.0
 40
0.0
 40
0.0
 40
0.0
 40
0.0767547140552839
 40
0.1343963441492351
 40
0.1786244031829476
 40
0.2350427849775667
 40
0.279697617072701
 40
0.3279503414469327
 40
0.3920322688027426
 40
0.4408935045363103
 40
0.4777709426889303
 40
0.5299092233674383
 40
0.6019393401161696
 40
0.6872472061074476
 40
0.7465960518507685
 40
0.7881315357464762
 40
0.8389942495929816
 40
0.9081454979019471
 40
1.0
 40
1.0
 40
1.0
 40
1.0
 10
71.44756024086932
 20
-7.926125382507378
 30
0.0
 10
71.8088376314022
 20
-7.890919148091995
 30
0.0
 10
72.44142888145132
 20
-7.829273563779349
 30
0.0
 10
73.29709594386719
 20
-7.756523202515381
 30
0.0
 10
74.06293787197964
 20
-7.696643630249183
 30
0.0
 10
74.75823632455239
 20
-7.647289709748526
 30
0.0
 10
75.47146363844247
 20
-7.602199280708074
 30
0.0
 10
76.22261770930453
 20
-7.559967679538887
 30
0.0
 10
76.99400824575729
 20
-7.523119936819666
 30
0.0
 10
77.7098548838686
 20
-7.495272739742036
 30
0.0
 10
78.36686366607631
 20
-7.474192652136483
 30
0.0
 10
79.13669040601347
 20
-7.454881746259534
 30
0.0
 10
80.13737835876796
 20
-7.439600628677068
 30
0.0
 10
81.17260156916858
 20
-7.436847823756599
 30
0.0
 10
82.06341214322019
 20
-7.444798439630073
 30
0.0
 10
82.78690704757196
 20
-7.457025986017956
 30
0.0
 10
83.56598898696939
 20
-7.476151074004215
 30
0.0
 10
84.59527719921698
 20
-7.509679746905681
 30
0.0
 10
85.34647840091151
 20
-7.547410276699631
 30
0.0
 10
85.7750420527232
 20
-7.568935713023228
 30
0.0
  0
SPLINE
  5
A4
330
1F
100
AcDbEntity
  8
0
  6
Continuous
 62
     1
370
    15
100
AcDbSpline
210
0.0
220
0.0
230
1.0
 70
     8
 71
     3
 72
    17
 73
    13
 74
     0
 42
0.000000001
 43
0.00000001
 40
0.0
 40
0.0
 40
0.0
 40
0.0
 40
0.1397464620607469
 40
0.2639768483932992
 40
0.3599456987292483
 40
0.4437314448329249
 40
0.5558209412443055
 40
0.6761086127361596
 40
0.7699025469438017
 40
0.8585555299286842
 40
0.9924680992050993
 40
1.0
 40
1.0
 40
1.0
 40
1.0
 10
33.9458288454659
 20
7.568941249941703
 30
0.0
 10
33.59753365951715
 20
7.550859542683808
 30
0.0
 10
32.93961456702993
 20
7.516703743494886
 30
0.0
 10
31.97624634589391
 20
7.483687971866466
 30
0.0
 10
31.17204471603199
 20
7.46154626700022
 30
0.0
 10
30.42282240427198
 20
7.447329784708896
 30
0.0
 10
29.59585948664525
 20
7.438365319853367
 30
0.0
 10
28.7468909147826
 20
7.437923537217126
 30
0.0
 10
27.9581932037732
 20
7.444697023361823
 30
0.0
 10
27.1337231239194
 20
7.458973886480049
 30
0.0
 10
26.53404580829275
 20
7.472912106023509
 30
0.0
 10
26.16549947845334
 20
7.486427520453429
 30
0.0
 10
26.14587443130037
 20
7.487147214624836
 30
0.0
  0
SPLINE
  5
A5
330
1F
100
AcDbEntity
  8
0
  6
Continuous
 62
     1
370
    15
100
AcDbSpline
210
0.0
220
0.0
230
1.0
 70
     8
 71
     3
 72
    25
 73
    21
 74
     0
 42
0.000000001
 43
0.00000001
 40
0.0
 40
0.0
 40
0.0
 40
0.0
 40
0.079440194609789
 40
0.1336705656038349
 40
0.1701882721938809
 40
0.2111026943161101
 40
0.2841387967652756
 40
0.3450025405205117
 40
0.3873773179992668
 40
0.4245835012974074
 40
0.4743070150284464
 40
0.5321541444458053
 40
0.5804631113398154
 40
0.6315734960097653
 40
0.6971209028110493
 40
0.7582009430870452
 40
0.8038576451903754
 40
0.8561531896564439
 40
0.9238490687854372
 40
1.0
 40
1.0
 40
1.0
 40
1.0
 10
19.61813691231146
 20
-7.926136043935427
 30
0.0
 10
19.99611118333992
 20
-7.889449752145327
 30
0.0
 10
20.63211207483124
 20
-7.82771932213344
 30
0.0
 10
21.44424440334794
 20
-7.758785401696668
 30
0.0
 10
22.07863519072819
 20
-7.708676304855723
 30
0.0
 10
22.80020059980183
 20
-7.65574282565215
 30
0.0
 10
23.63606800856335
 20
-7.6017190836572
 30
0.0
 10
24.47878203606894
 20
-7.555755868266406
 30
0.0
 10
25.15006998431872
 20
-7.524379232705592
 30
0.0
 10
25.76823297784845
 20
-7.499322477157518
 30
0.0
 10
26.46058703302537
 20
-7.476066638637584
 30
0.0
 10
27.20604683531524
 20
-7.457356390247294
 30
0.0
 10
27.95819617079436
 20
-7.444792425888163
 30
0.0
 10
28.74688983942465
 20
-7.437888959821663
 30
0.0
 10
29.59585978347453
 20
-7.438374864195719
 30
0.0
 10
30.42282234886671
 20
-7.447328003190754
 30
0.0
 10
31.17204473104476
 20
-7.461546749725395
 30
0.0
 10
31.97624634027913
 20
-7.483687791327041
 30
0.0
 10
32.93961456880628
 20
-7.516703800612172
 30
0.0
 10
33.59753366013203
 20
-7.550859562454623
 30
0.0
 10
33.9458288454659
 20
-7.568941249941704
 30
0.0
  0
SPLINE
  5
A6
330
1F
100
AcDbEntity
  8
0
  6
Continuous
 62
     1
370
    15
100
AcDbSpline
210
0.0
220
0.0
230
1.0
 70
     8
 71
     3
 72
    18
 73
    14
 74
     0
 42
0.000000001
 43
0.00000001
 40
0.0
 40
0.0
 40
0.0
 40
0.0
 40
0.1464626698395997
 40
0.2620397336373664
 40
0.3518265854660573
 40
0.4204508513507806
 40
0.4860364596921778
 40
0.5579516315844458
 40
0.6755439128747552
 40
0.7960287653954915
 40
0.889197967643879
 40
0.9626036397818968
 40
1.0
 40
1.0
 40
1.0
 40
1.0
 10
85.77504205272322
 20
7.568935713023228
 30
0.0
 10
85.40474375606141
 20
7.550167538049235
 30
0.0
 10
84.74223455061068
 20
7.516588964229503
 30
0.0
 10
83.8202917398775
 20
7.48395839060876
 30
0.0
 10
83.10007055284295
 20
7.464225480513018
 30
0.0
 10
82.51855054607276
 20
7.452189184620996
 30
0.0
 10
81.9844092592431
 20
7.444269144517739
 30
0.0
 10
81.32268746201514
 20
7.438387372295272
 30
0.0
 10
80.518842737664
 20
7.437845489841959
 30
0.0
 10
79.66044741279916
 20
7.446122771056021
 30
0.0
 10
78.91622843235776
 20
7.460324236732079
 30
0.0
 10
78.38746058492252
 20
7.473799047300949
 30
0.0
 10
78.10081521032964
 20
7.483059788440064
 30
0.0
 10
78.00407065199272
 20
7.486185344931771
 30
0.0
  0
SPLINE
  5
A7
330
1F
100
AcDbEntity
  8
0
  6
Continuous
 62
     1
370
    15
100
AcDbSpline
210
0.0
220
0.0
230
1.0
 70
     8
 71
     3
 72
    18
 73
    14
 74
     0
 42
0.000000001
 43
0.00000001
 40
0.0
 40
0.0
 40
0.0
 40
0.0
 40
0.1744388437439693
 40
0.3050425975135799
 40
0.3984812667018967
 40
0.4673341242682995
 40
0.5200459383206222
 40
0.5769844088710985
 40
0.6391035560998144
 40
0.7131337850175796
 40
0.8100512079787939
 40
0.9224648802151854
 40
0.9999999999999999
 40
0.9999999999999999
 40
0.9999999999999999
 40
0.9999999999999999
 10
93.42062482331606
 20
-7.164091011768992
 30
0.0
 10
93.8285993398426
 20
-7.101628791768276
 30
0.0
 10
94.54202763121138
 20
-6.992400609406275
 30
0.0
 10
95.48621668115297
 20
-6.864111122110915
 30
0.0
 10
96.1927302683819
 20
-6.775735495073023
 30
0.0
 10
96.70768037869328
 20
-6.71537587525556
 30
0.0
 10
97.13031592589114
 20
-6.668370498708557
 30
0.0
 10
97.53803398871511
 20
-6.625214059535748
 30
0.0
 10
97.99631331655249
 20
-6.579420270467828
 30
0.0
 10
98.54934715488139
 20
-6.5278053055724
 30
0.0
 10
99.22163386904535
 20
-6.471337425624174
 30
0.0
 10
99.90215754902545
 20
-6.421017316521888
 30
0.0
 10
100.3527075560353
 20
-6.393708865270546
 30
0.0
 10
100.5366173792611
 20
-6.382561839714974
 30
0.0
  0
SPLINE
  5
A8
330
1F
100
AcDbEntity
  8
0
  6
Continuous
 62
     1
370
    15
100
AcDbSpline
210
0.0
220
0.0
230
1.0
 70
     8
 71
     3
 72
    30
 73
    26
 74
     0
 42
0.000000001
 43
0.00000001
 40
0.0
 40
0.0
 40
0.0
 40
0.0
 40
0.0702703853591638
 40
0.1220413809878395
 40
0.1615735249499203
 40
0.1923672655979383
 40
0.235437129128138
 40
0.2752975186006532
 40
0.3038896006711785
 40
0.3387345778804461
 40
0.3955520514452481
 40
0.4463576648612606
 40
0.4855902725444552
 40
0.518723379416628
 40
0.547281640165206
 40
0.5864133055756847
 40
0.6376465571339042
 40
0.6759495179362227
 40
0.7111218572963587
 40
0.7635326137722285
 40
0.8110630009276155
 40
0.8474508516672995
 40
0.883301641354317
 40
0.9340685384862764
 40
1.0
 40
1.0
 40
1.0
 40
1.0
 10
58.23219380504712
 20
6.514656683585015
 30
0.0
 10
57.84072075087876
 20
6.482879899220921
 30
0.0
 10
57.16083388380038
 20
6.427691890398642
 30
0.0
 10
56.2630276367983
 20
6.372565921467489
 30
0.0
 10
55.58811849415596
 20
6.338034163123832
 30
0.0
 10
54.96248876118811
 20
6.311769671837654
 30
0.0
 10
54.33154439181703
 20
6.291197462783082
 30
0.0
 10
53.71346722035713
 20
6.277607062948155
 30
0.0
 10
53.14030712901554
 20
6.270012347473237
 30
0.0
 10
52.47310918907127
 20
6.266610394714029
 30
0.0
 10
51.68302452153495
 20
6.271946872873458
 30
0.0
 10
50.86851779541855
 20
6.288660269357909
 30
0.0
 10
50.18533067222231
 20
6.310535927494448
 30
0.0
 10
49.62574571136116
 20
6.333668435047518
 30
0.0
 10
49.06675761429103
 20
6.361179622606591
 30
0.0
 10
48.40718335973848
 20
6.399162002217074
 30
0.0
 10
47.69333774946753
 20
6.448259301365927
 30
0.0
 10
47.00132527863461
 20
6.503492204089333
 30
0.0
 10
46.30367294914038
 20
6.565632242292202
 30
0.0
 10
45.55494439087953
 20
6.640015458791096
 30
0.0
 10
44.7977272901738
 20
6.723950716712842
 30
0.0
 10
44.12848695487968
 20
6.804558772753836
 30
0.0
 10
43.44240964757206
 20
6.893135093391848
 30
0.0
 10
42.5997245814297
 20
7.00944628016414
 30
0.0
 10
41.95542414922336
 20
7.108252084052692
 30
0.0
 10
41.59141158176075
 20
7.164074729135383
 30
0.0
  0
SPLINE
  5
A9
330
1F
100
AcDbEntity
  8
0
  6
Continuous
 62
     1
370
    15
100
AcDbSpline
210
0.0
220
0.0
230
1.0
 70
     8
 71
     3
 72
    14
 73
    10
 74
     0
 42
0.000000001
 43
0.00000001
 40
0.0
 40
0.0
 40
0.0
 40
0.0
 40
0.1864517861642329
 40
0.3614552482896144
 40
0.5083486223510323
 40
0.6420903623090858
 40
0.7949484850510989
 40
0.9467631509919081
 40
1.0
 40
1.0
 40
1.0
 40
1.0
 10
41.59141158176075
 20
-7.164074729135385
 30
0.0
 10
42.01850679187305
 20
-7.098388257667989
 30
0.0
 10
42.84647314387392
 20
-6.97104852903378
 30
0.0
 10
44.11104118603697
 20
-6.803877188567239
 30
0.0
 10
45.19758742706141
 20
-6.677029285691583
 30
0.0
 10
46.1792976946254
 20
-6.576574200664684
 30
0.0
 10
47.23915898544526
 20
-6.482173882209151
 30
0.0
 10
48.08633432439649
 20
-6.418914266934459
 30
0.0
 10
48.57705063827562
 20
-6.390882193793407
 30
0.0
 10
48.70445369752295
 20
-6.383604319033174
 30
0.0
  0
SPLINE
  5
AA
330
1F
100
AcDbEntity
  8
0
  6
Continuous
 62
     1
370
    15
100
AcDbSpline
210
0.0
220
0.0
230
1.0
 70
     8
 71
     3
 72
    30
 73
    26
 74
     0
 42
0.000000001
 43
0.00000001
 40
0.0
 40
0.0
 40
0.0
 40
0.0
 40
0.0539646733663084
 40
0.1026019912670076
 40
0.144603488566018
 40
0.1763814700520041
 40
0.2190088236951167
 40
0.2793664133651373
 40
0.3270050813400753
 40
0.3631648667674418
 40
0.3948592635537566
 40
0.4243663516825563
 40
0.4656817700373483
 40
0.5183502821055259
 40
0.5552059478737295
 40
0.5985106202836056
 40
0.6585366082683022
 40
0.7086925525614166
 40
0.7465077993736317
 40
0.7725634137118471
 40
0.7962076302001122
 40
0.8251776739964226
 40
0.8655183068529313
 40
0.9225037105614491
 40
1.0
 40
1.0
 40
1.0
 40
1.0
 10
110.0685077313946
 20
6.51525844783276
 30
0.0
 10
109.7977298172641
 20
6.491785225965041
 30
0.0
 10
109.2829049985845
 20
6.447156042559585
 30
0.0
 10
108.445925470783
 20
6.392726983695085
 30
0.0
 10
107.7419905572855
 20
6.354050260823909
 30
0.0
 10
107.091997749058
 20
6.323467767921803
 30
0.0
 10
106.3518556000059
 20
6.296083968166347
 30
0.0
 10
105.5110120335643
 20
6.275772957707304
 30
0.0
 10
104.7105029446393
 20
6.267644173013996
 30
0.0
 10
104.0686333707944
 20
6.268046218388604
 30
0.0
 10
103.5273347749201
 20
6.273134039423797
 30
0.0
 10
102.9570261335117
 20
6.282972532608449
 30
0.0
 10
102.2700889778201
 20
6.301055023783784
 30
0.0
 10
101.5426827997763
 20
6.32899980030617
 30
0.0
 10
100.804087408473
 20
6.365857199034931
 30
0.0
 10
100.0246455221572
 20
6.412493552578273
 30
0.0
 10
99.17115611618256
 20
6.474457009642766
 30
0.0
 10
98.34812736320117
 20
6.545578437997792
 30
0.0
 10
97.71380740777317
 20
6.607107390435435
 30
0.0
 10
97.22676077745037
 20
6.657923656908032
 30
0.0
 10
96.7902730159089
 20
6.705967411426111
 30
0.0
 10
96.26951559298436
 20
6.76645393861642
 30
0.0
 10
95.55518755587812
 20
6.855062463873267
 30
0.0
 10
94.58252400858026
 20
6.986362228794555
 30
0.0
 10
93.84539948369041
 20
7.099115767458485
 30
0.0
 10
93.42062482331606
 20
7.16409101176899
 30
0.0
  0
SPLINE
  5
AB
330
1F
100
AcDbEntity
  8
외형선
  6
Continuous
370
    15
100
AcDbSpline
210
0.0
220
0.0
230
1.0
 70
     8
 71
     3
 72
    10
 73
     6
 74
     0
 42
0.000000001
 43
0.00000001
 40
0.0
 40
0.0
 40
0.0
 40
0.0
 40
0.5
 40
0.5
 40
1.0
 40
1.0
 40
1.0
 40
1.0
 10
11.99999999999999
 20
-9.342270514476311
 30
0.0
 10
11.49101181528473
 20
-9.285037059112973
 30
0.0
 10
10.98088221848688
 20
-9.214418094065842
 30
0.0
 10
9.964867261012811
 20
-9.047363552109845
 30
0.0
 10
9.45918099107874
 20
-8.950989357547192
 30
0.0
 10
8.950191274095083
 20
-8.841799478438032
 30
0.0
  0
LINE
  5
AC
330
1F
100
AcDbEntity
  8
외형선
  6
Continuous
370
    15
100
AcDbLine
 10
11.99999999999999
 20
-9.342270514476297
 30
0.0
 11
11.99999999999999
 21
-9.525
 31
0.0
  0
LINE
  5
AD
330
1F
100
AcDbEntity
  8
외형선
  6
Continuous
370
    15
100
AcDbLine
 10
8.950093413337894
 20
-9.476225775407206
 30
0.0
 11
10.62057739024359
 21
-9.484709237668357
 31
0.0
  0
LINE
  5
AE
330
1F
100
AcDbEntity
  8
외형선
  6
Continuous
370
    15
100
AcDbLine
 10
8.950093413337894
 20
-9.525
 30
0.0
 11
8.950093413337894
 21
-9.47622573596211
 31
0.0
  0
SPLINE
  5
AF
330
1F
100
AcDbEntity
  8
외형선
  6
Continuous
370
    15
100
AcDbSpline
210
0.0
220
0.0
230
1.0
 70
     8
 71
     3
 72
    10
 73
     6
 74
     0
 42
0.000000001
 43
0.00000001
 40
0.0
 40
0.0
 40
0.0
 40
0.0
 40
0.5
 40
0.5
 40
1.0
 40
1.0
 40
1.0
 40
1.0
 10
11.99999999999999
 20
9.491714560565088
 30
0.0
 10
11.49099550520997
 20
9.51623904692213
 30
0.0
 10
10.98084952537157
 20
9.527224492190024
 30
0.0
 10
9.964802282247733
 20
9.52202887752405
 30
0.0
 10
9.459099586533199
 20
9.505900828333921
 30
0.0
 10
8.950093413337894
 20
9.476225775407203
 30
0.0
  0
LINE
  5
B0
330
1F
100
AcDbEntity
  8
외형선
  6
Continuous
370
    15
100
AcDbLine
 10
8.950093413337902
 20
-8.841647655383271
 30
0.0
 11
8.950093413337894
 21
9.525
 31
0.0
  0
LINE
  5
B1
330
1F
100
AcDbEntity
  8
외형선
  6
Continuous
370
    15
100
AcDbLine
 10
-44.15000000000001
 20
9.524999999999993
 30
0.0
 11
-44.15000000000001
 21
-9.525000000000011
 31
0.0
  0
LINE
  5
B2
330
1F
100
AcDbEntity
  8
외형선
  6
Continuous
370
    15
100
AcDbLine
 10
-45.15000000000001
 20
8.524999999999993
 30
0.0
 11
-45.15000000000001
 21
-8.525000000000004
 31
0.0
  0
SPLINE
  5
B3
330
1F
100
AcDbEntity
  8
외형선
  6
Continuous
370
    15
100
AcDbSpline
210
0.0
220
0.0
230
1.0
 70
     8
 71
     3
 72
    16
 73
    12
 74
     0
 42
0.000000001
 43
0.00000001
 40
0.0
 40
0.0
 40
0.0
 40
0.0
 40
0.2500000000000001
 40
0.2500000000000001
 40
0.5000000000000002
 40
0.5000000000000002
 40
0.6250000000000002
 40
0.6250000000000002
 40
0.7500000000000003
 40
0.7500000000000003
 40
1.0
 40
1.0
 40
1.0
 40
1.0
 10
9.236972380276976
 20
-0.0713272895917703
 30
0.0
 10
9.208106425621928
 20
-0.1113378550672102
 30
0.0
 10
9.177585147328957
 20
-0.1479485504726433
 30
0.0
 10
9.109052238448497
 20
-0.2055661951125372
 30
0.0
 10
9.069174204743947
 20
-0.2267337585588103
 30
0.0
 10
9.016663142685392
 20
-0.2107478970295428
 30
0.0
 10
9.001239642721409
 20
-0.1969878465224298
 30
0.0
 10
8.978276416590356
 20
-0.1597679886341922
 30
0.0
 10
8.970319160366488
 20
-0.1368762796431736
 30
0.0
 10
8.953210858012936
 20
-0.064692701657334
 30
0.0
 10
8.950093413337909
 20
-0.0108517478588644
 30
0.0
 10
8.950093413337912
 20
0.041903512950079
 30
0.0
  0
SPLINE
  5
B4
330
1F
100
AcDbEntity
  8
외형선
  6
Continuous
370
    15
100
AcDbSpline
210
0.0
220
0.0
230
1.0
 70
     8
 71
     3
 72
    18
 73
    14
 74
     0
 42
0.000000001
 43
0.00000001
 40
0.0
 40
0.0
 40
0.0
 40
0.0
 40
0.0160373552332381
 40
0.044806533120635
 40
0.0870521504459121
 40
0.1429785168759741
 40
0.2500859624584449
 40
0.500103826308669
 40
0.7501438366037098
 40
0.8501795908167322
 40
0.9245787642030262
 40
0.9741682456070742
 40
0.9999999999999999
 40
0.9999999999999999
 40
0.9999999999999999
 40
0.9999999999999999
 10
9.400182749632485
 20
-7.411956702207296
 30
0.0
 10
9.39692782557449
 20
-7.412410767327954
 30
0.0
 10
9.387833940673357
 20
-7.4136793732528
 30
0.0
 10
9.372441859433374
 20
-7.42344786841721
 30
0.0
 10
9.350678634335488
 20
-7.437614617112927
 30
0.0
 10
9.316781831056064
 20
-7.463300562466599
 30
0.0
 10
9.250470704130896
 20
-7.517377132756898
 30
0.0
 10
9.156740160142382
 20
-7.602378363494052
 30
0.0
 10
9.067861266442094
 20
-7.690910503539233
 30
0.0
 10
9.007356474639375
 20
-7.756716668834975
 30
0.0
 10
8.977753150361696
 20
-7.793450134996578
 30
0.0
 10
8.957375559143184
 20
-7.818423495006581
 30
0.0
 10
8.952024135391358
 20
-7.834226016731868
 30
0.0
 10
8.95019127409508
 20
-7.839638376469586
 30
0.0
  0
SPLINE
  5
B5
330
1F
100
AcDbEntity
  8
외형선
  6
Continuous
370
    15
100
AcDbSpline
210
0.0
220
0.0
230
1.0
 70
     8
 71
     3
 72
    16
 73
    12
 74
     0
 42
0.000000001
 43
0.00000001
 40
0.0
 40
0.0
 40
0.0
 40
0.0
 40
0.205334711385618
 40
0.386795191980973
 40
0.5444252652260477
 40
0.678279855225053
 40
0.7884369084570184
 40
0.8750252252720655
 40
0.9383031771911655
 40
0.9789583857854626
 40
1.0
 40
1.0
 40
1.0
 40
1.0
 10
9.236975793417791
 20
-0.0711724453918189
 30
0.0
 10
9.251947199245286
 20
-0.0504310681915599
 30
0.0
 10
9.280149288177032
 20
-0.011359910071307
 30
0.0
 10
9.320600213950897
 20
0.0433525710832188
 30
0.0
 10
9.356419282443344
 20
0.090515202268349
 30
0.0
 10
9.387615694044882
 20
0.1301713708943872
 30
0.0
 10
9.414245929864702
 20
0.1620266478723219
 30
0.0
 10
9.436102538747528
 20
0.1868132062587912
 30
0.0
 10
9.453653962063255
 20
0.2027855201642806
 30
0.0
 10
9.465964939624472
 20
0.2142560946691398
 30
0.0
 10
9.474392721751608
 20
0.2147153979221667
 30
0.0
 10
9.47726700493395
 20
0.2148720426474166
 30
0.0
  0
SPLINE
  5
B6
330
1F
100
AcDbEntity
  8
외형선
  6
Continuous
370
    15
100
AcDbSpline
210
0.0
220
0.0
230
1.0
 70
     8
 71
     3
 72
    12
 73
     8
 74
     0
 42
0.000000001
 43
0.00000001
 40
0.0
 40
0.0
 40
0.0
 40
0.0
 40
0.4999999999999989
 40
0.4999999999999989
 40
0.7499999999999994
 40
0.7499999999999994
 40
1.0
 40
1.0
 40
1.0
 40
1.0
 10
8.9500934133384
 20
7.089163065639186
 30
0.0
 10
8.950093413335557
 20
6.975706386578278
 30
0.0
 10
8.990281179482393
 20
6.876583035088555
 30
0.0
 10
9.087710036112005
 20
6.759777839280841
 30
0.0
 10
9.12586126135246
 20
6.727213215093796
 30
0.0
 10
9.217739774316156
 20
6.678033381365315
 30
0.0
 10
9.271331418171533
 20
6.662030330924104
 30
0.0
 10
9.330099928858989
 20
6.662911431796021
 30
0.0
  0
SPLINE
  5
B7
330
1F
100
AcDbEntity
  8
외형선
  6
Continuous
370
    15
100
AcDbSpline
210
0.0
220
0.0
230
1.0
 70
     8
 71
     3
 72
    10
 73
     6
 74
     0
 42
0.000000001
 43
0.00000001
 40
0.0
 40
0.0
 40
0.0
 40
0.0
 40
0.5
 40
0.5
 40
1.0
 40
1.0
 40
1.0
 40
1.0
 10
12.0
 20
6.615692181284146
 30
0.0
 10
11.55437343651354
 20
6.638079566086982
 30
0.0
 10
11.10787150643978
 20
6.653242430898099
 30
0.0
 10
10.21749973458111
 20
6.668984603097966
 30
0.0
 10
9.775054261636807
 20
6.669582515442462
 30
0.0
 10
9.330099928858989
 20
6.66291143179602
 30
0.0
  0
SPLINE
  5
B8
330
1F
100
AcDbEntity
  8
외형선
  6
Continuous
370
    15
100
AcDbSpline
210
0.0
220
0.0
230
1.0
 70
    24
 71
     3
 72
    14
 73
    10
 74
     0
 42
0.000000001
 43
0.00000001
 40
0.0
 40
0.0
 40
0.0
 40
0.0
 40
0.25
 40
0.25
 40
0.4999999999999999
 40
0.4999999999999999
 40
0.75
 40
0.75
 40
1.0
 40
1.0
 40
1.0
 40
1.0
 10
12.0
 20
6.615692181284145
 30
0.0
 10
12.0
 20
6.3348799823617
 30
0.0
 10
12.0
 20
5.947520694697544
 30
0.0
 10
12.0
 20
4.966563671702198
 30
0.0
 10
12.0
 20
4.37304177558161
 30
0.0
 10
12.0
 20
3.028742999645985
 30
0.0
 10
12.0
 20
2.278682418421498
 30
0.0
 10
12.0
 20
0.7012624265195816
 30
0.0
 10
12.0
 20
-0.1251833805237681
 30
0.0
 10
12.0
 20
-0.9480709264750367
 30
0.0
  0
SPLINE
  5
B9
330
1F
100
AcDbEntity
  8
외형선
  6
Continuous
370
    15
100
AcDbSpline
210
0.0
220
0.0
230
1.0
 70
     8
 71
     3
 72
    10
 73
     6
 74
     0
 42
0.000000001
 43
0.00000001
 40
0.0
 40
0.0
 40
0.0
 40
0.0
 40
0.5
 40
0.5
 40
1.0
 40
1.0
 40
1.0
 40
1.0
 10
11.99999999999999
 20
-0.9480709264750323
 30
0.0
 10
11.57893624433071
 20
-0.755274709401831
 30
0.0
 10
11.15709085694559
 20
-0.5614334939963512
 30
0.0
 10
10.31553472872652
 20
-0.1733612138170481
 30
0.0
 10
9.897289333687162
 20
0.0206430106707829
 30
0.0
 10
9.477197058274879
 20
0.2147224396501166
 30
0.0
  0
SPLINE
  5
BA
330
1F
100
AcDbEntity
  8
외형선
  6
Continuous
370
    15
100
AcDbSpline
210
0.0
220
0.0
230
1.0
 70
    24
 71
     3
 72
    14
 73
    10
 74
     0
 42
0.000000001
 43
0.00000001
 40
0.0
 40
0.0
 40
0.0
 40
0.0
 40
0.25
 40
0.25
 40
0.5
 40
0.5
 40
0.75
 40
0.75
 40
1.0
 40
1.0
 40
1.0
 40
1.0
 10
11.99999999999999
 20
-0.948070926475032
 30
0.0
 10
11.99999999999999
 20
-1.661500004419691
 30
0.0
 10
11.99999999999998
 20
-2.373256380400223
 30
0.0
 10
11.99999999999998
 20
-3.740474577622203
 30
0.0
 10
11.99999999999998
 20
-4.395507081345515
 30
0.0
 10
11.99999999999998
 20
-5.598533901545617
 30
0.0
 10
11.99999999999998
 20
-6.146180820395933
 30
0.0
 10
11.99999999999998
 20
-7.098977467211411
 30
0.0
 10
11.99999999999999
 20
-7.504024210502838
 30
0.0
 10
11.99999999999999
 20
-7.831368653301594
 30
0.0
  0
SPLINE
  5
BB
330
1F
100
AcDbEntity
  8
외형선
  6
Continuous
370
    15
100
AcDbSpline
210
0.0
220
0.0
230
1.0
 70
     8
 71
     3
 72
    10
 73
     6
 74
     0
 42
0.000000001
 43
0.00000001
 40
0.0
 40
0.0
 40
0.0
 40
0.0
 40
0.5
 40
0.5
 40
1.0
 40
1.0
 40
1.0
 40
1.0
 10
12.00000000000001
 20
-7.831368653301594
 30
0.0
 10
11.56607335641425
 20
-7.777392635421045
 30
0.0
 10
11.13131665163229
 20
-7.715257701041442
 30
0.0
 10
10.26419004807256
 20
-7.575261822035422
 30
0.0
 10
9.83329427114715
 20
-7.497508360471205
 30
0.0
 10
9.400180875004859
 20
-7.411956331915873
 30
0.0
  0
SPLINE
  5
BC
330
1F
100
AcDbEntity
  8
외형선
  6
Continuous
370
    15
100
AcDbSpline
210
0.0
220
0.0
230
1.0
 70
    24
 71
     3
 72
     8
 73
     4
 74
     0
 42
0.000000001
 43
0.00000001
 40
0.0
 40
0.0
 40
0.0
 40
0.0
 40
1.0
 40
1.0
 40
1.0
 40
1.0
 10
12.0
 20
-7.831368653301594
 30
0.0
 10
12.0
 20
-8.337525739127173
 30
0.0
 10
12.0
 20
-8.84440775969587
 30
0.0
 10
12.0
 20
-9.342270514473771
 30
0.0
  0
SPLINE
  5
BD
330
1F
100
AcDbEntity
  8
외형선
  6
Continuous
370
    15
100
AcDbSpline
210
0.0
220
0.0
230
1.0
 70
    24
 71
     3
 72
    10
 73
     6
 74
     0
 42
0.000000001
 43
0.00000001
 40
0.0
 40
0.0
 40
0.0
 40
0.0
 40
0.5000000000000004
 40
0.5000000000000004
 40
1.0
 40
1.0
 40
1.0
 40
1.0
 10
12.0
 20
9.491714560565084
 30
0.0
 10
12.0
 20
9.033582295772899
 30
0.0
 10
12.0
 20
8.527981488538243
 30
0.0
 10
12.0
 20
7.532748680095078
 30
0.0
 10
12.0
 20
7.045751594134013
 30
0.0
 10
12.0
 20
6.615692181284143
 30
0.0
  0
SPLINE
  5
BE
330
1F
100
AcDbEntity
  8
0
  6
Continuous
 62
     1
370
    15
100
AcDbSpline
210
0.0
220
0.0
230
1.0
 70
     8
 71
     3
 72
    24
 73
    20
 74
     0
 42
0.000000001
 43
0.00000001
 40
0.0
 40
0.0
 40
0.0
 40
0.0
 40
0.0654488756453793
 40
0.1308931604001359
 40
0.1963313850993029
 40
0.2617621487012733
 40
0.3271942031985726
 40
0.392633537380647
 40
0.4580786877012702
 40
0.516162627375568
 40
0.5742476725332925
 40
0.6323339742810755
 40
0.6904216834157421
 40
0.7485109503874194
 40
0.8055687461936851
 40
0.8626272417742933
 40
0.919682140265054
 40
0.9767338532259393
 40
0.9999999999999999
 40
0.9999999999999999
 40
0.9999999999999999
 40
0.9999999999999999
 10
11.99999999999821
 20
9.491714560565187
 30
0.0
 10
13.10069128238416
 20
9.40193133693751
 30
0.0
 10
15.30199663951516
 20
9.222371187497894
 30
0.0
 10
18.60375725646953
 20
8.483330142978662
 30
0.0
 10
21.90516313777392
 20
7.432887880432667
 30
0.0
 10
25.20625425690811
 20
6.078412192239319
 30
0.0
 10
28.507399309651
 20
4.483261924349661
 30
0.0
 10
31.80883234194672
 20
2.708652701818273
 30
0.0
 10
34.98690552755656
 20
0.8965724881225856
 30
0.0
 10
38.04078992468646
 20
-0.8736006688658692
 30
0.0
 10
40.97106921437417
 20
-2.544566116445004
 30
0.0
 10
43.90139113742015
 20
-4.135502086583116
 30
0.0
 10
46.83180742365279
 20
-5.596230964330997
 30
0.0
 10
49.74494065099053
 20
-6.873648442449187
 30
0.0
 10
52.64078731216313
 20
-7.930008533028296
 30
0.0
 10
55.51925725350314
 20
-8.744182132689108
 30
0.0
 10
58.3975769180594
 20
-9.274752010014145
 30
0.0
 10
60.70760857681861
 20
-9.529056976842464
 30
0.0
 10
62.05822588175607
 20
-9.497960005059534
 30
0.0
 10
62.44946713937873
 20
-9.4889519623637
 30
0.0
  0
SPLINE
  5
BF
330
1F
100
AcDbEntity
  8
0
  6
Continuous
 62
     1
370
    15
100
AcDbSpline
210
0.0
220
0.0
230
1.0
 70
     8
 71
     3
 72
    12
 73
     8
 74
     0
 42
0.000000001
 43
0.00000001
 40
0.0
 40
0.0
 40
0.0
 40
0.0
 40
0.1186120142275668
 40
0.3389416809035073
 40
0.5592817404297954
 40
0.7796339348468109
 40
0.9999999999999999
 40
0.9999999999999999
 40
0.9999999999999999
 40
0.9999999999999999
 10
100.5378339044371
 20
6.383078376114208
 30
0.0
 10
101.0542736809598
 20
6.608001972385232
 30
0.0
 10
102.5300345225569
 20
7.25073603513117
 30
0.0
 10
104.9651288560533
 20
8.083170020300166
 30
0.0
 10
107.8432440121891
 20
8.852655317900025
 30
0.0
 10
110.721541198876
 20
9.364420881983854
 30
0.0
 10
112.6404936012139
 20
9.466105637260627
 30
0.0
 10
113.6
 20
9.52500000000001
 30
0.0
  0
SPLINE
  5
C0
330
1F
100
AcDbEntity
  8
0
  6
Continuous
 62
     1
370
    15
100
AcDbSpline
210
0.0
220
0.0
230
1.0
 70
    24
 71
     3
 72
    10
 73
     6
 74
     0
 42
0.000000001
 43
0.00000001
 40
0.0
 40
0.0
 40
0.0
 40
0.0
 40
0.5
 40
0.5
 40
1.0
 40
1.0
 40
1.0
 40
1.0
 10
113.6
 20
6.667499999999999
 30
0.0
 10
113.6
 20
7.071667246089661
 30
0.0
 10
113.6
 20
7.541347015959293
 30
0.0
 10
113.6
 20
8.526733908152154
 30
0.0
 10
113.6
 20
9.03992447600903
 30
0.0
 10
113.6
 20
9.52500000000001
 30
0.0
  0
SPLINE
  5
C1
330
1F
100
AcDbEntity
  8
0
  6
Continuous
 62
     1
370
    15
100
AcDbSpline
210
0.0
220
0.0
230
1.0
 70
     8
 71
     3
 72
     9
 73
     5
 74
     0
 42
0.000000001
 43
0.00000001
 40
0.0
 40
0.0
 40
0.0
 40
0.0
 40
0.9252863367217545
 40
1.0
 40
1.0
 40
1.0
 40
1.0
 10
113.6
 20
6.6675
 30
0.0
 10
112.510141551498
 20
6.663457299389796
 30
0.0
 10
111.332280812342
 20
6.6590881647233
 30
0.0
 10
110.1544023003115
 20
6.516399995603225
 30
0.0
 10
110.066398681781
 20
6.505739239781799
 30
0.0
  0
SPLINE
  5
C2
330
1F
100
AcDbEntity
  8
0
  6
Continuous
 62
     1
370
    15
100
AcDbSpline
210
0.0
220
0.0
230
1.0
 70
     8
 71
     3
 72
    15
 73
    11
 74
     0
 42
0.000000001
 43
0.00000001
 40
0.0
 40
0.0
 40
0.0
 40
0.0
 40
0.1147273564373089
 40
0.2400008386561383
 40
0.3652652432515907
 40
0.4905185036912509
 40
0.6157618308842077
 40
0.7438241451558055
 40
0.8719051645079294
 40
1.0
 40
1.0
 40
1.0
 40
1.0
 10
38.10569391089493
 20
-0.9058245817487444
 30
0.0
 10
37.10733747916318
 20
-0.503556679393769
 30
0.0
 10
35.01885232327713
 20
0.3379569484600642
 30
0.0
 10
31.8403389899418
 20
1.61762526873827
 30
0.0
 10
28.57025441031695
 20
2.868125394309371
 30
0.0
 10
25.30045792474701
 20
4.006673727550579
 30
0.0
 10
22.00636779213715
 20
4.996844975671785
 30
0.0
 10
18.68759297894968
 20
5.788695847133267
 30
0.0
 10
15.34396034519165
 20
6.368838590520224
 30
0.0
 10
13.11469352485483
 20
6.533404692556181
 30
0.0
 10
12.0
 20
6.615692181284143
 30
0.0
  0
SPLINE
  5
C3
330
1F
100
AcDbEntity
  8
외형선
  6
Continuous
370
    15
100
AcDbSpline
210
0.0
220
0.0
230
1.0
 70
    24
 71
     3
 72
    10
 73
     6
 74
     0
 42
0.000000001
 43
0.00000001
 40
0.0
 40
0.0
 40
0.0
 40
0.0
 40
0.4999999999999996
 40
0.4999999999999996
 40
1.0
 40
1.0
 40
1.0
 40
1.0
 10
12.0
 20
9.491714560565088
 30
0.0
 10
12.0
 20
9.033582295772899
 30
0.0
 10
12.0
 20
8.527981488538247
 30
0.0
 10
12.0
 20
7.532748680095079
 30
0.0
 10
12.0
 20
7.045751594134015
 30
0.0
 10
12.0
 20
6.615692181284143
 30
0.0
  0
SPLINE
  5
C4
330
1F
100
AcDbEntity
  8
0
  6
Continuous
 62
     1
370
    15
100
AcDbSpline
210
0.0
220
0.0
230
1.0
 70
     8
 71
     3
 72
    30
 73
    26
 74
     0
 42
0.000000001
 43
0.00000001
 40
0.0
 40
0.0
 40
0.0
 40
0.0
 40
0.0163159090489791
 40
0.0606697433141737
 40
0.1050241215484222
 40
0.149375703587608
 40
0.1937248093575627
 40
0.238877547805445
 40
0.2840293803769696
 40
0.3291804246662979
 40
0.3743307984621563
 40
0.4194806197188607
 40
0.4638229563257655
 40
0.5081647443684869
 40
0.5525063381082892
 40
0.5968480919060898
 40
0.641997280689429
 40
0.6871468353011049
 40
0.7322968738978631
 40
0.7774475145168364
 40
0.8225988750464329
 40
0.866945668240694
 40
0.9112945532530564
 40
0.95564588071222
 40
1.0
 40
1.0
 40
1.0
 40
1.0
 10
48.70342145241796
 20
6.383154155667643
 30
0.0
 10
49.05637719999025
 20
6.540004690042371
 30
0.0
 10
50.36882228301879
 20
7.123244130188742
 30
0.0
 10
52.64078800501939
 20
7.922775312387968
 30
0.0
 10
55.51925710013629
 20
8.743294170294119
 30
0.0
 10
58.3975768387226
 20
9.285535563770061
 30
0.0
 10
61.29312444782568
 20
9.550950646151923
 30
0.0
 10
64.20600795958087
 20
9.520973474879487
 30
0.0
 10
67.13621688580662
 20
9.191500076440493
 30
0.0
 10
70.06636887386469
 20
8.572768307901333
 30
0.0
 10
72.99646157783128
 20
7.684333981607142
 30
0.0
 10
75.90907683052252
 20
6.56086585504825
 30
0.0
 10
78.80410856327349
 20
5.242206381775225
 30
0.0
 10
81.68166959184127
 20
3.772399311813096
 30
0.0
 10
84.55921598607398
 20
2.18810141545179
 30
0.0
 10
87.4542081189794
 20
0.5273732958125127
 30
0.0
 10
90.36677213841645
 20
-1.160007696702813
 30
0.0
 10
93.29680073099951
 20
-2.821028493433162
 30
0.0
 10
96.22687474984846
 20
-4.393268857662915
 30
0.0
 10
99.1569898125832
 20
-5.827402304938706
 30
0.0
 10
102.0697537689084
 20
-7.070355276103781
 30
0.0
 10
104.965129139171
 20
-8.089293395331524
 30
0.0
 10
107.843243936685
 20
-8.851022288374605
 30
0.0
 10
110.7215412177538
 20
-9.364829178716233
 30
0.0
 10
112.6404936075067
 20
-9.46624173902702
 30
0.0
 10
113.6
 20
-9.524999999999988
 30
0.0
  0
SPLINE
  5
C5
330
1F
100
AcDbEntity
  8
0
  6
Continuous
 62
     1
370
    15
100
AcDbSpline
210
0.0
220
0.0
230
1.0
 70
     8
 71
     3
 72
    17
 73
    13
 74
     0
 42
0.000000001
 43
0.00000001
 40
0.0
 40
0.0
 40
0.0
 40
0.0
 40
0.0786164249604421
 40
0.1817954012497059
 40
0.2849707344016373
 40
0.388140709810418
 40
0.4913036176179212
 40
0.5944577542213009
 40
0.6976020965319861
 40
0.8007509858997801
 40
0.9039095318720781
 40
1.0
 40
1.0
 40
1.0
 40
1.0
 10
89.92887744301915
 20
-0.9015633192178722
 30
0.0
 10
89.09817253945789
 20
-0.5679313045708209
 30
0.0
 10
87.1772211436267
 20
0.2035711645764026
 30
0.0
 10
84.16606775712688
 20
1.421193793659883
 30
0.0
 10
80.89548009596017
 20
2.68433882363865
 30
0.0
 10
77.62507955555675
 20
3.843300514173281
 30
0.0
 10
74.35492709314879
 20
4.851552316771453
 30
0.0
 10
71.08507038003253
 20
5.669428457037569
 30
0.0
 10
67.81541013026984
 20
6.266835118709346
 30
0.0
 10
64.5456771186715
 20
6.613003602610098
 30
0.0
 10
61.35044475285483
 20
6.719327817518612
 30
0.0
 10
59.24509649912049
 20
6.575534711459531
 30
0.0
 10
58.22976450268771
 20
6.506188587278284
 30
0.0
  0
SPLINE
  5
C6
330
1F
100
AcDbEntity
  8
0
  6
Continuous
 62
     1
370
    15
100
AcDbSpline
210
0.0
220
0.0
230
1.0
 70
     8
 71
     3
 72
    23
 73
    19
 74
     0
 42
0.000000001
 43
0.00000001
 40
0.0
 40
0.0
 40
0.0
 40
0.0
 40
0.0629771221954838
 40
0.1259522985214783
 40
0.1889256914160385
 40
0.2518974637559135
 40
0.3148677788168738
 40
0.3767126709664785
 40
0.4385553667821808
 40
0.5003963585038907
 40
0.5622361392445431
 40
0.6252009072876566
 40
0.6881654950761874
 40
0.7511300676593676
 40
0.8140947900901934
 40
0.8770598273845954
 40
0.938900232898655
 40
1.0
 40
1.0
 40
1.0
 40
1.0
 10
113.6
 20
-9.038661779433852
 30
0.0
 10
112.6231083424123
 20
-8.833251260642323
 30
0.0
 10
110.6693552112721
 20
-8.422436569841192
 30
0.0
 10
107.7387918945309
 20
-7.464980141196493
 30
0.0
 10
104.8083255540423
 20
-6.293064045006467
 30
0.0
 10
101.8779544914917
 20
-4.917680747326051
 30
0.0
 10
98.96508515943839
 20
-3.398133461317097
 30
0.0
 10
96.06980178924016
 20
-1.782926777724072
 30
0.0
 10
93.1920452303753
 20
-0.1234332748869617
 30
0.0
 10
90.31438070444719
 20
1.539808616206018
 30
0.0
 10
87.41934633654171
 20
3.166120030601803
 30
0.0
 10
84.5067992391064
 20
4.70433694526279
 30
0.0
 10
81.57683115021396
 20
6.103880259170827
 30
0.0
 10
78.64685583440178
 20
7.310960447115832
 30
0.0
 10
75.71688011883703
 20
8.289603651919624
 30
0.0
 10
72.80431500510822
 20
8.997311042513852
 30
0.0
 10
69.92075853717283
 20
9.443193164531163
 30
0.0
 10
68.01381923710302
 20
9.496695841503538
 30
0.0
 10
67.06609365129992
 20
9.523286019740366
 30
0.0
  0
SPLINE
  5
C7
330
1F
100
AcDbEntity
  8
0
  6
Continuous
 62
     1
370
    15
100
AcDbSpline
210
0.0
220
0.0
230
1.0
 70
     8
 71
     3
 72
    12
 73
     8
 74
     0
 42
0.000000001
 43
0.00000001
 40
0.0
 40
0.0
 40
0.0
 40
0.0
 40
0.0663402394213294
 40
0.2997203160504759
 40
0.5331270070186704
 40
0.7665553152974511
 40
1.0
 40
1.0
 40
1.0
 40
1.0
 10
26.14461456720718
 20
-7.487617540042007
 30
0.0
 10
25.83183607774886
 20
-7.607180156616514
 30
0.0
 10
24.41872589708077
 20
-8.14735525306049
 30
0.0
 10
21.90519634100922
 20
-8.803424894051776
 30
0.0
 10
18.6037776707244
 20
-9.38901111523288
 30
0.0
 10
15.30200723346499
 20
-9.604568828965638
 30
0.0
 10
13.10069481617416
 20
-9.429705330525056
 30
0.0
 10
12.0
 20
-9.342270514476317
 30
0.0
  0
SPLINE
  5
C8
330
1F
100
AcDbEntity
  8
외형선
  6
Continuous
370
    15
100
AcDbSpline
210
0.0
220
0.0
230
1.0
 70
    24
 71
     3
 72
     8
 73
     4
 74
     0
 42
0.000000001
 43
0.00000001
 40
0.0
 40
0.0
 40
0.0
 40
0.0
 40
1.0
 40
1.0
 40
1.0
 40
1.0
 10
12.00000000000001
 20
-7.831368653301597
 30
0.0
 10
12.00000000000001
 20
-8.337525739122052
 30
0.0
 10
12.00000000000001
 20
-8.84440775968561
 30
0.0
 10
12.00000000000001
 20
-9.342270514458658
 30
0.0
  0
SPLINE
  5
C9
330
1F
100
AcDbEntity
  8
0
  6
Continuous
 62
     1
370
    15
100
AcDbSpline
210
0.0
220
0.0
230
1.0
 70
     8
 71
     3
 72
    15
 73
    11
 74
     0
 42
0.000000001
 43
0.00000001
 40
0.0
 40
0.0
 40
0.0
 40
0.0
 40
0.1323069538792723
 40
0.2646263049922226
 40
0.3969559613682618
 40
0.5292938219985169
 40
0.6616377786679374
 40
0.7939857178009597
 40
0.9263355223172671
 40
1.0
 40
1.0
 40
1.0
 40
1.0
 10
113.6
 20
-7.514960818107257
 30
0.0
 10
112.5101405672539
 20
-7.287419218215244
 30
0.0
 10
110.330319581339
 20
-6.832314697659314
 30
0.0
 10
107.0603924387057
 20
-5.803272410983479
 30
0.0
 10
103.7901766933469
 20
-4.567962974830756
 30
0.0
 10
100.5197271400791
 20
-3.148372848887909
 30
0.0
 10
97.24910481130266
 20
-1.605758580969398
 30
0.0
 10
93.97836963879594
 20
-0.0043083219323432
 30
0.0
 10
91.19101548503662
 20
1.374762184893463
 30
0.0
 10
89.49391650353789
 20
2.163679818480673
 30
0.0
 10
88.88708522604801
 20
2.44577290830224
 30
0.0
  0
SPLINE
  5
CA
330
1F
100
AcDbEntity
  8
0
  6
Continuous
 62
     1
370
    15
100
AcDbSpline
210
0.0
220
0.0
230
1.0
 70
     8
 71
     3
 72
    10
 73
     6
 74
     0
 42
0.000000001
 43
0.00000001
 40
0.0
 40
0.0
 40
0.0
 40
0.0
 40
0.1232670806782947
 40
0.5616108276742396
 40
1.0
 40
1.0
 40
1.0
 40
1.0
 10
19.62805628267567
 20
-7.892627941820502
 30
0.0
 10
19.31463535863801
 20
-7.933445725325733
 30
0.0
 10
17.88667435241773
 20
-8.119413536456342
 30
0.0
 10
15.34398598413683
 20
-8.14077443796595
 30
0.0
 10
13.11470049599598
 20
-7.934507477227739
 30
0.0
 10
12.00000000000002
 20
-7.831368653301597
 30
0.0
  0
LINE
  5
CB
330
1F
100
AcDbEntity
  8
0
  6
Continuous
 62
     1
370
    15
100
AcDbLine
 10
113.6
 20
-9.038661779433863
 30
0.0
 11
113.6
 21
-7.514960818107256
 31
0.0
  0
SPLINE
  5
CC
330
1F
100
AcDbEntity
  8
0
  6
Continuous
 62
     1
370
    15
100
AcDbSpline
210
0.0
220
0.0
230
1.0
 70
     8
 71
     3
 72
    29
 73
    25
 74
     0
 42
0.000000001
 43
0.00000001
 40
0.0
 40
0.0
 40
0.0
 40
0.0
 40
0.0364323934367385
 40
0.0831149358684343
 40
0.1289636715867251
 40
0.1748135121171672
 40
0.2206648227123545
 40
0.266517967872061
 40
0.313205295527818
 40
0.3598938023877976
 40
0.4065836092662257
 40
0.4532748366574841
 40
0.4999665647492527
 40
0.5458254130884251
 40
0.5916815789888432
 40
0.6375354244680546
 40
0.6833873127291
 40
0.7359891015618002
 40
0.7885862155718542
 40
0.8411774782847885
 40
0.8937677014310451
 40
0.946363921893138
 40
0.9989650136330364
 40
1.0
 40
1.0
 40
1.0
 40
1.0
 10
78.00353130067145
 20
-7.486364319939491
 30
0.0
 10
77.2413153295785
 20
-7.751660731325198
 30
0.0
 10
75.50243611854633
 20
-8.356893935581642
 30
0.0
 10
72.80431513007882
 20
-8.996380489698442
 30
0.0
 10
69.9092467699814
 20
-9.432831323202713
 30
0.0
 10
67.03153171587185
 20
-9.573081423828897
 30
0.0
 10
64.15370960957104
 20
-9.42471599538874
 30
0.0
 10
61.25835143170839
 20
-8.987137563647567
 30
0.0
 10
58.34541166379678
 20
-8.268344489933739
 30
0.0
 10
55.4149668799373
 20
-7.285040186239463
 30
0.0
 10
52.48442073011618
 20
-6.072503084812912
 30
0.0
 10
49.55378892772649
 20
-4.668889811890178
 30
0.0
 10
46.64052867769779
 20
-3.127550568738865
 30
0.0
 10
43.74477577583532
 20
-1.499434517289869
 30
0.0
 10
40.86659676053654
 20
0.1644303481748191
 30
0.0
 10
37.98855508551664
 20
1.823255234884352
 30
0.0
 10
34.96955497617834
 20
3.505438729935267
 30
0.0
 10
31.80889149232603
 20
5.143534785945088
 30
0.0
 10
28.50745258148069
 20
6.650293329367521
 30
0.0
 10
25.20629554169505
 20
7.888358572550333
 30
0.0
 10
21.90519529016135
 20
8.823679702531237
 30
0.0
 10
18.60377533803389
 20
9.361424026428496
 30
0.0
 10
16.38103353108232
 20
9.585765641064459
 30
0.0
 10
15.25876315812926
 20
9.522551792967725
 30
0.0
 10
15.23710731420757
 20
9.521331989557545
 30
0.0
  0
SPLINE
  5
CD
330
1F
100
AcDbEntity
  8
0
  6
Continuous
 62
     1
370
    15
100
AcDbSpline
210
0.0
220
0.0
230
1.0
 70
     8
 71
     3
 72
    19
 73
    15
 74
     0
 42
0.000000001
 43
0.00000001
 40
0.0
 40
0.0
 40
0.0
 40
0.0
 40
0.0106548913577004
 40
0.1056510286202665
 40
0.2006511863628777
 40
0.2956598869477245
 40
0.3906756266453546
 40
0.485696895550264
 40
0.5807221788989239
 40
0.675749958396946
 40
0.7707787135529042
 40
0.865806923016298
 40
0.9608330659171355
 40
1.0
 40
1.0
 40
1.0
 40
1.0
 10
71.4517234851924
 20
-7.910443099206277
 30
0.0
 10
71.32948388810638
 20
-7.927662091668541
 30
0.0
 10
70.11738901668076
 20
-8.098400976221136
 30
0.0
 10
67.81544942571574
 20
-8.129064114660656
 30
0.0
 10
64.5457174164756
 20
-7.970363943143982
 30
0.0
 10
61.27571824125431
 20
-7.468412998733571
 30
0.0
 10
58.00544051470992
 20
-6.682277402035604
 30
0.0
 10
54.73494437754763
 20
-5.632198339684092
 30
0.0
 10
51.46428953203579
 20
-4.361982084396214
 30
0.0
 10
48.19353613703265
 20
-2.921172433119124
 30
0.0
 10
44.92274382143712
 20
-1.364358593170614
 30
0.0
 10
41.65197441122469
 20
0.2398551382862017
 30
0.0
 10
39.02211429498445
 20
1.540337015556252
 30
0.0
 10
37.48252689373068
 20
2.249508742029196
 30
0.0
 10
37.03316751085404
 20
2.456494697553344
 30
0.0
  0
LINE
  5
CE
330
1F
100
AcDbEntity
  8
0
  6
Continuous
 62
     1
370
    15
100
AcDbLine
 10
113.6
 20
-9.524999999999999
 30
0.0
 11
113.6
 21
-9.038661779433859
 31
0.0
  0
LINE
  5
CF
330
1F
100
AcDbEntity
  8
외형선
  6
Continuous
370
    15
100
AcDbLine
 10
12.0
 20
9.491714560551747
 30
0.0
 11
12.0
 21
9.525000000000007
 31
0.0
  0
SPLINE
  5
D0
330
1F
100
AcDbEntity
  8
0
  6
Continuous
 62
     1
370
    15
100
AcDbSpline
210
0.0
220
0.0
230
1.0
 70
     8
 71
     3
 72
    12
 73
     8
 74
     0
 42
0.000000001
 43
0.00000001
 40
0.0
 40
0.0
 40
0.0
 40
0.0
 40
0.4999999999999977
 40
0.4999999999999977
 40
0.7499999999999988
 40
0.7499999999999988
 40
1.0
 40
1.0
 40
1.0
 40
1.0
 10
113.6
 20
-2.545489060932347
 30
0.0
 10
112.7417949696737
 20
-1.870798261156431
 30
0.0
 10
111.895737405774
 20
-1.172677160324429
 30
0.0
 10
110.6449240257446
 20
-0.0902502097417727
 30
0.0
 10
110.2310704266742
 20
0.2765076356954351
 30
0.0
 10
109.4099884191866
 20
1.022802140366365
 30
0.0
 10
109.0013853533872
 20
1.403657852354443
 30
0.0
 10
108.6
 20
1.788486169330867
 30
0.0
  0
LINE
  5
D1
330
1F
100
AcDbEntity
  8
0
  6
Continuous
 62
     1
370
    15
100
AcDbLine
 10
108.6
 20
2.937719435296602
 30
0.0
 11
113.6
 21
0.0000000000000113
 31
0.0
  0
LINE
  5
D2
330
1F
100
AcDbEntity
  8
0
  6
Continuous
 62
     1
370
    15
100
AcDbLine
 10
113.6
 20
0.0000000000000113
 30
0.0
 11
113.6
 21
-2.545489060932356
 31
0.0
  0
SPLINE
  5
D3
330
1F
100
AcDbEntity
  8
0
  6
Continuous
 62
     1
370
    15
100
AcDbSpline
210
0.0
220
0.0
230
1.0
 70
     8
 71
     3
 72
    26
 73
    22
 74
     0
 42
0.000000001
 43
0.00000001
 40
0.0
 40
0.0
 40
0.0
 40
0.0
 40
0.0457607148748204
 40
0.1007414209509049
 40
0.1557211278558952
 40
0.2106989440717364
 40
0.2656739797486808
 40
0.3206453474883199
 40
0.3756121631219967
 40
0.4305738955740522
 40
0.4855379877069511
 40
0.540507091517424
 40
0.5954803248280592
 40
0.6504568018280551
 40
0.7054356338486442
 40
0.7604159301439001
 40
0.815396798675459
 40
0.870377346899681
 40
0.9253566825557664
 40
0.980333914453337
 40
1.0
 40
1.0
 40
1.0
 40
1.0
 10
93.42986879708478
 20
-7.142827308869093
 30
0.0
 10
92.52243445853128
 20
-7.275034370995796
 30
0.0
 10
90.5247334843312
 20
-7.566085927660116
 30
0.0
 10
87.43678491521709
 20
-7.664235168060809
 30
0.0
 10
84.16606964025415
 20
-7.49761267729316
 30
0.0
 10
80.89548169983372
 20
-7.029388850615145
 30
0.0
 10
77.62508076790313
 20
-6.287982722062631
 30
0.0
 10
74.35492817204243
 20
-5.299754878499553
 30
0.0
 10
71.08507059777483
 20
-4.104166223067179
 30
0.0
 10
67.81541767664895
 20
-2.747751442768909
 30
0.0
 10
64.54568721042281
 20
-1.283779962811165
 30
0.0
 10
61.27568531817572
 20
0.2304832718992521
 30
0.0
 10
58.00540627771257
 20
1.735757416832933
 30
0.0
 10
54.73490844974624
 20
3.173108356513338
 30
0.0
 10
51.46425205623993
 20
4.486096533803083
 30
0.0
 10
48.19349696479844
 20
5.623761713093494
 30
0.0
 10
44.92270345695042
 20
6.539734945761627
 30
0.0
 10
41.6519310467105
 20
7.204836695284645
 30
0.0
 10
38.38124211284726
 20
7.567993502908856
 30
0.0
 10
35.8108437667407
 20
7.678316740273464
 30
0.0
 10
34.33069255782483
 20
7.564642304045916
 30
0.0
 10
33.94072087257271
 20
7.5346927886189
 30
0.0
  0
SPLINE
  5
D4
330
1F
100
AcDbEntity
  8
외형선
  6
Continuous
370
    15
100
AcDbSpline
210
0.0
220
0.0
230
1.0
 70
    24
 71
     3
 72
    14
 73
    10
 74
     0
 42
0.000000001
 43
0.00000001
 40
0.0
 40
0.0
 40
0.0
 40
0.0
 40
0.25
 40
0.25
 40
0.5
 40
0.5
 40
0.75
 40
0.75
 40
1.0
 40
1.0
 40
1.0
 40
1.0
 10
12.0
 20
-0.9480709264750373
 30
0.0
 10
12.0
 20
-1.661500004419695
 30
0.0
 10
11.99999999999999
 20
-2.373256380400229
 30
0.0
 10
11.99999999999999
 20
-3.740474577622207
 30
0.0
 10
11.99999999999999
 20
-4.395507081345518
 30
0.0
 10
11.99999999999999
 20
-5.59853390154562
 30
0.0
 10
11.99999999999999
 20
-6.146180820395934
 30
0.0
 10
11.99999999999999
 20
-7.098977467211415
 30
0.0
 10
12.0
 20
-7.50402421050284
 30
0.0
 10
12.0
 20
-7.831368653301594
 30
0.0
  0
SPLINE
  5
D5
330
1F
100
AcDbEntity
  8
0
  6
Continuous
 62
     1
370
    15
100
AcDbSpline
210
0.0
220
0.0
230
1.0
 70
     8
 71
     3
 72
    15
 73
    11
 74
     0
 42
0.000000001
 43
0.00000001
 40
0.0
 40
0.0
 40
0.0
 40
0.0
 40
0.1179826992622876
 40
0.2359634811202694
 40
0.3539518871961172
 40
0.4972023167486744
 40
0.6404571172231617
 40
0.783713964962392
 40
0.9269705345015838
 40
1.0
 40
1.0
 40
1.0
 40
1.0
 10
108.6
 20
2.273962504588747
 30
0.0
 10
107.7022079913382
 20
2.66396078195707
 30
0.0
 10
105.9066385645459
 20
3.443950998608716
 30
0.0
 10
103.2132176494503
 20
4.506105224624412
 30
0.0
 10
100.3276264027036
 20
5.520474260591905
 30
0.0
 10
97.24906119635543
 20
6.416376109014864
 30
0.0
 10
93.97836634158287
 20
7.121428898502268
 30
0.0
 10
90.7075655898287
 20
7.532179393495983
 30
0.0
 10
87.97123394769706
 20
7.676619078384681
 30
0.0
 10
86.32517499977423
 20
7.568173669449874
 30
0.0
 10
85.76937949903937
 20
7.531556833559897
 30
0.0
  0
SPLINE
  5
D6
330
1F
100
AcDbEntity
  8
0
  6
Continuous
 62
     1
370
    15
100
AcDbSpline
210
0.0
220
0.0
230
1.0
 70
     8
 71
     3
 72
    16
 73
    12
 74
     0
 42
0.000000001
 43
0.00000001
 40
0.0
 40
0.0
 40
0.0
 40
0.0
 40
0.1085147077909802
 40
0.2190337777525642
 40
0.3295468307898047
 40
0.4400520844037841
 40
0.5505477629609238
 40
0.6610349062710471
 40
0.7740085991241651
 40
0.8869983639869683
 40
1.0
 40
1.0
 40
1.0
 40
1.0
 10
41.59246881931706
 20
-7.161357514693118
 30
0.0
 10
40.52204552064137
 20
-7.304672622457048
 30
0.0
 10
38.36142726274669
 20
-7.593949994175305
 30
0.0
 10
35.1106925705419
 20
-7.658722445455553
 30
0.0
 10
31.84034509308879
 20
-7.445012779044152
 30
0.0
 10
28.57026072959623
 20
-6.934092437556044
 30
0.0
 10
25.30046364647135
 20
-6.153090831838294
 30
0.0
 10
22.00638464588712
 20
-5.12324038492763
 30
0.0
 10
18.68760615130656
 20
-3.878812443109531
 30
0.0
 10
15.34396889675258
 20
-2.469188398221155
 30
0.0
 10
13.11469533291215
 20
-1.455127839657796
 30
0.0
 10
12.0
 20
-0.9480709264750373
 30
0.0
  0
SPLINE
  5
D7
330
1F
100
AcDbEntity
  8
0
  6
Continuous
 62
     1
370
    15
100
AcDbSpline
210
0.0
220
0.0
230
1.0
 70
    24
 71
     3
 72
     8
 73
     4
 74
     0
 42
0.000000001
 43
0.00000001
 40
0.0
 40
0.0
 40
0.0
 40
0.0
 40
1.0
 40
1.0
 40
1.0
 40
1.0
 10
108.6
 20
1.788486169330785
 30
0.0
 10
108.6
 20
1.951691093477701
 30
0.0
 10
108.6
 20
2.113595766767051
 30
0.0
 10
108.6
 20
2.273962504588745
 30
0.0
  0
SPLINE
  5
D8
330
1F
100
AcDbEntity
  8
0
  6
Continuous
 62
     1
370
    15
100
AcDbSpline
210
0.0
220
0.0
230
1.0
 70
    24
 71
     3
 72
    10
 73
     6
 74
     0
 42
0.000000001
 43
0.00000001
 40
0.0
 40
0.0
 40
0.0
 40
0.0
 40
0.5
 40
0.5
 40
1.0
 40
1.0
 40
1.0
 40
1.0
 10
113.6
 20
-7.514960818107256
 30
0.0
 10
113.6
 20
-6.938880480261239
 30
0.0
 10
113.6
 20
-6.210980884209112
 30
0.0
 10
113.6
 20
-4.518684375910216
 30
0.0
 10
113.6
 20
-3.555753395063711
 30
0.0
 10
113.6
 20
-2.545489060932652
 30
0.0
  0
SPLINE
  5
D9
330
1F
100
AcDbEntity
  8
0
  6
Continuous
 62
     1
370
    15
100
AcDbSpline
210
0.0
220
0.0
230
1.0
 70
    24
 71
     3
 72
    10
 73
     6
 74
     0
 42
0.000000001
 43
0.00000001
 40
0.0
 40
0.0
 40
0.0
 40
0.0
 40
0.5
 40
0.5
 40
1.0
 40
1.0
 40
1.0
 40
1.0
 10
108.6
 20
2.27396250458874
 30
0.0
 10
108.6
 20
2.80176724687018
 30
0.0
 10
108.6
 20
3.304266617507636
 30
0.0
 10
108.6
 20
4.221095501631607
 30
0.0
 10
108.6
 20
4.635160569708964
 30
0.0
 10
108.6
 20
4.989159483222104
 30
0.0
  0
SPLINE
  5
DA
330
1F
100
AcDbEntity
  8
외형선
  6
Continuous
370
    15
100
AcDbSpline
210
0.0
220
0.0
230
1.0
 70
    24
 71
     3
 72
    14
 73
    10
 74
     0
 42
0.000000001
 43
0.00000001
 40
0.0
 40
0.0
 40
0.0
 40
0.0
 40
0.2500000000000001
 40
0.2500000000000001
 40
0.5000000000000001
 40
0.5000000000000001
 40
0.75
 40
0.75
 40
1.0
 40
1.0
 40
1.0
 40
1.0
 10
12.0
 20
6.615692181284145
 30
0.0
 10
12.0
 20
6.334879982361701
 30
0.0
 10
12.0
 20
5.947520694697544
 30
0.0
 10
12.0
 20
4.966563671702196
 30
0.0
 10
12.0
 20
4.373041775581613
 30
0.0
 10
12.0
 20
3.028742999645982
 30
0.0
 10
12.0
 20
2.278682418421494
 30
0.0
 10
12.0
 20
0.701262426519576
 30
0.0
 10
12.0
 20
-0.1251833805237681
 30
0.0
 10
12.0
 20
-0.9480709264750367
 30
0.0
  0
SPLINE
  5
DB
330
1F
100
AcDbEntity
  8
0
  6
Continuous
 62
     1
370
    15
100
AcDbSpline
210
0.0
220
0.0
230
1.0
 70
     8
 71
     3
 72
    10
 73
     6
 74
     0
 42
0.000000001
 43
0.00000001
 40
0.0
 40
0.0
 40
0.0
 40
0.0
 40
0.5
 40
0.5
 40
1.0
 40
1.0
 40
1.0
 40
1.0
 10
113.6
 20
6.667500000000012
 30
0.0
 10
112.7570541751478
 20
6.438941566832871
 30
0.0
 10
111.9184246178664
 20
6.186028406994872
 30
0.0
 10
110.2503446245852
 20
5.628489846077767
 30
0.0
 10
109.4217415413576
 20
5.324646660889377
 30
0.0
 10
108.6
 20
4.989159483222108
 30
0.0
  0
LINE
  5
DC
330
1F
100
AcDbEntity
  8
0
  6
Continuous
 62
     1
370
    15
100
AcDbLine
 10
113.6
 20
0.0000000000000113
 30
0.0
 11
113.6
 21
6.667500000000011
 31
0.0
  0
LINE
  5
DD
330
1F
100
AcDbEntity
  8
중심선
100
AcDbLine
 10
-48.15000000000001
 20
-0.0000000000000056
 30
0.0
 11
116.6
 21
0.0000000000000133
 31
0.0
  0
LINE
  5
DE
330
1F
100
AcDbEntity
  8
참조1
100
AcDbLine
 10
37.07426131403117
 20
0.0010749287238892
 30
0.0
 11
37.07426131403117
 21
-39.99892507127611
 31
0.0
  0
LINE
  5
DF
330
1F
100
AcDbEntity
  8
참조1
100
AcDbLine
 10
37.07426131403117
 20
-39.99892507127611
 30
0.0
 11
-20.15080122126847
 21
-39.9989250712761
 31
0.0
  0
CIRCLE
  5
E0
330
1F
100
AcDbEntity
  8
해칭선
100
AcDbCircle
 10
0.0
 20
0.0
 30
0.0
 40
2.999999999999995
  0
INSERT
  5
E1
330
1F
100
AcDbEntity
  8
0
  6
Continuous
 62
     7
100
AcDbBlockReference
 66
     1
  2
블럭10
 10
20.28472706787478
 20
-52.04717430164393
 30
0.0
  0
ATTRIB
  5
E2
330
E1
100
AcDbEntity
  8
FORMAT
 62
     2
100
AcDbText
 10
11.1034317791335
 20
-49.97180738881174
 30
0.0
 40
4.233333333333333
  1
E1072048 [ 2 FLUTE ]
 41
0.75
  7
SLDTEXTSTYLE0
 11
11.1034317791335
 21
-52.08847405547841
 31
0.0
100
AcDbAttribute
  2
AUTOATTR0
 70
     0
 74
     1
  0
SEQEND
  5
E3
330
E1
100
AcDbEntity
  8
0
  6
Continuous
 62
     7
  0
HATCH
  5
E4
330
1F
100
AcDbEntity
  8
중심선
100
AcDbHatch
 10
0.0
 20
0.0
 30
0.0
210
0.0
220
0.0
230
1.0
  2
SOLID
 70
     1
 71
     0
 91
        1
 92
        0
 93
        4
 72
     1
 10
25.99963637225562
 20
-35.8
 11
22.55336112841833
 21
-35.8
 72
     1
 10
22.55336112841833
 20
-35.8
 11
20.42513126921432
 21
-38.3363255805726
 72
     1
 10
20.42513126921432
 20
-38.3363255805726
 11
23.87143959816474
 21
-38.33628615127011
 72
     1
 10
23.87143959816474
 20
-38.33628615127011
 11
25.99963637225562
 21
-35.8
 97
        0
 75
     0
 76
     1
 98
        1
 10
-2.849261314031171
 20
-0.0010749287238953
  0
HATCH
  5
E5
330
1F
100
AcDbEntity
  8
중심선
100
AcDbHatch
 10
0.0
 20
0.0
 30
0.0
210
0.0
220
0.0
230
1.0
  2
SOLID
 70
     1
 71
     0
 91
        1
 92
        0
 93
        4
 72
     1
 10
31.0124003632916
 20
-35.8
 11
27.56612511945434
 21
-35.79999999999998
 72
     1
 10
27.56612511945434
 20
-35.79999999999998
 11
23.0349871110969
 21
-41.20000000000002
 72
     1
 10
23.0349871110969
 20
-41.20000000000002
 11
26.48126235493418
 21
-41.20000000000002
 72
     1
 10
26.48126235493418
 20
-41.20000000000002
 11
31.0124003632916
 21
-35.8
 97
        0
 75
     0
 76
     1
 98
        1
 10
-2.849261314031171
 20
-0.0010749287238953
  0
HATCH
  5
E6
330
1F
100
AcDbEntity
  8
중심선
100
AcDbHatch
 10
0.0
 20
0.0
 30
0.0
210
0.0
220
0.0
230
1.0
  2
SOLID
 70
     1
 71
     0
 91
        1
 92
        0
 93
        4
 72
     1
 10
36.02516435432744
 20
-35.80000000000003
 11
32.57888911049035
 21
-35.80000000000003
 72
     1
 10
32.57888911049035
 20
-35.80000000000003
 11
25.5304522086011
 21
-44.20000000000002
 72
     1
 10
25.5304522086011
 20
-44.20000000000002
 11
28.97672745243838
 21
-44.20000000000002
 72
     1
 10
28.97672745243838
 20
-44.20000000000002
 11
36.02516435432744
 21
-35.80000000000003
 97
        0
 75
     0
 76
     1
 98
        1
 10
-2.849261314031171
 20
-0.0010749287238953
  0
HATCH
  5
E7
330
1F
100
AcDbEntity
  8
중심선
100
AcDbHatch
 10
0.0
 20
0.0
 30
0.0
210
0.0
220
0.0
230
1.0
  2
SOLID
 70
     1
 71
     0
 91
        1
 92
        0
 93
        6
 72
     3
 10
40.82505478533963
 20
-40.00000000005127
 11
3.960054785062283
 21
1.540882976769353E-10
 40
0.3939339440162628
 50
17.0953918060842
 51
320.0019657685087
 73
     0
 72
     1
 10
42.50805444104026
 20
-38.5878940046383
 11
44.81335631474124
 21
-36.65356729459041
 72
     3
 10
40.8250547852868
 20
-40.00000000000015
 11
6.600054785286829
 21
-1.278976924368180E-13
 40
0.636358354079598
 50
39.99873849337402
 51
368.4976242363724
 73
     1
 72
     1
 10
47.25038727718743
 20
-39.03999999993002
 11
39.50512209212275
 21
-39.03999999993002
 72
     1
 10
39.50512209212275
 20
-39.03999999993002
 11
39.50509704767678
 21
-40.95999999992991
 72
     1
 10
39.50509704767678
 20
-40.95999999992991
 11
43.94647681714885
 21
-40.95999999992988
 97
        0
 75
     0
 76
     1
 98
        1
 10
-2.849261314031171
 20
-0.0010749287238953
  0
DIMENSION
  5
E8
330
1F
100
AcDbEntity
  8
치수문자_일반주서
100
AcDbDimension
  2
_D
 10
-57.64999999999998
 20
-9.525000000000057
 30
0.0
 11
-57.65000000000002
 21
0.0000000000000049
 31
0.0
 70
   160
  1
%%c<>
 71
     2
 42
19.05000000000001
 52
-270.0
  3
SLDDIMSTYLE0
100
AcDbAlignedDimension
 13
-44.15000000000001
 23
9.525000000000004
 33
0.0
 14
-44.15000000000001
 24
-9.525000000000007
 34
0.0
 50
90.0000000000002
100
AcDbRotatedDimension
1001
ACAD
1000
DSTYLE
1002
{
1070
   171
1070
     6
1070
   273
1070
     7
1002
}
  0
DIMENSION
  5
FD
330
1F
100
AcDbEntity
  8
치수문자_일반주서
100
AcDbDimension
  2
_D_1
 10
11.99999999999999
 20
22.69329134588531
 30
0.0
 11
62.80000000000001
 21
22.69329134588531
 31
0.0
 70
   160
  1
<>
 71
     2
 42
101.6
  3
SLDDIMSTYLE0
100
AcDbAlignedDimension
 13
113.6
 23
9.525000000000013
 33
0.0
 14
11.99999999999999
 24
9.491714560565088
 34
0.0
 50
0.000000000000004
100
AcDbRotatedDimension
1001
ACAD
1000
DSTYLE
1002
{
1070
   171
1070
     6
1070
   273
1070
     7
1002
}
  0
DIMENSION
  5
112
330
1F
100
AcDbEntity
  8
치수문자_일반주서
100
AcDbDimension
  2
_D_2
 10
-45.15000000000001
 20
39.56419134481796
 30
0.0
 11
34.22499999999999
 21
39.56419134481796
 31
0.0
 70
   160
  1
<>
 71
     2
 42
158.75
  3
SLDDIMSTYLE0
100
AcDbAlignedDimension
 13
113.6
 23
9.52500000000001
 33
0.0
 14
-45.15000000000001
 24
8.524999999999993
 34
0.0
 50
0.0000000000000026
100
AcDbRotatedDimension
1001
ACAD
1000
DSTYLE
1002
{
1070
   171
1070
     6
1070
   273
1070
     7
1002
}
  0
DIMENSION
  5
126
330
1F
100
AcDbEntity
  8
치수문자_일반주서
100
AcDbDimension
  2
_D_3
 10
131.7257559180968
 20
9.52500000000008
 30
0.0
 11
131.7257559180968
 21
32.6486715637198
 31
0.0
 70
   160
  1
%%c<>
 71
     2
 42
19.05000000000001
 52
-270.0
  3
SLDDIMSTYLE0
100
AcDbAlignedDimension
 13
113.6
 23
-9.524999999999999
 33
0.0
 14
113.6
 24
9.525000000000013
 34
0.0
 50
90.0000000000002
100
AcDbRotatedDimension
1001
ACAD
1000
DSTYLE
1002
{
1070
   171
1070
     6
1070
   273
1070
     7
1002
}
  0
LINE
  5
139
330
1F
100
AcDbEntity
  8
참조1
100
AcDbLine
 10
77.82153940838579
 20
7.441074928723896
 30
0.0
 11
77.82153940838579
 21
-7.438925071276109
 31
0.0
  0
LINE
  5
13A
330
1F
100
AcDbEntity
  8
참조1
100
AcDbLine
 10
90.52153940838579
 20
5.441074928723896
 30
0.0
 11
77.82153940838579
 21
5.441074928723896
 31
0.0
  0
SOLID
  5
13B
330
1F
100
AcDbEntity
  8
참조1
100
AcDbTrace
 10
77.82153940838579
 20
5.441074928723896
 30
0.0
 11
84.17153940838578
 21
4.425074928723896
 31
0.0
 12
84.17153940838578
 22
6.457074928723896
 32
0.0
 13
84.17153940838578
 23
6.457074928723896
 33
0.0
  0
LINE
  5
13C
330
1F
100
AcDbEntity
  8
참조1
100
AcDbLine
 10
90.52153940838579
 20
-5.438925071276109
 30
0.0
 11
77.82153940838579
 21
-5.438925071276109
 31
0.0
  0
SOLID
  5
13D
330
1F
100
AcDbEntity
  8
참조1
100
AcDbTrace
 10
77.82153940838579
 20
-5.438925071276109
 30
0.0
 11
84.17153940838578
 21
-6.454925071276109
 31
0.0
 12
84.17153940838578
 22
-4.422925071276109
 32
0.0
 13
84.17153940838578
 23
-4.422925071276109
 33
0.0
  0
MTEXT
  5
13E
330
1F
100
AcDbEntity
  8
참조1
100
AcDbMText
 10
87.20588954101179
 20
11.01136670591222
 30
0.0
 40
3.5
 41
0.0
 71
     1
 72
     1
  1
A
  7
SLDTEXTSTYLE0
 73
     1
 44
1.0
  0
MTEXT
  5
13F
330
1F
100
AcDbEntity
  8
참조1
100
AcDbMText
 10
87.20588954101179
 20
0.1313667059122192
 30
0.0
 40
3.5
 41
0.0
 71
     1
 72
     1
  1
A
  7
SLDTEXTSTYLE0
 73
     1
 44
1.0
  0
INSERT
  5
146
330
1F
100
AcDbEntity
  8
해칭선
100
AcDbBlockReference
  2
SW_DOWELSYMBOL_0
 10
0.0
 20
0.0
 30
0.0
  0
LINE
  5
1FB
330
1F
100
AcDbEntity
  8
외형선
  6
Continuous
370
    15
100
AcDbLine
 10
-25.14432499999999
 20
7.61999999999999
 30
0.0
 11
-13.56192499999998
 21
7.61999999999999
 31
0.0
  0
LINE
  5
1FC
330
1F
100
AcDbEntity
  8
외형선
  6
Continuous
370
    15
100
AcDbLine
 10
-25.14432499999999
 20
7.619999999999976
 30
0.0
 11
-27.04932500000013
 21
9.525000000000006
 31
0.0
  0
LINE
  5
1FD
330
1F
100
AcDbEntity
  8
외형선
  6
Continuous
370
    15
100
AcDbLine
 10
-13.56192499999998
 20
7.619999999999976
 30
0.0
 11
-11.65692500000001
 21
9.525000000000006
 31
0.0
  0
LINE
  5
1FE
330
1F
100
AcDbEntity
  8
외형선
  6
Continuous
370
    15
100
AcDbLine
 10
-27.04932500000013
 20
9.524999999999999
 30
0.0
 11
-44.15000000000001
 21
9.524999999999997
 31
0.0
  0
ENDSEC
  0
SECTION
  2
OBJECTS
  0
DICTIONARY
  5
C
330
0
100
AcDbDictionary
281
     1
  3
ACAD_GROUP
350
D
  3
ACAD_IMAGE_VARS
350
16A
  3
ACAD_LAYOUT
350
1A
  3
ACAD_MLINESTYLE
350
17
  3
ACAD_PLOTSETTINGS
350
19
  3
ACAD_PLOTSTYLENAME
350
E
  3
ACAD_SCALELIST
350
47
  3
APPDATA
350
168
  3
DWGPROPS
350
1FF
  0
DICTIONARY
  5
191
330
2
100
AcDbDictionary
280
     1
281
     1
  3
ACAD_LAYERSTATES
360
192
  0
DICTIONARY
  5
D
102
{ACAD_REACTORS
330
C
102
}
330
C
100
AcDbDictionary
281
     1
  0
RASTERVARIABLES
  5
16A
102
{ACAD_REACTORS
330
C
102
}
330
C
100
AcDbRasterVariables
 90
        0
 70
     1
 71
     1
 72
     1
  0
DICTIONARY
  5
1A
102
{ACAD_REACTORS
330
C
102
}
330
C
100
AcDbDictionary
281
     1
  3
Layout1
350
1E
  3
Layout2
350
26
  3
Model
350
22
  0
DICTIONARY
  5
17
102
{ACAD_REACTORS
330
C
102
}
330
C
100
AcDbDictionary
281
     1
  3
Standard
350
18
  0
DICTIONARY
  5
19
102
{ACAD_REACTORS
330
C
102
}
330
C
100
AcDbDictionary
281
     1
  0
ACDBDICTIONARYWDFLT
  5
E
102
{ACAD_REACTORS
330
C
102
}
330
C
100
AcDbDictionary
281
     1
  3
Normal
350
F
100
AcDbDictionaryWithDefault
340
F
  0
DICTIONARY
  5
47
102
{ACAD_REACTORS
330
C
102
}
330
C
100
AcDbDictionary
281
     1
  3
A0
350
48
  3
A1
350
49
  3
A2
350
4A
  3
A3
350
4B
  3
A4
350
4C
  3
A5
350
4D
  3
A6
350
4E
  3
A7
350
4F
  3
A8
350
50
  3
A9
350
51
  3
B0
350
52
  3
B1
350
53
  3
B2
350
54
  3
B3
350
55
  3
B4
350
56
  3
B5
350
57
  3
B6
350
58
  3
B7
350
59
  3
B8
350
5A
  3
B9
350
5B
  3
C0
350
5C
  3
C1
350
5D
  3
C2
350
5E
  3
C3
350
5F
  3
C4
350
60
  3
C5
350
61
  3
C6
350
62
  3
C7
350
63
  3
C8
350
64
  3
C9
350
65
  3
D0
350
66
  3
D1
350
67
  3
D2
350
68
  0
DICTIONARY
  5
168
102
{ACAD_REACTORS
330
C
102
}
330
C
100
AcDbDictionary
281
     1
  0
XRECORD
  5
1FF
102
{ACAD_REACTORS
330
C
102
}
330
C
100
AcDbXrecord
280
     1
  1
DWGPROPS COOKIE
  2

  3

  4

  6

  7

  8
12016016
  9

300
=
301
=
302
=
303
=
304
=
305
=
306
=
307
=
308
=
309
=
 40
0.0
 41
2458311.093768183
 42
2458318.322200185
  1

 90
        0
  0
DICTIONARY
  5
192
102
{ACAD_REACTORS
330
191
102
}
330
191
100
AcDbDictionary
281
     1
  0
LAYOUT
  5
1E
102
{ACAD_REACTORS
330
1A
102
}
330
1A
100
AcDbPlotSettings
  1

  2
none_device
  4

  6

 40
0.0
 41
0.0
 42
0.0
 43
0.0
 44
0.0
 45
0.0
 46
0.0
 47
0.0
 48
0.0
 49
0.0
140
0.0
141
0.0
142
1.0
143
1.0
 70
   688
 72
     1
 73
     0
 74
     5
  7

 75
    16
147
1.0
148
0.0
149
0.0
100
AcDbLayout
  1
Layout1
 70
     1
 71
     1
 10
0.0
 20
0.0
 11
420.0
 21
297.0
 12
0.0
 22
0.0
 32
0.0
 14
1.000000000000000E+20
 24
1.000000000000000E+20
 34
1.000000000000000E+20
 15
-1.000000000000000E+20
 25
-1.000000000000000E+20
 35
-1.000000000000000E+20
146
0.0
 13
0.0
 23
0.0
 33
0.0
 16
1.0
 26
0.0
 36
0.0
 17
0.0
 27
1.0
 37
0.0
 76
     0
330
1B
  0
LAYOUT
  5
26
102
{ACAD_REACTORS
330
1A
102
}
330
1A
100
AcDbPlotSettings
  1

  2
none_device
  4

  6

 40
0.0
 41
0.0
 42
0.0
 43
0.0
 44
0.0
 45
0.0
 46
0.0
 47
0.0
 48
0.0
 49
0.0
140
0.0
141
0.0
142
1.0
143
1.0
 70
   688
 72
     1
 73
     0
 74
     5
  7

 75
    16
147
1.0
148
0.0
149
0.0
100
AcDbLayout
  1
Layout2
 70
     1
 71
     2
 10
0.0
 20
0.0
 11
0.0
 21
0.0
 12
0.0
 22
0.0
 32
0.0
 14
0.0
 24
0.0
 34
0.0
 15
0.0
 25
0.0
 35
0.0
146
0.0
 13
0.0
 23
0.0
 33
0.0
 16
1.0
 26
0.0
 36
0.0
 17
0.0
 27
1.0
 37
0.0
 76
     0
330
23
  0
LAYOUT
  5
22
102
{ACAD_REACTORS
330
1A
102
}
330
1A
100
AcDbPlotSettings
  1

  2
none_device
  4
ANSI_A_(11.00_x_8.50_Inches)
  6

 40
6.35
 41
19.05
 42
6.35000508
 43
19.05000254
 44
279.4
 45
215.9
 46
56.10184518019841
 47
67.34286726456622
 48
0.0
 49
0.0
140
0.0
141
0.0
142
0.0366458528661854
143
1.0
 70
  1696
 72
     0
 73
     0
 74
     0
  7

 75
     0
147
0.0235690232323232
148
0.0
149
0.0
100
AcDbLayout
  1
Model
 70
     1
 71
     0
 10
0.0
 20
0.0
 11
420.0
 21
297.0
 12
0.0
 22
0.0
 32
0.0
 14
1.000000000000000E+20
 24
1.000000000000000E+20
 34
1.000000000000000E+20
 15
-1.000000000000000E+20
 25
-1.000000000000000E+20
 35
-1.000000000000000E+20
146
0.0
 13
0.0
 23
0.0
 33
0.0
 16
1.0
 26
0.0
 36
0.0
 17
0.0
 27
1.0
 37
0.0
 76
     0
330
1F
331
29
  0
MLINESTYLE
  5
18
102
{ACAD_REACTORS
330
17
102
}
330
17
100
AcDbMlineStyle
  2
Standard
 70
     0
  3

 62
   256
 51
90.0
 52
90.0
 71
     2
 49
0.5
 62
   256
  6
BYLAYER
 49
-0.5
 62
   256
  6
BYLAYER
  0
ACDBPLACEHOLDER
  5
F
102
{ACAD_REACTORS
330
E
102
}
330
E
  0
SCALE
  5
48
102
{ACAD_REACTORS
330
47
102
}
330
47
100
AcDbScale
 70
     0
300
1:1
140
1.0
141
1.0
290
     1
  0
SCALE
  5
49
102
{ACAD_REACTORS
330
47
102
}
330
47
100
AcDbScale
 70
     0
300
1:2
140
1.0
141
2.0
290
     0
  0
SCALE
  5
4A
102
{ACAD_REACTORS
330
47
102
}
330
47
100
AcDbScale
 70
     0
300
1:4
140
1.0
141
4.0
290
     0
  0
SCALE
  5
4B
102
{ACAD_REACTORS
330
47
102
}
330
47
100
AcDbScale
 70
     0
300
1:5
140
1.0
141
5.0
290
     0
  0
SCALE
  5
4C
102
{ACAD_REACTORS
330
47
102
}
330
47
100
AcDbScale
 70
     0
300
1:8
140
1.0
141
8.0
290
     0
  0
SCALE
  5
4D
102
{ACAD_REACTORS
330
47
102
}
330
47
100
AcDbScale
 70
     0
300
1:10
140
1.0
141
10.0
290
     0
  0
SCALE
  5
4E
102
{ACAD_REACTORS
330
47
102
}
330
47
100
AcDbScale
 70
     0
300
1:16
140
1.0
141
16.0
290
     0
  0
SCALE
  5
4F
102
{ACAD_REACTORS
330
47
102
}
330
47
100
AcDbScale
 70
     0
300
1:20
140
1.0
141
20.0
290
     0
  0
SCALE
  5
50
102
{ACAD_REACTORS
330
47
102
}
330
47
100
AcDbScale
 70
     0
300
1:30
140
1.0
141
30.0
290
     0
  0
SCALE
  5
51
102
{ACAD_REACTORS
330
47
102
}
330
47
100
AcDbScale
 70
     0
300
1:40
140
1.0
141
40.0
290
     0
  0
SCALE
  5
52
102
{ACAD_REACTORS
330
47
102
}
330
47
100
AcDbScale
 70
     0
300
1:50
140
1.0
141
50.0
290
     0
  0
SCALE
  5
53
102
{ACAD_REACTORS
330
47
102
}
330
47
100
AcDbScale
 70
     0
300
1:100
140
1.0
141
100.0
290
     0
  0
SCALE
  5
54
102
{ACAD_REACTORS
330
47
102
}
330
47
100
AcDbScale
 70
     0
300
2:1
140
2.0
141
1.0
290
     0
  0
SCALE
  5
55
102
{ACAD_REACTORS
330
47
102
}
330
47
100
AcDbScale
 70
     0
300
4:1
140
4.0
141
1.0
290
     0
  0
SCALE
  5
56
102
{ACAD_REACTORS
330
47
102
}
330
47
100
AcDbScale
 70
     0
300
8:1
140
8.0
141
1.0
290
     0
  0
SCALE
  5
57
102
{ACAD_REACTORS
330
47
102
}
330
47
100
AcDbScale
 70
     0
300
10:1
140
10.0
141
1.0
290
     0
  0
SCALE
  5
58
102
{ACAD_REACTORS
330
47
102
}
330
47
100
AcDbScale
 70
     0
300
100:1
140
100.0
141
1.0
290
     0
  0
SCALE
  5
59
102
{ACAD_REACTORS
330
47
102
}
330
47
100
AcDbScale
 70
     0
300
1/128" = 1'-0"
140
0.0078125
141
12.0
290
     0
  0
SCALE
  5
5A
102
{ACAD_REACTORS
330
47
102
}
330
47
100
AcDbScale
 70
     0
300
1/64" = 1'-0"
140
0.015625
141
12.0
290
     0
  0
SCALE
  5
5B
102
{ACAD_REACTORS
330
47
102
}
330
47
100
AcDbScale
 70
     0
300
1/32" = 1'-0"
140
0.03125
141
12.0
290
     0
  0
SCALE
  5
5C
102
{ACAD_REACTORS
330
47
102
}
330
47
100
AcDbScale
 70
     0
300
1/16" = 1'-0"
140
0.0625
141
12.0
290
     0
  0
SCALE
  5
5D
102
{ACAD_REACTORS
330
47
102
}
330
47
100
AcDbScale
 70
     0
300
3/32" = 1'-0"
140
0.09375
141
12.0
290
     0
  0
SCALE
  5
5E
102
{ACAD_REACTORS
330
47
102
}
330
47
100
AcDbScale
 70
     0
300
1/8" = 1'-0"
140
0.125
141
12.0
290
     0
  0
SCALE
  5
5F
102
{ACAD_REACTORS
330
47
102
}
330
47
100
AcDbScale
 70
     0
300
3/16" = 1'-0"
140
0.1875
141
12.0
290
     0
  0
SCALE
  5
60
102
{ACAD_REACTORS
330
47
102
}
330
47
100
AcDbScale
 70
     0
300
1/4" = 1'-0"
140
0.25
141
12.0
290
     0
  0
SCALE
  5
61
102
{ACAD_REACTORS
330
47
102
}
330
47
100
AcDbScale
 70
     0
300
3/8" = 1'-0"
140
0.375
141
12.0
290
     0
  0
SCALE
  5
62
102
{ACAD_REACTORS
330
47
102
}
330
47
100
AcDbScale
 70
     0
300
1/2" = 1'-0"
140
0.5
141
12.0
290
     0
  0
SCALE
  5
63
102
{ACAD_REACTORS
330
47
102
}
330
47
100
AcDbScale
 70
     0
300
3/4" = 1'-0"
140
0.75
141
12.0
290
     0
  0
SCALE
  5
64
102
{ACAD_REACTORS
330
47
102
}
330
47
100
AcDbScale
 70
     0
300
1" = 1'-0"
140
1.0
141
12.0
290
     0
  0
SCALE
  5
65
102
{ACAD_REACTORS
330
47
102
}
330
47
100
AcDbScale
 70
     0
300
1-1/2" = 1'-0"
140
1.5
141
12.0
290
     0
  0
SCALE
  5
66
102
{ACAD_REACTORS
330
47
102
}
330
47
100
AcDbScale
 70
     0
300
3" = 1'-0"
140
3.0
141
12.0
290
     0
  0
SCALE
  5
67
102
{ACAD_REACTORS
330
47
102
}
330
47
100
AcDbScale
 70
     0
300
6" = 1'-0"
140
6.0
141
12.0
290
     0
  0
SCALE
  5
68
102
{ACAD_REACTORS
330
47
102
}
330
47
100
AcDbScale
 70
     0
300
1'-0" = 1'-0"
140
12.0
141
12.0
290
     0
  0
ENDSEC
  0
EOF
