  0
SECTION
  2
HEADER
  9
$ACADVER
  1
AC1015
  9
$ACADMAINTVER
 70
     6
  9
$DWGCODEPAGE
  3
ANSI_949
  9
$INSBASE
 10
0.0
 20
0.0
 30
0.0
  9
$EXTMIN
 10
1.000000000000000E+20
 20
1.000000000000000E+20
 30
1.000000000000000E+20
  9
$EXTMAX
 10
-1.000000000000000E+20
 20
-1.000000000000000E+20
 30
-1.000000000000000E+20
  9
$LIMMIN
 10
0.0
 20
0.0
  9
$LIMMAX
 10
420.0
 20
297.0
  9
$ORTHOMODE
 70
     1
  9
$REGENMODE
 70
     1
  9
$FILLMODE
 70
     1
  9
$QTEXTMODE
 70
     0
  9
$MIRRTEXT
 70
     1
  9
$LTSCALE
 40
1.0
  9
$ATTMODE
 70
     1
  9
$TEXTSIZE
 40
3.5
  9
$TRACEWID
 40
1.0
  9
$TEXTSTYLE
  7
Standard
  9
$CLAYER
  8
0
  9
$CELTYPE
  6
ByLayer
  9
$CECOLOR
 62
   256
  9
$CELTSCALE
 40
1.0
  9
$DISPSILH
 70
     0
  9
$DIMSCALE
 40
1.0
  9
$DIMASZ
 40
3.302
  9
$DIMEXO
 40
1.0
  9
$DIMDLI
 40
3.75
  9
$DIMRND
 40
0.0
  9
$DIMDLE
 40
0.0
  9
$DIMEXE
 40
1.0
  9
$DIMTP
 40
0.0
  9
$DIMTM
 40
0.0
  9
$DIMTXT
 40
3.5
  9
$DIMCEN
 40
2.5
  9
$DIMTSZ
 40
0.0
  9
$DIMTOL
 70
     0
  9
$DIMLIM
 70
     0
  9
$DIMTIH
 70
     1
  9
$DIMTOH
 70
     1
  9
$DIMSE1
 70
     0
  9
$DIMSE2
 70
     0
  9
$DIMTAD
 70
     1
  9
$DIMZIN
 70
     0
  9
$DIMBLK
  1

  9
$DIMASO
 70
     1
  9
$DIMSHO
 70
     1
  9
$DIMPOST
  1

  9
$DIMAPOST
  1

  9
$DIMALT
 70
     0
  9
$DIMALTD
 70
     3
  9
$DIMALTF
 40
0.0393700787401575
  9
$DIMLFAC
 40
1.0
  9
$DIMTOFL
 70
     1
  9
$DIMTVP
 40
0.0
  9
$DIMTIX
 70
     0
  9
$DIMSOXD
 70
     0
  9
$DIMSAH
 70
     0
  9
$DIMBLK1
  1

  9
$DIMBLK2
  1

  9
$DIMSTYLE
  2
ISO-25
  9
$DIMCLRD
 70
     0
  9
$DIMCLRE
 70
     0
  9
$DIMCLRT
 70
     0
  9
$DIMTFAC
 40
1.0
  9
$DIMGAP
 40
1.524
  9
$DIMJUST
 70
     0
  9
$DIMSD1
 70
     0
  9
$DIMSD2
 70
     0
  9
$DIMTOLJ
 70
     0
  9
$DIMTZIN
 70
     0
  9
$DIMALTZ
 70
     0
  9
$DIMALTTZ
 70
     0
  9
$DIMUPT
 70
     0
  9
$DIMDEC
 70
     2
  9
$DIMTDEC
 70
     2
  9
$DIMALTU
 70
     2
  9
$DIMALTTD
 70
     3
  9
$DIMTXSTY
  7
Standard
  9
$DIMAUNIT
 70
     0
  9
$DIMADEC
 70
     2
  9
$DIMALTRND
 40
0.0
  9
$DIMAZIN
 70
     0
  9
$DIMDSEP
 70
    44
  9
$DIMATFIT
 70
     3
  9
$DIMFRAC
 70
     0
  9
$DIMLDRBLK
  1

  9
$DIMLUNIT
 70
     2
  9
$DIMLWD
 70
    -2
  9
$DIMLWE
 70
    -2
  9
$DIMTMOVE
 70
     0
  9
$LUNITS
 70
     2
  9
$LUPREC
 70
     2
  9
$SKETCHINC
 40
1.0
  9
$FILLETRAD
 40
10.0
  9
$AUNITS
 70
     0
  9
$AUPREC
 70
     2
  9
$MENU
  1
.
  9
$ELEVATION
 40
0.0
  9
$PELEVATION
 40
0.0
  9
$THICKNESS
 40
0.0
  9
$LIMCHECK
 70
     0
  9
$CHAMFERA
 40
0.0
  9
$CHAMFERB
 40
0.0
  9
$CHAMFERC
 40
0.0
  9
$CHAMFERD
 40
0.0
  9
$SKPOLY
 70
     0
  9
$TDCREATE
 40
2458311.468556389
  9
$TDUCREATE
 40
2458311.093556389
  9
$TDUPDATE
 40
2458318.697618623
  9
$TDUUPDATE
 40
2458318.322618623
  9
$TDINDWG
 40
0.0038136458
  9
$TDUSRTIMER
 40
2458318.322508357
  9
$USRTIMER
 70
     1
  9
$ANGBASE
 50
0.0
  9
$ANGDIR
 70
     0
  9
$PDMODE
 70
     0
  9
$PDSIZE
 40
-1.0
  9
$PLINEWID
 40
0.0
  9
$SPLFRAME
 70
     0
  9
$SPLINETYPE
 70
     6
  9
$SPLINESEGS
 70
     8
  9
$HANDSEED
  5
23A
  9
$SURFTAB1
 70
     6
  9
$SURFTAB2
 70
     6
  9
$SURFTYPE
 70
     6
  9
$SURFU
 70
     6
  9
$SURFV
 70
     6
  9
$UCSBASE
  2

  9
$UCSNAME
  2

  9
$UCSORG
 10
0.0
 20
0.0
 30
0.0
  9
$UCSXDIR
 10
1.0
 20
0.0
 30
0.0
  9
$UCSYDIR
 10
0.0
 20
1.0
 30
0.0
  9
$UCSORTHOREF
  2

  9
$UCSORTHOVIEW
 70
     0
  9
$UCSORGTOP
 10
0.0
 20
0.0
 30
0.0
  9
$UCSORGBOTTOM
 10
0.0
 20
0.0
 30
0.0
  9
$UCSORGLEFT
 10
0.0
 20
0.0
 30
0.0
  9
$UCSORGRIGHT
 10
0.0
 20
0.0
 30
0.0
  9
$UCSORGFRONT
 10
0.0
 20
0.0
 30
0.0
  9
$UCSORGBACK
 10
0.0
 20
0.0
 30
0.0
  9
$PUCSBASE
  2

  9
$PUCSNAME
  2

  9
$PUCSORG
 10
0.0
 20
0.0
 30
0.0
  9
$PUCSXDIR
 10
1.0
 20
0.0
 30
0.0
  9
$PUCSYDIR
 10
0.0
 20
1.0
 30
0.0
  9
$PUCSORTHOREF
  2

  9
$PUCSORTHOVIEW
 70
     0
  9
$PUCSORGTOP
 10
0.0
 20
0.0
 30
0.0
  9
$PUCSORGBOTTOM
 10
0.0
 20
0.0
 30
0.0
  9
$PUCSORGLEFT
 10
0.0
 20
0.0
 30
0.0
  9
$PUCSORGRIGHT
 10
0.0
 20
0.0
 30
0.0
  9
$PUCSORGFRONT
 10
0.0
 20
0.0
 30
0.0
  9
$PUCSORGBACK
 10
0.0
 20
0.0
 30
0.0
  9
$USERI1
 70
     0
  9
$USERI2
 70
     0
  9
$USERI3
 70
     0
  9
$USERI4
 70
     0
  9
$USERI5
 70
     0
  9
$USERR1
 40
0.0
  9
$USERR2
 40
0.0
  9
$USERR3
 40
0.0
  9
$USERR4
 40
0.0
  9
$USERR5
 40
0.0
  9
$WORLDVIEW
 70
     1
  9
$SHADEDGE
 70
     3
  9
$SHADEDIF
 70
    70
  9
$TILEMODE
 70
     1
  9
$MAXACTVP
 70
    64
  9
$PINSBASE
 10
0.0
 20
0.0
 30
0.0
  9
$PLIMCHECK
 70
     0
  9
$PEXTMIN
 10
1.000000000000000E+20
 20
1.000000000000000E+20
 30
1.000000000000000E+20
  9
$PEXTMAX
 10
-1.000000000000000E+20
 20
-1.000000000000000E+20
 30
-1.000000000000000E+20
  9
$PLIMMIN
 10
0.0
 20
0.0
  9
$PLIMMAX
 10
0.0
 20
0.0
  9
$UNITMODE
 70
     0
  9
$VISRETAIN
 70
     1
  9
$PLINEGEN
 70
     0
  9
$PSLTSCALE
 70
     1
  9
$TREEDEPTH
 70
  3020
  9
$CMLSTYLE
  2
Standard
  9
$CMLJUST
 70
     0
  9
$CMLSCALE
 40
20.0
  9
$PROXYGRAPHICS
 70
     1
  9
$MEASUREMENT
 70
     1
  9
$CELWEIGHT
370
    -1
  9
$ENDCAPS
280
     0
  9
$JOINSTYLE
280
     0
  9
$LWDISPLAY
290
     1
  9
$INSUNITS
 70
     4
  9
$HYPERLINKBASE
  1

  9
$STYLESHEET
  1

  9
$XEDIT
290
     1
  9
$CEPSNTYPE
380
     0
  9
$PSTYLEMODE
290
     1
  9
$FINGERPRINTGUID
  2
{FE35C3A1-39FC-4AA8-BC18-BA2FFFAC9E16}
  9
$VERSIONGUID
  2
{FAEB1C32-E019-11D5-929B-00C0DF256EC4}
  9
$EXTNAMES
290
     1
  9
$PSVPSCALE
 40
0.0
  9
$OLESTARTUP
290
     0
  0
ENDSEC
  0
SECTION
  2
CLASSES
  0
CLASS
  1
ACDBDICTIONARYWDFLT
  2
AcDbDictionaryWithDefault
  3
ObjectDBX Classes
 90
        0
280
     0
281
     0
  0
CLASS
  1
VISUALSTYLE
  2
AcDbVisualStyle
  3
ObjectDBX Classes
 90
     4095
280
     0
281
     0
  0
CLASS
  1
MATERIAL
  2
AcDbMaterial
  3
ObjectDBX Classes
 90
     1153
280
     0
281
     0
  0
CLASS
  1
SCALE
  2
AcDbScale
  3
ObjectDBX Classes
 90
     1153
280
     0
281
     0
  0
CLASS
  1
SUN
  2
AcDbSun
  3
SCENEOE
 90
     1153
280
     0
281
     0
  0
CLASS
  1
ACDBPLACEHOLDER
  2
AcDbPlaceHolder
  3
ObjectDBX Classes
 90
        0
280
     0
281
     0
  0
CLASS
  1
LAYOUT
  2
AcDbLayout
  3
ObjectDBX Classes
 90
        0
280
     0
281
     0
  0
CLASS
  1
TABLESTYLE
  2
AcDbTableStyle
  3
ObjectDBX Classes
 90
     4095
280
     0
281
     0
  0
CLASS
  1
MLEADERSTYLE
  2
AcDbMLeaderStyle
  3
ACDB_MLEADERSTYLE_CLASS
 90
     4095
280
     0
281
     0
  0
CLASS
  1
RASTERVARIABLES
  2
AcDbRasterVariables
  3
ISM
 90
        0
280
     0
281
     0
  0
ENDSEC
  0
SECTION
  2
TABLES
  0
TABLE
  2
VPORT
  5
8
330
0
100
AcDbSymbolTable
 70
     1
  0
VPORT
  5
29
330
8
100
AcDbSymbolTableRecord
100
AcDbViewportTableRecord
  2
*Active
 70
     0
 10
0.0
 20
0.0
 11
1.0
 21
1.0
 12
-10.64307568957513
 22
-45.41091661512669
 13
0.0
 23
0.0
 14
10.0
 24
10.0
 15
10.0
 25
10.0
 16
0.0
 26
0.0
 36
1.0
 17
0.0
 27
0.0
 37
0.0
 40
183.7354793995164
 41
1.740812379110251
 42
50.0
 43
0.0
 44
0.0
 50
0.0
 51
0.0
 71
    16
 72
  2000
 73
     1
 74
     3
 75
     0
 76
     0
 77
     0
 78
     0
281
     0
 65
     1
110
0.0
120
0.0
130
0.0
111
1.0
121
0.0
131
0.0
112
0.0
122
1.0
132
0.0
 79
     0
146
0.0
  0
ENDTAB
  0
TABLE
  2
LTYPE
  5
5
330
0
100
AcDbSymbolTable
 70
     6
  0
LTYPE
  5
14
330
5
100
AcDbSymbolTableRecord
100
AcDbLinetypeTableRecord
  2
ByBlock
 70
     0
  3

 72
    65
 73
     0
 40
0.0
  0
LTYPE
  5
15
330
5
100
AcDbSymbolTableRecord
100
AcDbLinetypeTableRecord
  2
ByLayer
 70
     0
  3

 72
    65
 73
     0
 40
0.0
  0
LTYPE
  5
16
330
5
100
AcDbSymbolTableRecord
100
AcDbLinetypeTableRecord
  2
Continuous
 70
     0
  3
Solid line
 72
    65
 73
     0
 40
0.0
  0
LTYPE
  5
6A
330
5
100
AcDbSymbolTableRecord
100
AcDbLinetypeTableRecord
  2
HIDDEN
 70
     0
  3
Hidden __ __ __ __ __ __ __ __ __ __ __ __ __ __
 72
    65
 73
     2
 40
1.905
 49
1.27
 74
     0
 49
-0.635
 74
     0
  0
LTYPE
  5
6B
330
5
100
AcDbSymbolTableRecord
100
AcDbLinetypeTableRecord
  2
PHANTOM
 70
     0
  3
Phantom ______  __  __  ______  __  __  ______
 72
    65
 73
     6
 40
12.7
 49
6.35
 74
     0
 49
-1.27
 74
     0
 49
1.27
 74
     0
 49
-1.27
 74
     0
 49
1.27
 74
     0
 49
-1.27
 74
     0
  0
LTYPE
  5
6C
330
5
100
AcDbSymbolTableRecord
100
AcDbLinetypeTableRecord
  2
CENTER
 70
     0
  3
Center ____ _ ____ _ ____ _ ____ _ ____ _ ____
 72
    65
 73
     4
 40
10.16
 49
6.35
 74
     0
 49
-1.27
 74
     0
 49
1.27
 74
     0
 49
-1.27
 74
     0
  0
LTYPE
  5
6D
330
5
100
AcDbSymbolTableRecord
100
AcDbLinetypeTableRecord
  2
CENTERX2
 70
     0
  3
Center (2x) ________  __  ________  __  _____
 72
    65
 73
     4
 40
20.32
 49
12.7
 74
     0
 49
-2.54
 74
     0
 49
2.54
 74
     0
 49
-2.54
 74
     0
  0
LTYPE
  5
6E
330
5
100
AcDbSymbolTableRecord
100
AcDbLinetypeTableRecord
  2
DOT2
 70
     0
  3
Dot (.5x) ........................................
 72
    65
 73
     2
 40
0.635
 49
0.0
 74
     0
 49
-0.635
 74
     0
  0
ENDTAB
  0
TABLE
  2
LAYER
  5
2
102
{ACAD_XDICTIONARY
360
190
102
}
330
0
100
AcDbSymbolTable
 70
    18
  0
LAYER
  5
10
330
2
100
AcDbSymbolTableRecord
100
AcDbLayerTableRecord
  2
0
 70
     0
 62
     7
  6
Continuous
370
    -3
390
F
  0
LAYER
  5
6F
330
2
100
AcDbSymbolTableRecord
100
AcDbLayerTableRecord
  2
FORMAT
 70
     0
 62
     2
  6
Continuous
370
    -3
390
F
  0
LAYER
  5
70
330
2
100
AcDbSymbolTableRecord
100
AcDbLayerTableRecord
  2
외형선
 70
     0
 62
     4
  6
Continuous
370
    30
390
F
  0
LAYER
  5
71
330
2
100
AcDbSymbolTableRecord
100
AcDbLayerTableRecord
  2
숨은선
 70
     0
 62
     2
  6
HIDDEN
370
    15
390
F
  0
LAYER
  5
72
330
2
100
AcDbSymbolTableRecord
100
AcDbLayerTableRecord
  2
중심선
 70
     0
 62
     1
  6
CENTERX2
370
    -3
390
F
  0
LAYER
  5
73
330
2
100
AcDbSymbolTableRecord
100
AcDbLayerTableRecord
  2
파단선
 70
     0
 62
     4
  6
Continuous
370
    -3
390
F
  0
LAYER
  5
74
330
2
100
AcDbSymbolTableRecord
100
AcDbLayerTableRecord
  2
해칭선
 70
     0
 62
   100
  6
Continuous
370
    -3
390
F
  0
LAYER
  5
75
330
2
100
AcDbSymbolTableRecord
100
AcDbLayerTableRecord
  2
가는실선
 70
     0
 62
     4
  6
Continuous
370
    -3
390
F
  0
LAYER
  5
76
330
2
100
AcDbSymbolTableRecord
100
AcDbLayerTableRecord
  2
치수_보조선
 70
     0
 62
     4
  6
Continuous
370
    -3
390
F
  0
LAYER
  5
77
330
2
100
AcDbSymbolTableRecord
100
AcDbLayerTableRecord
  2
치수문자_일반주서
 70
     0
 62
     7
  6
Continuous
370
    15
390
F
  0
LAYER
  5
78
330
2
100
AcDbSymbolTableRecord
100
AcDbLayerTableRecord
  2
개별주서
 70
     0
 62
   100
  6
Continuous
370
    30
390
F
  0
LAYER
  5
79
330
2
100
AcDbSymbolTableRecord
100
AcDbLayerTableRecord
  2
중간선
 70
     0
 62
     2
  6
Continuous
370
    15
390
F
  0
LAYER
  5
7A
330
2
100
AcDbSymbolTableRecord
100
AcDbLayerTableRecord
  2
윤곽선
 70
     0
 62
     3
  6
Continuous
370
    40
390
F
  0
LAYER
  5
7B
330
2
100
AcDbSymbolTableRecord
100
AcDbLayerTableRecord
  2
중심마크
 70
     0
 62
   100
  6
Continuous
370
    30
390
F
  0
LAYER
  5
7C
330
2
100
AcDbSymbolTableRecord
100
AcDbLayerTableRecord
  2
가상선
 70
     0
 62
     4
  6
PHANTOM
370
    -3
390
F
  0
LAYER
  5
7D
330
2
100
AcDbSymbolTableRecord
100
AcDbLayerTableRecord
  2
특수지정선
 70
     0
 62
     5
  6
CENTERX2
370
    60
390
F
  0
LAYER
  5
7E
330
2
100
AcDbSymbolTableRecord
100
AcDbLayerTableRecord
  2
참조1
 70
     0
 62
    -4
  6
Continuous
370
    -3
390
F
  0
LAYER
  5
197
330
2
100
AcDbSymbolTableRecord
100
AcDbLayerTableRecord
  2
Defpoints
 70
     0
 62
     7
  6
Continuous
290
     0
370
    -3
390
F
  0
ENDTAB
  0
TABLE
  2
STYLE
  5
3
330
0
100
AcDbSymbolTable
 70
     2
  0
STYLE
  5
11
330
3
100
AcDbSymbolTableRecord
100
AcDbTextStyleTableRecord
  2
Standard
 70
     0
 40
0.0
 41
1.0
 50
0.0
 71
     0
 42
3.5
  3
txt
  4

  0
STYLE
  5
94
330
3
100
AcDbSymbolTableRecord
100
AcDbTextStyleTableRecord
  2
SLDTEXTSTYLE0
 70
     0
 40
0.0
 41
0.75
 50
0.0
 71
     0
 42
3.5
  3
TXT
  4

  0
ENDTAB
  0
TABLE
  2
VIEW
  5
6
330
0
100
AcDbSymbolTable
 70
     0
  0
ENDTAB
  0
TABLE
  2
UCS
  5
7
330
0
100
AcDbSymbolTable
 70
     0
  0
ENDTAB
  0
TABLE
  2
APPID
  5
9
330
0
100
AcDbSymbolTable
 70
     1
  0
APPID
  5
12
330
9
100
AcDbSymbolTableRecord
100
AcDbRegAppTableRecord
  2
ACAD
 70
     0
  0
ENDTAB
  0
TABLE
  2
DIMSTYLE
  5
A
330
0
100
AcDbSymbolTable
 70
     4
100
AcDbDimStyleTable
  0
DIMSTYLE
105
27
330
A
100
AcDbSymbolTableRecord
100
AcDbDimStyleTableRecord
  2
ISO-25
 70
     0
 41
2.5
 42
0.625
 43
3.75
 44
1.25
 73
     0
 74
     0
 77
     1
 78
     8
140
2.5
141
2.5
143
0.03937007874016
147
0.625
171
     3
172
     1
178
     0
271
     2
272
     2
274
     3
278
    44
283
     0
284
     8
340
11
  0
DIMSTYLE
105
E8
102
{ACAD_REACTORS
330
E7
330
FC
330
111
330
125
102
}
330
A
100
AcDbSymbolTableRecord
100
AcDbDimStyleTableRecord
  2
SLDDIMSTYLE0
 70
     0
 41
3.302
 44
0.0
 45
0.000000001
 73
     0
 74
     0
 77
     1
 78
    12
 79
     3
140
3.5
143
0.0393700787401575
147
0.875
148
0.000000001
170
     1
172
     1
173
     1
178
     0
271
     2
272
     2
276
     2
284
    12
289
     0
340
94
  0
DIMSTYLE
105
FD
330
A
100
AcDbSymbolTableRecord
100
AcDbDimStyleTableRecord
  2
SLDDIMSTYLE1
 70
     0
 41
3.302
 44
0.0
 45
0.000000001
 73
     0
 74
     0
 77
     1
 78
     4
 79
     1
140
3.5
143
0.0393700787401575
147
0.875
148
0.000000001
170
     1
173
     1
178
     0
271
     2
272
     2
276
     2
284
    12
340
94
  0
DIMSTYLE
105
112
330
A
100
AcDbSymbolTableRecord
100
AcDbDimStyleTableRecord
  2
SLDDIMSTYLE2
 70
     0
 41
3.302
 44
0.0
 45
0.000000001
 73
     0
 74
     0
 77
     1
 78
    12
 79
     3
140
3.5
143
0.0393700787401575
147
0.875
148
0.000000001
170
     1
173
     1
178
     0
271
     2
272
     2
276
     2
284
    12
340
94
  0
ENDTAB
  0
TABLE
  2
BLOCK_RECORD
  5
1
330
0
100
AcDbSymbolTable
 70
     8
  0
BLOCK_RECORD
  5
1F
330
1
100
AcDbSymbolTableRecord
100
AcDbBlockTableRecord
  2
*Model_Space
340
22
  0
BLOCK_RECORD
  5
1B
330
1
100
AcDbSymbolTableRecord
100
AcDbBlockTableRecord
  2
*Paper_Space
340
1E
  0
BLOCK_RECORD
  5
23
330
1
100
AcDbSymbolTableRecord
100
AcDbBlockTableRecord
  2
*Paper_Space0
340
26
  0
BLOCK_RECORD
  5
7F
330
1
100
AcDbSymbolTableRecord
100
AcDbBlockTableRecord
  2
블럭10
340
0
102
{BLKREFS
331
E0
102
}
  0
BLOCK_RECORD
  5
E9
330
1
100
AcDbSymbolTableRecord
100
AcDbBlockTableRecord
  2
_D
340
0
  0
BLOCK_RECORD
  5
FE
330
1
100
AcDbSymbolTableRecord
100
AcDbBlockTableRecord
  2
_D_1
340
0
  0
BLOCK_RECORD
  5
113
330
1
100
AcDbSymbolTableRecord
100
AcDbBlockTableRecord
  2
_D_2
340
0
  0
BLOCK_RECORD
  5
126
330
1
100
AcDbSymbolTableRecord
100
AcDbBlockTableRecord
  2
_D_3
340
0
  0
BLOCK_RECORD
  5
13F
330
1
100
AcDbSymbolTableRecord
100
AcDbBlockTableRecord
  2
SW_DOWELSYMBOL_0
340
0
102
{BLKREFS
331
145
102
}
  0
ENDTAB
  0
ENDSEC
  0
SECTION
  2
BLOCKS
  0
BLOCK
  5
20
330
1F
100
AcDbEntity
  8
0
100
AcDbBlockBegin
  2
*Model_Space
 70
     0
 10
0.0
 20
0.0
 30
0.0
  3
*Model_Space
  1
*Model_Space
  0
ENDBLK
  5
21
330
1F
100
AcDbEntity
  8
0
100
AcDbBlockEnd
  0
BLOCK
  5
1C
330
1B
100
AcDbEntity
 67
     1
  8
0
100
AcDbBlockBegin
  2
*Paper_Space
 70
     0
 10
0.0
 20
0.0
 30
0.0
  3
*Paper_Space
  1
*Paper_Space
  0
ENDBLK
  5
1D
330
1B
100
AcDbEntity
 67
     1
  8
0
100
AcDbBlockEnd
  0
BLOCK
  5
24
330
23
100
AcDbEntity
  8
0
100
AcDbBlockBegin
  2
*Paper_Space0
 70
     0
 10
0.0
 20
0.0
 30
0.0
  3
*Paper_Space0
  1
*Paper_Space0
  0
ENDBLK
  5
25
330
23
100
AcDbEntity
  8
0
100
AcDbBlockEnd
  0
BLOCK
  5
80
330
7F
100
AcDbEntity
  8
0
100
AcDbBlockBegin
  2
블럭10
 70
     2
 10
0.0
 20
0.0
 30
0.0
  3
블럭10
  1
블럭10
  0
ELLIPSE
  5
82
330
7F
100
AcDbEntity
  8
중심선
100
AcDbEllipse
 10
20.54032771741204
 20
12.0471743016438
 30
0.0
 11
6.600054785286829
 21
-1.261213355974178E-13
 31
0.0
210
0.0
220
0.0
230
1.0
 40
0.636358354079598
 41
0.9219305317359503
 42
6.513795318482858
  0
ELLIPSE
  5
83
330
7F
100
AcDbEntity
  8
중심선
100
AcDbEllipse
 10
20.54032771746488
 20
12.04717430159265
 30
0.0
 11
3.960054785062283
 21
1.540847449632565E-10
 31
0.0
210
0.0
220
0.0
230
1.0
 40
0.3939339440162632
 41
1.131841032648279
 42
5.62031148352944
  0
LINE
  5
84
330
7F
100
AcDbEntity
  8
중심선
100
AcDbLine
 10
2.268634060543552
 20
16.24717430164393
 30
0.0
 11
5.714909304380834
 21
16.24717430164393
 31
0.0
  0
LINE
  5
85
330
7F
100
AcDbEntity
  8
중심선
100
AcDbLine
 10
5.245725140726316
 20
7.84717430164391
 30
0.0
 11
8.692000384563599
 21
7.84717430164391
 31
0.0
  0
LINE
  5
86
330
7F
100
AcDbEntity
  8
중심선
100
AcDbLine
 10
15.74043728645272
 20
16.24717430164393
 30
0.0
 11
8.692000384563599
 21
7.84717430164391
 31
0.0
  0
LINE
  5
87
330
7F
100
AcDbEntity
  8
중심선
100
AcDbLine
 10
0.1404042013395286
 20
13.71084872107135
 30
0.0
 11
3.58671253028996
 21
13.71088815037384
 31
0.0
  0
LINE
  5
88
330
7F
100
AcDbEntity
  8
중심선
100
AcDbLine
 10
2.750260043222114
 20
10.84717430164391
 30
0.0
 11
6.196535287059397
 21
10.84717430164391
 31
0.0
  0
LINE
  5
89
330
7F
100
AcDbEntity
  8
중심선
100
AcDbLine
 10
12.29416204261559
 20
16.24717430164393
 30
0.0
 11
5.245725140726316
 21
7.84717430164391
 31
0.0
  0
LINE
  5
8A
330
7F
100
AcDbEntity
  8
중심선
100
AcDbLine
 10
10.72767329541681
 20
16.24717430164393
 30
0.0
 11
6.196535287059397
 21
10.84717430164391
 31
0.0
  0
LINE
  5
8B
330
7F
100
AcDbEntity
  8
중심선
100
AcDbLine
 10
7.28139805157953
 20
16.24717430164393
 30
0.0
 11
2.750260043222114
 21
10.84717430164391
 31
0.0
  0
LINE
  5
8C
330
7F
100
AcDbEntity
  8
중심선
100
AcDbLine
 10
5.714909304380834
 20
16.24717430164393
 30
0.0
 11
3.58671253028996
 21
13.71088815037384
 31
0.0
  0
LINE
  5
8D
330
7F
100
AcDbEntity
  8
중심선
100
AcDbLine
 10
2.268634060543552
 20
16.24717430164393
 30
0.0
 11
0.1404042013395286
 21
13.71084872107135
 31
0.0
  0
LINE
  5
8E
330
7F
100
AcDbEntity
  8
중심선
100
AcDbLine
 10
7.28139805157953
 20
16.24717430164393
 30
0.0
 11
10.72767329541681
 21
16.24717430164393
 31
0.0
  0
LINE
  5
8F
330
7F
100
AcDbEntity
  8
중심선
100
AcDbLine
 10
12.29416204261559
 20
16.24717430164393
 30
0.0
 11
15.74043728645272
 21
16.24717430164393
 31
0.0
  0
LINE
  5
90
330
7F
100
AcDbEntity
  8
중심선
100
AcDbLine
 10
19.22036997980202
 20
11.08717430171403
 30
0.0
 11
23.66174974927406
 21
11.08717430171406
 31
0.0
  0
LINE
  5
91
330
7F
100
AcDbEntity
  8
중심선
100
AcDbLine
 10
19.22039502424796
 20
13.00717430171391
 30
0.0
 11
19.22036997980202
 21
11.08717430171403
 31
0.0
  0
LINE
  5
92
330
7F
100
AcDbEntity
  8
중심선
100
AcDbLine
 10
19.22039502424796
 20
13.00717430171391
 30
0.0
 11
26.96566020931264
 21
13.00717430171391
 31
0.0
  0
LINE
  5
93
330
7F
100
AcDbEntity
  8
중심선
100
AcDbLine
 10
22.22332737316547
 20
13.45928029700563
 30
0.0
 11
24.52862924686651
 21
15.39360700705356
 31
0.0
  0
ATTDEF
  5
95
330
7F
100
AcDbEntity
  8
FORMAT
 62
     2
100
AcDbText
 10
4.408487351596664
 20
2.075366912832191
 30
0.0
 40
4.233333333333333
  1
E1072040
 41
0.75
  7
SLDTEXTSTYLE0
 11
4.408487351596664
 21
-0.0412997538344756
 31
0.0
100
AcDbAttributeDefinition
  3

  2
AUTOATTR0
 70
     0
 74
     1
  0
ENDBLK
  5
81
330
7F
100
AcDbEntity
  8
0
100
AcDbBlockEnd
  0
BLOCK
  5
EA
330
E9
100
AcDbEntity
  8
0
100
AcDbBlockBegin
  2
_D
 70
     0
 10
0.0
 20
0.0
 30
0.0
  3
_D
  1
_D
  0
LINE
  5
EC
330
E9
100
AcDbEntity
  8
치수문자_일반주서
 62
     0
370
    -2
100
AcDbLine
 10
-41.03749999999998
 20
7.937499999999985
 30
0.0
 11
-54.47500000000002
 21
7.937499999999934
 31
0.0
  0
LINE
  5
ED
330
E9
100
AcDbEntity
  8
치수문자_일반주서
 62
     0
370
    -2
100
AcDbLine
 10
-41.03749999999998
 20
-7.937500000000015
 30
0.0
 11
-54.47499999999996
 21
-7.937500000000066
 31
0.0
  0
LINE
  5
EE
330
E9
100
AcDbEntity
  8
치수문자_일반주서
 62
     0
370
    -2
100
AcDbLine
 10
-54.475
 20
4.635499999999935
 30
0.0
 11
-54.47499999999997
 21
-4.635500000000066
 31
0.0
  0
SOLID
  5
EF
330
E9
100
AcDbEntity
  8
치수문자_일반주서
 62
     0
100
AcDbTrace
 10
-53.92466666666667
 20
4.635499999999936
 30
0.0
 11
-55.02533333333334
 21
4.635499999999933
 31
0.0
 12
-54.47500000000002
 22
7.937499999999934
 32
0.0
 13
-54.47500000000002
 23
7.937499999999934
 33
0.0
  0
SOLID
  5
F0
330
E9
100
AcDbEntity
  8
치수문자_일반주서
 62
     0
100
AcDbTrace
 10
-55.02533333333331
 20
-4.635500000000068
 30
0.0
 11
-53.92466666666664
 21
-4.635500000000064
 31
0.0
 12
-54.47499999999996
 22
-7.937500000000066
 32
0.0
 13
-54.47499999999996
 23
-7.937500000000066
 33
0.0
  0
MTEXT
  5
F1
330
E9
100
AcDbEntity
  8
치수문자_일반주서
 62
     0
100
AcDbMText
 10
-58.84999999999999
 20
-0.0000000000000236
 30
0.0
 40
3.5
 41
0.0
 71
     2
 72
     1
  1
\A1;%%c15.88 [5/8]
  7
SLDTEXTSTYLE0
 11
-3.580687802255623E-15
 21
1.0
 31
0.0
 73
     1
 44
1.0
  0
POINT
  5
F2
330
E9
100
AcDbEntity
  8
Defpoints
 62
     0
100
AcDbPoint
 10
-40.97499999999998
 20
7.937499999999985
 30
0.0
  0
POINT
  5
F3
330
E9
100
AcDbEntity
  8
Defpoints
 62
     0
100
AcDbPoint
 10
-40.97499999999998
 20
-7.937500000000015
 30
0.0
  0
POINT
  5
F4
330
E9
100
AcDbEntity
  8
Defpoints
 62
     0
100
AcDbPoint
 10
-54.47499999999997
 20
-7.937500000000066
 30
0.0
  0
ENDBLK
  5
EB
330
E9
100
AcDbEntity
  8
0
100
AcDbBlockEnd
  0
BLOCK
  5
FF
330
FE
100
AcDbEntity
  8
0
100
AcDbBlockBegin
  2
_D_1
 70
     0
 10
0.0
 20
0.0
 30
0.0
  3
_D_1
  1
_D_1
  0
LINE
  5
101
330
FE
100
AcDbEntity
  8
치수문자_일반주서
 62
     0
370
    -2
100
AcDbLine
 10
113.5999999999994
 20
8.000000000000014
 30
0.0
 11
113.5999999999994
 21
21.10713307670824
 31
0.0
  0
LINE
  5
102
330
FE
100
AcDbEntity
  8
치수문자_일반주서
 62
     0
370
    -2
100
AcDbLine
 10
12.00000000000002
 20
5.74128707674539
 30
0.0
 11
12.00000000000003
 21
21.10713307670824
 31
0.0
  0
LINE
  5
103
330
FE
100
AcDbEntity
  8
치수문자_일반주서
 62
     0
370
    -2
100
AcDbLine
 10
110.2979999999994
 20
21.10713307670824
 30
0.0
 11
15.30200000000003
 21
21.10713307670824
 31
0.0
  0
SOLID
  5
104
330
FE
100
AcDbEntity
  8
치수문자_일반주서
 62
     0
100
AcDbTrace
 10
110.2979999999994
 20
20.55679974337491
 30
0.0
 11
110.2979999999994
 21
21.65746641004158
 31
0.0
 12
113.5999999999994
 22
21.10713307670824
 32
0.0
 13
113.5999999999994
 23
21.10713307670824
 33
0.0
  0
SOLID
  5
105
330
FE
100
AcDbEntity
  8
치수문자_일반주서
 62
     0
100
AcDbTrace
 10
15.30200000000003
 20
21.65746641004158
 30
0.0
 11
15.30200000000003
 21
20.55679974337491
 31
0.0
 12
12.00000000000003
 22
21.10713307670824
 32
0.0
 13
12.00000000000003
 23
21.10713307670824
 33
0.0
  0
MTEXT
  5
106
330
FE
100
AcDbEntity
  8
치수문자_일반주서
 62
     0
100
AcDbMText
 10
62.8
 20
25.48213307670824
 30
0.0
 40
3.5
 41
0.0
 71
     2
 72
     1
  1
\A1;101.6 [4]
  7
SLDTEXTSTYLE0
 73
     1
 44
1.0
  0
POINT
  5
107
330
FE
100
AcDbEntity
  8
Defpoints
 62
     0
100
AcDbPoint
 10
113.5999999999994
 20
7.937500000000014
 30
0.0
  0
POINT
  5
108
330
FE
100
AcDbEntity
  8
Defpoints
 62
     0
100
AcDbPoint
 10
12.00000000000002
 20
5.67878707674539
 30
0.0
  0
POINT
  5
109
330
FE
100
AcDbEntity
  8
Defpoints
 62
     0
100
AcDbPoint
 10
12.00000000000002
 20
21.10713307670824
 30
0.0
  0
ENDBLK
  5
100
330
FE
100
AcDbEntity
  8
0
100
AcDbBlockEnd
  0
BLOCK
  5
114
330
113
100
AcDbEntity
  8
0
100
AcDbBlockBegin
  2
_D_2
 70
     0
 10
0.0
 20
0.0
 30
0.0
  3
_D_2
  1
_D_2
  0
LINE
  5
116
330
113
100
AcDbEntity
  8
치수문자_일반주서
 62
     0
370
    -2
100
AcDbLine
 10
113.5999999999994
 20
8.000000000000014
 30
0.0
 11
113.5999999999994
 21
38.05774771491232
 31
0.0
  0
LINE
  5
117
330
113
100
AcDbEntity
  8
치수문자_일반주서
 62
     0
370
    -2
100
AcDbLine
 10
-41.97499999999997
 20
6.999999999999989
 30
0.0
 11
-41.97499999999997
 21
38.05774771491232
 31
0.0
  0
LINE
  5
118
330
113
100
AcDbEntity
  8
치수문자_일반주서
 62
     0
370
    -2
100
AcDbLine
 10
110.2979999999994
 20
38.05774771491232
 30
0.0
 11
-38.67299999999997
 21
38.05774771491232
 31
0.0
  0
SOLID
  5
119
330
113
100
AcDbEntity
  8
치수문자_일반주서
 62
     0
100
AcDbTrace
 10
110.2979999999994
 20
37.50741438157898
 30
0.0
 11
110.2979999999994
 21
38.60808104824565
 31
0.0
 12
113.5999999999994
 22
38.05774771491232
 32
0.0
 13
113.5999999999994
 23
38.05774771491232
 33
0.0
  0
SOLID
  5
11A
330
113
100
AcDbEntity
  8
치수문자_일반주서
 62
     0
100
AcDbTrace
 10
-38.67299999999997
 20
38.60808104824565
 30
0.0
 11
-38.67299999999997
 21
37.50741438157898
 31
0.0
 12
-41.97499999999997
 22
38.05774771491232
 32
0.0
 13
-41.97499999999997
 23
38.05774771491232
 33
0.0
  0
MTEXT
  5
11B
330
113
100
AcDbEntity
  8
치수문자_일반주서
 62
     0
100
AcDbMText
 10
35.81250000000001
 20
42.43274771491232
 30
0.0
 40
3.5
 41
0.0
 71
     2
 72
     1
  1
\A1;155.58 [6 1/8]
  7
SLDTEXTSTYLE0
 73
     1
 44
1.0
  0
POINT
  5
11C
330
113
100
AcDbEntity
  8
Defpoints
 62
     0
100
AcDbPoint
 10
113.5999999999994
 20
7.937500000000014
 30
0.0
  0
POINT
  5
11D
330
113
100
AcDbEntity
  8
Defpoints
 62
     0
100
AcDbPoint
 10
-41.97499999999997
 20
6.937499999999989
 30
0.0
  0
POINT
  5
11E
330
113
100
AcDbEntity
  8
Defpoints
 62
     0
100
AcDbPoint
 10
-41.97499999999997
 20
38.05774771491232
 30
0.0
  0
ENDBLK
  5
115
330
113
100
AcDbEntity
  8
0
100
AcDbBlockEnd
  0
BLOCK
  5
127
330
126
100
AcDbEntity
  8
0
100
AcDbBlockBegin
  2
_D_3
 70
     0
 10
0.0
 20
0.0
 30
0.0
  3
_D_3
  1
_D_3
  0
LINE
  5
129
330
126
100
AcDbEntity
  8
치수문자_일반주서
 62
     0
370
    -2
100
AcDbLine
 10
113.6625
 20
-7.937499999999986
 30
0.0
 11
124.5970741900417
 21
-7.937499999999947
 31
0.0
  0
LINE
  5
12A
330
126
100
AcDbEntity
  8
치수문자_일반주서
 62
     0
370
    -2
100
AcDbLine
 10
113.6624999999994
 20
7.937500000000014
 30
0.0
 11
124.5970741900417
 21
7.937500000000057
 31
0.0
  0
LINE
  5
12B
330
126
100
AcDbEntity
  8
치수문자_일반주서
 62
     0
370
    -2
100
AcDbLine
 10
124.5970741900417
 20
7.937500000000057
 30
0.0
 11
124.5970741900415
 21
42.75354134588535
 31
0.0
  0
LINE
  5
12C
330
126
100
AcDbEntity
  8
치수문자_일반주서
 62
     0
370
    -2
100
AcDbLine
 10
124.5970741900417
 20
-7.937499999999947
 30
0.0
 11
124.5970741900417
 21
7.937500000000057
 31
0.0
  0
LINE
  5
12D
330
126
100
AcDbEntity
  8
치수문자_일반주서
 62
     0
370
    -2
100
AcDbLine
 10
124.5970741900417
 20
-11.23949999999995
 30
0.0
 11
124.5970741900418
 21
-14.54149999999995
 31
0.0
  0
LINE
  5
12E
330
126
100
AcDbEntity
  8
치수문자_일반주서
 62
     0
370
    -2
100
AcDbLine
 10
124.5970741900417
 20
11.23950000000006
 30
0.0
 11
124.5970741900416
 21
14.54150000000006
 31
0.0
  0
SOLID
  5
12F
330
126
100
AcDbEntity
  8
치수문자_일반주서
 62
     0
100
AcDbTrace
 10
125.1474075233751
 20
-11.23949999999994
 30
0.0
 11
124.0467408567084
 21
-11.23949999999995
 31
0.0
 12
124.5970741900417
 22
-7.937499999999947
 32
0.0
 13
124.5970741900417
 23
-7.937499999999947
 33
0.0
  0
SOLID
  5
130
330
126
100
AcDbEntity
  8
치수문자_일반주서
 62
     0
100
AcDbTrace
 10
124.0467408567083
 20
11.23950000000005
 30
0.0
 11
125.147407523375
 21
11.23950000000006
 31
0.0
 12
124.5970741900417
 22
7.937500000000057
 32
0.0
 13
124.5970741900417
 23
7.937500000000057
 33
0.0
  0
MTEXT
  5
131
330
126
100
AcDbEntity
  8
치수문자_일반주서
 62
     0
100
AcDbMText
 10
120.2220741900416
 20
28.75354134588533
 30
0.0
 40
3.5
 41
0.0
 71
     2
 72
     1
  1
\A1;%%c15.88 [5/8]
  7
SLDTEXTSTYLE0
 11
-3.580687802255623E-15
 21
1.0
 31
0.0
 73
     1
 44
1.0
  0
POINT
  5
132
330
126
100
AcDbEntity
  8
Defpoints
 62
     0
100
AcDbPoint
 10
113.6
 20
-7.937499999999986
 30
0.0
  0
POINT
  5
19A
330
126
100
AcDbEntity
  8
Defpoints
 62
     0
100
AcDbPoint
 10
113.5999999999994
 20
7.937500000000014
 30
0.0
  0
POINT
  5
19B
330
126
100
AcDbEntity
  8
Defpoints
 62
     0
100
AcDbPoint
 10
124.5970741900416
 20
7.937500000000055
 30
0.0
  0
ENDBLK
  5
128
330
126
100
AcDbEntity
  8
0
100
AcDbBlockEnd
  0
BLOCK
  5
140
330
13F
100
AcDbEntity
  8
0
100
AcDbBlockBegin
  2
SW_DOWELSYMBOL_0
 70
     0
 10
0.0
 20
0.0
 30
0.0
  3
SW_DOWELSYMBOL_0
  1
SW_DOWELSYMBOL_0
  0
CIRCLE
  5
142
330
13F
100
AcDbEntity
  8
해칭선
 62
     0
100
AcDbCircle
 10
0.0
 20
0.0
 30
0.0
 40
2.999999999999996
  0
HATCH
  5
143
330
13F
100
AcDbEntity
  8
0
  6
Continuous
 62
     0
370
     0
100
AcDbHatch
 10
0.0
 20
0.0
 30
0.0
210
0.0
220
0.0
230
1.0
  2
SOLID
 70
     1
 71
     0
 91
        1
 92
        0
 93
        3
 72
     2
 10
0.0
 20
0.0
 40
2.999999999999996
 50
0.0
 51
90.0
 73
     1
 72
     1
 10
0.0
 20
2.999999999999996
 11
0.0
 21
0.0
 72
     1
 10
0.0
 20
0.0
 11
2.999999999999996
 21
0.0
 97
        0
 75
     0
 76
     1
 98
        1
 10
0.0
 20
0.0
  0
HATCH
  5
144
330
13F
100
AcDbEntity
  8
0
  6
Continuous
 62
     0
370
     0
100
AcDbHatch
 10
0.0
 20
0.0
 30
0.0
210
0.0
220
0.0
230
1.0
  2
SOLID
 70
     1
 71
     0
 91
        1
 92
        0
 93
        3
 72
     2
 10
0.0
 20
0.0
 40
2.999999999999996
 50
180.0
 51
270.0000000000007
 73
     1
 72
     1
 10
0.0
 20
-2.999999999999996
 11
0.0
 21
0.0
 72
     1
 10
0.0
 20
0.0
 11
-2.999999999999996
 21
0.0
 97
        0
 75
     0
 76
     1
 98
        1
 10
0.0
 20
0.0
  0
ENDBLK
  5
141
330
13F
100
AcDbEntity
  8
0
100
AcDbBlockEnd
  0
ENDSEC
  0
SECTION
  2
ENTITIES
  0
LINE
  5
96
330
1F
100
AcDbEntity
  8
외형선
  6
Continuous
370
    15
100
AcDbLine
 10
8.949883707128896
 20
7.937499999999999
 30
0.0
 11
-11.02192500000005
 21
7.937499999999997
 31
0.0
  0
LINE
  5
97
330
1F
100
AcDbEntity
  8
외형선
  6
Continuous
370
    15
100
AcDbLine
 10
-40.97499999999998
 20
-7.937500000000004
 30
0.0
 11
8.949883707128896
 21
-7.937500000000001
 31
0.0
  0
LINE
  5
98
330
1F
100
AcDbEntity
  8
외형선
  6
Continuous
370
    15
100
AcDbLine
 10
-40.97499999999998
 20
7.937499999999988
 30
0.0
 11
-41.97499999999997
 21
6.937499999999988
 31
0.0
  0
LINE
  5
99
330
1F
100
AcDbEntity
  8
외형선
  6
Continuous
370
    15
100
AcDbLine
 10
-41.97499999999997
 20
-6.937499999999996
 30
0.0
 11
-40.97499999999998
 21
-7.937499999999997
 31
0.0
  0
SPLINE
  5
9A
330
1F
100
AcDbEntity
  8
외형선
  6
Continuous
370
    15
100
AcDbSpline
210
0.0
220
0.0
230
1.0
 70
     8
 71
     3
 72
     9
 73
     5
 74
     0
 42
0.000000001
 43
0.00000001
 40
0.0
 40
0.0
 40
0.0
 40
0.0
 40
0.4990067523048439
 40
1.0
 40
1.0
 40
1.0
 40
1.0
 10
10.40294013809074
 20
-5.97006875944411
 30
0.0
 10
10.66892483043188
 20
-5.92889932490994
 30
0.0
 10
11.20195307326145
 20
-5.846396564488335
 30
0.0
 10
11.7336322983106
 20
-5.773988623420886
 30
0.0
 10
12.00000000000002
 20
-5.737712733866586
 30
0.0
  0
SPLINE
  5
9B
330
1F
100
AcDbEntity
  8
외형선
  6
Continuous
370
    15
100
AcDbSpline
210
0.0
220
0.0
230
1.0
 70
     8
 71
     3
 72
     9
 73
     5
 74
     0
 42
0.000000001
 43
0.00000001
 40
0.0
 40
0.0
 40
0.0
 40
0.0
 40
0.7063124580421521
 40
1.0
 40
1.0
 40
1.0
 40
1.0
 10
12.00000000000002
 20
5.734949356858431
 30
0.0
 10
11.73456044147204
 20
5.771365197087179
 30
0.0
 10
11.35875005400732
 20
5.822922889173895
 30
0.0
 10
10.9767176942855
 20
5.882048722277211
 30
0.0
 10
10.86451954961045
 20
5.899413242867532
 30
0.0
  0
LINE
  5
9C
330
1F
100
AcDbEntity
  8
0
  6
Continuous
 62
     1
370
    15
100
AcDbLine
 10
47.71091115104238
 20
3.10004388501671
 30
0.0
 11
47.6431563839578
 21
3.135345319547696
 31
0.0
  0
SPLINE
  5
9D
330
1F
100
AcDbEntity
  8
0
  6
Continuous
 62
     1
370
    15
100
AcDbSpline
210
0.0
220
0.0
230
1.0
 70
     8
 71
     3
 72
    11
 73
     7
 74
     0
 42
0.000000001
 43
0.00000001
 40
0.0
 40
0.0
 40
0.0
 40
0.0
 40
0.3219493392852872
 40
0.5148590205379714
 40
0.7083640107103254
 40
1.0
 40
1.0
 40
1.0
 40
1.0
 10
49.84379466302891
 20
2.034129088692328
 30
0.0
 10
49.61477686035051
 20
2.142512089411424
 30
0.0
 10
49.24853327111216
 20
2.31583738871807
 30
0.0
 10
48.74551383257285
 20
2.566060007400079
 30
0.0
 10
48.26357589460515
 20
2.81005720570733
 30
0.0
 10
47.9184056259281
 20
2.991170224360776
 30
0.0
 10
47.71091115104238
 20
3.10004388501671
 30
0.0
  0
SPLINE
  5
9E
330
1F
100
AcDbEntity
  8
0
  6
Continuous
 62
     1
370
    15
100
AcDbSpline
210
0.0
220
0.0
230
1.0
 70
     8
 71
     3
 72
    11
 73
     7
 74
     0
 42
0.000000001
 43
0.00000001
 40
0.0
 40
0.0
 40
0.0
 40
0.0
 40
0.312112031071406
 40
0.4987011484927678
 40
0.6861578772504264
 40
1.0
 40
1.0
 40
1.0
 40
1.0
 10
93.03525394409074
 20
2.033959967443102
 30
0.0
 10
92.80614858261626
 20
2.142385599993171
 30
0.0
 10
92.44007776342681
 20
2.315631044243294
 30
0.0
 10
91.9375578182481
 20
2.565569283293571
 30
0.0
 10
91.43314652475327
 20
2.821028168574148
 30
0.0
 10
91.0649735346297
 20
3.014255903683037
 30
0.0
 10
90.83447591347611
 20
3.135227660108038
 30
0.0
  0
LINE
  5
9F
330
1F
100
AcDbEntity
  8
0
  6
Continuous
 62
     1
370
    15
100
AcDbLine
 10
27.78352908118892
 20
-7.937500000000012
 30
0.0
 11
31.63187211333811
 21
-7.937500000000012
 31
0.0
  0
LINE
  5
A0
330
1F
100
AcDbEntity
  8
0
  6
Continuous
 62
     1
370
    15
100
AcDbLine
 10
74.82247644365262
 20
7.93750000000001
 30
0.0
 11
70.97488538879531
 21
7.93750000000001
 31
0.0
  0
LINE
  5
A1
330
1F
100
AcDbEntity
  8
0
  6
Continuous
 62
     1
370
    15
100
AcDbLine
 10
70.9748853887953
 20
-7.937500000000012
 30
0.0
 11
74.82247644365266
 21
-7.937500000000012
 31
0.0
  0
LINE
  5
A2
330
1F
100
AcDbEntity
  8
0
  6
Continuous
 62
     1
370
    15
100
AcDbLine
 10
31.63187211333801
 20
7.93750000000001
 30
0.0
 11
27.78352908118895
 21
7.93750000000001
 31
0.0
  0
SPLINE
  5
A3
330
1F
100
AcDbEntity
  8
0
  6
Continuous
 62
     1
370
    15
100
AcDbSpline
210
0.0
220
0.0
230
1.0
 70
     8
 71
     3
 72
    24
 73
    20
 74
     0
 42
0.000000001
 43
0.00000001
 40
0.0
 40
0.0
 40
0.0
 40
0.0
 40
0.0942108959569329
 40
0.1677260356740805
 40
0.2349147084719554
 40
0.2942091784152464
 40
0.3472760274894475
 40
0.4111450096760493
 40
0.4825898016107664
 40
0.5497138772029775
 40
0.6013076700281416
 40
0.6553542667003622
 40
0.7225356603409764
 40
0.7645922938358986
 40
0.8026669775105366
 40
0.8336609772755673
 40
0.8650266918711376
 40
0.9198392027878275
 40
1.0
 40
1.0
 40
1.0
 40
1.0
 10
35.28260814919882
 20
-6.605108874216814
 30
0.0
 10
35.64900828377772
 20
-6.569380033573924
 30
0.0
 10
36.30131969021485
 20
-6.505771076888042
 30
0.0
 10
37.25266307336992
 20
-6.429240323357615
 30
0.0
 10
38.0524086191197
 20
-6.371533370928602
 30
0.0
 10
38.7660313706383
 20
-6.327090974632076
 30
0.0
 10
39.46802228912392
 20
-6.289412313413538
 30
0.0
 10
40.21802568595578
 20
-6.255898838693263
 30
0.0
 10
41.02362074399474
 20
-6.228266232751342
 30
0.0
 10
41.78065506113256
 20
-6.210724465426146
 30
0.0
 10
42.4686015557818
 20
-6.20127059696267
 30
0.0
 10
43.15653623794349
 20
-6.197596764241692
 30
0.0
 10
43.80612287923652
 20
-6.20045188952318
 30
0.0
 10
44.39258169383297
 20
-6.208138151462379
 30
0.0
 10
44.83503017611589
 20
-6.216751437015207
 30
0.0
 10
45.23483278094033
 20
-6.226709598499361
 30
0.0
 10
45.70094120946005
 20
-6.240679515816447
 30
0.0
 10
46.36282695668662
 20
-6.264645964412379
 30
0.0
 10
46.90091496366389
 20
-6.291499419959814
 30
0.0
 10
47.22048602706576
 20
-6.307447716955904
 30
0.0
  0
SPLINE
  5
A4
330
1F
100
AcDbEntity
  8
0
  6
Continuous
 62
     1
370
    15
100
AcDbSpline
210
0.0
220
0.0
230
1.0
 70
     8
 71
     3
 72
    15
 73
    11
 74
     0
 42
0.000000001
 43
0.00000001
 40
0.0
 40
0.0
 40
0.0
 40
0.0
 40
0.1825252722495677
 40
0.3120092943205287
 40
0.4400631873606701
 40
0.5552816167624763
 40
0.6509399418534719
 40
0.7605711517156678
 40
0.8941392175962987
 40
1.0
 40
1.0
 40
1.0
 40
1.0
 10
90.41148803200821
 20
6.30744263395207
 30
0.0
 10
90.02366452112472
 20
6.288147572408939
 30
0.0
 10
89.36071774964297
 20
6.255164531420993
 30
0.0
 10
88.39252864989578
 20
6.224696812007973
 30
0.0
 10
87.5821052012417
 20
6.207199659952823
 30
0.0
 10
86.84892988737067
 20
6.199275084942889
 30
0.0
 10
86.15460695414407
 20
6.198065040969569
 30
0.0
 10
85.4205760921426
 20
6.203512376189136
 30
0.0
 10
84.66439143928466
 20
6.2164733793945
 30
0.0
 10
84.14586695521542
 20
6.232110079861698
 30
0.0
 10
83.91660716479176
 20
6.239023671759798
 30
0.0
  0
SPLINE
  5
A5
330
1F
100
AcDbEntity
  8
0
  6
Continuous
 62
     1
370
    15
100
AcDbSpline
210
0.0
220
0.0
230
1.0
 70
     8
 71
     3
 72
    25
 73
    21
 74
     0
 42
0.000000001
 43
0.00000001
 40
0.0
 40
0.0
 40
0.0
 40
0.0
 40
0.0755752647939033
 40
0.1290080451823807
 40
0.1615958610837026
 40
0.1969922325046551
 40
0.2429512023798852
 40
0.2913536399712546
 40
0.3306744097104097
 40
0.3862392757359286
 40
0.4398093035215628
 40
0.5133960527990328
 40
0.5847704503762119
 40
0.6435369547693877
 40
0.694569143766711
 40
0.7548831616128442
 40
0.808995303751109
 40
0.8609978219813569
 40
0.9204457194418884
 40
0.9999999999999999
 40
0.9999999999999999
 40
0.9999999999999999
 40
0.9999999999999999
 10
78.47389937494401
 20
-6.605089415054592
 30
0.0
 10
78.77445096371466
 20
-6.575826365165784
 30
0.0
 10
79.28749677373595
 20
-6.525873925402262
 30
0.0
 10
79.92983333286827
 20
-6.471074515350246
 30
0.0
 10
80.41427481177081
 20
-6.432405116840127
 30
0.0
 10
80.86874178651351
 20
-6.398394320749993
 30
0.0
 10
81.38526892285012
 20
-6.362683552185323
 30
0.0
 10
81.91721262977406
 20
-6.32979091494636
 30
0.0
 10
82.48738504431289
 20
-6.29837963406548
 30
0.0
 10
83.0781853637896
 20
-6.270131358216939
 30
0.0
 10
83.80560123694939
 20
-6.241432904715113
 30
0.0
 10
84.5955461094851
 20
-6.218133549023826
 30
0.0
 10
85.40654429548219
 20
-6.203647612689088
 30
0.0
 10
86.1277149141071
 20
-6.198203209405744
 30
0.0
 10
86.80481410609617
 20
-6.199052342584999
 30
0.0
 10
87.46285217379602
 20
-6.205745075029985
 30
0.0
 10
88.12617098032179
 20
-6.218523281200773
 30
0.0
 10
88.79346033613797
 20
-6.236883665336779
 30
0.0
 10
89.55883019973658
 20
-6.264435778937961
 30
0.0
 10
90.10112163583608
 20
-6.291788191928282
 30
0.0
 10
90.41148803200821
 20
-6.30744263395207
 30
0.0
  0
SPLINE
  5
A6
330
1F
100
AcDbEntity
  8
0
  6
Continuous
 62
     1
370
    15
100
AcDbSpline
210
0.0
220
0.0
230
1.0
 70
     8
 71
     3
 72
    17
 73
    13
 74
     0
 42
0.000000001
 43
0.00000001
 40
0.0
 40
0.0
 40
0.0
 40
0.0
 40
0.1572445414358871
 40
0.2608195722482624
 40
0.3194481863479157
 40
0.3843256416867686
 40
0.5115331766378806
 40
0.623670465285741
 40
0.7305963767037957
 40
0.8303346155107882
 40
0.9599567733191584
 40
0.9999999999999999
 40
0.9999999999999999
 40
0.9999999999999999
 40
0.9999999999999999
 10
47.22048602706576
 20
6.307447716955905
 30
0.0
 10
46.88261569617396
 20
6.290646439146015
 30
0.0
 10
46.32219436533551
 20
6.262778367850284
 30
0.0
 10
45.63712868968277
 20
6.23854544018793
 30
0.0
 10
45.15021758023086
 20
6.224393524903179
 30
0.0
 10
44.61222324733004
 20
6.211662525358273
 30
0.0
 10
43.95932145997311
 20
6.201531933877462
 30
0.0
 10
43.21680484366399
 20
6.197690676835758
 30
0.0
 10
42.53286076877194
 20
6.200504781400063
 30
0.0
 10
41.81110318471126
 20
6.210390992054307
 30
0.0
 10
41.23302759359434
 20
6.222202149812649
 30
0.0
 10
40.86906572740801
 20
6.235083887277387
 30
0.0
 10
40.78316601631044
 20
6.238124144044531
 30
0.0
  0
SPLINE
  5
A7
330
1F
100
AcDbEntity
  8
0
  6
Continuous
 62
     1
370
    15
100
AcDbSpline
210
0.0
220
0.0
230
1.0
 70
     8
 71
     3
 72
    14
 73
    10
 74
     0
 42
0.000000001
 43
0.00000001
 40
0.0
 40
0.0
 40
0.0
 40
0.0
 40
0.1993568879600529
 40
0.3760899290967986
 40
0.5041016306564235
 40
0.6365056221870763
 40
0.8084979621362651
 40
0.9805501666652121
 40
0.9999999999999999
 40
0.9999999999999999
 40
0.9999999999999999
 40
0.9999999999999999
 10
53.5942666957385
 20
-5.970032697488621
 30
0.0
 10
53.97128827731615
 20
-5.911620571749258
 30
0.0
 10
54.68254546704473
 20
-5.801425170664783
 30
0.0
 10
55.71751517292234
 20
-5.66811333024462
 30
0.0
 10
56.58686493976124
 20
-5.566299215406699
 30
0.0
 10
57.43627142752865
 20
-5.477654659820959
 30
0.0
 10
58.38174012615434
 20
-5.395371372740671
 30
0.0
 10
59.09996724587963
 20
-5.341693429758494
 30
0.0
 10
59.47888151456307
 20
-5.321591963321672
 30
0.0
 10
59.51736580149954
 20
-5.319550365350485
 30
0.0
  0
SPLINE
  5
A8
330
1F
100
AcDbEntity
  8
0
  6
Continuous
 62
     1
370
    15
100
AcDbSpline
210
0.0
220
0.0
230
1.0
 70
     8
 71
     3
 72
    27
 73
    23
 74
     0
 42
0.000000001
 43
0.00000001
 40
0.0
 40
0.0
 40
0.0
 40
0.0
 40
0.0721029966945706
 40
0.1259040713043813
 40
0.1635908244009406
 40
0.2007269058411782
 40
0.2412319216403351
 40
0.2836810679972406
 40
0.3222096665160804
 40
0.3821240539849123
 40
0.4301301736284532
 40
0.4928831084249082
 40
0.5592719802547077
 40
0.605987401267614
 40
0.6579391666633548
 40
0.7244444736489994
 40
0.7632656916263312
 40
0.7948808535142013
 40
0.818895423798191
 40
0.8561949025233575
 40
0.9166715572392308
 40
1.0
 40
1.0
 40
1.0
 40
1.0
 10
110.6511619218105
 20
5.428878104222806
 30
0.0
 10
110.3212685672855
 20
5.402056900831023
 30
0.0
 10
109.7452187727545
 20
5.355222526961471
 30
0.0
 10
109.0047626603407
 20
5.309889080322332
 30
0.0
 10
108.4545687016608
 20
5.278550058477959
 30
0.0
 10
107.9235501676254
 20
5.255158188321672
 30
0.0
 10
107.3534204301295
 20
5.239028163457761
 30
0.0
 10
106.7727359346511
 20
5.228947593660019
 30
0.0
 10
106.1032618130303
 20
5.222221858270592
 30
0.0
 10
105.4231521326283
 20
5.224016097556931
 30
0.0
 10
104.6431943873164
 20
5.236739388775713
 30
0.0
 10
103.8199146887447
 20
5.261758105281705
 30
0.0
 10
103.0000935765414
 20
5.300375453114232
 30
0.0
 10
102.2347607132848
 20
5.347483463439606
 30
0.0
 10
101.4701151078139
 20
5.403714041774573
 30
0.0
 10
100.7415823264062
 20
5.467779141143974
 30
0.0
 10
100.107369829013
 20
5.531783921541635
 30
0.0
 10
99.67093888334507
 20
5.579485057472581
 30
0.0
 10
99.24810215842291
 20
5.628147382336814
 30
0.0
 10
98.68498905620046
 20
5.696935969341411
 30
0.0
 10
97.84384734785391
 20
5.808162774032749
 30
0.0
 10
97.17354875607029
 20
5.9106696732157
 30
0.0
 10
96.78514153811936
 20
5.970067708688941
 30
0.0
  0
SPLINE
  5
A9
330
1F
100
AcDbEntity
  8
0
  6
Continuous
 62
     1
370
    15
100
AcDbSpline
210
0.0
220
0.0
230
1.0
 70
     8
 71
     3
 72
    27
 73
    23
 74
     0
 42
0.000000001
 43
0.00000001
 40
0.0
 40
0.0
 40
0.0
 40
0.0
 40
0.0813138167058034
 40
0.1399802628780115
 40
0.1766646081058279
 40
0.2109573844550618
 40
0.2507243389255482
 40
0.293058844902466
 40
0.3286944375968222
 40
0.3675996635115121
 40
0.4139194198126097
 40
0.4697000254252887
 40
0.5212895681913094
 40
0.5771845382441533
 40
0.621518901317142
 40
0.6761937256702975
 40
0.7433487081564768
 40
0.7776824225536307
 40
0.8046434350249614
 40
0.8437011583295726
 40
0.908652006089425
 40
1.0
 40
1.0
 40
1.0
 40
1.0
 10
24.26907664060092
 20
5.428887535230636
 30
0.0
 10
23.93713676649406
 20
5.401956861310609
 30
0.0
 10
23.36570828460044
 20
5.355596193867751
 30
0.0
 10
22.6450391413784
 20
5.311572200659143
 30
0.0
 10
22.11184299959717
 20
5.284069930273185
 30
0.0
 10
21.65638343184521
 20
5.264249707724394
 30
0.0
 10
21.17950952368
 20
5.247525786123675
 30
0.0
 10
20.69800352007499
 20
5.235143163563419
 30
0.0
 10
20.21993848782209
 20
5.227065156273866
 30
0.0
 10
19.72520687614211
 20
5.222884770987432
 30
0.0
 10
19.14815034088033
 20
5.22360450290569
 30
0.0
 10
18.51940389605521
 20
5.231746877009819
 30
0.0
 10
17.8514013129894
 20
5.248489472583878
 30
0.0
 10
17.22963016972023
 20
5.271619685895488
 30
0.0
 10
16.59735089888492
 20
5.302241256180183
 30
0.0
 10
15.90390103905709
 20
5.343710120067196
 30
0.0
 10
15.24999045582774
 20
5.390245441690649
 30
0.0
 10
14.71668930771613
 20
5.434930779361919
 30
0.0
 10
14.33029550779224
 20
5.47133581848921
 30
0.0
 10
13.81120855164815
 20
5.522378567014941
 30
0.0
 10
13.01536337583282
 20
5.608018739601029
 30
0.0
 10
12.37453096162118
 20
5.689873292790699
 30
0.0
 10
11.99999999999999
 20
5.73771273386659
 30
0.0
  0
SPLINE
  5
AA
330
1F
100
AcDbEntity
  8
0
  6
Continuous
 62
     1
370
    15
100
AcDbSpline
210
0.0
220
0.0
230
1.0
 70
     8
 71
     3
 72
    13
 73
     9
 74
     0
 42
0.000000001
 43
0.00000001
 40
0.0
 40
0.0
 40
0.0
 40
0.0
 40
0.2748519406711002
 40
0.4877199216586237
 40
0.6518400306681171
 40
0.7772043336712802
 40
0.8956448074055396
 40
1.0
 40
1.0
 40
1.0
 40
1.0
 10
11.99999999999999
 20
-5.73771273386659
 30
0.0
 10
12.39133727776264
 20
-5.68770114667421
 30
0.0
 10
13.08575837585085
 20
-5.598956467164457
 30
0.0
 10
14.03159550130877
 20
-5.499180316514447
 30
0.0
 10
14.76357510678944
 20
-5.431701862801705
 30
0.0
 10
15.35078199829449
 20
-5.384292567676859
 30
0.0
 10
15.85208662177337
 20
-5.347878114101711
 30
0.0
 10
16.17288154918208
 20
-5.328515232884994
 30
0.0
 10
16.32313858507822
 20
-5.319445858997025
 30
0.0
  0
SPLINE
  5
AB
330
1F
100
AcDbEntity
  8
0
  6
Continuous
 62
     1
370
    15
100
AcDbSpline
210
0.0
220
0.0
230
1.0
 70
     8
 71
     3
 72
    17
 73
    13
 74
     0
 42
0.000000001
 43
0.00000001
 40
0.0
 40
0.0
 40
0.0
 40
0.0
 40
0.1668946803693686
 40
0.2917261315718453
 40
0.3812946339488038
 40
0.4676261231362001
 40
0.554068865848553
 40
0.6317206986567595
 40
0.6974064785696208
 40
0.7797509979026548
 40
0.8917885769288505
 40
1.0
 40
1.0
 40
1.0
 40
1.0
 10
96.78514153811935
 20
-5.97006770868894
 30
0.0
 10
97.11110670474578
 20
-5.919947390374445
 30
0.0
 10
97.68088254707125
 20
-5.832338806669577
 30
0.0
 10
98.43099127995355
 20
-5.730034037768234
 30
0.0
 10
99.03321643069049
 20
-5.653897959362368
 30
0.0
 10
99.5552087226997
 20
-5.592250720516515
 30
0.0
 10
100.0497495895458
 20
-5.537884417474246
 30
0.0
 10
100.5029657918975
 20
-5.491761848054117
 30
0.0
 10
100.9487370471397
 20
-5.449764659816703
 30
0.0
 10
101.4626851943191
 20
-5.405397308337608
 30
0.0
 10
102.0604281314509
 20
-5.359288625592635
 30
0.0
 10
102.495166378025
 20
-5.332208222746383
 30
0.0
 10
102.7087593744848
 20
-5.318903241105477
 30
0.0
  0
SPLINE
  5
AC
330
1F
100
AcDbEntity
  8
0
  6
Continuous
 62
     1
370
    15
100
AcDbSpline
210
0.0
220
0.0
230
1.0
 70
     8
 71
     3
 72
    28
 73
    24
 74
     0
 42
0.000000001
 43
0.00000001
 40
0.0
 40
0.0
 40
0.0
 40
0.0
 40
0.0873658244072784
 40
0.154388887871938
 40
0.206317934326693
 40
0.2479929060593927
 40
0.2868012385988744
 40
0.3259740148257717
 40
0.3780121746085811
 40
0.4247517850765036
 40
0.4581591856172307
 40
0.4924596274417806
 40
0.5358956543884991
 40
0.5815216580428721
 40
0.627180413111614
 40
0.6660244680196764
 40
0.7003286360922986
 40
0.7470454992268171
 40
0.7972757753438086
 40
0.8350103704472489
 40
0.8682732690345922
 40
0.9228520614918939
 40
1.0
 40
1.0
 40
1.0
 40
1.0
 10
67.46007202775172
 20
5.428878747680825
 30
0.0
 10
67.07148612324498
 20
5.397169669786025
 30
0.0
 10
66.38479489075765
 20
5.341134838033037
 30
0.0
 10
65.40725739767736
 20
5.287635855123123
 30
0.0
 10
64.65101779159279
 20
5.256206330537858
 30
0.0
 10
64.04092740542222
 20
5.238367601123453
 30
0.0
 10
63.48687450348604
 20
5.227814181730909
 30
0.0
 10
62.88534516802599
 20
5.222389460101592
 30
0.0
 10
62.24768087751397
 20
5.224118273983707
 30
0.0
 10
61.63678997971009
 20
5.233568194561774
 30
0.0
 10
61.10742527274492
 20
5.247162128929331
 30
0.0
 10
60.5933701512573
 20
5.264798649626513
 30
0.0
 10
60.02297329175926
 20
5.289998351687954
 30
0.0
 10
59.40037596295598
 20
5.324666742198071
 30
0.0
 10
58.79853471608135
 20
5.364951731382406
 30
0.0
 10
58.24890742843287
 20
5.407394945299012
 30
0.0
 10
57.69460697140882
 20
5.455129545825502
 30
0.0
 10
57.08812335259346
 20
5.513349477276877
 30
0.0
 10
56.46572841382599
 20
5.580459779302666
 30
0.0
 10
55.9043951826056
 20
5.646388475387912
 30
0.0
 10
55.32304840730916
 20
5.719399081475243
 30
0.0
 10
54.56081250933392
 20
5.821885832563106
 30
0.0
 10
53.9512607591186
 20
5.915314596656907
 30
0.0
 10
53.5942666957385
 20
5.97003269748862
 30
0.0
  0
SPLINE
  5
AD
330
1F
100
AcDbEntity
  8
외형선
  6
Continuous
370
    15
100
AcDbSpline
210
0.0
220
0.0
230
1.0
 70
    24
 71
     3
 72
     8
 73
     4
 74
     0
 42
0.000000001
 43
0.00000001
 40
0.0
 40
0.0
 40
0.0
 40
0.0
 40
1.0
 40
1.0
 40
1.0
 40
1.0
 10
12.00000000000012
 20
-0.5572951662120614
 30
0.0
 10
12.00000000000012
 20
-0.7174379361812363
 30
0.0
 10
12.00000000000012
 20
-0.909838502562731
 30
0.0
 10
12.00000000000012
 20
-1.131223100670383
 30
0.0
  0
SPLINE
  5
AE
330
1F
100
AcDbEntity
  8
외형선
  6
Continuous
370
    15
100
AcDbSpline
210
0.0
220
0.0
230
1.0
 70
     8
 71
     3
 72
    10
 73
     6
 74
     0
 42
0.000000001
 43
0.00000001
 40
0.0
 40
0.0
 40
0.0
 40
0.0
 40
0.5
 40
0.5
 40
1.0
 40
1.0
 40
1.0
 40
1.0
 10
12.00000000000041
 20
-1.131223100675
 30
0.0
 10
11.49074688192441
 20
-0.8405686970107209
 30
0.0
 10
10.98538739959091
 20
-0.5483378663934141
 30
0.0
 10
9.968944296847129
 20
0.0382661520307397
 30
0.0
 10
9.45824243766913
 20
0.3325677694295259
 30
0.0
 10
8.9497619237544
 20
0.6251593602238331
 30
0.0
  0
SPLINE
  5
AF
330
1F
100
AcDbEntity
  8
외형선
  6
Continuous
370
    15
100
AcDbSpline
210
0.0
220
0.0
230
1.0
 70
     8
 71
     3
 72
    18
 73
    14
 74
     0
 42
0.000000001
 43
0.00000001
 40
0.0
 40
0.0
 40
0.0
 40
0.0
 40
0.0160246556052737
 40
0.0447908552721638
 40
0.0870383873325757
 40
0.1429661966676775
 40
0.2500671538923972
 40
0.5000692512137532
 40
0.7500924757111826
 40
0.850121707142679
 40
0.9245116135830268
 40
0.9741228640385249
 40
1.0
 40
1.0
 40
1.0
 40
1.0
 10
9.399999054477814
 20
0.7167237905632945
 30
0.0
 10
9.396745880967517
 20
0.7180900882381136
 30
0.0
 10
9.38765286658616
 20
0.7219090558913956
 30
0.0
 10
9.372262493674306
 20
0.7268608456294862
 30
0.0
 10
9.350496110881645
 20
0.7338024485683327
 30
0.0
 10
9.31659632814717
 20
0.7439032277227421
 30
0.0
 10
9.250281052067074
 20
0.7629175328406856
 30
0.0
 10
9.156546321119095
 20
0.7880654331972284
 30
0.0
 10
9.067657840449161
 20
0.8101125559801059
 30
0.0
 10
9.007166127459724
 20
0.823765601414358
 30
0.0
 10
8.977547649867923
 20
0.8293782755604729
 30
0.0
 10
8.95716908242363
 20
0.8332864505270352
 30
0.0
 10
8.951744490738372
 20
0.8322031280789344
 30
0.0
 10
8.94988496103801
 20
0.8318317692036129
 30
0.0
  0
SPLINE
  5
B0
330
1F
100
AcDbEntity
  8
외형선
  6
Continuous
370
    15
100
AcDbSpline
210
0.0
220
0.0
230
1.0
 70
     8
 71
     3
 72
    10
 73
     6
 74
     0
 42
0.000000001
 43
0.00000001
 40
0.0
 40
0.0
 40
0.0
 40
0.0
 40
0.5
 40
0.5
 40
1.0
 40
1.0
 40
1.0
 40
1.0
 10
12.00000000000045
 20
-0.5572951662122209
 30
0.0
 10
11.56582347321945
 20
-0.3452161506687629
 30
0.0
 10
11.13435086925061
 20
-0.1327475905602483
 30
0.0
 10
10.2691749800063
 20
0.2923157029302997
 30
0.0
 10
9.834283131059228
 20
0.5051049682970057
 30
0.0
 10
9.399996851770023
 20
0.7167248639032046
 30
0.0
  0
LINE
  5
B1
330
1F
100
AcDbEntity
  8
외형선
  6
Continuous
370
    15
100
AcDbLine
 10
12.0
 20
-1.131223100674763
 30
0.0
 11
12.00000000000001
 21
-3.257033055174894
 31
0.0
  0
SPLINE
  5
B2
330
1F
100
AcDbEntity
  8
외형선
  6
Continuous
370
    15
100
AcDbSpline
210
0.0
220
0.0
230
1.0
 70
     8
 71
     3
 72
    10
 73
     6
 74
     0
 42
0.000000001
 43
0.00000001
 40
0.0
 40
0.0
 40
0.0
 40
0.0
 40
0.5
 40
0.5
 40
1.0
 40
1.0
 40
1.0
 40
1.0
 10
8.949883707128887
 20
-1.584599723931644
 30
0.0
 10
9.458344278179876
 20
-1.872183542271824
 30
0.0
 10
9.969025642143556
 20
-2.15692430560998
 30
0.0
 10
10.98542777557974
 20
-2.715481496796692
 30
0.0
 10
11.49076720998643
 20
-2.989252352878251
 30
0.0
 10
12.0
 20
-3.257033055174892
 30
0.0
  0
LINE
  5
B3
330
1F
100
AcDbEntity
  8
외형선
  6
Continuous
370
    15
100
AcDbLine
 10
8.949883707128896
 20
-7.937500000000001
 30
0.0
 11
8.949883707128887
 21
-1.58460062034339
 31
0.0
  0
LINE
  5
B4
330
1F
100
AcDbEntity
  8
외형선
  6
Continuous
370
    15
100
AcDbLine
 10
8.94988370712889
 20
0.6254984818342099
 30
0.0
 11
8.949883707128896
 21
7.937499999999999
 31
0.0
  0
LINE
  5
B5
330
1F
100
AcDbEntity
  8
외형선
  6
Continuous
370
    15
100
AcDbLine
 10
-40.97499999999998
 20
7.937499999999988
 30
0.0
 11
-40.97499999999998
 21
-7.937500000000004
 31
0.0
  0
LINE
  5
B6
330
1F
100
AcDbEntity
  8
외형선
  6
Continuous
370
    15
100
AcDbLine
 10
-41.97499999999997
 20
6.937499999999989
 30
0.0
 11
-41.97499999999997
 21
-6.937499999999994
 31
0.0
  0
SPLINE
  5
B7
330
1F
100
AcDbEntity
  8
외형선
  6
Continuous
370
    15
100
AcDbSpline
210
0.0
220
0.0
230
1.0
 70
     8
 71
     3
 72
    16
 73
    12
 74
     0
 42
0.000000001
 43
0.00000001
 40
0.0
 40
0.0
 40
0.0
 40
0.0
 40
0.2499999999999999
 40
0.2499999999999999
 40
0.4999999999999998
 40
0.4999999999999998
 40
0.6249999999999991
 40
0.6249999999999991
 40
0.7499999999999983
 40
0.7499999999999983
 40
1.0
 40
1.0
 40
1.0
 40
1.0
 10
9.23510030479824
 20
6.168263307112371
 30
0.0
 10
9.20620878115679
 20
6.177472862987968
 30
0.0
 10
9.175682436258263
 20
6.19009957599638
 30
0.0
 10
9.107417651909527
 20
6.230951859298959
 30
0.0
 10
9.067892779395498
 20
6.26106254161017
 30
0.0
 10
9.01608077147845
 20
6.322394921367388
 30
0.0
 10
9.000910521076651
 20
6.344792547442109
 30
0.0
 10
8.97800811430417
 20
6.386789691618943
 30
0.0
 10
8.97010755384257
 20
6.406115612016706
 30
0.0
 10
8.952979878761585
 20
6.458985891860359
 30
0.0
 10
8.949883707128883
 20
6.487676981265137
 30
0.0
 10
8.949883707128894
 20
6.512612027220012
 30
0.0
  0
SPLINE
  5
B8
330
1F
100
AcDbEntity
  8
외형선
  6
Continuous
370
    15
100
AcDbSpline
210
0.0
220
0.0
230
1.0
 70
     8
 71
     3
 72
    16
 73
    12
 74
     0
 42
0.000000001
 43
0.00000001
 40
0.0
 40
0.0
 40
0.0
 40
0.0
 40
0.2055919611578114
 40
0.387280269846719
 40
0.545105669820827
 40
0.6791178551678821
 40
0.7893858955391109
 40
0.8760224609024582
 40
0.9392523938350584
 40
0.9796759933506449
 40
1.0
 40
1.0
 40
1.0
 40
1.0
 10
9.23510212801007
 20
6.168256676702899
 30
0.0
 10
9.250280409817528
 20
6.163474630355835
 30
0.0
 10
9.278872233355274
 20
6.154466533982411
 30
0.0
 10
9.319830637580012
 20
6.142259202930361
 30
0.0
 10
9.356049016602038
 20
6.131890940720823
 30
0.0
 10
9.387527511976291
 20
6.123255006685466
 30
0.0
 10
9.414330300568292
 20
6.116233782436104
 30
0.0
 10
9.436219451640913
 20
6.110713541614054
 30
0.0
 10
9.453726569398688
 20
6.106654538391017
 30
0.0
 10
9.465747044031637
 20
6.103864745808564
 30
0.0
 10
9.473991770953303
 20
6.102486732165967
 30
0.0
 10
9.47675016581619
 20
6.102025697399281
 30
0.0
  0
SPLINE
  5
B9
330
1F
100
AcDbEntity
  8
외형선
  6
Continuous
370
    15
100
AcDbSpline
210
0.0
220
0.0
230
1.0
 70
     8
 71
     3
 72
    10
 73
     6
 74
     0
 42
0.000000001
 43
0.00000001
 40
0.0
 40
0.0
 40
0.0
 40
0.0
 40
0.5
 40
0.5
 40
1.0
 40
1.0
 40
1.0
 40
1.0
 10
12.00000000000002
 20
5.678787076745378
 30
0.0
 10
11.57861393907692
 20
5.765770515316174
 30
0.0
 10
11.15969822059478
 20
5.844609319044406
 30
0.0
 10
10.32027751274565
 20
5.985806874051447
 30
0.0
 10
9.898317028336047
 20
6.048221361468817
 30
0.0
 10
9.47676477798104
 20
6.102021066378958
 30
0.0
  0
SPLINE
  5
BA
330
1F
100
AcDbEntity
  8
외형선
  6
Continuous
370
    15
100
AcDbSpline
210
0.0
220
0.0
230
1.0
 70
    24
 71
     3
 72
    14
 73
    10
 74
     0
 42
0.000000001
 43
0.00000001
 40
0.0
 40
0.0
 40
0.0
 40
0.0
 40
0.25
 40
0.25
 40
0.5
 40
0.5
 40
0.75
 40
0.75
 40
1.0
 40
1.0
 40
1.0
 40
1.0
 10
12.0
 20
5.678787076745395
 30
0.0
 10
12.0
 20
5.343428222559895
 30
0.0
 10
12.0
 20
4.945648742690072
 30
0.0
 10
12.0
 20
4.040799766428695
 30
0.0
 10
12.0
 20
3.533856361153739
 30
0.0
 10
12.0
 20
2.443946482344803
 30
0.0
 10
12.0
 20
1.861294741698411
 30
0.0
 10
12.0
 20
0.6642727911925795
 30
0.0
 10
12.0
 20
0.0502587416573963
 30
0.0
 10
12.0
 20
-0.5572951662120059
 30
0.0
  0
LINE
  5
BB
330
1F
100
AcDbEntity
  8
외형선
  6
Continuous
370
    15
100
AcDbLine
 10
10.42015971834083
 20
-5.930526568390952
 30
0.0
 11
8.949839233215588
 21
-6.164814639013353
 31
0.0
  0
SPLINE
  5
BC
330
1F
100
AcDbEntity
  8
외형선
  6
Continuous
370
    15
100
AcDbSpline
210
0.0
220
0.0
230
1.0
 70
    24
 71
     3
 72
    13
 73
     9
 74
     0
 42
0.000000001
 43
0.00000001
 40
0.0
 40
0.0
 40
0.0
 40
0.0
 40
0.0361277083451325
 40
0.2637564012646101
 40
0.4849698880803642
 40
0.7125985809998431
 40
0.9315746831460792
 40
1.0
 40
1.0
 40
1.0
 40
1.0
 10
12.0
 20
-3.364326531685187
 30
0.0
 10
12.0
 20
-3.422047724999883
 30
0.0
 10
11.99999999999999
 20
-3.843450989218677
 30
0.0
 10
12.0
 20
-4.444548679707114
 30
0.0
 10
11.99999999999999
 20
-5.135904940692563
 30
0.0
 10
12.0
 20
-5.555689949772995
 30
0.0
 10
12.0
 20
-5.749540872140556
 30
0.0
 10
12.0
 20
-5.718643217433033
 30
0.0
 10
12.0
 20
-5.711287019190311
 30
0.0
  0
SPLINE
  5
BD
330
1F
100
AcDbEntity
  8
0
  6
Continuous
 62
     1
370
    15
100
AcDbSpline
210
0.0
220
0.0
230
1.0
 70
     8
 71
     3
 72
    26
 73
    22
 74
     0
 42
0.000000001
 43
0.00000001
 40
0.0
 40
0.0
 40
0.0
 40
0.0
 40
0.0447090912750291
 40
0.1007451255342398
 40
0.156774432440678
 40
0.2128088595919392
 40
0.2678505672943223
 40
0.3228956996959839
 40
0.3779435410139616
 40
0.4329933732641066
 40
0.4890463274779207
 40
0.5450998490454089
 40
0.6011523782261997
 40
0.6572023566334672
 40
0.713248229357375
 40
0.7682901662399968
 40
0.8233280087886884
 40
0.8783611490585175
 40
0.9333955762394636
 40
0.9886485288540426
 40
1.0
 40
1.0
 40
1.0
 40
1.0
 10
83.91378546255694
 20
-6.239939093001403
 30
0.0
 10
83.13461703234826
 20
-6.508298873002423
 30
0.0
 10
81.37887968508682
 20
-7.113006751277821
 30
0.0
 10
78.64676097627456
 20
-7.684668801436912
 30
0.0
 10
75.71738635132702
 20
-7.982297857220174
 30
0.0
 10
72.80523161817571
 20
-7.910465897221824
 30
0.0
 10
69.91022897119983
 20
-7.490894732628395
 30
0.0
 10
67.03237405799914
 20
-6.746199280310745
 30
0.0
 10
64.15434422295127
 20
-5.707119775396146
 30
0.0
 10
61.25875964235779
 20
-4.410994115262569
 30
0.0
 10
58.34551822158939
 20
-2.910002270134157
 30
0.0
 10
55.41482546324997
 20
-1.268305799792757
 30
0.0
 10
52.48418568777101
 20
0.4307677772476123
 30
0.0
 10
49.55371305234771
 20
2.110354172853398
 30
0.0
 10
46.64087625126413
 20
3.684839930887275
 30
0.0
 10
43.74580567354117
 20
5.086698761126277
 30
0.0
 10
40.86839771401539
 20
6.255881180176542
 30
0.0
 10
37.99119720105122
 20
7.160018714709155
 30
0.0
 10
35.1102226216879
 20
7.722370957775881
 30
0.0
 10
32.99043006493984
 20
7.96978713234175
 30
0.0
 10
31.82969719643427
 20
7.91780646114028
 30
0.0
 10
31.63187211333804
 20
7.908947333533196
 30
0.0
  0
SPLINE
  5
BE
330
1F
100
AcDbEntity
  8
0
  6
Continuous
 62
     1
370
    15
100
AcDbSpline
210
0.0
220
0.0
230
1.0
 70
     8
 71
     3
 72
    17
 73
    13
 74
     0
 42
0.000000001
 43
0.00000001
 40
0.0
 40
0.0
 40
0.0
 40
0.0
 40
0.0298944446278456
 40
0.1440728483522389
 40
0.2582432537993941
 40
0.3723607539667927
 40
0.4864507387723407
 40
0.6006066221858734
 40
0.7147873052138498
 40
0.8289477938151175
 40
0.9430440163496955
 40
1.0
 40
1.0
 40
1.0
 40
1.0
 10
78.48441885293968
 20
-6.568329354297189
 30
0.0
 10
78.19891523525658
 20
-6.607627368788835
 30
0.0
 10
76.82296328409844
 20
-6.797019643938359
 30
0.0
 10
74.35644484390924
 20
-6.76252420860119
 30
0.0
 10
71.08558848843668
 20
-6.443845483779004
 30
0.0
 10
67.81583504866211
 20
-5.733407436085114
 30
0.0
 10
64.54644753607208
 20
-4.707407134754699
 30
0.0
 10
61.2759912873958
 20
-3.415096554743799
 30
0.0
 10
58.00481424602837
 20
-1.929254751829625
 30
0.0
 10
54.73422960623682
 20
-0.3408484334930559
 30
0.0
 10
52.01058542068782
 20
1.017523631290314
 30
0.0
 10
50.37701759602434
 20
1.773472578162342
 30
0.0
 10
49.83308154054528
 20
2.025184127629123
 30
0.0
  0
SPLINE
  5
BF
330
1F
100
AcDbEntity
  8
0
  6
Continuous
 62
     1
370
    15
100
AcDbSpline
210
0.0
220
0.0
230
1.0
 70
     8
 71
     3
 72
    21
 73
    17
 74
     0
 42
0.000000001
 43
0.00000001
 40
0.0
 40
0.0
 40
0.0
 40
0.0
 40
0.0755449808014455
 40
0.151100106862888
 40
0.2266633022331326
 40
0.3022324799967794
 40
0.3778055450954554
 40
0.4520295837762585
 40
0.5262537187916688
 40
0.6004769779621374
 40
0.6746983898213006
 40
0.7502654647577841
 40
0.8258257355625818
 40
0.9013771192966329
 40
0.9769194327812
 40
1.0
 40
1.0
 40
1.0
 40
1.0
 10
113.6
 20
-7.532218149528215
 30
0.0
 10
112.6235627841402
 20
-7.321300661485266
 30
0.0
 10
110.6705572224723
 20
-6.899437360383843
 30
0.0
 10
107.7407756410024
 20
-5.863157598775773
 30
0.0
 10
104.8106232522264
 20
-4.585987233408318
 30
0.0
 10
101.880199400039
 20
-3.094679148328193
 30
0.0
 10
98.96702422824667
 20
-1.474752333242911
 30
0.0
 10
96.07133942648258
 20
0.2008781630887999
 30
0.0
 10
93.19307347053162
 20
1.857550531961303
 30
0.0
 10
90.31484938745464
 20
3.43301469655401
 30
0.0
 10
87.41930437538016
 20
4.86769179119222
 30
0.0
 10
84.50640288178677
 20
6.092445443423235
 30
0.0
 10
81.57639604426866
 20
7.055801960023668
 30
0.0
 10
78.64675665537996
 20
7.673716993672664
 30
0.0
 10
76.39555472005635
 20
7.956721694899241
 30
0.0
 10
75.12080438356597
 20
7.910195923579797
 30
0.0
 10
74.82247644365262
 20
7.899307565982789
 30
0.0
  0
SPLINE
  5
C0
330
1F
100
AcDbEntity
  8
0
  6
Continuous
 62
     1
370
    15
100
AcDbSpline
210
0.0
220
0.0
230
1.0
 70
     8
 71
     3
 72
    17
 73
    13
 74
     0
 42
0.000000001
 43
0.00000001
 40
0.0
 40
0.0
 40
0.0
 40
0.0
 40
0.0970039543167767
 40
0.1969691454899044
 40
0.2973312688719835
 40
0.3977013000102322
 40
0.4980776813670078
 40
0.5984588495782529
 40
0.6988432368823615
 40
0.7992292725577593
 40
0.8996153843663545
 40
1.0
 40
1.0
 40
1.0
 40
1.0
 10
40.78316601631044
 20
-6.23812414404453
 30
0.0
 10
39.85251589817049
 20
-6.546884696408245
 30
0.0
 10
37.96280573314474
 20
-7.173831325423695
 30
0.0
 10
35.1102256810031
 20
-7.737599624358884
 30
0.0
 10
32.22527754887075
 20
-7.989615010293551
 30
0.0
 10
29.33634424812179
 20
-7.884762753784963
 30
0.0
 10
26.44719025031084
 20
-7.434544847195615
 30
0.0
 10
23.55787137749303
 20
-6.656728259496872
 30
0.0
 10
20.66844115669435
 20
-5.586370322772414
 30
0.0
 10
17.77895438450828
 20
-4.269212218060598
 30
0.0
 10
14.88946370874215
 20
-2.767787520396003
 30
0.0
 10
12.96314978451432
 20
-1.676741863699643
 30
0.0
 10
11.99999999999714
 20
-1.131223100673139
 30
0.0
  0
SPLINE
  5
C1
330
1F
100
AcDbEntity
  8
외형선
  6
Continuous
370
    15
100
AcDbSpline
210
0.0
220
0.0
230
1.0
 70
    24
 71
     3
 72
     8
 73
     4
 74
     0
 42
0.000000001
 43
0.00000001
 40
0.0
 40
0.0
 40
0.0
 40
0.0
 40
1.0
 40
1.0
 40
1.0
 40
1.0
 10
12.00000000000012
 20
-0.5572951662120614
 30
0.0
 10
12.00000000000012
 20
-0.7174379361812361
 30
0.0
 10
12.00000000000012
 20
-0.9098385025627305
 30
0.0
 10
12.00000000000012
 20
-1.131223100670382
 30
0.0
  0
SPLINE
  5
C2
330
1F
100
AcDbEntity
  8
0
  6
Continuous
 62
     1
370
    15
100
AcDbSpline
210
0.0
220
0.0
230
1.0
 70
     8
 71
     3
 72
    14
 73
    10
 74
     0
 42
0.000000001
 43
0.00000001
 40
0.0
 40
0.0
 40
0.0
 40
0.0
 40
0.1588387779380462
 40
0.3177628250253793
 40
0.4767097039503835
 40
0.6356167840911339
 40
0.7944325802591422
 40
0.953300610317901
 40
0.9999999999999999
 40
0.9999999999999999
 40
0.9999999999999999
 40
0.9999999999999999
 10
113.6
 20
-6.262467348422716
 30
0.0
 10
112.5103452186015
 20
-6.029179929010833
 30
0.0
 10
110.3304506982931
 20
-5.562479854901007
 30
0.0
 10
107.0597757346195
 20
-4.454783078355298
 30
0.0
 10
103.7886054268288
 20
-3.12212441193302
 30
0.0
 10
100.5182505143835
 20
-1.604572672093298
 30
0.0
 10
97.2489015874204
 20
-0.0071167120664861
 30
0.0
 10
94.74908368321506
 20
1.241045216696743
 30
0.0
 10
93.33869996816364
 20
1.883287535460293
 30
0.0
 10
93.01829871589568
 20
2.029187719215494
 30
0.0
  0
SPLINE
  5
C3
330
1F
100
AcDbEntity
  8
0
  6
Continuous
 62
     1
370
    15
100
AcDbSpline
210
0.0
220
0.0
230
1.0
 70
     8
 71
     3
 72
    16
 73
    12
 74
     0
 42
0.000000001
 43
0.00000001
 40
0.0
 40
0.0
 40
0.0
 40
0.0
 40
0.0073467359017504
 40
0.1477725662161866
 40
0.2882541983513758
 40
0.4287363314864148
 40
0.5691636605576709
 40
0.7095323576643182
 40
0.8499787600500254
 40
0.9249955761618202
 40
0.9999999999999999
 40
0.9999999999999999
 40
0.9999999999999999
 40
0.9999999999999999
 10
35.28508512967039
 20
-6.595804412340126
 30
0.0
 10
35.22806400260063
 20
-6.604521867777596
 30
0.0
 10
34.08113856682578
 20
-6.779865146493135
 30
0.0
 10
31.84370394685462
 20
-6.778117898919954
 30
0.0
 10
28.57269932251097
 20
-6.547390262538688
 30
0.0
 10
25.30168512338808
 20
-5.906829109951246
 30
0.0
 10
22.03169940917915
 20
-4.944667828390696
 30
0.0
 10
18.76251765950725
 20
-3.700828703528287
 30
0.0
 10
16.00009371892694
 20
-2.474655126932062
 30
0.0
 10
13.74618599900232
 20
-1.408495288924096
 30
0.0
 10
12.5820299452278
 20
-0.8410129151133665
 30
0.0
 10
12.00000000000002
 20
-0.5572951662120146
 30
0.0
  0
LINE
  5
C4
330
1F
100
AcDbEntity
  8
0
  6
Continuous
 62
     1
370
    15
100
AcDbLine
 10
113.6
 20
-7.532218149528222
 30
0.0
 11
113.6
 21
-6.262467348422716
 31
0.0
  0
SPLINE
  5
C5
330
1F
100
AcDbEntity
  8
0
  6
Continuous
 62
     1
370
    15
100
AcDbSpline
210
0.0
220
0.0
230
1.0
 70
     8
 71
     3
 72
    32
 73
    28
 74
     0
 42
0.000000001
 43
0.00000001
 40
0.0
 40
0.0
 40
0.0
 40
0.0
 40
0.012253095925498
 40
0.0540313631372926
 40
0.0960992961261676
 40
0.1378732938886817
 40
0.1799374903503894
 40
0.2217114060673137
 40
0.2637749787531329
 40
0.305533565797421
 40
0.3475813113180602
 40
0.389339318510916
 40
0.4313874084540162
 40
0.4731452673114205
 40
0.5151925727300742
 40
0.5569504122841767
 40
0.5989974086292514
 40
0.640755318686334
 40
0.6828028618345092
 40
0.7245607389054414
 40
0.7666082180851808
 40
0.8083660603536557
 40
0.8504131067547321
 40
0.8921709696336955
 40
0.9342181465835503
 40
0.9759760589563798
 40
1.0
 40
1.0
 40
1.0
 40
1.0
 10
16.32410805375098
 20
5.31987521245421
 30
0.0
 10
16.54733231310335
 20
5.420276330309452
 30
0.0
 10
17.53166403558852
 20
5.863006011951621
 30
0.0
 10
19.28229199432607
 20
6.490551375691257
 30
0.0
 10
21.57106836179263
 20
7.175834356044037
 30
0.0
 10
23.86468483566104
 20
7.651933572527338
 30
0.0
 10
26.15285060617926
 20
7.918446439376862
 30
0.0
 10
28.44617979677954
 20
7.96501611712726
 30
0.0
 10
30.73401821313479
 20
7.791237465587555
 30
0.0
 10
33.02690550321812
 20
7.401020648465543
 30
0.0
 10
35.31453311795875
 20
6.807328051966887
 30
0.0
 10
37.60742492649855
 20
6.023833075462391
 30
0.0
 10
39.89476523022754
 20
5.075231071878203
 30
0.0
 10
42.18724753272196
 20
3.983683913718186
 30
0.0
 10
44.47444968169037
 20
2.784346930918336
 30
0.0
 10
46.76695081454502
 20
1.505246417035919
 30
0.0
 10
49.05433903066085
 20
0.1875942984674607
 30
0.0
 10
51.34731980981861
 20
-1.137601486768976
 30
0.0
 10
53.63477035065959
 20
-2.428914049085488
 30
0.0
 10
55.92730397619069
 20
-3.656083624443179
 30
0.0
 10
58.21451606539573
 20
-4.779452353823287
 30
0.0
 10
60.50696697726895
 20
-5.773015170151555
 30
0.0
 10
62.79426797680259
 20
-6.603836254712157
 30
0.0
 10
65.08704571186854
 20
-7.25602488917826
 30
0.0
 10
67.37471619725991
 20
-7.6960108700018
 30
0.0
 10
69.33899797773718
 20
-7.923857315099246
 30
0.0
 10
70.53726927556406
 20
-7.913966292667566
 30
0.0
 10
70.97488538879529
 20
-7.910354029901792
 30
0.0
  0
SPLINE
  5
C6
330
1F
100
AcDbEntity
  8
0
  6
Continuous
 62
     1
370
    15
100
AcDbSpline
210
0.0
220
0.0
230
1.0
 70
     8
 71
     3
 72
    12
 73
     8
 74
     0
 42
0.000000001
 43
0.00000001
 40
0.0
 40
0.0
 40
0.0
 40
0.0
 40
0.1202580427218286
 40
0.3361205801474116
 40
0.5535699478642948
 40
0.775916975831557
 40
1.0
 40
1.0
 40
1.0
 40
1.0
 10
102.710168575154
 20
5.319498424178319
 30
0.0
 10
103.1466584775518
 20
5.508524022289384
 30
0.0
 10
104.3666453981922
 20
6.036849548481158
 30
0.0
 10
106.3759722105746
 20
6.726681441126417
 30
0.0
 10
108.7559222842502
 20
7.366662265982797
 30
0.0
 10
111.1658588425222
 20
7.800678298534788
 30
0.0
 10
112.786518904557
 20
7.887308040093878
 30
0.0
 10
113.5999999999994
 20
7.937500000000014
 30
0.0
  0
SPLINE
  5
C7
330
1F
100
AcDbEntity
  8
0
  6
Continuous
 62
     1
370
    15
100
AcDbSpline
210
0.0
220
0.0
230
1.0
 70
    24
 71
     3
 72
    10
 73
     6
 74
     0
 42
0.000000001
 43
0.00000001
 40
0.0
 40
0.0
 40
0.0
 40
0.0
 40
0.5
 40
0.5
 40
1.0
 40
1.0
 40
1.0
 40
1.0
 10
113.6
 20
5.556249999999999
 30
0.0
 10
113.6
 20
5.893056038408052
 30
0.0
 10
113.6
 20
6.284455846632745
 30
0.0
 10
113.6
 20
7.105611590126797
 30
0.0
 10
113.6
 20
7.533270396674197
 30
0.0
 10
113.5999999999994
 20
7.937500000000014
 30
0.0
  0
LINE
  5
C8
330
1F
100
AcDbEntity
  8
0
  6
Continuous
 62
     1
370
    15
100
AcDbLine
 10
113.6
 20
5.556249999999999
 30
0.0
 11
110.6478395318271
 21
5.414997869545637
 31
0.0
  0
SPLINE
  5
C9
330
1F
100
AcDbEntity
  8
0
  6
Continuous
 62
     1
370
    15
100
AcDbSpline
210
0.0
220
0.0
230
1.0
 70
     8
 71
     3
 72
    16
 73
    12
 74
     0
 42
0.000000001
 43
0.00000001
 40
0.0
 40
0.0
 40
0.0
 40
0.0
 40
0.0941734879612665
 40
0.2179589316504008
 40
0.3417586116753075
 40
0.4655217497322797
 40
0.5892129325301715
 40
0.7129560536163295
 40
0.836750373646814
 40
0.9605451599806274
 40
1.0
 40
1.0
 40
1.0
 40
1.0
 10
50.68416719778379
 20
-0.7509283208726063
 30
0.0
 10
49.85468160823074
 20
-0.4173766106379
 30
0.0
 10
47.93488659126431
 20
0.3546089660545805
 30
0.0
 10
44.92441226117298
 20
1.566372491002206
 30
0.0
 10
41.65329100309225
 20
2.790338713712359
 30
0.0
 10
38.38306267682602
 20
3.858649371151063
 30
0.0
 10
35.11367751972587
 20
4.708207489847464
 30
0.0
 10
31.84375155693727
 20
5.29812463798722
 30
0.0
 10
28.5727834384978
 20
5.568103675058037
 30
0.0
 10
26.04424818498951
 20
5.596792116053241
 30
0.0
 10
24.60629813271413
 20
5.434295912304132
 30
0.0
 10
24.25876845968669
 20
5.395023162553357
 30
0.0
  0
SPLINE
  5
CA
330
1F
100
AcDbEntity
  8
0
  6
Continuous
 62
     1
370
    15
100
AcDbSpline
210
0.0
220
0.0
230
1.0
 70
     8
 71
     3
 72
    14
 73
    10
 74
     0
 42
0.000000001
 43
0.00000001
 40
0.0
 40
0.0
 40
0.0
 40
0.0
 40
0.1575449721867151
 40
0.3163871012044293
 40
0.4610478974564441
 40
0.606711686047681
 40
0.7513576989691825
 40
0.8970085495179559
 40
1.0
 40
1.0
 40
1.0
 40
1.0
 10
12.00000000000001
 20
-3.257033055174901
 30
0.0
 10
12.82886965897626
 20
-3.683183693527492
 30
0.0
 10
14.49343352946905
 20
-4.538993709381255
 30
0.0
 10
16.91919103752921
 20
-5.61341400244851
 30
0.0
 10
19.2822941020648
 20
-6.498019469595048
 30
0.0
 10
21.57106775763461
 20
-7.175066672102657
 30
0.0
 10
23.86468515504803
 20
-7.647605498848753
 30
0.0
 10
25.93371330553465
 20
-7.90895542377327
 30
0.0
 10
27.2417289580792
 20
-7.913279750048464
 30
0.0
 10
27.78352908118892
 20
-7.915070952243722
 30
0.0
  0
SPLINE
  5
CB
330
1F
100
AcDbEntity
  8
0
  6
Continuous
 62
     1
370
    15
100
AcDbSpline
210
0.0
220
0.0
230
1.0
 70
     8
 71
     3
 72
    31
 73
    27
 74
     0
 42
0.000000001
 43
0.00000001
 40
0.0
 40
0.0
 40
0.0
 40
0.0
 40
0.0182097326129104
 40
0.0606981607070982
 40
0.1028943696245067
 40
0.1453829296378865
 40
0.1875791885687145
 40
0.2300682780872833
 40
0.272264471051143
 40
0.3147529849605
 40
0.3569491752916819
 40
0.3994375569331869
 40
0.4416338805369905
 40
0.4841232539685585
 40
0.5263194545764885
 40
0.5688080895769198
 40
0.6110042748669875
 40
0.6534926430799441
 40
0.6956889302662356
 40
0.7381780447574462
 40
0.7803742596429113
 40
0.8228630543095008
 40
0.8663271976895331
 40
0.9101108509767658
 40
0.9548806531802854
 40
0.9999999999999999
 40
0.9999999999999999
 40
0.9999999999999999
 40
0.9999999999999999
 10
59.51695354213449
 20
5.319372540769643
 30
0.0
 10
59.84520722034822
 20
5.463844577084831
 30
0.0
 10
60.9393690587701
 20
5.945410510223454
 30
0.0
 10
62.79427011416438
 20
6.598915519681771
 30
0.0
 10
65.08704453214398
 20
7.255772416437162
 30
0.0
 10
67.37471878132715
 20
7.702004291814121
 30
0.0
 10
69.66732107097421
 20
7.938355229133462
 30
0.0
 10
71.95457985590654
 20
7.954024268172622
 30
0.0
 10
74.24701313698623
 20
7.749373374168196
 30
0.0
 10
76.53426338278719
 20
7.330803856817691
 30
0.0
 10
78.82685789853933
 20
6.708188519520751
 30
0.0
 10
81.11453950578053
 20
5.901869346536481
 30
0.0
 10
83.40731720331245
 20
4.930138159021068
 30
0.0
 10
85.69463446500957
 20
3.82395077316698
 30
0.0
 10
87.98709582105974
 20
2.609140703167758
 30
0.0
 10
90.27430496645908
 20
1.324874656416895
 30
0.0
 10
92.566827478495
 20
0.0011472159338458
 30
0.0
 10
94.85427944444491
 20
-1.319359522451288
 30
0.0
 10
97.14726051913686
 20
-2.605818457601085
 30
0.0
 10
99.43465262781984
 20
-3.8179581811083
 30
0.0
 10
101.7271720553698
 20
-4.927253682417873
 30
0.0
 10
104.0372085341036
 20
-5.907254822721201
 30
0.0
 10
106.3759716670241
 20
-6.731174709124701
 30
0.0
 10
108.7559224332673
 20
-7.365430414083137
 30
0.0
 10
111.1658588045804
 20
-7.800991944653219
 30
0.0
 10
112.786518891877
 20
-7.887412859482521
 30
0.0
 10
113.6
 20
-7.937499999999986
 30
0.0
  0
SPLINE
  5
CC
330
1F
100
AcDbEntity
  8
0
  6
Continuous
 62
     1
370
    15
100
AcDbSpline
210
0.0
220
0.0
230
1.0
 70
     8
 71
     3
 72
    16
 73
    12
 74
     0
 42
0.000000001
 43
0.00000001
 40
0.0
 40
0.0
 40
0.0
 40
0.0
 40
0.1203673458238427
 40
0.2441228760654078
 40
0.3678324145536943
 40
0.49148064865934
 40
0.615196011315601
 40
0.7389531011093341
 40
0.8627011686630556
 40
0.9863895414454706
 40
1.0
 40
1.0
 40
1.0
 40
1.0
 10
93.8900735570419
 20
-0.7591105682380336
 30
0.0
 10
92.82944538559613
 20
-0.3307485386404321
 30
0.0
 10
90.67833373752285
 20
0.5380333552099485
 30
0.0
 10
87.4370935425851
 20
1.829497594413232
 30
0.0
 10
84.16706859549498
 20
3.02649374743925
 30
0.0
 10
80.89769860940196
 20
4.054923064499357
 30
0.0
 10
77.62758255992023
 20
4.852089097246001
 30
0.0
 10
74.35649622291558
 20
5.384397028228864
 30
0.0
 10
71.08565511686525
 20
5.582854669735511
 30
0.0
 10
68.78553821406946
 20
5.581654547068254
 30
0.0
 10
67.57580874322406
 20
5.428938046073585
 30
0.0
 10
67.4558880369456
 20
5.413799231073188
 30
0.0
  0
LINE
  5
CD
330
1F
100
AcDbEntity
  8
0
  6
Continuous
 62
     1
370
    15
100
AcDbLine
 10
113.6
 20
-7.937499999999986
 30
0.0
 11
113.6
 21
-7.532218149528222
 31
0.0
  0
SPLINE
  5
CE
330
1F
100
AcDbEntity
  8
0
  6
Continuous
 62
     1
370
    15
100
AcDbSpline
210
0.0
220
0.0
230
1.0
 70
     8
 71
     3
 72
     8
 73
     4
 74
     0
 42
0.000000001
 43
0.00000001
 40
0.0
 40
0.0
 40
0.0
 40
0.0
 40
1.0
 40
1.0
 40
1.0
 40
1.0
 10
108.688830245815
 20
2.220079671996158
 30
0.0
 10
108.6589047179147
 20
2.255523819275217
 30
0.0
 10
108.6292920992099
 20
2.290863161820143
 30
0.0
 10
108.6000000000081
 20
2.326095150660637
 30
0.0
  0
LINE
  5
CF
330
1F
100
AcDbEntity
  8
0
  6
Continuous
 62
     1
370
    15
100
AcDbLine
 10
108.6
 20
2.937719435296603
 30
0.0
 11
113.6
 21
0.0000000000000123
 31
0.0
  0
LINE
  5
D0
330
1F
100
AcDbEntity
  8
0
  6
Continuous
 62
     1
370
    15
100
AcDbLine
 10
113.6
 20
0.0000000000000123
 30
0.0
 11
113.6
 21
-2.121240884110295
 31
0.0
  0
SPLINE
  5
D1
330
1F
100
AcDbEntity
  8
0
  6
Continuous
 62
     1
370
    15
100
AcDbSpline
210
0.0
220
0.0
230
1.0
 70
     8
 71
     3
 72
    12
 73
     8
 74
     0
 42
0.000000001
 43
0.00000001
 40
0.0
 40
0.0
 40
0.0
 40
0.0
 40
0.5
 40
0.5
 40
0.75
 40
0.75
 40
1.0
 40
1.0
 40
1.0
 40
1.0
 10
113.6
 20
-2.121240884110294
 30
0.0
 10
112.7498570837302
 20
-1.452887382416902
 30
0.0
 10
111.9139164266328
 20
-0.7571355301524647
 30
0.0
 10
110.6818685141903
 20
0.3286694918016524
 30
0.0
 10
110.2748823886304
 20
0.6977356413040661
 30
0.0
 10
109.4692291184898
 20
1.451916538950729
 30
0.0
 10
109.0727441128429
 20
1.835090379294059
 30
0.0
 10
108.688830245815
 20
2.220079671996158
 30
0.0
  0
SPLINE
  5
D2
330
1F
100
AcDbEntity
  8
0
  6
Continuous
 62
     1
370
    15
100
AcDbSpline
210
0.0
220
0.0
230
1.0
 70
     8
 71
     3
 72
    14
 73
    10
 74
     0
 42
0.000000001
 43
0.00000001
 40
0.0
 40
0.0
 40
0.0
 40
0.0
 40
0.1490167009043309
 40
0.2980332016556408
 40
0.4470494968011538
 40
0.6258599265023274
 40
0.8047299846524609
 40
0.9836781242819841
 40
1.0
 40
1.0
 40
1.0
 40
1.0
 10
108.688830245815
 20
2.220079671996134
 30
0.0
 10
107.7809276139485
 20
2.604514712302282
 30
0.0
 10
105.9651235696726
 20
3.373384276557454
 30
0.0
 10
103.2414040121324
 20
4.371972564086638
 30
0.0
 10
100.3362300760467
 20
5.259077400706763
 30
0.0
 10
97.24887501273294
 20
5.955697337238099
 30
0.0
 10
93.97908427056545
 20
6.321037464056091
 30
0.0
 10
91.69916703992239
 20
6.423673116664022
 30
0.0
 10
90.50925747920496
 20
6.302803984617039
 30
0.0
 10
90.40979747797977
 20
6.292700994929123
 30
0.0
  0
SPLINE
  5
D3
330
1F
100
AcDbEntity
  8
0
  6
Continuous
 62
     1
370
    15
100
AcDbSpline
210
0.0
220
0.0
230
1.0
 70
     8
 71
     3
 72
    20
 73
    16
 74
     0
 42
0.000000001
 43
0.00000001
 40
0.0
 40
0.0
 40
0.0
 40
0.0
 40
0.0515216388657788
 40
0.1300965633610355
 40
0.2087116279999351
 40
0.2873354980923558
 40
0.3659367642332184
 40
0.4444935217577688
 40
0.5230824078212359
 40
0.6017029629127385
 40
0.6803238057631943
 40
0.7589135526615539
 40
0.8392333616687504
 40
0.9196070649957845
 40
1.0
 40
1.0
 40
1.0
 40
1.0
 10
53.60854174334455
 20
-5.929190983543444
 30
0.0
 10
52.8940023782685
 20
-6.043170482078645
 30
0.0
 10
51.08972910923016
 20
-6.330978505648586
 30
0.0
 10
48.19517035512865
 20
-6.395266571619392
 30
0.0
 10
44.92440760647316
 20
-6.157630568448588
 30
0.0
 10
41.65326897062738
 20
-5.559853560227338
 30
0.0
 10
38.3830211382717
 20
-4.652713512172767
 30
0.0
 10
35.11368854887937
 20
-3.482065636710938
 30
0.0
 10
31.84375959803521
 20
-2.116030485615294
 30
0.0
 10
28.57276350574158
 20
-0.6306543507995509
 30
0.0
 10
25.30174948233923
 20
0.8897801281215316
 30
0.0
 10
22.00736069479671
 20
2.372749402424254
 30
0.0
 10
18.68893198396722
 20
3.724488092808091
 30
0.0
 10
15.3449892753865
 20
4.890191124938942
 30
0.0
 10
13.11508534240055
 20
5.415900796838209
 30
0.0
 10
12.00000000000002
 20
5.678787076745391
 30
0.0
  0
SPLINE
  5
D4
330
1F
100
AcDbEntity
  8
0
  6
Continuous
 62
     1
370
    15
100
AcDbSpline
210
0.0
220
0.0
230
1.0
 70
    24
 71
     3
 72
    10
 73
     6
 74
     0
 42
0.000000001
 43
0.00000001
 40
0.0
 40
0.0
 40
0.0
 40
0.0
 40
0.5
 40
0.5
 40
1.0
 40
1.0
 40
1.0
 40
1.0
 10
113.6
 20
-6.262467348422713
 30
0.0
 10
113.6
 20
-5.782400400217701
 30
0.0
 10
113.6
 20
-5.17581740350759
 30
0.0
 10
113.6
 20
-3.765570313258517
 30
0.0
 10
113.6000000000001
 20
-2.963127829219764
 30
0.0
 10
113.6
 20
-2.121240884110549
 30
0.0
  0
SPLINE
  5
D5
330
1F
100
AcDbEntity
  8
외형선
  6
Continuous
370
    15
100
AcDbSpline
210
0.0
220
0.0
230
1.0
 70
    24
 71
     3
 72
    14
 73
    10
 74
     0
 42
0.000000001
 43
0.00000001
 40
0.0
 40
0.0
 40
0.0
 40
0.0
 40
0.25
 40
0.25
 40
0.5
 40
0.5
 40
0.75
 40
0.75
 40
1.0
 40
1.0
 40
1.0
 40
1.0
 10
12.0
 20
5.678787076745395
 30
0.0
 10
12.0
 20
5.343428222559895
 30
0.0
 10
12.0
 20
4.945648742690072
 30
0.0
 10
12.0
 20
4.040799766428695
 30
0.0
 10
12.0
 20
3.533856361153739
 30
0.0
 10
12.0
 20
2.443946482344803
 30
0.0
 10
12.0
 20
1.861294741698411
 30
0.0
 10
12.0
 20
0.6642727911925795
 30
0.0
 10
12.0
 20
0.0502587416573963
 30
0.0
 10
12.0
 20
-0.5572951662120059
 30
0.0
  0
SPLINE
  5
D6
330
1F
100
AcDbEntity
  8
0
  6
Continuous
 62
     1
370
    15
100
AcDbSpline
210
0.0
220
0.0
230
1.0
 70
     8
 71
     3
 72
    23
 73
    19
 74
     0
 42
0.000000001
 43
0.00000001
 40
0.0
 40
0.0
 40
0.0
 40
0.0
 40
0.0567730132158977
 40
0.1227533686326897
 40
0.1887361875917562
 40
0.2546951231385985
 40
0.3206222237260042
 40
0.3865841843011601
 40
0.4525678132690877
 40
0.5185467568001447
 40
0.5844947008240032
 40
0.6504265172151374
 40
0.7163969484400035
 40
0.782381913344496
 40
0.8483550467583953
 40
0.9142905233633526
 40
0.9802338086115824
 40
1.0
 40
1.0
 40
1.0
 40
1.0
 10
96.79417851195058
 20
-5.948001216421272
 30
0.0
 10
95.85596892822024
 20
-6.080098524413654
 30
0.0
 10
93.82739266702363
 20
-6.365716437306718
 30
0.0
 10
90.70813361826617
 20
-6.376066439476953
 30
0.0
 10
87.43707767844148
 20
-6.061294891703557
 30
0.0
 10
84.16703661804976
 20
-5.396326841706532
 30
0.0
 10
80.8977232920048
 20
-4.42943043889186
 30
0.0
 10
77.62759077005887
 20
-3.212878663607309
 30
0.0
 10
74.35648780016824
 20
-1.815485270710261
 30
0.0
 10
71.08562791818544
 20
-0.3158938314851724
 30
0.0
 10
67.81587690536041
 20
1.201659461337854
 30
0.0
 10
64.5464672471403
 20
2.651738837945073
 30
0.0
 10
61.2760266194073
 20
3.95241658387146
 30
0.0
 10
58.00485602444092
 20
5.02884489035733
 30
0.0
 10
54.73429787982879
 20
5.828962562278866
 30
0.0
 10
51.46480300684582
 20
6.275046496640369
 30
0.0
 10
48.95883972870907
 20
6.420281995941167
 30
0.0
 10
47.54233469571633
 20
6.298073090617976
 30
0.0
 10
47.21566242231665
 20
6.269889455543084
 30
0.0
  0
SPLINE
  5
D7
330
1F
100
AcDbEntity
  8
0
  6
Continuous
 62
     1
370
    15
100
AcDbSpline
210
0.0
220
0.0
230
1.0
 70
     8
 71
     3
 72
    10
 73
     6
 74
     0
 42
0.000000001
 43
0.00000001
 40
0.0
 40
0.0
 40
0.0
 40
0.0
 40
0.5
 40
0.5
 40
1.0
 40
1.0
 40
1.0
 40
1.0
 10
113.6
 20
5.556250000000012
 30
0.0
 10
112.7834040481533
 20
5.334809564106331
 30
0.0
 10
111.9717469273326
 20
5.086103314051066
 30
0.0
 10
110.3591390792908
 20
4.529584005730243
 30
0.0
 10
109.5592565694043
 20
4.222666859573495
 30
0.0
 10
108.7684913161142
 20
3.876674191206872
 30
0.0
  0
SPLINE
  5
D8
330
1F
100
AcDbEntity
  8
0
  6
Continuous
 62
     1
370
    15
100
AcDbSpline
210
0.0
220
0.0
230
1.0
 70
    24
 71
     3
 72
     8
 73
     4
 74
     0
 42
0.000000001
 43
0.00000001
 40
0.0
 40
0.0
 40
0.0
 40
0.0
 40
1.0
 40
1.0
 40
1.0
 40
1.0
 10
108.7684913161142
 20
3.87667419120691
 30
0.0
 10
108.7130816833712
 20
3.830179988808584
 30
0.0
 10
108.6569080995201
 20
3.783044755317193
 30
0.0
 10
108.6
 20
3.7352931899989
 30
0.0
  0
SPLINE
  5
D9
330
1F
100
AcDbEntity
  8
0
  6
Continuous
 62
     1
370
    15
100
AcDbSpline
210
0.0
220
0.0
230
1.0
 70
    24
 71
     3
 72
     8
 73
     4
 74
     0
 42
0.000000001
 43
0.00000001
 40
0.0
 40
0.0
 40
0.0
 40
0.0
 40
1.0
 40
1.0
 40
1.0
 40
1.0
 10
108.6
 20
2.32609515067034
 30
0.0
 10
108.6
 20
2.844328698008614
 30
0.0
 10
108.6
 20
3.323694336875016
 30
0.0
 10
108.6
 20
3.735293189998752
 30
0.0
  0
SPLINE
  5
DA
330
1F
100
AcDbEntity
  8
외형선
  6
Continuous
370
    15
100
AcDbSpline
210
0.0
220
0.0
230
1.0
 70
    24
 71
     3
 72
    13
 73
     9
 74
     0
 42
0.000000001
 43
0.00000001
 40
0.0
 40
0.0
 40
0.0
 40
0.0
 40
0.0361621686580135
 40
0.2640079845653036
 40
0.4854324752425911
 40
0.7132782911498823
 40
0.9324632630345846
 40
1.0
 40
1.0
 40
1.0
 40
1.0
 10
12.0
 20
-3.364326531685187
 30
0.0
 10
12.0
 20
-3.422047748193583
 30
0.0
 10
11.99999999999999
 20
-3.843451181741876
 30
0.0
 10
12.0
 20
-4.444542364458615
 30
0.0
 10
11.99999999999999
 20
-5.135927058985882
 30
0.0
 10
12.0
 20
-5.555606307964307
 30
0.0
 10
12.0
 20
-5.749393828650933
 30
0.0
 10
12.0
 20
-5.718711693449647
 30
0.0
 10
12.0
 20
-5.71148457659499
 30
0.0
  0
LINE
  5
DB
330
1F
100
AcDbEntity
  8
0
  6
Continuous
 62
     1
370
    15
100
AcDbLine
 10
113.6
 20
0.0000000000000123
 30
0.0
 11
113.6
 21
5.556250000000007
 31
0.0
  0
LINE
  5
DC
330
1F
100
AcDbEntity
  8
중심선
 48
0.8
100
AcDbLine
 10
-44.97499999999998
 20
-0.0000000000000055
 30
0.0
 11
116.6
 21
0.0000000000000143
 31
0.0
  0
LINE
  5
DD
330
1F
100
AcDbEntity
  8
참조1
100
AcDbLine
 10
38.66176131403117
 20
0.0010749287238892
 30
0.0
 11
38.66176131403117
 21
-39.99892507127611
 31
0.0
  0
LINE
  5
DE
330
1F
100
AcDbEntity
  8
참조1
100
AcDbLine
 10
38.66176131403117
 20
-39.99892507127611
 30
0.0
 11
-20.15080122126847
 21
-39.9989250712761
 31
0.0
  0
CIRCLE
  5
DF
330
1F
100
AcDbEntity
  8
해칭선
100
AcDbCircle
 10
0.0
 20
0.0
 30
0.0
 40
2.999999999999995
  0
INSERT
  5
E0
330
1F
100
AcDbEntity
  8
0
  6
Continuous
 62
     7
100
AcDbBlockReference
 66
     1
  2
블럭10
 10
21.87222706787481
 20
-52.04717430164393
 30
0.0
  0
ATTRIB
  5
E1
330
E0
100
AcDbEntity
  8
FORMAT
 62
     2
100
AcDbText
 10
12.69093177913353
 20
-49.97180738881174
 30
0.0
 40
4.233333333333333
  1
E1072040 [ 2 FLUTE ]
 41
0.75
  7
SLDTEXTSTYLE0
 11
12.69093177913353
 21
-52.08847405547841
 31
0.0
100
AcDbAttribute
  2
AUTOATTR0
 70
     0
 74
     1
  0
SEQEND
  5
E2
330
E0
100
AcDbEntity
  8
0
  6
Continuous
 62
     7
  0
HATCH
  5
E3
330
1F
100
AcDbEntity
  8
중심선
100
AcDbHatch
 10
0.0
 20
0.0
 30
0.0
210
0.0
220
0.0
230
1.0
  2
SOLID
 70
     1
 71
     0
 91
        1
 92
        0
 93
        4
 72
     1
 10
27.58713637225566
 20
-35.8
 11
24.14086112841837
 21
-35.8
 72
     1
 10
24.14086112841837
 20
-35.8
 11
22.01263126921435
 21
-38.3363255805726
 72
     1
 10
22.01263126921435
 20
-38.3363255805726
 11
25.45893959816478
 21
-38.33628615127011
 72
     1
 10
25.45893959816478
 20
-38.33628615127011
 11
27.58713637225566
 21
-35.8
 97
        0
 75
     0
 76
     1
 98
        1
 10
-2.849261314031153
 20
-0.0010749287238943
  0
HATCH
  5
E4
330
1F
100
AcDbEntity
  8
중심선
100
AcDbHatch
 10
0.0
 20
0.0
 30
0.0
210
0.0
220
0.0
230
1.0
  2
SOLID
 70
     1
 71
     0
 91
        1
 92
        0
 93
        4
 72
     1
 10
32.59990036329163
 20
-35.8
 11
29.15362511945435
 21
-35.8
 72
     1
 10
29.15362511945435
 20
-35.8
 11
24.62248711109694
 21
-41.20000000000002
 72
     1
 10
24.62248711109694
 20
-41.20000000000002
 11
28.06876235493422
 21
-41.20000000000002
 72
     1
 10
28.06876235493422
 20
-41.20000000000002
 11
32.59990036329163
 21
-35.8
 97
        0
 75
     0
 76
     1
 98
        1
 10
-2.849261314031153
 20
-0.0010749287238943
  0
HATCH
  5
E5
330
1F
100
AcDbEntity
  8
중심선
100
AcDbHatch
 10
0.0
 20
0.0
 30
0.0
210
0.0
220
0.0
230
1.0
  2
SOLID
 70
     1
 71
     0
 91
        1
 92
        0
 93
        4
 72
     1
 10
37.61266435432753
 20
-35.79999999999998
 11
34.16638911049036
 21
-35.80000000000003
 72
     1
 10
34.16638911049036
 20
-35.80000000000003
 11
27.11795220860114
 21
-44.20000000000002
 72
     1
 10
27.11795220860114
 20
-44.20000000000002
 11
30.56422745243842
 21
-44.20000000000002
 72
     1
 10
30.56422745243842
 20
-44.20000000000002
 11
37.61266435432753
 21
-35.79999999999998
 97
        0
 75
     0
 76
     1
 98
        1
 10
-2.849261314031153
 20
-0.0010749287238943
  0
HATCH
  5
E6
330
1F
100
AcDbEntity
  8
중심선
100
AcDbHatch
 10
0.0
 20
0.0
 30
0.0
210
0.0
220
0.0
230
1.0
  2
SOLID
 70
     1
 71
     0
 91
        1
 92
        0
 93
        6
 72
     3
 10
42.41255478533967
 20
-40.00000000005127
 11
3.960054785062283
 21
1.540882976769353E-10
 40
0.3939339440162628
 50
17.0953918060842
 51
320.0019657685086
 73
     0
 72
     1
 10
44.0955544410403
 20
-38.5878940046383
 11
46.40085631474128
 21
-36.65356729459044
 72
     3
 10
42.41255478528683
 20
-40.00000000000015
 11
6.600054785286829
 21
-1.278976924368180E-13
 40
0.636358354079598
 50
39.99873849337381
 51
368.4976242363724
 73
     1
 72
     1
 10
48.83788727718746
 20
-39.03999999993002
 11
41.09262209212278
 21
-39.03999999993002
 72
     1
 10
41.09262209212278
 20
-39.03999999993002
 11
41.09259704767682
 21
-40.95999999992991
 72
     1
 10
41.09259704767682
 20
-40.95999999992991
 11
45.53397681714888
 21
-40.95999999992988
 97
        0
 75
     0
 76
     1
 98
        1
 10
-2.849261314031153
 20
-0.0010749287238943
  0
DIMENSION
  5
E7
330
1F
100
AcDbEntity
  8
치수문자_일반주서
100
AcDbDimension
  2
_D
 10
-54.47499999999996
 20
-7.937500000000066
 30
0.0
 11
-54.47499999999999
 21
-0.0000000000000081
 31
0.0
 70
   160
  1
%%c<>
 71
     2
 42
15.875
 52
-270.0
  3
SLDDIMSTYLE0
100
AcDbAlignedDimension
 13
-40.97499999999998
 23
7.937499999999985
 33
0.0
 14
-40.97499999999998
 24
-7.937500000000015
 34
0.0
 50
90.0000000000002
100
AcDbRotatedDimension
1001
ACAD
1000
DSTYLE
1002
{
1070
   171
1070
     3
1070
   273
1070
     7
1002
}
  0
DIMENSION
  5
FC
330
1F
100
AcDbEntity
  8
치수문자_일반주서
100
AcDbDimension
  2
_D_1
 10
12.00000000000003
 20
21.10713307670824
 30
0.0
 11
62.8
 21
21.10713307670824
 31
0.0
 70
   160
  1
<>
 71
     2
 42
101.5999999999993
  3
SLDDIMSTYLE0
100
AcDbAlignedDimension
 13
113.5999999999994
 23
7.937500000000014
 33
0.0
 14
12.00000000000002
 24
5.67878707674539
 34
0.0
 50
0.000000000000004
100
AcDbRotatedDimension
1001
ACAD
1000
DSTYLE
1002
{
1070
   273
1070
     7
1002
}
  0
DIMENSION
  5
111
330
1F
100
AcDbEntity
  8
치수문자_일반주서
100
AcDbDimension
  2
_D_2
 10
-41.97499999999997
 20
38.05774771491232
 30
0.0
 11
35.81250000000001
 21
38.05774771491232
 31
0.0
 70
   160
  1
<>
 71
     2
 42
155.5749999999994
  3
SLDDIMSTYLE0
100
AcDbAlignedDimension
 13
113.5999999999994
 23
7.937500000000014
 33
0.0
 14
-41.97499999999997
 24
6.937499999999989
 34
0.0
 50
0.0000000000000052
100
AcDbRotatedDimension
1001
ACAD
1000
DSTYLE
1002
{
1070
   171
1070
     3
1070
   273
1070
     7
1002
}
  0
DIMENSION
  5
125
330
1F
100
AcDbEntity
  8
치수문자_일반주서
100
AcDbDimension
  2
_D_3
 10
124.5970741900417
 20
7.937500000000057
 30
0.0
 11
124.5970741900416
 21
28.75354134588535
 31
0.0
 70
   160
  1
%%c<>
 71
     2
 42
15.875
 52
-270.0
  3
SLDDIMSTYLE0
100
AcDbAlignedDimension
 13
113.6
 23
-7.937499999999986
 33
0.0
 14
113.5999999999994
 24
7.937500000000014
 34
0.0
 50
90.0000000000002
100
AcDbRotatedDimension
1001
ACAD
1000
DSTYLE
1002
{
1070
   171
1070
     3
1070
   273
1070
     7
1002
}
  0
LINE
  5
138
330
1F
100
AcDbEntity
  8
참조1
100
AcDbLine
 10
77.82153940838579
 20
7.441074928723896
 30
0.0
 11
77.82153940838579
 21
-7.438925071276109
 31
0.0
  0
LINE
  5
139
330
1F
100
AcDbEntity
  8
참조1
100
AcDbLine
 10
90.52153940838579
 20
5.441074928723896
 30
0.0
 11
77.82153940838579
 21
5.441074928723896
 31
0.0
  0
SOLID
  5
13A
330
1F
100
AcDbEntity
  8
참조1
100
AcDbTrace
 10
77.82153940838579
 20
5.441074928723896
 30
0.0
 11
84.17153940838578
 21
4.425074928723896
 31
0.0
 12
84.17153940838578
 22
6.457074928723896
 32
0.0
 13
84.17153940838578
 23
6.457074928723896
 33
0.0
  0
LINE
  5
13B
330
1F
100
AcDbEntity
  8
참조1
100
AcDbLine
 10
90.52153940838579
 20
-5.438925071276109
 30
0.0
 11
77.82153940838579
 21
-5.438925071276109
 31
0.0
  0
SOLID
  5
13C
330
1F
100
AcDbEntity
  8
참조1
100
AcDbTrace
 10
77.82153940838579
 20
-5.438925071276109
 30
0.0
 11
84.17153940838578
 21
-6.454925071276109
 31
0.0
 12
84.17153940838578
 22
-4.422925071276109
 32
0.0
 13
84.17153940838578
 23
-4.422925071276109
 33
0.0
  0
MTEXT
  5
13D
330
1F
100
AcDbEntity
  8
참조1
100
AcDbMText
 10
87.20588954101179
 20
11.01136670591222
 30
0.0
 40
3.5
 41
0.0
 71
     1
 72
     1
  1
A
  7
SLDTEXTSTYLE0
 73
     1
 44
1.0
  0
MTEXT
  5
13E
330
1F
100
AcDbEntity
  8
참조1
100
AcDbMText
 10
87.20588954101179
 20
0.1313667059122192
 30
0.0
 40
3.5
 41
0.0
 71
     1
 72
     1
  1
A
  7
SLDTEXTSTYLE0
 73
     1
 44
1.0
  0
INSERT
  5
145
330
1F
100
AcDbEntity
  8
해칭선
100
AcDbBlockReference
  2
SW_DOWELSYMBOL_0
 10
0.0
 20
0.0
 30
0.0
  0
LINE
  5
235
330
1F
100
AcDbEntity
  8
외형선
  6
Continuous
370
    15
100
AcDbLine
 10
-22.85832499999999
 20
6.286499999999961
 30
0.0
 11
-12.67292499999997
 21
6.286499999999961
 31
0.0
  0
LINE
  5
236
330
1F
100
AcDbEntity
  8
외형선
  6
Continuous
370
    15
100
AcDbLine
 10
-22.85832499999999
 20
6.286500000000061
 30
0.0
 11
-24.50932499999994
 21
7.937499999999972
 31
0.0
  0
LINE
  5
237
330
1F
100
AcDbEntity
  8
외형선
  6
Continuous
370
    15
100
AcDbLine
 10
-12.67292500000008
 20
6.286500000000061
 30
0.0
 11
-11.02192500000007
 21
7.937499999999972
 31
0.0
  0
LINE
  5
238
330
1F
100
AcDbEntity
  8
외형선
  6
Continuous
370
    15
100
AcDbLine
 10
-24.50932499999996
 20
7.937499999999996
 30
0.0
 11
-40.97499999999998
 21
7.937499999999996
 31
0.0
  0
ENDSEC
  0
SECTION
  2
OBJECTS
  0
DICTIONARY
  5
C
330
0
100
AcDbDictionary
281
     1
  3
ACAD_GROUP
350
D
  3
ACAD_IMAGE_VARS
350
169
  3
ACAD_LAYOUT
350
1A
  3
ACAD_MLINESTYLE
350
17
  3
ACAD_PLOTSETTINGS
350
19
  3
ACAD_PLOTSTYLENAME
350
E
  3
ACAD_SCALELIST
350
47
  3
APPDATA
350
167
  3
DWGPROPS
350
239
  0
DICTIONARY
  5
190
330
2
100
AcDbDictionary
280
     1
281
     1
  3
ACAD_LAYERSTATES
360
191
  0
DICTIONARY
  5
D
102
{ACAD_REACTORS
330
C
102
}
330
C
100
AcDbDictionary
281
     1
  0
RASTERVARIABLES
  5
169
102
{ACAD_REACTORS
330
C
102
}
330
C
100
AcDbRasterVariables
 90
        0
 70
     1
 71
     1
 72
     1
  0
DICTIONARY
  5
1A
102
{ACAD_REACTORS
330
C
102
}
330
C
100
AcDbDictionary
281
     1
  3
Layout1
350
1E
  3
Layout2
350
26
  3
Model
350
22
  0
DICTIONARY
  5
17
102
{ACAD_REACTORS
330
C
102
}
330
C
100
AcDbDictionary
281
     1
  3
Standard
350
18
  0
DICTIONARY
  5
19
102
{ACAD_REACTORS
330
C
102
}
330
C
100
AcDbDictionary
281
     1
  0
ACDBDICTIONARYWDFLT
  5
E
102
{ACAD_REACTORS
330
C
102
}
330
C
100
AcDbDictionary
281
     1
  3
Normal
350
F
100
AcDbDictionaryWithDefault
340
F
  0
DICTIONARY
  5
47
102
{ACAD_REACTORS
330
C
102
}
330
C
100
AcDbDictionary
281
     1
  3
A0
350
48
  3
A1
350
49
  3
A2
350
4A
  3
A3
350
4B
  3
A4
350
4C
  3
A5
350
4D
  3
A6
350
4E
  3
A7
350
4F
  3
A8
350
50
  3
A9
350
51
  3
B0
350
52
  3
B1
350
53
  3
B2
350
54
  3
B3
350
55
  3
B4
350
56
  3
B5
350
57
  3
B6
350
58
  3
B7
350
59
  3
B8
350
5A
  3
B9
350
5B
  3
C0
350
5C
  3
C1
350
5D
  3
C2
350
5E
  3
C3
350
5F
  3
C4
350
60
  3
C5
350
61
  3
C6
350
62
  3
C7
350
63
  3
C8
350
64
  3
C9
350
65
  3
D0
350
66
  3
D1
350
67
  3
D2
350
68
  0
DICTIONARY
  5
167
102
{ACAD_REACTORS
330
C
102
}
330
C
100
AcDbDictionary
281
     1
  0
XRECORD
  5
239
102
{ACAD_REACTORS
330
C
102
}
330
C
100
AcDbXrecord
280
     1
  1
DWGPROPS COOKIE
  2

  3

  4

  6

  7

  8
12016016
  9

300
=
301
=
302
=
303
=
304
=
305
=
306
=
307
=
308
=
309
=
 40
0.0
 41
2458311.093556389
 42
2458318.322618623
  1

 90
        0
  0
DICTIONARY
  5
191
102
{ACAD_REACTORS
330
190
102
}
330
190
100
AcDbDictionary
281
     1
  0
LAYOUT
  5
1E
102
{ACAD_REACTORS
330
1A
102
}
330
1A
100
AcDbPlotSettings
  1

  2
none_device
  4

  6

 40
0.0
 41
0.0
 42
0.0
 43
0.0
 44
0.0
 45
0.0
 46
0.0
 47
0.0
 48
0.0
 49
0.0
140
0.0
141
0.0
142
1.0
143
1.0
 70
   688
 72
     1
 73
     0
 74
     5
  7

 75
    16
147
1.0
148
0.0
149
0.0
100
AcDbLayout
  1
Layout1
 70
     1
 71
     1
 10
0.0
 20
0.0
 11
420.0
 21
297.0
 12
0.0
 22
0.0
 32
0.0
 14
1.000000000000000E+20
 24
1.000000000000000E+20
 34
1.000000000000000E+20
 15
-1.000000000000000E+20
 25
-1.000000000000000E+20
 35
-1.000000000000000E+20
146
0.0
 13
0.0
 23
0.0
 33
0.0
 16
1.0
 26
0.0
 36
0.0
 17
0.0
 27
1.0
 37
0.0
 76
     0
330
1B
  0
LAYOUT
  5
26
102
{ACAD_REACTORS
330
1A
102
}
330
1A
100
AcDbPlotSettings
  1

  2
none_device
  4

  6

 40
0.0
 41
0.0
 42
0.0
 43
0.0
 44
0.0
 45
0.0
 46
0.0
 47
0.0
 48
0.0
 49
0.0
140
0.0
141
0.0
142
1.0
143
1.0
 70
   688
 72
     1
 73
     0
 74
     5
  7

 75
    16
147
1.0
148
0.0
149
0.0
100
AcDbLayout
  1
Layout2
 70
     1
 71
     2
 10
0.0
 20
0.0
 11
0.0
 21
0.0
 12
0.0
 22
0.0
 32
0.0
 14
0.0
 24
0.0
 34
0.0
 15
0.0
 25
0.0
 35
0.0
146
0.0
 13
0.0
 23
0.0
 33
0.0
 16
1.0
 26
0.0
 36
0.0
 17
0.0
 27
1.0
 37
0.0
 76
     0
330
23
  0
LAYOUT
  5
22
102
{ACAD_REACTORS
330
1A
102
}
330
1A
100
AcDbPlotSettings
  1

  2
none_device
  4
ANSI_A_(11.00_x_8.50_Inches)
  6

 40
6.35
 41
19.05
 42
6.35000508
 43
19.05000254
 44
279.4
 45
215.9
 46
53.77398938772654
 47
74.05476016816453
 48
0.0
 49
0.0
140
0.0
141
0.0
142
0.0370416116453076
143
1.0
 70
  1696
 72
     0
 73
     0
 74
     0
  7

 75
     0
147
0.0235690232323232
148
0.0
149
0.0
100
AcDbLayout
  1
Model
 70
     1
 71
     0
 10
0.0
 20
0.0
 11
420.0
 21
297.0
 12
0.0
 22
0.0
 32
0.0
 14
1.000000000000000E+20
 24
1.000000000000000E+20
 34
1.000000000000000E+20
 15
-1.000000000000000E+20
 25
-1.000000000000000E+20
 35
-1.000000000000000E+20
146
0.0
 13
0.0
 23
0.0
 33
0.0
 16
1.0
 26
0.0
 36
0.0
 17
0.0
 27
1.0
 37
0.0
 76
     0
330
1F
331
29
  0
MLINESTYLE
  5
18
102
{ACAD_REACTORS
330
17
102
}
330
17
100
AcDbMlineStyle
  2
Standard
 70
     0
  3

 62
   256
 51
90.0
 52
90.0
 71
     2
 49
0.5
 62
   256
  6
BYLAYER
 49
-0.5
 62
   256
  6
BYLAYER
  0
ACDBPLACEHOLDER
  5
F
102
{ACAD_REACTORS
330
E
102
}
330
E
  0
SCALE
  5
48
102
{ACAD_REACTORS
330
47
102
}
330
47
100
AcDbScale
 70
     0
300
1:1
140
1.0
141
1.0
290
     1
  0
SCALE
  5
49
102
{ACAD_REACTORS
330
47
102
}
330
47
100
AcDbScale
 70
     0
300
1:2
140
1.0
141
2.0
290
     0
  0
SCALE
  5
4A
102
{ACAD_REACTORS
330
47
102
}
330
47
100
AcDbScale
 70
     0
300
1:4
140
1.0
141
4.0
290
     0
  0
SCALE
  5
4B
102
{ACAD_REACTORS
330
47
102
}
330
47
100
AcDbScale
 70
     0
300
1:5
140
1.0
141
5.0
290
     0
  0
SCALE
  5
4C
102
{ACAD_REACTORS
330
47
102
}
330
47
100
AcDbScale
 70
     0
300
1:8
140
1.0
141
8.0
290
     0
  0
SCALE
  5
4D
102
{ACAD_REACTORS
330
47
102
}
330
47
100
AcDbScale
 70
     0
300
1:10
140
1.0
141
10.0
290
     0
  0
SCALE
  5
4E
102
{ACAD_REACTORS
330
47
102
}
330
47
100
AcDbScale
 70
     0
300
1:16
140
1.0
141
16.0
290
     0
  0
SCALE
  5
4F
102
{ACAD_REACTORS
330
47
102
}
330
47
100
AcDbScale
 70
     0
300
1:20
140
1.0
141
20.0
290
     0
  0
SCALE
  5
50
102
{ACAD_REACTORS
330
47
102
}
330
47
100
AcDbScale
 70
     0
300
1:30
140
1.0
141
30.0
290
     0
  0
SCALE
  5
51
102
{ACAD_REACTORS
330
47
102
}
330
47
100
AcDbScale
 70
     0
300
1:40
140
1.0
141
40.0
290
     0
  0
SCALE
  5
52
102
{ACAD_REACTORS
330
47
102
}
330
47
100
AcDbScale
 70
     0
300
1:50
140
1.0
141
50.0
290
     0
  0
SCALE
  5
53
102
{ACAD_REACTORS
330
47
102
}
330
47
100
AcDbScale
 70
     0
300
1:100
140
1.0
141
100.0
290
     0
  0
SCALE
  5
54
102
{ACAD_REACTORS
330
47
102
}
330
47
100
AcDbScale
 70
     0
300
2:1
140
2.0
141
1.0
290
     0
  0
SCALE
  5
55
102
{ACAD_REACTORS
330
47
102
}
330
47
100
AcDbScale
 70
     0
300
4:1
140
4.0
141
1.0
290
     0
  0
SCALE
  5
56
102
{ACAD_REACTORS
330
47
102
}
330
47
100
AcDbScale
 70
     0
300
8:1
140
8.0
141
1.0
290
     0
  0
SCALE
  5
57
102
{ACAD_REACTORS
330
47
102
}
330
47
100
AcDbScale
 70
     0
300
10:1
140
10.0
141
1.0
290
     0
  0
SCALE
  5
58
102
{ACAD_REACTORS
330
47
102
}
330
47
100
AcDbScale
 70
     0
300
100:1
140
100.0
141
1.0
290
     0
  0
SCALE
  5
59
102
{ACAD_REACTORS
330
47
102
}
330
47
100
AcDbScale
 70
     0
300
1/128" = 1'-0"
140
0.0078125
141
12.0
290
     0
  0
SCALE
  5
5A
102
{ACAD_REACTORS
330
47
102
}
330
47
100
AcDbScale
 70
     0
300
1/64" = 1'-0"
140
0.015625
141
12.0
290
     0
  0
SCALE
  5
5B
102
{ACAD_REACTORS
330
47
102
}
330
47
100
AcDbScale
 70
     0
300
1/32" = 1'-0"
140
0.03125
141
12.0
290
     0
  0
SCALE
  5
5C
102
{ACAD_REACTORS
330
47
102
}
330
47
100
AcDbScale
 70
     0
300
1/16" = 1'-0"
140
0.0625
141
12.0
290
     0
  0
SCALE
  5
5D
102
{ACAD_REACTORS
330
47
102
}
330
47
100
AcDbScale
 70
     0
300
3/32" = 1'-0"
140
0.09375
141
12.0
290
     0
  0
SCALE
  5
5E
102
{ACAD_REACTORS
330
47
102
}
330
47
100
AcDbScale
 70
     0
300
1/8" = 1'-0"
140
0.125
141
12.0
290
     0
  0
SCALE
  5
5F
102
{ACAD_REACTORS
330
47
102
}
330
47
100
AcDbScale
 70
     0
300
3/16" = 1'-0"
140
0.1875
141
12.0
290
     0
  0
SCALE
  5
60
102
{ACAD_REACTORS
330
47
102
}
330
47
100
AcDbScale
 70
     0
300
1/4" = 1'-0"
140
0.25
141
12.0
290
     0
  0
SCALE
  5
61
102
{ACAD_REACTORS
330
47
102
}
330
47
100
AcDbScale
 70
     0
300
3/8" = 1'-0"
140
0.375
141
12.0
290
     0
  0
SCALE
  5
62
102
{ACAD_REACTORS
330
47
102
}
330
47
100
AcDbScale
 70
     0
300
1/2" = 1'-0"
140
0.5
141
12.0
290
     0
  0
SCALE
  5
63
102
{ACAD_REACTORS
330
47
102
}
330
47
100
AcDbScale
 70
     0
300
3/4" = 1'-0"
140
0.75
141
12.0
290
     0
  0
SCALE
  5
64
102
{ACAD_REACTORS
330
47
102
}
330
47
100
AcDbScale
 70
     0
300
1" = 1'-0"
140
1.0
141
12.0
290
     0
  0
SCALE
  5
65
102
{ACAD_REACTORS
330
47
102
}
330
47
100
AcDbScale
 70
     0
300
1-1/2" = 1'-0"
140
1.5
141
12.0
290
     0
  0
SCALE
  5
66
102
{ACAD_REACTORS
330
47
102
}
330
47
100
AcDbScale
 70
     0
300
3" = 1'-0"
140
3.0
141
12.0
290
     0
  0
SCALE
  5
67
102
{ACAD_REACTORS
330
47
102
}
330
47
100
AcDbScale
 70
     0
300
6" = 1'-0"
140
6.0
141
12.0
290
     0
  0
SCALE
  5
68
102
{ACAD_REACTORS
330
47
102
}
330
47
100
AcDbScale
 70
     0
300
1'-0" = 1'-0"
140
12.0
141
12.0
290
     0
  0
ENDSEC
  0
EOF
