  0
SECTION
  2
HEADER
  9
$ACADVER
  1
AC1015
  9
$ACADMAINTVER
 70
     6
  9
$DWGCODEPAGE
  3
ANSI_949
  9
$INSBASE
 10
0.0
 20
0.0
 30
0.0
  9
$EXTMIN
 10
1.000000000000000E+20
 20
1.000000000000000E+20
 30
1.000000000000000E+20
  9
$EXTMAX
 10
-1.000000000000000E+20
 20
-1.000000000000000E+20
 30
-1.000000000000000E+20
  9
$LIMMIN
 10
0.0
 20
0.0
  9
$LIMMAX
 10
420.0
 20
297.0
  9
$ORTHOMODE
 70
     1
  9
$REGENMODE
 70
     1
  9
$FILLMODE
 70
     1
  9
$QTEXTMODE
 70
     0
  9
$MIRRTEXT
 70
     1
  9
$LTSCALE
 40
1.0
  9
$ATTMODE
 70
     1
  9
$TEXTSIZE
 40
3.5
  9
$TRACEWID
 40
1.0
  9
$TEXTSTYLE
  7
Standard
  9
$CLAYER
  8
0
  9
$CELTYPE
  6
ByLayer
  9
$CECOLOR
 62
   256
  9
$CELTSCALE
 40
1.0
  9
$DISPSILH
 70
     0
  9
$DIMSCALE
 40
1.0
  9
$DIMASZ
 40
3.302
  9
$DIMEXO
 40
1.0
  9
$DIMDLI
 40
3.75
  9
$DIMRND
 40
0.0
  9
$DIMDLE
 40
0.0
  9
$DIMEXE
 40
1.0
  9
$DIMTP
 40
0.0
  9
$DIMTM
 40
0.0
  9
$DIMTXT
 40
3.5
  9
$DIMCEN
 40
2.5
  9
$DIMTSZ
 40
0.0
  9
$DIMTOL
 70
     0
  9
$DIMLIM
 70
     0
  9
$DIMTIH
 70
     1
  9
$DIMTOH
 70
     1
  9
$DIMSE1
 70
     0
  9
$DIMSE2
 70
     0
  9
$DIMTAD
 70
     1
  9
$DIMZIN
 70
     0
  9
$DIMBLK
  1

  9
$DIMASO
 70
     1
  9
$DIMSHO
 70
     1
  9
$DIMPOST
  1

  9
$DIMAPOST
  1

  9
$DIMALT
 70
     0
  9
$DIMALTD
 70
     3
  9
$DIMALTF
 40
0.0393700787401575
  9
$DIMLFAC
 40
1.0
  9
$DIMTOFL
 70
     1
  9
$DIMTVP
 40
0.0
  9
$DIMTIX
 70
     0
  9
$DIMSOXD
 70
     0
  9
$DIMSAH
 70
     0
  9
$DIMBLK1
  1

  9
$DIMBLK2
  1

  9
$DIMSTYLE
  2
ISO-25
  9
$DIMCLRD
 70
     0
  9
$DIMCLRE
 70
     0
  9
$DIMCLRT
 70
     0
  9
$DIMTFAC
 40
1.0
  9
$DIMGAP
 40
1.524
  9
$DIMJUST
 70
     0
  9
$DIMSD1
 70
     0
  9
$DIMSD2
 70
     0
  9
$DIMTOLJ
 70
     0
  9
$DIMTZIN
 70
     0
  9
$DIMALTZ
 70
     0
  9
$DIMALTTZ
 70
     0
  9
$DIMUPT
 70
     0
  9
$DIMDEC
 70
     2
  9
$DIMTDEC
 70
     2
  9
$DIMALTU
 70
     2
  9
$DIMALTTD
 70
     3
  9
$DIMTXSTY
  7
Standard
  9
$DIMAUNIT
 70
     0
  9
$DIMADEC
 70
     2
  9
$DIMALTRND
 40
0.0
  9
$DIMAZIN
 70
     0
  9
$DIMDSEP
 70
    44
  9
$DIMATFIT
 70
     3
  9
$DIMFRAC
 70
     0
  9
$DIMLDRBLK
  1

  9
$DIMLUNIT
 70
     2
  9
$DIMLWD
 70
    -2
  9
$DIMLWE
 70
    -2
  9
$DIMTMOVE
 70
     0
  9
$LUNITS
 70
     2
  9
$LUPREC
 70
     2
  9
$SKETCHINC
 40
1.0
  9
$FILLETRAD
 40
10.0
  9
$AUNITS
 70
     0
  9
$AUPREC
 70
     2
  9
$MENU
  1
.
  9
$ELEVATION
 40
0.0
  9
$PELEVATION
 40
0.0
  9
$THICKNESS
 40
0.0
  9
$LIMCHECK
 70
     0
  9
$CHAMFERA
 40
0.0
  9
$CHAMFERB
 40
0.0
  9
$CHAMFERC
 40
0.0
  9
$CHAMFERD
 40
0.0
  9
$SKPOLY
 70
     0
  9
$TDCREATE
 40
2458311.468344618
  9
$TDUCREATE
 40
2458311.093344618
  9
$TDUPDATE
 40
2458318.697805023
  9
$TDUUPDATE
 40
2458318.322805023
  9
$TDINDWG
 40
0.0008775231
  9
$TDUSRTIMER
 40
2458318.32270162
  9
$USRTIMER
 70
     1
  9
$ANGBASE
 50
0.0
  9
$ANGDIR
 70
     0
  9
$PDMODE
 70
     0
  9
$PDSIZE
 40
-1.0
  9
$PLINEWID
 40
0.0
  9
$SPLFRAME
 70
     0
  9
$SPLINETYPE
 70
     6
  9
$SPLINESEGS
 70
     8
  9
$HANDSEED
  5
201
  9
$SURFTAB1
 70
     6
  9
$SURFTAB2
 70
     6
  9
$SURFTYPE
 70
     6
  9
$SURFU
 70
     6
  9
$SURFV
 70
     6
  9
$UCSBASE
  2

  9
$UCSNAME
  2

  9
$UCSORG
 10
0.0
 20
0.0
 30
0.0
  9
$UCSXDIR
 10
1.0
 20
0.0
 30
0.0
  9
$UCSYDIR
 10
0.0
 20
1.0
 30
0.0
  9
$UCSORTHOREF
  2

  9
$UCSORTHOVIEW
 70
     0
  9
$UCSORGTOP
 10
0.0
 20
0.0
 30
0.0
  9
$UCSORGBOTTOM
 10
0.0
 20
0.0
 30
0.0
  9
$UCSORGLEFT
 10
0.0
 20
0.0
 30
0.0
  9
$UCSORGRIGHT
 10
0.0
 20
0.0
 30
0.0
  9
$UCSORGFRONT
 10
0.0
 20
0.0
 30
0.0
  9
$UCSORGBACK
 10
0.0
 20
0.0
 30
0.0
  9
$PUCSBASE
  2

  9
$PUCSNAME
  2

  9
$PUCSORG
 10
0.0
 20
0.0
 30
0.0
  9
$PUCSXDIR
 10
1.0
 20
0.0
 30
0.0
  9
$PUCSYDIR
 10
0.0
 20
1.0
 30
0.0
  9
$PUCSORTHOREF
  2

  9
$PUCSORTHOVIEW
 70
     0
  9
$PUCSORGTOP
 10
0.0
 20
0.0
 30
0.0
  9
$PUCSORGBOTTOM
 10
0.0
 20
0.0
 30
0.0
  9
$PUCSORGLEFT
 10
0.0
 20
0.0
 30
0.0
  9
$PUCSORGRIGHT
 10
0.0
 20
0.0
 30
0.0
  9
$PUCSORGFRONT
 10
0.0
 20
0.0
 30
0.0
  9
$PUCSORGBACK
 10
0.0
 20
0.0
 30
0.0
  9
$USERI1
 70
     0
  9
$USERI2
 70
     0
  9
$USERI3
 70
     0
  9
$USERI4
 70
     0
  9
$USERI5
 70
     0
  9
$USERR1
 40
0.0
  9
$USERR2
 40
0.0
  9
$USERR3
 40
0.0
  9
$USERR4
 40
0.0
  9
$USERR5
 40
0.0
  9
$WORLDVIEW
 70
     1
  9
$SHADEDGE
 70
     3
  9
$SHADEDIF
 70
    70
  9
$TILEMODE
 70
     1
  9
$MAXACTVP
 70
    64
  9
$PINSBASE
 10
0.0
 20
0.0
 30
0.0
  9
$PLIMCHECK
 70
     0
  9
$PEXTMIN
 10
1.000000000000000E+20
 20
1.000000000000000E+20
 30
1.000000000000000E+20
  9
$PEXTMAX
 10
-1.000000000000000E+20
 20
-1.000000000000000E+20
 30
-1.000000000000000E+20
  9
$PLIMMIN
 10
0.0
 20
0.0
  9
$PLIMMAX
 10
0.0
 20
0.0
  9
$UNITMODE
 70
     0
  9
$VISRETAIN
 70
     1
  9
$PLINEGEN
 70
     0
  9
$PSLTSCALE
 70
     1
  9
$TREEDEPTH
 70
  3020
  9
$CMLSTYLE
  2
Standard
  9
$CMLJUST
 70
     0
  9
$CMLSCALE
 40
20.0
  9
$PROXYGRAPHICS
 70
     1
  9
$MEASUREMENT
 70
     1
  9
$CELWEIGHT
370
    -1
  9
$ENDCAPS
280
     0
  9
$JOINSTYLE
280
     0
  9
$LWDISPLAY
290
     1
  9
$INSUNITS
 70
     4
  9
$HYPERLINKBASE
  1

  9
$STYLESHEET
  1

  9
$XEDIT
290
     1
  9
$CEPSNTYPE
380
     0
  9
$PSTYLEMODE
290
     1
  9
$FINGERPRINTGUID
  2
{EAF97B19-0B8F-429F-8B65-B39C7BEA9BD4}
  9
$VERSIONGUID
  2
{FAEB1C32-E019-11D5-929B-00C0DF256EC4}
  9
$EXTNAMES
290
     1
  9
$PSVPSCALE
 40
0.0
  9
$OLESTARTUP
290
     0
  0
ENDSEC
  0
SECTION
  2
CLASSES
  0
CLASS
  1
ACDBDICTIONARYWDFLT
  2
AcDbDictionaryWithDefault
  3
ObjectDBX Classes
 90
        0
280
     0
281
     0
  0
CLASS
  1
VISUALSTYLE
  2
AcDbVisualStyle
  3
ObjectDBX Classes
 90
     4095
280
     0
281
     0
  0
CLASS
  1
MATERIAL
  2
AcDbMaterial
  3
ObjectDBX Classes
 90
     1153
280
     0
281
     0
  0
CLASS
  1
SCALE
  2
AcDbScale
  3
ObjectDBX Classes
 90
     1153
280
     0
281
     0
  0
CLASS
  1
SUN
  2
AcDbSun
  3
SCENEOE
 90
     1153
280
     0
281
     0
  0
CLASS
  1
ACDBPLACEHOLDER
  2
AcDbPlaceHolder
  3
ObjectDBX Classes
 90
        0
280
     0
281
     0
  0
CLASS
  1
LAYOUT
  2
AcDbLayout
  3
ObjectDBX Classes
 90
        0
280
     0
281
     0
  0
CLASS
  1
TABLESTYLE
  2
AcDbTableStyle
  3
ObjectDBX Classes
 90
     4095
280
     0
281
     0
  0
CLASS
  1
MLEADERSTYLE
  2
AcDbMLeaderStyle
  3
ACDB_MLEADERSTYLE_CLASS
 90
     4095
280
     0
281
     0
  0
CLASS
  1
RASTERVARIABLES
  2
AcDbRasterVariables
  3
ISM
 90
        0
280
     0
281
     0
  0
ENDSEC
  0
SECTION
  2
TABLES
  0
TABLE
  2
VPORT
  5
8
330
0
100
AcDbSymbolTable
 70
     1
  0
VPORT
  5
29
330
8
100
AcDbSymbolTableRecord
100
AcDbViewportTableRecord
  2
*Active
 70
     0
 10
0.0
 20
0.0
 11
1.0
 21
1.0
 12
36.91290866531813
 22
-34.13688806242082
 13
0.0
 23
0.0
 14
10.0
 24
10.0
 15
10.0
 25
10.0
 16
0.0
 26
0.0
 36
1.0
 17
0.0
 27
0.0
 37
0.0
 40
232.6869513864077
 41
1.740812379110251
 42
50.0
 43
0.0
 44
0.0
 50
0.0
 51
0.0
 71
    16
 72
  2000
 73
     1
 74
     3
 75
     0
 76
     0
 77
     0
 78
     0
281
     0
 65
     1
110
0.0
120
0.0
130
0.0
111
1.0
121
0.0
131
0.0
112
0.0
122
1.0
132
0.0
 79
     0
146
0.0
  0
ENDTAB
  0
TABLE
  2
LTYPE
  5
5
330
0
100
AcDbSymbolTable
 70
     6
  0
LTYPE
  5
14
330
5
100
AcDbSymbolTableRecord
100
AcDbLinetypeTableRecord
  2
ByBlock
 70
     0
  3

 72
    65
 73
     0
 40
0.0
  0
LTYPE
  5
15
330
5
100
AcDbSymbolTableRecord
100
AcDbLinetypeTableRecord
  2
ByLayer
 70
     0
  3

 72
    65
 73
     0
 40
0.0
  0
LTYPE
  5
16
330
5
100
AcDbSymbolTableRecord
100
AcDbLinetypeTableRecord
  2
Continuous
 70
     0
  3
Solid line
 72
    65
 73
     0
 40
0.0
  0
LTYPE
  5
6A
330
5
100
AcDbSymbolTableRecord
100
AcDbLinetypeTableRecord
  2
HIDDEN
 70
     0
  3
Hidden __ __ __ __ __ __ __ __ __ __ __ __ __ __
 72
    65
 73
     2
 40
1.905
 49
1.27
 74
     0
 49
-0.635
 74
     0
  0
LTYPE
  5
6B
330
5
100
AcDbSymbolTableRecord
100
AcDbLinetypeTableRecord
  2
PHANTOM
 70
     0
  3
Phantom ______  __  __  ______  __  __  ______
 72
    65
 73
     6
 40
12.7
 49
6.35
 74
     0
 49
-1.27
 74
     0
 49
1.27
 74
     0
 49
-1.27
 74
     0
 49
1.27
 74
     0
 49
-1.27
 74
     0
  0
LTYPE
  5
6C
330
5
100
AcDbSymbolTableRecord
100
AcDbLinetypeTableRecord
  2
CENTER
 70
     0
  3
Center ____ _ ____ _ ____ _ ____ _ ____ _ ____
 72
    65
 73
     4
 40
10.16
 49
6.35
 74
     0
 49
-1.27
 74
     0
 49
1.27
 74
     0
 49
-1.27
 74
     0
  0
LTYPE
  5
6D
330
5
100
AcDbSymbolTableRecord
100
AcDbLinetypeTableRecord
  2
CENTERX2
 70
     0
  3
Center (2x) ________  __  ________  __  _____
 72
    65
 73
     4
 40
20.32
 49
12.7
 74
     0
 49
-2.54
 74
     0
 49
2.54
 74
     0
 49
-2.54
 74
     0
  0
LTYPE
  5
6E
330
5
100
AcDbSymbolTableRecord
100
AcDbLinetypeTableRecord
  2
DOT2
 70
     0
  3
Dot (.5x) ........................................
 72
    65
 73
     2
 40
0.635
 49
0.0
 74
     0
 49
-0.635
 74
     0
  0
ENDTAB
  0
TABLE
  2
LAYER
  5
2
102
{ACAD_XDICTIONARY
360
190
102
}
330
0
100
AcDbSymbolTable
 70
    18
  0
LAYER
  5
10
330
2
100
AcDbSymbolTableRecord
100
AcDbLayerTableRecord
  2
0
 70
     0
 62
     7
  6
Continuous
370
    -3
390
F
  0
LAYER
  5
6F
330
2
100
AcDbSymbolTableRecord
100
AcDbLayerTableRecord
  2
FORMAT
 70
     0
 62
     2
  6
Continuous
370
    -3
390
F
  0
LAYER
  5
70
330
2
100
AcDbSymbolTableRecord
100
AcDbLayerTableRecord
  2
외형선
 70
     0
 62
     4
  6
Continuous
370
    30
390
F
  0
LAYER
  5
71
330
2
100
AcDbSymbolTableRecord
100
AcDbLayerTableRecord
  2
숨은선
 70
     0
 62
     2
  6
HIDDEN
370
    15
390
F
  0
LAYER
  5
72
330
2
100
AcDbSymbolTableRecord
100
AcDbLayerTableRecord
  2
중심선
 70
     0
 62
     1
  6
CENTERX2
370
    -3
390
F
  0
LAYER
  5
73
330
2
100
AcDbSymbolTableRecord
100
AcDbLayerTableRecord
  2
파단선
 70
     0
 62
     4
  6
Continuous
370
    -3
390
F
  0
LAYER
  5
74
330
2
100
AcDbSymbolTableRecord
100
AcDbLayerTableRecord
  2
해칭선
 70
     0
 62
   100
  6
Continuous
370
    -3
390
F
  0
LAYER
  5
75
330
2
100
AcDbSymbolTableRecord
100
AcDbLayerTableRecord
  2
가는실선
 70
     0
 62
     4
  6
Continuous
370
    -3
390
F
  0
LAYER
  5
76
330
2
100
AcDbSymbolTableRecord
100
AcDbLayerTableRecord
  2
치수_보조선
 70
     0
 62
     4
  6
Continuous
370
    -3
390
F
  0
LAYER
  5
77
330
2
100
AcDbSymbolTableRecord
100
AcDbLayerTableRecord
  2
치수문자_일반주서
 70
     0
 62
     7
  6
Continuous
370
    15
390
F
  0
LAYER
  5
78
330
2
100
AcDbSymbolTableRecord
100
AcDbLayerTableRecord
  2
개별주서
 70
     0
 62
   100
  6
Continuous
370
    30
390
F
  0
LAYER
  5
79
330
2
100
AcDbSymbolTableRecord
100
AcDbLayerTableRecord
  2
중간선
 70
     0
 62
     2
  6
Continuous
370
    15
390
F
  0
LAYER
  5
7A
330
2
100
AcDbSymbolTableRecord
100
AcDbLayerTableRecord
  2
윤곽선
 70
     0
 62
     3
  6
Continuous
370
    40
390
F
  0
LAYER
  5
7B
330
2
100
AcDbSymbolTableRecord
100
AcDbLayerTableRecord
  2
중심마크
 70
     0
 62
   100
  6
Continuous
370
    30
390
F
  0
LAYER
  5
7C
330
2
100
AcDbSymbolTableRecord
100
AcDbLayerTableRecord
  2
가상선
 70
     0
 62
     4
  6
PHANTOM
370
    -3
390
F
  0
LAYER
  5
7D
330
2
100
AcDbSymbolTableRecord
100
AcDbLayerTableRecord
  2
특수지정선
 70
     0
 62
     5
  6
CENTERX2
370
    60
390
F
  0
LAYER
  5
7E
330
2
100
AcDbSymbolTableRecord
100
AcDbLayerTableRecord
  2
참조1
 70
     0
 62
    -4
  6
Continuous
370
    -3
390
F
  0
LAYER
  5
197
330
2
100
AcDbSymbolTableRecord
100
AcDbLayerTableRecord
  2
Defpoints
 70
     0
 62
     7
  6
Continuous
290
     0
370
    -3
390
F
  0
ENDTAB
  0
TABLE
  2
STYLE
  5
3
330
0
100
AcDbSymbolTable
 70
     2
  0
STYLE
  5
11
330
3
100
AcDbSymbolTableRecord
100
AcDbTextStyleTableRecord
  2
Standard
 70
     0
 40
0.0
 41
1.0
 50
0.0
 71
     0
 42
3.5
  3
txt
  4

  0
STYLE
  5
94
330
3
100
AcDbSymbolTableRecord
100
AcDbTextStyleTableRecord
  2
SLDTEXTSTYLE0
 70
     0
 40
0.0
 41
0.75
 50
0.0
 71
     0
 42
3.5
  3
TXT
  4

  0
ENDTAB
  0
TABLE
  2
VIEW
  5
6
330
0
100
AcDbSymbolTable
 70
     0
  0
ENDTAB
  0
TABLE
  2
UCS
  5
7
330
0
100
AcDbSymbolTable
 70
     0
  0
ENDTAB
  0
TABLE
  2
APPID
  5
9
330
0
100
AcDbSymbolTable
 70
     1
  0
APPID
  5
12
330
9
100
AcDbSymbolTableRecord
100
AcDbRegAppTableRecord
  2
ACAD
 70
     0
  0
ENDTAB
  0
TABLE
  2
DIMSTYLE
  5
A
330
0
100
AcDbSymbolTable
 70
     4
100
AcDbDimStyleTable
  0
DIMSTYLE
105
27
330
A
100
AcDbSymbolTableRecord
100
AcDbDimStyleTableRecord
  2
ISO-25
 70
     0
 41
2.5
 42
0.625
 43
3.75
 44
1.25
 73
     0
 74
     0
 77
     1
 78
     8
140
2.5
141
2.5
143
0.03937007874016
147
0.625
171
     3
172
     1
178
     0
271
     2
272
     2
274
     3
278
    44
283
     0
284
     8
340
11
  0
DIMSTYLE
105
E8
102
{ACAD_REACTORS
330
E7
330
FC
330
111
330
125
102
}
330
A
100
AcDbSymbolTableRecord
100
AcDbDimStyleTableRecord
  2
SLDDIMSTYLE0
 70
     0
 41
3.302
 44
0.0
 45
0.000000001
 73
     0
 74
     0
 77
     1
 78
     4
 79
     1
140
3.5
143
0.0393700787401575
147
0.875
148
0.000000001
170
     1
172
     1
173
     1
178
     0
271
     2
272
     2
276
     2
284
    12
289
     0
340
94
  0
DIMSTYLE
105
FD
330
A
100
AcDbSymbolTableRecord
100
AcDbDimStyleTableRecord
  2
SLDDIMSTYLE1
 70
     0
 41
3.302
 44
0.0
 45
0.000000001
 73
     0
 74
     0
 77
     1
 78
     4
 79
     1
140
3.5
143
0.0393700787401575
147
0.875
148
0.000000001
170
     1
173
     1
178
     0
271
     2
272
     2
276
     2
284
    12
340
94
  0
DIMSTYLE
105
112
330
A
100
AcDbSymbolTableRecord
100
AcDbDimStyleTableRecord
  2
SLDDIMSTYLE2
 70
     0
 41
3.302
 44
0.0
 45
0.000000001
 73
     0
 74
     0
 77
     1
 78
    12
 79
     3
140
3.5
143
0.0393700787401575
147
0.875
148
0.000000001
170
     1
173
     1
178
     0
271
     2
272
     2
276
     2
284
    12
340
94
  0
ENDTAB
  0
TABLE
  2
BLOCK_RECORD
  5
1
330
0
100
AcDbSymbolTable
 70
     8
  0
BLOCK_RECORD
  5
1F
330
1
100
AcDbSymbolTableRecord
100
AcDbBlockTableRecord
  2
*Model_Space
340
22
  0
BLOCK_RECORD
  5
1B
330
1
100
AcDbSymbolTableRecord
100
AcDbBlockTableRecord
  2
*Paper_Space
340
1E
  0
BLOCK_RECORD
  5
23
330
1
100
AcDbSymbolTableRecord
100
AcDbBlockTableRecord
  2
*Paper_Space0
340
26
  0
BLOCK_RECORD
  5
7F
330
1
100
AcDbSymbolTableRecord
100
AcDbBlockTableRecord
  2
블럭10
340
0
102
{BLKREFS
331
E0
102
}
  0
BLOCK_RECORD
  5
E9
330
1
100
AcDbSymbolTableRecord
100
AcDbBlockTableRecord
  2
_D
340
0
  0
BLOCK_RECORD
  5
FE
330
1
100
AcDbSymbolTableRecord
100
AcDbBlockTableRecord
  2
_D_1
340
0
  0
BLOCK_RECORD
  5
113
330
1
100
AcDbSymbolTableRecord
100
AcDbBlockTableRecord
  2
_D_2
340
0
  0
BLOCK_RECORD
  5
126
330
1
100
AcDbSymbolTableRecord
100
AcDbBlockTableRecord
  2
_D_3
340
0
  0
BLOCK_RECORD
  5
13F
330
1
100
AcDbSymbolTableRecord
100
AcDbBlockTableRecord
  2
SW_DOWELSYMBOL_0
340
0
102
{BLKREFS
331
145
102
}
  0
ENDTAB
  0
ENDSEC
  0
SECTION
  2
BLOCKS
  0
BLOCK
  5
20
330
1F
100
AcDbEntity
  8
0
100
AcDbBlockBegin
  2
*Model_Space
 70
     0
 10
0.0
 20
0.0
 30
0.0
  3
*Model_Space
  1
*Model_Space
  0
ENDBLK
  5
21
330
1F
100
AcDbEntity
  8
0
100
AcDbBlockEnd
  0
BLOCK
  5
1C
330
1B
100
AcDbEntity
 67
     1
  8
0
100
AcDbBlockBegin
  2
*Paper_Space
 70
     0
 10
0.0
 20
0.0
 30
0.0
  3
*Paper_Space
  1
*Paper_Space
  0
ENDBLK
  5
1D
330
1B
100
AcDbEntity
 67
     1
  8
0
100
AcDbBlockEnd
  0
BLOCK
  5
24
330
23
100
AcDbEntity
  8
0
100
AcDbBlockBegin
  2
*Paper_Space0
 70
     0
 10
0.0
 20
0.0
 30
0.0
  3
*Paper_Space0
  1
*Paper_Space0
  0
ENDBLK
  5
25
330
23
100
AcDbEntity
  8
0
100
AcDbBlockEnd
  0
BLOCK
  5
80
330
7F
100
AcDbEntity
  8
0
100
AcDbBlockBegin
  2
블럭10
 70
     2
 10
0.0
 20
0.0
 30
0.0
  3
블럭10
  1
블럭10
  0
ELLIPSE
  5
82
330
7F
100
AcDbEntity
  8
중심선
100
AcDbEllipse
 10
20.54032771741204
 20
12.0471743016438
 30
0.0
 11
6.600054785286829
 21
-1.261213355974178E-13
 31
0.0
210
0.0
220
0.0
230
1.0
 40
0.636358354079598
 41
0.9219305317359503
 42
6.513795318482858
  0
ELLIPSE
  5
83
330
7F
100
AcDbEntity
  8
중심선
100
AcDbEllipse
 10
20.54032771746488
 20
12.04717430159265
 30
0.0
 11
3.960054785062283
 21
1.540847449632565E-10
 31
0.0
210
0.0
220
0.0
230
1.0
 40
0.3939339440162632
 41
1.131841032648279
 42
5.62031148352944
  0
LINE
  5
84
330
7F
100
AcDbEntity
  8
중심선
100
AcDbLine
 10
2.268634060543552
 20
16.24717430164393
 30
0.0
 11
5.714909304380834
 21
16.24717430164393
 31
0.0
  0
LINE
  5
85
330
7F
100
AcDbEntity
  8
중심선
100
AcDbLine
 10
5.245725140726316
 20
7.84717430164391
 30
0.0
 11
8.692000384563599
 21
7.84717430164391
 31
0.0
  0
LINE
  5
86
330
7F
100
AcDbEntity
  8
중심선
100
AcDbLine
 10
15.74043728645272
 20
16.24717430164393
 30
0.0
 11
8.692000384563599
 21
7.84717430164391
 31
0.0
  0
LINE
  5
87
330
7F
100
AcDbEntity
  8
중심선
100
AcDbLine
 10
0.1404042013395286
 20
13.71084872107135
 30
0.0
 11
3.58671253028996
 21
13.71088815037384
 31
0.0
  0
LINE
  5
88
330
7F
100
AcDbEntity
  8
중심선
100
AcDbLine
 10
2.750260043222114
 20
10.84717430164391
 30
0.0
 11
6.196535287059397
 21
10.84717430164391
 31
0.0
  0
LINE
  5
89
330
7F
100
AcDbEntity
  8
중심선
100
AcDbLine
 10
12.29416204261559
 20
16.24717430164393
 30
0.0
 11
5.245725140726316
 21
7.84717430164391
 31
0.0
  0
LINE
  5
8A
330
7F
100
AcDbEntity
  8
중심선
100
AcDbLine
 10
10.72767329541681
 20
16.24717430164393
 30
0.0
 11
6.196535287059397
 21
10.84717430164391
 31
0.0
  0
LINE
  5
8B
330
7F
100
AcDbEntity
  8
중심선
100
AcDbLine
 10
7.28139805157953
 20
16.24717430164393
 30
0.0
 11
2.750260043222114
 21
10.84717430164391
 31
0.0
  0
LINE
  5
8C
330
7F
100
AcDbEntity
  8
중심선
100
AcDbLine
 10
5.714909304380834
 20
16.24717430164393
 30
0.0
 11
3.58671253028996
 21
13.71088815037384
 31
0.0
  0
LINE
  5
8D
330
7F
100
AcDbEntity
  8
중심선
100
AcDbLine
 10
2.268634060543552
 20
16.24717430164393
 30
0.0
 11
0.1404042013395286
 21
13.71084872107135
 31
0.0
  0
LINE
  5
8E
330
7F
100
AcDbEntity
  8
중심선
100
AcDbLine
 10
7.28139805157953
 20
16.24717430164393
 30
0.0
 11
10.72767329541681
 21
16.24717430164393
 31
0.0
  0
LINE
  5
8F
330
7F
100
AcDbEntity
  8
중심선
100
AcDbLine
 10
12.29416204261559
 20
16.24717430164393
 30
0.0
 11
15.74043728645272
 21
16.24717430164393
 31
0.0
  0
LINE
  5
90
330
7F
100
AcDbEntity
  8
중심선
100
AcDbLine
 10
19.22036997980202
 20
11.08717430171403
 30
0.0
 11
23.66174974927406
 21
11.08717430171406
 31
0.0
  0
LINE
  5
91
330
7F
100
AcDbEntity
  8
중심선
100
AcDbLine
 10
19.22039502424796
 20
13.00717430171391
 30
0.0
 11
19.22036997980202
 21
11.08717430171403
 31
0.0
  0
LINE
  5
92
330
7F
100
AcDbEntity
  8
중심선
100
AcDbLine
 10
19.22039502424796
 20
13.00717430171391
 30
0.0
 11
26.96566020931264
 21
13.00717430171391
 31
0.0
  0
LINE
  5
93
330
7F
100
AcDbEntity
  8
중심선
100
AcDbLine
 10
22.22332737316547
 20
13.45928029700563
 30
0.0
 11
24.52862924686651
 21
15.39360700705356
 31
0.0
  0
ATTDEF
  5
95
330
7F
100
AcDbEntity
  8
FORMAT
 62
     2
100
AcDbText
 10
4.408487351596664
 20
2.075366912832191
 30
0.0
 40
4.233333333333333
  1
E1072032
 41
0.75
  7
SLDTEXTSTYLE0
 11
4.408487351596664
 21
-0.0412997538344756
 31
0.0
100
AcDbAttributeDefinition
  3

  2
AUTOATTR0
 70
     0
 74
     1
  0
ENDBLK
  5
81
330
7F
100
AcDbEntity
  8
0
100
AcDbBlockEnd
  0
BLOCK
  5
EA
330
E9
100
AcDbEntity
  8
0
100
AcDbBlockBegin
  2
_D
 70
     0
 10
0.0
 20
0.0
 30
0.0
  3
_D
  1
_D
  0
LINE
  5
EC
330
E9
100
AcDbEntity
  8
치수문자_일반주서
 62
     0
370
    -2
100
AcDbLine
 10
-39.86250000000001
 20
6.351074928723889
 30
0.0
 11
-53.30000000000005
 21
6.351074928723839
 31
0.0
  0
LINE
  5
ED
330
E9
100
AcDbEntity
  8
치수문자_일반주서
 62
     0
370
    -2
100
AcDbLine
 10
-39.86250000000001
 20
-6.348925071276101
 30
0.0
 11
-53.3
 21
-6.348925071276151
 31
0.0
  0
LINE
  5
EE
330
E9
100
AcDbEntity
  8
치수문자_일반주서
 62
     0
370
    -2
100
AcDbLine
 10
-53.30000000000003
 20
3.049074928723839
 30
0.0
 11
-53.30000000000002
 21
-3.046925071276151
 31
0.0
  0
SOLID
  5
EF
330
E9
100
AcDbEntity
  8
치수문자_일반주서
 62
     0
100
AcDbTrace
 10
-52.7496666666667
 20
3.049074928723841
 30
0.0
 11
-53.85033333333337
 21
3.049074928723837
 31
0.0
 12
-53.30000000000005
 22
6.351074928723839
 32
0.0
 13
-53.30000000000005
 23
6.351074928723839
 33
0.0
  0
SOLID
  5
F0
330
E9
100
AcDbEntity
  8
치수문자_일반주서
 62
     0
100
AcDbTrace
 10
-53.85033333333335
 20
-3.046925071276153
 30
0.0
 11
-52.74966666666668
 21
-3.046925071276149
 31
0.0
 12
-53.3
 22
-6.348925071276151
 32
0.0
 13
-53.3
 23
-6.348925071276151
 33
0.0
  0
MTEXT
  5
F1
330
E9
100
AcDbEntity
  8
치수문자_일반주서
 62
     0
100
AcDbMText
 10
-57.67500000000003
 20
0.0010749287238778
 30
0.0
 40
3.5
 41
0.0
 71
     2
 72
     1
  1
\A1;%%c12.70 [1/2]
  7
SLDTEXTSTYLE0
 11
-3.356894814614649E-15
 21
1.0
 31
0.0
 73
     1
 44
1.0
  0
POINT
  5
F2
330
E9
100
AcDbEntity
  8
Defpoints
 62
     0
100
AcDbPoint
 10
-39.80000000000001
 20
6.351074928723889
 30
0.0
  0
POINT
  5
F3
330
E9
100
AcDbEntity
  8
Defpoints
 62
     0
100
AcDbPoint
 10
-39.80000000000001
 20
-6.348925071276101
 30
0.0
  0
POINT
  5
F4
330
E9
100
AcDbEntity
  8
Defpoints
 62
     0
100
AcDbPoint
 10
-53.3
 20
-6.348925071276152
 30
0.0
  0
ENDBLK
  5
EB
330
E9
100
AcDbEntity
  8
0
100
AcDbBlockEnd
  0
BLOCK
  5
FF
330
FE
100
AcDbEntity
  8
0
100
AcDbBlockBegin
  2
_D_1
 70
     0
 10
0.0
 20
0.0
 30
0.0
  3
_D_1
  1
_D_1
  0
LINE
  5
101
330
FE
100
AcDbEntity
  8
치수문자_일반주서
 62
     0
370
    -2
100
AcDbLine
 10
86.20000000000002
 20
6.413574928723904
 30
0.0
 11
86.20000000000002
 21
19.52204973625508
 31
0.0
  0
LINE
  5
102
330
FE
100
AcDbEntity
  8
치수문자_일반주서
 62
     0
370
    -2
100
AcDbLine
 10
9.999999999999996
 20
4.252811912908151
 30
0.0
 11
10.0
 21
19.52204973625508
 31
0.0
  0
LINE
  5
103
330
FE
100
AcDbEntity
  8
치수문자_일반주서
 62
     0
370
    -2
100
AcDbLine
 10
82.89800000000002
 20
19.52204973625508
 30
0.0
 11
13.302
 21
19.52204973625508
 31
0.0
  0
SOLID
  5
104
330
FE
100
AcDbEntity
  8
치수문자_일반주서
 62
     0
100
AcDbTrace
 10
82.89800000000002
 20
18.97171640292174
 30
0.0
 11
82.89800000000002
 21
20.07238306958841
 31
0.0
 12
86.20000000000002
 22
19.52204973625508
 32
0.0
 13
86.20000000000002
 23
19.52204973625508
 33
0.0
  0
SOLID
  5
105
330
FE
100
AcDbEntity
  8
치수문자_일반주서
 62
     0
100
AcDbTrace
 10
13.302
 20
20.07238306958841
 30
0.0
 11
13.302
 21
18.97171640292174
 31
0.0
 12
10.0
 22
19.52204973625508
 32
0.0
 13
10.0
 23
19.52204973625508
 33
0.0
  0
MTEXT
  5
106
330
FE
100
AcDbEntity
  8
치수문자_일반주서
 62
     0
100
AcDbMText
 10
48.10000000000001
 20
23.89704973625508
 30
0.0
 40
3.5
 41
0.0
 71
     2
 72
     1
  1
\A1;76.20 [3]
  7
SLDTEXTSTYLE0
 73
     1
 44
1.0
  0
POINT
  5
107
330
FE
100
AcDbEntity
  8
Defpoints
 62
     0
100
AcDbPoint
 10
86.20000000000002
 20
6.351074928723904
 30
0.0
  0
POINT
  5
108
330
FE
100
AcDbEntity
  8
Defpoints
 62
     0
100
AcDbPoint
 10
9.999999999999996
 20
4.190311912908151
 30
0.0
  0
POINT
  5
109
330
FE
100
AcDbEntity
  8
Defpoints
 62
     0
100
AcDbPoint
 10
9.999999999999996
 20
19.52204973625508
 30
0.0
  0
ENDBLK
  5
100
330
FE
100
AcDbEntity
  8
0
100
AcDbBlockEnd
  0
BLOCK
  5
114
330
113
100
AcDbEntity
  8
0
100
AcDbBlockBegin
  2
_D_2
 70
     0
 10
0.0
 20
0.0
 30
0.0
  3
_D_2
  1
_D_2
  0
LINE
  5
116
330
113
100
AcDbEntity
  8
치수문자_일반주서
 62
     0
370
    -2
100
AcDbLine
 10
86.20000000000002
 20
6.413574928723905
 30
0.0
 11
86.20000000000002
 21
36.55237901373057
 31
0.0
  0
LINE
  5
117
330
113
100
AcDbEntity
  8
치수문자_일반주서
 62
     0
370
    -2
100
AcDbLine
 10
-40.79999999999998
 20
5.413574928723886
 30
0.0
 11
-40.79999999999998
 21
36.55237901373057
 31
0.0
  0
LINE
  5
118
330
113
100
AcDbEntity
  8
치수문자_일반주서
 62
     0
370
    -2
100
AcDbLine
 10
82.89800000000002
 20
36.55237901373057
 30
0.0
 11
-37.49799999999998
 21
36.55237901373057
 31
0.0
  0
SOLID
  5
119
330
113
100
AcDbEntity
  8
치수문자_일반주서
 62
     0
100
AcDbTrace
 10
82.89800000000002
 20
36.00204568039723
 30
0.0
 11
82.89800000000002
 21
37.1027123470639
 31
0.0
 12
86.20000000000002
 22
36.55237901373057
 32
0.0
 13
86.20000000000002
 23
36.55237901373057
 33
0.0
  0
SOLID
  5
11A
330
113
100
AcDbEntity
  8
치수문자_일반주서
 62
     0
100
AcDbTrace
 10
-37.49799999999998
 20
37.1027123470639
 30
0.0
 11
-37.49799999999998
 21
36.00204568039723
 31
0.0
 12
-40.79999999999998
 22
36.55237901373057
 32
0.0
 13
-40.79999999999998
 23
36.55237901373057
 33
0.0
  0
MTEXT
  5
11B
330
113
100
AcDbEntity
  8
치수문자_일반주서
 62
     0
100
AcDbMText
 10
22.7
 20
40.92737901373057
 30
0.0
 40
3.5
 41
0.0
 71
     2
 72
     1
  1
\A1;127.00 [5]
  7
SLDTEXTSTYLE0
 73
     1
 44
1.0
  0
POINT
  5
11C
330
113
100
AcDbEntity
  8
Defpoints
 62
     0
100
AcDbPoint
 10
86.20000000000002
 20
6.351074928723905
 30
0.0
  0
POINT
  5
11D
330
113
100
AcDbEntity
  8
Defpoints
 62
     0
100
AcDbPoint
 10
-40.79999999999998
 20
5.351074928723886
 30
0.0
  0
POINT
  5
11E
330
113
100
AcDbEntity
  8
Defpoints
 62
     0
100
AcDbPoint
 10
-40.79999999999998
 20
36.55237901373057
 30
0.0
  0
ENDBLK
  5
115
330
113
100
AcDbEntity
  8
0
100
AcDbBlockEnd
  0
BLOCK
  5
127
330
126
100
AcDbEntity
  8
0
100
AcDbBlockBegin
  2
_D_3
 70
     0
 10
0.0
 20
0.0
 30
0.0
  3
_D_3
  1
_D_3
  0
LINE
  5
129
330
126
100
AcDbEntity
  8
치수문자_일반주서
 62
     0
370
    -2
100
AcDbLine
 10
86.26250000000002
 20
-6.348925071276095
 30
0.0
 11
100.1257495140644
 21
-6.348925071276046
 31
0.0
  0
LINE
  5
12A
330
126
100
AcDbEntity
  8
치수문자_일반주서
 62
     0
370
    -2
100
AcDbLine
 10
86.26250000000002
 20
6.351074928723904
 30
0.0
 11
100.1257495140644
 21
6.351074928723953
 31
0.0
  0
LINE
  5
12B
330
126
100
AcDbEntity
  8
치수문자_일반주서
 62
     0
370
    -2
100
AcDbLine
 10
100.1257495140644
 20
6.351074928723953
 30
0.0
 11
100.1257495140643
 21
44.59405635601688
 31
0.0
  0
LINE
  5
12C
330
126
100
AcDbEntity
  8
치수문자_일반주서
 62
     0
370
    -2
100
AcDbLine
 10
100.1257495140644
 20
-6.348925071276046
 30
0.0
 11
100.1257495140644
 21
6.351074928723953
 31
0.0
  0
LINE
  5
12D
330
126
100
AcDbEntity
  8
치수문자_일반주서
 62
     0
370
    -2
100
AcDbLine
 10
100.1257495140644
 20
-9.650925071276045
 30
0.0
 11
100.1257495140645
 21
-12.95292507127605
 31
0.0
  0
LINE
  5
12E
330
126
100
AcDbEntity
  8
치수문자_일반주서
 62
     0
370
    -2
100
AcDbLine
 10
100.1257495140644
 20
9.653074928723953
 30
0.0
 11
100.1257495140644
 21
12.95507492872395
 31
0.0
  0
SOLID
  5
12F
330
126
100
AcDbEntity
  8
치수문자_일반주서
 62
     0
100
AcDbTrace
 10
100.6760828473978
 20
-9.650925071276044
 30
0.0
 11
99.57541618073111
 21
-9.650925071276047
 31
0.0
 12
100.1257495140644
 22
-6.348925071276046
 32
0.0
 13
100.1257495140644
 23
-6.348925071276046
 33
0.0
  0
SOLID
  5
130
330
126
100
AcDbEntity
  8
치수문자_일반주서
 62
     0
100
AcDbTrace
 10
99.57541618073104
 20
9.653074928723951
 30
0.0
 11
100.6760828473977
 21
9.653074928723955
 31
0.0
 12
100.1257495140644
 22
6.351074928723953
 32
0.0
 13
100.1257495140644
 23
6.351074928723953
 33
0.0
  0
MTEXT
  5
131
330
126
100
AcDbEntity
  8
치수문자_일반주서
 62
     0
100
AcDbMText
 10
95.7507495140643
 20
31.25030635601687
 30
0.0
 40
3.5
 41
0.0
 71
     2
 72
     1
  1
\A1;%%c12.70 [1/2]
  7
SLDTEXTSTYLE0
 11
-3.356894814614647E-15
 21
1.0
 31
0.0
 73
     1
 44
1.0
  0
POINT
  5
132
330
126
100
AcDbEntity
  8
Defpoints
 62
     0
100
AcDbPoint
 10
86.20000000000002
 20
-6.348925071276095
 30
0.0
  0
POINT
  5
19A
330
126
100
AcDbEntity
  8
Defpoints
 62
     0
100
AcDbPoint
 10
86.20000000000002
 20
6.351074928723904
 30
0.0
  0
POINT
  5
19B
330
126
100
AcDbEntity
  8
Defpoints
 62
     0
100
AcDbPoint
 10
100.1257495140644
 20
6.351074928723956
 30
0.0
  0
ENDBLK
  5
128
330
126
100
AcDbEntity
  8
0
100
AcDbBlockEnd
  0
BLOCK
  5
140
330
13F
100
AcDbEntity
  8
0
100
AcDbBlockBegin
  2
SW_DOWELSYMBOL_0
 70
     0
 10
0.0
 20
0.0
 30
0.0
  3
SW_DOWELSYMBOL_0
  1
SW_DOWELSYMBOL_0
  0
CIRCLE
  5
142
330
13F
100
AcDbEntity
  8
해칭선
 62
     0
100
AcDbCircle
 10
0.0
 20
0.0
 30
0.0
 40
2.999999999999996
  0
HATCH
  5
143
330
13F
100
AcDbEntity
  8
0
  6
Continuous
 62
     0
370
     0
100
AcDbHatch
 10
0.0
 20
0.0
 30
0.0
210
0.0
220
0.0
230
1.0
  2
SOLID
 70
     1
 71
     0
 91
        1
 92
        0
 93
        3
 72
     2
 10
0.0
 20
0.0
 40
2.999999999999996
 50
0.0
 51
90.0
 73
     1
 72
     1
 10
0.0
 20
2.999999999999996
 11
0.0
 21
0.0
 72
     1
 10
0.0
 20
0.0
 11
2.999999999999996
 21
0.0
 97
        0
 75
     0
 76
     1
 98
        1
 10
0.0
 20
0.0
  0
HATCH
  5
144
330
13F
100
AcDbEntity
  8
0
  6
Continuous
 62
     0
370
     0
100
AcDbHatch
 10
0.0
 20
0.0
 30
0.0
210
0.0
220
0.0
230
1.0
  2
SOLID
 70
     1
 71
     0
 91
        1
 92
        0
 93
        3
 72
     2
 10
0.0
 20
0.0
 40
2.999999999999996
 50
180.0
 51
270.0000000000007
 73
     1
 72
     1
 10
0.0
 20
-2.999999999999996
 11
0.0
 21
0.0
 72
     1
 10
0.0
 20
0.0
 11
-2.999999999999996
 21
0.0
 97
        0
 75
     0
 76
     1
 98
        1
 10
0.0
 20
0.0
  0
ENDBLK
  5
141
330
13F
100
AcDbEntity
  8
0
100
AcDbBlockEnd
  0
ENDSEC
  0
SECTION
  2
ENTITIES
  0
LINE
  5
96
330
1F
100
AcDbEntity
  8
외형선
  6
Continuous
370
    15
100
AcDbLine
 10
7.969958906942571
 20
6.351074928723894
 30
0.0
 11
-11.06612499999997
 21
6.351074928723893
 31
0.0
  0
LINE
  5
97
330
1F
100
AcDbEntity
  8
외형선
  6
Continuous
370
    15
100
AcDbLine
 10
-39.8
 20
-6.348925071276108
 30
0.0
 11
7.969958906942571
 21
-6.348925071276105
 31
0.0
  0
LINE
  5
98
330
1F
100
AcDbEntity
  8
외형선
  6
Continuous
370
    15
100
AcDbLine
 10
-39.8
 20
6.351074928723889
 30
0.0
 11
-40.79999999999998
 21
5.351074928723886
 31
0.0
  0
LINE
  5
99
330
1F
100
AcDbEntity
  8
외형선
  6
Continuous
370
    15
100
AcDbLine
 10
-40.79999999999998
 20
-5.348925071276105
 30
0.0
 11
-39.8
 21
-6.348925071276105
 31
0.0
  0
SPLINE
  5
9A
330
1F
100
AcDbEntity
  8
외형선
  6
Continuous
370
    15
100
AcDbSpline
210
0.0
220
0.0
230
1.0
 70
     8
 71
     3
 72
     9
 73
     5
 74
     0
 42
0.000000001
 43
0.00000001
 40
0.0
 40
0.0
 40
0.0
 40
0.0
 40
0.5167893195941414
 40
1.0
 40
1.0
 40
1.0
 40
1.0
 10
10.0
 20
4.190310692433682
 30
0.0
 10
9.707156118788395
 20
4.198214446463735
 30
0.0
 10
9.140496030995589
 20
4.21350840423411
 30
0.0
 10
8.57371452729115
 20
4.245842665229594
 30
0.0
 10
8.299839651244671
 20
4.261466925485642
 30
0.0
  0
ARC
  5
9B
330
1F
100
AcDbEntity
  8
외형선
  6
Continuous
370
    15
100
AcDbCircle
 10
8.319958906942585
 20
4.610348673002727
 30
0.0
 40
0.3500000000000001
100
AcDbArc
 50
180.0000165564233
 51
267.1956219748384
  0
LINE
  5
9C
330
1F
100
AcDbEntity
  8
외형선
  6
Continuous
370
    15
100
AcDbLine
 10
7.957821853900761
 20
-4.280960223907749
 30
0.0
 11
8.356231978569653
 21
-4.257603877929124
 31
0.0
  0
SPLINE
  5
9D
330
1F
100
AcDbEntity
  8
0
  6
Continuous
 62
     1
370
    15
100
AcDbSpline
210
0.0
220
0.0
230
1.0
 70
     8
 71
     3
 72
     9
 73
     5
 74
     0
 42
0.000000001
 43
0.00000001
 40
0.0
 40
0.0
 40
0.0
 40
0.0
 40
0.5190437967105516
 40
1.0
 40
1.0
 40
1.0
 40
1.0
 10
69.74946730038253
 20
1.628176224339864
 30
0.0
 10
69.44483223274449
 20
1.773345824532032
 30
0.0
 10
68.85791631241433
 20
2.053032435011115
 30
0.0
 10
68.26940910269028
 20
2.361240364692597
 30
0.0
 10
67.98636290949294
 20
2.509474880375905
 30
0.0
  0
SPLINE
  5
9E
330
1F
100
AcDbEntity
  8
0
  6
Continuous
 62
     1
370
    15
100
AcDbSpline
210
0.0
220
0.0
230
1.0
 70
     8
 71
     3
 72
     9
 73
     5
 74
     0
 42
0.000000001
 43
0.00000001
 40
0.0
 40
0.0
 40
0.0
 40
0.0
 40
0.4990495203369144
 40
1.0
 40
1.0
 40
1.0
 40
1.0
 10
35.19655704872976
 20
1.628191382549625
 30
0.0
 10
34.90330767602578
 20
1.767852620675382
 30
0.0
 10
34.31569189692232
 20
2.047707088888218
 30
0.0
 10
33.72793039853583
 20
2.355355225116427
 30
0.0
 10
33.43349099399164
 20
2.509471706527402
 30
0.0
  0
LINE
  5
9F
330
1F
100
AcDbEntity
  8
0
  6
Continuous
 62
     1
370
    15
100
AcDbLine
 10
17.5459421985747
 20
-6.348925071276112
 30
0.0
 11
20.62231466085629
 21
-6.348925071276112
 31
0.0
  0
LINE
  5
A0
330
1F
100
AcDbEntity
  8
0
  6
Continuous
 62
     1
370
    15
100
AcDbLine
 10
55.17838083384072
 20
6.351074928723901
 30
0.0
 11
52.09937432095697
 21
6.351074928723901
 31
0.0
  0
LINE
  5
A1
330
1F
100
AcDbEntity
  8
0
  6
Continuous
 62
     1
370
    15
100
AcDbLine
 10
52.09937432095693
 20
-6.348925071276112
 30
0.0
 11
55.17838083384062
 21
-6.348925071276112
 31
0.0
  0
LINE
  5
A2
330
1F
100
AcDbEntity
  8
0
  6
Continuous
 62
     1
370
    15
100
AcDbLine
 10
20.62231466085633
 20
6.351074928723901
 30
0.0
 11
17.54594219857472
 21
6.351074928723901
 31
0.0
  0
SPLINE
  5
A3
330
1F
100
AcDbEntity
  8
0
  6
Continuous
 62
     1
370
    15
100
AcDbSpline
210
0.0
220
0.0
230
1.0
 70
     8
 71
     3
 72
    26
 73
    22
 74
     0
 42
0.000000001
 43
0.00000001
 40
0.0
 40
0.0
 40
0.0
 40
0.0
 40
0.0734415889539018
 40
0.1260611179649084
 40
0.1599429980708048
 40
0.1953936757065748
 40
0.2372376761657787
 40
0.2796305527383823
 40
0.3138956611049281
 40
0.3658979801161167
 40
0.4261416356595494
 40
0.5014680493374963
 40
0.5649582889340317
 40
0.6150000396866409
 40
0.6741434839493283
 40
0.7441809690225414
 40
0.7862448933688949
 40
0.8178733823705011
 40
0.8531551524407995
 40
0.9138819651731787
 40
1.0
 40
1.0
 40
1.0
 40
1.0
 10
23.54687833126411
 20
-5.283005548192611
 30
0.0
 10
23.7798500096081
 20
-5.260277372261219
 30
0.0
 10
24.17974155123361
 20
-5.221264882090116
 30
0.0
 10
24.68757234979796
 20
-5.177620133240547
 30
0.0
 10
25.07802524742632
 20
-5.146365157077105
 30
0.0
 10
25.43332418155254
 20
-5.119733514963897
 30
0.0
 10
25.81473863510497
 20
-5.093274980272827
 30
0.0
 10
26.19177341604
 20
-5.069432956812984
 30
0.0
 10
26.60112393953907
 20
-5.045870639817477
 30
0.0
 10
27.06759722651559
 20
-5.022214519036376
 30
0.0
 10
27.66485667638092
 20
-4.99713771506641
 30
0.0
 10
28.29860106516763
 20
-4.977212168433303
 30
0.0
 10
28.89962619011341
 20
-4.964865101327817
 30
0.0
 10
29.44946305882366
 20
-4.958612375121833
 30
0.0
 10
30.01990478751697
 20
-4.957088880520987
 30
0.0
 10
30.5650904659161
 20
-4.961232649870714
 30
0.0
 10
31.02257030896667
 20
-4.968861987625508
 30
0.0
 10
31.36702735808452
 20
-4.976583727501394
 30
0.0
 10
31.77097350771978
 20
-4.987775297579035
 30
0.0
 10
32.3523490697731
 20
-5.007861557468427
 30
0.0
 10
32.82181954570801
 20
-5.031200140494738
 30
0.0
 10
33.09714330046508
 20
-5.044887191414643
 30
0.0
  0
SPLINE
  5
A4
330
1F
100
AcDbEntity
  8
0
  6
Continuous
 62
     1
370
    15
100
AcDbSpline
210
0.0
220
0.0
230
1.0
 70
     8
 71
     3
 72
    16
 73
    12
 74
     0
 42
0.000000001
 43
0.00000001
 40
0.0
 40
0.0
 40
0.0
 40
0.0
 40
0.1866725694266382
 40
0.3207657048263032
 40
0.4401883299242773
 40
0.5427153893277835
 40
0.6450498358319038
 40
0.7789918503894129
 40
0.8996428986894142
 40
0.989329075055861
 40
1.0
 40
1.0
 40
1.0
 40
1.0
 10
67.64999841569417
 20
5.047035830128038
 30
0.0
 10
67.33494393640237
 20
5.03136435379751
 30
0.0
 10
66.79357531208271
 20
5.004435533102161
 30
0.0
 10
66.0220577495486
 20
4.980627331547496
 30
0.0
 10
65.40701865478664
 20
4.967358916650238
 30
0.0
 10
64.84906117705961
 20
4.960879018165396
 30
0.0
 10
64.26508277826872
 20
4.959257718831049
 30
0.0
 10
63.65027434661334
 20
4.963676225631393
 30
0.0
 10
63.05745263950202
 20
4.974990479813445
 30
0.0
 10
62.67677036914199
 20
4.984684708299137
 30
0.0
 10
62.50388877040535
 20
4.990763396033703
 30
0.0
 10
62.48550634863102
 20
4.991409740136185
 30
0.0
  0
SPLINE
  5
A5
330
1F
100
AcDbEntity
  8
0
  6
Continuous
 62
     1
370
    15
100
AcDbSpline
210
0.0
220
0.0
230
1.0
 70
     8
 71
     3
 72
    26
 73
    22
 74
     0
 42
0.000000001
 43
0.00000001
 40
0.0
 40
0.0
 40
0.0
 40
0.0
 40
0.0721118498688149
 40
0.1244820309772916
 40
0.1590681083916947
 40
0.1947598374330488
 40
0.2360419430886209
 40
0.2775711994907274
 40
0.3114047565801281
 40
0.3637811221054562
 40
0.4254297148540446
 40
0.4999578419672166
 40
0.5624482543999265
 40
0.6128601192083866
 40
0.6733850811697163
 40
0.7428602310396736
 40
0.7840454172051371
 40
0.815345875831097
 40
0.8508750234199896
 40
0.9124442094780545
 40
1.0
 40
1.0
 40
1.0
 40
1.0
 10
58.09974524990703
 20
-5.283006646192448
 30
0.0
 10
58.32826065586428
 20
-5.260699614768756
 30
0.0
 10
58.7227320484982
 20
-5.222192426536212
 30
0.0
 10
59.22764219628856
 20
-5.178669793861842
 30
0.0
 10
59.62066855191176
 20
-5.147149844024244
 30
0.0
 10
59.97741287364258
 20
-5.120370780699694
 30
0.0
 10
60.35513880595272
 20
-5.094116656687081
 30
0.0
 10
60.72625519965348
 20
-5.070562349788719
 30
0.0
 10
61.13269327611962
 20
-5.047022732731413
 30
0.0
 10
61.60347908882801
 20
-5.022977309953341
 30
0.0
 10
62.20386624436372
 20
-4.997636656222606
 30
0.0
 10
62.83637482769225
 20
-4.977640919719206
 30
0.0
 10
63.43287073438847
 20
-4.965194620339667
 30
0.0
 10
63.98510629118313
 20
-4.958708739470056
 30
0.0
 10
64.55934792859682
 20
-4.95704270242673
 30
0.0
 10
65.10437635409724
 20
-4.961094574811705
 30
0.0
 10
65.55623483059611
 20
-4.968502980737201
 30
0.0
 10
65.897362348687
 20
-4.97602036101307
 30
0.0
 10
66.30355297597657
 20
-4.987112279949534
 30
0.0
 10
66.89313704961752
 20
-5.007306011599326
 30
0.0
 10
67.37001117366442
 20
-5.030983942361043
 30
0.0
 10
67.64999841569417
 20
-5.04488597268025
 30
0.0
  0
SPLINE
  5
A6
330
1F
100
AcDbEntity
  8
0
  6
Continuous
 62
     1
370
    15
100
AcDbSpline
210
0.0
220
0.0
230
1.0
 70
     8
 71
     3
 72
    16
 73
    12
 74
     0
 42
0.000000001
 43
0.00000001
 40
0.0
 40
0.0
 40
0.0
 40
0.0
 40
0.1831818949164154
 40
0.3186559850080369
 40
0.4360022983372954
 40
0.5364072241581042
 40
0.6392778718427818
 40
0.7752943027764077
 40
0.8940539093755095
 40
0.9816776092255528
 40
1.0
 40
1.0
 40
1.0
 40
1.0
 10
33.09714330046508
 20
5.04703704886243
 30
0.0
 10
32.78758663970834
 20
5.03158873161331
 30
0.0
 10
32.24909410640288
 20
5.004715449447616
 30
0.0
 10
31.48157861048636
 20
4.980962509544813
 30
0.0
 10
30.86919749038424
 20
4.967639622364033
 30
0.0
 10
30.31580398196337
 20
4.961031931585579
 30
0.0
 10
29.729063671951
 20
4.959184536280217
 30
0.0
 10
29.11103159619246
 20
4.963504617578939
 30
0.0
 10
28.51953462074975
 20
4.974633956002445
 30
0.0
 10
28.13123578294783
 20
4.984510683666675
 30
0.0
 10
27.94813783543406
 20
4.990917739274616
 30
0.0
 10
27.91647274874165
 20
4.992025779938225
 30
0.0
  0
SPLINE
  5
A7
330
1F
100
AcDbEntity
  8
0
  6
Continuous
 62
     1
370
    15
100
AcDbSpline
210
0.0
220
0.0
230
1.0
 70
     8
 71
     3
 72
    15
 73
    11
 74
     0
 42
0.000000001
 43
0.00000001
 40
0.0
 40
0.0
 40
0.0
 40
0.0
 40
0.1737289186279369
 40
0.3287144173781121
 40
0.4394801986059183
 40
0.5340354337538127
 40
0.6548301190662961
 40
0.8156908732525568
 40
0.998643420723848
 40
1.0
 40
1.0
 40
1.0
 40
1.0
 10
72.746569956018
 20
-4.774996315318887
 30
0.0
 10
73.00971061967049
 20
-4.734223202142863
 30
0.0
 10
73.5076019933356
 20
-4.657075941639548
 30
0.0
 10
74.23104391961327
 20
-4.561352917762611
 30
0.0
 10
74.81636234815346
 20
-4.488795061070196
 30
0.0
 10
75.3047187433158
 20
-4.434848490151688
 30
0.0
 10
75.90673983477664
 20
-4.373258236506841
 30
0.0
 10
76.64187520777172
 20
-4.310355248019093
 30
0.0
 10
77.18922774992603
 20
-4.269654379322069
 30
0.0
 10
77.48146224233358
 20
-4.254246696988513
 30
0.0
 10
77.48361318983775
 20
-4.254133291087698
 30
0.0
  0
SPLINE
  5
A8
330
1F
100
AcDbEntity
  8
0
  6
Continuous
 62
     1
370
    15
100
AcDbSpline
210
0.0
220
0.0
230
1.0
 70
     8
 71
     3
 72
    27
 73
    23
 74
     0
 42
0.000000001
 43
0.00000001
 40
0.0
 40
0.0
 40
0.0
 40
0.0
 40
0.0808697575876346
 40
0.1433232839191672
 40
0.1908211173872027
 40
0.2263989449390657
 40
0.2625621646316482
 40
0.3033141620156157
 40
0.3491139768573553
 40
0.3946843689426163
 40
0.4272614448215635
 40
0.4585701442648422
 40
0.4996735714503008
 40
0.5663633746929614
 40
0.6124074842533551
 40
0.6680094041575396
 40
0.7403541723364293
 40
0.7908850245043068
 40
0.8314616035546623
 40
0.8654389454993683
 40
0.920091855481529
 40
1.0
 40
1.0
 40
1.0
 40
1.0
 10
49.28772369756643
 20
4.344173721348962
 30
0.0
 10
49.00157117341392
 20
4.32061608410597
 30
0.0
 10
48.49443079502397
 20
4.27886552083288
 30
0.0
 10
47.774660642752
 20
4.237687946781422
 30
0.0
 10
47.22179402349599
 20
4.21316175037861
 30
0.0
 10
46.77987922524119
 20
4.198005090192289
 30
0.0
 10
46.36387392962025
 20
4.187648459552038
 30
0.0
 10
45.9093236184676
 20
4.180811218897161
 30
0.0
 10
45.42035617473044
 20
4.178892025539459
 30
0.0
 10
44.9618244108795
 20
4.182470483318354
 30
0.0
 10
44.55715708277691
 20
4.189734364973985
 30
0.0
 10
44.16789223443115
 20
4.199901886848684
 30
0.0
 10
43.65127158739791
 20
4.218147914099401
 30
0.0
 10
43.07890988143934
 20
4.246192584529129
 30
0.0
 10
42.46120736436704
 20
4.285368303593002
 30
0.0
 10
41.82154719747798
 20
4.333930499894254
 30
0.0
 10
41.16082927783343
 20
4.394095247323779
 30
0.0
 10
40.55402860271222
 20
4.458269025482623
 30
0.0
 10
40.08949664944041
 20
4.512528227276505
 30
0.0
 10
39.60914797137494
 20
4.572747585758059
 30
0.0
 10
38.98670982662142
 20
4.656060587552683
 30
0.0
 10
38.48917168414798
 20
4.73202944030836
 30
0.0
 10
38.19371212536434
 20
4.777143014123841
 30
0.0
  0
SPLINE
  5
A9
330
1F
100
AcDbEntity
  8
0
  6
Continuous
 62
     1
370
    15
100
AcDbSpline
210
0.0
220
0.0
230
1.0
 70
     8
 71
     3
 72
    16
 73
    12
 74
     0
 42
0.000000001
 43
0.00000001
 40
0.0
 40
0.0
 40
0.0
 40
0.0
 40
0.1613373113693989
 40
0.3054700390546174
 40
0.4167648450299161
 40
0.4972680313855747
 40
0.5920185079504598
 40
0.6831851245688916
 40
0.7979588450981577
 40
0.9342132030637823
 40
1.0
 40
1.0
 40
1.0
 40
1.0
 10
38.19371212536434
 20
-4.774993156676053
 30
0.0
 10
38.43640313200967
 20
-4.737250688880264
 30
0.0
 10
38.89590521896594
 20
-4.665790510117276
 30
0.0
 10
39.57560214795747
 20
-4.574804939420964
 30
0.0
 10
40.12345175092895
 20
-4.505860483382607
 30
0.0
 10
40.56373737717115
 20
-4.45542350615718
 30
0.0
 10
40.98251512643193
 20
-4.410767191853979
 30
0.0
 10
41.45889463881507
 20
-4.364499794179831
 30
0.0
 10
42.0003051330463
 20
-4.31788322899749
 30
0.0
 10
42.50120141818246
 20
-4.279997267382964
 30
0.0
 10
42.82068860703974
 20
-4.261320343989505
 30
0.0
 10
42.92471710968462
 20
-4.255238934648543
 30
0.0
  0
SPLINE
  5
AA
330
1F
100
AcDbEntity
  8
0
  6
Continuous
 62
     1
370
    15
100
AcDbSpline
210
0.0
220
0.0
230
1.0
 70
     8
 71
     3
 72
    26
 73
    22
 74
     0
 42
0.000000001
 43
0.00000001
 40
0.0
 40
0.0
 40
0.0
 40
0.0
 40
0.0718787315867278
 40
0.1252483830503835
 40
0.1765428934055041
 40
0.2212154790610448
 40
0.2776975387239972
 40
0.3219821505733131
 40
0.3629012591599515
 40
0.4193571166741724
 40
0.4747567047707811
 40
0.5223909214963575
 40
0.5669879289787889
 40
0.6350282351476995
 40
0.70100667918993
 40
0.7519677983210139
 40
0.7925988708143445
 40
0.8270002704096094
 40
0.874289713408985
 40
0.9342142831172261
 40
1.0
 40
1.0
 40
1.0
 40
1.0
 10
83.84058267829691
 20
4.344172089375467
 30
0.0
 10
83.57369361768716
 20
4.322409942333404
 30
0.0
 10
83.10864056851261
 20
4.284489493981661
 30
0.0
 10
82.44677867038658
 20
4.245293860272712
 30
0.0
 10
81.96022796232558
 20
4.218752729236118
 30
0.0
 10
81.39344597255754
 20
4.1959130768871
 30
0.0
 10
80.83175336301798
 20
4.185697279664199
 30
0.0
 10
80.29138253513621
 20
4.17950200621786
 30
0.0
 10
79.76793877529981
 20
4.179652650933599
 30
0.0
 10
79.19953276176248
 20
4.186826117567159
 30
0.0
 10
78.60751168909256
 20
4.202924144190761
 30
0.0
 10
78.05896722299427
 20
4.224992672084096
 30
0.0
 10
77.46367309856866
 20
4.255888647770726
 30
0.0
 10
76.80055877107532
 20
4.299945270549704
 30
0.0
 10
76.1138721265571
 20
4.356787358041519
 30
0.0
 10
75.52663273009287
 20
4.413544175764208
 30
0.0
 10
75.06510726768944
 20
4.463362156441628
 30
0.0
 10
74.63206123661814
 20
4.512892335098033
 30
0.0
 10
74.08571615638087
 20
4.582817390893874
 30
0.0
 10
73.42199731634342
 20
4.671931773571212
 30
0.0
 10
72.9786033786232
 20
4.741001268685627
 30
0.0
 10
72.74656995601799
 20
4.777146172766675
 30
0.0
  0
SPLINE
  5
AB
330
1F
100
AcDbEntity
  8
0
  6
Continuous
 62
     1
370
    15
100
AcDbSpline
210
0.0
220
0.0
230
1.0
 70
     8
 71
     3
 72
    15
 73
    11
 74
     0
 42
0.000000001
 43
0.00000001
 40
0.0
 40
0.0
 40
0.0
 40
0.0
 40
0.2213474251711654
 40
0.3877078406078576
 40
0.5014439153845425
 40
0.573554769776688
 40
0.6534874355559757
 40
0.7346402923636383
 40
0.8503222745181054
 40
1.0
 40
1.0
 40
1.0
 40
1.0
 10
14.7348493598179
 20
4.344174027832504
 30
0.0
 10
14.39652962931644
 20
4.316793444232214
 30
0.0
 10
13.80393537597774
 20
4.268834147059268
 30
0.0
 10
12.99041342555465
 20
4.226331616443073
 30
0.0
 10
12.42767827312395
 20
4.204241348282734
 30
0.0
 10
12.00905197752869
 20
4.192249601604625
 30
0.0
 10
11.64017103712549
 20
4.184712704055055
 30
0.0
 10
11.2026872814604
 20
4.179753204859216
 30
0.0
 10
10.65507038499065
 20
4.178879182570818
 30
0.0
 10
10.23624241437522
 20
4.186188850884428
 30
0.0
 10
10.0
 20
4.190311912885641
 30
0.0
  0
SPLINE
  5
AC
330
1F
100
AcDbEntity
  8
외형선
  6
Continuous
370
    15
100
AcDbSpline
210
0.0
220
0.0
230
1.0
 70
     8
 71
     3
 72
     8
 73
     4
 74
     0
 42
0.000000001
 43
0.00000001
 40
0.0
 40
0.0
 40
0.0
 40
0.0
 40
1.0
 40
1.0
 40
1.0
 40
1.0
 10
10.0
 20
-3.609498720646527
 30
0.0
 10
9.3257828579744
 20
-3.288630944563669
 30
0.0
 10
8.643333425883643
 20
-2.945866370681149
 30
0.0
 10
7.969915949439315
 20
-2.589896936065511
 30
0.0
  0
LINE
  5
AD
330
1F
100
AcDbEntity
  8
외형선
  6
Continuous
370
    15
100
AcDbLine
 10
10.0
 20
-3.609498720646519
 30
0.0
 11
10.0
 21
-4.911732805591278
 31
0.0
  0
SPLINE
  5
AE
330
1F
100
AcDbEntity
  8
외형선
  6
Continuous
370
    15
100
AcDbSpline
210
0.0
220
0.0
230
1.0
 70
     8
 71
     3
 72
     8
 73
     4
 74
     0
 42
0.000000001
 43
0.00000001
 40
0.0
 40
0.0
 40
0.0
 40
0.0
 40
1.0
 40
1.0
 40
1.0
 40
1.0
 10
7.969958906942571
 20
-4.090260883076724
 30
0.0
 10
8.643362447026409
 20
-4.388440030644739
 30
0.0
 10
9.325797194141712
 20
-4.664602702449343
 30
0.0
 10
10.0
 20
-4.911732805591277
 30
0.0
  0
LINE
  5
AF
330
1F
100
AcDbEntity
  8
외형선
  6
Continuous
370
    15
100
AcDbLine
 10
7.969958906942571
 20
-6.348925071276105
 30
0.0
 11
7.969958906942571
 21
-4.090262580995408
 31
0.0
  0
SPLINE
  5
B0
330
1F
100
AcDbEntity
  8
외형선
  6
Continuous
370
    15
100
AcDbSpline
210
0.0
220
0.0
230
1.0
 70
     8
 71
     3
 72
    11
 73
     7
 74
     0
 42
0.000000001
 43
0.00000001
 40
0.0
 40
0.0
 40
0.0
 40
0.0
 40
0.0746986934129836
 40
0.3827495904292672
 40
0.6912926361267104
 40
1.0
 40
1.0
 40
1.0
 40
1.0
 10
8.353696205389316
 20
4.258655176068917
 30
0.0
 10
8.39466884134396
 20
4.27647385217425
 30
0.0
 10
8.604609054672004
 20
4.367775194536454
 30
0.0
 10
8.984128328260113
 20
4.523105246985528
 30
0.0
 10
9.492060486613095
 20
4.725004289475802
 30
0.0
 10
9.83065678297453
 20
4.850912032555002
 30
0.0
 10
10.0
 20
4.913882663039067
 30
0.0
  0
LINE
  5
B1
330
1F
100
AcDbEntity
  8
외형선
  6
Continuous
370
    15
100
AcDbLine
 10
7.969958906942571
 20
-2.589648475212595
 30
0.0
 11
7.969958906942571
 21
6.351074928723894
 31
0.0
  0
LINE
  5
B2
330
1F
100
AcDbEntity
  8
외형선
  6
Continuous
370
    15
100
AcDbLine
 10
-39.8
 20
6.351074928723889
 30
0.0
 11
-39.8
 21
-6.348925071276108
 31
0.0
  0
LINE
  5
B3
330
1F
100
AcDbEntity
  8
외형선
  6
Continuous
370
    15
100
AcDbLine
 10
-40.79999999999998
 20
5.351074928723886
 30
0.0
 11
-40.79999999999998
 21
-5.348925071276105
 31
0.0
  0
SPLINE
  5
B4
330
1F
100
AcDbEntity
  8
외형선
  6
Continuous
370
    15
100
AcDbSpline
210
0.0
220
0.0
230
1.0
 70
    24
 71
     3
 72
     8
 73
     4
 74
     0
 42
0.000000001
 43
0.00000001
 40
0.0
 40
0.0
 40
0.0
 40
0.0
 40
1.0
 40
1.0
 40
1.0
 40
1.0
 10
10.0
 20
-2.794720919601045
 30
0.0
 10
10.0
 20
-3.04870631189442
 30
0.0
 10
10.0
 20
-3.321966317405911
 30
0.0
 10
10.0
 20
-3.609498720635385
 30
0.0
  0
SPLINE
  5
B5
330
1F
100
AcDbEntity
  8
외형선
  6
Continuous
370
    15
100
AcDbSpline
210
0.0
220
0.0
230
1.0
 70
     8
 71
     3
 72
    18
 73
    14
 74
     0
 42
0.000000001
 43
0.00000001
 40
0.0
 40
0.0
 40
0.0
 40
0.0
 40
0.0161571687057028
 40
0.0449819066034201
 40
0.0871913899528774
 40
0.142976820659318
 40
0.2500824590493264
 40
0.5000731163587461
 40
0.750079145268178
 40
0.850111511043717
 40
0.9244880513809082
 40
0.9740920945942414
 40
1.0
 40
1.0
 40
1.0
 40
1.0
 10
8.419410994938136
 20
-2.105427087934828
 30
0.0
 10
8.41613812326318
 20
-2.104688467861155
 30
0.0
 10
8.407026377839868
 20
-2.10263213362497
 30
0.0
 10
8.391630105435691
 20
-2.104044381787657
 30
0.0
 10
8.36991201522522
 20
-2.106284559357801
 30
0.0
 10
8.336080238481275
 20
-2.112097605063121
 30
0.0
 10
8.269865142880908
 20
-2.125957190300368
 30
0.0
 10
8.176243294269694
 20
-2.151144059414423
 30
0.0
 10
8.087482662184087
 20
-2.180437755385456
 30
0.0
 10
8.0270951739211
 20
-2.204268919070844
 30
0.0
 10
7.997538434960411
 20
-2.219057732460508
 30
0.0
 10
7.977198013944884
 20
-2.22906272115945
 30
0.0
 10
7.971808916694449
 20
-2.237996319294675
 30
0.0
 10
7.969959934853296
 20
-2.24106140792837
 30
0.0
  0
SPLINE
  5
B6
330
1F
100
AcDbEntity
  8
외형선
  6
Continuous
370
    15
100
AcDbSpline
210
0.0
220
0.0
230
1.0
 70
     8
 71
     3
 72
     8
 73
     4
 74
     0
 42
0.000000001
 43
0.00000001
 40
0.0
 40
0.0
 40
0.0
 40
0.0
 40
1.0
 40
1.0
 40
1.0
 40
1.0
 10
9.999999999999952
 20
-2.794720919601025
 30
0.0
 10
9.475419753424816
 20
-2.574060453965841
 30
0.0
 10
8.945852408578371
 20
-2.343076032421935
 30
0.0
 10
8.419438422294348
 20
-2.105290011674172
 30
0.0
  0
SPLINE
  5
B7
330
1F
100
AcDbEntity
  8
외형선
  6
Continuous
370
    15
100
AcDbSpline
210
0.0
220
0.0
230
1.0
 70
     8
 71
     3
 72
    14
 73
    10
 74
     0
 42
0.000000001
 43
0.00000001
 40
0.0
 40
0.0
 40
0.0
 40
0.0
 40
0.25
 40
0.25
 40
0.5
 40
0.5
 40
0.75
 40
0.75
 40
1.0
 40
1.0
 40
1.0
 40
1.0
 10
8.252485717402168
 20
3.484226514366094
 30
0.0
 10
8.223586626385513
 20
3.471684608090118
 30
0.0
 10
8.193095000214512
 20
3.463449988848325
 30
0.0
 10
8.125344382249727
 20
3.466088502876339
 30
0.0
 10
8.086458237352915
 20
3.478283376035812
 30
0.0
 10
8.01868617810529
 20
3.547278240361471
 30
0.0
 10
7.99582351840618
 20
3.601265701706296
 30
0.0
 10
7.973126632877156
 20
3.698798845884014
 30
0.0
 10
7.969958906942574
 20
3.746519214876377
 30
0.0
 10
7.969958906942571
 20
3.790356250879723
 30
0.0
  0
SPLINE
  5
B8
330
1F
100
AcDbEntity
  8
외형선
  6
Continuous
370
    15
100
AcDbSpline
210
0.0
220
0.0
230
1.0
 70
     8
 71
     3
 72
    16
 73
    12
 74
     0
 42
0.000000001
 43
0.00000001
 40
0.0
 40
0.0
 40
0.0
 40
0.0
 40
0.2899792220134454
 40
0.4433029671488753
 40
0.5743717183115149
 40
0.6995570737185546
 40
0.8025917813326565
 40
0.8835862653084655
 40
0.9427604206473336
 40
0.980699034926008
 40
1.0
 40
1.0
 40
1.0
 40
1.0
 10
8.25247908062291
 20
3.484229623960462
 30
0.0
 10
8.274334508062612
 20
3.493767993758799
 30
0.0
 10
8.307745784101822
 20
3.508349685522805
 30
0.0
 10
8.351790837712718
 20
3.527785130568712
 30
0.0
 10
8.383619066820788
 20
3.541719685580886
 30
0.0
 10
8.41212355062501
 20
3.553945304450107
 30
0.0
 10
8.437517840810079
 20
3.564186242254004
 30
0.0
 10
8.458285064788308
 20
3.572142535080094
 30
0.0
 10
8.474885417245062
 20
3.576946562409894
 30
0.0
 10
8.486377783818686
 20
3.580476438335101
 30
0.0
 10
8.49418083668343
 20
3.579816824616221
 30
0.0
 10
8.496811995970694
 20
3.579594405417925
 30
0.0
  0
SPLINE
  5
B9
330
1F
100
AcDbEntity
  8
외형선
  6
Continuous
370
    15
100
AcDbSpline
210
0.0
220
0.0
230
1.0
 70
     8
 71
     3
 72
     8
 73
     4
 74
     0
 42
0.000000001
 43
0.00000001
 40
0.0
 40
0.0
 40
0.0
 40
0.0
 40
1.0
 40
1.0
 40
1.0
 40
1.0
 10
9.999999999999984
 20
3.055427988633983
 30
0.0
 10
9.501109908159638
 20
3.239930630039882
 30
0.0
 10
8.997709386291767
 20
3.415477308672294
 30
0.0
 10
8.496800039041497
 20
3.579584031553329
 30
0.0
  0
SPLINE
  5
BA
330
1F
100
AcDbEntity
  8
외형선
  6
Continuous
370
    15
100
AcDbSpline
210
0.0
220
0.0
230
1.0
 70
    24
 71
     3
 72
    14
 73
    10
 74
     0
 42
0.000000001
 43
0.00000001
 40
0.0
 40
0.0
 40
0.0
 40
0.0
 40
0.25
 40
0.25
 40
0.5
 40
0.5
 40
0.75
 40
0.75
 40
1.0
 40
1.0
 40
1.0
 40
1.0
 10
10.0
 20
3.055427988633979
 30
0.0
 10
10.0
 20
2.632701007431958
 30
0.0
 10
10.0
 20
2.173645307232032
 30
0.0
 10
10.0
 20
1.208736604075932
 30
0.0
 10
10.0
 20
0.7030932779306178
 30
0.0
 10
10.0
 20
-0.319365188647405
 30
0.0
 10
10.0
 20
-0.8358850741128169
 30
0.0
 10
10.0
 20
-1.842768503968539
 30
0.0
 10
10.0
 20
-2.332889318894376
 30
0.0
 10
10.0
 20
-2.794720919601044
 30
0.0
  0
SPLINE
  5
BB
330
1F
100
AcDbEntity
  8
외형선
  6
Continuous
370
    15
100
AcDbSpline
210
0.0
220
0.0
230
1.0
 70
    24
 71
     3
 72
    11
 73
     7
 74
     0
 42
0.000000001
 43
0.00000001
 40
0.0
 40
0.0
 40
0.0
 40
0.0
 40
0.1261998383134382
 40
0.4222744288230968
 40
0.7070946724524403
 40
1.0
 40
1.0
 40
1.0
 40
1.0
 10
9.999999999999996
 20
4.166552482715145
 30
0.0
 10
9.999999999999996
 20
4.172008450748431
 30
0.0
 10
9.999999999999996
 20
4.190264542164417
 30
0.0
 10
9.999999999999993
 20
4.009597375832926
 30
0.0
 10
9.999999999999993
 20
3.649310828068166
 30
0.0
 10
9.999999999999996
 20
3.255227292637773
 30
0.0
 10
9.999999999999996
 20
3.055427988633979
 30
0.0
  0
SPLINE
  5
BC
330
1F
100
AcDbEntity
  8
외형선
  6
Continuous
370
    15
100
AcDbSpline
210
0.0
220
0.0
230
1.0
 70
    24
 71
     3
 72
    10
 73
     6
 74
     0
 42
0.000000001
 43
0.00000001
 40
0.0
 40
0.0
 40
0.0
 40
0.0
 40
0.210337285189309
 40
0.7539606815154339
 40
1.0
 40
1.0
 40
1.0
 40
1.0
 10
9.999999999999996
 20
4.913882663039065
 30
0.0
 10
9.999999999999996
 20
4.864185652803671
 30
0.0
 10
9.999999999999993
 20
4.686045140660831
 30
0.0
 10
9.999999999999996
 20
4.45847505604869
 30
0.0
 10
9.999999999999996
 20
4.306551304875489
 30
0.0
 10
9.999999999999996
 20
4.259215631683379
 30
0.0
  0
SPLINE
  5
BD
330
1F
100
AcDbEntity
  8
0
  6
Continuous
 62
     1
370
    15
100
AcDbSpline
210
0.0
220
0.0
230
1.0
 70
     8
 71
     3
 72
    30
 73
    26
 74
     0
 42
0.000000001
 43
0.00000001
 40
0.0
 40
0.0
 40
0.0
 40
0.0
 40
0.0472621668177981
 40
0.0949145921074016
 40
0.1383400085648122
 40
0.1820672329593648
 40
0.2254705000194733
 40
0.2691747479023922
 40
0.3125600831100505
 40
0.3562468188392905
 40
0.3996167339235931
 40
0.4432868762194089
 40
0.4866569540455016
 40
0.5303283833952627
 40
0.5736983176198962
 40
0.6173688107238409
 40
0.660738722814121
 40
0.7044090571650025
 40
0.7477790201570953
 40
0.7914499499605515
 40
0.8348198598605141
 40
0.8784899335028745
 40
0.9218594925700266
 40
0.9655304771421689
 40
1.0
 40
1.0
 40
1.0
 40
1.0
 10
10.0
 20
4.913882663039074
 30
0.0
 10
10.66329758936248
 20
5.14096111904306
 30
0.0
 10
11.99536982343649
 20
5.596993088780858
 30
0.0
 10
13.93683612935745
 20
6.040857702609729
 30
0.0
 10
15.82827541951844
 20
6.303402918938675
 30
0.0
 10
17.66021838674182
 20
6.380111257260867
 30
0.0
 10
19.49635423483489
 20
6.280514166027836
 30
0.0
 10
21.32799363069031
 20
6.007371410510645
 30
0.0
 10
23.1630420233494
 20
5.566827678528509
 30
0.0
 10
24.99334629197385
 20
4.973153428373924
 30
0.0
 10
26.82764931909754
 20
4.240305908951204
 30
0.0
 10
28.65791774261156
 20
3.392434439744163
 30
0.0
 10
30.49255664872689
 20
2.449025741249912
 30
0.0
 10
32.32248484749316
 20
1.439203519042932
 30
0.0
 10
34.15654123392959
 20
0.3871169786821684
 30
0.0
 10
35.98644176193754
 20
-0.6732068855487411
 30
0.0
 10
37.82100568260148
 20
-1.716390406163649
 30
0.0
 10
39.65134100170367
 20
-2.709879922436464
 30
0.0
 10
41.48543499287325
 20
-3.631129470571978
 30
0.0
 10
43.3153002366014
 20
-4.449959333382304
 30
0.0
 10
45.14941071968059
 20
-5.14668195734602
 30
0.0
 10
46.97983533618536
 20
-5.700437782093899
 30
0.0
 10
48.81429146097426
 20
-6.092406272375939
 30
0.0
 10
50.51928777744125
 20
-6.318526740230975
 30
0.0
 10
51.61571554660203
 20
-6.329722706154885
 30
0.0
 10
52.09937432095693
 20
-6.334661496751755
 30
0.0
  0
SPLINE
  5
BE
330
1F
100
AcDbEntity
  8
0
  6
Continuous
 62
     1
370
    15
100
AcDbSpline
210
0.0
220
0.0
230
1.0
 70
     8
 71
     3
 72
    13
 73
     9
 74
     0
 42
0.000000001
 43
0.00000001
 40
0.0
 40
0.0
 40
0.0
 40
0.0
 40
0.0734033945205392
 40
0.2843365854088813
 40
0.4610402885573042
 40
0.638612734461883
 40
0.8188451946278033
 40
1.0
 40
1.0
 40
1.0
 40
1.0
 10
77.484585867325
 20
4.25670782905832
 30
0.0
 10
77.69782589451195
 20
4.351414242366054
 30
0.0
 10
78.52383593939986
 20
4.718270548564657
 30
0.0
 10
79.863078427095
 20
5.196014475147391
 30
0.0
 10
81.50544871404838
 20
5.688300777824175
 30
0.0
 10
83.05836600751708
 20
6.03330528028684
 30
0.0
 10
84.62354397926177
 20
6.270753046313058
 30
0.0
 10
85.67362131173418
 20
6.3206805434915
 30
0.0
 10
86.20000000000002
 20
6.351074928723905
 30
0.0
  0
SPLINE
  5
BF
330
1F
100
AcDbEntity
  8
0
  6
Continuous
 62
     1
370
    15
100
AcDbSpline
210
0.0
220
0.0
230
1.0
 70
    24
 71
     3
 72
    10
 73
     6
 74
     0
 42
0.000000001
 43
0.00000001
 40
0.0
 40
0.0
 40
0.0
 40
0.0
 40
0.5
 40
0.5
 40
1.0
 40
1.0
 40
1.0
 40
1.0
 10
86.2
 20
4.446074928723894
 30
0.0
 10
86.20000000000002
 20
4.715519759450337
 30
0.0
 10
86.19999999999997
 20
5.028639606030088
 30
0.0
 10
86.19999999999997
 20
5.685564200825331
 30
0.0
 10
86.20000000000002
 20
6.027691246063252
 30
0.0
 10
86.20000000000002
 20
6.351074928723905
 30
0.0
  0
LINE
  5
C0
330
1F
100
AcDbEntity
  8
0
  6
Continuous
 62
     1
370
    15
100
AcDbLine
 10
86.2
 20
4.446074928723894
 30
0.0
 11
83.83968555755574
 21
4.340487208703357
 31
0.0
  0
SPLINE
  5
C1
330
1F
100
AcDbEntity
  8
0
  6
Continuous
 62
     1
370
    15
100
AcDbSpline
210
0.0
220
0.0
230
1.0
 70
     8
 71
     3
 72
    17
 73
    13
 74
     0
 42
0.000000001
 43
0.00000001
 40
0.0
 40
0.0
 40
0.0
 40
0.0
 40
0.0466242481980398
 40
0.1624018679592455
 40
0.2781832128681846
 40
0.3939667817385343
 40
0.5097510715820618
 40
0.6255345788262074
 40
0.7413158005326798
 40
0.8570932356149548
 40
0.9794231380458613
 40
1.0
 40
1.0
 40
1.0
 40
1.0
 10
35.84749109787046
 20
-0.589764896731788
 30
0.0
 10
35.51930068371743
 20
-0.4593452808088929
 30
0.0
 10
34.3761458154957
 20
-0.0050668728345626
 30
0.0
 10
32.41798764468996
 20
0.7940613031846662
 30
0.0
 10
29.97300521409731
 20
1.745531712686797
 30
0.0
 10
27.52797043819104
 20
2.613028178902467
 30
0.0
 10
25.08291814991926
 20
3.351859266664214
 30
0.0
 10
22.63788751835415
 20
3.924514795657369
 30
0.0
 10
20.19289712145228
 20
4.309420073110095
 30
0.0
 10
17.70188360540618
 20
4.465264260529302
 30
0.0
 10
15.88088143615458
 20
4.468113853380187
 30
0.0
 10
14.87495177863407
 20
4.345037463535616
 30
0.0
 10
14.73010995965199
 20
4.327315937934338
 30
0.0
  0
SPLINE
  5
C2
330
1F
100
AcDbEntity
  8
외형선
  6
Continuous
370
    15
100
AcDbSpline
210
0.0
220
0.0
230
1.0
 70
    24
 71
     3
 72
    10
 73
     6
 74
     0
 42
0.000000001
 43
0.00000001
 40
0.0
 40
0.0
 40
0.0
 40
0.0
 40
0.2103372851893107
 40
0.7539606815154349
 40
1.0
 40
1.0
 40
1.0
 40
1.0
 10
9.999999999999996
 20
4.913882663039067
 30
0.0
 10
9.999999999999996
 20
4.864185652803672
 30
0.0
 10
9.999999999999993
 20
4.686045140660833
 30
0.0
 10
9.999999999999993
 20
4.458475056048691
 30
0.0
 10
9.999999999999993
 20
4.306551304875489
 30
0.0
 10
9.999999999999993
 20
4.259215631683379
 30
0.0
  0
SPLINE
  5
C3
330
1F
100
AcDbEntity
  8
0
  6
Continuous
 62
     1
370
    15
100
AcDbSpline
210
0.0
220
0.0
230
1.0
 70
     8
 71
     3
 72
    11
 73
     7
 74
     0
 42
0.000000001
 43
0.00000001
 40
0.0
 40
0.0
 40
0.0
 40
0.0
 40
0.2636757820420795
 40
0.5295288173647489
 40
0.7717993566959831
 40
0.9999999999999999
 40
0.9999999999999999
 40
0.9999999999999999
 40
0.9999999999999999
 10
10.0
 20
-4.911732805591286
 30
0.0
 10
10.66329724538016
 20
-5.13904279614049
 30
0.0
 10
11.99536878864915
 20
-5.595539746821775
 30
0.0
 10
13.93684015382607
 20
-6.03599897484247
 30
0.0
 10
15.78864240159791
 20
-6.304686455201213
 30
0.0
 10
16.9719718032335
 20
-6.330862983263983
 30
0.0
 10
17.5459421985747
 20
-6.343559830093006
 30
0.0
  0
SPLINE
  5
C4
330
1F
100
AcDbEntity
  8
0
  6
Continuous
 62
     1
370
    15
100
AcDbSpline
210
0.0
220
0.0
230
1.0
 70
     8
 71
     3
 72
    32
 73
    28
 74
     0
 42
0.000000001
 43
0.00000001
 40
0.0
 40
0.0
 40
0.0
 40
0.0
 40
0.0091428995368756
 40
0.0513331218538056
 40
0.0938153432791604
 40
0.1360052243061431
 40
0.1784883318834427
 40
0.2206780636460449
 40
0.2631600784953166
 40
0.3053498113823545
 40
0.3478319631765296
 40
0.3900217161534317
 40
0.4325041314218623
 40
0.4746938397178677
 40
0.5171755237601342
 40
0.5593653589845216
 40
0.6018482993257729
 40
0.6440380265455491
 40
0.6865199519916054
 40
0.7287097187919664
 40
0.7711921176134475
 40
0.8133818631147324
 40
0.855864167558831
 40
0.8914525947851781
 40
0.9272159882844727
 40
0.9635151131933193
 40
1.0
 40
1.0
 40
1.0
 40
1.0
 10
42.92389964267038
 20
4.257024741392597
 30
0.0
 10
43.05577620792216
 20
4.316429050488449
 30
0.0
 10
43.79620168962271
 20
4.649956573694785
 30
0.0
 10
45.14941146617271
 20
5.142955439949722
 30
0.0
 10
46.97983544344416
 20
5.703322048330925
 30
0.0
 10
48.81429029643976
 20
6.097444455326129
 30
0.0
 10
50.64417309670112
 20
6.324875383264893
 30
0.0
 10
52.47820753802371
 20
6.376708349382096
 30
0.0
 10
54.308127271798
 20
6.252154662229924
 30
0.0
 10
56.14280649149792
 20
5.954322765644924
 30
0.0
 10
57.9729626719917
 20
5.492532493096827
 30
0.0
 10
59.80701376441105
 20
4.877174497585689
 30
0.0
 10
61.63685741787641
 20
4.128224738063968
 30
0.0
 10
63.47100683067609
 20
3.263292184212533
 30
0.0
 10
65.30151163297631
 20
2.310968880492355
 30
0.0
 10
67.13580823463376
 20
1.291893023135674
 30
0.0
 10
68.96567262150789
 20
0.2389445610195997
 30
0.0
 10
70.79970962687179
 20
-0.8229811168059346
 30
0.0
 10
72.62970629165582
 20
-1.859434051083422
 30
0.0
 10
74.46444380358912
 20
-2.845791782379308
 30
0.0
 10
76.29447288363318
 20
-3.752092339501903
 30
0.0
 10
78.12853506902681
 20
-4.556618466813518
 30
0.0
 10
79.86308286899592
 20
-5.197944663318746
 30
0.0
 10
81.50544760877486
 20
-5.685135686925081
 30
0.0
 10
83.05836630775983
 20
-6.031431206630695
 30
0.0
 10
84.6235439032858
 20
-6.268533402194766
 30
0.0
 10
85.6736212863658
 20
-6.318507384273416
 30
0.0
 10
86.20000000000002
 20
-6.348925071276095
 30
0.0
  0
SPLINE
  5
C5
330
1F
100
AcDbEntity
  8
0
  6
Continuous
 62
     1
370
    15
100
AcDbSpline
210
0.0
220
0.0
230
1.0
 70
     8
 71
     3
 72
    17
 73
    13
 74
     0
 42
0.000000001
 43
0.00000001
 40
0.0
 40
0.0
 40
0.0
 40
0.0
 40
0.0624977060015464
 40
0.1782507231098539
 40
0.294003980484956
 40
0.4097559750263925
 40
0.5255052046571165
 40
0.6412501695398715
 40
0.7569893732897153
 40
0.8727213241805862
 40
0.9884445363438616
 40
1.0
 40
1.0
 40
1.0
 40
1.0
 10
70.40785121608802
 20
-0.5933026985181391
 30
0.0
 10
69.96780512782252
 20
-0.4176187155199912
 30
0.0
 10
68.71274252707606
 20
0.0834524279146857
 30
0.0
 10
66.64265679612062
 20
0.9247481350674843
 30
0.0
 10
64.19760742847636
 20
1.867829279847019
 30
0.0
 10
61.7525872237069
 20
2.720325519560093
 30
0.0
 10
59.30763145787706
 20
3.439058779682903
 30
0.0
 10
56.86277520130176
 20
3.98715128063603
 30
0.0
 10
54.4180525096203
 20
4.344923177780421
 30
0.0
 10
51.97350121177368
 20
4.467168360313806
 30
0.0
 10
50.2625013165075
 20
4.45588654979562
 30
0.0
 10
49.36636334811432
 20
4.34461170831604
 30
0.0
 10
49.28500416003362
 20
4.334509211740854
 30
0.0
  0
SPLINE
  5
C6
330
1F
100
AcDbEntity
  8
0
  6
Continuous
 62
     1
370
    15
100
AcDbSpline
210
0.0
220
0.0
230
1.0
 70
     8
 71
     3
 72
    22
 73
    18
 74
     0
 42
0.000000001
 43
0.00000001
 40
0.0
 40
0.0
 40
0.0
 40
0.0
 40
0.0706233190073631
 40
0.1412422243082939
 40
0.2118571907322254
 40
0.2824686950891891
 40
0.3530772159326331
 40
0.4224218304156177
 40
0.4917630842186854
 40
0.5611021542044898
 40
0.6304402192324859
 40
0.7010410501657189
 40
0.7716424615604631
 40
0.8422449370664671
 40
0.9128489597952067
 40
0.9834550120759138
 40
1.0
 40
1.0
 40
1.0
 40
1.0
 10
86.20000000000002
 20
-6.024699590898674
 30
0.0
 10
85.46967746363073
 20
-5.868634979717996
 30
0.0
 10
84.00907803345501
 20
-5.55651551084016
 30
0.0
 10
81.81827821015179
 20
-4.80475933864789
 30
0.0
 10
79.62762146174737
 20
-3.880121965029243
 30
0.0
 10
77.43709913219409
 20
-2.797480764273706
 30
0.0
 10
75.25971283068654
 20
-1.612548258003329
 30
0.0
 10
73.09554520283152
 20
-0.3722311381070889
 30
0.0
 10
70.94451200037071
 20
0.8747484911371429
 30
0.0
 10
68.79355781058342
 20
2.088442038757345
 30
0.0
 10
66.62960773218204
 20
3.229313481671496
 30
0.0
 10
64.45251629102911
 20
4.251960335333397
 30
0.0
 10
62.26237085153335
 20
5.111263778348103
 30
0.0
 10
60.07217824894352
 20
5.77397611509966
 30
0.0
 10
57.88193403740871
 20
6.188304695675945
 30
0.0
 10
56.25064882227605
 20
6.370832846678358
 30
0.0
 10
55.34946415535421
 20
6.335708388099598
 30
0.0
 10
55.17838083384072
 20
6.329040266392044
 30
0.0
  0
SPLINE
  5
C7
330
1F
100
AcDbEntity
  8
0
  6
Continuous
 62
     1
370
    15
100
AcDbSpline
210
0.0
220
0.0
230
1.0
 70
     8
 71
     3
 72
    15
 73
    11
 74
     0
 42
0.000000001
 43
0.00000001
 40
0.0
 40
0.0
 40
0.0
 40
0.0
 40
0.0215703362609389
 40
0.1613753352671482
 40
0.30117723752938
 40
0.4409713745824076
 40
0.5807530904588902
 40
0.7205177491561164
 40
0.8602607420335201
 40
1.0
 40
1.0
 40
1.0
 40
1.0
 10
27.91430468880527
 20
-4.990705235355457
 30
0.0
 10
27.78552201018814
 20
-5.040690476392498
 30
0.0
 10
26.82205311999391
 20
-5.414647791344918
 30
0.0
 10
25.02327483615878
 20
-5.885903109719989
 30
0.0
 10
22.51883054230517
 20
-6.312542782389944
 30
0.0
 10
20.01444183577759
 20
-6.393156821165055
 30
0.0
 10
17.51035160556297
 20
-6.150031726003565
 30
0.0
 10
15.00661272309857
 20
-5.584472854731417
 30
0.0
 10
12.50323380776529
 20
-4.74440512264253
 30
0.0
 10
10.83440383534994
 20
-3.987797484290144
 30
0.0
 10
9.999999999995806
 20
-3.609498720644536
 30
0.0
  0
SPLINE
  5
C8
330
1F
100
AcDbEntity
  8
외형선
  6
Continuous
370
    15
100
AcDbSpline
210
0.0
220
0.0
230
1.0
 70
    24
 71
     3
 72
     8
 73
     4
 74
     0
 42
0.000000001
 43
0.00000001
 40
0.0
 40
0.0
 40
0.0
 40
0.0
 40
1.0
 40
1.0
 40
1.0
 40
1.0
 10
10.0
 20
-2.794720919601045
 30
0.0
 10
10.0
 20
-3.048706311894424
 30
0.0
 10
10.0
 20
-3.32196631740592
 30
0.0
 10
10.0
 20
-3.6094987206354
 30
0.0
  0
SPLINE
  5
C9
330
1F
100
AcDbEntity
  8
0
  6
Continuous
 62
     1
370
    15
100
AcDbSpline
210
0.0
220
0.0
230
1.0
 70
     8
 71
     3
 72
    14
 73
    10
 74
     0
 42
0.000000001
 43
0.00000001
 40
0.0
 40
0.0
 40
0.0
 40
0.0
 40
0.1482735150646496
 40
0.2965601867125869
 40
0.4448581975630607
 40
0.5931657211716403
 40
0.7414809234769356
 40
0.8898019642603687
 40
1.0
 40
1.0
 40
1.0
 40
1.0
 10
86.20000000000002
 20
-5.008898950014279
 30
0.0
 10
85.38532261921044
 20
-4.836206410910839
 30
0.0
 10
83.75589556980022
 20
-4.490806009375496
 30
0.0
 10
81.3116145645454
 20
-3.685647466332
 30
0.0
 10
78.86712156534448
 20
-2.716962419887977
 30
0.0
 10
76.42244787831449
 20
-1.609093936469264
 30
0.0
 10
73.97762881369962
 20
-0.4258088406283815
 30
0.0
 10
71.74219646730015
 20
0.6843562274896953
 30
0.0
 10
70.32170511484807
 20
1.352069774154959
 30
0.0
 10
69.71619716189285
 20
1.6366937263556
 30
0.0
  0
SPLINE
  5
CA
330
1F
100
AcDbEntity
  8
0
  6
Continuous
 62
     1
370
    15
100
AcDbSpline
210
0.0
220
0.0
230
1.0
 70
     8
 71
     3
 72
    13
 73
     9
 74
     0
 42
0.000000001
 43
0.00000001
 40
0.0
 40
0.0
 40
0.0
 40
0.0
 40
0.06762907234802
 40
0.2480106565644221
 40
0.4283865737929511
 40
0.6189681928061638
 40
0.8095013830507555
 40
1.0
 40
1.0
 40
1.0
 40
1.0
 10
23.55452764041243
 20
-5.251696033976571
 30
0.0
 10
23.24896630988654
 20
-5.290301225766751
 30
0.0
 10
22.12840582349623
 20
-5.431874940003257
 30
0.0
 10
20.19286665479074
 20
-5.403541189931799
 30
0.0
 10
17.70187095049115
 20
-5.160514188135783
 30
0.0
 10
15.16480556579137
 20
-4.621389474837463
 30
0.0
 10
12.58218622962817
 20
-3.834513595643047
 30
0.0
 10
10.86067667558917
 20
-3.141297511734239
 30
0.0
 10
9.999999999999952
 20
-2.794720919601025
 30
0.0
  0
LINE
  5
CB
330
1F
100
AcDbEntity
  8
0
  6
Continuous
 62
     1
370
    15
100
AcDbLine
 10
86.2
 20
-6.024699590898681
 30
0.0
 11
86.2
 21
-5.008898950014278
 31
0.0
  0
SPLINE
  5
CC
330
1F
100
AcDbEntity
  8
0
  6
Continuous
 62
     1
370
    15
100
AcDbSpline
210
0.0
220
0.0
230
1.0
 70
     8
 71
     3
 72
    27
 73
    23
 74
     0
 42
0.000000001
 43
0.00000001
 40
0.0
 40
0.0
 40
0.0
 40
0.0
 40
0.0052735652741939
 40
0.0575963425908048
 40
0.1099202665384662
 40
0.1622456945664715
 40
0.213639687766484
 40
0.2650379181304757
 40
0.3164412485769274
 40
0.3678499613630955
 40
0.4201868389646414
 40
0.4725205857690968
 40
0.524851554274102
 40
0.5771800983751747
 40
0.6295065731893583
 40
0.6808963336263678
 40
0.7322838617481632
 40
0.7836700302373322
 40
0.8350557130198759
 40
0.8948794433528148
 40
0.954701848563062
 40
1.0
 40
1.0
 40
1.0
 40
1.0
 10
62.48312567521077
 20
-4.9901890252011
 30
0.0
 10
62.40954362453878
 20
-5.019176166401155
 30
0.0
 10
61.60590191751817
 20
-5.33576527234365
 30
0.0
 10
60.0721781713995
 20
-5.756165918063178
 30
0.0
 10
57.88193394685399
 20
-6.20208527416804
 30
0.0
 10
55.70462087006752
 20
-6.382096777663743
 30
0.0
 10
53.54026466821169
 20
-6.319079027206115
 30
0.0
 10
51.3887196959007
 20
-6.014025641821926
 30
0.0
 10
49.23693601736638
 20
-5.479880954068126
 30
0.0
 10
47.07198669061466
 20
-4.732149225409421
 30
0.0
 10
44.89408961417006
 20
-3.79527015188361
 30
0.0
 10
42.70334827776323
 20
-2.702736330718271
 30
0.0
 10
40.51274560635031
 20
-1.503327072820178
 30
0.0
 10
38.32226954780205
 20
-0.2444697760530783
 30
0.0
 10
36.14492518635913
 20
1.016530528322841
 30
0.0
 10
33.98079328394488
 20
2.230305698181033
 30
0.0
 10
31.82979813155853
 20
3.351916439389819
 30
0.0
 10
29.67882371982775
 20
4.345108385937122
 30
0.0
 10
27.41034641754988
 20
5.220398890156773
 30
0.0
 10
25.02330073727001
 20
5.893784150058742
 30
0.0
 10
22.72146448716559
 20
6.300572083108801
 30
0.0
 10
21.25446745575867
 20
6.314762936131492
 30
0.0
 10
20.62231466085632
 20
6.320878004675115
 30
0.0
  0
SPLINE
  5
CD
330
1F
100
AcDbEntity
  8
0
  6
Continuous
 62
     1
370
    15
100
AcDbSpline
210
0.0
220
0.0
230
1.0
 70
     8
 71
     3
 72
    17
 73
    13
 74
     0
 42
0.000000001
 43
0.00000001
 40
0.0
 40
0.0
 40
0.0
 40
0.0
 40
0.0542368037413257
 40
0.1607424545584361
 40
0.2672416943342174
 40
0.3737332095869079
 40
0.4802156930127595
 40
0.5866928200504409
 40
0.6931787133599582
 40
0.7996731674732135
 40
0.9061748727372846
 40
1.0
 40
1.0
 40
1.0
 40
1.0
 10
58.10768600756764
 20
-5.24946504073312
 30
0.0
 10
57.69269837661915
 20
-5.297215696000137
 30
0.0
 10
56.46279311287614
 20
-5.438735051952627
 30
0.0
 10
54.41803706633489
 20
-5.387289344631256
 30
0.0
 10
51.97348167668207
 20
-5.110544438439275
 30
0.0
 10
49.52913033548924
 20
-4.568971272774005
 30
0.0
 10
47.08497989857099
 20
-3.80612185963069
 30
0.0
 10
44.64090339439586
 20
-2.855118337795522
 30
0.0
 10
42.19668935256072
 20
-1.763372245536359
 30
0.0
 10
39.75226101195973
 20
-0.5866664010819682
 30
0.0
 10
37.40467993705614
 20
0.5781036906284875
 30
0.0
 10
35.87190440126921
 20
1.304411387700708
 30
0.0
 10
35.15401325360601
 20
1.644585049162553
 30
0.0
  0
LINE
  5
CE
330
1F
100
AcDbEntity
  8
0
  6
Continuous
 62
     1
370
    15
100
AcDbLine
 10
86.20000000000002
 20
-6.348925071276095
 30
0.0
 11
86.19999999999942
 21
-6.024699590898679
 31
0.0
  0
SPLINE
  5
CF
330
1F
100
AcDbEntity
  8
0
  6
Continuous
 62
     1
370
    15
100
AcDbSpline
210
0.0
220
0.0
230
1.0
 70
     8
 71
     3
 72
     8
 73
     4
 74
     0
 42
0.000000001
 43
0.00000001
 40
0.0
 40
0.0
 40
0.0
 40
0.0
 40
1.0
 40
1.0
 40
1.0
 40
1.0
 10
82.27110935627955
 20
1.777092003176304
 30
0.0
 10
82.04595661830992
 20
2.043794274153007
 30
0.0
 10
81.84437534697453
 20
2.301125855005636
 30
0.0
 10
81.67247056944503
 20
2.546659730109204
 30
0.0
  0
LINE
  5
D0
330
1F
100
AcDbEntity
  8
0
  6
Continuous
 62
     1
370
    15
100
AcDbLine
 10
81.75275512375333
 20
2.614026470018509
 30
0.0
 11
86.2
 21
0.0010749287239035
 31
0.0
  0
LINE
  5
D1
330
1F
100
AcDbEntity
  8
0
  6
Continuous
 62
     1
370
    15
100
AcDbLine
 10
86.2
 20
0.0010749287239035
 30
0.0
 11
86.2
 21
-1.695917778564341
 31
0.0
  0
SPLINE
  5
D2
330
1F
100
AcDbEntity
  8
0
  6
Continuous
 62
     1
370
    15
100
AcDbSpline
210
0.0
220
0.0
230
1.0
 70
     8
 71
     3
 72
    12
 73
     8
 74
     0
 42
0.000000001
 43
0.00000001
 40
0.0
 40
0.0
 40
0.0
 40
0.0
 40
0.5
 40
0.5
 40
0.75
 40
0.75
 40
1.0
 40
1.0
 40
1.0
 40
1.0
 10
86.2
 20
-1.695917778564341
 30
0.0
 10
85.51989727265337
 20
-1.161243275850691
 30
0.0
 10
84.85115445793743
 20
-0.6046485688705768
 30
0.0
 10
83.86552321729278
 20
0.2639788324048153
 30
0.0
 10
83.53994021316343
 20
0.559234379167046
 30
0.0
 10
82.89542402705888
 20
1.162577037923928
 30
0.0
 10
82.57824347732006
 20
1.469107333162795
 30
0.0
 10
82.2711093562819
 20
1.777092003173966
 30
0.0
  0
SPLINE
  5
D3
330
1F
100
AcDbEntity
  8
외형선
  6
Continuous
370
    15
100
AcDbSpline
210
0.0
220
0.0
230
1.0
 70
    24
 71
     3
 72
    14
 73
    10
 74
     0
 42
0.000000001
 43
0.00000001
 40
0.0
 40
0.0
 40
0.0
 40
0.0
 40
0.25
 40
0.25
 40
0.5
 40
0.5
 40
0.75
 40
0.75
 40
1.0
 40
1.0
 40
1.0
 40
1.0
 10
10.0
 20
3.055427988633979
 30
0.0
 10
10.0
 20
2.632701007431958
 30
0.0
 10
10.0
 20
2.173645307232032
 30
0.0
 10
10.0
 20
1.208736604075932
 30
0.0
 10
10.0
 20
0.7030932779306178
 30
0.0
 10
10.0
 20
-0.319365188647405
 30
0.0
 10
10.0
 20
-0.8358850741128169
 30
0.0
 10
10.0
 20
-1.842768503968539
 30
0.0
 10
10.0
 20
-2.332889318894376
 30
0.0
 10
10.0
 20
-2.794720919601044
 30
0.0
  0
SPLINE
  5
D4
330
1F
100
AcDbEntity
  8
0
  6
Continuous
 62
     1
370
    15
100
AcDbSpline
210
0.0
220
0.0
230
1.0
 70
     8
 71
     3
 72
    14
 73
    10
 74
     0
 42
0.000000001
 43
0.00000001
 40
0.0
 40
0.0
 40
0.0
 40
0.0
 40
0.1333141643571015
 40
0.2666171425462689
 40
0.3999420503494203
 40
0.5670942131844816
 40
0.7342530480308846
 40
0.9014164466367487
 40
1.0
 40
1.0
 40
1.0
 40
1.0
 10
82.27110935627952
 20
1.777092003176303
 30
0.0
 10
81.62126094235683
 20
2.052974821503343
 30
0.0
 10
80.32161864220186
 20
2.604717309292851
 30
0.0
 10
78.37209432890214
 20
3.336040773373346
 30
0.0
 10
76.25768613530045
 20
4.01941933578738
 30
0.0
 10
73.97759850384799
 20
4.59370640917308
 30
0.0
 10
71.53271337449999
 20
4.972746969591074
 30
0.0
 10
69.42207204221883
 20
5.12443346556275
 30
0.0
 10
68.12642183475411
 20
5.045814673600701
 30
0.0
 10
67.64577737045731
 20
5.016649635901056
 30
0.0
  0
SPLINE
  5
D5
330
1F
100
AcDbEntity
  8
0
  6
Continuous
 62
     1
370
    15
100
AcDbSpline
210
0.0
220
0.0
230
1.0
 70
     8
 71
     3
 72
    19
 73
    15
 74
     0
 42
0.000000001
 43
0.00000001
 40
0.0
 40
0.0
 40
0.0
 40
0.0
 40
0.0318243796523215
 40
0.1185032732352091
 40
0.2051859756499569
 40
0.2918713944137205
 40
0.3785584348556144
 40
0.4652460009976879
 40
0.5519329964381511
 40
0.6386183252353324
 40
0.7253008927908418
 40
0.8168886110177663
 40
0.9084527297753895
 40
0.9999999999999999
 40
0.9999999999999999
 40
0.9999999999999999
 40
0.9999999999999999
 10
38.2053027689814
 20
-4.746239292981219
 30
0.0
 10
37.90610227662582
 20
-4.80058084148526
 30
0.0
 10
36.79198039632281
 20
-5.002930469058564
 30
0.0
 10
34.86288146170725
 20
-5.106216553196775
 30
0.0
 10
32.41798569358436
 20
-5.042940242505768
 30
0.0
 10
29.97300176859991
 20
-4.716161607185237
 30
0.0
 10
27.52796666096154
 20
-4.161359601949205
 30
0.0
 10
25.08291370057183
 20
-3.40065178811491
 30
0.0
 10
22.6378826003767
 20
-2.472796150983386
 30
0.0
 10
20.1928912689856
 20
-1.423348808673822
 30
0.0
 10
17.70188588601761
 20
-0.281914348197239
 30
0.0
 10
15.16482749255134
 20
0.8934230266526786
 30
0.0
 10
12.58219728880653
 20
2.053247720291534
 30
0.0
 10
10.86067962923245
 20
2.721388391613211
 30
0.0
 10
10.0
 20
3.055427988633979
 30
0.0
  0
SPLINE
  5
D6
330
1F
100
AcDbEntity
  8
0
  6
Continuous
 62
     1
370
    15
100
AcDbSpline
210
0.0
220
0.0
230
1.0
 70
    24
 71
     3
 72
    10
 73
     6
 74
     0
 42
0.000000001
 43
0.00000001
 40
0.0
 40
0.0
 40
0.0
 40
0.0
 40
0.4999999999999999
 40
0.4999999999999999
 40
1.0
 40
1.0
 40
1.0
 40
1.0
 10
86.2
 20
-5.008898950014276
 30
0.0
 10
86.20000000000002
 20
-4.624845391450266
 30
0.0
 10
86.20000000000002
 20
-4.13957899408218
 30
0.0
 10
86.19999999999996
 20
-3.011381321882918
 30
0.0
 10
86.2
 20
-2.369427334651916
 30
0.0
 10
86.20000000000002
 20
-1.695917778564545
 30
0.0
  0
SPLINE
  5
D7
330
1F
100
AcDbEntity
  8
0
  6
Continuous
 62
     1
370
    15
100
AcDbSpline
210
0.0
220
0.0
230
1.0
 70
     8
 71
     3
 72
    24
 73
    20
 74
     0
 42
0.000000001
 43
0.00000001
 40
0.0
 40
0.0
 40
0.0
 40
0.0
 40
0.0309175784954777
 40
0.0925579450103508
 40
0.154199215621087
 40
0.2158406108394905
 40
0.2774813510768982
 40
0.3391206572726803
 40
0.400757751521825
 40
0.4623918577005391
 40
0.5240222020887783
 40
0.585648013988653
 40
0.6472685263376456
 40
0.7088858949468188
 40
0.7705084070207041
 40
0.8321359424248848
 40
0.8937677327152379
 40
0.9554030060327913
 40
1.0
 40
1.0
 40
1.0
 40
1.0
 10
72.75909057205213
 20
-4.743781729121861
 30
0.0
 10
72.35030227409426
 20
-4.813916249261831
 30
0.0
 10
71.12651287516726
 20
-5.023877940129447
 30
0.0
 10
69.08769989175437
 20
-5.112687190673215
 30
0.0
 10
66.64265578061695
 20
-5.013235726977435
 30
0.0
 10
64.19760550051288
 20
-4.654806278832076
 30
0.0
 10
61.75258479486681
 20
-4.070557590745636
 30
0.0
 10
59.30762846152244
 20
-3.285087079033199
 30
0.0
 10
56.86277150008833
 20
-2.338168505726449
 30
0.0
 10
54.4180487302371
 20
-1.276105860449845
 30
0.0
 10
51.97349499876992
 20
-0.1512495539852242
 30
0.0
 10
49.52914456155695
 20
0.9810847771857102
 30
0.0
 10
47.08499458980154
 20
2.065144421181019
 30
0.0
 10
44.64091624393491
 20
3.047859190259984
 30
0.0
 10
42.19670330543738
 20
3.880020558914636
 30
0.0
 10
39.75227640381009
 20
4.523699334456791
 30
0.0
 10
37.30765717757744
 20
4.936204704388188
 30
0.0
 10
35.08819544675343
 20
5.119646559338235
 30
0.0
 10
33.6836058239178
 20
5.050775798077189
 30
0.0
 10
33.09395000147271
 20
5.021863406362504
 30
0.0
  0
SPLINE
  5
D8
330
1F
100
AcDbEntity
  8
0
  6
Continuous
 62
     1
370
    15
100
AcDbSpline
210
0.0
220
0.0
230
1.0
 70
    24
 71
     3
 72
     8
 73
     4
 74
     0
 42
0.000000001
 43
0.00000001
 40
0.0
 40
0.0
 40
0.0
 40
0.0
 40
1.0
 40
1.0
 40
1.0
 40
1.0
 10
82.3347968843033
 20
3.102417496625332
 30
0.0
 10
82.12520081076369
 20
2.926545508622039
 30
0.0
 10
81.90370784598383
 20
2.740690843567304
 30
0.0
 10
81.67247056944508
 20
2.546659730109204
 30
0.0
  0
SPLINE
  5
D9
330
1F
100
AcDbEntity
  8
0
  6
Continuous
 62
     1
370
    15
100
AcDbSpline
210
0.0
220
0.0
230
1.0
 70
     8
 71
     3
 72
    10
 73
     6
 74
     0
 42
0.000000001
 43
0.00000001
 40
0.0
 40
0.0
 40
0.0
 40
0.0
 40
0.5
 40
0.5
 40
1.0
 40
1.0
 40
1.0
 40
1.0
 10
86.2
 20
4.446074928723903
 30
0.0
 10
85.54677884300197
 20
4.268911985332955
 30
0.0
 10
84.89755500543647
 20
4.070012801638533
 30
0.0
 10
83.60780659456468
 20
3.624910409240862
 30
0.0
 10
82.96724863861672
 20
3.379220870975167
 30
0.0
 10
82.33479688431505
 20
3.102417496630816
 30
0.0
  0
SPLINE
  5
DA
330
1F
100
AcDbEntity
  8
외형선
  6
Continuous
370
    15
100
AcDbSpline
210
0.0
220
0.0
230
1.0
 70
    24
 71
     3
 72
    11
 73
     7
 74
     0
 42
0.000000001
 43
0.00000001
 40
0.0
 40
0.0
 40
0.0
 40
0.0
 40
0.1264779572507278
 40
0.4224583111670765
 40
0.7071879003116189
 40
1.0
 40
1.0
 40
1.0
 40
1.0
 10
9.999999999999996
 20
4.166539614138668
 30
0.0
 10
9.999999999999996
 20
4.17201570363672
 30
0.0
 10
9.999999999999996
 20
4.190306792229814
 30
0.0
 10
9.999999999999993
 20
4.009610547777285
 30
0.0
 10
9.999999999999993
 20
3.649307480763974
 30
0.0
 10
9.999999999999996
 20
3.255226166508168
 30
0.0
 10
9.999999999999996
 20
3.055427988633979
 30
0.0
  0
LINE
  5
DB
330
1F
100
AcDbEntity
  8
0
  6
Continuous
 62
     1
370
    15
100
AcDbLine
 10
86.2
 20
0.0010749287239035
 30
0.0
 11
86.2
 21
4.446074928723902
 31
0.0
  0
LINE
  5
DC
330
1F
100
AcDbEntity
  8
중심선
 48
0.8
100
AcDbLine
 10
-43.80000000000001
 20
0.0010749287238888
 30
0.0
 11
89.19999999999999
 21
0.0010749287239051
 31
0.0
  0
LINE
  5
DD
330
1F
100
AcDbEntity
  8
참조1
100
AcDbLine
 10
27.54926131403115
 20
0.0010749287238892
 30
0.0
 11
27.54926131403116
 21
-39.99892507127611
 31
0.0
  0
LINE
  5
DE
330
1F
100
AcDbEntity
  8
참조1
100
AcDbLine
 10
27.54926131403116
 20
-39.99892507127611
 30
0.0
 11
-20.15080122126847
 21
-39.9989250712761
 31
0.0
  0
CIRCLE
  5
DF
330
1F
100
AcDbEntity
  8
해칭선
100
AcDbCircle
 10
0.0
 20
0.0
 30
0.0
 40
2.999999999999995
  0
INSERT
  5
E0
330
1F
100
AcDbEntity
  8
0
  6
Continuous
 62
     7
100
AcDbBlockReference
 66
     1
  2
블럭10
 10
8.759727067874786
 20
-52.04609937292004
 30
0.0
  0
ATTRIB
  5
E1
330
E0
100
AcDbEntity
  8
FORMAT
 62
     2
100
AcDbText
 10
-0.4215682208664937
 20
-49.97073246008785
 30
0.0
 40
4.233333333333333
  1
E1072032 [ 2 FLUTE ]
 41
0.75
  7
SLDTEXTSTYLE0
 11
-0.4215682208664937
 21
-52.08739912675452
 31
0.0
100
AcDbAttribute
  2
AUTOATTR0
 70
     0
 74
     1
  0
SEQEND
  5
E2
330
E0
100
AcDbEntity
  8
0
  6
Continuous
 62
     7
  0
HATCH
  5
E3
330
1F
100
AcDbEntity
  8
중심선
100
AcDbHatch
 10
0.0
 20
0.0
 30
0.0
210
0.0
220
0.0
230
1.0
  2
SOLID
 70
     1
 71
     0
 91
        1
 92
        0
 93
        4
 72
     1
 10
14.47463637225562
 20
-35.7989250712761
 11
11.02836112841834
 21
-35.7989250712761
 72
     1
 10
11.02836112841834
 20
-35.7989250712761
 11
8.900131269214315
 21
-38.33525065184867
 72
     1
 10
8.900131269214315
 20
-38.33525065184867
 11
12.34643959816475
 21
-38.33521122254619
 72
     1
 10
12.34643959816475
 20
-38.33521122254619
 11
14.47463637225562
 21
-35.7989250712761
 97
        0
 75
     0
 76
     1
 98
        1
 10
-4.849261314031164
 20
0.0
  0
HATCH
  5
E4
330
1F
100
AcDbEntity
  8
중심선
100
AcDbHatch
 10
0.0
 20
0.0
 30
0.0
210
0.0
220
0.0
230
1.0
  2
SOLID
 70
     1
 71
     0
 91
        1
 92
        0
 93
        4
 72
     1
 10
19.4874003632916
 20
-35.79892507127608
 11
16.04112511945432
 21
-35.7989250712761
 72
     1
 10
16.04112511945432
 20
-35.7989250712761
 11
11.5099871110969
 21
-41.19892507127612
 72
     1
 10
11.5099871110969
 20
-41.19892507127612
 11
14.95626235493418
 21
-41.19892507127612
 72
     1
 10
14.95626235493418
 20
-41.19892507127612
 11
19.4874003632916
 21
-35.79892507127608
 97
        0
 75
     0
 76
     1
 98
        1
 10
-4.849261314031164
 20
0.0
  0
HATCH
  5
E5
330
1F
100
AcDbEntity
  8
중심선
100
AcDbHatch
 10
0.0
 20
0.0
 30
0.0
210
0.0
220
0.0
230
1.0
  2
SOLID
 70
     1
 71
     0
 91
        1
 92
        0
 93
        4
 72
     1
 10
24.50016435432744
 20
-35.7989250712761
 11
21.05388911049038
 21
-35.7989250712761
 72
     1
 10
21.05388911049038
 20
-35.7989250712761
 11
14.0054522086011
 21
-44.19892507127612
 72
     1
 10
14.0054522086011
 20
-44.19892507127612
 11
17.45172745243838
 21
-44.19892507127612
 72
     1
 10
17.45172745243838
 20
-44.19892507127612
 11
24.50016435432744
 21
-35.7989250712761
 97
        0
 75
     0
 76
     1
 98
        1
 10
-4.849261314031164
 20
0.0
  0
HATCH
  5
E6
330
1F
100
AcDbEntity
  8
중심선
100
AcDbHatch
 10
0.0
 20
0.0
 30
0.0
210
0.0
220
0.0
230
1.0
  2
SOLID
 70
     1
 71
     0
 91
        1
 92
        0
 93
        6
 72
     3
 10
29.30005478533966
 20
-39.99892507132738
 11
3.960054785062287
 21
1.540882976769353E-10
 40
0.3939339440162625
 50
17.09539180608438
 51
320.0019657685078
 73
     0
 72
     1
 10
30.98305444104032
 20
-38.58681907591436
 11
33.28835631474125
 21
-36.65249236586649
 72
     3
 10
29.30005478528682
 20
-39.99892507127625
 11
6.600054785286826
 21
-1.278976924368180E-13
 40
0.6363583540795983
 50
39.99873849337443
 51
368.4976242363724
 73
     1
 72
     1
 10
35.72538727718742
 20
-39.03892507120613
 11
27.98012209212274
 21
-39.03892507120613
 72
     1
 10
27.98012209212274
 20
-39.03892507120613
 11
27.98009704767681
 21
-40.95892507120602
 72
     1
 10
27.98009704767681
 20
-40.95892507120602
 11
32.42147681714884
 21
-40.95892507120599
 97
        0
 75
     0
 76
     1
 98
        1
 10
-4.849261314031164
 20
0.0
  0
DIMENSION
  5
E7
330
1F
100
AcDbEntity
  8
치수문자_일반주서
100
AcDbDimension
  2
_D
 10
-53.3
 20
-6.348925071276151
 30
0.0
 11
-53.30000000000003
 21
0.0010749287238923
 31
0.0
 70
   160
  1
%%c<>
 71
     2
 42
12.69999999999999
 52
-270.0
  3
SLDDIMSTYLE0
100
AcDbAlignedDimension
 13
-39.80000000000001
 23
6.351074928723889
 33
0.0
 14
-39.80000000000001
 24
-6.348925071276101
 34
0.0
 50
90.0000000000002
100
AcDbRotatedDimension
1001
ACAD
1000
DSTYLE
1002
{
1070
   171
1070
     6
1070
   273
1070
     7
1002
}
  0
DIMENSION
  5
FC
330
1F
100
AcDbEntity
  8
치수문자_일반주서
100
AcDbDimension
  2
_D_1
 10
10.0
 20
19.52204973625508
 30
0.0
 11
48.10000000000001
 21
19.52204973625508
 31
0.0
 70
   160
  1
<>
 71
     2
 42
76.20000000000002
  3
SLDDIMSTYLE0
100
AcDbAlignedDimension
 13
86.20000000000002
 23
6.351074928723904
 33
0.0
 14
9.999999999999996
 24
4.190311912908151
 34
0.0
100
AcDbRotatedDimension
1001
ACAD
1000
DSTYLE
1002
{
1070
   171
1070
     6
1070
   273
1070
     7
1002
}
  0
DIMENSION
  5
111
330
1F
100
AcDbEntity
  8
치수문자_일반주서
100
AcDbDimension
  2
_D_2
 10
-40.79999999999998
 20
36.55237901373057
 30
0.0
 11
22.7
 21
36.55237901373057
 31
0.0
 70
   160
  1
<>
 71
     2
 42
127.0
  3
SLDDIMSTYLE0
100
AcDbAlignedDimension
 13
86.20000000000002
 23
6.351074928723905
 33
0.0
 14
-40.79999999999998
 24
5.351074928723886
 34
0.0
 50
0.0000000000000064
100
AcDbRotatedDimension
1001
ACAD
1000
DSTYLE
1002
{
1070
   171
1070
     6
1070
   273
1070
     7
1002
}
  0
DIMENSION
  5
125
330
1F
100
AcDbEntity
  8
치수문자_일반주서
100
AcDbDimension
  2
_D_3
 10
100.1257495140644
 20
6.351074928723953
 30
0.0
 11
100.1257495140643
 21
31.25030635601688
 31
0.0
 70
   160
  1
%%c<>
 71
     2
 42
12.7
 52
-270.0
  3
SLDDIMSTYLE0
100
AcDbAlignedDimension
 13
86.20000000000002
 23
-6.348925071276095
 33
0.0
 14
86.20000000000002
 24
6.351074928723904
 34
0.0
 50
90.0000000000002
100
AcDbRotatedDimension
1001
ACAD
1000
DSTYLE
1002
{
1070
   171
1070
     6
1070
   273
1070
     7
1002
}
  0
LINE
  5
138
330
1F
100
AcDbEntity
  8
참조1
100
AcDbLine
 10
77.82153940838579
 20
7.441074928723896
 30
0.0
 11
77.82153940838579
 21
-7.438925071276109
 31
0.0
  0
LINE
  5
139
330
1F
100
AcDbEntity
  8
참조1
100
AcDbLine
 10
90.52153940838579
 20
5.441074928723896
 30
0.0
 11
77.82153940838579
 21
5.441074928723896
 31
0.0
  0
SOLID
  5
13A
330
1F
100
AcDbEntity
  8
참조1
100
AcDbTrace
 10
77.82153940838579
 20
5.441074928723896
 30
0.0
 11
84.17153940838578
 21
4.425074928723896
 31
0.0
 12
84.17153940838578
 22
6.457074928723896
 32
0.0
 13
84.17153940838578
 23
6.457074928723896
 33
0.0
  0
LINE
  5
13B
330
1F
100
AcDbEntity
  8
참조1
100
AcDbLine
 10
90.52153940838579
 20
-5.438925071276109
 30
0.0
 11
77.82153940838579
 21
-5.438925071276109
 31
0.0
  0
SOLID
  5
13C
330
1F
100
AcDbEntity
  8
참조1
100
AcDbTrace
 10
77.82153940838579
 20
-5.438925071276109
 30
0.0
 11
84.17153940838578
 21
-6.454925071276109
 31
0.0
 12
84.17153940838578
 22
-4.422925071276109
 32
0.0
 13
84.17153940838578
 23
-4.422925071276109
 33
0.0
  0
MTEXT
  5
13D
330
1F
100
AcDbEntity
  8
참조1
100
AcDbMText
 10
87.20588954101179
 20
11.01136670591222
 30
0.0
 40
3.5
 41
0.0
 71
     1
 72
     1
  1
A
  7
SLDTEXTSTYLE0
 73
     1
 44
1.0
  0
MTEXT
  5
13E
330
1F
100
AcDbEntity
  8
참조1
100
AcDbMText
 10
87.20588954101179
 20
0.1313667059122192
 30
0.0
 40
3.5
 41
0.0
 71
     1
 72
     1
  1
A
  7
SLDTEXTSTYLE0
 73
     1
 44
1.0
  0
INSERT
  5
145
330
1F
100
AcDbEntity
  8
해칭선
100
AcDbBlockReference
  2
SW_DOWELSYMBOL_0
 10
0.0
 20
0.0
 30
0.0
  0
LINE
  5
1FC
330
1F
100
AcDbEntity
  8
외형선
  6
Continuous
370
    15
100
AcDbLine
 10
-23.76612499999996
 20
4.827074928723881
 30
0.0
 11
-12.59012500000009
 21
4.827074928723881
 31
0.0
  0
LINE
  5
1FD
330
1F
100
AcDbEntity
  8
외형선
  6
Continuous
370
    15
100
AcDbLine
 10
-23.76612499999996
 20
4.827074928723881
 30
0.0
 11
-25.29012499999996
 21
6.351074928723882
 31
0.0
  0
LINE
  5
1FE
330
1F
100
AcDbEntity
  8
외형선
  6
Continuous
370
    15
100
AcDbLine
 10
-12.59012499999997
 20
4.827074928723881
 30
0.0
 11
-11.06612499999997
 21
6.351074928723882
 31
0.0
  0
LINE
  5
1FF
330
1F
100
AcDbEntity
  8
외형선
  6
Continuous
370
    15
100
AcDbLine
 10
-25.29012499999997
 20
6.351074928723892
 30
0.0
 11
-39.8
 21
6.351074928723891
 31
0.0
  0
ENDSEC
  0
SECTION
  2
OBJECTS
  0
DICTIONARY
  5
C
330
0
100
AcDbDictionary
281
     1
  3
ACAD_GROUP
350
D
  3
ACAD_IMAGE_VARS
350
169
  3
ACAD_LAYOUT
350
1A
  3
ACAD_MLINESTYLE
350
17
  3
ACAD_PLOTSETTINGS
350
19
  3
ACAD_PLOTSTYLENAME
350
E
  3
ACAD_SCALELIST
350
47
  3
APPDATA
350
167
  3
DWGPROPS
350
200
  0
DICTIONARY
  5
190
330
2
100
AcDbDictionary
280
     1
281
     1
  3
ACAD_LAYERSTATES
360
191
  0
DICTIONARY
  5
D
102
{ACAD_REACTORS
330
C
102
}
330
C
100
AcDbDictionary
281
     1
  0
RASTERVARIABLES
  5
169
102
{ACAD_REACTORS
330
C
102
}
330
C
100
AcDbRasterVariables
 90
        0
 70
     1
 71
     1
 72
     1
  0
DICTIONARY
  5
1A
102
{ACAD_REACTORS
330
C
102
}
330
C
100
AcDbDictionary
281
     1
  3
Layout1
350
1E
  3
Layout2
350
26
  3
Model
350
22
  0
DICTIONARY
  5
17
102
{ACAD_REACTORS
330
C
102
}
330
C
100
AcDbDictionary
281
     1
  3
Standard
350
18
  0
DICTIONARY
  5
19
102
{ACAD_REACTORS
330
C
102
}
330
C
100
AcDbDictionary
281
     1
  0
ACDBDICTIONARYWDFLT
  5
E
102
{ACAD_REACTORS
330
C
102
}
330
C
100
AcDbDictionary
281
     1
  3
Normal
350
F
100
AcDbDictionaryWithDefault
340
F
  0
DICTIONARY
  5
47
102
{ACAD_REACTORS
330
C
102
}
330
C
100
AcDbDictionary
281
     1
  3
A0
350
48
  3
A1
350
49
  3
A2
350
4A
  3
A3
350
4B
  3
A4
350
4C
  3
A5
350
4D
  3
A6
350
4E
  3
A7
350
4F
  3
A8
350
50
  3
A9
350
51
  3
B0
350
52
  3
B1
350
53
  3
B2
350
54
  3
B3
350
55
  3
B4
350
56
  3
B5
350
57
  3
B6
350
58
  3
B7
350
59
  3
B8
350
5A
  3
B9
350
5B
  3
C0
350
5C
  3
C1
350
5D
  3
C2
350
5E
  3
C3
350
5F
  3
C4
350
60
  3
C5
350
61
  3
C6
350
62
  3
C7
350
63
  3
C8
350
64
  3
C9
350
65
  3
D0
350
66
  3
D1
350
67
  3
D2
350
68
  0
DICTIONARY
  5
167
102
{ACAD_REACTORS
330
C
102
}
330
C
100
AcDbDictionary
281
     1
  0
XRECORD
  5
200
102
{ACAD_REACTORS
330
C
102
}
330
C
100
AcDbXrecord
280
     1
  1
DWGPROPS COOKIE
  2

  3

  4

  6

  7

  8
12016016
  9

300
=
301
=
302
=
303
=
304
=
305
=
306
=
307
=
308
=
309
=
 40
0.0
 41
2458311.093344618
 42
2458318.322805023
  1

 90
        0
  0
DICTIONARY
  5
191
102
{ACAD_REACTORS
330
190
102
}
330
190
100
AcDbDictionary
281
     1
  0
LAYOUT
  5
1E
102
{ACAD_REACTORS
330
1A
102
}
330
1A
100
AcDbPlotSettings
  1

  2
none_device
  4

  6

 40
0.0
 41
0.0
 42
0.0
 43
0.0
 44
0.0
 45
0.0
 46
0.0
 47
0.0
 48
0.0
 49
0.0
140
0.0
141
0.0
142
1.0
143
1.0
 70
   688
 72
     1
 73
     0
 74
     5
  7

 75
    16
147
1.0
148
0.0
149
0.0
100
AcDbLayout
  1
Layout1
 70
     1
 71
     1
 10
0.0
 20
0.0
 11
420.0
 21
297.0
 12
0.0
 22
0.0
 32
0.0
 14
1.000000000000000E+20
 24
1.000000000000000E+20
 34
1.000000000000000E+20
 15
-1.000000000000000E+20
 25
-1.000000000000000E+20
 35
-1.000000000000000E+20
146
0.0
 13
0.0
 23
0.0
 33
0.0
 16
1.0
 26
0.0
 36
0.0
 17
0.0
 27
1.0
 37
0.0
 76
     0
330
1B
  0
LAYOUT
  5
26
102
{ACAD_REACTORS
330
1A
102
}
330
1A
100
AcDbPlotSettings
  1

  2
none_device
  4

  6

 40
0.0
 41
0.0
 42
0.0
 43
0.0
 44
0.0
 45
0.0
 46
0.0
 47
0.0
 48
0.0
 49
0.0
140
0.0
141
0.0
142
1.0
143
1.0
 70
   688
 72
     1
 73
     0
 74
     5
  7

 75
    16
147
1.0
148
0.0
149
0.0
100
AcDbLayout
  1
Layout2
 70
     1
 71
     2
 10
0.0
 20
0.0
 11
0.0
 21
0.0
 12
0.0
 22
0.0
 32
0.0
 14
0.0
 24
0.0
 34
0.0
 15
0.0
 25
0.0
 35
0.0
146
0.0
 13
0.0
 23
0.0
 33
0.0
 16
1.0
 26
0.0
 36
0.0
 17
0.0
 27
1.0
 37
0.0
 76
     0
330
23
  0
LAYOUT
  5
22
102
{ACAD_REACTORS
330
1A
102
}
330
1A
100
AcDbPlotSettings
  1

  2
none_device
  4
ANSI_A_(11.00_x_8.50_Inches)
  6

 40
6.35
 41
19.05
 42
6.35000508
 43
19.05000254
 44
279.4
 45
215.9
 46
63.81813445634067
 47
79.15239857284735
 48
0.0
 49
0.0
140
0.0
141
0.0
142
0.0457015466006894
143
1.0
 70
  1696
 72
     0
 73
     0
 74
     0
  7

 75
     0
147
0.0235690232323232
148
0.0
149
0.0
100
AcDbLayout
  1
Model
 70
     1
 71
     0
 10
0.0
 20
0.0
 11
420.0
 21
297.0
 12
0.0
 22
0.0
 32
0.0
 14
1.000000000000000E+20
 24
1.000000000000000E+20
 34
1.000000000000000E+20
 15
-1.000000000000000E+20
 25
-1.000000000000000E+20
 35
-1.000000000000000E+20
146
0.0
 13
0.0
 23
0.0
 33
0.0
 16
1.0
 26
0.0
 36
0.0
 17
0.0
 27
1.0
 37
0.0
 76
     0
330
1F
331
29
  0
MLINESTYLE
  5
18
102
{ACAD_REACTORS
330
17
102
}
330
17
100
AcDbMlineStyle
  2
Standard
 70
     0
  3

 62
   256
 51
90.0
 52
90.0
 71
     2
 49
0.5
 62
   256
  6
BYLAYER
 49
-0.5
 62
   256
  6
BYLAYER
  0
ACDBPLACEHOLDER
  5
F
102
{ACAD_REACTORS
330
E
102
}
330
E
  0
SCALE
  5
48
102
{ACAD_REACTORS
330
47
102
}
330
47
100
AcDbScale
 70
     0
300
1:1
140
1.0
141
1.0
290
     1
  0
SCALE
  5
49
102
{ACAD_REACTORS
330
47
102
}
330
47
100
AcDbScale
 70
     0
300
1:2
140
1.0
141
2.0
290
     0
  0
SCALE
  5
4A
102
{ACAD_REACTORS
330
47
102
}
330
47
100
AcDbScale
 70
     0
300
1:4
140
1.0
141
4.0
290
     0
  0
SCALE
  5
4B
102
{ACAD_REACTORS
330
47
102
}
330
47
100
AcDbScale
 70
     0
300
1:5
140
1.0
141
5.0
290
     0
  0
SCALE
  5
4C
102
{ACAD_REACTORS
330
47
102
}
330
47
100
AcDbScale
 70
     0
300
1:8
140
1.0
141
8.0
290
     0
  0
SCALE
  5
4D
102
{ACAD_REACTORS
330
47
102
}
330
47
100
AcDbScale
 70
     0
300
1:10
140
1.0
141
10.0
290
     0
  0
SCALE
  5
4E
102
{ACAD_REACTORS
330
47
102
}
330
47
100
AcDbScale
 70
     0
300
1:16
140
1.0
141
16.0
290
     0
  0
SCALE
  5
4F
102
{ACAD_REACTORS
330
47
102
}
330
47
100
AcDbScale
 70
     0
300
1:20
140
1.0
141
20.0
290
     0
  0
SCALE
  5
50
102
{ACAD_REACTORS
330
47
102
}
330
47
100
AcDbScale
 70
     0
300
1:30
140
1.0
141
30.0
290
     0
  0
SCALE
  5
51
102
{ACAD_REACTORS
330
47
102
}
330
47
100
AcDbScale
 70
     0
300
1:40
140
1.0
141
40.0
290
     0
  0
SCALE
  5
52
102
{ACAD_REACTORS
330
47
102
}
330
47
100
AcDbScale
 70
     0
300
1:50
140
1.0
141
50.0
290
     0
  0
SCALE
  5
53
102
{ACAD_REACTORS
330
47
102
}
330
47
100
AcDbScale
 70
     0
300
1:100
140
1.0
141
100.0
290
     0
  0
SCALE
  5
54
102
{ACAD_REACTORS
330
47
102
}
330
47
100
AcDbScale
 70
     0
300
2:1
140
2.0
141
1.0
290
     0
  0
SCALE
  5
55
102
{ACAD_REACTORS
330
47
102
}
330
47
100
AcDbScale
 70
     0
300
4:1
140
4.0
141
1.0
290
     0
  0
SCALE
  5
56
102
{ACAD_REACTORS
330
47
102
}
330
47
100
AcDbScale
 70
     0
300
8:1
140
8.0
141
1.0
290
     0
  0
SCALE
  5
57
102
{ACAD_REACTORS
330
47
102
}
330
47
100
AcDbScale
 70
     0
300
10:1
140
10.0
141
1.0
290
     0
  0
SCALE
  5
58
102
{ACAD_REACTORS
330
47
102
}
330
47
100
AcDbScale
 70
     0
300
100:1
140
100.0
141
1.0
290
     0
  0
SCALE
  5
59
102
{ACAD_REACTORS
330
47
102
}
330
47
100
AcDbScale
 70
     0
300
1/128" = 1'-0"
140
0.0078125
141
12.0
290
     0
  0
SCALE
  5
5A
102
{ACAD_REACTORS
330
47
102
}
330
47
100
AcDbScale
 70
     0
300
1/64" = 1'-0"
140
0.015625
141
12.0
290
     0
  0
SCALE
  5
5B
102
{ACAD_REACTORS
330
47
102
}
330
47
100
AcDbScale
 70
     0
300
1/32" = 1'-0"
140
0.03125
141
12.0
290
     0
  0
SCALE
  5
5C
102
{ACAD_REACTORS
330
47
102
}
330
47
100
AcDbScale
 70
     0
300
1/16" = 1'-0"
140
0.0625
141
12.0
290
     0
  0
SCALE
  5
5D
102
{ACAD_REACTORS
330
47
102
}
330
47
100
AcDbScale
 70
     0
300
3/32" = 1'-0"
140
0.09375
141
12.0
290
     0
  0
SCALE
  5
5E
102
{ACAD_REACTORS
330
47
102
}
330
47
100
AcDbScale
 70
     0
300
1/8" = 1'-0"
140
0.125
141
12.0
290
     0
  0
SCALE
  5
5F
102
{ACAD_REACTORS
330
47
102
}
330
47
100
AcDbScale
 70
     0
300
3/16" = 1'-0"
140
0.1875
141
12.0
290
     0
  0
SCALE
  5
60
102
{ACAD_REACTORS
330
47
102
}
330
47
100
AcDbScale
 70
     0
300
1/4" = 1'-0"
140
0.25
141
12.0
290
     0
  0
SCALE
  5
61
102
{ACAD_REACTORS
330
47
102
}
330
47
100
AcDbScale
 70
     0
300
3/8" = 1'-0"
140
0.375
141
12.0
290
     0
  0
SCALE
  5
62
102
{ACAD_REACTORS
330
47
102
}
330
47
100
AcDbScale
 70
     0
300
1/2" = 1'-0"
140
0.5
141
12.0
290
     0
  0
SCALE
  5
63
102
{ACAD_REACTORS
330
47
102
}
330
47
100
AcDbScale
 70
     0
300
3/4" = 1'-0"
140
0.75
141
12.0
290
     0
  0
SCALE
  5
64
102
{ACAD_REACTORS
330
47
102
}
330
47
100
AcDbScale
 70
     0
300
1" = 1'-0"
140
1.0
141
12.0
290
     0
  0
SCALE
  5
65
102
{ACAD_REACTORS
330
47
102
}
330
47
100
AcDbScale
 70
     0
300
1-1/2" = 1'-0"
140
1.5
141
12.0
290
     0
  0
SCALE
  5
66
102
{ACAD_REACTORS
330
47
102
}
330
47
100
AcDbScale
 70
     0
300
3" = 1'-0"
140
3.0
141
12.0
290
     0
  0
SCALE
  5
67
102
{ACAD_REACTORS
330
47
102
}
330
47
100
AcDbScale
 70
     0
300
6" = 1'-0"
140
6.0
141
12.0
290
     0
  0
SCALE
  5
68
102
{ACAD_REACTORS
330
47
102
}
330
47
100
AcDbScale
 70
     0
300
1'-0" = 1'-0"
140
12.0
141
12.0
290
     0
  0
ENDSEC
  0
EOF
