  0
SECTION
  2
HEADER
  9
$ACADVER
  1
AC1015
  9
$ACADMAINTVER
 70
     6
  9
$DWGCODEPAGE
  3
ANSI_949
  9
$INSBASE
 10
0.0
 20
0.0
 30
0.0
  9
$EXTMIN
 10
1.000000000000000E+20
 20
1.000000000000000E+20
 30
1.000000000000000E+20
  9
$EXTMAX
 10
-1.000000000000000E+20
 20
-1.000000000000000E+20
 30
-1.000000000000000E+20
  9
$LIMMIN
 10
0.0
 20
0.0
  9
$LIMMAX
 10
420.0
 20
297.0
  9
$ORTHOMODE
 70
     1
  9
$REGENMODE
 70
     1
  9
$FILLMODE
 70
     1
  9
$QTEXTMODE
 70
     0
  9
$MIRRTEXT
 70
     1
  9
$LTSCALE
 40
1.0
  9
$ATTMODE
 70
     1
  9
$TEXTSIZE
 40
3.5
  9
$TRACEWID
 40
1.0
  9
$TEXTSTYLE
  7
Standard
  9
$CLAYER
  8
0
  9
$CELTYPE
  6
ByLayer
  9
$CECOLOR
 62
   256
  9
$CELTSCALE
 40
1.0
  9
$DISPSILH
 70
     0
  9
$DIMSCALE
 40
1.0
  9
$DIMASZ
 40
3.302
  9
$DIMEXO
 40
1.0
  9
$DIMDLI
 40
3.75
  9
$DIMRND
 40
0.0
  9
$DIMDLE
 40
0.0
  9
$DIMEXE
 40
1.0
  9
$DIMTP
 40
0.0
  9
$DIMTM
 40
0.0
  9
$DIMTXT
 40
3.5
  9
$DIMCEN
 40
2.5
  9
$DIMTSZ
 40
0.0
  9
$DIMTOL
 70
     0
  9
$DIMLIM
 70
     0
  9
$DIMTIH
 70
     1
  9
$DIMTOH
 70
     1
  9
$DIMSE1
 70
     0
  9
$DIMSE2
 70
     0
  9
$DIMTAD
 70
     1
  9
$DIMZIN
 70
     0
  9
$DIMBLK
  1

  9
$DIMASO
 70
     1
  9
$DIMSHO
 70
     1
  9
$DIMPOST
  1

  9
$DIMAPOST
  1

  9
$DIMALT
 70
     0
  9
$DIMALTD
 70
     3
  9
$DIMALTF
 40
0.0393700787401575
  9
$DIMLFAC
 40
1.0
  9
$DIMTOFL
 70
     1
  9
$DIMTVP
 40
0.0
  9
$DIMTIX
 70
     0
  9
$DIMSOXD
 70
     0
  9
$DIMSAH
 70
     0
  9
$DIMBLK1
  1

  9
$DIMBLK2
  1

  9
$DIMSTYLE
  2
ISO-25
  9
$DIMCLRD
 70
     0
  9
$DIMCLRE
 70
     0
  9
$DIMCLRT
 70
     0
  9
$DIMTFAC
 40
1.0
  9
$DIMGAP
 40
1.524
  9
$DIMJUST
 70
     0
  9
$DIMSD1
 70
     0
  9
$DIMSD2
 70
     0
  9
$DIMTOLJ
 70
     0
  9
$DIMTZIN
 70
     0
  9
$DIMALTZ
 70
     0
  9
$DIMALTTZ
 70
     0
  9
$DIMUPT
 70
     0
  9
$DIMDEC
 70
     2
  9
$DIMTDEC
 70
     2
  9
$DIMALTU
 70
     2
  9
$DIMALTTD
 70
     3
  9
$DIMTXSTY
  7
Standard
  9
$DIMAUNIT
 70
     0
  9
$DIMADEC
 70
     2
  9
$DIMALTRND
 40
0.0
  9
$DIMAZIN
 70
     0
  9
$DIMDSEP
 70
    44
  9
$DIMATFIT
 70
     3
  9
$DIMFRAC
 70
     0
  9
$DIMLDRBLK
  1

  9
$DIMLUNIT
 70
     2
  9
$DIMLWD
 70
    -2
  9
$DIMLWE
 70
    -2
  9
$DIMTMOVE
 70
     0
  9
$LUNITS
 70
     2
  9
$LUPREC
 70
     2
  9
$SKETCHINC
 40
1.0
  9
$FILLETRAD
 40
10.0
  9
$AUNITS
 70
     0
  9
$AUPREC
 70
     2
  9
$MENU
  1
.
  9
$ELEVATION
 40
0.0
  9
$PELEVATION
 40
0.0
  9
$THICKNESS
 40
0.0
  9
$LIMCHECK
 70
     0
  9
$CHAMFERA
 40
0.0
  9
$CHAMFERB
 40
0.0
  9
$CHAMFERC
 40
0.0
  9
$CHAMFERD
 40
0.0
  9
$SKPOLY
 70
     0
  9
$TDCREATE
 40
2458311.467709421
  9
$TDUCREATE
 40
2458311.092709421
  9
$TDUPDATE
 40
2458318.513387917
  9
$TDUUPDATE
 40
2458318.138387917
  9
$TDINDWG
 40
0.0012683449
  9
$TDUSRTIMER
 40
2458318.137120127
  9
$USRTIMER
 70
     1
  9
$ANGBASE
 50
0.0
  9
$ANGDIR
 70
     0
  9
$PDMODE
 70
     0
  9
$PDSIZE
 40
-1.0
  9
$PLINEWID
 40
0.0
  9
$SPLFRAME
 70
     0
  9
$SPLINETYPE
 70
     6
  9
$SPLINESEGS
 70
     8
  9
$HANDSEED
  5
1A2
  9
$SURFTAB1
 70
     6
  9
$SURFTAB2
 70
     6
  9
$SURFTYPE
 70
     6
  9
$SURFU
 70
     6
  9
$SURFV
 70
     6
  9
$UCSBASE
  2

  9
$UCSNAME
  2

  9
$UCSORG
 10
0.0
 20
0.0
 30
0.0
  9
$UCSXDIR
 10
1.0
 20
0.0
 30
0.0
  9
$UCSYDIR
 10
0.0
 20
1.0
 30
0.0
  9
$UCSORTHOREF
  2

  9
$UCSORTHOVIEW
 70
     0
  9
$UCSORGTOP
 10
0.0
 20
0.0
 30
0.0
  9
$UCSORGBOTTOM
 10
0.0
 20
0.0
 30
0.0
  9
$UCSORGLEFT
 10
0.0
 20
0.0
 30
0.0
  9
$UCSORGRIGHT
 10
0.0
 20
0.0
 30
0.0
  9
$UCSORGFRONT
 10
0.0
 20
0.0
 30
0.0
  9
$UCSORGBACK
 10
0.0
 20
0.0
 30
0.0
  9
$PUCSBASE
  2

  9
$PUCSNAME
  2

  9
$PUCSORG
 10
0.0
 20
0.0
 30
0.0
  9
$PUCSXDIR
 10
1.0
 20
0.0
 30
0.0
  9
$PUCSYDIR
 10
0.0
 20
1.0
 30
0.0
  9
$PUCSORTHOREF
  2

  9
$PUCSORTHOVIEW
 70
     0
  9
$PUCSORGTOP
 10
0.0
 20
0.0
 30
0.0
  9
$PUCSORGBOTTOM
 10
0.0
 20
0.0
 30
0.0
  9
$PUCSORGLEFT
 10
0.0
 20
0.0
 30
0.0
  9
$PUCSORGRIGHT
 10
0.0
 20
0.0
 30
0.0
  9
$PUCSORGFRONT
 10
0.0
 20
0.0
 30
0.0
  9
$PUCSORGBACK
 10
0.0
 20
0.0
 30
0.0
  9
$USERI1
 70
     0
  9
$USERI2
 70
     0
  9
$USERI3
 70
     0
  9
$USERI4
 70
     0
  9
$USERI5
 70
     0
  9
$USERR1
 40
0.0
  9
$USERR2
 40
0.0
  9
$USERR3
 40
0.0
  9
$USERR4
 40
0.0
  9
$USERR5
 40
0.0
  9
$WORLDVIEW
 70
     1
  9
$SHADEDGE
 70
     3
  9
$SHADEDIF
 70
    70
  9
$TILEMODE
 70
     1
  9
$MAXACTVP
 70
    64
  9
$PINSBASE
 10
0.0
 20
0.0
 30
0.0
  9
$PLIMCHECK
 70
     0
  9
$PEXTMIN
 10
1.000000000000000E+20
 20
1.000000000000000E+20
 30
1.000000000000000E+20
  9
$PEXTMAX
 10
-1.000000000000000E+20
 20
-1.000000000000000E+20
 30
-1.000000000000000E+20
  9
$PLIMMIN
 10
0.0
 20
0.0
  9
$PLIMMAX
 10
0.0
 20
0.0
  9
$UNITMODE
 70
     0
  9
$VISRETAIN
 70
     1
  9
$PLINEGEN
 70
     0
  9
$PSLTSCALE
 70
     1
  9
$TREEDEPTH
 70
  3020
  9
$CMLSTYLE
  2
Standard
  9
$CMLJUST
 70
     0
  9
$CMLSCALE
 40
20.0
  9
$PROXYGRAPHICS
 70
     1
  9
$MEASUREMENT
 70
     1
  9
$CELWEIGHT
370
    -1
  9
$ENDCAPS
280
     0
  9
$JOINSTYLE
280
     0
  9
$LWDISPLAY
290
     1
  9
$INSUNITS
 70
     4
  9
$HYPERLINKBASE
  1

  9
$STYLESHEET
  1

  9
$XEDIT
290
     1
  9
$CEPSNTYPE
380
     0
  9
$PSTYLEMODE
290
     1
  9
$FINGERPRINTGUID
  2
{DD210439-A8F0-4E5E-884C-B33E81D80837}
  9
$VERSIONGUID
  2
{FAEB1C32-E019-11D5-929B-00C0DF256EC4}
  9
$EXTNAMES
290
     1
  9
$PSVPSCALE
 40
0.0
  9
$OLESTARTUP
290
     0
  0
ENDSEC
  0
SECTION
  2
CLASSES
  0
CLASS
  1
ACDBDICTIONARYWDFLT
  2
AcDbDictionaryWithDefault
  3
ObjectDBX Classes
 90
        0
280
     0
281
     0
  0
CLASS
  1
VISUALSTYLE
  2
AcDbVisualStyle
  3
ObjectDBX Classes
 90
     4095
280
     0
281
     0
  0
CLASS
  1
MATERIAL
  2
AcDbMaterial
  3
ObjectDBX Classes
 90
     1153
280
     0
281
     0
  0
CLASS
  1
SCALE
  2
AcDbScale
  3
ObjectDBX Classes
 90
     1153
280
     0
281
     0
  0
CLASS
  1
SUN
  2
AcDbSun
  3
SCENEOE
 90
     1153
280
     0
281
     0
  0
CLASS
  1
ACDBPLACEHOLDER
  2
AcDbPlaceHolder
  3
ObjectDBX Classes
 90
        0
280
     0
281
     0
  0
CLASS
  1
LAYOUT
  2
AcDbLayout
  3
ObjectDBX Classes
 90
        0
280
     0
281
     0
  0
CLASS
  1
TABLESTYLE
  2
AcDbTableStyle
  3
ObjectDBX Classes
 90
     4095
280
     0
281
     0
  0
CLASS
  1
MLEADERSTYLE
  2
AcDbMLeaderStyle
  3
ACDB_MLEADERSTYLE_CLASS
 90
     4095
280
     0
281
     0
  0
CLASS
  1
RASTERVARIABLES
  2
AcDbRasterVariables
  3
ISM
 90
        0
280
     0
281
     0
  0
ENDSEC
  0
SECTION
  2
TABLES
  0
TABLE
  2
VPORT
  5
8
330
0
100
AcDbSymbolTable
 70
     1
  0
VPORT
  5
29
330
8
100
AcDbSymbolTableRecord
100
AcDbViewportTableRecord
  2
*Active
 70
     0
 10
0.0
 20
0.0
 11
1.0
 21
1.0
 12
33.47543881460161
 22
1.700687468348349
 13
0.0
 23
0.0
 14
10.0
 24
10.0
 15
10.0
 25
10.0
 16
0.0
 26
0.0
 36
1.0
 17
0.0
 27
0.0
 37
0.0
 40
160.8462377513919
 41
1.632093933463796
 42
50.0
 43
0.0
 44
0.0
 50
0.0
 51
0.0
 71
    16
 72
  2000
 73
     1
 74
     3
 75
     0
 76
     0
 77
     0
 78
     0
281
     0
 65
     1
110
0.0
120
0.0
130
0.0
111
1.0
121
0.0
131
0.0
112
0.0
122
1.0
132
0.0
 79
     0
146
0.0
  0
ENDTAB
  0
TABLE
  2
LTYPE
  5
5
330
0
100
AcDbSymbolTable
 70
     6
  0
LTYPE
  5
14
330
5
100
AcDbSymbolTableRecord
100
AcDbLinetypeTableRecord
  2
ByBlock
 70
     0
  3

 72
    65
 73
     0
 40
0.0
  0
LTYPE
  5
15
330
5
100
AcDbSymbolTableRecord
100
AcDbLinetypeTableRecord
  2
ByLayer
 70
     0
  3

 72
    65
 73
     0
 40
0.0
  0
LTYPE
  5
16
330
5
100
AcDbSymbolTableRecord
100
AcDbLinetypeTableRecord
  2
Continuous
 70
     0
  3
Solid line
 72
    65
 73
     0
 40
0.0
  0
LTYPE
  5
6A
330
5
100
AcDbSymbolTableRecord
100
AcDbLinetypeTableRecord
  2
HIDDEN
 70
     0
  3
Hidden __ __ __ __ __ __ __ __ __ __ __ __ __ __
 72
    65
 73
     2
 40
1.905
 49
1.27
 74
     0
 49
-0.635
 74
     0
  0
LTYPE
  5
6B
330
5
100
AcDbSymbolTableRecord
100
AcDbLinetypeTableRecord
  2
PHANTOM
 70
     0
  3
Phantom ______  __  __  ______  __  __  ______
 72
    65
 73
     6
 40
12.7
 49
6.35
 74
     0
 49
-1.27
 74
     0
 49
1.27
 74
     0
 49
-1.27
 74
     0
 49
1.27
 74
     0
 49
-1.27
 74
     0
  0
LTYPE
  5
6C
330
5
100
AcDbSymbolTableRecord
100
AcDbLinetypeTableRecord
  2
CENTER
 70
     0
  3
Center ____ _ ____ _ ____ _ ____ _ ____ _ ____
 72
    65
 73
     4
 40
10.16
 49
6.35
 74
     0
 49
-1.27
 74
     0
 49
1.27
 74
     0
 49
-1.27
 74
     0
  0
LTYPE
  5
6D
330
5
100
AcDbSymbolTableRecord
100
AcDbLinetypeTableRecord
  2
CENTERX2
 70
     0
  3
Center (2x) ________  __  ________  __  _____
 72
    65
 73
     4
 40
20.32
 49
12.7
 74
     0
 49
-2.54
 74
     0
 49
2.54
 74
     0
 49
-2.54
 74
     0
  0
LTYPE
  5
6E
330
5
100
AcDbSymbolTableRecord
100
AcDbLinetypeTableRecord
  2
DOT2
 70
     0
  3
Dot (.5x) ........................................
 72
    65
 73
     2
 40
0.635
 49
0.0
 74
     0
 49
-0.635
 74
     0
  0
ENDTAB
  0
TABLE
  2
LAYER
  5
2
102
{ACAD_XDICTIONARY
360
191
102
}
330
0
100
AcDbSymbolTable
 70
    18
  0
LAYER
  5
10
330
2
100
AcDbSymbolTableRecord
100
AcDbLayerTableRecord
  2
0
 70
     0
 62
     7
  6
Continuous
370
    -3
390
F
  0
LAYER
  5
6F
330
2
100
AcDbSymbolTableRecord
100
AcDbLayerTableRecord
  2
FORMAT
 70
     0
 62
     2
  6
Continuous
370
    -3
390
F
  0
LAYER
  5
70
330
2
100
AcDbSymbolTableRecord
100
AcDbLayerTableRecord
  2
외형선
 70
     0
 62
     4
  6
Continuous
370
    30
390
F
  0
LAYER
  5
71
330
2
100
AcDbSymbolTableRecord
100
AcDbLayerTableRecord
  2
숨은선
 70
     0
 62
     2
  6
HIDDEN
370
    15
390
F
  0
LAYER
  5
72
330
2
100
AcDbSymbolTableRecord
100
AcDbLayerTableRecord
  2
중심선
 70
     0
 62
     1
  6
CENTERX2
370
    -3
390
F
  0
LAYER
  5
73
330
2
100
AcDbSymbolTableRecord
100
AcDbLayerTableRecord
  2
파단선
 70
     0
 62
     4
  6
Continuous
370
    -3
390
F
  0
LAYER
  5
74
330
2
100
AcDbSymbolTableRecord
100
AcDbLayerTableRecord
  2
해칭선
 70
     0
 62
   100
  6
Continuous
370
    -3
390
F
  0
LAYER
  5
75
330
2
100
AcDbSymbolTableRecord
100
AcDbLayerTableRecord
  2
가는실선
 70
     0
 62
     4
  6
Continuous
370
    -3
390
F
  0
LAYER
  5
76
330
2
100
AcDbSymbolTableRecord
100
AcDbLayerTableRecord
  2
치수_보조선
 70
     0
 62
     4
  6
Continuous
370
    -3
390
F
  0
LAYER
  5
77
330
2
100
AcDbSymbolTableRecord
100
AcDbLayerTableRecord
  2
치수문자_일반주서
 70
     0
 62
     7
  6
Continuous
370
    15
390
F
  0
LAYER
  5
78
330
2
100
AcDbSymbolTableRecord
100
AcDbLayerTableRecord
  2
개별주서
 70
     0
 62
   100
  6
Continuous
370
    30
390
F
  0
LAYER
  5
79
330
2
100
AcDbSymbolTableRecord
100
AcDbLayerTableRecord
  2
중간선
 70
     0
 62
     2
  6
Continuous
370
    15
390
F
  0
LAYER
  5
7A
330
2
100
AcDbSymbolTableRecord
100
AcDbLayerTableRecord
  2
윤곽선
 70
     0
 62
     3
  6
Continuous
370
    40
390
F
  0
LAYER
  5
7B
330
2
100
AcDbSymbolTableRecord
100
AcDbLayerTableRecord
  2
중심마크
 70
     0
 62
   100
  6
Continuous
370
    30
390
F
  0
LAYER
  5
7C
330
2
100
AcDbSymbolTableRecord
100
AcDbLayerTableRecord
  2
가상선
 70
     0
 62
     4
  6
PHANTOM
370
    -3
390
F
  0
LAYER
  5
7D
330
2
100
AcDbSymbolTableRecord
100
AcDbLayerTableRecord
  2
특수지정선
 70
     0
 62
     5
  6
CENTERX2
370
    60
390
F
  0
LAYER
  5
7E
330
2
100
AcDbSymbolTableRecord
100
AcDbLayerTableRecord
  2
참조1
 70
     0
 62
    -4
  6
Continuous
370
    -3
390
F
  0
LAYER
  5
198
330
2
100
AcDbSymbolTableRecord
100
AcDbLayerTableRecord
  2
Defpoints
 70
     0
 62
     7
  6
Continuous
290
     0
370
    -3
390
F
  0
ENDTAB
  0
TABLE
  2
STYLE
  5
3
330
0
100
AcDbSymbolTable
 70
     2
  0
STYLE
  5
11
330
3
100
AcDbSymbolTableRecord
100
AcDbTextStyleTableRecord
  2
Standard
 70
     0
 40
0.0
 41
1.0
 50
0.0
 71
     0
 42
3.5
  3
txt
  4

  0
STYLE
  5
94
330
3
100
AcDbSymbolTableRecord
100
AcDbTextStyleTableRecord
  2
SLDTEXTSTYLE0
 70
     0
 40
0.0
 41
0.75
 50
0.0
 71
     0
 42
3.5
  3
TXT
  4

  0
ENDTAB
  0
TABLE
  2
VIEW
  5
6
330
0
100
AcDbSymbolTable
 70
     0
  0
ENDTAB
  0
TABLE
  2
UCS
  5
7
330
0
100
AcDbSymbolTable
 70
     0
  0
ENDTAB
  0
TABLE
  2
APPID
  5
9
330
0
100
AcDbSymbolTable
 70
     1
  0
APPID
  5
12
330
9
100
AcDbSymbolTableRecord
100
AcDbRegAppTableRecord
  2
ACAD
 70
     0
  0
ENDTAB
  0
TABLE
  2
DIMSTYLE
  5
A
330
0
100
AcDbSymbolTable
 70
     4
100
AcDbDimStyleTable
  0
DIMSTYLE
105
27
330
A
100
AcDbSymbolTableRecord
100
AcDbDimStyleTableRecord
  2
ISO-25
 70
     0
 41
2.5
 42
0.625
 43
3.75
 44
1.25
 73
     0
 74
     0
 77
     1
 78
     8
140
2.5
141
2.5
143
0.03937007874016
147
0.625
171
     3
172
     1
178
     0
271
     2
272
     2
274
     3
278
    44
283
     0
284
     8
340
11
  0
DIMSTYLE
105
E9
102
{ACAD_REACTORS
330
E8
330
FD
330
112
330
126
102
}
330
A
100
AcDbSymbolTableRecord
100
AcDbDimStyleTableRecord
  2
SLDDIMSTYLE0
 70
     0
 41
3.302
 44
0.0
 45
0.000000001
 73
     0
 74
     0
 77
     1
 78
    12
 79
     3
140
3.5
143
0.0393700787401575
147
0.875
148
0.000000001
170
     1
172
     1
173
     1
178
     0
271
     2
272
     2
276
     2
284
    12
289
     0
340
94
  0
DIMSTYLE
105
FE
330
A
100
AcDbSymbolTableRecord
100
AcDbDimStyleTableRecord
  2
SLDDIMSTYLE1
 70
     0
 41
3.302
 44
0.0
 45
0.000000001
 73
     0
 74
     0
 77
     1
 78
     4
 79
     1
140
3.5
143
0.0393700787401575
147
0.875
148
0.000000001
170
     1
173
     1
178
     0
271
     2
272
     2
276
     2
284
    12
340
94
  0
DIMSTYLE
105
113
330
A
100
AcDbSymbolTableRecord
100
AcDbDimStyleTableRecord
  2
SLDDIMSTYLE2
 70
     0
 41
3.302
 44
0.0
 45
0.000000001
 73
     0
 74
     0
 77
     1
 78
    12
 79
     3
140
3.5
143
0.0393700787401575
147
0.875
148
0.000000001
170
     1
173
     1
178
     0
271
     2
272
     2
276
     2
284
    12
340
94
  0
ENDTAB
  0
TABLE
  2
BLOCK_RECORD
  5
1
330
0
100
AcDbSymbolTable
 70
     8
  0
BLOCK_RECORD
  5
1F
330
1
100
AcDbSymbolTableRecord
100
AcDbBlockTableRecord
  2
*Model_Space
340
22
  0
BLOCK_RECORD
  5
1B
330
1
100
AcDbSymbolTableRecord
100
AcDbBlockTableRecord
  2
*Paper_Space
340
1E
  0
BLOCK_RECORD
  5
23
330
1
100
AcDbSymbolTableRecord
100
AcDbBlockTableRecord
  2
*Paper_Space0
340
26
  0
BLOCK_RECORD
  5
7F
330
1
100
AcDbSymbolTableRecord
100
AcDbBlockTableRecord
  2
블럭10
340
0
102
{BLKREFS
331
E1
102
}
  0
BLOCK_RECORD
  5
EA
330
1
100
AcDbSymbolTableRecord
100
AcDbBlockTableRecord
  2
_D
340
0
  0
BLOCK_RECORD
  5
FF
330
1
100
AcDbSymbolTableRecord
100
AcDbBlockTableRecord
  2
_D_1
340
0
  0
BLOCK_RECORD
  5
114
330
1
100
AcDbSymbolTableRecord
100
AcDbBlockTableRecord
  2
_D_2
340
0
  0
BLOCK_RECORD
  5
127
330
1
100
AcDbSymbolTableRecord
100
AcDbBlockTableRecord
  2
_D_3
340
0
  0
BLOCK_RECORD
  5
140
330
1
100
AcDbSymbolTableRecord
100
AcDbBlockTableRecord
  2
SW_DOWELSYMBOL_0
340
0
102
{BLKREFS
331
146
102
}
  0
ENDTAB
  0
ENDSEC
  0
SECTION
  2
BLOCKS
  0
BLOCK
  5
20
330
1F
100
AcDbEntity
  8
0
100
AcDbBlockBegin
  2
*Model_Space
 70
     0
 10
0.0
 20
0.0
 30
0.0
  3
*Model_Space
  1
*Model_Space
  0
ENDBLK
  5
21
330
1F
100
AcDbEntity
  8
0
100
AcDbBlockEnd
  0
BLOCK
  5
1C
330
1B
100
AcDbEntity
 67
     1
  8
0
100
AcDbBlockBegin
  2
*Paper_Space
 70
     0
 10
0.0
 20
0.0
 30
0.0
  3
*Paper_Space
  1
*Paper_Space
  0
ENDBLK
  5
1D
330
1B
100
AcDbEntity
 67
     1
  8
0
100
AcDbBlockEnd
  0
BLOCK
  5
24
330
23
100
AcDbEntity
  8
0
100
AcDbBlockBegin
  2
*Paper_Space0
 70
     0
 10
0.0
 20
0.0
 30
0.0
  3
*Paper_Space0
  1
*Paper_Space0
  0
ENDBLK
  5
25
330
23
100
AcDbEntity
  8
0
100
AcDbBlockEnd
  0
BLOCK
  5
80
330
7F
100
AcDbEntity
  8
0
100
AcDbBlockBegin
  2
블럭10
 70
     2
 10
0.0
 20
0.0
 30
0.0
  3
블럭10
  1
블럭10
  0
ELLIPSE
  5
82
330
7F
100
AcDbEntity
  8
중심선
100
AcDbEllipse
 10
20.54032771741204
 20
12.0471743016438
 30
0.0
 11
6.600054785286829
 21
-1.261213355974178E-13
 31
0.0
210
0.0
220
0.0
230
1.0
 40
0.636358354079598
 41
0.9219305317359503
 42
6.513795318482858
  0
ELLIPSE
  5
83
330
7F
100
AcDbEntity
  8
중심선
100
AcDbEllipse
 10
20.54032771746488
 20
12.04717430159265
 30
0.0
 11
3.960054785062283
 21
1.540847449632565E-10
 31
0.0
210
0.0
220
0.0
230
1.0
 40
0.3939339440162632
 41
1.131841032648279
 42
5.62031148352944
  0
LINE
  5
84
330
7F
100
AcDbEntity
  8
중심선
100
AcDbLine
 10
2.268634060543552
 20
16.24717430164393
 30
0.0
 11
5.714909304380834
 21
16.24717430164393
 31
0.0
  0
LINE
  5
85
330
7F
100
AcDbEntity
  8
중심선
100
AcDbLine
 10
5.245725140726316
 20
7.84717430164391
 30
0.0
 11
8.692000384563599
 21
7.84717430164391
 31
0.0
  0
LINE
  5
86
330
7F
100
AcDbEntity
  8
중심선
100
AcDbLine
 10
15.74043728645272
 20
16.24717430164393
 30
0.0
 11
8.692000384563599
 21
7.84717430164391
 31
0.0
  0
LINE
  5
87
330
7F
100
AcDbEntity
  8
중심선
100
AcDbLine
 10
0.1404042013395286
 20
13.71084872107135
 30
0.0
 11
3.58671253028996
 21
13.71088815037384
 31
0.0
  0
LINE
  5
88
330
7F
100
AcDbEntity
  8
중심선
100
AcDbLine
 10
2.750260043222114
 20
10.84717430164391
 30
0.0
 11
6.196535287059397
 21
10.84717430164391
 31
0.0
  0
LINE
  5
89
330
7F
100
AcDbEntity
  8
중심선
100
AcDbLine
 10
12.29416204261559
 20
16.24717430164393
 30
0.0
 11
5.245725140726316
 21
7.84717430164391
 31
0.0
  0
LINE
  5
8A
330
7F
100
AcDbEntity
  8
중심선
100
AcDbLine
 10
10.72767329541681
 20
16.24717430164393
 30
0.0
 11
6.196535287059397
 21
10.84717430164391
 31
0.0
  0
LINE
  5
8B
330
7F
100
AcDbEntity
  8
중심선
100
AcDbLine
 10
7.28139805157953
 20
16.24717430164393
 30
0.0
 11
2.750260043222114
 21
10.84717430164391
 31
0.0
  0
LINE
  5
8C
330
7F
100
AcDbEntity
  8
중심선
100
AcDbLine
 10
5.714909304380834
 20
16.24717430164393
 30
0.0
 11
3.58671253028996
 21
13.71088815037384
 31
0.0
  0
LINE
  5
8D
330
7F
100
AcDbEntity
  8
중심선
100
AcDbLine
 10
2.268634060543552
 20
16.24717430164393
 30
0.0
 11
0.1404042013395286
 21
13.71084872107135
 31
0.0
  0
LINE
  5
8E
330
7F
100
AcDbEntity
  8
중심선
100
AcDbLine
 10
7.28139805157953
 20
16.24717430164393
 30
0.0
 11
10.72767329541681
 21
16.24717430164393
 31
0.0
  0
LINE
  5
8F
330
7F
100
AcDbEntity
  8
중심선
100
AcDbLine
 10
12.29416204261559
 20
16.24717430164393
 30
0.0
 11
15.74043728645272
 21
16.24717430164393
 31
0.0
  0
LINE
  5
90
330
7F
100
AcDbEntity
  8
중심선
100
AcDbLine
 10
19.22036997980202
 20
11.08717430171403
 30
0.0
 11
23.66174974927406
 21
11.08717430171406
 31
0.0
  0
LINE
  5
91
330
7F
100
AcDbEntity
  8
중심선
100
AcDbLine
 10
19.22039502424796
 20
13.00717430171391
 30
0.0
 11
19.22036997980202
 21
11.08717430171403
 31
0.0
  0
LINE
  5
92
330
7F
100
AcDbEntity
  8
중심선
100
AcDbLine
 10
19.22039502424796
 20
13.00717430171391
 30
0.0
 11
26.96566020931264
 21
13.00717430171391
 31
0.0
  0
LINE
  5
93
330
7F
100
AcDbEntity
  8
중심선
100
AcDbLine
 10
22.22332737316547
 20
13.45928029700563
 30
0.0
 11
24.52862924686651
 21
15.39360700705356
 31
0.0
  0
ATTDEF
  5
95
330
7F
100
AcDbEntity
  8
FORMAT
 62
     2
100
AcDbText
 10
4.408487351596664
 20
2.075366912832191
 30
0.0
 40
4.233333333333333
  1
E1072024
 41
0.75
  7
SLDTEXTSTYLE0
 11
4.408487351596664
 21
-0.0412997538344756
 31
0.0
100
AcDbAttributeDefinition
  3

  2
AUTOATTR0
 70
     0
 74
     1
  0
ENDBLK
  5
81
330
7F
100
AcDbEntity
  8
0
100
AcDbBlockEnd
  0
BLOCK
  5
EB
330
EA
100
AcDbEntity
  8
0
100
AcDbBlockBegin
  2
_D
 70
     0
 10
0.0
 20
0.0
 30
0.0
  3
_D
  1
_D
  0
LINE
  5
ED
330
EA
100
AcDbEntity
  8
치수문자_일반주서
 62
     0
370
    -2
100
AcDbLine
 10
-33.51249999999999
 20
4.762500000000004
 30
0.0
 11
-46.95000000000002
 21
4.762499999999953
 31
0.0
  0
LINE
  5
EE
330
EA
100
AcDbEntity
  8
치수문자_일반주서
 62
     0
370
    -2
100
AcDbLine
 10
-33.51249999999999
 20
-4.762500000000002
 30
0.0
 11
-46.94999999999998
 21
-4.762500000000053
 31
0.0
  0
LINE
  5
EF
330
EA
100
AcDbEntity
  8
치수문자_일반주서
 62
     0
370
    -2
100
AcDbLine
 10
-46.95
 20
1.460499999999954
 30
0.0
 11
-46.95
 21
-1.460500000000053
 31
0.0
  0
SOLID
  5
F0
330
EA
100
AcDbEntity
  8
치수문자_일반주서
 62
     0
100
AcDbTrace
 10
-46.39966666666667
 20
1.460499999999956
 30
0.0
 11
-47.50033333333334
 21
1.460499999999952
 31
0.0
 12
-46.95000000000002
 22
4.762499999999953
 32
0.0
 13
-46.95000000000002
 23
4.762499999999953
 33
0.0
  0
SOLID
  5
F1
330
EA
100
AcDbEntity
  8
치수문자_일반주서
 62
     0
100
AcDbTrace
 10
-47.50033333333333
 20
-1.460500000000055
 30
0.0
 11
-46.39966666666666
 21
-1.460500000000051
 31
0.0
 12
-46.94999999999998
 22
-4.762500000000053
 32
0.0
 13
-46.94999999999998
 23
-4.762500000000053
 33
0.0
  0
MTEXT
  5
F2
330
EA
100
AcDbEntity
  8
치수문자_일반주서
 62
     0
100
AcDbMText
 10
-51.325
 20
-0.0000000000000106
 30
0.0
 40
3.5
 41
0.0
 71
     2
 72
     1
  1
\A1;%%c9.53 [3/8]
  7
SLDTEXTSTYLE0
 11
-3.729883127349605E-15
 21
1.0
 31
0.0
 73
     1
 44
1.0
  0
POINT
  5
F3
330
EA
100
AcDbEntity
  8
Defpoints
 62
     0
100
AcDbPoint
 10
-33.44999999999999
 20
4.762500000000004
 30
0.0
  0
POINT
  5
F4
330
EA
100
AcDbEntity
  8
Defpoints
 62
     0
100
AcDbPoint
 10
-33.44999999999999
 20
-4.762500000000002
 30
0.0
  0
POINT
  5
F5
330
EA
100
AcDbEntity
  8
Defpoints
 62
     0
100
AcDbPoint
 10
-46.94999999999998
 20
-4.762500000000053
 30
0.0
  0
ENDBLK
  5
EC
330
EA
100
AcDbEntity
  8
0
100
AcDbBlockEnd
  0
BLOCK
  5
100
330
FF
100
AcDbEntity
  8
0
100
AcDbBlockBegin
  2
_D_1
 70
     0
 10
0.0
 20
0.0
 30
0.0
  3
_D_1
  1
_D_1
  0
LINE
  5
102
330
FF
100
AcDbEntity
  8
치수문자_일반주서
 62
     0
370
    -2
100
AcDbLine
 10
73.5
 20
4.825000000000015
 30
0.0
 11
73.5
 21
17.93481653835412
 31
0.0
  0
LINE
  5
103
330
FF
100
AcDbEntity
  8
치수문자_일반주서
 62
     0
370
    -2
100
AcDbLine
 10
10.00000000000001
 20
3.826292944957248
 30
0.0
 11
10.00000000000001
 21
17.93481653835412
 31
0.0
  0
LINE
  5
104
330
FF
100
AcDbEntity
  8
치수문자_일반주서
 62
     0
370
    -2
100
AcDbLine
 10
70.19800000000001
 20
17.93481653835412
 30
0.0
 11
13.30200000000001
 21
17.93481653835412
 31
0.0
  0
SOLID
  5
105
330
FF
100
AcDbEntity
  8
치수문자_일반주서
 62
     0
100
AcDbTrace
 10
70.19800000000001
 20
17.38448320502079
 30
0.0
 11
70.19800000000001
 21
18.48514987168745
 31
0.0
 12
73.5
 22
17.93481653835412
 32
0.0
 13
73.5
 23
17.93481653835412
 33
0.0
  0
SOLID
  5
106
330
FF
100
AcDbEntity
  8
치수문자_일반주서
 62
     0
100
AcDbTrace
 10
13.30200000000001
 20
18.48514987168745
 30
0.0
 11
13.30200000000001
 21
17.38448320502079
 31
0.0
 12
10.00000000000001
 22
17.93481653835412
 32
0.0
 13
10.00000000000001
 23
17.93481653835412
 33
0.0
  0
MTEXT
  5
107
330
FF
100
AcDbEntity
  8
치수문자_일반주서
 62
     0
100
AcDbMText
 10
41.75
 20
22.30981653835412
 30
0.0
 40
3.5
 41
0.0
 71
     2
 72
     1
  1
\A1;63.5 [2 1/2]
  7
SLDTEXTSTYLE0
 73
     1
 44
1.0
  0
POINT
  5
108
330
FF
100
AcDbEntity
  8
Defpoints
 62
     0
100
AcDbPoint
 10
73.5
 20
4.762500000000015
 30
0.0
  0
POINT
  5
109
330
FF
100
AcDbEntity
  8
Defpoints
 62
     0
100
AcDbPoint
 10
10.00000000000001
 20
3.763792944957248
 30
0.0
  0
POINT
  5
10A
330
FF
100
AcDbEntity
  8
Defpoints
 62
     0
100
AcDbPoint
 10
10.00000000000001
 20
17.93481653835412
 30
0.0
  0
ENDBLK
  5
101
330
FF
100
AcDbEntity
  8
0
100
AcDbBlockEnd
  0
BLOCK
  5
115
330
114
100
AcDbEntity
  8
0
100
AcDbBlockBegin
  2
_D_2
 70
     0
 10
0.0
 20
0.0
 30
0.0
  3
_D_2
  1
_D_2
  0
LINE
  5
117
330
114
100
AcDbEntity
  8
치수문자_일반주서
 62
     0
370
    -2
100
AcDbLine
 10
73.5
 20
4.825000000000009
 30
0.0
 11
73.5
 21
35.04486045510104
 31
0.0
  0
LINE
  5
118
330
114
100
AcDbEntity
  8
치수문자_일반주서
 62
     0
370
    -2
100
AcDbLine
 10
-34.45
 20
3.824999999999997
 30
0.0
 11
-34.44999999999999
 21
35.04486045510104
 31
0.0
  0
LINE
  5
119
330
114
100
AcDbEntity
  8
치수문자_일반주서
 62
     0
370
    -2
100
AcDbLine
 10
70.19800000000001
 20
35.04486045510104
 30
0.0
 11
-31.14799999999999
 21
35.04486045510104
 31
0.0
  0
SOLID
  5
11A
330
114
100
AcDbEntity
  8
치수문자_일반주서
 62
     0
100
AcDbTrace
 10
70.19800000000001
 20
34.4945271217677
 30
0.0
 11
70.19800000000001
 21
35.59519378843437
 31
0.0
 12
73.5
 22
35.04486045510104
 32
0.0
 13
73.5
 23
35.04486045510104
 33
0.0
  0
SOLID
  5
11B
330
114
100
AcDbEntity
  8
치수문자_일반주서
 62
     0
100
AcDbTrace
 10
-31.14799999999999
 20
35.59519378843437
 30
0.0
 11
-31.14799999999999
 21
34.4945271217677
 31
0.0
 12
-34.44999999999999
 22
35.04486045510104
 32
0.0
 13
-34.44999999999999
 23
35.04486045510104
 33
0.0
  0
MTEXT
  5
11C
330
114
100
AcDbEntity
  8
치수문자_일반주서
 62
     0
100
AcDbMText
 10
19.525
 20
39.41986045510104
 30
0.0
 40
3.5
 41
0.0
 71
     2
 72
     1
  1
\A1;107.95 [4 1/4]
  7
SLDTEXTSTYLE0
 73
     1
 44
1.0
  0
POINT
  5
11D
330
114
100
AcDbEntity
  8
Defpoints
 62
     0
100
AcDbPoint
 10
73.5
 20
4.762500000000009
 30
0.0
  0
POINT
  5
11E
330
114
100
AcDbEntity
  8
Defpoints
 62
     0
100
AcDbPoint
 10
-34.45
 20
3.762499999999997
 30
0.0
  0
POINT
  5
11F
330
114
100
AcDbEntity
  8
Defpoints
 62
     0
100
AcDbPoint
 10
-34.45
 20
35.04486045510104
 30
0.0
  0
ENDBLK
  5
116
330
114
100
AcDbEntity
  8
0
100
AcDbBlockEnd
  0
BLOCK
  5
128
330
127
100
AcDbEntity
  8
0
100
AcDbBlockBegin
  2
_D_3
 70
     0
 10
0.0
 20
0.0
 30
0.0
  3
_D_3
  1
_D_3
  0
LINE
  5
12A
330
127
100
AcDbEntity
  8
치수문자_일반주서
 62
     0
370
    -2
100
AcDbLine
 10
73.5625
 20
-4.76249999999999
 30
0.0
 11
85.19618073548484
 21
-4.762499999999946
 31
0.0
  0
LINE
  5
12B
330
127
100
AcDbEntity
  8
치수문자_일반주서
 62
     0
370
    -2
100
AcDbLine
 10
73.5625
 20
4.762500000000015
 30
0.0
 11
85.19618073548482
 21
4.762500000000056
 31
0.0
  0
LINE
  5
12C
330
127
100
AcDbEntity
  8
치수문자_일반주서
 62
     0
370
    -2
100
AcDbLine
 10
85.19618073548482
 20
4.762500000000056
 30
0.0
 11
85.19618073548472
 21
37.83122480753123
 31
0.0
  0
LINE
  5
12D
330
127
100
AcDbEntity
  8
치수문자_일반주서
 62
     0
370
    -2
100
AcDbLine
 10
85.19618073548484
 20
-4.762499999999946
 30
0.0
 11
85.19618073548482
 21
4.762500000000056
 31
0.0
  0
LINE
  5
12E
330
127
100
AcDbEntity
  8
치수문자_일반주서
 62
     0
370
    -2
100
AcDbLine
 10
85.19618073548486
 20
-8.064499999999946
 30
0.0
 11
85.19618073548487
 21
-11.36649999999995
 31
0.0
  0
LINE
  5
12F
330
127
100
AcDbEntity
  8
치수문자_일반주서
 62
     0
370
    -2
100
AcDbLine
 10
85.1961807354848
 20
8.064500000000056
 30
0.0
 11
85.19618073548479
 21
11.36650000000006
 31
0.0
  0
SOLID
  5
130
330
127
100
AcDbEntity
  8
치수문자_일반주서
 62
     0
100
AcDbTrace
 10
85.74651406881819
 20
-8.064499999999944
 30
0.0
 11
84.64584740215153
 21
-8.064499999999947
 31
0.0
 12
85.19618073548484
 22
-4.762499999999946
 32
0.0
 13
85.19618073548484
 23
-4.762499999999946
 33
0.0
  0
SOLID
  5
131
330
127
100
AcDbEntity
  8
치수문자_일반주서
 62
     0
100
AcDbTrace
 10
84.64584740215147
 20
8.064500000000054
 30
0.0
 11
85.74651406881813
 21
8.064500000000058
 31
0.0
 12
85.19618073548482
 22
4.762500000000056
 32
0.0
 13
85.19618073548482
 23
4.762500000000056
 33
0.0
  0
MTEXT
  5
132
330
127
100
AcDbEntity
  8
치수문자_일반주서
 62
     0
100
AcDbMText
 10
80.82118073548476
 20
24.70622480753121
 30
0.0
 40
3.5
 41
0.0
 71
     2
 72
     1
  1
\A1;%%c9.53 [3/8]
  7
SLDTEXTSTYLE0
 11
-2.983906501879685E-15
 21
1.0
 31
0.0
 73
     1
 44
1.0
  0
POINT
  5
133
330
127
100
AcDbEntity
  8
Defpoints
 62
     0
100
AcDbPoint
 10
73.5
 20
-4.76249999999999
 30
0.0
  0
POINT
  5
19B
330
127
100
AcDbEntity
  8
Defpoints
 62
     0
100
AcDbPoint
 10
73.5
 20
4.762500000000015
 30
0.0
  0
POINT
  5
19C
330
127
100
AcDbEntity
  8
Defpoints
 62
     0
100
AcDbPoint
 10
85.19618073548482
 20
4.762500000000059
 30
0.0
  0
ENDBLK
  5
129
330
127
100
AcDbEntity
  8
0
100
AcDbBlockEnd
  0
BLOCK
  5
141
330
140
100
AcDbEntity
  8
0
100
AcDbBlockBegin
  2
SW_DOWELSYMBOL_0
 70
     0
 10
0.0
 20
0.0
 30
0.0
  3
SW_DOWELSYMBOL_0
  1
SW_DOWELSYMBOL_0
  0
CIRCLE
  5
143
330
140
100
AcDbEntity
  8
해칭선
 62
     0
100
AcDbCircle
 10
0.0
 20
0.0
 30
0.0
 40
2.999999999999996
  0
HATCH
  5
144
330
140
100
AcDbEntity
  8
0
  6
Continuous
 62
     0
370
     0
100
AcDbHatch
 10
0.0
 20
0.0
 30
0.0
210
0.0
220
0.0
230
1.0
  2
SOLID
 70
     1
 71
     0
 91
        1
 92
        0
 93
        3
 72
     2
 10
0.0
 20
0.0
 40
2.999999999999996
 50
0.0
 51
90.0
 73
     1
 72
     1
 10
0.0
 20
2.999999999999996
 11
0.0
 21
0.0
 72
     1
 10
0.0
 20
0.0
 11
2.999999999999996
 21
0.0
 97
        0
 75
     0
 76
     1
 98
        1
 10
0.0
 20
0.0
  0
HATCH
  5
145
330
140
100
AcDbEntity
  8
0
  6
Continuous
 62
     0
370
     0
100
AcDbHatch
 10
0.0
 20
0.0
 30
0.0
210
0.0
220
0.0
230
1.0
  2
SOLID
 70
     1
 71
     0
 91
        1
 92
        0
 93
        3
 72
     2
 10
0.0
 20
0.0
 40
2.999999999999996
 50
180.0
 51
270.0000000000008
 73
     1
 72
     1
 10
0.0
 20
-2.999999999999996
 11
0.0
 21
0.0
 72
     1
 10
0.0
 20
0.0
 11
-2.999999999999996
 21
0.0
 97
        0
 75
     0
 76
     1
 98
        1
 10
0.0
 20
0.0
  0
ENDBLK
  5
142
330
140
100
AcDbEntity
  8
0
100
AcDbBlockEnd
  0
ENDSEC
  0
SECTION
  2
ENTITIES
  0
LINE
  5
96
330
1F
100
AcDbEntity
  8
외형선
  6
Continuous
370
    15
100
AcDbLine
 10
8.480090177483266
 20
4.7625
 30
0.0
 11
-33.45
 21
4.762499999999998
 31
0.0
  0
LINE
  5
97
330
1F
100
AcDbEntity
  8
외형선
  6
Continuous
370
    15
100
AcDbLine
 10
-33.45
 20
-4.762500000000001
 30
0.0
 11
8.480090177483266
 21
-4.762499999999998
 31
0.0
  0
LINE
  5
98
330
1F
100
AcDbEntity
  8
외형선
  6
Continuous
370
    15
100
AcDbLine
 10
-33.45
 20
4.762499999999995
 30
0.0
 11
-34.45
 21
3.762499999999996
 31
0.0
  0
LINE
  5
99
330
1F
100
AcDbEntity
  8
외형선
  6
Continuous
370
    15
100
AcDbLine
 10
-34.45
 20
-3.762500000000001
 30
0.0
 11
-33.45
 21
-4.762499999999998
 31
0.0
  0
SPLINE
  5
9A
330
1F
100
AcDbEntity
  8
외형선
  6
Continuous
370
    15
100
AcDbSpline
210
0.0
220
0.0
230
1.0
 70
     8
 71
     3
 72
     9
 73
     5
 74
     0
 42
0.000000001
 43
0.00000001
 40
0.0
 40
0.0
 40
0.0
 40
0.0
 40
0.5360065291803554
 40
0.9999999999999999
 40
0.9999999999999999
 40
0.9999999999999999
 40
0.9999999999999999
 10
9.331539469867456
 20
1.220381824815224
 30
0.0
 10
9.179260456221002
 20
1.292511179946812
 30
0.0
 10
8.895161279520085
 20
1.427079233141772
 30
0.0
 10
8.611705946468025
 20
1.570806781092693
 30
0.0
 10
8.480184522662858
 20
1.637495424918838
 30
0.0
  0
LINE
  5
9B
330
1F
100
AcDbEntity
  8
0
  6
Continuous
 62
     1
370
    15
100
AcDbLine
 10
59.88581905210897
 20
1.857759434709238
 30
0.0
 11
59.84098294768989
 21
1.881123087868596
 31
0.0
  0
SPLINE
  5
9C
330
1F
100
AcDbEntity
  8
0
  6
Continuous
 62
     1
370
    15
100
AcDbSpline
210
0.0
220
0.0
230
1.0
 70
     8
 71
     3
 72
    11
 73
     7
 74
     0
 42
0.000000001
 43
0.00000001
 40
0.0
 40
0.0
 40
0.0
 40
0.0
 40
0.3233857579650941
 40
0.5167233179321622
 40
0.7108510788408263
 40
1.0
 40
1.0
 40
1.0
 40
1.0
 10
61.16088103408474
 20
1.220370268942965
 30
0.0
 10
61.02333295533626
 20
1.285470267144346
 30
0.0
 10
60.80355116879949
 20
1.389490577994356
 30
0.0
 10
60.50185190735016
 20
1.539718486293968
 30
0.0
 10
60.21441088412851
 20
1.685354027164295
 30
0.0
 10
60.00882374451329
 20
1.79322139067579
 30
0.0
 10
59.88581905210897
 20
1.857759434709238
 30
0.0
  0
SPLINE
  5
9D
330
1F
100
AcDbEntity
  8
0
  6
Continuous
 62
     1
370
    15
100
AcDbSpline
210
0.0
220
0.0
230
1.0
 70
     8
 71
     3
 72
    11
 73
     7
 74
     0
 42
0.000000001
 43
0.00000001
 40
0.0
 40
0.0
 40
0.0
 40
0.0
 40
0.3122751447835702
 40
0.4991538368740414
 40
0.686703435044234
 40
1.0
 40
1.0
 40
1.0
 40
1.0
 10
35.24612986964934
 20
1.220413606146274
 30
0.0
 10
35.10866906167471
 20
1.285474372060195
 30
0.0
 10
34.88894587567508
 20
1.389470259912254
 30
0.0
 10
34.58727369486635
 20
1.539666759456313
 30
0.0
 10
34.28486749941312
 20
1.692950158959118
 30
0.0
 10
34.06436589876527
 20
1.808674974692184
 30
0.0
 10
33.92643453553179
 20
1.881064841918122
 30
0.0
  0
LINE
  5
9E
330
1F
100
AcDbEntity
  8
0
  6
Continuous
 62
     1
370
    15
100
AcDbLine
 10
58.56734230584988
 20
1.319562568685566
 30
0.0
 11
58.47714745044881
 21
1.369108348922675
 31
0.0
  0
LINE
  5
9F
330
1F
100
AcDbEntity
  8
0
  6
Continuous
 62
     1
370
    15
100
AcDbLine
 10
32.66100799883082
 20
1.315012628526842
 30
0.0
 11
32.5625555634341
 21
1.369071500025843
 31
0.0
  0
LINE
  5
A0
330
1F
100
AcDbEntity
  8
0
  6
Continuous
 62
     1
370
    15
100
AcDbLine
 10
22.01049730260597
 20
-4.762500000000006
 30
0.0
 11
24.31932486611887
 21
-4.762500000000006
 31
0.0
  0
LINE
  5
A1
330
1F
100
AcDbEntity
  8
0
  6
Continuous
 62
     1
370
    15
100
AcDbLine
 10
50.23135526652313
 20
4.762500000000007
 30
0.0
 11
47.92475866152815
 21
4.762500000000007
 31
0.0
  0
LINE
  5
A2
330
1F
100
AcDbEntity
  8
0
  6
Continuous
 62
     1
370
    15
100
AcDbLine
 10
47.92475866152814
 20
-4.762500000000006
 30
0.0
 11
50.23135526652307
 21
-4.762500000000006
 31
0.0
  0
LINE
  5
A3
330
1F
100
AcDbEntity
  8
0
  6
Continuous
 62
     1
370
    15
100
AcDbLine
 10
24.31932486611888
 20
4.762500000000007
 30
0.0
 11
22.01049730260593
 21
4.762500000000007
 31
0.0
  0
SPLINE
  5
A4
330
1F
100
AcDbEntity
  8
0
  6
Continuous
 62
     1
370
    15
100
AcDbSpline
210
0.0
220
0.0
230
1.0
 70
     8
 71
     3
 72
    21
 73
    17
 74
     0
 42
0.000000001
 43
0.00000001
 40
0.0
 40
0.0
 40
0.0
 40
0.0
 40
0.0994263224387797
 40
0.1827522257760579
 40
0.2542190953549022
 40
0.3133372151404737
 40
0.3627392317618433
 40
0.4197723218280779
 40
0.4895507453235183
 40
0.5575825099631779
 40
0.6128915450885553
 40
0.6626480936972097
 40
0.7222887520489821
 40
0.7943794809403093
 40
0.8857873403343639
 40
1.0
 40
1.0
 40
1.0
 40
1.0
 10
26.5100223624148
 20
-3.963055406095982
 30
0.0
 10
26.73351927696377
 20
-3.940684338813211
 30
0.0
 10
27.14432154326556
 20
-3.899564821982749
 30
0.0
 10
27.76239801215588
 20
-3.849144192153528
 30
0.0
 10
28.28202388236959
 20
-3.815970377537553
 30
0.0
 10
28.7244877015664
 20
-3.789175931567068
 30
0.0
 10
29.11175144588536
 20
-3.769420341964463
 30
0.0
 10
29.53094037207695
 20
-3.751057711141629
 30
0.0
 10
30.00162402001762
 20
-3.735593672615211
 30
0.0
 10
30.4679511013103
 20
-3.725312920560166
 30
0.0
 10
30.87743486933868
 20
-3.720175384924596
 30
0.0
 10
31.26497920985573
 20
-3.718034379025592
 30
0.0
 10
31.71054579548059
 20
-3.721063334027298
 30
0.0
 10
32.2558954252789
 20
-3.728584303132187
 30
0.0
 10
32.92658818066305
 20
-3.747439777414641
 30
0.0
 10
33.4060280912347
 20
-3.771241467673095
 30
0.0
 10
33.67233472048868
 20
-3.784462202458647
 30
0.0
  0
SPLINE
  5
A5
330
1F
100
AcDbEntity
  8
0
  6
Continuous
 62
     1
370
    15
100
AcDbSpline
210
0.0
220
0.0
230
1.0
 70
     8
 71
     3
 72
    17
 73
    13
 74
     0
 42
0.000000001
 43
0.00000001
 40
0.0
 40
0.0
 40
0.0
 40
0.0
 40
0.1422200831827967
 40
0.2606045242831507
 40
0.3625681858882907
 40
0.4499916383864663
 40
0.5219488284312154
 40
0.6090505865368084
 40
0.7339441485840869
 40
0.837694292869751
 40
0.9357735553666071
 40
1.0
 40
1.0
 40
1.0
 40
1.0
 10
59.58707521204984
 20
3.784466574946532
 30
0.0
 10
59.42012162786283
 20
3.775323941725611
 30
0.0
 10
59.11419535914801
 20
3.758570952078071
 30
0.0
 10
58.64271897054291
 20
3.738287016788786
 30
0.0
 10
58.23063158284219
 20
3.7306291268036
 30
0.0
 10
57.88346985353756
 20
3.724703300451488
 30
0.0
 10
57.55539621426889
 20
3.720622219358693
 30
0.0
 10
57.18417479763256
 20
3.71862787622055
 30
0.0
 10
56.77032462208734
 20
3.720187890716807
 30
0.0
 10
56.34267494862667
 20
3.726279007408443
 30
0.0
 10
55.99420314269312
 20
3.733806483880546
 30
0.0
 10
55.78169561299453
 20
3.740785335098866
 30
0.0
 10
55.69760366495592
 20
3.743546955804034
 30
0.0
  0
SPLINE
  5
A6
330
1F
100
AcDbEntity
  8
0
  6
Continuous
 62
     1
370
    15
100
AcDbSpline
210
0.0
220
0.0
230
1.0
 70
     8
 71
     3
 72
    22
 73
    18
 74
     0
 42
0.000000001
 43
0.00000001
 40
0.0
 40
0.0
 40
0.0
 40
0.0
 40
0.1379565069272392
 40
0.2418879905307982
 40
0.3127054080956595
 40
0.3695219831569748
 40
0.4333785322147927
 40
0.4895224553026617
 40
0.5430260628987416
 40
0.5996232157176088
 40
0.6677543982422353
 40
0.7152696238666056
 40
0.7545232760848176
 40
0.8022139904935539
 40
0.8578365920578291
 40
0.9224169581909563
 40
1.0
 40
1.0
 40
1.0
 40
1.0
 10
52.42466029056628
 20
-3.963057452894096
 30
0.0
 10
52.75395642374228
 20
-3.931757817920583
 30
0.0
 10
53.33133245128636
 20
-3.876878160724829
 30
0.0
 10
54.07907414849988
 20
-3.82261464945598
 30
0.0
 10
54.6390355569588
 20
-3.789024800502111
 30
0.0
 10
55.10201010797228
 20
-3.765679232183016
 30
0.0
 10
55.5272777349755
 20
-3.748283538760568
 30
0.0
 10
55.94348842678805
 20
-3.735238424612507
 30
0.0
 10
56.34268495280683
 20
-3.726185249772659
 30
0.0
 10
56.77032121430677
 20
-3.720219827911793
 30
0.0
 10
57.18417546288679
 20
-3.718621641560442
 30
0.0
 10
57.55539609376595
 20
-3.720623348693544
 30
0.0
 10
57.88346989024375
 20
-3.724702956446755
 30
0.0
 10
58.23063157030842
 20
-3.730629244268142
 30
0.0
 10
58.64271897471721
 20
-3.738286977667827
 30
0.0
 10
59.11419535777839
 20
-3.758570964913961
 30
0.0
 10
59.42012162737929
 20
-3.775323946257412
 30
0.0
 10
59.58707521204984
 20
-3.784466574946531
 30
0.0
  0
SPLINE
  5
A7
330
1F
100
AcDbEntity
  8
0
  6
Continuous
 62
     1
370
    15
100
AcDbSpline
210
0.0
220
0.0
230
1.0
 70
     8
 71
     3
 72
    16
 73
    12
 74
     0
 42
0.000000001
 43
0.00000001
 40
0.0
 40
0.0
 40
0.0
 40
0.0
 40
0.1277485362906384
 40
0.2326110739678719
 40
0.3355773104886609
 40
0.4412378980757855
 40
0.5523588733705581
 40
0.8100663699946066
 40
0.9032569938996341
 40
0.9965485648706414
 40
1.0
 40
1.0
 40
1.0
 40
1.0
 10
33.67233472048868
 20
3.784462202458648
 30
0.0
 10
33.52995206623418
 20
3.776239806290943
 30
0.0
 10
33.27069444119818
 20
3.761268046467349
 30
0.0
 10
32.83516179826091
 20
3.739900586163249
 30
0.0
 10
32.41290302939753
 20
3.732493090591691
 30
0.0
 10
31.98563438387581
 20
3.724443670903581
 30
0.0
 10
31.35231334850867
 20
3.717378099975031
 30
0.0
 10
30.7443930936465
 20
3.72000898191708
 30
0.0
 10
30.15997364394035
 20
3.732164568351283
 30
0.0
 10
29.91015326737491
 20
3.738522171223055
 30
0.0
 10
29.78281926753745
 20
3.743164639197265
 30
0.0
 10
29.7782764581095
 20
3.743330265403221
 30
0.0
  0
SPLINE
  5
A8
330
1F
100
AcDbEntity
  8
0
  6
Continuous
 62
     1
370
    15
100
AcDbSpline
210
0.0
220
0.0
230
1.0
 70
     8
 71
     3
 72
    14
 73
    10
 74
     0
 42
0.000000001
 43
0.00000001
 40
0.0
 40
0.0
 40
0.0
 40
0.0
 40
0.1903123672066215
 40
0.3643680459621409
 40
0.497844126553101
 40
0.6095039251258008
 40
0.7497238811774734
 40
0.942672622044259
 40
1.0
 40
1.0
 40
1.0
 40
1.0
 10
37.49616935259717
 20
-3.582032595190532
 30
0.0
 10
37.71125655961326
 20
-3.548810482288133
 30
0.0
 10
38.12305799155499
 20
-3.485204125335837
 30
0.0
 10
38.72781873844788
 20
-3.405882442345102
 30
0.0
 10
39.22978702896249
 20
-3.346768898854926
 30
0.0
 10
39.68210730577687
 20
-3.298975948692862
 30
0.0
 10
40.20855665322613
 20
-3.250167836620943
 30
0.0
 10
40.67077651563874
 20
-3.213586400767189
 30
0.0
 10
40.96577536296135
 20
-3.196984730078657
 30
0.0
 10
41.03334677367579
 20
-3.193182009088991
 30
0.0
  0
SPLINE
  5
A9
330
1F
100
AcDbEntity
  8
0
  6
Continuous
 62
     1
370
    15
100
AcDbSpline
210
0.0
220
0.0
230
1.0
 70
     8
 71
     3
 72
    28
 73
    24
 74
     0
 42
0.000000001
 43
0.00000001
 40
0.0
 40
0.0
 40
0.0
 40
0.0
 40
0.0699606630162048
 40
0.1210528313971177
 40
0.1530031419453229
 40
0.1807387709628159
 40
0.2142469169672792
 40
0.2526808030219368
 40
0.287314436570398
 40
0.3157862295914778
 40
0.3686854702145327
 40
0.429778899314802
 40
0.5040411447014421
 40
0.5612104814247655
 40
0.6112407405193099
 40
0.6547665509817822
 40
0.6933461084369279
 40
0.7406858361295682
 40
0.7865972996342727
 40
0.8277535974405789
 40
0.8634683191714816
 40
0.9179356636862863
 40
1.0
 40
1.0
 40
1.0
 40
1.0
 10
71.72988513516923
 20
3.257313278765261
 30
0.0
 10
71.53592091157414
 20
3.241513522984476
 30
0.0
 10
71.20030490332549
 20
3.214175229003414
 30
0.0
 10
70.77612030154208
 20
3.188077019758288
 30
0.0
 10
70.46837578348102
 20
3.172010607251268
 30
0.0
 10
70.20666257380437
 20
3.160374437744281
 30
0.0
 10
69.92558845929288
 20
3.150001052540646
 30
0.0
 10
69.62384427534016
 20
3.141471181190213
 30
0.0
 10
69.33838597117214
 20
3.136221149551035
 30
0.0
 10
69.02179568502702
 20
3.133539472167421
 30
0.0
 10
68.6448705120766
 20
3.13395850584718
 30
0.0
 10
68.11674132170589
 20
3.141622507308198
 30
0.0
 10
67.58383831197574
 20
3.159030247666434
 30
0.0
 10
67.07932957484797
 20
3.183729429454252
 30
0.0
 10
66.66095894635272
 20
3.20979121219633
 30
0.0
 10
66.29482663191301
 20
3.23706127886551
 30
0.0
 10
65.95471042228635
 20
3.265261451977294
 30
0.0
 10
65.58658995774707
 20
3.299762592204936
 30
0.0
 10
65.20652794446501
 20
3.340116939231815
 30
0.0
 10
64.86073763735519
 20
3.379986792678227
 30
0.0
 10
64.4925359676217
 20
3.425742369296009
 30
0.0
 10
64.01592764636212
 20
3.489761403071554
 30
0.0
 10
63.63794045145445
 20
3.547400598878723
 30
0.0
 10
63.41074579526224
 20
3.582045468998739
 30
0.0
  0
SPLINE
  5
AA
330
1F
100
AcDbEntity
  8
0
  6
Continuous
 62
     1
370
    15
100
AcDbSpline
210
0.0
220
0.0
230
1.0
 70
     8
 71
     3
 72
    26
 73
    22
 74
     0
 42
0.000000001
 43
0.00000001
 40
0.0
 40
0.0
 40
0.0
 40
0.0
 40
0.0790910778749112
 40
0.1379730769020617
 40
0.1855755909477621
 40
0.2305859190847672
 40
0.2708904780687678
 40
0.3059477656645246
 40
0.3598475000421142
 40
0.4248833141632139
 40
0.4747694888935174
 40
0.5146944276883642
 40
0.552982047377841
 40
0.6047211801625847
 40
0.6643995260255634
 40
0.7098642429326575
 40
0.7481379751814143
 40
0.7932258298522633
 40
0.8477929904956485
 40
0.9143187607313357
 40
1.0
 40
1.0
 40
1.0
 40
1.0
 10
19.90069200037365
 20
3.257323955745133
 30
0.0
 10
19.68658980098648
 20
3.239882192103948
 30
0.0
 10
19.31309205617552
 20
3.209455323981367
 30
0.0
 10
18.79456091229682
 20
3.179119129580395
 30
0.0
 10
18.36565798660436
 20
3.159482449616211
 30
0.0
 10
17.99592492781878
 20
3.146823862966279
 30
0.0
 10
17.66274765503062
 20
3.139073385551072
 30
0.0
 10
17.30556899861181
 20
3.134231609454311
 30
0.0
 10
16.87780002111369
 20
3.133309305070308
 30
0.0
 10
16.40810535093489
 20
3.139474157683584
 30
0.0
 10
15.97846822282438
 20
3.151538500507209
 30
0.0
 10
15.62312560472806
 20
3.165560432311332
 30
0.0
 10
15.26263179253104
 20
3.183317392094088
 30
0.0
 10
14.84727372644343
 20
3.208444365764501
 30
0.0
 10
14.41197680862415
 20
3.240853090901976
 30
0.0
 10
14.01405458328658
 20
3.275752358626001
 30
0.0
 10
13.6562762471084
 20
3.310576578344749
 30
0.0
 10
13.27460921962322
 20
3.35139600528291
 30
0.0
 10
12.80697450877797
 20
3.406807627883612
 30
0.0
 10
12.2232893040814
 20
3.483637383950088
 30
0.0
 10
11.81266186464892
 20
3.54659334887955
 30
0.0
 10
11.58150912074531
 20
3.582032880291909
 30
0.0
  0
SPLINE
  5
AB
330
1F
100
AcDbEntity
  8
0
  6
Continuous
 62
     1
370
    15
100
AcDbSpline
210
0.0
220
0.0
230
1.0
 70
     8
 71
     3
 72
    15
 73
    11
 74
     0
 42
0.000000001
 43
0.00000001
 40
0.0
 40
0.0
 40
0.0
 40
0.0
 40
0.2034487694073102
 40
0.3607807642547344
 40
0.4895356533541001
 40
0.5955866878425632
 40
0.6844896478277915
 40
0.7910590157449435
 40
0.9287611968672048
 40
1.0
 40
1.0
 40
1.0
 40
1.0
 10
11.58150912074531
 20
-3.582032880291908
 30
0.0
 10
11.8163838672091
 20
-3.546035343718404
 30
0.0
 10
12.23289309840381
 20
-3.482200016554171
 30
0.0
 10
12.82463494892982
 20
-3.404579500442366
 30
0.0
 10
13.29640602715263
 20
-3.348924139781135
 30
0.0
 10
13.67955121336934
 20
-3.308210560179719
 30
0.0
 10
14.03791343177528
 20
-3.273530672291705
 30
0.0
 10
14.43340265184016
 20
-3.239273996979375
 30
0.0
 10
14.80800356796807
 20
-3.210953778826319
 30
0.0
 10
15.05603489717609
 20
-3.196528737036446
 30
0.0
 10
15.1406016234946
 20
-3.191610493179622
 30
0.0
  0
SPLINE
  5
AC
330
1F
100
AcDbEntity
  8
0
  6
Continuous
 62
     1
370
    15
100
AcDbSpline
210
0.0
220
0.0
230
1.0
 70
     8
 71
     3
 72
    17
 73
    13
 74
     0
 42
0.000000001
 43
0.00000001
 40
0.0
 40
0.0
 40
0.0
 40
0.0
 40
0.1765381907607297
 40
0.2998058760934735
 40
0.378063377070974
 40
0.4605800485991705
 40
0.556361041219911
 40
0.6477195202051684
 40
0.7212812031804157
 40
0.841647072020026
 40
0.9847065738204315
 40
1.0
 40
1.0
 40
1.0
 40
1.0
 10
63.41074579526224
 20
-3.582045468998738
 30
0.0
 10
63.62047953155734
 20
-3.550000090134628
 30
0.0
 10
63.97665972285391
 20
-3.495579044786295
 30
0.0
 10
64.42540076368988
 20
-3.434579714546627
 30
0.0
 10
64.76610754287137
 20
-3.391523687379976
 30
0.0
 10
65.07586191799818
 20
-3.354896381404963
 30
0.0
 10
65.40257366240398
 20
-3.318981815756528
 30
0.0
 10
65.71815973517548
 20
-3.287185185740681
 30
0.0
 10
66.05391711054087
 20
-3.256659854820804
 30
0.0
 10
66.43657459957598
 20
-3.226149012330374
 30
0.0
 10
66.77199237950568
 20
-3.201302512665315
 30
0.0
 10
66.96065437344474
 20
-3.191825787800175
 30
0.0
 10
66.97887499186969
 20
-3.190910543642723
 30
0.0
  0
SPLINE
  5
AD
330
1F
100
AcDbEntity
  8
0
  6
Continuous
 62
     1
370
    15
100
AcDbSpline
210
0.0
220
0.0
230
1.0
 70
     8
 71
     3
 72
    28
 73
    24
 74
     0
 42
0.000000001
 43
0.00000001
 40
0.0
 40
0.0
 40
0.0
 40
0.0
 40
0.0738761295231413
 40
0.1278847187771857
 40
0.1659173571228812
 40
0.2073783032344258
 40
0.2538368849083208
 40
0.2968624696328697
 40
0.3339060387928271
 40
0.3760058452706452
 40
0.4133373937973044
 40
0.4482022440314215
 40
0.4964866104838719
 40
0.5564601717910258
 40
0.6066613872560698
 40
0.6495348628803209
 40
0.691040676618403
 40
0.7517074854997872
 40
0.8024508427187655
 40
0.8375636731207512
 40
0.86980632094866
 40
0.9236251720293402
 40
1.0
 40
1.0
 40
1.0
 40
1.0
 10
45.81525059489554
 20
3.257315339694321
 30
0.0
 10
45.61215183315034
 20
3.240806831576919
 30
0.0
 10
45.26057374970942
 20
3.21222945574995
 30
0.0
 10
44.80190156345214
 20
3.184493190275068
 30
0.0
 10
44.42636355601781
 20
3.165848430696029
 30
0.0
 10
44.07482497949807
 20
3.151952371835753
 30
0.0
 10
43.71161854201915
 20
3.141619451044483
 30
0.0
 10
43.36065808725004
 20
3.135724842566582
 30
0.0
 10
43.02185252775757
 20
3.133520119712547
 30
0.0
 10
42.69848791954595
 20
3.134677337296456
 30
0.0
 10
42.38591052666264
 20
3.139071980177096
 30
0.0
 10
42.06950133564716
 20
3.145707804882094
 30
0.0
 10
41.66570439767878
 20
3.159308310327927
 30
0.0
 10
41.21754357632807
 20
3.180786925031475
 30
0.0
 10
40.78987195943812
 20
3.206884571999117
 30
0.0
 10
40.41785212679935
 20
3.233968462440423
 30
0.0
 10
40.01985311916796
 20
3.267122655699836
 30
0.0
 10
39.59387271671123
 20
3.307763635382912
 30
0.0
 10
39.18544621477895
 20
3.352030293453137
 30
0.0
 10
38.8567243771159
 20
3.390901660983845
 30
0.0
 10
38.520992282668
 20
3.433260951308466
 30
0.0
 10
38.07055431353308
 20
3.494301197120476
 30
0.0
 10
37.708537410114
 20
3.549595557561595
 30
0.0
 10
37.49616935259717
 20
3.582032595190533
 30
0.0
  0
LINE
  5
AE
330
1F
100
AcDbEntity
  8
외형선
  6
Continuous
370
    15
100
AcDbLine
 10
9.839742974958195
 20
-0.4530853625160146
 30
0.0
 11
8.480112917838527
 21
0.094509827072035
 31
0.0
  0
SPLINE
  5
AF
330
1F
100
AcDbEntity
  8
외형선
  6
Continuous
370
    15
100
AcDbSpline
210
0.0
220
0.0
230
1.0
 70
     8
 71
     3
 72
    10
 73
     6
 74
     0
 42
0.000000001
 43
0.00000001
 40
0.0
 40
0.0
 40
0.0
 40
0.0
 40
0.5
 40
0.5
 40
1.0
 40
1.0
 40
1.0
 40
1.0
 10
9.999999999999792
 20
-0.5454552007245808
 30
0.0
 10
9.746246779321446
 20
-0.4000811426871081
 30
0.0
 10
9.491726115224372
 20
-0.2537869129371041
 30
0.0
 10
8.98438846598884
 20
0.0387800985481412
 30
0.0
 10
8.73286975782218
 20
0.1848017115888848
 30
0.0
 10
8.48009017748327
 20
0.330598902744644
 30
0.0
  0
SPLINE
  5
B0
330
1F
100
AcDbEntity
  8
외형선
  6
Continuous
370
    15
100
AcDbSpline
210
0.0
220
0.0
230
1.0
 70
     8
 71
     3
 72
    10
 73
     6
 74
     0
 42
0.000000001
 43
0.00000001
 40
0.0
 40
0.0
 40
0.0
 40
0.0
 40
0.5
 40
0.5
 40
1.0
 40
1.0
 40
1.0
 40
1.0
 10
9.999999999999792
 20
0.7824156193664767
 30
0.0
 10
9.746262564094897
 20
0.9267553120517952
 30
0.0
 10
9.491757780156352
 20
1.070129718483795
 30
0.0
 10
8.984451478218086
 20
1.353124790106395
 30
0.0
 10
8.732948014029748
 20
1.492510743659814
 30
0.0
 10
8.480184522662858
 20
1.629827286503262
 30
0.0
  0
LINE
  5
B1
330
1F
100
AcDbEntity
  8
외형선
  6
Continuous
370
    15
100
AcDbLine
 10
10.0
 20
0.7824156193663613
 30
0.0
 11
9.999999999999996
 21
-0.5454552007246999
 31
0.0
  0
LINE
  5
B2
330
1F
100
AcDbEntity
  8
외형선
  6
Continuous
370
    15
100
AcDbLine
 10
8.480090177483266
 20
-4.762499999999998
 30
0.0
 11
8.48009017748327
 21
0.3305953852457602
 31
0.0
  0
LINE
  5
B3
330
1F
100
AcDbEntity
  8
외형선
  6
Continuous
370
    15
100
AcDbLine
 10
8.480090177483266
 20
1.630019068256371
 30
0.0
 11
8.480090177483266
 21
4.7625
 31
0.0
  0
LINE
  5
B4
330
1F
100
AcDbEntity
  8
외형선
  6
Continuous
370
    15
100
AcDbLine
 10
-33.45
 20
4.762499999999995
 30
0.0
 11
-33.45
 21
-4.762499999999996
 31
0.0
  0
LINE
  5
B5
330
1F
100
AcDbEntity
  8
외형선
  6
Continuous
370
    15
100
AcDbLine
 10
-34.45
 20
3.762499999999997
 30
0.0
 11
-34.45
 21
-3.762500000000002
 31
0.0
  0
LINE
  5
B6
330
1F
100
AcDbEntity
  8
외형선
  6
Continuous
370
    15
100
AcDbLine
 10
10.00000000000001
 20
0.9045173968416357
 30
0.0
 11
9.303759255960166
 21
1.231300549703171
 31
0.0
  0
SPLINE
  5
B7
330
1F
100
AcDbEntity
  8
외형선
  6
Continuous
370
    15
100
AcDbSpline
210
0.0
220
0.0
230
1.0
 70
    24
 71
     3
 72
     8
 73
     4
 74
     0
 42
0.000000001
 43
0.00000001
 40
0.0
 40
0.0
 40
0.0
 40
0.0
 40
1.0
 40
1.0
 40
1.0
 40
1.0
 10
10.00000000000012
 20
0.9045173968415863
 30
0.0
 10
10.00000000000012
 20
0.8840425614793286
 30
0.0
 10
10.00000000000012
 20
0.8431701331931912
 30
0.0
 10
10.00000000000012
 20
0.7824156193679895
 30
0.0
  0
SPLINE
  5
B8
330
1F
100
AcDbEntity
  8
외형선
  6
Continuous
370
    15
100
AcDbSpline
210
0.0
220
0.0
230
1.0
 70
     8
 71
     3
 72
    14
 73
    10
 74
     0
 42
0.000000001
 43
0.00000001
 40
0.0
 40
0.0
 40
0.0
 40
0.0
 40
0.2500000000000001
 40
0.2500000000000001
 40
0.5000000000000001
 40
0.5000000000000001
 40
0.7500000000000002
 40
0.7500000000000002
 40
1.0
 40
1.0
 40
1.0
 40
1.0
 10
8.758126348844984
 20
3.953875745204545
 30
0.0
 10
8.729146843687486
 20
3.973664629009757
 30
0.0
 10
8.69865598637513
 20
3.996150729772669
 30
0.0
 10
8.631593821117509
 20
4.052882009214064
 30
0.0
 10
8.593688814930253
 20
4.088742484084857
 30
0.0
 10
8.527811654530595
 20
4.166889295487733
 30
0.0
 10
8.505761378083688
 20
4.202839295663615
 30
0.0
 10
8.483218510015337
 20
4.252708735242296
 30
0.0
 10
8.480090177483262
 20
4.269616147622026
 30
0.0
 10
8.480090177483266
 20
4.282382920536352
 30
0.0
  0
SPLINE
  5
B9
330
1F
100
AcDbEntity
  8
외형선
  6
Continuous
370
    15
100
AcDbSpline
210
0.0
220
0.0
230
1.0
 70
     8
 71
     3
 72
    15
 73
    11
 74
     0
 42
0.000000001
 43
0.00000001
 40
0.0
 40
0.0
 40
0.0
 40
0.0
 40
0.4270777565406298
 40
0.5522431580501921
 40
0.6566882413060973
 40
0.775114982016202
 40
0.868101065288362
 40
0.9358603366826491
 40
0.978956735348044
 40
1.0
 40
1.0
 40
1.0
 40
1.0
 10
8.75811990758624
 20
3.953875408890965
 30
0.0
 10
8.791243250830918
 20
3.931621887667691
 30
0.0
 10
8.83407418594397
 20
3.902846437179186
 30
0.0
 10
8.886046472566806
 20
3.870380172762829
 30
0.0
 10
8.913927194947204
 20
3.853423789603171
 30
0.0
 10
8.939890262636112
 20
3.838376403159887
 30
0.0
 10
8.963640489424481
 20
3.825221613472356
 30
0.0
 10
8.982541937212188
 20
3.816206363880609
 30
0.0
 10
8.99525883826509
 20
3.809946462678019
 30
0.0
 10
9.003951505008414
 20
3.808163581342801
 30
0.0
 10
9.006803439012277
 20
3.80757864463064
 30
0.0
  0
SPLINE
  5
BA
330
1F
100
AcDbEntity
  8
외형선
  6
Continuous
370
    15
100
AcDbSpline
210
0.0
220
0.0
230
1.0
 70
     8
 71
     3
 72
     8
 73
     4
 74
     0
 42
0.000000001
 43
0.00000001
 40
0.0
 40
0.0
 40
0.0
 40
0.0
 40
1.0
 40
1.0
 40
1.0
 40
1.0
 10
9.999999999999618
 20
3.763792944957276
 30
0.0
 10
9.669042951301074
 20
3.787500682626793
 30
0.0
 10
9.336781945655375
 20
3.802139328109856
 30
0.0
 10
9.006804492451478
 20
3.80757772311643
 30
0.0
  0
SPLINE
  5
BB
330
1F
100
AcDbEntity
  8
외형선
  6
Continuous
370
    15
100
AcDbSpline
210
0.0
220
0.0
230
1.0
 70
    24
 71
     3
 72
    14
 73
    10
 74
     0
 42
0.000000001
 43
0.00000001
 40
0.0
 40
0.0
 40
0.0
 40
0.0
 40
0.2500000000000001
 40
0.2500000000000001
 40
0.5000000000000001
 40
0.5000000000000001
 40
0.7500000000000002
 40
0.7500000000000002
 40
1.0
 40
1.0
 40
1.0
 40
1.0
 10
10.0
 20
3.763792944957249
 30
0.0
 10
10.0
 20
3.665210462569616
 30
0.0
 10
10.0
 20
3.526663108111671
 30
0.0
 10
10.0
 20
3.171016559368792
 30
0.0
 10
10.0
 20
2.953928537283055
 30
0.0
 10
10.0
 20
2.454199293069281
 30
0.0
 10
10.0
 20
2.171702377577143
 30
0.0
 10
10.0
 20
1.563630374822782
 30
0.0
 10
10.0
 20
1.238265230109236
 30
0.0
 10
10.0
 20
0.9045173968416427
 30
0.0
  0
SPLINE
  5
BC
330
1F
100
AcDbEntity
  8
외형선
  6
Continuous
370
    15
100
AcDbSpline
210
0.0
220
0.0
230
1.0
 70
     8
 71
     3
 72
    10
 73
     6
 74
     0
 42
0.000000001
 43
0.00000001
 40
0.0
 40
0.0
 40
0.0
 40
0.0
 40
0.5
 40
0.5
 40
1.0
 40
1.0
 40
1.0
 40
1.0
 10
9.999999999999618
 20
-3.763792944957275
 30
0.0
 10
9.746252545545005
 20
-3.781969859781039
 30
0.0
 10
9.491737682516796
 20
-3.794823607059397
 30
0.0
 10
8.98441148453434
 20
-3.80972477678968
 30
0.0
 10
8.732898345058862
 20
-3.811783183285619
 30
0.0
 10
8.480124642067851
 20
-3.808468818955457
 30
0.0
  0
SPLINE
  5
BD
330
1F
100
AcDbEntity
  8
외형선
  6
Continuous
370
    15
100
AcDbSpline
210
0.0
220
0.0
230
1.0
 70
    24
 71
     3
 72
    14
 73
    10
 74
     0
 42
0.000000001
 43
0.00000001
 40
0.0
 40
0.0
 40
0.0
 40
0.0
 40
0.25
 40
0.25
 40
0.5
 40
0.5
 40
0.75
 40
0.75
 40
1.0
 40
1.0
 40
1.0
 40
1.0
 10
9.999999999999977
 20
-0.5176293725215592
 30
0.0
 10
9.999999999999977
 20
-0.9108965282503754
 30
0.0
 10
9.999999999999977
 20
-1.298071066344932
 30
0.0
 10
9.999999999999977
 20
-2.0191871627063
 30
0.0
 10
9.999999999999977
 20
-2.352674644072766
 30
0.0
 10
9.999999999999977
 20
-2.929611501393901
 30
0.0
 10
9.999999999999977
 20
-3.172753461270287
 30
0.0
 10
9.999999999999977
 20
-3.549623929532657
 30
0.0
 10
9.999999999999977
 20
-3.68338187257759
 30
0.0
 10
9.999999999999977
 20
-3.763792944957249
 30
0.0
  0
SPLINE
  5
BE
330
1F
100
AcDbEntity
  8
0
  6
Continuous
 62
     1
370
    15
100
AcDbSpline
210
0.0
220
0.0
230
1.0
 70
     8
 71
     3
 72
    20
 73
    16
 74
     0
 42
0.000000001
 43
0.00000001
 40
0.0
 40
0.0
 40
0.0
 40
0.0
 40
0.0782485224039832
 40
0.1564963916870977
 40
0.2347436296826528
 40
0.3129902582649216
 40
0.3912362993477318
 40
0.4680890898082943
 40
0.5449396580666618
 40
0.6217881991349038
 40
0.6986349085885316
 40
0.7768765535355473
 40
0.8551178379613604
 40
0.9333587841279006
 40
1.0
 40
1.0
 40
1.0
 40
1.0
 10
73.5
 20
-4.519330889716929
 30
0.0
 10
72.89307844072133
 20
-4.387532162473106
 30
0.0
 10
71.67924038798662
 20
-4.123935808076512
 30
0.0
 10
69.85849474087131
 20
-3.469709356584632
 30
0.0
 10
68.03776596433426
 20
-2.662887772770928
 30
0.0
 10
66.2170562260656
 20
-1.722662718762891
 30
0.0
 10
64.40715761450551
 20
-0.7060421897228805
 30
0.0
 10
62.6081167015043
 20
0.3379833337950121
 30
0.0
 10
60.81992167446165
 20
1.359830216459321
 30
0.0
 10
59.03178026963351
 20
2.31815130039689
 30
0.0
 10
57.23287372783918
 20
3.172669238002022
 30
0.0
 10
55.42311227171308
 20
3.8825843665101
 30
0.0
 10
53.60255331842064
 20
4.402138567210121
 30
0.0
 10
51.87196688143281
 20
4.715121657474215
 30
0.0
 10
50.74823597196274
 20
4.737566231143584
 30
0.0
 10
50.23135526652313
 20
4.747890025722646
 30
0.0
  0
SPLINE
  5
BF
330
1F
100
AcDbEntity
  8
0
  6
Continuous
 62
     1
370
    15
100
AcDbSpline
210
0.0
220
0.0
230
1.0
 70
     8
 71
     3
 72
    18
 73
    14
 74
     0
 42
0.000000001
 43
0.00000001
 40
0.0
 40
0.0
 40
0.0
 40
0.0
 40
0.0740955691567687
 40
0.1645045064935646
 40
0.2549142735662351
 40
0.3480499038849527
 40
0.4411855572142531
 40
0.5343212342612386
 40
0.6274569357328709
 40
0.7205926623359685
 40
0.8137284147772024
 40
0.9068641937630916
 40
1.0
 40
1.0
 40
1.0
 40
1.0
 10
29.77634151647047
 20
-3.743952851906616
 30
0.0
 10
29.28791233835436
 20
-3.911224283522251
 30
0.0
 10
28.203518199576
 20
-4.282594726067645
 30
0.0
 10
26.52314324239105
 20
-4.62630065935668
 30
0.0
 10
24.71728803980811
 20
-4.796366520640804
 30
0.0
 10
22.8933265786311
 20
-4.730494377586009
 30
0.0
 10
21.05143133651605
 20
-4.430528587914739
 30
0.0
 10
19.20952580597212
 20
-3.910176398225155
 30
0.0
 10
17.36762230163105
 20
-3.195829704049067
 30
0.0
 10
15.52571750322187
 20
-2.322573317707571
 30
0.0
 10
13.68381227656268
 20
-1.334749386775853
 30
0.0
 10
11.84190637804548
 20
-0.2778600919881737
 30
0.0
 10
10.61396885256166
 20
0.4289903477789215
 30
0.0
 10
9.999999999997808
 20
0.7824156193676042
 30
0.0
  0
SPLINE
  5
C0
330
1F
100
AcDbEntity
  8
외형선
  6
Continuous
370
    15
100
AcDbSpline
210
0.0
220
0.0
230
1.0
 70
    24
 71
     3
 72
     8
 73
     4
 74
     0
 42
0.000000001
 43
0.00000001
 40
0.0
 40
0.0
 40
0.0
 40
0.0
 40
1.0
 40
1.0
 40
1.0
 40
1.0
 10
10.00000000000012
 20
0.9045173968415863
 30
0.0
 10
10.00000000000012
 20
0.8840425614793286
 30
0.0
 10
10.00000000000012
 20
0.8431701331931909
 30
0.0
 10
10.00000000000012
 20
0.7824156193679889
 30
0.0
  0
SPLINE
  5
C1
330
1F
100
AcDbEntity
  8
0
  6
Continuous
 62
     1
370
    15
100
AcDbSpline
210
0.0
220
0.0
230
1.0
 70
     8
 71
     3
 72
    14
 73
    10
 74
     0
 42
0.000000001
 43
0.00000001
 40
0.0
 40
0.0
 40
0.0
 40
0.0
 40
0.164282506047347
 40
0.3286027632568297
 40
0.4929516843893163
 40
0.657320115093035
 40
0.8216988552297413
 40
0.9860786804311086
 40
0.9999999999999999
 40
0.9999999999999999
 40
0.9999999999999999
 40
0.9999999999999999
 10
73.5
 20
-3.757480409053629
 30
0.0
 10
72.82298085362984
 20
-3.611787093599551
 30
0.0
 10
71.46878698583669
 20
-3.320366983216883
 30
0.0
 10
69.43720796012362
 20
-2.621911855400527
 30
0.0
 10
67.40522851894829
 20
-1.782097233440602
 30
0.0
 10
65.37296997665725
 20
-0.8277410899856168
 30
0.0
 10
63.34056781495556
 20
0.165935528145331
 30
0.0
 10
61.9282198184129
 20
0.8743690357161829
 30
0.0
 10
61.19336442170203
 20
1.202957264555848
 30
0.0
 10
61.13598870026334
 20
1.228612633993587
 30
0.0
  0
SPLINE
  5
C2
330
1F
100
AcDbEntity
  8
0
  6
Continuous
 62
     1
370
    15
100
AcDbSpline
210
0.0
220
0.0
230
1.0
 70
     8
 71
     3
 72
    16
 73
    12
 74
     0
 42
0.000000001
 43
0.00000001
 40
0.0
 40
0.0
 40
0.0
 40
0.0
 40
0.1076382221862665
 40
0.2307087015830833
 40
0.3537832424864429
 40
0.4768549354135103
 40
0.5999168775782409
 40
0.7229621891039762
 40
0.845984029120669
 40
0.9230347879953207
 40
1.0
 40
1.0
 40
1.0
 40
1.0
 10
26.51274990301515
 20
-3.94950793048642
 30
0.0
 10
25.92024672255028
 20
-3.996493912529881
 30
0.0
 10
24.6502922707539
 20
-4.097202329016864
 30
0.0
 10
22.70282731243403
 20
-3.951983126702739
 30
0.0
 10
20.67039868130712
 20
-3.584829983893997
 30
0.0
 10
18.63802753276098
 20
-2.99506550628409
 30
0.0
 10
16.60582451804776
 20
-2.226177302499819
 30
0.0
 10
14.57399989527199
 20
-1.322381423495541
 30
0.0
 10
12.7952817628503
 20
-0.4617443347368298
 30
0.0
 10
11.27081102356283
 20
0.289746251336835
 30
0.0
 10
10.42344678741867
 20
0.6996695778229897
 30
0.0
 10
10.00000000000001
 20
0.9045173968416357
 30
0.0
  0
LINE
  5
C3
330
1F
100
AcDbEntity
  8
0
  6
Continuous
 62
     1
370
    15
100
AcDbLine
 10
73.5
 20
-4.519330889716933
 30
0.0
 11
73.5
 21
-3.757480409053629
 31
0.0
  0
SPLINE
  5
C4
330
1F
100
AcDbEntity
  8
0
  6
Continuous
 62
     1
370
    15
100
AcDbSpline
210
0.0
220
0.0
230
1.0
 70
     8
 71
     3
 72
    26
 73
    22
 74
     0
 42
0.000000001
 43
0.00000001
 40
0.0
 40
0.0
 40
0.0
 40
0.0
 40
0.0087476645527792
 40
0.0667665245842561
 40
0.1247851337837386
 40
0.1828035086756775
 40
0.240821665799839
 40
0.2978028527704416
 40
0.3547833263502721
 40
0.4117632331305621
 40
0.4687427198608428
 40
0.5267596478237382
 40
0.584776528488278
 40
0.6427933784920298
 40
0.7008102144745711
 40
0.7588270530763985
 40
0.8158062134764797
 40
0.8727856031303823
 40
0.9297653689321201
 40
0.9867456576706074
 40
1.0
 40
1.0
 40
1.0
 40
1.0
 10
55.69760366495593
 20
-3.743546955804034
 30
0.0
 10
55.60610651496572
 20
-3.779613675061469
 30
0.0
 10
54.90775478035671
 20
-4.054892806245113
 30
0.0
 10
53.60255298618008
 20
-4.395648182460684
 30
0.0
 10
51.78199903346413
 20
-4.719593391772744
 30
0.0
 10
49.96145945915156
 20
-4.79799235792011
 30
0.0
 10
48.15175223532108
 20
-4.648961001020425
 30
0.0
 10
46.35297565145602
 20
-4.278849359286087
 30
0.0
 10
44.56504611893394
 20
-3.71102896045546
 30
0.0
 10
42.77713680003465
 20
-2.969448715784179
 30
0.0
 10
40.97841092044943
 20
-2.083573812778281
 30
0.0
 10
39.16875533468599
 20
-1.09250924752145
 30
0.0
 10
37.34827293216129
 20
-0.0425045818211293
 30
0.0
 10
35.52778388908177
 20
1.009587120960537
 30
0.0
 10
33.70730322865722
 20
2.012603060842326
 30
0.0
 10
31.89765277864823
 20
2.912951664858108
 30
0.0
 10
30.09893835789804
 20
3.667918010819274
 30
0.0
 10
28.3110504562089
 20
4.251755262691705
 30
0.0
 10
26.52314014265958
 20
4.617613947721918
 30
0.0
 10
25.19260028451274
 20
4.781824265215702
 30
0.0
 10
24.45796223189602
 20
4.748141627591922
 30
0.0
 10
24.31932486611888
 20
4.741785201953535
 30
0.0
  0
SPLINE
  5
C5
330
1F
100
AcDbEntity
  8
0
  6
Continuous
 62
     1
370
    15
100
AcDbSpline
210
0.0
220
0.0
230
1.0
 70
     8
 71
     3
 72
    16
 73
    12
 74
     0
 42
0.000000001
 43
0.00000001
 40
0.0
 40
0.0
 40
0.0
 40
0.0
 40
0.0745105899948286
 40
0.1925725675548766
 40
0.310656680957047
 40
0.428756362563749
 40
0.5468650082180386
 40
0.6649759927004171
 40
0.7830826852917024
 40
0.9011784653636303
 40
1.0
 40
1.0
 40
1.0
 40
1.0
 10
52.43185457921748
 20
-3.934244502507957
 30
0.0
 10
52.0045031367473
 20
-3.979007106348228
 30
0.0
 10
50.90001363357097
 20
-4.09469602456188
 30
0.0
 10
49.1181792466216
 20
-4.005121446013401
 30
0.0
 10
47.08628455004628
 20
-3.698252692130384
 30
0.0
 10
45.05407959834032
 20
-3.158137193201007
 30
0.0
 10
43.02169846192177
 20
-2.430127652821834
 30
0.0
 10
40.98927050473262
 20
-1.55415683112673
 30
0.0
 10
38.95692897065153
 20
-0.5864864177417483
 30
0.0
 10
37.03525239216906
 20
0.3689025214357063
 30
0.0
 10
35.79106607324064
 20
0.9580122676955475
 30
0.0
 10
35.22424916618357
 20
1.226394389578845
 30
0.0
  0
SPLINE
  5
C6
330
1F
100
AcDbEntity
  8
0
  6
Continuous
 62
     1
370
    15
100
AcDbSpline
210
0.0
220
0.0
230
1.0
 70
     8
 71
     3
 72
    14
 73
    10
 74
     0
 42
0.000000001
 43
0.00000001
 40
0.0
 40
0.0
 40
0.0
 40
0.0
 40
0.1533572942713589
 40
0.3067145435849217
 40
0.4600717491071846
 40
0.6134289120049005
 40
0.7667860334450735
 40
0.9201431145949516
 40
1.0
 40
1.0
 40
1.0
 40
1.0
 10
9.999999999997856
 20
-0.5454552007234758
 30
0.0
 10
10.6139658934072
 20
-0.8949534073847083
 30
0.0
 10
11.84189750023737
 20
-1.593949718249255
 30
0.0
 10
13.68379450762137
 20
-2.556256825198568
 30
0.0
 10
15.52569089151109
 20
-3.392733247914647
 30
0.0
 10
17.3675866602285
 20
-4.063422805467403
 30
0.0
 10
19.20948182734575
 20
-4.520579746368954
 30
0.0
 10
20.75711865380906
 20
-4.753433356873582
 30
0.0
 10
21.69079039121677
 20
-4.738137709215565
 30
0.0
 10
22.01049730260597
 20
-4.732900189352303
 30
0.0
  0
SPLINE
  5
C7
330
1F
100
AcDbEntity
  8
0
  6
Continuous
 62
     1
370
    15
100
AcDbSpline
210
0.0
220
0.0
230
1.0
 70
     8
 71
     3
 72
    25
 73
    21
 74
     0
 42
0.000000001
 43
0.00000001
 40
0.0
 40
0.0
 40
0.0
 40
0.0
 40
0.0547323868500513
 40
0.1108041892552882
 40
0.1668760855956575
 40
0.2229480919283654
 40
0.2790202243034161
 40
0.3340904559490801
 40
0.389161436354615
 40
0.444233306893546
 40
0.4993062086911405
 40
0.5553802713083019
 40
0.6114546241193494
 40
0.6675292830209308
 40
0.7236042638897303
 40
0.7796795825814435
 40
0.8347570716386585
 40
0.8898362115741287
 40
0.944917141491896
 40
1.0
 40
1.0
 40
1.0
 40
1.0
 10
41.03268517711874
 20
3.192927684467
 30
0.0
 10
41.62502172392223
 20
3.43302447298018
 30
0.0
 10
42.82419052711459
 20
3.91909371872469
 30
0.0
 10
44.63019284073691
 20
4.421584679389492
 30
0.0
 10
46.4506951495417
 20
4.725466357712123
 30
0.0
 10
48.27119614017328
 20
4.796926827009519
 30
0.0
 10
50.08087835212774
 20
4.637479755704074
 30
0.0
 10
51.87965127213326
 20
4.258509376816732
 30
0.0
 10
53.66762421864162
 20
3.682582359808674
 30
0.0
 10
55.45563002542034
 20
2.934278698980399
 30
0.0
 10
57.25448528163285
 20
2.043290742023075
 30
0.0
 10
59.064251571387
 20
1.048976548262148
 30
0.0
 10
60.88484479933391
 20
-0.0021835406013203
 30
0.0
 10
62.70545500757964
 20
-1.053219084405409
 30
0.0
 10
64.52607407252387
 20
-2.053242154544591
 30
0.0
 10
66.33591304431542
 20
-2.948008937172866
 30
0.0
 10
68.13494235241005
 20
-3.69823747088921
 30
0.0
 10
69.9232320149303
 20
-4.266594876415178
 30
0.0
 10
71.71158747597075
 20
-4.651234404826071
 30
0.0
 10
72.90385553448122
 20
-4.722727589429272
 30
0.0
 10
73.5
 20
-4.762499999999983
 30
0.0
  0
SPLINE
  5
C8
330
1F
100
AcDbEntity
  8
0
  6
Continuous
 62
     1
370
    15
100
AcDbSpline
210
0.0
220
0.0
230
1.0
 70
     8
 71
     3
 72
    16
 73
    12
 74
     0
 42
0.000000001
 43
0.00000001
 40
0.0
 40
0.0
 40
0.0
 40
0.0
 40
0.0227250433654648
 40
0.1508722417701063
 40
0.2790053573017712
 40
0.4071169495328334
 40
0.5351996288410337
 40
0.6632682805233947
 40
0.7913671999437896
 40
0.9194911232668787
 40
1.0
 40
1.0
 40
1.0
 40
1.0
 10
61.66851052817239
 20
-0.4509198441487665
 30
0.0
 10
61.54837446201617
 20
-0.403739822427776
 30
0.0
 10
60.75078752997197
 20
-0.0905102488100829
 30
0.0
 10
59.27583207959478
 20
0.5170191653157077
 30
0.0
 10
57.24377436238694
 20
1.31028106129448
 30
0.0
 10
55.21209212783922
 20
2.027914080549531
 30
0.0
 10
53.18080283950469
 20
2.621647548255086
 30
0.0
 10
51.14962101106335
 20
3.05959914404471
 30
0.0
 10
49.11814466943389
 20
3.304562788679609
 30
0.0
 10
47.33805562738336
 20
3.371243286951286
 30
0.0
 10
46.23512593629961
 20
3.271924432225173
 30
0.0
 10
45.809518694673
 20
3.233598486207744
 30
0.0
  0
SPLINE
  5
C9
330
1F
100
AcDbEntity
  8
0
  6
Continuous
 62
     1
370
    15
100
AcDbSpline
210
0.0
220
0.0
230
1.0
 70
     8
 71
     3
 72
    26
 73
    22
 74
     0
 42
0.000000001
 43
0.00000001
 40
0.0
 40
0.0
 40
0.0
 40
0.0
 40
0.0117449606813348
 40
0.0679264535016844
 40
0.1241079311343076
 40
0.1802893940068186
 40
0.2364708425469191
 40
0.2926522771823942
 40
0.3481824962413474
 40
0.4037125812620261
 40
0.4592425481346829
 40
0.5147724127573051
 40
0.5703021910345765
 40
0.6248386981960722
 40
0.6793750449726966
 40
0.7339113720186672
 40
0.7884478199937167
 40
0.8439775554852168
 40
0.8995073680957827
 40
0.9550372737335042
 40
0.9999999999999999
 40
0.9999999999999999
 40
0.9999999999999999
 40
0.9999999999999999
 10
15.14063551433014
 20
3.19162576178703
 30
0.0
 10
15.26898735813641
 20
3.250304592210918
 30
0.0
 10
16.0113044919875
 20
3.589670977034655
 30
0.0
 10
17.36758670127771
 20
4.0532722120781
 30
0.0
 10
19.20948166214642
 20
4.530235712410608
 30
0.0
 10
21.0513770509014
 20
4.769233390820959
 30
0.0
 10
22.89326809204898
 20
4.774919697786654
 30
0.0
 10
24.72805617347428
 20
4.543479921044426
 30
0.0
 10
26.55567385274868
 20
4.09068634377609
 30
0.0
 10
28.37618456184138
 20
3.441142712158932
 30
0.0
 10
30.19668864088683
 20
2.624678407475082
 30
0.0
 10
32.01718347766592
 20
1.680878544110844
 30
0.0
 10
33.82684392718786
 20
0.6616573230839184
 30
0.0
 10
35.62556217338746
 20
-0.382618527597712
 30
0.0
 10
37.41344368890916
 20
-1.402648175536432
 30
0.0
 10
39.20132447351344
 20
-2.357160557990682
 30
0.0
 10
41.00004086265007
 20
-3.206009581041689
 30
0.0
 10
42.80969948216264
 20
-3.908766673813571
 30
0.0
 10
44.63019206000567
 20
-4.419313816014871
 30
0.0
 10
46.33521450121874
 20
-4.72044832452741
 30
0.0
 10
47.4334035140291
 20
-4.737180222644638
 30
0.0
 10
47.92475866152815
 20
-4.744666460597693
 30
0.0
  0
SPLINE
  5
CA
330
1F
100
AcDbEntity
  8
0
  6
Continuous
 62
     1
370
    15
100
AcDbSpline
210
0.0
220
0.0
230
1.0
 70
     8
 71
     3
 72
    11
 73
     7
 74
     0
 42
0.000000001
 43
0.00000001
 40
0.0
 40
0.0
 40
0.0
 40
0.0
 40
0.1772933786725097
 40
0.4515197771713634
 40
0.7257550875813185
 40
1.0
 40
1.0
 40
1.0
 40
1.0
 10
66.97876912322099
 20
3.190866791777541
 30
0.0
 10
67.36415507939839
 20
3.356267293834275
 30
0.0
 10
68.34563212248425
 20
3.777499030698166
 30
0.0
 10
69.92323177956735
 20
4.262739338263571
 30
0.0
 10
71.7115875348147
 20
4.652198341790353
 30
0.0
 10
72.90385555409611
 20
4.72304890550073
 30
0.0
 10
73.5
 20
4.762500000000009
 30
0.0
  0
SPLINE
  5
CB
330
1F
100
AcDbEntity
  8
0
  6
Continuous
 62
     1
370
    15
100
AcDbSpline
210
0.0
220
0.0
230
1.0
 70
    24
 71
     3
 72
    10
 73
     6
 74
     0
 42
0.000000001
 43
0.00000001
 40
0.0
 40
0.0
 40
0.0
 40
0.0
 40
0.5
 40
0.5
 40
1.0
 40
1.0
 40
1.0
 40
1.0
 10
73.5
 20
3.33375
 30
0.0
 10
73.5
 20
3.535833623044832
 30
0.0
 10
73.50000000000001
 20
3.770673507979648
 30
0.0
 10
73.49999999999999
 20
4.263366954076079
 30
0.0
 10
73.50000000000001
 20
4.51996223800452
 30
0.0
 10
73.50000000000001
 20
4.762500000000015
 30
0.0
  0
LINE
  5
CC
330
1F
100
AcDbEntity
  8
0
  6
Continuous
 62
     1
370
    15
100
AcDbLine
 10
73.5
 20
3.33375
 30
0.0
 11
71.72724157191156
 21
3.245943534728512
 31
0.0
  0
SPLINE
  5
CD
330
1F
100
AcDbEntity
  8
0
  6
Continuous
 62
     1
370
    15
100
AcDbSpline
210
0.0
220
0.0
230
1.0
 70
     8
 71
     3
 72
    16
 73
    12
 74
     0
 42
0.000000001
 43
0.00000001
 40
0.0
 40
0.0
 40
0.0
 40
0.0
 40
0.0535653257604248
 40
0.1817530693200724
 40
0.3099169331105254
 40
0.4381065158972327
 40
0.566322858491185
 40
0.694558548834112
 40
0.8228061291647842
 40
0.9510581135831705
 40
1.0
 40
1.0
 40
1.0
 40
1.0
 10
35.74169698966831
 20
-0.4453689348057364
 30
0.0
 10
35.45874689127474
 20
-0.3329810838507801
 30
0.0
 10
34.4986659411941
 20
0.0483633133943854
 30
0.0
 10
32.86162255169121
 20
0.7165999872809328
 30
0.0
 10
30.83045563206569
 20
1.49599134389223
 30
0.0
 10
28.79907061243211
 20
2.186984173703934
 30
0.0
 10
26.76726553205861
 20
2.744640999132455
 30
0.0
 10
24.73512147028054
 20
3.140110412986861
 30
0.0
 10
22.70277059102306
 20
3.33345980966793
 30
0.0
 10
21.08927875844086
 20
3.364265535953503
 30
0.0
 10
20.15325828157737
 20
3.261896556748185
 30
0.0
 10
19.8947244640895
 20
3.233621702040977
 30
0.0
  0
LINE
  5
CE
330
1F
100
AcDbEntity
  8
0
  6
Continuous
 62
     1
370
    15
100
AcDbLine
 10
73.5
 20
-4.76249999999999
 30
0.0
 11
73.5
 21
-4.519330889716931
 31
0.0
  0
SPLINE
  5
CF
330
1F
100
AcDbEntity
  8
0
  6
Continuous
 62
     1
370
    15
100
AcDbSpline
210
0.0
220
0.0
230
1.0
 70
     8
 71
     3
 72
     8
 73
     4
 74
     0
 42
0.000000001
 43
0.00000001
 40
0.0
 40
0.0
 40
0.0
 40
0.0
 40
1.0
 40
1.0
 40
1.0
 40
1.0
 10
70.55319177087807
 20
1.332157722516863
 30
0.0
 10
70.38341672496227
 20
1.533287874480713
 30
0.0
 10
70.23247175025962
 20
1.72622411545806
 30
0.0
 10
70.10438349322806
 20
1.909214249066987
 30
0.0
  0
LINE
  5
D0
330
1F
100
AcDbEntity
  8
0
  6
Continuous
 62
     1
370
    15
100
AcDbLine
 10
70.164566342815
 20
1.959713655970962
 30
0.0
 11
73.5
 21
0.0000000000000083
 31
0.0
  0
LINE
  5
D1
330
1F
100
AcDbEntity
  8
0
  6
Continuous
 62
     1
370
    15
100
AcDbLine
 10
73.5
 20
0.0000000000000083
 30
0.0
 11
73.5
 21
-1.272744530466176
 31
0.0
  0
SPLINE
  5
D2
330
1F
100
AcDbEntity
  8
0
  6
Continuous
 62
     1
370
    15
100
AcDbSpline
210
0.0
220
0.0
230
1.0
 70
     8
 71
     3
 72
    12
 73
     8
 74
     0
 42
0.000000001
 43
0.00000001
 40
0.0
 40
0.0
 40
0.0
 40
0.0
 40
0.5
 40
0.5
 40
0.75
 40
0.75
 40
1.0
 40
1.0
 40
1.0
 40
1.0
 10
73.5
 20
-1.272744530466176
 30
0.0
 10
72.98989851532632
 20
-0.8717186828896166
 30
0.0
 10
72.48831718328908
 20
-0.4542496700308813
 30
0.0
 10
71.7490539205915
 20
0.1972525864200632
 30
0.0
 10
71.50485565325278
 20
0.4187098580069664
 30
0.0
 10
71.02144649459788
 20
0.8712496099959988
 30
0.0
 10
70.78355473523948
 20
1.101157755784052
 30
0.0
 10
70.55319177087809
 20
1.332157722516859
 30
0.0
  0
SPLINE
  5
D3
330
1F
100
AcDbEntity
  8
0
  6
Continuous
 62
     1
370
    15
100
AcDbSpline
210
0.0
220
0.0
230
1.0
 70
     8
 71
     3
 72
    13
 73
     9
 74
     0
 42
0.000000001
 43
0.00000001
 40
0.0
 40
0.0
 40
0.0
 40
0.0
 40
0.1017883893919198
 40
0.2870551454028581
 40
0.4723442017499586
 40
0.6576450420276646
 40
0.8429471220610814
 40
1.0
 40
1.0
 40
1.0
 40
1.0
 10
70.55319177088958
 20
1.332157722511891
 30
0.0
 10
70.18126767634824
 20
1.490844643573624
 30
0.0
 10
69.13239829473031
 20
1.938360293158344
 30
0.0
 10
67.40512988696798
 20
2.591129514307644
 30
0.0
 10
65.37298627476035
 20
3.208878137544284
 30
0.0
 10
63.34055079779893
 20
3.625497710573811
 30
0.0
 10
61.41138465343376
 20
3.835528523926834
 30
0.0
 10
60.15970538190832
 20
3.790281181211617
 30
0.0
 10
59.58550650652519
 20
3.769524287738826
 30
0.0
  0
SPLINE
  5
D4
330
1F
100
AcDbEntity
  8
0
  6
Continuous
 62
     1
370
    15
100
AcDbSpline
210
0.0
220
0.0
230
1.0
 70
     8
 71
     3
 72
    22
 73
    18
 74
     0
 42
0.000000001
 43
0.00000001
 40
0.0
 40
0.0
 40
0.0
 40
0.0
 40
0.0210817354790305
 40
0.0949517047388197
 40
0.1688064096133697
 40
0.242647713549336
 40
0.3165034490732836
 40
0.3903742008934787
 40
0.4642558096584884
 40
0.5381440904944026
 40
0.612034842813242
 40
0.6859238602005119
 40
0.7598069403321357
 40
0.8336798948707614
 40
0.9075385592916003
 40
0.953795324119133
 40
1.0
 40
1.0
 40
1.0
 40
1.0
 10
37.50454566123851
 20
-3.558747580085439
 30
0.0
 10
37.31125473539925
 20
-3.59559328575416
 30
0.0
 10
36.44067636497818
 20
-3.761545589302874
 30
0.0
 10
34.89298860897205
 20
-3.836634039756054
 30
0.0
 10
32.86162197427321
 20
-3.763555715535537
 30
0.0
 10
30.83047026411276
 20
-3.447210339360177
 30
0.0
 10
28.79908391427553
 20
-2.927124412294219
 30
0.0
 10
26.76727803341557
 20
-2.229166231797781
 30
0.0
 10
24.73513279726316
 20
-1.39690195953219
 30
0.0
 10
22.7027804726144
 20
-0.4801830209974416
 30
0.0
 10
20.6703500066044
 20
0.4655007209657129
 30
0.0
 10
18.63797769586506
 20
1.383140063876721
 30
0.0
 10
16.60577487023649
 20
2.217005597821488
 30
0.0
 10
14.57394458416742
 20
2.917878386344674
 30
0.0
 10
12.79525913841895
 20
3.374353894870257
 30
0.0
 10
11.27079298051827
 20
3.646584185796334
 30
0.0
 10
10.42343853870552
 20
3.724738034784277
 30
0.0
 10
10.00000000000001
 20
3.763792944957248
 30
0.0
  0
SPLINE
  5
D5
330
1F
100
AcDbEntity
  8
0
  6
Continuous
 62
     1
370
    15
100
AcDbSpline
210
0.0
220
0.0
230
1.0
 70
    24
 71
     3
 72
    10
 73
     6
 74
     0
 42
0.000000001
 43
0.00000001
 40
0.0
 40
0.0
 40
0.0
 40
0.0
 40
0.5
 40
0.5
 40
1.0
 40
1.0
 40
1.0
 40
1.0
 10
73.5
 20
-3.757480409053628
 30
0.0
 10
73.5
 20
-3.469440240130618
 30
0.0
 10
73.50000000000001
 20
-3.105490442104555
 30
0.0
 10
73.49999999999999
 20
-2.259342187955109
 30
0.0
 10
73.5
 20
-1.777876697531857
 30
0.0
 10
73.5
 20
-1.272744530466328
 30
0.0
  0
SPLINE
  5
D6
330
1F
100
AcDbEntity
  8
외형선
  6
Continuous
370
    15
100
AcDbSpline
210
0.0
220
0.0
230
1.0
 70
    24
 71
     3
 72
    14
 73
    10
 74
     0
 42
0.000000001
 43
0.00000001
 40
0.0
 40
0.0
 40
0.0
 40
0.0
 40
0.2500000000000001
 40
0.2500000000000001
 40
0.5000000000000001
 40
0.5000000000000001
 40
0.7500000000000002
 40
0.7500000000000002
 40
1.0
 40
1.0
 40
1.0
 40
1.0
 10
10.0
 20
3.763792944957249
 30
0.0
 10
10.0
 20
3.665210462569616
 30
0.0
 10
10.0
 20
3.526663108111671
 30
0.0
 10
10.0
 20
3.171016559368792
 30
0.0
 10
10.0
 20
2.953928537283055
 30
0.0
 10
10.0
 20
2.454199293069281
 30
0.0
 10
10.0
 20
2.171702377577143
 30
0.0
 10
10.0
 20
1.563630374822782
 30
0.0
 10
10.0
 20
1.238265230109236
 30
0.0
 10
10.0
 20
0.9045173968416427
 30
0.0
  0
SPLINE
  5
D7
330
1F
100
AcDbEntity
  8
0
  6
Continuous
 62
     1
370
    15
100
AcDbSpline
210
0.0
220
0.0
230
1.0
 70
     8
 71
     3
 72
    23
 73
    19
 74
     0
 42
0.000000001
 43
0.00000001
 40
0.0
 40
0.0
 40
0.0
 40
0.0
 40
0.0024169806538925
 40
0.0707501179919487
 40
0.1390798230970647
 40
0.2074022146462547
 40
0.2757134285335277
 40
0.344009626910316
 40
0.4122985395846522
 40
0.4806031714394123
 40
0.548920788770355
 40
0.6172475386948992
 40
0.6855795468504102
 40
0.7539129264862252
 40
0.8222437876181005
 40
0.890568246198963
 40
0.9588824332597247
 40
1.0
 40
1.0
 40
1.0
 40
1.0
 10
63.41245017764774
 20
-3.578167238492573
 30
0.0
 10
63.38848716503165
 20
-3.58312983342416
 30
0.0
 10
62.68703927909155
 20
-3.728395446696925
 30
0.0
 10
61.30813591809313
 20
-3.816885212721031
 30
0.0
 10
59.27583151872678
 20
-3.807566103732431
 30
0.0
 10
57.24377297221388
 20
-3.544075585012016
 30
0.0
 10
55.21208921468723
 20
-3.073175895332701
 30
0.0
 10
53.1808029209432
 20
-2.415042246413893
 30
0.0
 10
51.14963222347158
 20
-1.611527412846397
 30
0.0
 10
49.11815455694956
 20
-0.7107063992659025
 30
0.0
 10
47.08625814515285
 20
0.2330697992318392
 30
0.0
 10
45.05405226549979
 20
1.162777878658245
 30
0.0
 10
43.02166985549439
 20
2.022499667607442
 30
0.0
 10
40.98924132885658
 20
2.75939829449817
 30
0.0
 10
38.95689687545109
 20
3.332356141633248
 30
0.0
 10
36.92477077013359
 20
3.694134217745031
 30
0.0
 10
35.16247106135452
 20
3.846765254066971
 30
0.0
 10
34.07759007090158
 20
3.781399645055418
 30
0.0
 10
33.66996006424639
 20
3.756839362525927
 30
0.0
  0
SPLINE
  5
D8
330
1F
100
AcDbEntity
  8
0
  6
Continuous
 62
     1
370
    15
100
AcDbSpline
210
0.0
220
0.0
230
1.0
 70
     8
 71
     3
 72
     9
 73
     5
 74
     0
 42
0.000000001
 43
0.00000001
 40
0.0
 40
0.0
 40
0.0
 40
0.0
 40
0.1982438740582483
 40
0.9999999999999999
 40
0.9999999999999999
 40
0.9999999999999999
 40
0.9999999999999999
 10
11.58450519521363
 20
-3.573625673336624
 30
0.0
 10
11.4797849207016
 20
-3.592569615707265
 30
0.0
 10
10.95154527138331
 20
-3.688128393806378
 30
0.0
 10
10.42342425784384
 20
-3.730123284269882
 30
0.0
 10
10.00000000000001
 20
-3.763792944957248
 30
0.0
  0
SPLINE
  5
D9
330
1F
100
AcDbEntity
  8
0
  6
Continuous
 62
     1
370
    15
100
AcDbSpline
210
0.0
220
0.0
230
1.0
 70
    24
 71
     3
 72
     8
 73
     4
 74
     0
 42
0.000000001
 43
0.00000001
 40
0.0
 40
0.0
 40
0.0
 40
0.0
 40
1.0
 40
1.0
 40
1.0
 40
1.0
 10
70.60116348196433
 20
2.326062154403917
 30
0.0
 10
70.44396695349188
 20
2.194158605340325
 30
0.0
 10
70.27783853855075
 20
2.054760313635454
 30
0.0
 10
70.10438349322263
 20
1.909214249074787
 30
0.0
  0
SPLINE
  5
DA
330
1F
100
AcDbEntity
  8
0
  6
Continuous
 62
     1
370
    15
100
AcDbSpline
210
0.0
220
0.0
230
1.0
 70
     8
 71
     3
 72
    10
 73
     6
 74
     0
 42
0.000000001
 43
0.00000001
 40
0.0
 40
0.0
 40
0.0
 40
0.0
 40
0.5000000000000001
 40
0.5000000000000001
 40
1.0
 40
1.0
 40
1.0
 40
1.0
 10
73.5
 20
3.333750000000008
 30
0.0
 10
73.01010084443064
 20
3.200858771186568
 30
0.0
 10
72.52319019078998
 20
3.051717186240105
 30
0.0
 10
71.5559060161254
 20
2.717887533311597
 30
0.0
 10
71.07548240013396
 20
2.533688937192345
 30
0.0
 10
70.60116348197356
 20
2.326062154408204
 30
0.0
  0
SPLINE
  5
DB
330
1F
100
AcDbEntity
  8
외형선
  6
Continuous
370
    15
100
AcDbSpline
210
0.0
220
0.0
230
1.0
 70
    24
 71
     3
 72
    14
 73
    10
 74
     0
 42
0.000000001
 43
0.00000001
 40
0.0
 40
0.0
 40
0.0
 40
0.0
 40
0.25
 40
0.25
 40
0.5
 40
0.5
 40
0.75
 40
0.75
 40
1.0
 40
1.0
 40
1.0
 40
1.0
 10
9.999999999999977
 20
-0.5176293725215592
 30
0.0
 10
9.999999999999977
 20
-0.9108965282503754
 30
0.0
 10
9.999999999999977
 20
-1.298071066344932
 30
0.0
 10
9.999999999999977
 20
-2.0191871627063
 30
0.0
 10
9.999999999999977
 20
-2.352674644072766
 30
0.0
 10
9.999999999999977
 20
-2.929611501393901
 30
0.0
 10
9.999999999999977
 20
-3.172753461270287
 30
0.0
 10
9.999999999999977
 20
-3.549623929532657
 30
0.0
 10
9.999999999999977
 20
-3.68338187257759
 30
0.0
 10
9.999999999999977
 20
-3.763792944957249
 30
0.0
  0
LINE
  5
DC
330
1F
100
AcDbEntity
  8
0
  6
Continuous
 62
     1
370
    15
100
AcDbLine
 10
73.5
 20
0.0000000000000083
 30
0.0
 11
73.5
 21
3.333750000000008
 31
0.0
  0
LINE
  5
DD
330
1F
100
AcDbEntity
  8
중심선
 48
0.8
100
AcDbLine
 10
-37.45
 20
-0.0000000000000048
 30
0.0
 11
76.5
 21
0.0000000000000096
 31
0.0
  0
LINE
  5
DE
330
1F
100
AcDbEntity
  8
참조1
100
AcDbLine
 10
24.37426131403117
 20
0.0010749287238892
 30
0.0
 11
24.37426131403118
 21
-39.99892507127611
 31
0.0
  0
LINE
  5
DF
330
1F
100
AcDbEntity
  8
참조1
100
AcDbLine
 10
24.37426131403118
 20
-39.99892507127611
 30
0.0
 11
-20.15080122126847
 21
-39.9989250712761
 31
0.0
  0
CIRCLE
  5
E0
330
1F
100
AcDbEntity
  8
해칭선
100
AcDbCircle
 10
0.0
 20
0.0
 30
0.0
 40
2.999999999999995
  0
INSERT
  5
E1
330
1F
100
AcDbEntity
  8
0
  6
Continuous
 62
     7
100
AcDbBlockReference
 66
     1
  2
블럭10
 10
5.5847270678748
 20
-52.04717430164393
 30
0.0
  0
ATTRIB
  5
E2
330
E1
100
AcDbEntity
  8
FORMAT
 62
     2
100
AcDbText
 10
-3.596568220866481
 20
-49.97180738881175
 30
0.0
 40
4.233333333333333
  1
E1072024 [ 2 FLUTE ]
 41
0.75
  7
SLDTEXTSTYLE0
 11
-3.596568220866481
 21
-52.08847405547841
 31
0.0
100
AcDbAttribute
  2
AUTOATTR0
 70
     0
 74
     1
  0
SEQEND
  5
E3
330
E1
100
AcDbEntity
  8
0
  6
Continuous
 62
     7
  0
HATCH
  5
E4
330
1F
100
AcDbEntity
  8
중심선
100
AcDbHatch
 10
0.0
 20
0.0
 30
0.0
210
0.0
220
0.0
230
1.0
  2
SOLID
 70
     1
 71
     0
 91
        1
 92
        0
 93
        4
 72
     1
 10
11.29963637225563
 20
-35.8
 11
7.853361128418351
 21
-35.8
 72
     1
 10
7.853361128418351
 20
-35.8
 11
5.725131269214328
 21
-38.3363255805726
 72
     1
 10
5.725131269214328
 20
-38.3363255805726
 11
9.17143959816476
 21
-38.33628615127011
 72
     1
 10
9.17143959816476
 20
-38.33628615127011
 11
11.29963637225563
 21
-35.8
 97
        0
 75
     0
 76
     1
 98
        1
 10
-4.849261314031168
 20
-0.0010749287238936
  0
HATCH
  5
E5
330
1F
100
AcDbEntity
  8
중심선
100
AcDbHatch
 10
0.0
 20
0.0
 30
0.0
210
0.0
220
0.0
230
1.0
  2
SOLID
 70
     1
 71
     0
 91
        1
 92
        0
 93
        4
 72
     1
 10
16.31240036329158
 20
-35.8
 11
12.86612511945433
 21
-35.79999999999998
 72
     1
 10
12.86612511945433
 20
-35.79999999999998
 11
8.334987111096913
 21
-41.20000000000002
 72
     1
 10
8.334987111096913
 20
-41.20000000000002
 11
11.7812623549342
 21
-41.20000000000002
 72
     1
 10
11.7812623549342
 20
-41.20000000000002
 11
16.31240036329158
 21
-35.8
 97
        0
 75
     0
 76
     1
 98
        1
 10
-4.849261314031168
 20
-0.0010749287238936
  0
HATCH
  5
E6
330
1F
100
AcDbEntity
  8
중심선
100
AcDbHatch
 10
0.0
 20
0.0
 30
0.0
210
0.0
220
0.0
230
1.0
  2
SOLID
 70
     1
 71
     0
 91
        1
 92
        0
 93
        4
 72
     1
 10
21.32516435432751
 20
-35.79999999999998
 11
17.87888911049039
 21
-35.79999999999998
 72
     1
 10
17.87888911049039
 20
-35.79999999999998
 11
10.83045220860111
 21
-44.20000000000002
 72
     1
 10
10.83045220860111
 20
-44.20000000000002
 11
14.2767274524384
 21
-44.20000000000002
 72
     1
 10
14.2767274524384
 20
-44.20000000000002
 11
21.32516435432751
 21
-35.79999999999998
 97
        0
 75
     0
 76
     1
 98
        1
 10
-4.849261314031168
 20
-0.0010749287238936
  0
HATCH
  5
E7
330
1F
100
AcDbEntity
  8
중심선
100
AcDbHatch
 10
0.0
 20
0.0
 30
0.0
210
0.0
220
0.0
230
1.0
  2
SOLID
 70
     1
 71
     0
 91
        1
 92
        0
 93
        6
 72
     3
 10
26.12505478533968
 20
-40.00000000005127
 11
3.960054785062283
 21
1.540882976769353E-10
 40
0.3939339440162628
 50
17.09539180608436
 51
320.0019657685075
 73
     0
 72
     1
 10
27.80805444104028
 20
-38.58789400463827
 11
30.11335631474131
 21
-36.65356729459038
 72
     3
 10
26.12505478528683
 20
-40.00000000000015
 11
6.600054785286833
 21
-1.278976924368180E-13
 40
0.6363583540795976
 50
39.99873849337411
 51
368.4976242363725
 73
     1
 72
     1
 10
32.55038727718744
 20
-39.03999999993002
 11
24.80512209212275
 21
-39.03999999993002
 72
     1
 10
24.80512209212275
 20
-39.03999999993002
 11
24.80509704767682
 21
-40.95999999992991
 72
     1
 10
24.80509704767682
 20
-40.95999999992991
 11
29.24647681714886
 21
-40.95999999992988
 97
        0
 75
     0
 76
     1
 98
        1
 10
-4.849261314031168
 20
-0.0010749287238936
  0
DIMENSION
  5
E8
330
1F
100
AcDbEntity
  8
치수문자_일반주서
100
AcDbDimension
  2
_D
 10
-46.94999999999998
 20
-4.762500000000053
 30
0.0
 11
-46.95
 21
0.0000000000000057
 31
0.0
 70
   160
  1
%%c<>
 71
     2
 42
9.525000000000006
 52
-270.0
  3
SLDDIMSTYLE0
100
AcDbAlignedDimension
 13
-33.44999999999999
 23
4.762500000000004
 33
0.0
 14
-33.44999999999999
 24
-4.762500000000002
 34
0.0
 50
90.0000000000002
100
AcDbRotatedDimension
1001
ACAD
1000
DSTYLE
1002
{
1070
   171
1070
     6
1070
   273
1070
     7
1002
}
  0
DIMENSION
  5
FD
330
1F
100
AcDbEntity
  8
치수문자_일반주서
100
AcDbDimension
  2
_D_1
 10
10.00000000000001
 20
17.93481653835412
 30
0.0
 11
41.75
 21
17.93481653835412
 31
0.0
 70
   160
  1
<>
 71
     2
 42
63.49999999999999
  3
SLDDIMSTYLE0
100
AcDbAlignedDimension
 13
73.5
 23
4.762500000000015
 33
0.0
 14
10.00000000000001
 24
3.763792944957248
 34
0.0
 50
0.0000000000000032
100
AcDbRotatedDimension
1001
ACAD
1000
DSTYLE
1002
{
1070
   171
1070
     6
1070
   273
1070
     7
1002
}
  0
DIMENSION
  5
112
330
1F
100
AcDbEntity
  8
치수문자_일반주서
100
AcDbDimension
  2
_D_2
 10
-34.44999999999999
 20
35.04486045510104
 30
0.0
 11
19.525
 21
35.04486045510104
 31
0.0
 70
   160
  1
<>
 71
     2
 42
107.95
  3
SLDDIMSTYLE0
100
AcDbAlignedDimension
 13
73.5
 23
4.762500000000009
 33
0.0
 14
-34.45
 24
3.762499999999997
 34
0.0
 50
0.0000000000000075
100
AcDbRotatedDimension
1001
ACAD
1000
DSTYLE
1002
{
1070
   171
1070
     6
1070
   273
1070
     7
1002
}
  0
DIMENSION
  5
126
330
1F
100
AcDbEntity
  8
치수문자_일반주서
100
AcDbDimension
  2
_D_3
 10
85.19618073548482
 20
4.762500000000056
 30
0.0
 11
85.19618073548476
 21
24.70622480753122
 31
0.0
 70
   160
  1
%%c<>
 71
     2
 42
9.525000000000006
 52
-270.0
  3
SLDDIMSTYLE0
100
AcDbAlignedDimension
 13
73.5
 23
-4.76249999999999
 33
0.0
 14
73.5
 24
4.762500000000015
 34
0.0
 50
90.0000000000002
100
AcDbRotatedDimension
1001
ACAD
1000
DSTYLE
1002
{
1070
   171
1070
     6
1070
   273
1070
     7
1002
}
  0
LINE
  5
139
330
1F
100
AcDbEntity
  8
참조1
100
AcDbLine
 10
77.82153940838579
 20
7.441074928723896
 30
0.0
 11
77.82153940838579
 21
-7.438925071276109
 31
0.0
  0
LINE
  5
13A
330
1F
100
AcDbEntity
  8
참조1
100
AcDbLine
 10
90.52153940838579
 20
5.441074928723896
 30
0.0
 11
77.82153940838579
 21
5.441074928723896
 31
0.0
  0
SOLID
  5
13B
330
1F
100
AcDbEntity
  8
참조1
100
AcDbTrace
 10
77.82153940838579
 20
5.441074928723896
 30
0.0
 11
84.17153940838578
 21
4.425074928723896
 31
0.0
 12
84.17153940838578
 22
6.457074928723896
 32
0.0
 13
84.17153940838578
 23
6.457074928723896
 33
0.0
  0
LINE
  5
13C
330
1F
100
AcDbEntity
  8
참조1
100
AcDbLine
 10
90.52153940838579
 20
-5.438925071276109
 30
0.0
 11
77.82153940838579
 21
-5.438925071276109
 31
0.0
  0
SOLID
  5
13D
330
1F
100
AcDbEntity
  8
참조1
100
AcDbTrace
 10
77.82153940838579
 20
-5.438925071276109
 30
0.0
 11
84.17153940838578
 21
-6.454925071276109
 31
0.0
 12
84.17153940838578
 22
-4.422925071276109
 32
0.0
 13
84.17153940838578
 23
-4.422925071276109
 33
0.0
  0
MTEXT
  5
13E
330
1F
100
AcDbEntity
  8
참조1
100
AcDbMText
 10
87.20588954101179
 20
11.01136670591222
 30
0.0
 40
3.5
 41
0.0
 71
     1
 72
     1
  1
A
  7
SLDTEXTSTYLE0
 73
     1
 44
1.0
  0
MTEXT
  5
13F
330
1F
100
AcDbEntity
  8
참조1
100
AcDbMText
 10
87.20588954101179
 20
0.1313667059122192
 30
0.0
 40
3.5
 41
0.0
 71
     1
 72
     1
  1
A
  7
SLDTEXTSTYLE0
 73
     1
 44
1.0
  0
INSERT
  5
146
330
1F
100
AcDbEntity
  8
해칭선
100
AcDbBlockReference
  2
SW_DOWELSYMBOL_0
 10
0.0
 20
0.0
 30
0.0
  0
ENDSEC
  0
SECTION
  2
OBJECTS
  0
DICTIONARY
  5
C
330
0
100
AcDbDictionary
281
     1
  3
ACAD_GROUP
350
D
  3
ACAD_IMAGE_VARS
350
16A
  3
ACAD_LAYOUT
350
1A
  3
ACAD_MLINESTYLE
350
17
  3
ACAD_PLOTSETTINGS
350
19
  3
ACAD_PLOTSTYLENAME
350
E
  3
ACAD_SCALELIST
350
47
  3
APPDATA
350
168
  3
DWGPROPS
350
1A1
  0
DICTIONARY
  5
191
330
2
100
AcDbDictionary
280
     1
281
     1
  3
ACAD_LAYERSTATES
360
192
  0
DICTIONARY
  5
D
102
{ACAD_REACTORS
330
C
102
}
330
C
100
AcDbDictionary
281
     1
  0
RASTERVARIABLES
  5
16A
102
{ACAD_REACTORS
330
C
102
}
330
C
100
AcDbRasterVariables
 90
        0
 70
     1
 71
     1
 72
     1
  0
DICTIONARY
  5
1A
102
{ACAD_REACTORS
330
C
102
}
330
C
100
AcDbDictionary
281
     1
  3
Layout1
350
1E
  3
Layout2
350
26
  3
Model
350
22
  0
DICTIONARY
  5
17
102
{ACAD_REACTORS
330
C
102
}
330
C
100
AcDbDictionary
281
     1
  3
Standard
350
18
  0
DICTIONARY
  5
19
102
{ACAD_REACTORS
330
C
102
}
330
C
100
AcDbDictionary
281
     1
  0
ACDBDICTIONARYWDFLT
  5
E
102
{ACAD_REACTORS
330
C
102
}
330
C
100
AcDbDictionary
281
     1
  3
Normal
350
F
100
AcDbDictionaryWithDefault
340
F
  0
DICTIONARY
  5
47
102
{ACAD_REACTORS
330
C
102
}
330
C
100
AcDbDictionary
281
     1
  3
A0
350
48
  3
A1
350
49
  3
A2
350
4A
  3
A3
350
4B
  3
A4
350
4C
  3
A5
350
4D
  3
A6
350
4E
  3
A7
350
4F
  3
A8
350
50
  3
A9
350
51
  3
B0
350
52
  3
B1
350
53
  3
B2
350
54
  3
B3
350
55
  3
B4
350
56
  3
B5
350
57
  3
B6
350
58
  3
B7
350
59
  3
B8
350
5A
  3
B9
350
5B
  3
C0
350
5C
  3
C1
350
5D
  3
C2
350
5E
  3
C3
350
5F
  3
C4
350
60
  3
C5
350
61
  3
C6
350
62
  3
C7
350
63
  3
C8
350
64
  3
C9
350
65
  3
D0
350
66
  3
D1
350
67
  3
D2
350
68
  0
DICTIONARY
  5
168
102
{ACAD_REACTORS
330
C
102
}
330
C
100
AcDbDictionary
281
     1
  0
XRECORD
  5
1A1
102
{ACAD_REACTORS
330
C
102
}
330
C
100
AcDbXrecord
280
     1
  1
DWGPROPS COOKIE
  2

  3

  4

  6

  7

  8
12017012
  9

300
=
301
=
302
=
303
=
304
=
305
=
306
=
307
=
308
=
309
=
 40
0.0
 41
2458311.092709421
 42
2458318.138387917
  1

 90
        0
  0
DICTIONARY
  5
192
102
{ACAD_REACTORS
330
191
102
}
330
191
100
AcDbDictionary
281
     1
  0
LAYOUT
  5
1E
102
{ACAD_REACTORS
330
1A
102
}
330
1A
100
AcDbPlotSettings
  1

  2
none_device
  4

  6

 40
0.0
 41
0.0
 42
0.0
 43
0.0
 44
0.0
 45
0.0
 46
0.0
 47
0.0
 48
0.0
 49
0.0
140
0.0
141
0.0
142
1.0
143
1.0
 70
   688
 72
     1
 73
     0
 74
     5
  7

 75
    16
147
1.0
148
0.0
149
0.0
100
AcDbLayout
  1
Layout1
 70
     1
 71
     1
 10
0.0
 20
0.0
 11
420.0
 21
297.0
 12
0.0
 22
0.0
 32
0.0
 14
1.000000000000000E+20
 24
1.000000000000000E+20
 34
1.000000000000000E+20
 15
-1.000000000000000E+20
 25
-1.000000000000000E+20
 35
-1.000000000000000E+20
146
0.0
 13
0.0
 23
0.0
 33
0.0
 16
1.0
 26
0.0
 36
0.0
 17
0.0
 27
1.0
 37
0.0
 76
     0
330
1B
  0
LAYOUT
  5
26
102
{ACAD_REACTORS
330
1A
102
}
330
1A
100
AcDbPlotSettings
  1

  2
none_device
  4

  6

 40
0.0
 41
0.0
 42
0.0
 43
0.0
 44
0.0
 45
0.0
 46
0.0
 47
0.0
 48
0.0
 49
0.0
140
0.0
141
0.0
142
1.0
143
1.0
 70
   688
 72
     1
 73
     0
 74
     5
  7

 75
    16
147
1.0
148
0.0
149
0.0
100
AcDbLayout
  1
Layout2
 70
     1
 71
     2
 10
0.0
 20
0.0
 11
0.0
 21
0.0
 12
0.0
 22
0.0
 32
0.0
 14
0.0
 24
0.0
 34
0.0
 15
0.0
 25
0.0
 35
0.0
146
0.0
 13
0.0
 23
0.0
 33
0.0
 16
1.0
 26
0.0
 36
0.0
 17
0.0
 27
1.0
 37
0.0
 76
     0
330
23
  0
LAYOUT
  5
22
102
{ACAD_REACTORS
330
1A
102
}
330
1A
100
AcDbPlotSettings
  1

  2
none_device
  4
ANSI_A_(11.00_x_8.50_Inches)
  6

 40
6.35
 41
19.05
 42
6.35000508
 43
19.05000254
 44
279.4
 45
215.9
 46
66.10598539460219
 47
88.40374134042129
 48
0.0
 49
0.0
140
0.0
141
0.0
142
0.0528910278577715
143
1.0
 70
  1696
 72
     0
 73
     0
 74
     0
  7

 75
     0
147
0.0235690232323232
148
0.0
149
0.0
100
AcDbLayout
  1
Model
 70
     1
 71
     0
 10
0.0
 20
0.0
 11
420.0
 21
297.0
 12
0.0
 22
0.0
 32
0.0
 14
1.000000000000000E+20
 24
1.000000000000000E+20
 34
1.000000000000000E+20
 15
-1.000000000000000E+20
 25
-1.000000000000000E+20
 35
-1.000000000000000E+20
146
0.0
 13
0.0
 23
0.0
 33
0.0
 16
1.0
 26
0.0
 36
0.0
 17
0.0
 27
1.0
 37
0.0
 76
     0
330
1F
331
29
  0
MLINESTYLE
  5
18
102
{ACAD_REACTORS
330
17
102
}
330
17
100
AcDbMlineStyle
  2
Standard
 70
     0
  3

 62
   256
 51
90.0
 52
90.0
 71
     2
 49
0.5
 62
   256
  6
BYLAYER
 49
-0.5
 62
   256
  6
BYLAYER
  0
ACDBPLACEHOLDER
  5
F
102
{ACAD_REACTORS
330
E
102
}
330
E
  0
SCALE
  5
48
102
{ACAD_REACTORS
330
47
102
}
330
47
100
AcDbScale
 70
     0
300
1:1
140
1.0
141
1.0
290
     1
  0
SCALE
  5
49
102
{ACAD_REACTORS
330
47
102
}
330
47
100
AcDbScale
 70
     0
300
1:2
140
1.0
141
2.0
290
     0
  0
SCALE
  5
4A
102
{ACAD_REACTORS
330
47
102
}
330
47
100
AcDbScale
 70
     0
300
1:4
140
1.0
141
4.0
290
     0
  0
SCALE
  5
4B
102
{ACAD_REACTORS
330
47
102
}
330
47
100
AcDbScale
 70
     0
300
1:5
140
1.0
141
5.0
290
     0
  0
SCALE
  5
4C
102
{ACAD_REACTORS
330
47
102
}
330
47
100
AcDbScale
 70
     0
300
1:8
140
1.0
141
8.0
290
     0
  0
SCALE
  5
4D
102
{ACAD_REACTORS
330
47
102
}
330
47
100
AcDbScale
 70
     0
300
1:10
140
1.0
141
10.0
290
     0
  0
SCALE
  5
4E
102
{ACAD_REACTORS
330
47
102
}
330
47
100
AcDbScale
 70
     0
300
1:16
140
1.0
141
16.0
290
     0
  0
SCALE
  5
4F
102
{ACAD_REACTORS
330
47
102
}
330
47
100
AcDbScale
 70
     0
300
1:20
140
1.0
141
20.0
290
     0
  0
SCALE
  5
50
102
{ACAD_REACTORS
330
47
102
}
330
47
100
AcDbScale
 70
     0
300
1:30
140
1.0
141
30.0
290
     0
  0
SCALE
  5
51
102
{ACAD_REACTORS
330
47
102
}
330
47
100
AcDbScale
 70
     0
300
1:40
140
1.0
141
40.0
290
     0
  0
SCALE
  5
52
102
{ACAD_REACTORS
330
47
102
}
330
47
100
AcDbScale
 70
     0
300
1:50
140
1.0
141
50.0
290
     0
  0
SCALE
  5
53
102
{ACAD_REACTORS
330
47
102
}
330
47
100
AcDbScale
 70
     0
300
1:100
140
1.0
141
100.0
290
     0
  0
SCALE
  5
54
102
{ACAD_REACTORS
330
47
102
}
330
47
100
AcDbScale
 70
     0
300
2:1
140
2.0
141
1.0
290
     0
  0
SCALE
  5
55
102
{ACAD_REACTORS
330
47
102
}
330
47
100
AcDbScale
 70
     0
300
4:1
140
4.0
141
1.0
290
     0
  0
SCALE
  5
56
102
{ACAD_REACTORS
330
47
102
}
330
47
100
AcDbScale
 70
     0
300
8:1
140
8.0
141
1.0
290
     0
  0
SCALE
  5
57
102
{ACAD_REACTORS
330
47
102
}
330
47
100
AcDbScale
 70
     0
300
10:1
140
10.0
141
1.0
290
     0
  0
SCALE
  5
58
102
{ACAD_REACTORS
330
47
102
}
330
47
100
AcDbScale
 70
     0
300
100:1
140
100.0
141
1.0
290
     0
  0
SCALE
  5
59
102
{ACAD_REACTORS
330
47
102
}
330
47
100
AcDbScale
 70
     0
300
1/128" = 1'-0"
140
0.0078125
141
12.0
290
     0
  0
SCALE
  5
5A
102
{ACAD_REACTORS
330
47
102
}
330
47
100
AcDbScale
 70
     0
300
1/64" = 1'-0"
140
0.015625
141
12.0
290
     0
  0
SCALE
  5
5B
102
{ACAD_REACTORS
330
47
102
}
330
47
100
AcDbScale
 70
     0
300
1/32" = 1'-0"
140
0.03125
141
12.0
290
     0
  0
SCALE
  5
5C
102
{ACAD_REACTORS
330
47
102
}
330
47
100
AcDbScale
 70
     0
300
1/16" = 1'-0"
140
0.0625
141
12.0
290
     0
  0
SCALE
  5
5D
102
{ACAD_REACTORS
330
47
102
}
330
47
100
AcDbScale
 70
     0
300
3/32" = 1'-0"
140
0.09375
141
12.0
290
     0
  0
SCALE
  5
5E
102
{ACAD_REACTORS
330
47
102
}
330
47
100
AcDbScale
 70
     0
300
1/8" = 1'-0"
140
0.125
141
12.0
290
     0
  0
SCALE
  5
5F
102
{ACAD_REACTORS
330
47
102
}
330
47
100
AcDbScale
 70
     0
300
3/16" = 1'-0"
140
0.1875
141
12.0
290
     0
  0
SCALE
  5
60
102
{ACAD_REACTORS
330
47
102
}
330
47
100
AcDbScale
 70
     0
300
1/4" = 1'-0"
140
0.25
141
12.0
290
     0
  0
SCALE
  5
61
102
{ACAD_REACTORS
330
47
102
}
330
47
100
AcDbScale
 70
     0
300
3/8" = 1'-0"
140
0.375
141
12.0
290
     0
  0
SCALE
  5
62
102
{ACAD_REACTORS
330
47
102
}
330
47
100
AcDbScale
 70
     0
300
1/2" = 1'-0"
140
0.5
141
12.0
290
     0
  0
SCALE
  5
63
102
{ACAD_REACTORS
330
47
102
}
330
47
100
AcDbScale
 70
     0
300
3/4" = 1'-0"
140
0.75
141
12.0
290
     0
  0
SCALE
  5
64
102
{ACAD_REACTORS
330
47
102
}
330
47
100
AcDbScale
 70
     0
300
1" = 1'-0"
140
1.0
141
12.0
290
     0
  0
SCALE
  5
65
102
{ACAD_REACTORS
330
47
102
}
330
47
100
AcDbScale
 70
     0
300
1-1/2" = 1'-0"
140
1.5
141
12.0
290
     0
  0
SCALE
  5
66
102
{ACAD_REACTORS
330
47
102
}
330
47
100
AcDbScale
 70
     0
300
3" = 1'-0"
140
3.0
141
12.0
290
     0
  0
SCALE
  5
67
102
{ACAD_REACTORS
330
47
102
}
330
47
100
AcDbScale
 70
     0
300
6" = 1'-0"
140
6.0
141
12.0
290
     0
  0
SCALE
  5
68
102
{ACAD_REACTORS
330
47
102
}
330
47
100
AcDbScale
 70
     0
300
1'-0" = 1'-0"
140
12.0
141
12.0
290
     0
  0
ENDSEC
  0
EOF
