  0
SECTION
  2
HEADER
  9
$ACADVER
  1
AC1015
  9
$ACADMAINTVER
 70
     6
  9
$DWGCODEPAGE
  3
ANSI_949
  9
$INSBASE
 10
0.0
 20
0.0
 30
0.0
  9
$EXTMIN
 10
1.000000000000000E+20
 20
1.000000000000000E+20
 30
1.000000000000000E+20
  9
$EXTMAX
 10
-1.000000000000000E+20
 20
-1.000000000000000E+20
 30
-1.000000000000000E+20
  9
$LIMMIN
 10
0.0
 20
0.0
  9
$LIMMAX
 10
420.0
 20
297.0
  9
$ORTHOMODE
 70
     0
  9
$REGENMODE
 70
     1
  9
$FILLMODE
 70
     1
  9
$QTEXTMODE
 70
     0
  9
$MIRRTEXT
 70
     1
  9
$LTSCALE
 40
1.0
  9
$ATTMODE
 70
     1
  9
$TEXTSIZE
 40
3.5
  9
$TRACEWID
 40
1.0
  9
$TEXTSTYLE
  7
Standard
  9
$CLAYER
  8
0
  9
$CELTYPE
  6
ByLayer
  9
$CECOLOR
 62
   256
  9
$CELTSCALE
 40
1.0
  9
$DISPSILH
 70
     0
  9
$DIMSCALE
 40
1.0
  9
$DIMASZ
 40
3.302
  9
$DIMEXO
 40
1.0
  9
$DIMDLI
 40
3.75
  9
$DIMRND
 40
0.0
  9
$DIMDLE
 40
0.0
  9
$DIMEXE
 40
1.0
  9
$DIMTP
 40
0.0
  9
$DIMTM
 40
0.0
  9
$DIMTXT
 40
3.5
  9
$DIMCEN
 40
2.5
  9
$DIMTSZ
 40
0.0
  9
$DIMTOL
 70
     0
  9
$DIMLIM
 70
     0
  9
$DIMTIH
 70
     1
  9
$DIMTOH
 70
     1
  9
$DIMSE1
 70
     0
  9
$DIMSE2
 70
     0
  9
$DIMTAD
 70
     1
  9
$DIMZIN
 70
     0
  9
$DIMBLK
  1

  9
$DIMASO
 70
     1
  9
$DIMSHO
 70
     1
  9
$DIMPOST
  1

  9
$DIMAPOST
  1

  9
$DIMALT
 70
     0
  9
$DIMALTD
 70
     3
  9
$DIMALTF
 40
0.0393700787401575
  9
$DIMLFAC
 40
1.0
  9
$DIMTOFL
 70
     1
  9
$DIMTVP
 40
0.0
  9
$DIMTIX
 70
     0
  9
$DIMSOXD
 70
     0
  9
$DIMSAH
 70
     0
  9
$DIMBLK1
  1

  9
$DIMBLK2
  1

  9
$DIMSTYLE
  2
ISO-25
  9
$DIMCLRD
 70
     0
  9
$DIMCLRE
 70
     0
  9
$DIMCLRT
 70
     0
  9
$DIMTFAC
 40
1.0
  9
$DIMGAP
 40
1.524
  9
$DIMJUST
 70
     0
  9
$DIMSD1
 70
     0
  9
$DIMSD2
 70
     0
  9
$DIMTOLJ
 70
     0
  9
$DIMTZIN
 70
     0
  9
$DIMALTZ
 70
     0
  9
$DIMALTTZ
 70
     0
  9
$DIMUPT
 70
     0
  9
$DIMDEC
 70
     2
  9
$DIMTDEC
 70
     2
  9
$DIMALTU
 70
     2
  9
$DIMALTTD
 70
     3
  9
$DIMTXSTY
  7
Standard
  9
$DIMAUNIT
 70
     0
  9
$DIMADEC
 70
     2
  9
$DIMALTRND
 40
0.0
  9
$DIMAZIN
 70
     0
  9
$DIMDSEP
 70
    44
  9
$DIMATFIT
 70
     3
  9
$DIMFRAC
 70
     0
  9
$DIMLDRBLK
  1

  9
$DIMLUNIT
 70
     2
  9
$DIMLWD
 70
    -2
  9
$DIMLWE
 70
    -2
  9
$DIMTMOVE
 70
     0
  9
$LUNITS
 70
     2
  9
$LUPREC
 70
     2
  9
$SKETCHINC
 40
1.0
  9
$FILLETRAD
 40
10.0
  9
$AUNITS
 70
     0
  9
$AUPREC
 70
     2
  9
$MENU
  1
.
  9
$ELEVATION
 40
0.0
  9
$PELEVATION
 40
0.0
  9
$THICKNESS
 40
0.0
  9
$LIMCHECK
 70
     0
  9
$CHAMFERA
 40
0.0
  9
$CHAMFERB
 40
0.0
  9
$CHAMFERC
 40
0.0
  9
$CHAMFERD
 40
0.0
  9
$SKPOLY
 70
     0
  9
$TDCREATE
 40
2458311.467497431
  9
$TDUCREATE
 40
2458311.092497431
  9
$TDUPDATE
 40
2458318.69592919
  9
$TDUUPDATE
 40
2458318.32092919
  9
$TDINDWG
 40
0.001189537
  9
$TDUSRTIMER
 40
2458318.320757419
  9
$USRTIMER
 70
     1
  9
$ANGBASE
 50
0.0
  9
$ANGDIR
 70
     0
  9
$PDMODE
 70
     0
  9
$PDSIZE
 40
-1.0
  9
$PLINEWID
 40
0.0
  9
$SPLFRAME
 70
     0
  9
$SPLINETYPE
 70
     6
  9
$SPLINESEGS
 70
     8
  9
$HANDSEED
  5
205
  9
$SURFTAB1
 70
     6
  9
$SURFTAB2
 70
     6
  9
$SURFTYPE
 70
     6
  9
$SURFU
 70
     6
  9
$SURFV
 70
     6
  9
$UCSBASE
  2

  9
$UCSNAME
  2

  9
$UCSORG
 10
0.0
 20
0.0
 30
0.0
  9
$UCSXDIR
 10
1.0
 20
0.0
 30
0.0
  9
$UCSYDIR
 10
0.0
 20
1.0
 30
0.0
  9
$UCSORTHOREF
  2

  9
$UCSORTHOVIEW
 70
     0
  9
$UCSORGTOP
 10
0.0
 20
0.0
 30
0.0
  9
$UCSORGBOTTOM
 10
0.0
 20
0.0
 30
0.0
  9
$UCSORGLEFT
 10
0.0
 20
0.0
 30
0.0
  9
$UCSORGRIGHT
 10
0.0
 20
0.0
 30
0.0
  9
$UCSORGFRONT
 10
0.0
 20
0.0
 30
0.0
  9
$UCSORGBACK
 10
0.0
 20
0.0
 30
0.0
  9
$PUCSBASE
  2

  9
$PUCSNAME
  2

  9
$PUCSORG
 10
0.0
 20
0.0
 30
0.0
  9
$PUCSXDIR
 10
1.0
 20
0.0
 30
0.0
  9
$PUCSYDIR
 10
0.0
 20
1.0
 30
0.0
  9
$PUCSORTHOREF
  2

  9
$PUCSORTHOVIEW
 70
     0
  9
$PUCSORGTOP
 10
0.0
 20
0.0
 30
0.0
  9
$PUCSORGBOTTOM
 10
0.0
 20
0.0
 30
0.0
  9
$PUCSORGLEFT
 10
0.0
 20
0.0
 30
0.0
  9
$PUCSORGRIGHT
 10
0.0
 20
0.0
 30
0.0
  9
$PUCSORGFRONT
 10
0.0
 20
0.0
 30
0.0
  9
$PUCSORGBACK
 10
0.0
 20
0.0
 30
0.0
  9
$USERI1
 70
     0
  9
$USERI2
 70
     0
  9
$USERI3
 70
     0
  9
$USERI4
 70
     0
  9
$USERI5
 70
     0
  9
$USERR1
 40
0.0
  9
$USERR2
 40
0.0
  9
$USERR3
 40
0.0
  9
$USERR4
 40
0.0
  9
$USERR5
 40
0.0
  9
$WORLDVIEW
 70
     1
  9
$SHADEDGE
 70
     3
  9
$SHADEDIF
 70
    70
  9
$TILEMODE
 70
     1
  9
$MAXACTVP
 70
    64
  9
$PINSBASE
 10
0.0
 20
0.0
 30
0.0
  9
$PLIMCHECK
 70
     0
  9
$PEXTMIN
 10
1.000000000000000E+20
 20
1.000000000000000E+20
 30
1.000000000000000E+20
  9
$PEXTMAX
 10
-1.000000000000000E+20
 20
-1.000000000000000E+20
 30
-1.000000000000000E+20
  9
$PLIMMIN
 10
0.0
 20
0.0
  9
$PLIMMAX
 10
0.0
 20
0.0
  9
$UNITMODE
 70
     0
  9
$VISRETAIN
 70
     1
  9
$PLINEGEN
 70
     0
  9
$PSLTSCALE
 70
     1
  9
$TREEDEPTH
 70
  3020
  9
$CMLSTYLE
  2
Standard
  9
$CMLJUST
 70
     0
  9
$CMLSCALE
 40
20.0
  9
$PROXYGRAPHICS
 70
     1
  9
$MEASUREMENT
 70
     1
  9
$CELWEIGHT
370
    -1
  9
$ENDCAPS
280
     0
  9
$JOINSTYLE
280
     0
  9
$LWDISPLAY
290
     1
  9
$INSUNITS
 70
     4
  9
$HYPERLINKBASE
  1

  9
$STYLESHEET
  1

  9
$XEDIT
290
     1
  9
$CEPSNTYPE
380
     0
  9
$PSTYLEMODE
290
     1
  9
$FINGERPRINTGUID
  2
{E2ACC4D0-B449-424B-A2ED-1E16ABF9A9A9}
  9
$VERSIONGUID
  2
{FAEB1C32-E019-11D5-929B-00C0DF256EC4}
  9
$EXTNAMES
290
     1
  9
$PSVPSCALE
 40
0.0
  9
$OLESTARTUP
290
     0
  0
ENDSEC
  0
SECTION
  2
CLASSES
  0
CLASS
  1
ACDBDICTIONARYWDFLT
  2
AcDbDictionaryWithDefault
  3
ObjectDBX Classes
 90
        0
280
     0
281
     0
  0
CLASS
  1
VISUALSTYLE
  2
AcDbVisualStyle
  3
ObjectDBX Classes
 90
     4095
280
     0
281
     0
  0
CLASS
  1
MATERIAL
  2
AcDbMaterial
  3
ObjectDBX Classes
 90
     1153
280
     0
281
     0
  0
CLASS
  1
SCALE
  2
AcDbScale
  3
ObjectDBX Classes
 90
     1153
280
     0
281
     0
  0
CLASS
  1
SUN
  2
AcDbSun
  3
SCENEOE
 90
     1153
280
     0
281
     0
  0
CLASS
  1
ACDBPLACEHOLDER
  2
AcDbPlaceHolder
  3
ObjectDBX Classes
 90
        0
280
     0
281
     0
  0
CLASS
  1
LAYOUT
  2
AcDbLayout
  3
ObjectDBX Classes
 90
        0
280
     0
281
     0
  0
CLASS
  1
TABLESTYLE
  2
AcDbTableStyle
  3
ObjectDBX Classes
 90
     4095
280
     0
281
     0
  0
CLASS
  1
MLEADERSTYLE
  2
AcDbMLeaderStyle
  3
ACDB_MLEADERSTYLE_CLASS
 90
     4095
280
     0
281
     0
  0
CLASS
  1
RASTERVARIABLES
  2
AcDbRasterVariables
  3
ISM
 90
        0
280
     0
281
     0
  0
ENDSEC
  0
SECTION
  2
TABLES
  0
TABLE
  2
VPORT
  5
8
330
0
100
AcDbSymbolTable
 70
     1
  0
VPORT
  5
29
330
8
100
AcDbSymbolTableRecord
100
AcDbViewportTableRecord
  2
*Active
 70
     0
 10
0.0
 20
0.0
 11
1.0
 21
1.0
 12
-0.2638561218298818
 22
-15.77022615654779
 13
0.0
 23
0.0
 14
10.0
 24
10.0
 15
10.0
 25
10.0
 16
0.0
 26
0.0
 36
1.0
 17
0.0
 27
0.0
 37
0.0
 40
140.6519953289095
 41
1.740812379110251
 42
50.0
 43
0.0
 44
0.0
 50
0.0
 51
0.0
 71
    16
 72
  2000
 73
     1
 74
     3
 75
     0
 76
     0
 77
     0
 78
     0
281
     0
 65
     1
110
0.0
120
0.0
130
0.0
111
1.0
121
0.0
131
0.0
112
0.0
122
1.0
132
0.0
 79
     0
146
0.0
  0
ENDTAB
  0
TABLE
  2
LTYPE
  5
5
330
0
100
AcDbSymbolTable
 70
     6
  0
LTYPE
  5
14
330
5
100
AcDbSymbolTableRecord
100
AcDbLinetypeTableRecord
  2
ByBlock
 70
     0
  3

 72
    65
 73
     0
 40
0.0
  0
LTYPE
  5
15
330
5
100
AcDbSymbolTableRecord
100
AcDbLinetypeTableRecord
  2
ByLayer
 70
     0
  3

 72
    65
 73
     0
 40
0.0
  0
LTYPE
  5
16
330
5
100
AcDbSymbolTableRecord
100
AcDbLinetypeTableRecord
  2
Continuous
 70
     0
  3
Solid line
 72
    65
 73
     0
 40
0.0
  0
LTYPE
  5
6A
330
5
100
AcDbSymbolTableRecord
100
AcDbLinetypeTableRecord
  2
HIDDEN
 70
     0
  3
Hidden __ __ __ __ __ __ __ __ __ __ __ __ __ __
 72
    65
 73
     2
 40
1.905
 49
1.27
 74
     0
 49
-0.635
 74
     0
  0
LTYPE
  5
6B
330
5
100
AcDbSymbolTableRecord
100
AcDbLinetypeTableRecord
  2
PHANTOM
 70
     0
  3
Phantom ______  __  __  ______  __  __  ______
 72
    65
 73
     6
 40
12.7
 49
6.35
 74
     0
 49
-1.27
 74
     0
 49
1.27
 74
     0
 49
-1.27
 74
     0
 49
1.27
 74
     0
 49
-1.27
 74
     0
  0
LTYPE
  5
6C
330
5
100
AcDbSymbolTableRecord
100
AcDbLinetypeTableRecord
  2
CENTER
 70
     0
  3
Center ____ _ ____ _ ____ _ ____ _ ____ _ ____
 72
    65
 73
     4
 40
10.16
 49
6.35
 74
     0
 49
-1.27
 74
     0
 49
1.27
 74
     0
 49
-1.27
 74
     0
  0
LTYPE
  5
6D
330
5
100
AcDbSymbolTableRecord
100
AcDbLinetypeTableRecord
  2
CENTERX2
 70
     0
  3
Center (2x) ________  __  ________  __  _____
 72
    65
 73
     4
 40
20.32
 49
12.7
 74
     0
 49
-2.54
 74
     0
 49
2.54
 74
     0
 49
-2.54
 74
     0
  0
LTYPE
  5
6E
330
5
100
AcDbSymbolTableRecord
100
AcDbLinetypeTableRecord
  2
DOT2
 70
     0
  3
Dot (.5x) ........................................
 72
    65
 73
     2
 40
0.635
 49
0.0
 74
     0
 49
-0.635
 74
     0
  0
ENDTAB
  0
TABLE
  2
LAYER
  5
2
102
{ACAD_XDICTIONARY
360
196
102
}
330
0
100
AcDbSymbolTable
 70
    18
  0
LAYER
  5
10
330
2
100
AcDbSymbolTableRecord
100
AcDbLayerTableRecord
  2
0
 70
     0
 62
     7
  6
Continuous
370
    -3
390
F
  0
LAYER
  5
6F
330
2
100
AcDbSymbolTableRecord
100
AcDbLayerTableRecord
  2
FORMAT
 70
     0
 62
     2
  6
Continuous
370
    -3
390
F
  0
LAYER
  5
70
330
2
100
AcDbSymbolTableRecord
100
AcDbLayerTableRecord
  2
외형선
 70
     0
 62
     4
  6
Continuous
370
    30
390
F
  0
LAYER
  5
71
330
2
100
AcDbSymbolTableRecord
100
AcDbLayerTableRecord
  2
숨은선
 70
     0
 62
     2
  6
HIDDEN
370
    15
390
F
  0
LAYER
  5
72
330
2
100
AcDbSymbolTableRecord
100
AcDbLayerTableRecord
  2
중심선
 70
     0
 62
     1
  6
CENTERX2
370
    -3
390
F
  0
LAYER
  5
73
330
2
100
AcDbSymbolTableRecord
100
AcDbLayerTableRecord
  2
파단선
 70
     0
 62
     4
  6
Continuous
370
    -3
390
F
  0
LAYER
  5
74
330
2
100
AcDbSymbolTableRecord
100
AcDbLayerTableRecord
  2
해칭선
 70
     0
 62
   100
  6
Continuous
370
    -3
390
F
  0
LAYER
  5
75
330
2
100
AcDbSymbolTableRecord
100
AcDbLayerTableRecord
  2
가는실선
 70
     0
 62
     4
  6
Continuous
370
    -3
390
F
  0
LAYER
  5
76
330
2
100
AcDbSymbolTableRecord
100
AcDbLayerTableRecord
  2
치수_보조선
 70
     0
 62
     4
  6
Continuous
370
    -3
390
F
  0
LAYER
  5
77
330
2
100
AcDbSymbolTableRecord
100
AcDbLayerTableRecord
  2
치수문자_일반주서
 70
     0
 62
     7
  6
Continuous
370
    15
390
F
  0
LAYER
  5
78
330
2
100
AcDbSymbolTableRecord
100
AcDbLayerTableRecord
  2
개별주서
 70
     0
 62
   100
  6
Continuous
370
    30
390
F
  0
LAYER
  5
79
330
2
100
AcDbSymbolTableRecord
100
AcDbLayerTableRecord
  2
중간선
 70
     0
 62
     2
  6
Continuous
370
    15
390
F
  0
LAYER
  5
7A
330
2
100
AcDbSymbolTableRecord
100
AcDbLayerTableRecord
  2
윤곽선
 70
     0
 62
     3
  6
Continuous
370
    40
390
F
  0
LAYER
  5
7B
330
2
100
AcDbSymbolTableRecord
100
AcDbLayerTableRecord
  2
중심마크
 70
     0
 62
   100
  6
Continuous
370
    30
390
F
  0
LAYER
  5
7C
330
2
100
AcDbSymbolTableRecord
100
AcDbLayerTableRecord
  2
가상선
 70
     0
 62
     4
  6
PHANTOM
370
    -3
390
F
  0
LAYER
  5
7D
330
2
100
AcDbSymbolTableRecord
100
AcDbLayerTableRecord
  2
특수지정선
 70
     0
 62
     5
  6
CENTERX2
370
    60
390
F
  0
LAYER
  5
7E
330
2
100
AcDbSymbolTableRecord
100
AcDbLayerTableRecord
  2
참조1
 70
     0
 62
    -4
  6
Continuous
370
    -3
390
F
  0
LAYER
  5
19D
330
2
100
AcDbSymbolTableRecord
100
AcDbLayerTableRecord
  2
Defpoints
 70
     0
 62
     7
  6
Continuous
290
     0
370
    -3
390
F
  0
ENDTAB
  0
TABLE
  2
STYLE
  5
3
330
0
100
AcDbSymbolTable
 70
     2
  0
STYLE
  5
11
330
3
100
AcDbSymbolTableRecord
100
AcDbTextStyleTableRecord
  2
Standard
 70
     0
 40
0.0
 41
1.0
 50
0.0
 71
     0
 42
3.5
  3
txt
  4

  0
STYLE
  5
94
330
3
100
AcDbSymbolTableRecord
100
AcDbTextStyleTableRecord
  2
SLDTEXTSTYLE0
 70
     0
 40
0.0
 41
0.75
 50
0.0
 71
     0
 42
3.5
  3
TXT
  4

  0
ENDTAB
  0
TABLE
  2
VIEW
  5
6
330
0
100
AcDbSymbolTable
 70
     0
  0
ENDTAB
  0
TABLE
  2
UCS
  5
7
330
0
100
AcDbSymbolTable
 70
     0
  0
ENDTAB
  0
TABLE
  2
APPID
  5
9
330
0
100
AcDbSymbolTable
 70
     1
  0
APPID
  5
12
330
9
100
AcDbSymbolTableRecord
100
AcDbRegAppTableRecord
  2
ACAD
 70
     0
  0
ENDTAB
  0
TABLE
  2
DIMSTYLE
  5
A
330
0
100
AcDbSymbolTable
 70
     4
100
AcDbDimStyleTable
  0
DIMSTYLE
105
27
330
A
100
AcDbSymbolTableRecord
100
AcDbDimStyleTableRecord
  2
ISO-25
 70
     0
 41
2.5
 42
0.625
 43
3.75
 44
1.25
 73
     0
 74
     0
 77
     1
 78
     8
140
2.5
141
2.5
143
0.03937007874016
147
0.625
171
     3
172
     1
178
     0
271
     2
272
     2
274
     3
278
    44
283
     0
284
     8
340
11
  0
DIMSTYLE
105
EE
102
{ACAD_REACTORS
330
ED
330
102
330
117
330
12B
102
}
330
A
100
AcDbSymbolTableRecord
100
AcDbDimStyleTableRecord
  2
SLDDIMSTYLE0
 70
     0
 41
3.302
 44
0.0
 45
0.000000001
 73
     0
 74
     0
 77
     1
 78
    12
 79
     3
140
3.5
143
0.0393700787401575
147
0.875
148
0.000000001
170
     1
172
     1
173
     1
178
     0
271
     2
272
     2
276
     2
284
    12
289
     0
340
94
  0
DIMSTYLE
105
103
330
A
100
AcDbSymbolTableRecord
100
AcDbDimStyleTableRecord
  2
SLDDIMSTYLE1
 70
     0
 41
3.302
 44
0.0
 45
0.000000001
 73
     0
 74
     0
 77
     1
 78
     4
 79
     1
140
3.5
143
0.0393700787401575
147
0.875
148
0.000000001
170
     1
173
     1
178
     0
271
     2
272
     2
276
     2
284
    12
340
94
  0
DIMSTYLE
105
118
330
A
100
AcDbSymbolTableRecord
100
AcDbDimStyleTableRecord
  2
SLDDIMSTYLE2
 70
     0
 41
3.302
 44
0.0
 45
0.000000001
 73
     0
 74
     0
 77
     1
 78
    12
 79
     3
140
3.5
143
0.0393700787401575
147
0.875
148
0.000000001
170
     1
173
     1
178
     0
271
     2
272
     2
276
     2
284
    12
340
94
  0
ENDTAB
  0
TABLE
  2
BLOCK_RECORD
  5
1
330
0
100
AcDbSymbolTable
 70
     8
  0
BLOCK_RECORD
  5
1F
330
1
100
AcDbSymbolTableRecord
100
AcDbBlockTableRecord
  2
*Model_Space
340
22
  0
BLOCK_RECORD
  5
1B
330
1
100
AcDbSymbolTableRecord
100
AcDbBlockTableRecord
  2
*Paper_Space
340
1E
  0
BLOCK_RECORD
  5
23
330
1
100
AcDbSymbolTableRecord
100
AcDbBlockTableRecord
  2
*Paper_Space0
340
26
  0
BLOCK_RECORD
  5
7F
330
1
100
AcDbSymbolTableRecord
100
AcDbBlockTableRecord
  2
블럭10
340
0
102
{BLKREFS
331
E6
102
}
  0
BLOCK_RECORD
  5
EF
330
1
100
AcDbSymbolTableRecord
100
AcDbBlockTableRecord
  2
_D
340
0
  0
BLOCK_RECORD
  5
104
330
1
100
AcDbSymbolTableRecord
100
AcDbBlockTableRecord
  2
_D_1
340
0
  0
BLOCK_RECORD
  5
119
330
1
100
AcDbSymbolTableRecord
100
AcDbBlockTableRecord
  2
_D_2
340
0
  0
BLOCK_RECORD
  5
12C
330
1
100
AcDbSymbolTableRecord
100
AcDbBlockTableRecord
  2
_D_3
340
0
  0
BLOCK_RECORD
  5
145
330
1
100
AcDbSymbolTableRecord
100
AcDbBlockTableRecord
  2
SW_DOWELSYMBOL_0
340
0
102
{BLKREFS
331
14B
102
}
  0
ENDTAB
  0
ENDSEC
  0
SECTION
  2
BLOCKS
  0
BLOCK
  5
20
330
1F
100
AcDbEntity
  8
0
100
AcDbBlockBegin
  2
*Model_Space
 70
     0
 10
0.0
 20
0.0
 30
0.0
  3
*Model_Space
  1
*Model_Space
  0
ENDBLK
  5
21
330
1F
100
AcDbEntity
  8
0
100
AcDbBlockEnd
  0
BLOCK
  5
1C
330
1B
100
AcDbEntity
 67
     1
  8
0
100
AcDbBlockBegin
  2
*Paper_Space
 70
     0
 10
0.0
 20
0.0
 30
0.0
  3
*Paper_Space
  1
*Paper_Space
  0
ENDBLK
  5
1D
330
1B
100
AcDbEntity
 67
     1
  8
0
100
AcDbBlockEnd
  0
BLOCK
  5
24
330
23
100
AcDbEntity
  8
0
100
AcDbBlockBegin
  2
*Paper_Space0
 70
     0
 10
0.0
 20
0.0
 30
0.0
  3
*Paper_Space0
  1
*Paper_Space0
  0
ENDBLK
  5
25
330
23
100
AcDbEntity
  8
0
100
AcDbBlockEnd
  0
BLOCK
  5
80
330
7F
100
AcDbEntity
  8
0
100
AcDbBlockBegin
  2
블럭10
 70
     2
 10
0.0
 20
0.0
 30
0.0
  3
블럭10
  1
블럭10
  0
ELLIPSE
  5
82
330
7F
100
AcDbEntity
  8
중심선
100
AcDbEllipse
 10
20.54032771741204
 20
12.0471743016438
 30
0.0
 11
6.600054785286829
 21
-1.261213355974178E-13
 31
0.0
210
0.0
220
0.0
230
1.0
 40
0.636358354079598
 41
0.9219305317359503
 42
6.513795318482858
  0
ELLIPSE
  5
83
330
7F
100
AcDbEntity
  8
중심선
100
AcDbEllipse
 10
20.54032771746488
 20
12.04717430159265
 30
0.0
 11
3.960054785062283
 21
1.540847449632565E-10
 31
0.0
210
0.0
220
0.0
230
1.0
 40
0.3939339440162632
 41
1.131841032648279
 42
5.62031148352944
  0
LINE
  5
84
330
7F
100
AcDbEntity
  8
중심선
100
AcDbLine
 10
2.268634060543552
 20
16.24717430164393
 30
0.0
 11
5.714909304380834
 21
16.24717430164393
 31
0.0
  0
LINE
  5
85
330
7F
100
AcDbEntity
  8
중심선
100
AcDbLine
 10
5.245725140726316
 20
7.84717430164391
 30
0.0
 11
8.692000384563599
 21
7.84717430164391
 31
0.0
  0
LINE
  5
86
330
7F
100
AcDbEntity
  8
중심선
100
AcDbLine
 10
15.74043728645272
 20
16.24717430164393
 30
0.0
 11
8.692000384563599
 21
7.84717430164391
 31
0.0
  0
LINE
  5
87
330
7F
100
AcDbEntity
  8
중심선
100
AcDbLine
 10
0.1404042013395286
 20
13.71084872107135
 30
0.0
 11
3.58671253028996
 21
13.71088815037384
 31
0.0
  0
LINE
  5
88
330
7F
100
AcDbEntity
  8
중심선
100
AcDbLine
 10
2.750260043222114
 20
10.84717430164391
 30
0.0
 11
6.196535287059397
 21
10.84717430164391
 31
0.0
  0
LINE
  5
89
330
7F
100
AcDbEntity
  8
중심선
100
AcDbLine
 10
12.29416204261559
 20
16.24717430164393
 30
0.0
 11
5.245725140726316
 21
7.84717430164391
 31
0.0
  0
LINE
  5
8A
330
7F
100
AcDbEntity
  8
중심선
100
AcDbLine
 10
10.72767329541681
 20
16.24717430164393
 30
0.0
 11
6.196535287059397
 21
10.84717430164391
 31
0.0
  0
LINE
  5
8B
330
7F
100
AcDbEntity
  8
중심선
100
AcDbLine
 10
7.28139805157953
 20
16.24717430164393
 30
0.0
 11
2.750260043222114
 21
10.84717430164391
 31
0.0
  0
LINE
  5
8C
330
7F
100
AcDbEntity
  8
중심선
100
AcDbLine
 10
5.714909304380834
 20
16.24717430164393
 30
0.0
 11
3.58671253028996
 21
13.71088815037384
 31
0.0
  0
LINE
  5
8D
330
7F
100
AcDbEntity
  8
중심선
100
AcDbLine
 10
2.268634060543552
 20
16.24717430164393
 30
0.0
 11
0.1404042013395286
 21
13.71084872107135
 31
0.0
  0
LINE
  5
8E
330
7F
100
AcDbEntity
  8
중심선
100
AcDbLine
 10
7.28139805157953
 20
16.24717430164393
 30
0.0
 11
10.72767329541681
 21
16.24717430164393
 31
0.0
  0
LINE
  5
8F
330
7F
100
AcDbEntity
  8
중심선
100
AcDbLine
 10
12.29416204261559
 20
16.24717430164393
 30
0.0
 11
15.74043728645272
 21
16.24717430164393
 31
0.0
  0
LINE
  5
90
330
7F
100
AcDbEntity
  8
중심선
100
AcDbLine
 10
19.22036997980202
 20
11.08717430171403
 30
0.0
 11
23.66174974927406
 21
11.08717430171406
 31
0.0
  0
LINE
  5
91
330
7F
100
AcDbEntity
  8
중심선
100
AcDbLine
 10
19.22039502424796
 20
13.00717430171391
 30
0.0
 11
19.22036997980202
 21
11.08717430171403
 31
0.0
  0
LINE
  5
92
330
7F
100
AcDbEntity
  8
중심선
100
AcDbLine
 10
19.22039502424796
 20
13.00717430171391
 30
0.0
 11
26.96566020931264
 21
13.00717430171391
 31
0.0
  0
LINE
  5
93
330
7F
100
AcDbEntity
  8
중심선
100
AcDbLine
 10
22.22332737316547
 20
13.45928029700563
 30
0.0
 11
24.52862924686651
 21
15.39360700705356
 31
0.0
  0
ATTDEF
  5
95
330
7F
100
AcDbEntity
  8
FORMAT
 62
     2
100
AcDbText
 10
4.408487351596664
 20
2.075366912832191
 30
0.0
 40
4.233333333333333
  1
E1072020
 41
0.75
  7
SLDTEXTSTYLE0
 11
4.408487351596664
 21
-0.0412997538344756
 31
0.0
100
AcDbAttributeDefinition
  3

  2
AUTOATTR0
 70
     0
 74
     1
  0
ENDBLK
  5
81
330
7F
100
AcDbEntity
  8
0
100
AcDbBlockEnd
  0
BLOCK
  5
F0
330
EF
100
AcDbEntity
  8
0
100
AcDbBlockBegin
  2
_D
 70
     0
 10
0.0
 20
0.0
 30
0.0
  3
_D
  1
_D
  0
LINE
  5
F2
330
EF
100
AcDbEntity
  8
치수문자_일반주서
 62
     0
370
    -2
100
AcDbLine
 10
-37.74018467149222
 20
4.763574928723897
 30
0.0
 11
-51.17768467149225
 21
4.763574928723846
 31
0.0
  0
LINE
  5
F3
330
EF
100
AcDbEntity
  8
치수문자_일반주서
 62
     0
370
    -2
100
AcDbLine
 10
-37.74018467149222
 20
-4.761425071276109
 30
0.0
 11
-51.17768467149222
 21
-4.761425071276159
 31
0.0
  0
LINE
  5
F4
330
EF
100
AcDbEntity
  8
치수문자_일반주서
 62
     0
370
    -2
100
AcDbLine
 10
-51.17768467149224
 20
1.461574928723847
 30
0.0
 11
-51.17768467149223
 21
-1.45942507127616
 31
0.0
  0
SOLID
  5
F5
330
EF
100
AcDbEntity
  8
치수문자_일반주서
 62
     0
100
AcDbTrace
 10
-50.6273513381589
 20
1.461574928723849
 30
0.0
 11
-51.72801800482557
 21
1.461574928723845
 31
0.0
 12
-51.17768467149225
 22
4.763574928723846
 32
0.0
 13
-51.17768467149225
 23
4.763574928723846
 33
0.0
  0
SOLID
  5
F6
330
EF
100
AcDbEntity
  8
치수문자_일반주서
 62
     0
100
AcDbTrace
 10
-51.72801800482556
 20
-1.459425071276162
 30
0.0
 11
-50.6273513381589
 21
-1.459425071276158
 31
0.0
 12
-51.17768467149222
 22
-4.761425071276159
 32
0.0
 13
-51.17768467149222
 23
-4.761425071276159
 33
0.0
  0
MTEXT
  5
F7
330
EF
100
AcDbEntity
  8
치수문자_일반주서
 62
     0
100
AcDbMText
 10
-55.55268467149224
 20
0.0010749287238838
 30
0.0
 40
3.5
 41
0.0
 71
     2
 72
     1
  1
\A1;%%c9.53 [3/8]
  7
SLDTEXTSTYLE0
 11
-3.729883127349605E-15
 21
1.0
 31
0.0
 73
     1
 44
1.0
  0
POINT
  5
F8
330
EF
100
AcDbEntity
  8
Defpoints
 62
     0
100
AcDbPoint
 10
-37.67768467149222
 20
4.763574928723897
 30
0.0
  0
POINT
  5
F9
330
EF
100
AcDbEntity
  8
Defpoints
 62
     0
100
AcDbPoint
 10
-37.67768467149222
 20
-4.761425071276109
 30
0.0
  0
POINT
  5
FA
330
EF
100
AcDbEntity
  8
Defpoints
 62
     0
100
AcDbPoint
 10
-51.17768467149222
 20
-4.761425071276159
 30
0.0
  0
ENDBLK
  5
F1
330
EF
100
AcDbEntity
  8
0
100
AcDbBlockEnd
  0
BLOCK
  5
105
330
104
100
AcDbEntity
  8
0
100
AcDbBlockBegin
  2
_D_1
 70
     0
 10
0.0
 20
0.0
 30
0.0
  3
_D_1
  1
_D_1
  0
LINE
  5
107
330
104
100
AcDbEntity
  8
치수문자_일반주서
 62
     0
370
    -2
100
AcDbLine
 10
56.76231532850779
 20
4.0323249287239
 30
0.0
 11
56.76231532850779
 21
17.14281233248948
 31
0.0
  0
LINE
  5
108
330
104
100
AcDbEntity
  8
치수문자_일반주서
 62
     0
370
    -2
100
AcDbLine
 10
5.96231532850779
 20
2.902959996703752
 30
0.0
 11
5.962315328507792
 21
17.14281233248948
 31
0.0
  0
LINE
  5
109
330
104
100
AcDbEntity
  8
치수문자_일반주서
 62
     0
370
    -2
100
AcDbLine
 10
53.46031532850779
 20
17.14281233248948
 30
0.0
 11
9.264315328507791
 21
17.14281233248948
 31
0.0
  0
SOLID
  5
10A
330
104
100
AcDbEntity
  8
치수문자_일반주서
 62
     0
100
AcDbTrace
 10
53.46031532850779
 20
16.59247899915615
 30
0.0
 11
53.46031532850779
 21
17.69314566582282
 31
0.0
 12
56.76231532850779
 22
17.14281233248948
 32
0.0
 13
56.76231532850779
 23
17.14281233248948
 33
0.0
  0
SOLID
  5
10B
330
104
100
AcDbEntity
  8
치수문자_일반주서
 62
     0
100
AcDbTrace
 10
9.264315328507791
 20
17.69314566582282
 30
0.0
 11
9.264315328507791
 21
16.59247899915615
 31
0.0
 12
5.962315328507792
 22
17.14281233248948
 32
0.0
 13
5.962315328507792
 23
17.14281233248948
 33
0.0
  0
MTEXT
  5
10C
330
104
100
AcDbEntity
  8
치수문자_일반주서
 62
     0
100
AcDbMText
 10
29.9733466620336
 20
21.51781233248948
 30
0.0
 40
3.5
 41
0.0
 71
     2
 72
     1
  1
\A1;50.8 [2]
  7
SLDTEXTSTYLE0
 73
     1
 44
1.0
  0
POINT
  5
10D
330
104
100
AcDbEntity
  8
Defpoints
 62
     0
100
AcDbPoint
 10
56.76231532850779
 20
3.969824928723901
 30
0.0
  0
POINT
  5
10E
330
104
100
AcDbEntity
  8
Defpoints
 62
     0
100
AcDbPoint
 10
5.96231532850779
 20
2.840459996703752
 30
0.0
  0
POINT
  5
10F
330
104
100
AcDbEntity
  8
Defpoints
 62
     0
100
AcDbPoint
 10
5.96231532850779
 20
17.14281233248948
 30
0.0
  0
ENDBLK
  5
106
330
104
100
AcDbEntity
  8
0
100
AcDbBlockEnd
  0
BLOCK
  5
11A
330
119
100
AcDbEntity
  8
0
100
AcDbBlockBegin
  2
_D_2
 70
     0
 10
0.0
 20
0.0
 30
0.0
  3
_D_2
  1
_D_2
  0
LINE
  5
11C
330
119
100
AcDbEntity
  8
치수문자_일반주서
 62
     0
370
    -2
100
AcDbLine
 10
56.76231532850779
 20
4.0323249287239
 30
0.0
 11
56.7623153285078
 21
34.2927135688721
 31
0.0
  0
LINE
  5
11D
330
119
100
AcDbEntity
  8
치수문자_일반주서
 62
     0
370
    -2
100
AcDbLine
 10
-38.4876846714922
 20
4.016074928723889
 30
0.0
 11
-38.4876846714922
 21
34.2927135688721
 31
0.0
  0
LINE
  5
11E
330
119
100
AcDbEntity
  8
치수문자_일반주서
 62
     0
370
    -2
100
AcDbLine
 10
53.4603153285078
 20
34.2927135688721
 30
0.0
 11
-35.1856846714922
 21
34.2927135688721
 31
0.0
  0
SOLID
  5
11F
330
119
100
AcDbEntity
  8
치수문자_일반주서
 62
     0
100
AcDbTrace
 10
53.4603153285078
 20
33.74238023553877
 30
0.0
 11
53.4603153285078
 21
34.84304690220544
 31
0.0
 12
56.7623153285078
 22
34.2927135688721
 32
0.0
 13
56.7623153285078
 23
34.2927135688721
 33
0.0
  0
SOLID
  5
120
330
119
100
AcDbEntity
  8
치수문자_일반주서
 62
     0
100
AcDbTrace
 10
-35.1856846714922
 20
34.84304690220544
 30
0.0
 11
-35.1856846714922
 21
33.74238023553877
 31
0.0
 12
-38.4876846714922
 22
34.2927135688721
 32
0.0
 13
-38.4876846714922
 23
34.2927135688721
 33
0.0
  0
MTEXT
  5
121
330
119
100
AcDbEntity
  8
치수문자_일반주서
 62
     0
100
AcDbMText
 10
9.137315328507649
 20
38.6677135688721
 30
0.0
 40
3.5
 41
0.0
 71
     2
 72
     1
  1
\A1;95.25 [3 3/4]
  7
SLDTEXTSTYLE0
 73
     1
 44
1.0
  0
POINT
  5
122
330
119
100
AcDbEntity
  8
Defpoints
 62
     0
100
AcDbPoint
 10
56.76231532850779
 20
3.969824928723901
 30
0.0
  0
POINT
  5
123
330
119
100
AcDbEntity
  8
Defpoints
 62
     0
100
AcDbPoint
 10
-38.4876846714922
 20
3.953574928723889
 30
0.0
  0
POINT
  5
124
330
119
100
AcDbEntity
  8
Defpoints
 62
     0
100
AcDbPoint
 10
-38.4876846714922
 20
34.2927135688721
 30
0.0
  0
ENDBLK
  5
11B
330
119
100
AcDbEntity
  8
0
100
AcDbBlockEnd
  0
BLOCK
  5
12D
330
12C
100
AcDbEntity
  8
0
100
AcDbBlockBegin
  2
_D_3
 70
     0
 10
0.0
 20
0.0
 30
0.0
  3
_D_3
  1
_D_3
  0
LINE
  5
12F
330
12C
100
AcDbEntity
  8
치수문자_일반주서
 62
     0
370
    -2
100
AcDbLine
 10
56.82481532850779
 20
-3.967675071276099
 30
0.0
 11
68.50813990283089
 21
-3.967675071276055
 31
0.0
  0
LINE
  5
130
330
12C
100
AcDbEntity
  8
치수문자_일반주서
 62
     0
370
    -2
100
AcDbLine
 10
56.82481532850779
 20
3.969824928723901
 30
0.0
 11
68.50813990283086
 21
3.969824928723945
 31
0.0
  0
LINE
  5
131
330
12C
100
AcDbEntity
  8
치수문자_일반주서
 62
     0
370
    -2
100
AcDbLine
 10
68.50813990283086
 20
3.969824928723945
 30
0.0
 11
68.50813990283073
 21
38.9952914221856
 31
0.0
  0
LINE
  5
132
330
12C
100
AcDbEntity
  8
치수문자_일반주서
 62
     0
370
    -2
100
AcDbLine
 10
68.50813990283089
 20
-3.967675071276055
 30
0.0
 11
68.50813990283086
 21
3.969824928723945
 31
0.0
  0
LINE
  5
133
330
12C
100
AcDbEntity
  8
치수문자_일반주서
 62
     0
370
    -2
100
AcDbLine
 10
68.5081399028309
 20
-7.269675071276055
 30
0.0
 11
68.50813990283092
 21
-10.57167507127605
 31
0.0
  0
LINE
  5
134
330
12C
100
AcDbEntity
  8
치수문자_일반주서
 62
     0
370
    -2
100
AcDbLine
 10
68.50813990283085
 20
7.271824928723944
 30
0.0
 11
68.50813990283083
 21
10.57382492872394
 31
0.0
  0
SOLID
  5
135
330
12C
100
AcDbEntity
  8
치수문자_일반주서
 62
     0
100
AcDbTrace
 10
69.05847323616423
 20
-7.269675071276053
 30
0.0
 11
67.95780656949758
 21
-7.269675071276056
 31
0.0
 12
68.50813990283089
 22
-3.967675071276055
 32
0.0
 13
68.50813990283089
 23
-3.967675071276055
 33
0.0
  0
SOLID
  5
136
330
12C
100
AcDbEntity
  8
치수문자_일반주서
 62
     0
100
AcDbTrace
 10
67.95780656949752
 20
7.271824928723943
 30
0.0
 11
69.05847323616418
 21
7.271824928723946
 31
0.0
 12
68.50813990283086
 22
3.969824928723945
 32
0.0
 13
68.50813990283086
 23
3.969824928723945
 33
0.0
  0
MTEXT
  5
137
330
12C
100
AcDbEntity
  8
치수문자_일반주서
 62
     0
100
AcDbMText
 10
64.13313990283079
 20
24.99529142218558
 30
0.0
 40
3.5
 41
0.0
 71
     2
 72
     1
  1
\A1;%%c7.94 [5/16]
  7
SLDTEXTSTYLE0
 11
-3.580687802255623E-15
 21
1.0
 31
0.0
 73
     1
 44
1.0
  0
POINT
  5
138
330
12C
100
AcDbEntity
  8
Defpoints
 62
     0
100
AcDbPoint
 10
56.76231532850779
 20
-3.967675071276099
 30
0.0
  0
POINT
  5
139
330
12C
100
AcDbEntity
  8
Defpoints
 62
     0
100
AcDbPoint
 10
56.76231532850779
 20
3.969824928723901
 30
0.0
  0
POINT
  5
1A0
330
12C
100
AcDbEntity
  8
Defpoints
 62
     0
100
AcDbPoint
 10
68.50813990283086
 20
3.969824928723945
 30
0.0
  0
ENDBLK
  5
12E
330
12C
100
AcDbEntity
  8
0
100
AcDbBlockEnd
  0
BLOCK
  5
146
330
145
100
AcDbEntity
  8
0
100
AcDbBlockBegin
  2
SW_DOWELSYMBOL_0
 70
     0
 10
0.0
 20
0.0
 30
0.0
  3
SW_DOWELSYMBOL_0
  1
SW_DOWELSYMBOL_0
  0
CIRCLE
  5
148
330
145
100
AcDbEntity
  8
해칭선
 62
     0
100
AcDbCircle
 10
0.0
 20
0.0
 30
0.0
 40
2.999999999999996
  0
HATCH
  5
149
330
145
100
AcDbEntity
  8
0
  6
Continuous
 62
     0
370
     0
100
AcDbHatch
 10
0.0
 20
0.0
 30
0.0
210
0.0
220
0.0
230
1.0
  2
SOLID
 70
     1
 71
     0
 91
        1
 92
        0
 93
        3
 72
     2
 10
0.0
 20
0.0
 40
2.999999999999996
 50
0.0
 51
90.0
 73
     1
 72
     1
 10
0.0
 20
2.999999999999996
 11
0.0
 21
0.0
 72
     1
 10
0.0
 20
0.0
 11
2.999999999999996
 21
0.0
 97
        0
 75
     0
 76
     1
 98
        1
 10
0.0
 20
0.0
  0
HATCH
  5
14A
330
145
100
AcDbEntity
  8
0
  6
Continuous
 62
     0
370
     0
100
AcDbHatch
 10
0.0
 20
0.0
 30
0.0
210
0.0
220
0.0
230
1.0
  2
SOLID
 70
     1
 71
     0
 91
        1
 92
        0
 93
        3
 72
     2
 10
0.0
 20
0.0
 40
2.999999999999996
 50
180.0
 51
270.0000000000007
 73
     1
 72
     1
 10
0.0
 20
-2.999999999999996
 11
0.0
 21
0.0
 72
     1
 10
0.0
 20
0.0
 11
-2.999999999999996
 21
0.0
 97
        0
 75
     0
 76
     1
 98
        1
 10
0.0
 20
0.0
  0
ENDBLK
  5
147
330
145
100
AcDbEntity
  8
0
100
AcDbBlockEnd
  0
ENDSEC
  0
SECTION
  2
ENTITIES
  0
LINE
  5
96
330
1F
100
AcDbEntity
  8
외형선
  6
Continuous
370
    15
100
AcDbLine
 10
2.000000000000004
 20
4.763574928723894
 30
0.0
 11
-13.80523467149207
 21
4.763574928723893
 31
0.0
  0
LINE
  5
97
330
1F
100
AcDbEntity
  8
외형선
  6
Continuous
370
    15
100
AcDbLine
 10
-37.67768467149221
 20
-4.761425071276108
 30
0.0
 11
2.000000000000004
 21
-4.761425071276105
 31
0.0
  0
LINE
  5
98
330
1F
100
AcDbEntity
  8
외형선
  6
Continuous
370
    15
100
AcDbLine
 10
2.000000000000004
 20
-4.761425071276106
 30
0.0
 11
4.442317944127486
 21
-4.107007950487106
 31
0.0
  0
LINE
  5
99
330
1F
100
AcDbEntity
  8
외형선
  6
Continuous
370
    15
100
AcDbLine
 10
4.442317944127486
 20
4.109157807934893
 30
0.0
 11
2.000000000000004
 21
4.763574928723894
 31
0.0
  0
LINE
  5
9A
330
1F
100
AcDbEntity
  8
외형선
  6
Continuous
370
    15
100
AcDbLine
 10
-37.67768467149221
 20
4.763574928723889
 30
0.0
 11
-38.4876846714922
 21
3.953574928723888
 31
0.0
  0
LINE
  5
9B
330
1F
100
AcDbEntity
  8
외형선
  6
Continuous
370
    15
100
AcDbLine
 10
-38.4876846714922
 20
-3.951425071276106
 30
0.0
 11
-37.67768467149221
 21
-4.761425071276106
 31
0.0
  0
SPLINE
  5
9C
330
1F
100
AcDbEntity
  8
외형선
  6
Continuous
370
    15
100
AcDbSpline
210
0.0
220
0.0
230
1.0
 70
     8
 71
     3
 72
     9
 73
     5
 74
     0
 42
0.000000001
 43
0.00000001
 40
0.0
 40
0.0
 40
0.0
 40
0.0
 40
0.4981401402268003
 40
1.0
 40
1.0
 40
1.0
 40
1.0
 10
5.163817731742311
 20
-2.98395331354115
 30
0.0
 10
5.296540395716907
 20
-2.963371789280196
 30
0.0
 10
5.562976792338485
 20
-2.92205505409081
 30
0.0
 10
5.828872796929495
 20
-2.885913834455295
 30
0.0
 10
5.96231532850779
 20
-2.867776007036982
 30
0.0
  0
SPLINE
  5
9D
330
1F
100
AcDbEntity
  8
외형선
  6
Continuous
370
    15
100
AcDbSpline
210
0.0
220
0.0
230
1.0
 70
     8
 71
     3
 72
     9
 73
     5
 74
     0
 42
0.000000001
 43
0.00000001
 40
0.0
 40
0.0
 40
0.0
 40
0.0
 40
0.9414525888686747
 40
1.0
 40
1.0
 40
1.0
 40
1.0
 10
5.96231532850779
 20
2.869861354933561
 30
0.0
 10
5.827380143692164
 20
2.884294228910845
 30
0.0
 10
5.684053558358986
 20
2.899624659936189
 30
0.0
 10
5.539317977029723
 20
2.923980837320499
 30
0.0
 10
5.530844083444308
 20
2.925406828451406
 30
0.0
  0
LINE
  5
9E
330
1F
100
AcDbEntity
  8
0
  6
Continuous
 62
     1
370
    15
100
AcDbLine
 10
44.31585401848861
 20
1.101798213720554
 30
0.0
 11
44.24245175011228
 21
1.1420879648358
 31
0.0
  0
LINE
  5
9F
330
1F
100
AcDbEntity
  8
0
  6
Continuous
 62
     1
370
    15
100
AcDbLine
 10
22.71025329435997
 20
1.107218876677529
 30
0.0
 11
22.64692391118547
 21
1.142076467583445
 31
0.0
  0
SPLINE
  5
A0
330
1F
100
AcDbEntity
  8
0
  6
Continuous
 62
     1
370
    15
100
AcDbSpline
210
0.0
220
0.0
230
1.0
 70
     8
 71
     3
 72
     9
 73
     5
 74
     0
 42
0.000000001
 43
0.00000001
 40
0.0
 40
0.0
 40
0.0
 40
0.0
 40
0.4993511596988426
 40
1.0
 40
1.0
 40
1.0
 40
1.0
 10
24.88544045017292
 20
1.018039565739554
 30
0.0
 10
24.70195508098805
 20
1.105373627243952
 30
0.0
 10
24.33450751303701
 20
1.280268708206755
 30
0.0
 10
23.96702737123893
 20
1.472499510403252
 30
0.0
 10
23.78304886441401
 20
1.56873963859309
 30
0.0
  0
SPLINE
  5
A1
330
1F
100
AcDbEntity
  8
0
  6
Continuous
 62
     1
370
    15
100
AcDbSpline
210
0.0
220
0.0
230
1.0
 70
     8
 71
     3
 72
    10
 73
     6
 74
     0
 42
0.000000001
 43
0.00000001
 40
0.0
 40
0.0
 40
0.0
 40
0.0
 40
0.4987267669683993
 40
0.6865015207707145
 40
1.0
 40
1.0
 40
1.0
 40
1.0
 10
46.48095747733232
 20
1.018054382485995
 30
0.0
 10
46.29774592623377
 20
1.105420683811976
 30
0.0
 10
46.04555371041094
 20
1.225681120381242
 30
0.0
 10
45.67794023088286
 20
1.411510008044625
 30
0.0
 10
45.49370397035191
 20
1.508280444692782
 30
0.0
 10
45.37848180469581
 20
1.568801100344146
 30
0.0
  0
LINE
  5
A2
330
1F
100
AcDbEntity
  8
0
  6
Continuous
 62
     1
370
    15
100
AcDbLine
 10
35.44960218150523
 20
-3.967675071276111
 30
0.0
 11
37.37383961072398
 21
-3.967675071276111
 31
0.0
  0
LINE
  5
A3
330
1F
100
AcDbEntity
  8
0
  6
Continuous
 62
     1
370
    15
100
AcDbLine
 10
15.77728378526437
 20
3.969824928723899
 30
0.0
 11
13.85420464051335
 21
3.969824928723899
 31
0.0
  0
LINE
  5
A4
330
1F
100
AcDbEntity
  8
0
  6
Continuous
 62
     1
370
    15
100
AcDbLine
 10
13.85420464051337
 20
-3.967675071276111
 30
0.0
 11
15.77728378526438
 21
-3.967675071276111
 31
0.0
  0
LINE
  5
A5
330
1F
100
AcDbEntity
  8
0
  6
Continuous
 62
     1
370
    15
100
AcDbLine
 10
37.37383961072399
 20
3.969824928723899
 30
0.0
 11
35.44960218150522
 21
3.969824928723899
 31
0.0
  0
SPLINE
  5
A6
330
1F
100
AcDbEntity
  8
0
  6
Continuous
 62
     1
370
    15
100
AcDbSpline
210
0.0
220
0.0
230
1.0
 70
     8
 71
     3
 72
    19
 73
    15
 74
     0
 42
0.000000001
 43
0.00000001
 40
0.0
 40
0.0
 40
0.0
 40
0.0
 40
0.1410527266816665
 40
0.2450910746944441
 40
0.3192058704866823
 40
0.4101335886719094
 40
0.4820161242077428
 40
0.5152391642193069
 40
0.5470494133154385
 40
0.5785260850372851
 40
0.6243852030134072
 40
0.7151753769105864
 40
0.8403558999945394
 40
1.0
 40
1.0
 40
1.0
 40
1.0
 10
17.60301485636387
 20
-3.301505928488177
 30
0.0
 10
17.88434860066339
 20
-3.274903710721378
 30
0.0
 10
18.37318984010854
 20
-3.228680101330012
 30
0.0
 10
19.00841644292885
 20
-3.182783279351331
 30
0.0
 10
19.54472879921335
 20
-3.150868623669859
 30
0.0
 10
20.01631804757919
 20
-3.128763388740406
 30
0.0
 10
20.40692205694706
 20
-3.115364620839807
 30
0.0
 10
20.67569225257805
 20
-3.108369074816034
 30
0.0
 10
20.86340904584319
 20
-3.104362578675235
 30
0.0
 10
21.07113265040108
 20
-3.100550455839655
 30
0.0
 10
21.40347867637204
 20
-3.096824872541422
 30
0.0
 10
21.92500559290182
 20
-3.097457360728177
 30
0.0
 10
22.67807151217801
 20
-3.110841027220113
 30
0.0
 10
23.25116206498684
 20
-3.137625134054825
 30
0.0
 10
23.57237911614074
 20
-3.152637616415718
 30
0.0
  0
SPLINE
  5
A7
330
1F
100
AcDbEntity
  8
0
  6
Continuous
 62
     1
370
    15
100
AcDbSpline
210
0.0
220
0.0
230
1.0
 70
     8
 71
     3
 72
    15
 73
    11
 74
     0
 42
0.000000001
 43
0.00000001
 40
0.0
 40
0.0
 40
0.0
 40
0.0
 40
0.1995537550154375
 40
0.3624076336481523
 40
0.4869948928169819
 40
0.5853068598251853
 40
0.7564298503482412
 40
0.8961208353315223
 40
0.9592981482696106
 40
1.0
 40
1.0
 40
1.0
 40
1.0
 10
45.16795812403113
 20
3.154789100151328
 30
0.0
 10
44.95121263178449
 20
3.144231412288936
 30
0.0
 10
44.5575832513555
 20
3.125057698044827
 30
0.0
 10
44.02922203601512
 20
3.109992976425807
 30
0.0
 10
43.61085467597599
 20
3.102740947061124
 30
0.0
 10
43.18346904593797
 20
3.099602002621686
 30
0.0
 10
42.7397930100189
 20
3.101521815297773
 30
0.0
 10
42.33385480494853
 20
3.108853260833437
 30
0.0
 10
42.07287885801488
 20
3.115665832172956
 30
0.0
 10
41.96337630586278
 20
3.119143833750246
 30
0.0
 10
41.9204711029184
 20
3.120506581563715
 30
0.0
  0
SPLINE
  5
A8
330
1F
100
AcDbEntity
  8
0
  6
Continuous
 62
     1
370
    15
100
AcDbSpline
210
0.0
220
0.0
230
1.0
 70
     8
 71
     3
 72
    19
 73
    15
 74
     0
 42
0.000000001
 43
0.00000001
 40
0.0
 40
0.0
 40
0.0
 40
0.0
 40
0.1235834477216112
 40
0.2191807610496733
 40
0.2876821390732631
 40
0.3416868059468452
 40
0.4052605148714172
 40
0.4787754379121197
 40
0.5915111559104586
 40
0.6768541268289306
 40
0.7210404799432504
 40
0.7895361403312473
 40
0.8828326060015352
 40
1.0
 40
1.0
 40
1.0
 40
1.0
 10
39.19868764780142
 20
-3.30149353842189
 30
0.0
 10
39.44379706358681
 20
-3.278165034001046
 30
0.0
 10
39.87850955367124
 20
-3.236790890073376
 30
0.0
 10
40.44868526617653
 20
-3.193517396305067
 30
0.0
 10
40.88316395629003
 20
-3.165712105940988
 30
0.0
 10
41.25622041504118
 20
-3.145427520051243
 30
0.0
 10
41.6376152610887
 20
-3.128022354700697
 30
0.0
 10
42.13524847388699
 20
-3.110568309036322
 30
0.0
 10
42.67577580846713
 20
-3.099730403055956
 30
0.0
 10
43.15780353377389
 20
-3.097623961492908
 30
0.0
 10
43.55103072275793
 20
-3.099974795989775
 30
0.0
 10
43.96024889448285
 20
-3.106221458534638
 30
0.0
 10
44.51515681611386
 20
-3.121082235377783
 30
0.0
 10
44.93450350945659
 20
-3.141353834888006
 30
0.0
 10
45.16795812403113
 20
-3.15263924270354
 30
0.0
  0
SPLINE
  5
A9
330
1F
100
AcDbEntity
  8
0
  6
Continuous
 62
     1
370
    15
100
AcDbSpline
210
0.0
220
0.0
230
1.0
 70
     8
 71
     3
 72
    10
 73
     6
 74
     0
 42
0.000000001
 43
0.00000001
 40
0.0
 40
0.0
 40
0.0
 40
0.0
 40
0.5385038254201421
 40
0.8907646944069288
 40
1.0
 40
1.0
 40
1.0
 40
1.0
 10
23.57237911614074
 20
3.154787473863506
 30
0.0
 10
22.99411543998483
 20
3.132006859229735
 30
0.0
 10
22.03758209247191
 20
3.094324365114079
 30
0.0
 10
20.9549450125085
 20
3.098284435733738
 30
0.0
 10
20.45814887466855
 20
3.119080994932772
 30
0.0
 10
20.34055813194179
 20
3.124003502690196
 30
0.0
  0
SPLINE
  5
AA
330
1F
100
AcDbEntity
  8
0
  6
Continuous
 62
     1
370
    15
100
AcDbSpline
210
0.0
220
0.0
230
1.0
 70
     8
 71
     3
 72
    12
 73
     8
 74
     0
 42
0.000000001
 43
0.00000001
 40
0.0
 40
0.0
 40
0.0
 40
0.0
 40
0.355513642802647
 40
0.6159653341985658
 40
0.7879236843594445
 40
0.9417743797197148
 40
0.9999999999999999
 40
0.9999999999999999
 40
0.9999999999999999
 40
0.9999999999999999
 10
5.96231532850779
 20
-2.867776007036983
 30
0.0
 10
6.221724936569938
 20
-2.835208504757692
 30
0.0
 10
6.671179772296234
 20
-2.77878183075629
 30
0.0
 10
7.244203644479869
 20
-2.722580500556309
 30
0.0
 10
7.670709779646804
 20
-2.688872817409591
 30
0.0
 10
7.950122478464865
 20
-2.667074720286517
 30
0.0
 10
8.104355884639277
 20
-2.661041427117964
 30
0.0
 10
8.146700715627697
 20
-2.659384984549114
 30
0.0
  0
SPLINE
  5
AB
330
1F
100
AcDbEntity
  8
0
  6
Continuous
 62
     1
370
    15
100
AcDbSpline
210
0.0
220
0.0
230
1.0
 70
     8
 71
     3
 72
    14
 73
    10
 74
     0
 42
0.000000001
 43
0.00000001
 40
0.0
 40
0.0
 40
0.0
 40
0.0
 40
0.2343698352826109
 40
0.4105871116869107
 40
0.5479197915413786
 40
0.691224693360346
 40
0.8393827890765536
 40
0.9875663998719177
 40
1.0
 40
1.0
 40
1.0
 40
1.0
 10
48.35503270513875
 20
-2.98393474516781
 30
0.0
 10
48.5870343245529
 20
-2.948680704626016
 30
0.0
 10
48.99347261345248
 20
-2.886919963684698
 30
0.0
 10
49.53469401738207
 20
-2.818435009463284
 30
0.0
 10
49.98542967739309
 20
-2.767496555206875
 30
0.0
 10
50.40875313267872
 20
-2.725349640737011
 30
0.0
 10
50.8432787840584
 20
-2.689606848011056
 30
0.0
 10
51.14854094507696
 20
-2.667325475303875
 30
0.0
 10
51.30720304438101
 20
-2.659087719723511
 30
0.0
 10
51.31948529661841
 20
-2.658450023686764
 30
0.0
  0
SPLINE
  5
AC
330
1F
100
AcDbEntity
  8
0
  6
Continuous
 62
     1
370
    15
100
AcDbSpline
210
0.0
220
0.0
230
1.0
 70
     8
 71
     3
 72
    19
 73
    15
 74
     0
 42
0.000000001
 43
0.00000001
 40
0.0
 40
0.0
 40
0.0
 40
0.0
 40
0.0997647336007164
 40
0.176725527549695
 40
0.2301932535699809
 40
0.2745239551783574
 40
0.3206738923746942
 40
0.5078273676661262
 40
0.6269020291832125
 40
0.7443977196781079
 40
0.7877438348157747
 40
0.8395769101535233
 40
0.9105331423697873
 40
0.9999999999999999
 40
0.9999999999999999
 40
0.9999999999999999
 40
0.9999999999999999
 10
33.69140295015352
 20
2.71551208834994
 30
0.0
 10
33.45925331181606
 20
2.697079310065484
 30
0.0
 10
33.04801814057952
 20
2.664427065640468
 30
0.0
 10
32.51446520244554
 20
2.637643722922862
 30
0.0
 10
32.11295253925054
 20
2.623504786357631
 30
0.0
 10
31.78367857570402
 20
2.616033436652926
 30
0.0
 10
31.14372214143825
 20
2.608874165688718
 30
0.0
 10
30.328027474218
 20
2.624284618934358
 30
0.0
 10
29.34945081198541
 20
2.680926049447417
 30
0.0
 10
28.70152477505363
 20
2.737273220426813
 30
0.0
 10
28.2143227150715
 20
2.789097819166072
 30
0.0
 10
27.83200532396605
 20
2.833787746853173
 30
0.0
 10
27.34018335622519
 20
2.897444645221616
 30
0.0
 10
26.96734199751481
 20
2.954356687350934
 30
0.0
 10
26.75941092730341
 20
2.986096143158081
 30
0.0
  0
SPLINE
  5
AD
330
1F
100
AcDbEntity
  8
0
  6
Continuous
 62
     1
370
    15
100
AcDbSpline
210
0.0
220
0.0
230
1.0
 70
     8
 71
     3
 72
    12
 73
     8
 74
     0
 42
0.000000001
 43
0.00000001
 40
0.0
 40
0.0
 40
0.0
 40
0.0
 40
0.2570206118096973
 40
0.4436583923014003
 40
0.5749348366373651
 40
0.7079784701472002
 40
0.9999999999999999
 40
0.9999999999999999
 40
0.9999999999999999
 40
0.9999999999999999
 10
26.75941092730341
 20
-2.983946285710293
 30
0.0
 10
27.01664508079606
 20
-2.945022628788854
 30
0.0
 10
27.46067207995386
 20
-2.877834215646945
 30
0.0
 10
28.03370340596344
 20
-2.807020482222331
 30
0.0
 10
28.47816054651393
 20
-2.758528937007542
 30
0.0
 10
29.03029917237011
 20
-2.703845639521249
 30
0.0
 10
29.45376854819521
 20
-2.679979515736421
 30
0.0
 10
29.74469376539244
 20
-2.663583389730309
 30
0.0
  0
SPLINE
  5
AE
330
1F
100
AcDbEntity
  8
0
  6
Continuous
 62
     1
370
    15
100
AcDbSpline
210
0.0
220
0.0
230
1.0
 70
     8
 71
     3
 72
    21
 73
    17
 74
     0
 42
0.000000001
 43
0.00000001
 40
0.0
 40
0.0
 40
0.0
 40
0.0
 40
0.1093606398873918
 40
0.1915899661427194
 40
0.2457344008072609
 40
0.2871695229670002
 40
0.3300536091416109
 40
0.4189152982743319
 40
0.5146090615099619
 40
0.577682066961746
 40
0.6410505617073742
 40
0.7044081453127581
 40
0.765690333465659
 40
0.8244185906261561
 40
0.8997752612726531
 40
1.0
 40
1.0
 40
1.0
 40
1.0
 10
55.2868392133281
 20
2.715502396578214
 30
0.0
 10
55.03366335752377
 20
2.695576486177731
 30
0.0
 10
54.59012211918017
 20
2.660668090406432
 30
0.0
 10
54.02261933905974
 20
2.633922868586962
 30
0.0
 10
53.61226956164474
 20
2.620907724472452
 30
0.0
 10
53.2926193322854
 20
2.614773988309615
 30
0.0
 10
52.89267071713615
 20
2.611459880689083
 30
0.0
 10
52.36700815304697
 20
2.615973724049194
 30
0.0
 10
51.79508960626263
 20
2.634469775858008
 30
0.0
 10
51.28200896824673
 20
2.661439350174334
 30
0.0
 10
50.8432933886203
 20
2.691297177003384
 30
0.0
 10
50.40874935920963
 20
2.727618229334565
 30
0.0
 10
49.9854306189761
 20
2.769616786009152
 30
0.0
 10
49.53469369414645
 20
2.8205950374293
 30
0.0
 10
48.99347273704429
 20
2.889065932351767
 30
0.0
 10
48.58703436946471
 20
2.950829148936228
 30
0.0
 10
48.35503270513875
 20
2.986084602615598
 30
0.0
  0
SPLINE
  5
AF
330
1F
100
AcDbEntity
  8
0
  6
Continuous
 62
     1
370
    15
100
AcDbSpline
210
0.0
220
0.0
230
1.0
 70
     8
 71
     3
 72
    22
 73
    18
 74
     0
 42
0.000000001
 43
0.00000001
 40
0.0
 40
0.0
 40
0.0
 40
0.0
 40
0.1068247771258694
 40
0.1895426519980767
 40
0.2490944435768693
 40
0.3051909399411558
 40
0.3637625393199361
 40
0.4234038638196083
 40
0.4830517043097552
 40
0.535090499119997
 40
0.5868828679403814
 40
0.6385494375893528
 40
0.688592267438272
 40
0.7366369012820713
 40
0.7978835636612828
 40
0.8853895994625424
 40
1.0
 40
1.0
 40
1.0
 40
1.0
 10
12.09547519626444
 20
2.715479404501796
 30
0.0
 10
11.87592603694613
 20
2.697968762924218
 30
0.0
 10
11.48637287315056
 20
2.666899066060812
 30
0.0
 10
10.97633123651688
 20
2.640342138413533
 30
0.0
 10
10.5735401685211
 20
2.625153075202769
 30
0.0
 10
10.21932493941
 20
2.616420219521408
 30
0.0
 10
9.86330351334223
 20
2.61228012853578
 30
0.0
 10
9.4996729124506
 20
2.612961597507767
 30
0.0
 10
9.149414848892532
 20
2.618341670972305
 30
0.0
 10
8.81525422258405
 20
2.627698158207307
 30
0.0
 10
8.497716653087116
 20
2.640390991675646
 30
0.0
 10
8.184036175291444
 20
2.656534078840338
 30
0.0
 10
7.877940965254782
 20
2.675684442602918
 30
0.0
 10
7.552255171422507
 20
2.69951274014042
 30
0.0
 10
7.149980694456461
 20
2.733820627157403
 30
0.0
 10
6.611724918159393
 20
2.787890360063504
 30
0.0
 10
6.197309918536593
 20
2.840240593376249
 30
0.0
 10
5.96231532850779
 20
2.86992586448477
 30
0.0
  0
LINE
  5
B0
330
1F
100
AcDbEntity
  8
외형선
  6
Continuous
370
    15
100
AcDbLine
 10
2.000000000000004
 20
4.763574928723894
 30
0.0
 11
2.000000000000004
 21
-4.761425071276105
 31
0.0
  0
LINE
  5
B1
330
1F
100
AcDbEntity
  8
외형선
  6
Continuous
370
    15
100
AcDbLine
 10
-37.67768467149221
 20
4.763574928723889
 30
0.0
 11
-37.67768467149221
 21
-4.761425071276108
 31
0.0
  0
SPLINE
  5
B2
330
1F
100
AcDbEntity
  8
외형선
  6
Continuous
370
    15
100
AcDbSpline
210
0.0
220
0.0
230
1.0
 70
     8
 71
     3
 72
     8
 73
     4
 74
     0
 42
0.000000001
 43
0.00000001
 40
0.0
 40
0.0
 40
0.0
 40
0.0
 40
1.0
 40
1.0
 40
1.0
 40
1.0
 10
4.962315328507794
 20
0.0114831861008488
 30
0.0
 10
4.788634666253769
 20
0.0919207956207402
 30
0.0
 10
4.615303662191023
 20
0.1744351851100022
 30
0.0
 10
4.442320686669895
 20
0.2591006327923888
 30
0.0
  0
LINE
  5
B3
330
1F
100
AcDbEntity
  8
외형선
  6
Continuous
370
    15
100
AcDbLine
 10
4.962315328507794
 20
0.0114831861008508
 30
0.0
 11
4.96231532850779
 21
-1.085010317403444
 31
0.0
  0
SPLINE
  5
B4
330
1F
100
AcDbEntity
  8
외형선
  6
Continuous
370
    15
100
AcDbSpline
210
0.0
220
0.0
230
1.0
 70
     8
 71
     3
 72
     8
 73
     4
 74
     0
 42
0.000000001
 43
0.00000001
 40
0.0
 40
0.0
 40
0.0
 40
0.0
 40
0.0005965043015497
 40
0.0005965043015497
 40
0.0005965043015497
 40
0.0005965043015497
 10
4.44231794412738
 20
-0.8695815099282881
 30
0.0
 10
4.615821631648123
 20
-0.9430581556768687
 30
0.0
 10
4.789187331741799
 20
-1.014910028316999
 30
0.0
 10
4.962315328507914
 20
-1.085010317403199
 30
0.0
  0
LINE
  5
B5
330
1F
100
AcDbEntity
  8
외형선
  6
Continuous
370
    15
100
AcDbLine
 10
4.442317944127486
 20
-4.107007950487106
 30
0.0
 11
4.44231794412738
 21
-0.8695195850405127
 31
0.0
  0
LINE
  5
B6
330
1F
100
AcDbEntity
  8
외형선
  6
Continuous
370
    15
100
AcDbLine
 10
4.442317944127417
 20
0.2592123142838524
 30
0.0
 11
4.442317944127486
 21
4.109157807934893
 31
0.0
  0
LINE
  5
B7
330
1F
100
AcDbEntity
  8
외형선
  6
Continuous
370
    15
100
AcDbLine
 10
-38.4876846714922
 20
3.953574928723889
 30
0.0
 11
-38.4876846714922
 21
-3.951425071276109
 31
0.0
  0
SPLINE
  5
B8
330
1F
100
AcDbEntity
  8
외형선
  6
Continuous
370
    15
100
AcDbSpline
210
0.0
220
0.0
230
1.0
 70
    24
 71
     3
 72
     8
 73
     4
 74
     0
 42
0.000000001
 43
0.00000001
 40
0.0
 40
0.0
 40
0.0
 40
0.0
 40
1.0
 40
1.0
 40
1.0
 40
1.0
 10
5.96231532850779
 20
-0.2775926979859305
 30
0.0
 10
5.96231532850779
 20
-0.3576652478762224
 30
0.0
 10
5.96231532850779
 20
-0.4538666639537968
 30
0.0
 10
5.96231532850779
 20
-0.5645600416502456
 30
0.0
  0
SPLINE
  5
B9
330
1F
100
AcDbEntity
  8
외형선
  6
Continuous
370
    15
100
AcDbSpline
210
0.0
220
0.0
230
1.0
 70
     8
 71
     3
 72
     8
 73
     4
 74
     0
 42
0.000000001
 43
0.00000001
 40
0.0
 40
0.0
 40
0.0
 40
0.0
 40
1.0
 40
1.0
 40
1.0
 40
1.0
 10
5.96231532850779
 20
-0.5645600416508089
 30
0.0
 10
5.627313098793289
 20
-0.373550491658619
 30
0.0
 10
5.295937453891405
 20
-0.1812304809902465
 30
0.0
 10
4.962315328507794
 20
0.0114831861008481
 30
0.0
  0
SPLINE
  5
BA
330
1F
100
AcDbEntity
  8
외형선
  6
Continuous
370
    15
100
AcDbSpline
210
0.0
220
0.0
230
1.0
 70
     8
 71
     3
 72
    18
 73
    14
 74
     0
 42
0.000000001
 43
0.00000001
 40
0.0
 40
0.0
 40
0.0
 40
0.0
 40
0.0159802337121063
 40
0.044736271669913
 40
0.0870060609677225
 40
0.1429840735044081
 40
0.2500894773060554
 40
0.5000743273798214
 40
0.7500742160596012
 40
0.8501068867965025
 40
0.9243563868727652
 40
0.9739322520621181
 40
1.0
 40
1.0
 40
1.0
 40
1.0
 10
4.892043613175042
 20
0.2476390316729311
 30
0.0
 10
4.888800549084348
 20
0.2489703519736634
 30
0.0
 10
4.879721670839015
 20
0.252697350447291
 30
0.0
 10
4.864357535457765
 20
0.2572505051965838
 30
0.0
 10
4.842598132574665
 20
0.2636392150407925
 30
0.0
 10
4.808699766659833
 20
0.2727785643319503
 30
0.0
 10
4.742374351744322
 20
0.2898077596210754
 30
0.0
 10
4.64862892571105
 20
0.3117834954226802
 30
0.0
 10
4.55975175407851
 20
0.3301919856776251
 30
0.0
 10
4.499349763144732
 20
0.3407918027702789
 30
0.0
 10
4.469818792012269
 20
0.3445366994952319
 30
0.0
 10
4.449473194770471
 20
0.3471366949177382
 30
0.0
 10
4.444153813041787
 20
0.3450194987925495
 30
0.0
 10
4.442320686669895
 20
0.3442898861703488
 30
0.0
  0
SPLINE
  5
BB
330
1F
100
AcDbEntity
  8
외형선
  6
Continuous
370
    15
100
AcDbSpline
210
0.0
220
0.0
230
1.0
 70
     8
 71
     3
 72
     8
 73
     4
 74
     0
 42
0.000000001
 43
0.00000001
 40
0.0
 40
0.0
 40
0.0
 40
0.0
 40
1.0
 40
1.0
 40
1.0
 40
1.0
 10
5.96231532850779
 20
-0.2775926979859304
 30
0.0
 10
5.603805248343596
 20
-0.1026494999817339
 30
0.0
 10
5.249468369867254
 20
0.0727424280231738
 30
0.0
 10
4.892042800962338
 20
0.2476394291083111
 30
0.0
  0
SPLINE
  5
BC
330
1F
100
AcDbEntity
  8
외형선
  6
Continuous
370
    15
100
AcDbSpline
210
0.0
220
0.0
230
1.0
 70
     8
 71
     3
 72
     8
 73
     4
 74
     0
 42
0.000000001
 43
0.00000001
 40
0.0
 40
0.0
 40
0.0
 40
0.0
 40
1.0
 40
1.0
 40
1.0
 40
1.0
 10
5.962315328507787
 20
-1.627463176650058
 30
0.0
 10
5.627313098793286
 20
-1.45147884855708
 30
0.0
 10
5.295937453891401
 20
-1.27036810535167
 30
0.0
 10
4.96231532850779
 20
-1.085010317403444
 30
0.0
  0
LINE
  5
BD
330
1F
100
AcDbEntity
  8
외형선
  6
Continuous
370
    15
100
AcDbLine
 10
5.96231532850779
 20
-0.5645600416508052
 30
0.0
 11
5.96231532850779
 21
-1.627463176650059
 31
0.0
  0
SPLINE
  5
BE
330
1F
100
AcDbEntity
  8
외형선
  6
Continuous
370
    15
100
AcDbSpline
210
0.0
220
0.0
230
1.0
 70
     8
 71
     3
 72
    14
 73
    10
 74
     0
 42
0.000000001
 43
0.00000001
 40
0.0
 40
0.0
 40
0.0
 40
0.0
 40
0.25
 40
0.25
 40
0.5
 40
0.5
 40
0.75
 40
0.75
 40
1.0
 40
1.0
 40
1.0
 40
1.0
 10
4.717359661831525
 20
3.077828020457462
 30
0.0
 10
4.688348611555167
 20
3.086817405489332
 30
0.0
 10
4.657899660280865
 20
3.099438888795357
 30
0.0
 10
4.591461809463457
 20
3.139933188228943
 30
0.0
 10
4.554345942937532
 20
3.169209483538297
 30
0.0
 10
4.489748417809498
 20
3.248224656027157
 30
0.0
 10
4.467917080698777
 20
3.292616629873919
 30
0.0
 10
4.445474341244376
 20
3.36421509380271
 30
0.0
 10
4.442317944127483
 20
3.394459548141686
 30
0.0
 10
4.442317944127479
 20
3.420116060935793
 30
0.0
  0
SPLINE
  5
BF
330
1F
100
AcDbEntity
  8
외형선
  6
Continuous
370
    15
100
AcDbSpline
210
0.0
220
0.0
230
1.0
 70
     8
 71
     3
 72
    16
 73
    12
 74
     0
 42
0.000000001
 43
0.00000001
 40
0.0
 40
0.0
 40
0.0
 40
0.0
 40
0.2449994339330381
 40
0.4386658411117926
 40
0.5967552249825692
 40
0.7198293290731349
 40
0.8157788992688019
 40
0.8912376096040036
 40
0.9464214112042254
 40
0.9818802349992671
 40
1.0
 40
1.0
 40
1.0
 40
1.0
 10
4.717354911559118
 20
3.077828822403644
 30
0.0
 10
4.736719876801185
 20
3.071978207510079
 30
0.0
 10
4.771392400854173
 20
3.06150281635465
 30
0.0
 10
4.818868208153013
 20
3.04868290195911
 30
0.0
 10
4.857033884206112
 20
3.039093934010033
 30
0.0
 10
4.88781143748969
 20
3.031891043234586
 30
0.0
 10
4.912608469135314
 20
3.026450945983869
 30
0.0
 10
4.932435227842026
 20
3.022331231311388
 30
0.0
 10
4.948232000856851
 20
3.01927064897109
 30
0.0
 10
4.959189761432404
 20
3.017190942399489
 30
0.0
 10
4.966524113085764
 20
3.016009208640276
 30
0.0
 10
4.969004520490637
 20
3.01560955761378
 30
0.0
  0
SPLINE
  5
C0
330
1F
100
AcDbEntity
  8
외형선
  6
Continuous
370
    15
100
AcDbSpline
210
0.0
220
0.0
230
1.0
 70
     8
 71
     3
 72
     8
 73
     4
 74
     0
 42
0.000000001
 43
0.00000001
 40
0.0
 40
0.0
 40
0.0
 40
0.0
 40
1.0
 40
1.0
 40
1.0
 40
1.0
 10
5.96231532850779
 20
2.840459996703752
 30
0.0
 10
5.629552010412075
 20
2.909081712598119
 30
0.0
 10
5.300359069108842
 20
2.967542206651373
 30
0.0
 10
4.969004016009784
 20
3.015609670804007
 30
0.0
  0
SPLINE
  5
C1
330
1F
100
AcDbEntity
  8
외형선
  6
Continuous
370
    15
100
AcDbSpline
210
0.0
220
0.0
230
1.0
 70
    24
 71
     3
 72
    14
 73
    10
 74
     0
 42
0.000000001
 43
0.00000001
 40
0.0
 40
0.0
 40
0.0
 40
0.0
 40
0.25
 40
0.25
 40
0.5
 40
0.5
 40
0.75
 40
0.75
 40
1.0
 40
1.0
 40
1.0
 40
1.0
 10
5.96231532850779
 20
2.840459996703752
 30
0.0
 10
5.96231532850779
 20
2.672779042991893
 30
0.0
 10
5.96231532850779
 20
2.473887846498096
 30
0.0
 10
5.96231532850779
 20
2.02146070849451
 30
0.0
 10
5.96231532850779
 20
1.767987813541323
 30
0.0
 10
5.96231532850779
 20
1.223030851431495
 30
0.0
 10
5.96231532850779
 20
0.9317041513027428
 30
0.0
 10
5.96231532850779
 20
0.333191925173064
 30
0.0
 10
5.96231532850779
 20
0.0261844792309457
 30
0.0
 10
5.96231532850779
 20
-0.2775926979859315
 30
0.0
  0
LINE
  5
C2
330
1F
100
AcDbEntity
  8
외형선
  6
Continuous
370
    15
100
AcDbLine
 10
5.172507717107971
 20
-2.96431931921231
 30
0.0
 11
4.442318945255723
 21
-3.080816662396125
 31
0.0
  0
SPLINE
  5
C3
330
1F
100
AcDbEntity
  8
외형선
  6
Continuous
370
    15
100
AcDbSpline
210
0.0
220
0.0
230
1.0
 70
    24
 71
     3
 72
    13
 73
     9
 74
     0
 42
0.000000001
 43
0.00000001
 40
0.0
 40
0.0
 40
0.0
 40
0.0
 40
0.0312127336502262
 40
0.2599512711991293
 40
0.4822433241532298
 40
0.7109818617021331
 40
0.931025621215251
 40
1.0
 40
1.0
 40
1.0
 40
1.0
 10
5.96231532850779
 20
-1.693118198385966
 30
0.0
 10
5.96231532850779
 20
-1.717900581627028
 30
0.0
 10
5.96231532850779
 20
-1.924297499598078
 30
0.0
 10
5.96231532850779
 20
-2.221005475060179
 30
0.0
 10
5.96231532850779
 20
-2.566935153220385
 30
0.0
 10
5.96231532850779
 20
-2.776764739478466
 30
0.0
 10
5.96231532850779
 20
-2.873709936529592
 30
0.0
 10
5.96231532850779
 20
-2.85823423193983
 30
0.0
 10
5.96231532850779
 20
-2.854540944326043
 30
0.0
  0
SPLINE
  5
C4
330
1F
100
AcDbEntity
  8
0
  6
Continuous
 62
     1
370
    15
100
AcDbSpline
210
0.0
220
0.0
230
1.0
 70
     8
 71
     3
 72
    12
 73
     8
 74
     0
 42
0.000000001
 43
0.00000001
 40
0.0
 40
0.0
 40
0.0
 40
0.0
 40
0.2092433357263374
 40
0.4184867180739625
 40
0.6277301502504173
 40
0.8369736354627519
 40
1.0
 40
1.0
 40
1.0
 40
1.0
 10
5.962315328507797
 20
-1.627463176650068
 30
0.0
 10
6.512757021866104
 20
-1.908085250906835
 30
0.0
 10
7.613640531226052
 20
-2.469329461945478
 30
0.0
 10
9.264966078889143
 20
-3.146024126618552
 30
0.0
 10
10.91629209640522
 20
-3.64160100818502
 30
0.0
 10
12.44603831946579
 20
-3.929838017649102
 30
0.0
 10
13.42534258272723
 20
-3.942477986079158
 30
0.0
 10
13.85420464051336
 20
-3.948013347329616
 30
0.0
  0
SPLINE
  5
C5
330
1F
100
AcDbEntity
  8
0
  6
Continuous
 62
     1
370
    15
100
AcDbSpline
210
0.0
220
0.0
230
1.0
 70
     8
 71
     3
 72
    26
 73
    22
 74
     0
 42
0.000000001
 43
0.00000001
 40
0.0
 40
0.0
 40
0.0
 40
0.0
 40
0.0319727552120109
 40
0.086183121816269
 40
0.1404163831809682
 40
0.1946565465880098
 40
0.2488724094697125
 40
0.303070717281445
 40
0.3562888561738369
 40
0.4095047483861964
 40
0.4627292164205114
 40
0.5159730402832728
 40
0.5702081206369037
 40
0.6244467956341371
 40
0.6786612337290985
 40
0.7328586166273453
 40
0.7870463353614295
 40
0.8402620628383071
 40
0.8934857422690697
 40
0.9467281575653711
 40
0.9999999999999999
 40
0.9999999999999999
 40
0.9999999999999999
 40
0.9999999999999999
 10
29.73715917451742
 20
2.662588097237085
 30
0.0
 10
30.02515820718308
 20
2.786911707628801
 30
0.0
 10
30.80146464529284
 20
3.122028177510086
 30
0.0
 10
32.06641884205541
 20
3.522306909414291
 30
0.0
 10
33.53208833032006
 20
3.846358514385218
 30
0.0
 10
34.9978840920019
 20
3.991097063702413
 30
0.0
 10
36.46316387937841
 20
3.956711646680683
 30
0.0
 10
37.91917838196184
 20
3.744234476039626
 30
0.0
 10
39.36605454081376
 20
3.367385077798045
 30
0.0
 10
40.80416165572291
 20
2.845876345928992
 30
0.0
 10
42.24254485127219
 20
2.200176339655314
 30
0.0
 10
43.69020595837488
 20
1.453921690173283
 30
0.0
 10
45.14720330703432
 20
0.6381986866755393
 30
0.0
 10
46.61296895580762
 20
-0.2111898222241216
 30
0.0
 10
48.07821409318205
 20
-1.05107721750133
 30
0.0
 10
49.54291599357859
 20
-1.843295168356412
 30
0.0
 10
50.99858653032368
 20
-2.547545590567245
 30
0.0
 10
52.44539923345341
 20
-3.135410013572755
 30
0.0
 10
53.88376300741384
 20
-3.579544001026454
 30
0.0
 10
55.32271329424089
 20
-3.879848536721658
 30
0.0
 10
56.28235960858861
 20
-3.936158156088575
 30
0.0
 10
56.76231532850779
 20
-3.967675071276099
 30
0.0
  0
SPLINE
  5
C6
330
1F
100
AcDbEntity
  8
0
  6
Continuous
 62
     1
370
    15
100
AcDbSpline
210
0.0
220
0.0
230
1.0
 70
     8
 71
     3
 72
    15
 73
    11
 74
     0
 42
0.000000001
 43
0.00000001
 40
0.0
 40
0.0
 40
0.0
 40
0.0
 40
0.102633980584151
 40
0.2439483887043671
 40
0.3852047277120978
 40
0.526459645656788
 40
0.6677730273816636
 40
0.8091256402370747
 40
0.9504980674344747
 40
1.0
 40
1.0
 40
1.0
 40
1.0
 10
46.90679185622171
 20
-0.3768026076908765
 30
0.0
 10
46.45444086077788
 20
-0.1950747056245655
 30
0.0
 10
45.37925800380138
 20
0.2368702373600146
 30
0.0
 10
43.68154816600299
 20
0.9182538360614102
 30
0.0
 10
41.8137264242337
 20
1.598069579889215
 30
0.0
 10
39.94591401315058
 20
2.160464202570757
 30
0.0
 10
38.07756782280797
 20
2.567589898254771
 30
0.0
 10
36.2086589327711
 20
2.773021268249033
 30
0.0
 10
34.74437514921099
 20
2.8134523182792
 30
0.0
 10
33.90310352041587
 20
2.717227907421824
 30
0.0
 10
33.68492559704455
 20
2.692272778281716
 30
0.0
  0
SPLINE
  5
C7
330
1F
100
AcDbEntity
  8
0
  6
Continuous
 62
     1
370
    15
100
AcDbSpline
210
0.0
220
0.0
230
1.0
 70
     8
 71
     3
 72
    26
 73
    22
 74
     0
 42
0.000000001
 43
0.00000001
 40
0.0
 40
0.0
 40
0.0
 40
0.0
 40
0.0411118616858397
 40
0.1015791119433959
 40
0.1620463775272818
 40
0.2225136593641213
 40
0.2829809583803782
 40
0.3434482755023472
 40
0.3970849874105771
 40
0.4507365972796678
 40
0.504410375501472
 40
0.5580939738223942
 40
0.6117537432041579
 40
0.6644364932514312
 40
0.7171069357577057
 40
0.7697757729857057
 40
0.8224537151571536
 40
0.8761066012259083
 40
0.9297821466133592
 40
0.9834645230649521
 40
1.0
 40
1.0
 40
1.0
 40
1.0
 10
8.142224593230848
 20
2.6597077812887
 30
0.0
 10
8.516471690556434
 20
2.819247221490909
 30
0.0
 10
9.441160727609217
 20
3.213436975764889
 30
0.0
 10
10.91629257791528
 20
3.644202842904827
 30
0.0
 10
12.56761683090265
 20
3.93927744784467
 30
0.0
 10
14.21895231118114
 20
4.002250636797553
 30
0.0
 10
15.87024847431125
 20
3.837015198663888
 30
0.0
 10
17.45950947656831
 20
3.465567671668891
 30
0.0
 10
18.98623732606558
 20
2.935878202395396
 30
0.0
 10
20.4513429066037
 20
2.294930858374802
 30
0.0
 10
21.91698023481464
 20
1.55016461328283
 30
0.0
 10
23.38279205119966
 20
0.7354163107557283
 30
0.0
 10
24.83939823547284
 20
-0.1076705749071659
 30
0.0
 10
26.28664611048841
 20
-0.9405394106285533
 30
0.0
 10
27.72480953336623
 20
-1.727192019480655
 30
0.0
 10
29.16292205508177
 20
-2.438650331383966
 30
0.0
 10
30.61001749383523
 20
-3.046414315183356
 30
0.0
 10
32.06641818169184
 20
-3.525667833257341
 30
0.0
 10
33.53208257946386
 20
-3.835159262258845
 30
0.0
 10
34.65995672603868
 20
-3.977099451129822
 30
0.0
 10
35.29909309825373
 20
-3.953938356909147
 30
0.0
 10
35.44960218150523
 20
-3.948484192180304
 30
0.0
  0
SPLINE
  5
C8
330
1F
100
AcDbEntity
  8
0
  6
Continuous
 62
     1
370
    15
100
AcDbSpline
210
0.0
220
0.0
230
1.0
 70
     8
 71
     3
 72
    11
 73
     7
 74
     0
 42
0.000000001
 43
0.00000001
 40
0.0
 40
0.0
 40
0.0
 40
0.0
 40
0.2068693524530058
 40
0.4711355129019447
 40
0.7354947006519184
 40
1.0
 40
1.0
 40
1.0
 40
1.0
 10
51.31948529661841
 20
2.660599881134551
 30
0.0
 10
51.69476806793745
 20
2.818329963153162
 30
0.0
 10
52.54945745934367
 20
3.177553029357641
 30
0.0
 10
53.88376223810459
 20
3.579384458673627
 30
0.0
 10
55.32271348672042
 20
3.882576201135495
 30
0.0
 10
56.28235967276029
 20
3.938500651329144
 30
0.0
 10
56.76231532850779
 20
3.969824928723896
 30
0.0
  0
LINE
  5
C9
330
1F
100
AcDbEntity
  8
0
  6
Continuous
 62
     1
370
    15
100
AcDbLine
 10
56.76231532850779
 20
2.7791999287239
 30
0.0
 11
56.76231532850779
 21
3.969824928723901
 31
0.0
  0
LINE
  5
CA
330
1F
100
AcDbEntity
  8
0
  6
Continuous
 62
     1
370
    15
100
AcDbLine
 10
56.76231532850779
 20
2.779199928723894
 30
0.0
 11
55.28291547745059
 21
2.698422366639081
 31
0.0
  0
SPLINE
  5
CB
330
1F
100
AcDbEntity
  8
0
  6
Continuous
 62
     1
370
    15
100
AcDbSpline
210
0.0
220
0.0
230
1.0
 70
     8
 71
     3
 72
    15
 73
    11
 74
     0
 42
0.000000001
 43
0.00000001
 40
0.0
 40
0.0
 40
0.0
 40
0.0
 40
0.0233332915747773
 40
0.164728133972015
 40
0.3061624342674567
 40
0.4476167658102962
 40
0.5890716120849662
 40
0.7348959773274485
 40
0.8806485504076293
 40
1.0
 40
1.0
 40
1.0
 40
1.0
 10
25.30588570575818
 20
-0.3734156476294498
 30
0.0
 10
25.20311386198668
 20
-0.3331629421399831
 30
0.0
 10
24.47756624710824
 20
-0.0489873023098686
 30
0.0
 10
23.12898626625553
 20
0.5082481817967527
 30
0.0
 10
21.26008784979456
 20
1.229829990974203
 30
0.0
 10
19.3908818197545
 20
1.864364525006519
 30
0.0
 10
17.50236820772461
 20
2.36781839465255
 30
0.0
 10
15.59483732651058
 20
2.690754659753434
 30
0.0
 10
13.78480804474684
 20
2.821536524568095
 30
0.0
 10
12.61715041636478
 20
2.737121871723618
 30
0.0
 10
12.09146382296622
 20
2.699117879621735
 30
0.0
  0
SPLINE
  5
CC
330
1F
100
AcDbEntity
  8
0
  6
Continuous
 62
     1
370
    15
100
AcDbSpline
210
0.0
220
0.0
230
1.0
 70
     8
 71
     3
 72
    26
 73
    22
 74
     0
 42
0.000000001
 43
0.00000001
 40
0.0
 40
0.0
 40
0.0
 40
0.0
 40
0.0446357454232122
 40
0.1006552807892086
 40
0.1566735492168795
 40
0.2126982381773105
 40
0.267738464134163
 40
0.3228078435365
 40
0.3778849590387957
 40
0.432930935850258
 40
0.4889585702984001
 40
0.5449777762397152
 40
0.6009962375179184
 40
0.6570216408578775
 40
0.7130616461407107
 40
0.7681290447473794
 40
0.8232076344022716
 40
0.8782551409060828
 40
0.933281356207537
 40
0.9964431742341997
 40
0.9999999999999999
 40
0.9999999999999999
 40
0.9999999999999999
 40
0.9999999999999999
 10
41.91839574270158
 20
-3.119030280977251
 30
0.0
 10
41.52946630745329
 20
-3.253026719846784
 30
0.0
 10
40.65241583723198
 20
-3.555193717424312
 30
0.0
 10
39.28732036047268
 20
-3.841009737242948
 30
0.0
 10
37.8229951183995
 20
-3.990000061105815
 30
0.0
 10
36.36715696465115
 20
-3.954313611749116
 30
0.0
 10
34.91956709523198
 20
-3.744722969633238
 30
0.0
 10
33.48002860045267
 20
-3.372576816001573
 30
0.0
 10
32.04036691374622
 20
-2.853312615754792
 30
0.0
 10
30.59261099780652
 20
-2.205376314003397
 30
0.0
 10
29.13667244068413
 20
-1.455105381828286
 30
0.0
 10
27.67231971228835
 20
-0.6345231087140055
 30
0.0
 10
26.20798658739697
 20
0.2148008984824607
 30
0.0
 10
24.74343553388987
 20
1.054520307776825
 30
0.0
 10
23.28710040463389
 20
1.841893939072901
 30
0.0
 10
21.83888209363366
 20
2.543122522976582
 30
0.0
 10
20.39920583991264
 20
3.127586725116053
 30
0.0
 10
18.96009786830412
 20
3.58124941459603
 30
0.0
 10
17.45080813258064
 20
3.871484004019364
 30
0.0
 10
16.38971954648813
 20
4.003326674293453
 30
0.0
 10
15.80828076485214
 20
3.965766168823156
 30
0.0
 10
15.77728378526438
 20
3.963763787389133
 30
0.0
  0
SPLINE
  5
CD
330
1F
100
AcDbEntity
  8
0
  6
Continuous
 62
     1
370
    15
100
AcDbSpline
210
0.0
220
0.0
230
1.0
 70
     8
 71
     3
 72
    17
 73
    13
 74
     0
 42
0.000000001
 43
0.00000001
 40
0.0
 40
0.0
 40
0.0
 40
0.0
 40
0.0297825840597135
 40
0.1438392583731181
 40
0.2578952486705631
 40
0.3719505893667898
 40
0.4860053149221639
 40
0.6000594598402725
 40
0.714113058665522
 40
0.8281661459807251
 40
0.9422187564046819
 40
1.0
 40
1.0
 40
1.0
 40
1.0
 10
39.20310989185739
 20
-3.283160769128134
 30
0.0
 10
39.06079694508225
 20
-3.302754709231515
 30
0.0
 10
38.37347617130431
 20
-3.397386451306911
 30
0.0
 10
37.14115237904815
 20
-3.380235915475676
 30
0.0
 10
35.50614157889651
 20
-3.221056623371449
 30
0.0
 10
33.87114159612811
 20
-2.866004526458134
 30
0.0
 10
32.23615170656245
 20
-2.353336150324143
 30
0.0
 10
30.60117138833024
 20
-1.707275909416217
 30
0.0
 10
28.966200045672
 20
-0.9645093909719035
 30
0.0
 10
27.33123717191964
 20
-0.1702702435305194
 30
0.0
 10
25.96516499501841
 20
0.5106491040460789
 30
0.0
 10
25.14408071152093
 20
0.8905705333471997
 30
0.0
 10
24.8679810379855
 20
1.018323779521071
 30
0.0
  0
SPLINE
  5
CE
330
1F
100
AcDbEntity
  8
0
  6
Continuous
 62
     1
370
    15
100
AcDbSpline
210
0.0
220
0.0
230
1.0
 70
     8
 71
     3
 72
    21
 73
    17
 74
     0
 42
0.000000001
 43
0.00000001
 40
0.0
 40
0.0
 40
0.0
 40
0.0
 40
0.0755989615137356
 40
0.1511646296067815
 40
0.226707222225834
 40
0.3022370462792726
 40
0.3777644580243289
 40
0.45195003206346
 40
0.5261608568438257
 40
0.6004118440200641
 40
0.6746682319916995
 40
0.7502320082852995
 40
0.8257734067265364
 40
0.9013027388354224
 40
0.9768303627722407
 40
0.9999999999999999
 40
0.9999999999999999
 40
0.9999999999999999
 40
0.9999999999999999
 10
56.7623153285078
 20
-3.765034146040214
 30
0.0
 10
56.27366372773242
 20
-3.659560852798965
 30
0.0
 10
55.29657572600703
 20
-3.448660716249816
 30
0.0
 10
53.831374624597
 20
-2.930472846483826
 30
0.0
 10
52.36669664513546
 20
-2.29194145487149
 30
0.0
 10
50.90232323350808
 20
-1.546443386244713
 30
0.0
 10
49.44671105440836
 20
-0.7366832362459692
 30
0.0
 10
47.99965451028174
 20
0.1009919622327397
 30
0.0
 10
46.56074180316211
 20
0.9293283944284948
 30
0.0
 10
45.1211715563795
 20
1.717011127478483
 30
0.0
 10
43.67282760839109
 20
2.434309199455841
 30
0.0
 10
42.21633548208741
 20
3.046851231061621
 30
0.0
 10
40.75168559542371
 20
3.528597461940674
 30
0.0
 10
39.28731753040833
 20
3.837708977738987
 30
0.0
 10
38.16141107768645
 20
3.979344371184678
 30
0.0
 10
37.52357465298056
 20
3.956138144898679
 30
0.0
 10
37.37383961072399
 20
3.950690376256193
 30
0.0
  0
SPLINE
  5
CF
330
1F
100
AcDbEntity
  8
0
  6
Continuous
 62
     1
370
    15
100
AcDbSpline
210
0.0
220
0.0
230
1.0
 70
     8
 71
     3
 72
    16
 73
    12
 74
     0
 42
0.000000001
 43
0.00000001
 40
0.0
 40
0.0
 40
0.0
 40
0.0
 40
0.0968072964066054
 40
0.1967739435567731
 40
0.3115206173275132
 40
0.426267256742054
 40
0.5410138635580336
 40
0.6557604395334127
 40
0.770506986426455
 40
0.8852535059957108
 40
1.0
 40
1.0
 40
1.0
 40
1.0
 10
20.35295211059189
 20
-3.118013148666303
 30
0.0
 10
19.88860361824003
 20
-3.272086881200031
 30
0.0
 10
18.94475240643732
 20
-3.58526261355221
 30
0.0
 10
17.45080560059301
 20
-3.881072883004729
 30
0.0
 10
15.87024601981927
 20
-4.006248609539601
 30
0.0
 10
14.21895490900334
 20
-3.90340212007073
 30
0.0
 10
12.56761770467239
 20
-3.577203680944559
 30
0.0
 10
10.91629353384571
 20
-3.045411545787159
 30
0.0
 10
9.264966518006903
 20
-2.338094030696868
 30
0.0
 10
7.613640862052181
 20
-1.498746420297556
 30
0.0
 10
6.512757132142609
 20
-0.875955478073134
 30
0.0
 10
5.962315328505712
 20
-0.5645600416496255
 30
0.0
  0
SPLINE
  5
D0
330
1F
100
AcDbEntity
  8
외형선
  6
Continuous
370
    15
100
AcDbSpline
210
0.0
220
0.0
230
1.0
 70
    24
 71
     3
 72
     8
 73
     4
 74
     0
 42
0.000000001
 43
0.00000001
 40
0.0
 40
0.0
 40
0.0
 40
0.0
 40
1.0
 40
1.0
 40
1.0
 40
1.0
 10
5.96231532850779
 20
-0.2775926979859305
 30
0.0
 10
5.96231532850779
 20
-0.3576652478746912
 30
0.0
 10
5.96231532850779
 20
-0.453866663950114
 30
0.0
 10
5.96231532850779
 20
-0.5645600416438956
 30
0.0
  0
SPLINE
  5
D1
330
1F
100
AcDbEntity
  8
0
  6
Continuous
 62
     1
370
    15
100
AcDbSpline
210
0.0
220
0.0
230
1.0
 70
     8
 71
     3
 72
    14
 73
    10
 74
     0
 42
0.000000001
 43
0.00000001
 40
0.0
 40
0.0
 40
0.0
 40
0.0
 40
0.1587379336382551
 40
0.317474393699102
 40
0.4762094271593286
 40
0.6349430810952039
 40
0.7936754026792741
 40
0.9524064391771413
 40
1.0
 40
1.0
 40
1.0
 40
1.0
 10
56.76231532850779
 20
-3.130158745487464
 30
0.0
 10
56.21725423515596
 20
-3.013520044166137
 30
0.0
 10
55.12713710829969
 20
-2.780243724290227
 30
0.0
 10
53.49197171493132
 20
-2.226384108033423
 30
0.0
 10
51.85682303794613
 20
-1.560086432297725
 30
0.0
 10
50.22169068547379
 20
-0.8012566173472346
 30
0.0
 10
48.58657421762608
 20
-0.002766341204229
 30
0.0
 10
47.33308031838238
 20
0.6228997298692949
 30
0.0
 10
46.62462577484106
 20
0.9455500491938762
 30
0.0
 10
46.46120427858655
 20
1.019976839778707
 30
0.0
  0
SPLINE
  5
D2
330
1F
100
AcDbEntity
  8
0
  6
Continuous
 62
     1
370
    15
100
AcDbSpline
210
0.0
220
0.0
230
1.0
 70
     8
 71
     3
 72
    15
 73
    11
 74
     0
 42
0.000000001
 43
0.00000001
 40
0.0
 40
0.0
 40
0.0
 40
0.0
 40
0.0070831290136002
 40
0.1489285180583009
 40
0.2907738627320883
 40
0.432619165304919
 40
0.5744644280471694
 40
0.7163096532296106
 40
0.8581548431233891
 40
1.0
 40
1.0
 40
1.0
 40
1.0
 10
17.6040623375772
 20
-3.296993946065378
 30
0.0
 10
17.57657602995383
 20
-3.301197539733855
 30
0.0
 10
16.99865417460078
 20
-3.389581497496511
 30
0.0
 10
15.87027193462161
 20
-3.388159756844078
 30
0.0
 10
14.21894797863755
 20
-3.269204365658385
 30
0.0
 10
12.56761957434808
 20
-2.941567100529122
 30
0.0
 10
10.91629304511573
 20
-2.450592284322813
 30
0.0
 10
9.264966659465825
 20
-1.817008292902048
 30
0.0
 10
7.613640837764089
 20
-1.080554988625203
 30
0.0
 10
6.512757122217947
 20
-0.5452467740984901
 30
0.0
 10
5.96231532850779
 20
-0.2775926979859304
 30
0.0
  0
LINE
  5
D3
330
1F
100
AcDbEntity
  8
0
  6
Continuous
 62
     1
370
    15
100
AcDbLine
 10
56.76231532850802
 20
-3.765034146040196
 30
0.0
 11
56.76231532850779
 21
-3.130158745487464
 31
0.0
  0
LINE
  5
D4
330
1F
100
AcDbEntity
  8
0
  6
Continuous
 62
     1
370
    15
100
AcDbLine
 10
56.76231532850779
 20
-3.967675071276099
 30
0.0
 11
56.76231532850802
 21
-3.765034146040196
 31
0.0
  0
SPLINE
  5
D5
330
1F
100
AcDbEntity
  8
0
  6
Continuous
 62
     1
370
    15
100
AcDbSpline
210
0.0
220
0.0
230
1.0
 70
     8
 71
     3
 72
     8
 73
     4
 74
     0
 42
0.000000001
 43
0.00000001
 40
0.0
 40
0.0
 40
0.0
 40
0.0
 40
1.0
 40
1.0
 40
1.0
 40
1.0
 10
54.30637201609245
 20
1.111485145506425
 30
0.0
 10
54.16534740254541
 20
1.278576252661709
 30
0.0
 10
54.03958913985544
 20
1.439272873725806
 30
0.0
 10
53.9326400006927
 20
1.59209107774656
 30
0.0
  0
LINE
  5
D6
330
1F
100
AcDbEntity
  8
0
  6
Continuous
 62
     1
370
    15
100
AcDbLine
 10
53.98278728085361
 20
1.634169642033029
 30
0.0
 11
56.76231532850779
 21
0.0010749287239004
 31
0.0
  0
LINE
  5
D7
330
1F
100
AcDbEntity
  8
0
  6
Continuous
 62
     1
370
    15
100
AcDbLine
 10
56.76231532850779
 20
0.0010749287239004
 30
0.0
 11
56.76231532850779
 21
-1.059545513331253
 31
0.0
  0
SPLINE
  5
D8
330
1F
100
AcDbEntity
  8
0
  6
Continuous
 62
     1
370
    15
100
AcDbSpline
210
0.0
220
0.0
230
1.0
 70
     8
 71
     3
 72
    10
 73
     6
 74
     0
 42
0.000000001
 43
0.00000001
 40
0.0
 40
0.0
 40
0.0
 40
0.0
 40
0.5
 40
0.5
 40
1.0
 40
1.0
 40
1.0
 40
1.0
 10
56.76231532850779
 20
-1.059545513331253
 30
0.0
 10
56.33717989140072
 20
-0.725316533866423
 30
0.0
 10
55.91914756661095
 20
-0.3773816523692325
 30
0.0
 10
55.09764919222832
 20
0.3465946548987529
 30
0.0
 10
54.69034972887648
 20
0.726434654300051
 30
0.0
 10
54.30637201610418
 20
1.111485145494673
 30
0.0
  0
SPLINE
  5
D9
330
1F
100
AcDbEntity
  8
0
  6
Continuous
 62
     1
370
    15
100
AcDbSpline
210
0.0
220
0.0
230
1.0
 70
     8
 71
     3
 72
    13
 73
     9
 74
     0
 42
0.000000001
 43
0.00000001
 40
0.0
 40
0.0
 40
0.0
 40
0.0
 40
0.1937499150117212
 40
0.3874971051859312
 40
0.5812375290219036
 40
0.7749671534192458
 40
0.9686819586712131
 40
1.0
 40
1.0
 40
1.0
 40
1.0
 10
54.30637201610876
 20
1.111485145499375
 30
0.0
 10
53.71602067717024
 20
1.359834131934329
 30
0.0
 10
52.53532630180766
 20
1.856528612102657
 30
0.0
 10
50.76431253568791
 20
2.458208285510107
 30
0.0
 10
48.99336830075005
 20
2.908102027249416
 30
0.0
 10
47.22253810412194
 20
3.145592616940753
 30
0.0
 10
45.9466044767171
 20
3.21900286996373
 30
0.0
 10
45.26096087298626
 20
3.150226034378739
 30
0.0
 10
45.16553918213209
 20
3.140654294910292
 30
0.0
  0
SPLINE
  5
DA
330
1F
100
AcDbEntity
  8
0
  6
Continuous
 62
     1
370
    15
100
AcDbSpline
210
0.0
220
0.0
230
1.0
 70
     8
 71
     3
 72
    19
 73
    15
 74
     0
 42
0.000000001
 43
0.00000001
 40
0.0
 40
0.0
 40
0.0
 40
0.0
 40
0.0848360220548918
 40
0.1746595508767113
 40
0.2645074934435244
 40
0.3543678298025429
 40
0.444228484650601
 40
0.5236244845254242
 40
0.6030204592156148
 40
0.6824164100095962
 40
0.7618123381960322
 40
0.8412082450638106
 40
0.9206041319020329
 40
1.0
 40
1.0
 40
1.0
 40
1.0
 10
26.7621428195102
 20
-2.977573604051231
 30
0.0
 10
26.17395850760082
 20
-3.053640767596197
 30
0.0
 10
24.96301054867425
 20
-3.210247080568209
 30
0.0
 10
23.1289987442444
 20
-3.157998419022517
 30
0.0
 10
21.2600829663815
 20
-2.890811531772625
 30
0.0
 10
19.39091092604127
 20
-2.406376025690903
 30
0.0
 10
17.59407470407581
 20
-1.772008119217252
 30
0.0
 10
15.87029361667396
 20
-1.051384095591915
 30
0.0
 10
14.21894094117322
 20
-0.3007067781555217
 30
0.0
 10
12.56762046835065
 20
0.4671107738960616
 30
0.0
 10
10.91629205028317
 20
1.208994222519504
 30
0.0
 10
9.2649664061723
 20
1.878368833406704
 30
0.0
 10
7.613640624935025
 20
2.451632982146386
 30
0.0
 10
6.51275705067558
 20
2.710851002048745
 30
0.0
 10
5.96231532850779
 20
2.840459996703752
 30
0.0
  0
LINE
  5
DB
330
1F
100
AcDbEntity
  8
0
  6
Continuous
 62
     1
370
    15
100
AcDbLine
 10
56.76231532850779
 20
-3.130158745487463
 30
0.0
 11
56.76231532850779
 21
-1.059545513331253
 31
0.0
  0
SPLINE
  5
DC
330
1F
100
AcDbEntity
  8
외형선
  6
Continuous
370
    15
100
AcDbSpline
210
0.0
220
0.0
230
1.0
 70
    24
 71
     3
 72
    14
 73
    10
 74
     0
 42
0.000000001
 43
0.00000001
 40
0.0
 40
0.0
 40
0.0
 40
0.0
 40
0.25
 40
0.25
 40
0.5
 40
0.5
 40
0.75
 40
0.75
 40
1.0
 40
1.0
 40
1.0
 40
1.0
 10
5.96231532850779
 20
2.840459996703752
 30
0.0
 10
5.96231532850779
 20
2.672779042991893
 30
0.0
 10
5.96231532850779
 20
2.473887846498096
 30
0.0
 10
5.96231532850779
 20
2.02146070849451
 30
0.0
 10
5.96231532850779
 20
1.767987813541323
 30
0.0
 10
5.96231532850779
 20
1.223030851431495
 30
0.0
 10
5.96231532850779
 20
0.9317041513027428
 30
0.0
 10
5.96231532850779
 20
0.333191925173064
 30
0.0
 10
5.96231532850779
 20
0.0261844792309457
 30
0.0
 10
5.96231532850779
 20
-0.2775926979859315
 30
0.0
  0
SPLINE
  5
DD
330
1F
100
AcDbEntity
  8
0
  6
Continuous
 62
     1
370
    15
100
AcDbSpline
210
0.0
220
0.0
230
1.0
 70
     8
 71
     3
 72
    21
 73
    17
 74
     0
 42
0.000000001
 43
0.00000001
 40
0.0
 40
0.0
 40
0.0
 40
0.0
 40
0.0461050145459456
 40
0.1175199205257692
 40
0.1889278881392532
 40
0.2642515319142288
 40
0.3395744376036432
 40
0.4149277071435888
 40
0.4903013514868856
 40
0.5656852863651284
 40
0.6410693815517895
 40
0.7164435061037654
 40
0.7917975736097791
 40
0.8671215870134014
 40
0.9424441331673046
 40
1.0
 40
1.0
 40
1.0
 40
1.0
 10
48.36565246181199
 20
-2.959276130890685
 30
0.0
 10
47.98459931123369
 20
-3.020553567518264
 30
0.0
 10
47.01330938945244
 20
-3.176747412231608
 30
0.0
 10
45.45185576682007
 20
-3.195321910503654
 30
0.0
 10
43.64895273259774
 20
-3.03228343161691
 30
0.0
 10
41.81371895375878
 20
-2.644468703266638
 30
0.0
 10
39.94592732388237
 20
-2.057760899647287
 30
0.0
 10
38.07757398084219
 20
-1.319341365352048
 30
0.0
 10
36.20866219872592
 20
-0.4840198533350737
 30
0.0
 10
34.33945843996698
 20
0.3869764208142338
 30
0.0
 10
32.47025054100112
 20
1.229761878210983
 30
0.0
 10
30.60132422098751
 20
1.981734886089785
 30
0.0
 10
28.73295245121257
 20
2.590183938835971
 30
0.0
 10
26.86513589302711
 20
3.001107794746331
 30
0.0
 10
25.14443267153334
 20
3.202361436135905
 30
0.0
 10
24.04615890154942
 20
3.154355013245677
 30
0.0
 10
23.57044507091079
 20
3.133561182096725
 30
0.0
  0
SPLINE
  5
DE
330
1F
100
AcDbEntity
  8
외형선
  6
Continuous
370
    15
100
AcDbSpline
210
0.0
220
0.0
230
1.0
 70
    24
 71
     3
 72
    13
 73
     9
 74
     0
 42
0.000000001
 43
0.00000001
 40
0.0
 40
0.0
 40
0.0
 40
0.0
 40
0.0312487133956035
 40
0.2602509239194946
 40
0.4827992188149252
 40
0.7118014293388162
 40
0.9320988391258239
 40
1.0
 40
1.0
 40
1.0
 40
1.0
 10
5.96231532850779
 20
-1.693118198385966
 30
0.0
 10
5.96231532850779
 20
-1.717900592155457
 30
0.0
 10
5.962315328507787
 20
-1.924297597811187
 30
0.0
 10
5.96231532850779
 20
-2.221001671699293
 30
0.0
 10
5.96231532850779
 20
-2.566948443071947
 30
0.0
 10
5.96231532850779
 20
-2.776714492236052
 30
0.0
 10
5.96231532850779
 20
-2.873621488877311
 30
0.0
 10
5.96231532850779
 20
-2.858275368219831
 30
0.0
 10
5.96231532850779
 20
-2.854659738186804
 30
0.0
  0
SPLINE
  5
DF
330
1F
100
AcDbEntity
  8
0
  6
Continuous
 62
     1
370
    15
100
AcDbSpline
210
0.0
220
0.0
230
1.0
 70
    24
 71
     3
 72
     8
 73
     4
 74
     0
 42
0.000000001
 43
0.00000001
 40
0.0
 40
0.0
 40
0.0
 40
0.0
 40
1.0
 40
1.0
 40
1.0
 40
1.0
 10
54.34672670354914
 20
1.939551077385817
 30
0.0
 10
54.21576265365991
 20
1.829659191426278
 30
0.0
 10
54.07729240707268
 20
1.713468858587792
 30
0.0
 10
53.93264000069327
 20
1.59209107774592
 30
0.0
  0
SPLINE
  5
E0
330
1F
100
AcDbEntity
  8
0
  6
Continuous
 62
     1
370
    15
100
AcDbSpline
210
0.0
220
0.0
230
1.0
 70
     8
 71
     3
 72
    10
 73
     6
 74
     0
 42
0.000000001
 43
0.00000001
 40
0.0
 40
0.0
 40
0.0
 40
0.0
 40
0.5
 40
0.5
 40
1.0
 40
1.0
 40
1.0
 40
1.0
 10
56.76231532850779
 20
2.7791999287239
 30
0.0
 10
56.35409082708718
 20
2.668439599858533
 30
0.0
 10
55.94834721220325
 20
2.544189316502974
 30
0.0
 10
55.14231886294363
 20
2.266005792294359
 30
0.0
 10
54.74197298425248
 20
2.112562201029752
 30
0.0
 10
54.34672670354776
 20
1.939551077386564
 30
0.0
  0
LINE
  5
E1
330
1F
100
AcDbEntity
  8
0
  6
Continuous
 62
     1
370
    15
100
AcDbLine
 10
56.76231532850779
 20
0.0010749287239004
 30
0.0
 11
56.76231532850779
 21
2.7791999287239
 31
0.0
  0
LINE
  5
E2
330
1F
100
AcDbEntity
  8
중심선
 48
0.8
100
AcDbLine
 10
-41.4876846714922
 20
0.0010749287238888
 30
0.0
 11
59.76231532850779
 21
0.0010749287239012
 31
0.0
  0
LINE
  5
E3
330
1F
100
AcDbEntity
  8
참조1
100
AcDbLine
 10
18.02426131403117
 20
0.0010749287238892
 30
0.0
 11
18.02426131403118
 21
-39.99892507127611
 31
0.0
  0
LINE
  5
E4
330
1F
100
AcDbEntity
  8
참조1
100
AcDbLine
 10
18.02426131403118
 20
-39.99892507127611
 30
0.0
 11
-20.15080122126847
 21
-39.9989250712761
 31
0.0
  0
CIRCLE
  5
E5
330
1F
100
AcDbEntity
  8
해칭선
100
AcDbCircle
 10
0.0
 20
0.0
 30
0.0
 40
2.999999999999995
  0
INSERT
  5
E6
330
1F
100
AcDbEntity
  8
0
  6
Continuous
 62
     7
100
AcDbBlockReference
 66
     1
  2
블럭10
 10
-4.802957603617409
 20
-52.04609937292004
 30
0.0
  0
ATTRIB
  5
E7
330
E6
100
AcDbEntity
  8
FORMAT
 62
     2
100
AcDbText
 10
-13.98425289235869
 20
-49.97073246008785
 30
0.0
 40
4.233333333333333
  1
E1072020 [ 2 FLUTE ]
 41
0.75
  7
SLDTEXTSTYLE0
 11
-13.98425289235869
 21
-52.08739912675452
 31
0.0
100
AcDbAttribute
  2
AUTOATTR0
 70
     0
 74
     1
  0
SEQEND
  5
E8
330
E6
100
AcDbEntity
  8
0
  6
Continuous
 62
     7
  0
HATCH
  5
E9
330
1F
100
AcDbEntity
  8
중심선
100
AcDbHatch
 10
0.0
 20
0.0
 30
0.0
210
0.0
220
0.0
230
1.0
  2
SOLID
 70
     1
 71
     0
 91
        1
 92
        0
 93
        4
 72
     1
 10
0.9119517007634315
 20
-35.7989250712761
 11
-2.53432354307385
 21
-35.7989250712761
 72
     1
 10
-2.53432354307385
 20
-35.7989250712761
 11
-4.662553402277901
 21
-38.33525065184867
 72
     1
 10
-4.662553402277901
 20
-38.33525065184867
 11
-1.216245073327442
 21
-38.33521122254619
 72
     1
 10
-1.216245073327442
 20
-38.33521122254619
 11
0.9119517007634312
 21
-35.7989250712761
 97
        0
 75
     0
 76
     1
 98
        1
 10
-8.886945985523374
 20
0.0
  0
HATCH
  5
EA
330
1F
100
AcDbEntity
  8
중심선
100
AcDbHatch
 10
0.0
 20
0.0
 30
0.0
210
0.0
220
0.0
230
1.0
  2
SOLID
 70
     1
 71
     0
 91
        1
 92
        0
 93
        4
 72
     1
 10
5.924715691799438
 20
-35.79892507127608
 11
2.478440447962184
 21
-35.79892507127608
 72
     1
 10
2.478440447962184
 20
-35.79892507127608
 11
-2.052697560395288
 21
-41.19892507127612
 72
     1
 10
-2.052697560395288
 20
-41.19892507127612
 11
1.393577683441995
 21
-41.19892507127612
 72
     1
 10
1.393577683441995
 20
-41.19892507127612
 11
5.924715691799438
 21
-35.79892507127608
 97
        0
 75
     0
 76
     1
 98
        1
 10
-8.886945985523374
 20
0.0
  0
HATCH
  5
EB
330
1F
100
AcDbEntity
  8
중심선
100
AcDbHatch
 10
0.0
 20
0.0
 30
0.0
210
0.0
220
0.0
230
1.0
  2
SOLID
 70
     1
 71
     0
 91
        1
 92
        0
 93
        4
 72
     1
 10
10.93747968283533
 20
-35.79892507127608
 11
7.491204438998162
 21
-35.7989250712761
 72
     1
 10
7.491204438998162
 20
-35.7989250712761
 11
0.4427675371089137
 21
-44.19892507127612
 72
     1
 10
0.4427675371089137
 20
-44.19892507127612
 11
3.889042780946196
 21
-44.19892507127612
 72
     1
 10
3.889042780946196
 20
-44.19892507127612
 11
10.93747968283533
 21
-35.79892507127608
 97
        0
 75
     0
 76
     1
 98
        1
 10
-8.886945985523374
 20
0.0
  0
HATCH
  5
EC
330
1F
100
AcDbEntity
  8
중심선
100
AcDbHatch
 10
0.0
 20
0.0
 30
0.0
210
0.0
220
0.0
230
1.0
  2
SOLID
 70
     1
 71
     0
 91
        1
 92
        0
 93
        6
 72
     3
 10
15.73737011384748
 20
-39.99892507132738
 11
3.960054785062281
 21
1.540882976769353E-10
 40
0.393933944016263
 50
17.09539180608436
 51
320.0019657685083
 73
     0
 72
     1
 10
17.42036976954805
 20
-38.58681907591443
 11
19.72567164324911
 21
-36.65249236586649
 72
     3
 10
15.73737011379463
 20
-39.99892507127625
 11
6.600054785286831
 21
-1.278976924368180E-13
 40
0.6363583540795978
 50
39.99873849337406
 51
368.4976242363724
 73
     1
 72
     1
 10
22.16270260569524
 20
-39.03892507120613
 11
14.41743742063055
 21
-39.0389250712061
 72
     1
 10
14.41743742063055
 20
-39.0389250712061
 11
14.41741237618462
 21
-40.95892507120602
 72
     1
 10
14.41741237618462
 20
-40.95892507120602
 11
18.85879214565666
 21
-40.95892507120599
 97
        0
 75
     0
 76
     1
 98
        1
 10
-8.886945985523374
 20
0.0
  0
DIMENSION
  5
ED
330
1F
100
AcDbEntity
  8
치수문자_일반주서
100
AcDbDimension
  2
_D
 10
-51.17768467149222
 20
-4.761425071276159
 30
0.0
 11
-51.17768467149224
 21
0.0010749287239001
 31
0.0
 70
   160
  1
%%c<>
 71
     2
 42
9.525000000000006
 52
-270.0
  3
SLDDIMSTYLE0
100
AcDbAlignedDimension
 13
-37.67768467149222
 23
4.763574928723897
 33
0.0
 14
-37.67768467149222
 24
-4.761425071276109
 34
0.0
 50
90.0000000000002
100
AcDbRotatedDimension
1001
ACAD
1000
DSTYLE
1002
{
1070
   171
1070
     6
1070
   273
1070
     7
1002
}
  0
DIMENSION
  5
102
330
1F
100
AcDbEntity
  8
치수문자_일반주서
100
AcDbDimension
  2
_D_1
 10
5.962315328507792
 20
17.14281233248948
 30
0.0
 11
29.9733466620336
 21
17.14281233248948
 31
0.0
 70
   160
  1
<>
 71
     2
 42
50.8
  3
SLDDIMSTYLE0
100
AcDbAlignedDimension
 13
56.76231532850779
 23
3.969824928723901
 33
0.0
 14
5.96231532850779
 24
2.840459996703752
 34
0.0
 50
0.000000000000004
100
AcDbRotatedDimension
1001
ACAD
1000
DSTYLE
1002
{
1070
   171
1070
     6
1070
   273
1070
     7
1002
}
  0
DIMENSION
  5
117
330
1F
100
AcDbEntity
  8
치수문자_일반주서
100
AcDbDimension
  2
_D_2
 10
-38.4876846714922
 20
34.2927135688721
 30
0.0
 11
9.137315328507649
 21
34.2927135688721
 31
0.0
 70
   160
  1
<>
 71
     2
 42
95.25
  3
SLDDIMSTYLE0
100
AcDbAlignedDimension
 13
56.76231532850779
 23
3.969824928723901
 33
0.0
 14
-38.4876846714922
 24
3.953574928723889
 34
0.0
100
AcDbRotatedDimension
1001
ACAD
1000
DSTYLE
1002
{
1070
   171
1070
     6
1070
   273
1070
     7
1002
}
  0
DIMENSION
  5
12B
330
1F
100
AcDbEntity
  8
치수문자_일반주서
100
AcDbDimension
  2
_D_3
 10
68.50813990283086
 20
3.969824928723945
 30
0.0
 11
68.50813990283079
 21
24.9952914221856
 31
0.0
 70
   160
  1
%%c<>
 71
     2
 42
7.9375
 52
-270.0
  3
SLDDIMSTYLE0
100
AcDbAlignedDimension
 13
56.76231532850779
 23
-3.967675071276099
 33
0.0
 14
56.76231532850779
 24
3.969824928723901
 34
0.0
 50
90.0000000000002
100
AcDbRotatedDimension
1001
ACAD
1000
DSTYLE
1002
{
1070
   171
1070
     6
1070
   273
1070
     7
1002
}
  0
LINE
  5
13E
330
1F
100
AcDbEntity
  8
참조1
100
AcDbLine
 10
77.82153940838579
 20
7.441074928723896
 30
0.0
 11
77.82153940838579
 21
-7.438925071276109
 31
0.0
  0
LINE
  5
13F
330
1F
100
AcDbEntity
  8
참조1
100
AcDbLine
 10
90.52153940838579
 20
5.441074928723896
 30
0.0
 11
77.82153940838579
 21
5.441074928723896
 31
0.0
  0
SOLID
  5
140
330
1F
100
AcDbEntity
  8
참조1
100
AcDbTrace
 10
77.82153940838579
 20
5.441074928723896
 30
0.0
 11
84.17153940838578
 21
4.425074928723896
 31
0.0
 12
84.17153940838578
 22
6.457074928723896
 32
0.0
 13
84.17153940838578
 23
6.457074928723896
 33
0.0
  0
LINE
  5
141
330
1F
100
AcDbEntity
  8
참조1
100
AcDbLine
 10
90.52153940838579
 20
-5.438925071276109
 30
0.0
 11
77.82153940838579
 21
-5.438925071276109
 31
0.0
  0
SOLID
  5
142
330
1F
100
AcDbEntity
  8
참조1
100
AcDbTrace
 10
77.82153940838579
 20
-5.438925071276109
 30
0.0
 11
84.17153940838578
 21
-6.454925071276109
 31
0.0
 12
84.17153940838578
 22
-4.422925071276109
 32
0.0
 13
84.17153940838578
 23
-4.422925071276109
 33
0.0
  0
MTEXT
  5
143
330
1F
100
AcDbEntity
  8
참조1
100
AcDbMText
 10
87.20588954101179
 20
11.01136670591222
 30
0.0
 40
3.5
 41
0.0
 71
     1
 72
     1
  1
A
  7
SLDTEXTSTYLE0
 73
     1
 44
1.0
  0
MTEXT
  5
144
330
1F
100
AcDbEntity
  8
참조1
100
AcDbMText
 10
87.20588954101179
 20
0.1313667059122192
 30
0.0
 40
3.5
 41
0.0
 71
     1
 72
     1
  1
A
  7
SLDTEXTSTYLE0
 73
     1
 44
1.0
  0
INSERT
  5
14B
330
1F
100
AcDbEntity
  8
해칭선
100
AcDbBlockReference
  2
SW_DOWELSYMBOL_0
 10
0.0
 20
0.0
 30
0.0
  0
LINE
  5
1FF
330
1F
100
AcDbEntity
  8
외형선
  6
Continuous
370
    15
100
AcDbLine
 10
-22.21263467149231
 20
3.493574928723895
 30
0.0
 11
-15.07523467149218
 21
3.493574928723895
 31
0.0
  0
LINE
  5
200
330
1F
100
AcDbEntity
  8
외형선
  6
Continuous
370
    15
100
AcDbLine
 10
-22.21263467149231
 20
3.493574928723895
 30
0.0
 11
-23.48263467149229
 21
4.763574928723877
 31
0.0
  0
LINE
  5
201
330
1F
100
AcDbEntity
  8
외형선
  6
Continuous
370
    15
100
AcDbLine
 10
-15.07523467149218
 20
3.493574928723895
 30
0.0
 11
-13.80523467149209
 21
4.763574928723877
 31
0.0
  0
LINE
  5
202
330
1F
100
AcDbEntity
  8
외형선
  6
Continuous
370
    15
100
AcDbLine
 10
-23.4826346714923
 20
4.763574928723892
 30
0.0
 11
-37.67768467149221
 21
4.763574928723891
 31
0.0
  0
ENDSEC
  0
SECTION
  2
OBJECTS
  0
DICTIONARY
  5
C
330
0
100
AcDbDictionary
281
     1
  3
ACAD_GROUP
350
D
  3
ACAD_IMAGE_VARS
350
16F
  3
ACAD_LAYOUT
350
1A
  3
ACAD_MLINESTYLE
350
17
  3
ACAD_PLOTSETTINGS
350
19
  3
ACAD_PLOTSTYLENAME
350
E
  3
ACAD_SCALELIST
350
47
  3
APPDATA
350
16D
  3
DWGPROPS
350
204
  0
DICTIONARY
  5
196
330
2
100
AcDbDictionary
280
     1
281
     1
  3
ACAD_LAYERSTATES
360
197
  0
DICTIONARY
  5
D
102
{ACAD_REACTORS
330
C
102
}
330
C
100
AcDbDictionary
281
     1
  0
RASTERVARIABLES
  5
16F
102
{ACAD_REACTORS
330
C
102
}
330
C
100
AcDbRasterVariables
 90
        0
 70
     1
 71
     1
 72
     1
  0
DICTIONARY
  5
1A
102
{ACAD_REACTORS
330
C
102
}
330
C
100
AcDbDictionary
281
     1
  3
Layout1
350
1E
  3
Layout2
350
26
  3
Model
350
22
  0
DICTIONARY
  5
17
102
{ACAD_REACTORS
330
C
102
}
330
C
100
AcDbDictionary
281
     1
  3
Standard
350
18
  0
DICTIONARY
  5
19
102
{ACAD_REACTORS
330
C
102
}
330
C
100
AcDbDictionary
281
     1
  0
ACDBDICTIONARYWDFLT
  5
E
102
{ACAD_REACTORS
330
C
102
}
330
C
100
AcDbDictionary
281
     1
  3
Normal
350
F
100
AcDbDictionaryWithDefault
340
F
  0
DICTIONARY
  5
47
102
{ACAD_REACTORS
330
C
102
}
330
C
100
AcDbDictionary
281
     1
  3
A0
350
48
  3
A1
350
49
  3
A2
350
4A
  3
A3
350
4B
  3
A4
350
4C
  3
A5
350
4D
  3
A6
350
4E
  3
A7
350
4F
  3
A8
350
50
  3
A9
350
51
  3
B0
350
52
  3
B1
350
53
  3
B2
350
54
  3
B3
350
55
  3
B4
350
56
  3
B5
350
57
  3
B6
350
58
  3
B7
350
59
  3
B8
350
5A
  3
B9
350
5B
  3
C0
350
5C
  3
C1
350
5D
  3
C2
350
5E
  3
C3
350
5F
  3
C4
350
60
  3
C5
350
61
  3
C6
350
62
  3
C7
350
63
  3
C8
350
64
  3
C9
350
65
  3
D0
350
66
  3
D1
350
67
  3
D2
350
68
  0
DICTIONARY
  5
16D
102
{ACAD_REACTORS
330
C
102
}
330
C
100
AcDbDictionary
281
     1
  0
XRECORD
  5
204
102
{ACAD_REACTORS
330
C
102
}
330
C
100
AcDbXrecord
280
     1
  1
DWGPROPS COOKIE
  2

  3

  4

  6

  7

  8
12016016
  9

300
=
301
=
302
=
303
=
304
=
305
=
306
=
307
=
308
=
309
=
 40
0.0
 41
2458311.092497431
 42
2458318.32092919
  1

 90
        0
  0
DICTIONARY
  5
197
102
{ACAD_REACTORS
330
196
102
}
330
196
100
AcDbDictionary
281
     1
  0
LAYOUT
  5
1E
102
{ACAD_REACTORS
330
1A
102
}
330
1A
100
AcDbPlotSettings
  1

  2
none_device
  4

  6

 40
0.0
 41
0.0
 42
0.0
 43
0.0
 44
0.0
 45
0.0
 46
0.0
 47
0.0
 48
0.0
 49
0.0
140
0.0
141
0.0
142
1.0
143
1.0
 70
   688
 72
     1
 73
     0
 74
     5
  7

 75
    16
147
1.0
148
0.0
149
0.0
100
AcDbLayout
  1
Layout1
 70
     1
 71
     1
 10
0.0
 20
0.0
 11
420.0
 21
297.0
 12
0.0
 22
0.0
 32
0.0
 14
1.000000000000000E+20
 24
1.000000000000000E+20
 34
1.000000000000000E+20
 15
-1.000000000000000E+20
 25
-1.000000000000000E+20
 35
-1.000000000000000E+20
146
0.0
 13
0.0
 23
0.0
 33
0.0
 16
1.0
 26
0.0
 36
0.0
 17
0.0
 27
1.0
 37
0.0
 76
     0
330
1B
  0
LAYOUT
  5
26
102
{ACAD_REACTORS
330
1A
102
}
330
1A
100
AcDbPlotSettings
  1

  2
none_device
  4

  6

 40
0.0
 41
0.0
 42
0.0
 43
0.0
 44
0.0
 45
0.0
 46
0.0
 47
0.0
 48
0.0
 49
0.0
140
0.0
141
0.0
142
1.0
143
1.0
 70
   688
 72
     1
 73
     0
 74
     5
  7

 75
    16
147
1.0
148
0.0
149
0.0
100
AcDbLayout
  1
Layout2
 70
     1
 71
     2
 10
0.0
 20
0.0
 11
0.0
 21
0.0
 12
0.0
 22
0.0
 32
0.0
 14
0.0
 24
0.0
 34
0.0
 15
0.0
 25
0.0
 35
0.0
146
0.0
 13
0.0
 23
0.0
 33
0.0
 16
1.0
 26
0.0
 36
0.0
 17
0.0
 27
1.0
 37
0.0
 76
     0
330
23
  0
LAYOUT
  5
22
102
{ACAD_REACTORS
330
1A
102
}
330
1A
100
AcDbPlotSettings
  1

  2
none_device
  4
ANSI_A_(11.00_x_8.50_Inches)
  6

 40
6.35
 41
19.05
 42
6.35000508
 43
19.05000254
 44
279.4
 45
215.9
 46
76.60024653345144
 47
93.2240409529229
 48
0.0
 49
0.0
140
0.0
141
0.0
142
0.0604849068925936
143
1.0
 70
  1696
 72
     0
 73
     0
 74
     0
  7

 75
     0
147
0.0235690232323232
148
0.0
149
0.0
100
AcDbLayout
  1
Model
 70
     1
 71
     0
 10
0.0
 20
0.0
 11
420.0
 21
297.0
 12
0.0
 22
0.0
 32
0.0
 14
1.000000000000000E+20
 24
1.000000000000000E+20
 34
1.000000000000000E+20
 15
-1.000000000000000E+20
 25
-1.000000000000000E+20
 35
-1.000000000000000E+20
146
0.0
 13
0.0
 23
0.0
 33
0.0
 16
1.0
 26
0.0
 36
0.0
 17
0.0
 27
1.0
 37
0.0
 76
     0
330
1F
331
29
  0
MLINESTYLE
  5
18
102
{ACAD_REACTORS
330
17
102
}
330
17
100
AcDbMlineStyle
  2
Standard
 70
     0
  3

 62
   256
 51
90.0
 52
90.0
 71
     2
 49
0.5
 62
   256
  6
BYLAYER
 49
-0.5
 62
   256
  6
BYLAYER
  0
ACDBPLACEHOLDER
  5
F
102
{ACAD_REACTORS
330
E
102
}
330
E
  0
SCALE
  5
48
102
{ACAD_REACTORS
330
47
102
}
330
47
100
AcDbScale
 70
     0
300
1:1
140
1.0
141
1.0
290
     1
  0
SCALE
  5
49
102
{ACAD_REACTORS
330
47
102
}
330
47
100
AcDbScale
 70
     0
300
1:2
140
1.0
141
2.0
290
     0
  0
SCALE
  5
4A
102
{ACAD_REACTORS
330
47
102
}
330
47
100
AcDbScale
 70
     0
300
1:4
140
1.0
141
4.0
290
     0
  0
SCALE
  5
4B
102
{ACAD_REACTORS
330
47
102
}
330
47
100
AcDbScale
 70
     0
300
1:5
140
1.0
141
5.0
290
     0
  0
SCALE
  5
4C
102
{ACAD_REACTORS
330
47
102
}
330
47
100
AcDbScale
 70
     0
300
1:8
140
1.0
141
8.0
290
     0
  0
SCALE
  5
4D
102
{ACAD_REACTORS
330
47
102
}
330
47
100
AcDbScale
 70
     0
300
1:10
140
1.0
141
10.0
290
     0
  0
SCALE
  5
4E
102
{ACAD_REACTORS
330
47
102
}
330
47
100
AcDbScale
 70
     0
300
1:16
140
1.0
141
16.0
290
     0
  0
SCALE
  5
4F
102
{ACAD_REACTORS
330
47
102
}
330
47
100
AcDbScale
 70
     0
300
1:20
140
1.0
141
20.0
290
     0
  0
SCALE
  5
50
102
{ACAD_REACTORS
330
47
102
}
330
47
100
AcDbScale
 70
     0
300
1:30
140
1.0
141
30.0
290
     0
  0
SCALE
  5
51
102
{ACAD_REACTORS
330
47
102
}
330
47
100
AcDbScale
 70
     0
300
1:40
140
1.0
141
40.0
290
     0
  0
SCALE
  5
52
102
{ACAD_REACTORS
330
47
102
}
330
47
100
AcDbScale
 70
     0
300
1:50
140
1.0
141
50.0
290
     0
  0
SCALE
  5
53
102
{ACAD_REACTORS
330
47
102
}
330
47
100
AcDbScale
 70
     0
300
1:100
140
1.0
141
100.0
290
     0
  0
SCALE
  5
54
102
{ACAD_REACTORS
330
47
102
}
330
47
100
AcDbScale
 70
     0
300
2:1
140
2.0
141
1.0
290
     0
  0
SCALE
  5
55
102
{ACAD_REACTORS
330
47
102
}
330
47
100
AcDbScale
 70
     0
300
4:1
140
4.0
141
1.0
290
     0
  0
SCALE
  5
56
102
{ACAD_REACTORS
330
47
102
}
330
47
100
AcDbScale
 70
     0
300
8:1
140
8.0
141
1.0
290
     0
  0
SCALE
  5
57
102
{ACAD_REACTORS
330
47
102
}
330
47
100
AcDbScale
 70
     0
300
10:1
140
10.0
141
1.0
290
     0
  0
SCALE
  5
58
102
{ACAD_REACTORS
330
47
102
}
330
47
100
AcDbScale
 70
     0
300
100:1
140
100.0
141
1.0
290
     0
  0
SCALE
  5
59
102
{ACAD_REACTORS
330
47
102
}
330
47
100
AcDbScale
 70
     0
300
1/128" = 1'-0"
140
0.0078125
141
12.0
290
     0
  0
SCALE
  5
5A
102
{ACAD_REACTORS
330
47
102
}
330
47
100
AcDbScale
 70
     0
300
1/64" = 1'-0"
140
0.015625
141
12.0
290
     0
  0
SCALE
  5
5B
102
{ACAD_REACTORS
330
47
102
}
330
47
100
AcDbScale
 70
     0
300
1/32" = 1'-0"
140
0.03125
141
12.0
290
     0
  0
SCALE
  5
5C
102
{ACAD_REACTORS
330
47
102
}
330
47
100
AcDbScale
 70
     0
300
1/16" = 1'-0"
140
0.0625
141
12.0
290
     0
  0
SCALE
  5
5D
102
{ACAD_REACTORS
330
47
102
}
330
47
100
AcDbScale
 70
     0
300
3/32" = 1'-0"
140
0.09375
141
12.0
290
     0
  0
SCALE
  5
5E
102
{ACAD_REACTORS
330
47
102
}
330
47
100
AcDbScale
 70
     0
300
1/8" = 1'-0"
140
0.125
141
12.0
290
     0
  0
SCALE
  5
5F
102
{ACAD_REACTORS
330
47
102
}
330
47
100
AcDbScale
 70
     0
300
3/16" = 1'-0"
140
0.1875
141
12.0
290
     0
  0
SCALE
  5
60
102
{ACAD_REACTORS
330
47
102
}
330
47
100
AcDbScale
 70
     0
300
1/4" = 1'-0"
140
0.25
141
12.0
290
     0
  0
SCALE
  5
61
102
{ACAD_REACTORS
330
47
102
}
330
47
100
AcDbScale
 70
     0
300
3/8" = 1'-0"
140
0.375
141
12.0
290
     0
  0
SCALE
  5
62
102
{ACAD_REACTORS
330
47
102
}
330
47
100
AcDbScale
 70
     0
300
1/2" = 1'-0"
140
0.5
141
12.0
290
     0
  0
SCALE
  5
63
102
{ACAD_REACTORS
330
47
102
}
330
47
100
AcDbScale
 70
     0
300
3/4" = 1'-0"
140
0.75
141
12.0
290
     0
  0
SCALE
  5
64
102
{ACAD_REACTORS
330
47
102
}
330
47
100
AcDbScale
 70
     0
300
1" = 1'-0"
140
1.0
141
12.0
290
     0
  0
SCALE
  5
65
102
{ACAD_REACTORS
330
47
102
}
330
47
100
AcDbScale
 70
     0
300
1-1/2" = 1'-0"
140
1.5
141
12.0
290
     0
  0
SCALE
  5
66
102
{ACAD_REACTORS
330
47
102
}
330
47
100
AcDbScale
 70
     0
300
3" = 1'-0"
140
3.0
141
12.0
290
     0
  0
SCALE
  5
67
102
{ACAD_REACTORS
330
47
102
}
330
47
100
AcDbScale
 70
     0
300
6" = 1'-0"
140
6.0
141
12.0
290
     0
  0
SCALE
  5
68
102
{ACAD_REACTORS
330
47
102
}
330
47
100
AcDbScale
 70
     0
300
1'-0" = 1'-0"
140
12.0
141
12.0
290
     0
  0
ENDSEC
  0
EOF
