  0
SECTION
  2
HEADER
  9
$ACADVER
  1
AC1015
  9
$ACADMAINTVER
 70
     6
  9
$DWGCODEPAGE
  3
ANSI_949
  9
$INSBASE
 10
0.0
 20
0.0
 30
0.0
  9
$EXTMIN
 10
1.000000000000000E+20
 20
1.000000000000000E+20
 30
1.000000000000000E+20
  9
$EXTMAX
 10
-1.000000000000000E+20
 20
-1.000000000000000E+20
 30
-1.000000000000000E+20
  9
$LIMMIN
 10
0.0
 20
0.0
  9
$LIMMAX
 10
420.0
 20
297.0
  9
$ORTHOMODE
 70
     0
  9
$REGENMODE
 70
     1
  9
$FILLMODE
 70
     1
  9
$QTEXTMODE
 70
     0
  9
$MIRRTEXT
 70
     1
  9
$LTSCALE
 40
1.0
  9
$ATTMODE
 70
     1
  9
$TEXTSIZE
 40
3.5
  9
$TRACEWID
 40
1.0
  9
$TEXTSTYLE
  7
Standard
  9
$CLAYER
  8
0
  9
$CELTYPE
  6
ByLayer
  9
$CECOLOR
 62
   256
  9
$CELTSCALE
 40
1.0
  9
$DISPSILH
 70
     0
  9
$DIMSCALE
 40
1.0
  9
$DIMASZ
 40
3.302
  9
$DIMEXO
 40
1.0
  9
$DIMDLI
 40
3.75
  9
$DIMRND
 40
0.0
  9
$DIMDLE
 40
0.0
  9
$DIMEXE
 40
1.0
  9
$DIMTP
 40
0.0
  9
$DIMTM
 40
0.0
  9
$DIMTXT
 40
3.5
  9
$DIMCEN
 40
2.5
  9
$DIMTSZ
 40
0.0
  9
$DIMTOL
 70
     0
  9
$DIMLIM
 70
     0
  9
$DIMTIH
 70
     1
  9
$DIMTOH
 70
     1
  9
$DIMSE1
 70
     0
  9
$DIMSE2
 70
     0
  9
$DIMTAD
 70
     1
  9
$DIMZIN
 70
     0
  9
$DIMBLK
  1

  9
$DIMASO
 70
     1
  9
$DIMSHO
 70
     1
  9
$DIMPOST
  1

  9
$DIMAPOST
  1

  9
$DIMALT
 70
     0
  9
$DIMALTD
 70
     3
  9
$DIMALTF
 40
0.0393700787401575
  9
$DIMLFAC
 40
1.0
  9
$DIMTOFL
 70
     1
  9
$DIMTVP
 40
0.0
  9
$DIMTIX
 70
     0
  9
$DIMSOXD
 70
     0
  9
$DIMSAH
 70
     0
  9
$DIMBLK1
  1

  9
$DIMBLK2
  1

  9
$DIMSTYLE
  2
ISO-25
  9
$DIMCLRD
 70
     0
  9
$DIMCLRE
 70
     0
  9
$DIMCLRT
 70
     0
  9
$DIMTFAC
 40
1.0
  9
$DIMGAP
 40
1.524
  9
$DIMJUST
 70
     0
  9
$DIMSD1
 70
     0
  9
$DIMSD2
 70
     0
  9
$DIMTOLJ
 70
     0
  9
$DIMTZIN
 70
     0
  9
$DIMALTZ
 70
     0
  9
$DIMALTTZ
 70
     0
  9
$DIMUPT
 70
     0
  9
$DIMDEC
 70
     2
  9
$DIMTDEC
 70
     2
  9
$DIMALTU
 70
     2
  9
$DIMALTTD
 70
     3
  9
$DIMTXSTY
  7
Standard
  9
$DIMAUNIT
 70
     0
  9
$DIMADEC
 70
     2
  9
$DIMALTRND
 40
0.0
  9
$DIMAZIN
 70
     0
  9
$DIMDSEP
 70
    44
  9
$DIMATFIT
 70
     3
  9
$DIMFRAC
 70
     0
  9
$DIMLDRBLK
  1

  9
$DIMLUNIT
 70
     2
  9
$DIMLWD
 70
    -2
  9
$DIMLWE
 70
    -2
  9
$DIMTMOVE
 70
     0
  9
$LUNITS
 70
     2
  9
$LUPREC
 70
     2
  9
$SKETCHINC
 40
1.0
  9
$FILLETRAD
 40
10.0
  9
$AUNITS
 70
     0
  9
$AUPREC
 70
     2
  9
$MENU
  1
.
  9
$ELEVATION
 40
0.0
  9
$PELEVATION
 40
0.0
  9
$THICKNESS
 40
0.0
  9
$LIMCHECK
 70
     0
  9
$CHAMFERA
 40
0.0
  9
$CHAMFERB
 40
0.0
  9
$CHAMFERC
 40
0.0
  9
$CHAMFERD
 40
0.0
  9
$SKPOLY
 70
     0
  9
$TDCREATE
 40
2458311.467285636
  9
$TDUCREATE
 40
2458311.092285636
  9
$TDUPDATE
 40
2458318.69618956
  9
$TDUUPDATE
 40
2458318.32118956
  9
$TDINDWG
 40
0.0015669676
  9
$TDUSRTIMER
 40
2458318.320934213
  9
$USRTIMER
 70
     1
  9
$ANGBASE
 50
0.0
  9
$ANGDIR
 70
     0
  9
$PDMODE
 70
     0
  9
$PDSIZE
 40
-1.0
  9
$PLINEWID
 40
0.0
  9
$SPLFRAME
 70
     0
  9
$SPLINETYPE
 70
     6
  9
$SPLINESEGS
 70
     8
  9
$HANDSEED
  5
207
  9
$SURFTAB1
 70
     6
  9
$SURFTAB2
 70
     6
  9
$SURFTYPE
 70
     6
  9
$SURFU
 70
     6
  9
$SURFV
 70
     6
  9
$UCSBASE
  2

  9
$UCSNAME
  2

  9
$UCSORG
 10
0.0
 20
0.0
 30
0.0
  9
$UCSXDIR
 10
1.0
 20
0.0
 30
0.0
  9
$UCSYDIR
 10
0.0
 20
1.0
 30
0.0
  9
$UCSORTHOREF
  2

  9
$UCSORTHOVIEW
 70
     0
  9
$UCSORGTOP
 10
0.0
 20
0.0
 30
0.0
  9
$UCSORGBOTTOM
 10
0.0
 20
0.0
 30
0.0
  9
$UCSORGLEFT
 10
0.0
 20
0.0
 30
0.0
  9
$UCSORGRIGHT
 10
0.0
 20
0.0
 30
0.0
  9
$UCSORGFRONT
 10
0.0
 20
0.0
 30
0.0
  9
$UCSORGBACK
 10
0.0
 20
0.0
 30
0.0
  9
$PUCSBASE
  2

  9
$PUCSNAME
  2

  9
$PUCSORG
 10
0.0
 20
0.0
 30
0.0
  9
$PUCSXDIR
 10
1.0
 20
0.0
 30
0.0
  9
$PUCSYDIR
 10
0.0
 20
1.0
 30
0.0
  9
$PUCSORTHOREF
  2

  9
$PUCSORTHOVIEW
 70
     0
  9
$PUCSORGTOP
 10
0.0
 20
0.0
 30
0.0
  9
$PUCSORGBOTTOM
 10
0.0
 20
0.0
 30
0.0
  9
$PUCSORGLEFT
 10
0.0
 20
0.0
 30
0.0
  9
$PUCSORGRIGHT
 10
0.0
 20
0.0
 30
0.0
  9
$PUCSORGFRONT
 10
0.0
 20
0.0
 30
0.0
  9
$PUCSORGBACK
 10
0.0
 20
0.0
 30
0.0
  9
$USERI1
 70
     0
  9
$USERI2
 70
     0
  9
$USERI3
 70
     0
  9
$USERI4
 70
     0
  9
$USERI5
 70
     0
  9
$USERR1
 40
0.0
  9
$USERR2
 40
0.0
  9
$USERR3
 40
0.0
  9
$USERR4
 40
0.0
  9
$USERR5
 40
0.0
  9
$WORLDVIEW
 70
     1
  9
$SHADEDGE
 70
     3
  9
$SHADEDIF
 70
    70
  9
$TILEMODE
 70
     1
  9
$MAXACTVP
 70
    64
  9
$PINSBASE
 10
0.0
 20
0.0
 30
0.0
  9
$PLIMCHECK
 70
     0
  9
$PEXTMIN
 10
1.000000000000000E+20
 20
1.000000000000000E+20
 30
1.000000000000000E+20
  9
$PEXTMAX
 10
-1.000000000000000E+20
 20
-1.000000000000000E+20
 30
-1.000000000000000E+20
  9
$PLIMMIN
 10
0.0
 20
0.0
  9
$PLIMMAX
 10
0.0
 20
0.0
  9
$UNITMODE
 70
     0
  9
$VISRETAIN
 70
     1
  9
$PLINEGEN
 70
     0
  9
$PSLTSCALE
 70
     1
  9
$TREEDEPTH
 70
  3020
  9
$CMLSTYLE
  2
Standard
  9
$CMLJUST
 70
     0
  9
$CMLSCALE
 40
20.0
  9
$PROXYGRAPHICS
 70
     1
  9
$MEASUREMENT
 70
     1
  9
$CELWEIGHT
370
    -1
  9
$ENDCAPS
280
     0
  9
$JOINSTYLE
280
     0
  9
$LWDISPLAY
290
     1
  9
$INSUNITS
 70
     4
  9
$HYPERLINKBASE
  1

  9
$STYLESHEET
  1

  9
$XEDIT
290
     1
  9
$CEPSNTYPE
380
     0
  9
$PSTYLEMODE
290
     1
  9
$FINGERPRINTGUID
  2
{14744ED3-9C11-4D1B-9BCB-6FE4E90E66F3}
  9
$VERSIONGUID
  2
{FAEB1C32-E019-11D5-929B-00C0DF256EC4}
  9
$EXTNAMES
290
     1
  9
$PSVPSCALE
 40
0.0
  9
$OLESTARTUP
290
     0
  0
ENDSEC
  0
SECTION
  2
CLASSES
  0
CLASS
  1
ACDBDICTIONARYWDFLT
  2
AcDbDictionaryWithDefault
  3
ObjectDBX Classes
 90
        0
280
     0
281
     0
  0
CLASS
  1
VISUALSTYLE
  2
AcDbVisualStyle
  3
ObjectDBX Classes
 90
     4095
280
     0
281
     0
  0
CLASS
  1
MATERIAL
  2
AcDbMaterial
  3
ObjectDBX Classes
 90
     1153
280
     0
281
     0
  0
CLASS
  1
SCALE
  2
AcDbScale
  3
ObjectDBX Classes
 90
     1153
280
     0
281
     0
  0
CLASS
  1
SUN
  2
AcDbSun
  3
SCENEOE
 90
     1153
280
     0
281
     0
  0
CLASS
  1
ACDBPLACEHOLDER
  2
AcDbPlaceHolder
  3
ObjectDBX Classes
 90
        0
280
     0
281
     0
  0
CLASS
  1
LAYOUT
  2
AcDbLayout
  3
ObjectDBX Classes
 90
        0
280
     0
281
     0
  0
CLASS
  1
TABLESTYLE
  2
AcDbTableStyle
  3
ObjectDBX Classes
 90
     4095
280
     0
281
     0
  0
CLASS
  1
MLEADERSTYLE
  2
AcDbMLeaderStyle
  3
ACDB_MLEADERSTYLE_CLASS
 90
     4095
280
     0
281
     0
  0
CLASS
  1
RASTERVARIABLES
  2
AcDbRasterVariables
  3
ISM
 90
        0
280
     0
281
     0
  0
ENDSEC
  0
SECTION
  2
TABLES
  0
TABLE
  2
VPORT
  5
8
330
0
100
AcDbSymbolTable
 70
     1
  0
VPORT
  5
29
330
8
100
AcDbSymbolTableRecord
100
AcDbViewportTableRecord
  2
*Active
 70
     0
 10
0.0
 20
0.0
 11
1.0
 21
1.0
 12
-40.00678782647988
 22
-45.2921104078805
 13
0.0
 23
0.0
 14
10.0
 24
10.0
 15
10.0
 25
10.0
 16
0.0
 26
0.0
 36
1.0
 17
0.0
 27
0.0
 37
0.0
 40
164.6510282923193
 41
1.740812379110251
 42
50.0
 43
0.0
 44
0.0
 50
0.0
 51
0.0
 71
    16
 72
  2000
 73
     1
 74
     3
 75
     0
 76
     0
 77
     0
 78
     0
281
     0
 65
     1
110
0.0
120
0.0
130
0.0
111
1.0
121
0.0
131
0.0
112
0.0
122
1.0
132
0.0
 79
     0
146
0.0
  0
ENDTAB
  0
TABLE
  2
LTYPE
  5
5
330
0
100
AcDbSymbolTable
 70
     6
  0
LTYPE
  5
14
330
5
100
AcDbSymbolTableRecord
100
AcDbLinetypeTableRecord
  2
ByBlock
 70
     0
  3

 72
    65
 73
     0
 40
0.0
  0
LTYPE
  5
15
330
5
100
AcDbSymbolTableRecord
100
AcDbLinetypeTableRecord
  2
ByLayer
 70
     0
  3

 72
    65
 73
     0
 40
0.0
  0
LTYPE
  5
16
330
5
100
AcDbSymbolTableRecord
100
AcDbLinetypeTableRecord
  2
Continuous
 70
     0
  3
Solid line
 72
    65
 73
     0
 40
0.0
  0
LTYPE
  5
6A
330
5
100
AcDbSymbolTableRecord
100
AcDbLinetypeTableRecord
  2
HIDDEN
 70
     0
  3
Hidden __ __ __ __ __ __ __ __ __ __ __ __ __ __
 72
    65
 73
     2
 40
1.905
 49
1.27
 74
     0
 49
-0.635
 74
     0
  0
LTYPE
  5
6B
330
5
100
AcDbSymbolTableRecord
100
AcDbLinetypeTableRecord
  2
PHANTOM
 70
     0
  3
Phantom ______  __  __  ______  __  __  ______
 72
    65
 73
     6
 40
12.7
 49
6.35
 74
     0
 49
-1.27
 74
     0
 49
1.27
 74
     0
 49
-1.27
 74
     0
 49
1.27
 74
     0
 49
-1.27
 74
     0
  0
LTYPE
  5
6C
330
5
100
AcDbSymbolTableRecord
100
AcDbLinetypeTableRecord
  2
CENTER
 70
     0
  3
Center ____ _ ____ _ ____ _ ____ _ ____ _ ____
 72
    65
 73
     4
 40
10.16
 49
6.35
 74
     0
 49
-1.27
 74
     0
 49
1.27
 74
     0
 49
-1.27
 74
     0
  0
LTYPE
  5
6D
330
5
100
AcDbSymbolTableRecord
100
AcDbLinetypeTableRecord
  2
CENTERX2
 70
     0
  3
Center (2x) ________  __  ________  __  _____
 72
    65
 73
     4
 40
20.32
 49
12.7
 74
     0
 49
-2.54
 74
     0
 49
2.54
 74
     0
 49
-2.54
 74
     0
  0
LTYPE
  5
6E
330
5
100
AcDbSymbolTableRecord
100
AcDbLinetypeTableRecord
  2
DOT2
 70
     0
  3
Dot (.5x) ........................................
 72
    65
 73
     2
 40
0.635
 49
0.0
 74
     0
 49
-0.635
 74
     0
  0
ENDTAB
  0
TABLE
  2
LAYER
  5
2
102
{ACAD_XDICTIONARY
360
199
102
}
330
0
100
AcDbSymbolTable
 70
    18
  0
LAYER
  5
10
330
2
100
AcDbSymbolTableRecord
100
AcDbLayerTableRecord
  2
0
 70
     0
 62
     7
  6
Continuous
370
    -3
390
F
  0
LAYER
  5
6F
330
2
100
AcDbSymbolTableRecord
100
AcDbLayerTableRecord
  2
FORMAT
 70
     0
 62
     2
  6
Continuous
370
    -3
390
F
  0
LAYER
  5
70
330
2
100
AcDbSymbolTableRecord
100
AcDbLayerTableRecord
  2
외형선
 70
     0
 62
     4
  6
Continuous
370
    30
390
F
  0
LAYER
  5
71
330
2
100
AcDbSymbolTableRecord
100
AcDbLayerTableRecord
  2
숨은선
 70
     0
 62
     2
  6
HIDDEN
370
    15
390
F
  0
LAYER
  5
72
330
2
100
AcDbSymbolTableRecord
100
AcDbLayerTableRecord
  2
중심선
 70
     0
 62
     1
  6
CENTERX2
370
    -3
390
F
  0
LAYER
  5
73
330
2
100
AcDbSymbolTableRecord
100
AcDbLayerTableRecord
  2
파단선
 70
     0
 62
     4
  6
Continuous
370
    -3
390
F
  0
LAYER
  5
74
330
2
100
AcDbSymbolTableRecord
100
AcDbLayerTableRecord
  2
해칭선
 70
     0
 62
   100
  6
Continuous
370
    -3
390
F
  0
LAYER
  5
75
330
2
100
AcDbSymbolTableRecord
100
AcDbLayerTableRecord
  2
가는실선
 70
     0
 62
     4
  6
Continuous
370
    -3
390
F
  0
LAYER
  5
76
330
2
100
AcDbSymbolTableRecord
100
AcDbLayerTableRecord
  2
치수_보조선
 70
     0
 62
     4
  6
Continuous
370
    -3
390
F
  0
LAYER
  5
77
330
2
100
AcDbSymbolTableRecord
100
AcDbLayerTableRecord
  2
치수문자_일반주서
 70
     0
 62
     7
  6
Continuous
370
    15
390
F
  0
LAYER
  5
78
330
2
100
AcDbSymbolTableRecord
100
AcDbLayerTableRecord
  2
개별주서
 70
     0
 62
   100
  6
Continuous
370
    30
390
F
  0
LAYER
  5
79
330
2
100
AcDbSymbolTableRecord
100
AcDbLayerTableRecord
  2
중간선
 70
     0
 62
     2
  6
Continuous
370
    15
390
F
  0
LAYER
  5
7A
330
2
100
AcDbSymbolTableRecord
100
AcDbLayerTableRecord
  2
윤곽선
 70
     0
 62
     3
  6
Continuous
370
    40
390
F
  0
LAYER
  5
7B
330
2
100
AcDbSymbolTableRecord
100
AcDbLayerTableRecord
  2
중심마크
 70
     0
 62
   100
  6
Continuous
370
    30
390
F
  0
LAYER
  5
7C
330
2
100
AcDbSymbolTableRecord
100
AcDbLayerTableRecord
  2
가상선
 70
     0
 62
     4
  6
PHANTOM
370
    -3
390
F
  0
LAYER
  5
7D
330
2
100
AcDbSymbolTableRecord
100
AcDbLayerTableRecord
  2
특수지정선
 70
     0
 62
     5
  6
CENTERX2
370
    60
390
F
  0
LAYER
  5
7E
330
2
100
AcDbSymbolTableRecord
100
AcDbLayerTableRecord
  2
참조1
 70
     0
 62
    -4
  6
Continuous
370
    -3
390
F
  0
LAYER
  5
1A0
330
2
100
AcDbSymbolTableRecord
100
AcDbLayerTableRecord
  2
Defpoints
 70
     0
 62
     7
  6
Continuous
290
     0
370
    -3
390
F
  0
ENDTAB
  0
TABLE
  2
STYLE
  5
3
330
0
100
AcDbSymbolTable
 70
     2
  0
STYLE
  5
11
330
3
100
AcDbSymbolTableRecord
100
AcDbTextStyleTableRecord
  2
Standard
 70
     0
 40
0.0
 41
1.0
 50
0.0
 71
     0
 42
3.5
  3
txt
  4

  0
STYLE
  5
94
330
3
100
AcDbSymbolTableRecord
100
AcDbTextStyleTableRecord
  2
SLDTEXTSTYLE0
 70
     0
 40
0.0
 41
0.75
 50
0.0
 71
     0
 42
3.5
  3
TXT
  4

  0
ENDTAB
  0
TABLE
  2
VIEW
  5
6
330
0
100
AcDbSymbolTable
 70
     0
  0
ENDTAB
  0
TABLE
  2
UCS
  5
7
330
0
100
AcDbSymbolTable
 70
     0
  0
ENDTAB
  0
TABLE
  2
APPID
  5
9
330
0
100
AcDbSymbolTable
 70
     1
  0
APPID
  5
12
330
9
100
AcDbSymbolTableRecord
100
AcDbRegAppTableRecord
  2
ACAD
 70
     0
  0
ENDTAB
  0
TABLE
  2
DIMSTYLE
  5
A
330
0
100
AcDbSymbolTable
 70
     3
100
AcDbDimStyleTable
  0
DIMSTYLE
105
27
330
A
100
AcDbSymbolTableRecord
100
AcDbDimStyleTableRecord
  2
ISO-25
 70
     0
 41
2.5
 42
0.625
 43
3.75
 44
1.25
 73
     0
 74
     0
 77
     1
 78
     8
140
2.5
141
2.5
143
0.03937007874016
147
0.625
171
     3
172
     1
178
     0
271
     2
272
     2
274
     3
278
    44
283
     0
284
     8
340
11
  0
DIMSTYLE
105
F1
102
{ACAD_REACTORS
330
F0
330
12D
330
105
330
11A
102
}
330
A
100
AcDbSymbolTableRecord
100
AcDbDimStyleTableRecord
  2
SLDDIMSTYLE0
 70
     0
 41
3.302
 44
0.0
 45
0.000000001
 73
     0
 74
     0
 77
     1
 78
    12
 79
     3
140
3.5
143
0.0393700787401575
147
0.875
148
0.000000001
170
     1
172
     1
173
     1
178
     0
271
     2
272
     2
276
     2
284
    12
289
     0
340
94
  0
DIMSTYLE
105
106
330
A
100
AcDbSymbolTableRecord
100
AcDbDimStyleTableRecord
  2
SLDDIMSTYLE1
 70
     0
 41
3.302
 44
0.0
 45
0.000000001
 73
     0
 74
     0
 77
     1
 78
    12
 79
     3
140
3.5
143
0.0393700787401575
147
0.875
148
0.000000001
170
     1
173
     1
178
     0
271
     2
272
     2
276
     2
284
    12
340
94
  0
ENDTAB
  0
TABLE
  2
BLOCK_RECORD
  5
1
330
0
100
AcDbSymbolTable
 70
     8
  0
BLOCK_RECORD
  5
1F
330
1
100
AcDbSymbolTableRecord
100
AcDbBlockTableRecord
  2
*Model_Space
340
22
  0
BLOCK_RECORD
  5
1B
330
1
100
AcDbSymbolTableRecord
100
AcDbBlockTableRecord
  2
*Paper_Space
340
1E
  0
BLOCK_RECORD
  5
23
330
1
100
AcDbSymbolTableRecord
100
AcDbBlockTableRecord
  2
*Paper_Space0
340
26
  0
BLOCK_RECORD
  5
7F
330
1
100
AcDbSymbolTableRecord
100
AcDbBlockTableRecord
  2
블럭10
340
0
102
{BLKREFS
331
E9
102
}
  0
BLOCK_RECORD
  5
F2
330
1
100
AcDbSymbolTableRecord
100
AcDbBlockTableRecord
  2
_D
340
0
  0
BLOCK_RECORD
  5
107
330
1
100
AcDbSymbolTableRecord
100
AcDbBlockTableRecord
  2
_D_1
340
0
  0
BLOCK_RECORD
  5
11B
330
1
100
AcDbSymbolTableRecord
100
AcDbBlockTableRecord
  2
_D_2
340
0
  0
BLOCK_RECORD
  5
12E
330
1
100
AcDbSymbolTableRecord
100
AcDbBlockTableRecord
  2
_D_3
340
0
  0
BLOCK_RECORD
  5
148
330
1
100
AcDbSymbolTableRecord
100
AcDbBlockTableRecord
  2
SW_DOWELSYMBOL_0
340
0
102
{BLKREFS
331
14E
102
}
  0
ENDTAB
  0
ENDSEC
  0
SECTION
  2
BLOCKS
  0
BLOCK
  5
20
330
1F
100
AcDbEntity
  8
0
100
AcDbBlockBegin
  2
*Model_Space
 70
     0
 10
0.0
 20
0.0
 30
0.0
  3
*Model_Space
  1
*Model_Space
  0
ENDBLK
  5
21
330
1F
100
AcDbEntity
  8
0
100
AcDbBlockEnd
  0
BLOCK
  5
1C
330
1B
100
AcDbEntity
 67
     1
  8
0
100
AcDbBlockBegin
  2
*Paper_Space
 70
     0
 10
0.0
 20
0.0
 30
0.0
  3
*Paper_Space
  1
*Paper_Space
  0
ENDBLK
  5
1D
330
1B
100
AcDbEntity
 67
     1
  8
0
100
AcDbBlockEnd
  0
BLOCK
  5
24
330
23
100
AcDbEntity
  8
0
100
AcDbBlockBegin
  2
*Paper_Space0
 70
     0
 10
0.0
 20
0.0
 30
0.0
  3
*Paper_Space0
  1
*Paper_Space0
  0
ENDBLK
  5
25
330
23
100
AcDbEntity
  8
0
100
AcDbBlockEnd
  0
BLOCK
  5
80
330
7F
100
AcDbEntity
  8
0
100
AcDbBlockBegin
  2
블럭10
 70
     2
 10
0.0
 20
0.0
 30
0.0
  3
블럭10
  1
블럭10
  0
ELLIPSE
  5
82
330
7F
100
AcDbEntity
  8
중심선
100
AcDbEllipse
 10
20.54032771741204
 20
12.0471743016438
 30
0.0
 11
6.600054785286829
 21
-1.261213355974178E-13
 31
0.0
210
0.0
220
0.0
230
1.0
 40
0.636358354079598
 41
0.9219305317359503
 42
6.513795318482858
  0
ELLIPSE
  5
83
330
7F
100
AcDbEntity
  8
중심선
100
AcDbEllipse
 10
20.54032771746488
 20
12.04717430159265
 30
0.0
 11
3.960054785062283
 21
1.540847449632565E-10
 31
0.0
210
0.0
220
0.0
230
1.0
 40
0.3939339440162632
 41
1.131841032648279
 42
5.62031148352944
  0
LINE
  5
84
330
7F
100
AcDbEntity
  8
중심선
100
AcDbLine
 10
2.268634060543552
 20
16.24717430164393
 30
0.0
 11
5.714909304380834
 21
16.24717430164393
 31
0.0
  0
LINE
  5
85
330
7F
100
AcDbEntity
  8
중심선
100
AcDbLine
 10
5.245725140726316
 20
7.84717430164391
 30
0.0
 11
8.692000384563599
 21
7.84717430164391
 31
0.0
  0
LINE
  5
86
330
7F
100
AcDbEntity
  8
중심선
100
AcDbLine
 10
15.74043728645272
 20
16.24717430164393
 30
0.0
 11
8.692000384563599
 21
7.84717430164391
 31
0.0
  0
LINE
  5
87
330
7F
100
AcDbEntity
  8
중심선
100
AcDbLine
 10
0.1404042013395286
 20
13.71084872107135
 30
0.0
 11
3.58671253028996
 21
13.71088815037384
 31
0.0
  0
LINE
  5
88
330
7F
100
AcDbEntity
  8
중심선
100
AcDbLine
 10
2.750260043222114
 20
10.84717430164391
 30
0.0
 11
6.196535287059397
 21
10.84717430164391
 31
0.0
  0
LINE
  5
89
330
7F
100
AcDbEntity
  8
중심선
100
AcDbLine
 10
12.29416204261559
 20
16.24717430164393
 30
0.0
 11
5.245725140726316
 21
7.84717430164391
 31
0.0
  0
LINE
  5
8A
330
7F
100
AcDbEntity
  8
중심선
100
AcDbLine
 10
10.72767329541681
 20
16.24717430164393
 30
0.0
 11
6.196535287059397
 21
10.84717430164391
 31
0.0
  0
LINE
  5
8B
330
7F
100
AcDbEntity
  8
중심선
100
AcDbLine
 10
7.28139805157953
 20
16.24717430164393
 30
0.0
 11
2.750260043222114
 21
10.84717430164391
 31
0.0
  0
LINE
  5
8C
330
7F
100
AcDbEntity
  8
중심선
100
AcDbLine
 10
5.714909304380834
 20
16.24717430164393
 30
0.0
 11
3.58671253028996
 21
13.71088815037384
 31
0.0
  0
LINE
  5
8D
330
7F
100
AcDbEntity
  8
중심선
100
AcDbLine
 10
2.268634060543552
 20
16.24717430164393
 30
0.0
 11
0.1404042013395286
 21
13.71084872107135
 31
0.0
  0
LINE
  5
8E
330
7F
100
AcDbEntity
  8
중심선
100
AcDbLine
 10
7.28139805157953
 20
16.24717430164393
 30
0.0
 11
10.72767329541681
 21
16.24717430164393
 31
0.0
  0
LINE
  5
8F
330
7F
100
AcDbEntity
  8
중심선
100
AcDbLine
 10
12.29416204261559
 20
16.24717430164393
 30
0.0
 11
15.74043728645272
 21
16.24717430164393
 31
0.0
  0
LINE
  5
90
330
7F
100
AcDbEntity
  8
중심선
100
AcDbLine
 10
19.22036997980202
 20
11.08717430171403
 30
0.0
 11
23.66174974927406
 21
11.08717430171406
 31
0.0
  0
LINE
  5
91
330
7F
100
AcDbEntity
  8
중심선
100
AcDbLine
 10
19.22039502424796
 20
13.00717430171391
 30
0.0
 11
19.22036997980202
 21
11.08717430171403
 31
0.0
  0
LINE
  5
92
330
7F
100
AcDbEntity
  8
중심선
100
AcDbLine
 10
19.22039502424796
 20
13.00717430171391
 30
0.0
 11
26.96566020931264
 21
13.00717430171391
 31
0.0
  0
LINE
  5
93
330
7F
100
AcDbEntity
  8
중심선
100
AcDbLine
 10
22.22332737316547
 20
13.45928029700563
 30
0.0
 11
24.52862924686651
 21
15.39360700705356
 31
0.0
  0
ATTDEF
  5
95
330
7F
100
AcDbEntity
  8
FORMAT
 62
     2
100
AcDbText
 10
4.408487351596664
 20
2.075366912832191
 30
0.0
 40
4.233333333333333
  1
E1072016
 41
0.75
  7
SLDTEXTSTYLE0
 11
4.408487351596664
 21
-0.0412997538344756
 31
0.0
100
AcDbAttributeDefinition
  3

  2
AUTOATTR0
 70
     0
 74
     1
  0
ENDBLK
  5
81
330
7F
100
AcDbEntity
  8
0
100
AcDbBlockEnd
  0
BLOCK
  5
F3
330
F2
100
AcDbEntity
  8
0
100
AcDbBlockBegin
  2
_D
 70
     0
 10
0.0
 20
0.0
 30
0.0
  3
_D
  1
_D
  0
LINE
  5
F5
330
F2
100
AcDbEntity
  8
치수문자_일반주서
 62
     0
370
    -2
100
AcDbLine
 10
-36.36536934298442
 20
4.763574928723897
 30
0.0
 11
-49.80286934298445
 21
4.763574928723846
 31
0.0
  0
LINE
  5
F6
330
F2
100
AcDbEntity
  8
치수문자_일반주서
 62
     0
370
    -2
100
AcDbLine
 10
-36.36536934298442
 20
-4.761425071276109
 30
0.0
 11
-49.80286934298442
 21
-4.761425071276159
 31
0.0
  0
LINE
  5
F7
330
F2
100
AcDbEntity
  8
치수문자_일반주서
 62
     0
370
    -2
100
AcDbLine
 10
-49.80286934298444
 20
1.461574928723847
 30
0.0
 11
-49.80286934298443
 21
-1.45942507127616
 31
0.0
  0
SOLID
  5
F8
330
F2
100
AcDbEntity
  8
치수문자_일반주서
 62
     0
100
AcDbTrace
 10
-49.2525360096511
 20
1.461574928723849
 30
0.0
 11
-50.35320267631777
 21
1.461574928723845
 31
0.0
 12
-49.80286934298445
 22
4.763574928723846
 32
0.0
 13
-49.80286934298445
 23
4.763574928723846
 33
0.0
  0
SOLID
  5
F9
330
F2
100
AcDbEntity
  8
치수문자_일반주서
 62
     0
100
AcDbTrace
 10
-50.35320267631776
 20
-1.459425071276162
 30
0.0
 11
-49.2525360096511
 21
-1.459425071276158
 31
0.0
 12
-49.80286934298442
 22
-4.761425071276159
 32
0.0
 13
-49.80286934298442
 23
-4.761425071276159
 33
0.0
  0
MTEXT
  5
FA
330
F2
100
AcDbEntity
  8
치수문자_일반주서
 62
     0
100
AcDbMText
 10
-54.17786934298444
 20
0.0010749287238838
 30
0.0
 40
3.5
 41
0.0
 71
     2
 72
     1
  1
\A1;%%c9.53 [3/8]
  7
SLDTEXTSTYLE0
 11
-3.729883127349605E-15
 21
1.0
 31
0.0
 73
     1
 44
1.0
  0
POINT
  5
FB
330
F2
100
AcDbEntity
  8
Defpoints
 62
     0
100
AcDbPoint
 10
-36.30286934298442
 20
4.763574928723897
 30
0.0
  0
POINT
  5
FC
330
F2
100
AcDbEntity
  8
Defpoints
 62
     0
100
AcDbPoint
 10
-36.30286934298442
 20
-4.761425071276109
 30
0.0
  0
POINT
  5
FD
330
F2
100
AcDbEntity
  8
Defpoints
 62
     0
100
AcDbPoint
 10
-49.80286934298442
 20
-4.761425071276159
 30
0.0
  0
ENDBLK
  5
F4
330
F2
100
AcDbEntity
  8
0
100
AcDbBlockEnd
  0
BLOCK
  5
108
330
107
100
AcDbEntity
  8
0
100
AcDbBlockBegin
  2
_D_1
 70
     0
 10
0.0
 20
0.0
 30
0.0
  3
_D_1
  1
_D_1
  0
LINE
  5
10A
330
107
100
AcDbEntity
  8
치수문자_일반주서
 62
     0
370
    -2
100
AcDbLine
 10
53.37463065701546
 20
3.238574928723901
 30
0.0
 11
53.37463065701546
 21
13.19485453218004
 31
0.0
  0
LINE
  5
10B
330
107
100
AcDbEntity
  8
치수문자_일반주서
 62
     0
370
    -2
100
AcDbLine
 10
8.924630657015584
 20
2.5596412612602
 30
0.0
 11
8.924630657015584
 21
13.19485453218004
 31
0.0
  0
LINE
  5
10C
330
107
100
AcDbEntity
  8
치수문자_일반주서
 62
     0
370
    -2
100
AcDbLine
 10
50.07263065701546
 20
13.19485453218004
 30
0.0
 11
12.22663065701558
 21
13.19485453218004
 31
0.0
  0
SOLID
  5
10D
330
107
100
AcDbEntity
  8
치수문자_일반주서
 62
     0
100
AcDbTrace
 10
50.07263065701546
 20
12.64452119884671
 30
0.0
 11
50.07263065701546
 21
13.74518786551337
 31
0.0
 12
53.37463065701546
 22
13.19485453218004
 32
0.0
 13
53.37463065701546
 23
13.19485453218004
 33
0.0
  0
SOLID
  5
10E
330
107
100
AcDbEntity
  8
치수문자_일반주서
 62
     0
100
AcDbTrace
 10
12.22663065701558
 20
13.74518786551337
 30
0.0
 11
12.22663065701558
 21
12.64452119884671
 31
0.0
 12
8.924630657015584
 22
13.19485453218004
 32
0.0
 13
8.924630657015584
 23
13.19485453218004
 33
0.0
  0
MTEXT
  5
10F
330
107
100
AcDbEntity
  8
치수문자_일반주서
 62
     0
100
AcDbMText
 10
31.30314013532465
 20
17.56985453218004
 30
0.0
 40
3.5
 41
0.0
 71
     2
 72
     1
  1
\A1;44.45 [1 3/4]
  7
SLDTEXTSTYLE0
 73
     1
 44
1.0
  0
POINT
  5
110
330
107
100
AcDbEntity
  8
Defpoints
 62
     0
100
AcDbPoint
 10
53.37463065701546
 20
3.176074928723901
 30
0.0
  0
POINT
  5
111
330
107
100
AcDbEntity
  8
Defpoints
 62
     0
100
AcDbPoint
 10
8.924630657015584
 20
2.4971412612602
 30
0.0
  0
POINT
  5
112
330
107
100
AcDbEntity
  8
Defpoints
 62
     0
100
AcDbPoint
 10
8.924630657015584
 20
13.19485453218004
 30
0.0
  0
ENDBLK
  5
109
330
107
100
AcDbEntity
  8
0
100
AcDbBlockEnd
  0
BLOCK
  5
11C
330
11B
100
AcDbEntity
  8
0
100
AcDbBlockBegin
  2
_D_2
 70
     0
 10
0.0
 20
0.0
 30
0.0
  3
_D_2
  1
_D_2
  0
LINE
  5
11E
330
11B
100
AcDbEntity
  8
치수문자_일반주서
 62
     0
370
    -2
100
AcDbLine
 10
53.37463065701546
 20
3.238574928723901
 30
0.0
 11
53.37463065701546
 21
33.53949175391929
 31
0.0
  0
LINE
  5
11F
330
11B
100
AcDbEntity
  8
치수문자_일반주서
 62
     0
370
    -2
100
AcDbLine
 10
-37.1128693429844
 20
4.016074928723889
 30
0.0
 11
-37.1128693429844
 21
33.53949175391929
 31
0.0
  0
LINE
  5
120
330
11B
100
AcDbEntity
  8
치수문자_일반주서
 62
     0
370
    -2
100
AcDbLine
 10
50.07263065701546
 20
33.53949175391929
 30
0.0
 11
-33.8108693429844
 21
33.53949175391929
 31
0.0
  0
SOLID
  5
121
330
11B
100
AcDbEntity
  8
치수문자_일반주서
 62
     0
100
AcDbTrace
 10
50.07263065701546
 20
32.98915842058595
 30
0.0
 11
50.07263065701546
 21
34.08982508725262
 31
0.0
 12
53.37463065701546
 22
33.53949175391929
 32
0.0
 13
53.37463065701546
 23
33.53949175391929
 33
0.0
  0
SOLID
  5
122
330
11B
100
AcDbEntity
  8
치수문자_일반주서
 62
     0
100
AcDbTrace
 10
-33.8108693429844
 20
34.08982508725262
 30
0.0
 11
-33.8108693429844
 21
32.98915842058595
 31
0.0
 12
-37.1128693429844
 22
33.53949175391929
 32
0.0
 13
-37.1128693429844
 23
33.53949175391929
 33
0.0
  0
MTEXT
  5
123
330
11B
100
AcDbEntity
  8
치수문자_일반주서
 62
     0
100
AcDbMText
 10
8.13088065701545
 20
37.91449175391929
 30
0.0
 40
3.5
 41
0.0
 71
     2
 72
     1
  1
\A1;90.49 [3 9/16]
  7
SLDTEXTSTYLE0
 73
     1
 44
1.0
  0
POINT
  5
124
330
11B
100
AcDbEntity
  8
Defpoints
 62
     0
100
AcDbPoint
 10
53.37463065701546
 20
3.176074928723901
 30
0.0
  0
POINT
  5
125
330
11B
100
AcDbEntity
  8
Defpoints
 62
     0
100
AcDbPoint
 10
-37.1128693429844
 20
3.953574928723888
 30
0.0
  0
POINT
  5
126
330
11B
100
AcDbEntity
  8
Defpoints
 62
     0
100
AcDbPoint
 10
-37.1128693429844
 20
33.53949175391929
 30
0.0
  0
ENDBLK
  5
11D
330
11B
100
AcDbEntity
  8
0
100
AcDbBlockEnd
  0
BLOCK
  5
12F
330
12E
100
AcDbEntity
  8
0
100
AcDbBlockBegin
  2
_D_3
 70
     0
 10
0.0
 20
0.0
 30
0.0
  3
_D_3
  1
_D_3
  0
LINE
  5
131
330
12E
100
AcDbEntity
  8
치수문자_일반주서
 62
     0
370
    -2
100
AcDbLine
 10
53.43713065701546
 20
-3.173925071276098
 30
0.0
 11
63.26670570596681
 21
-3.173925071276063
 31
0.0
  0
LINE
  5
132
330
12E
100
AcDbEntity
  8
치수문자_일반주서
 62
     0
370
    -2
100
AcDbLine
 10
53.43713065701546
 20
3.176074928723901
 30
0.0
 11
63.26670570596679
 21
3.176074928723935
 31
0.0
  0
LINE
  5
133
330
12E
100
AcDbEntity
  8
치수문자_일반주서
 62
     0
370
    -2
100
AcDbLine
 10
63.26670570596679
 20
3.176074928723935
 30
0.0
 11
63.26670570596669
 21
35.81132492872393
 31
0.0
  0
LINE
  5
134
330
12E
100
AcDbEntity
  8
치수문자_일반주서
 62
     0
370
    -2
100
AcDbLine
 10
63.26670570596681
 20
-3.173925071276063
 30
0.0
 11
63.26670570596679
 21
3.176074928723935
 31
0.0
  0
LINE
  5
135
330
12E
100
AcDbEntity
  8
치수문자_일반주서
 62
     0
370
    -2
100
AcDbLine
 10
63.26670570596683
 20
-6.475925071276063
 30
0.0
 11
63.26670570596684
 21
-9.777925071276062
 31
0.0
  0
LINE
  5
136
330
12E
100
AcDbEntity
  8
치수문자_일반주서
 62
     0
370
    -2
100
AcDbLine
 10
63.26670570596678
 20
6.478074928723935
 30
0.0
 11
63.26670570596676
 21
9.780074928723934
 31
0.0
  0
SOLID
  5
137
330
12E
100
AcDbEntity
  8
치수문자_일반주서
 62
     0
100
AcDbTrace
 10
63.81703903930016
 20
-6.475925071276061
 30
0.0
 11
62.71637237263349
 21
-6.475925071276064
 31
0.0
 12
63.26670570596681
 22
-3.173925071276063
 32
0.0
 13
63.26670570596681
 23
-3.173925071276063
 33
0.0
  0
SOLID
  5
138
330
12E
100
AcDbEntity
  8
치수문자_일반주서
 62
     0
100
AcDbTrace
 10
62.71637237263344
 20
6.478074928723933
 30
0.0
 11
63.81703903930011
 21
6.478074928723936
 31
0.0
 12
63.26670570596679
 22
3.176074928723935
 32
0.0
 13
63.26670570596679
 23
3.176074928723935
 33
0.0
  0
MTEXT
  5
139
330
12E
100
AcDbEntity
  8
치수문자_일반주서
 62
     0
100
AcDbMText
 10
58.89170570596673
 20
23.12382492872392
 30
0.0
 40
3.5
 41
0.0
 71
     2
 72
     1
  1
\A1;%%c6.35 [1/4]
  7
SLDTEXTSTYLE0
 11
-3.356894814614647E-15
 21
1.0
 31
0.0
 73
     1
 44
1.0
  0
POINT
  5
13A
330
12E
100
AcDbEntity
  8
Defpoints
 62
     0
100
AcDbPoint
 10
53.37463065701546
 20
-3.173925071276099
 30
0.0
  0
POINT
  5
13B
330
12E
100
AcDbEntity
  8
Defpoints
 62
     0
100
AcDbPoint
 10
53.37463065701546
 20
3.176074928723901
 30
0.0
  0
POINT
  5
13C
330
12E
100
AcDbEntity
  8
Defpoints
 62
     0
100
AcDbPoint
 10
63.26670570596681
 20
3.176074928723938
 30
0.0
  0
ENDBLK
  5
130
330
12E
100
AcDbEntity
  8
0
100
AcDbBlockEnd
  0
BLOCK
  5
149
330
148
100
AcDbEntity
  8
0
100
AcDbBlockBegin
  2
SW_DOWELSYMBOL_0
 70
     0
 10
0.0
 20
0.0
 30
0.0
  3
SW_DOWELSYMBOL_0
  1
SW_DOWELSYMBOL_0
  0
CIRCLE
  5
14B
330
148
100
AcDbEntity
  8
해칭선
 62
     0
100
AcDbCircle
 10
0.0
 20
0.0
 30
0.0
 40
2.999999999999996
  0
HATCH
  5
14C
330
148
100
AcDbEntity
  8
0
  6
Continuous
 62
     0
370
     0
100
AcDbHatch
 10
0.0
 20
0.0
 30
0.0
210
0.0
220
0.0
230
1.0
  2
SOLID
 70
     1
 71
     0
 91
        1
 92
        0
 93
        3
 72
     2
 10
0.0
 20
0.0
 40
2.999999999999996
 50
0.0
 51
90.0
 73
     1
 72
     1
 10
0.0
 20
2.999999999999996
 11
0.0
 21
0.0
 72
     1
 10
0.0
 20
0.0
 11
2.999999999999996
 21
0.0
 97
        0
 75
     0
 76
     1
 98
        1
 10
0.0
 20
0.0
  0
HATCH
  5
14D
330
148
100
AcDbEntity
  8
0
  6
Continuous
 62
     0
370
     0
100
AcDbHatch
 10
0.0
 20
0.0
 30
0.0
210
0.0
220
0.0
230
1.0
  2
SOLID
 70
     1
 71
     0
 91
        1
 92
        0
 93
        3
 72
     2
 10
0.0
 20
0.0
 40
2.999999999999996
 50
180.0
 51
270.0000000000007
 73
     1
 72
     1
 10
0.0
 20
-2.999999999999996
 11
0.0
 21
0.0
 72
     1
 10
0.0
 20
0.0
 11
-2.999999999999996
 21
0.0
 97
        0
 75
     0
 76
     1
 98
        1
 10
0.0
 20
0.0
  0
ENDBLK
  5
14A
330
148
100
AcDbEntity
  8
0
100
AcDbBlockEnd
  0
ENDSEC
  0
SECTION
  2
ENTITIES
  0
LINE
  5
96
330
1F
100
AcDbEntity
  8
외형선
  6
Continuous
370
    15
100
AcDbLine
 10
2.000000000000004
 20
4.763574928723894
 30
0.0
 11
-12.43041934298428
 21
4.763574928723893
 31
0.0
  0
LINE
  5
97
330
1F
100
AcDbEntity
  8
외형선
  6
Continuous
370
    15
100
AcDbLine
 10
-36.30286934298441
 20
-4.761425071276108
 30
0.0
 11
2.000000000000004
 21
-4.761425071276105
 31
0.0
  0
LINE
  5
98
330
1F
100
AcDbEntity
  8
외형선
  6
Continuous
370
    15
100
AcDbLine
 10
2.000000000000004
 20
-4.761425071276106
 30
0.0
 11
7.404565678338742
 21
-3.313276062324275
 31
0.0
  0
LINE
  5
99
330
1F
100
AcDbEntity
  8
외형선
  6
Continuous
370
    15
100
AcDbLine
 10
7.404565678338742
 20
3.315425919772063
 30
0.0
 11
2.000000000000004
 21
4.763574928723894
 31
0.0
  0
LINE
  5
9A
330
1F
100
AcDbEntity
  8
외형선
  6
Continuous
370
    15
100
AcDbLine
 10
-36.30286934298441
 20
4.763574928723889
 30
0.0
 11
-37.1128693429844
 21
3.953574928723887
 31
0.0
  0
LINE
  5
9B
330
1F
100
AcDbEntity
  8
외형선
  6
Continuous
370
    15
100
AcDbLine
 10
-37.1128693429844
 20
-3.951425071276105
 30
0.0
 11
-36.30286934298441
 21
-4.761425071276106
 31
0.0
  0
SPLINE
  5
9C
330
1F
100
AcDbEntity
  8
외형선
  6
Continuous
370
    15
100
AcDbSpline
210
0.0
220
0.0
230
1.0
 70
     8
 71
     3
 72
     9
 73
     5
 74
     0
 42
0.000000001
 43
0.00000001
 40
0.0
 40
0.0
 40
0.0
 40
0.0
 40
0.4624162196603921
 40
1.0
 40
1.0
 40
1.0
 40
1.0
 10
8.92463065701563
 20
2.497133808026295
 30
0.0
 10
8.768724117653491
 20
2.492497381619968
 30
0.0
 10
8.431567822667475
 20
2.482470859605379
 30
0.0
 10
8.088502642516676
 20
2.481584773998301
 30
0.0
 10
7.904076366068323
 20
2.481108428747945
 30
0.0
  0
SPLINE
  5
9D
330
1F
100
AcDbEntity
  8
외형선
  6
Continuous
370
    15
100
AcDbSpline
210
0.0
220
0.0
230
1.0
 70
     8
 71
     3
 72
    18
 73
    14
 74
     0
 42
0.000000001
 43
0.00000001
 40
0.0
 40
0.0
 40
0.0
 40
0.0
 40
0.0061390186466241
 40
0.0127429831857475
 40
0.0200577036617143
 40
0.0284864710044468
 40
0.0506313568444208
 40
0.0833187502618172
 40
0.1917773464067352
 40
0.3624103289778475
 40
0.5737549110637712
 40
0.8053721487184112
 40
1.0
 40
1.0
 40
1.0
 40
1.0
 10
7.904147115963279
 20
2.480606196833699
 30
0.0
 10
7.903120530082451
 20
2.480706848073424
 30
0.0
 10
7.900989608615826
 20
2.48091577349445
 30
0.0
 10
7.896281988385408
 20
2.482687156552193
 30
0.0
 10
7.890131389580731
 20
2.485786441993855
 30
0.0
 10
7.878604978551821
 20
2.492759952529706
 30
0.0
 10
7.858448240770854
 20
2.507304841822515
 30
0.0
 10
7.810256109988518
 20
2.546506370385237
 30
0.0
 10
7.730173451291713
 20
2.61988443102259
 30
0.0
 10
7.625502642614417
 20
2.720002434640425
 30
0.0
 10
7.520862494143262
 20
2.817173195423768
 30
0.0
 10
7.448709209854102
 20
2.872666825876959
 30
0.0
 10
7.431127226390379
 20
2.863723176469934
 30
0.0
 10
7.423099113570706
 20
2.85963941500995
 30
0.0
  0
SPLINE
  5
9E
330
1F
100
AcDbEntity
  8
외형선
  6
Continuous
370
    15
100
AcDbSpline
210
0.0
220
0.0
230
1.0
 70
     8
 71
     3
 72
     9
 73
     5
 74
     0
 42
0.000000001
 43
0.00000001
 40
0.0
 40
0.0
 40
0.0
 40
0.0
 40
0.5002686477492769
 40
1.0
 40
1.0
 40
1.0
 40
1.0
 10
7.395422612231328
 20
-2.483205742058145
 30
0.0
 10
7.650751410263505
 20
-2.480282943357144
 30
0.0
 10
8.161134779640953
 20
-2.474440485081673
 30
0.0
 10
8.67022320819775
 20
-2.488138582054844
 30
0.0
 10
8.92463065701563
 20
-2.494983950578507
 30
0.0
  0
SPLINE
  5
9F
330
1F
100
AcDbEntity
  8
0
  6
Continuous
 62
     1
370
    15
100
AcDbSpline
210
0.0
220
0.0
230
1.0
 70
     8
 71
     3
 72
     9
 73
     5
 74
     0
 42
0.000000001
 43
0.00000001
 40
0.0
 40
0.0
 40
0.0
 40
0.0
 40
0.4623128234059999
 40
1.0
 40
1.0
 40
1.0
 40
1.0
 10
27.87169516164019
 20
0.8146928124810127
 30
0.0
 10
27.7375154499948
 20
0.8786551772859544
 30
0.0
 10
27.44727969435031
 20
1.017008174578376
 30
0.0
 10
27.15149899689328
 20
1.171902269961887
 30
0.0
 10
26.99246150878662
 20
1.255186838779729
 30
0.0
  0
SPLINE
  5
A0
330
1F
100
AcDbEntity
  8
0
  6
Continuous
 62
     1
370
    15
100
AcDbSpline
210
0.0
220
0.0
230
1.0
 70
     8
 71
     3
 72
     9
 73
     5
 74
     0
 42
0.000000001
 43
0.00000001
 40
0.0
 40
0.0
 40
0.0
 40
0.0
 40
0.4182931961548441
 40
1.0
 40
1.0
 40
1.0
 40
1.0
 10
45.14826344407208
 20
0.8146323713914877
 30
0.0
 10
45.0287789332876
 20
0.871391889000917
 30
0.0
 10
44.74313118218184
 20
1.007085029915449
 30
0.0
 10
44.44326719618429
 20
1.163964197113577
 30
0.0
 10
44.26883427530139
 20
1.25522187605429
 30
0.0
  0
LINE
  5
A1
330
1F
100
AcDbEntity
  8
0
  6
Continuous
 62
     1
370
    15
100
AcDbLine
 10
9.743112687303249
 20
1.241340739261268
 30
0.0
 11
9.70179572019293
 21
1.262714513888052
 31
0.0
  0
SPLINE
  5
A2
330
1F
100
AcDbEntity
  8
0
  6
Continuous
 62
     1
370
    15
100
AcDbSpline
210
0.0
220
0.0
230
1.0
 70
     8
 71
     3
 72
     9
 73
     5
 74
     0
 42
0.000000001
 43
0.00000001
 40
0.0
 40
0.0
 40
0.0
 40
0.0
 40
0.5236953066557416
 40
1.0
 40
1.0
 40
1.0
 40
1.0
 10
10.57395210581864
 20
0.8246434101859962
 30
0.0
 10
10.42943911819122
 20
0.8938891165955059
 30
0.0
 10
10.15349051641689
 20
1.026114297019033
 30
0.0
 10
9.875514140019948
 20
1.171901574680994
 30
0.0
 10
9.743112687303249
 20
1.241340739261269
 30
0.0
  0
LINE
  5
A3
330
1F
100
AcDbEntity
  8
0
  6
Continuous
 62
     1
370
    15
100
AcDbLine
 10
19.04738446209793
 20
-3.17392507127611
 30
0.0
 11
20.58681748428381
 21
-3.17392507127611
 31
0.0
  0
LINE
  5
A4
330
1F
100
AcDbEntity
  8
0
  6
Continuous
 62
     1
370
    15
100
AcDbLine
 10
37.8630140070325
 20
3.176074928723898
 30
0.0
 11
36.32414164856618
 21
3.176074928723898
 31
0.0
  0
LINE
  5
A5
330
1F
100
AcDbEntity
  8
0
  6
Continuous
 62
     1
370
    15
100
AcDbLine
 10
36.32414164856614
 20
-3.17392507127611
 30
0.0
 11
37.8630140070325
 21
-3.17392507127611
 31
0.0
  0
LINE
  5
A6
330
1F
100
AcDbEntity
  8
0
  6
Continuous
 62
     1
370
    15
100
AcDbLine
 10
20.58681748428383
 20
3.176074928723898
 30
0.0
 11
19.04738446209794
 21
3.176074928723898
 31
0.0
  0
SPLINE
  5
A7
330
1F
100
AcDbEntity
  8
0
  6
Continuous
 62
     1
370
    15
100
AcDbSpline
210
0.0
220
0.0
230
1.0
 70
     8
 71
     3
 72
    22
 73
    18
 74
     0
 42
0.000000001
 43
0.00000001
 40
0.0
 40
0.0
 40
0.0
 40
0.0
 40
0.119883684859302
 40
0.206627598165939
 40
0.2615340549811768
 40
0.3085890794807517
 40
0.3561677097893334
 40
0.4041037472977376
 40
0.452096117548956
 40
0.500006586728186
 40
0.5551917872769723
 40
0.6119540693735291
 40
0.6694764460662571
 40
0.7251203489827437
 40
0.7854902907908605
 40
0.8759635837666402
 40
1.0
 40
1.0
 40
1.0
 40
1.0
 10
22.04677518668085
 20
-2.640976250504709
 30
0.0
 10
22.23787737062914
 20
-2.622763635659484
 30
0.0
 10
22.56725484446842
 20
-2.59137296839557
 30
0.0
 10
22.98338483052442
 20
-2.559569958084958
 30
0.0
 10
23.28356390703109
 20
-2.539334015292826
 30
0.0
 10
23.52163125350286
 20
-2.525269506022894
 30
0.0
 10
23.74859336496841
 20
-2.513507908762245
 30
0.0
 10
23.9770709371568
 20
-2.503357365097853
 30
0.0
 10
24.20605636582376
 20
-2.494878166360203
 30
0.0
 10
24.44658234398403
 20
-2.487762372478154
 30
0.0
 10
24.70092360521657
 20
-2.482290967570069
 30
0.0
 10
24.97066097275168
 20
-2.478940472439905
 30
0.0
 10
25.24120843803887
 20
-2.478051676693037
 30
0.0
 10
25.51750390645113
 20
-2.479614981012687
 30
0.0
 10
25.84615922016125
 20
-2.484583466149478
 30
0.0
 10
26.28318567324926
 20
-2.496040417687913
 30
0.0
 10
26.6252203247253
 20
-2.512420977676246
 30
0.0
 10
26.8229957660008
 20
-2.521892744545631
 30
0.0
  0
SPLINE
  5
A8
330
1F
100
AcDbEntity
  8
0
  6
Continuous
 62
     1
370
    15
100
AcDbSpline
210
0.0
220
0.0
230
1.0
 70
     8
 71
     3
 72
    14
 73
    10
 74
     0
 42
0.000000001
 43
0.00000001
 40
0.0
 40
0.0
 40
0.0
 40
0.0
 40
0.2383576651662809
 40
0.4148020461131061
 40
0.5472134312691521
 40
0.6734069893063638
 40
0.7952066786758732
 40
0.9130193701909699
 40
0.9999999999999999
 40
0.9999999999999999
 40
0.9999999999999999
 40
0.9999999999999999
 10
44.09949158374172
 20
2.524045630533663
 30
0.0
 10
43.89058441968173
 20
2.514089302673244
 30
0.0
 10
43.52703362286
 20
2.496762798130614
 30
0.0
 10
43.05010462247449
 20
2.485076627750895
 30
0.0
 10
42.67330211995608
 20
2.480554931206315
 30
0.0
 10
42.34192105363399
 20
2.480319879051121
 30
0.0
 10
42.02286266752933
 20
2.483586787785779
 30
0.0
 10
41.73828678289569
 20
2.489356739861032
 30
0.0
 10
41.55971757490126
 20
2.49491163902972
 30
0.0
 10
41.48387495427559
 20
2.497270937785629
 30
0.0
  0
SPLINE
  5
A9
330
1F
100
AcDbEntity
  8
0
  6
Continuous
 62
     1
370
    15
100
AcDbSpline
210
0.0
220
0.0
230
1.0
 70
     8
 71
     3
 72
     9
 73
     5
 74
     0
 42
0.000000001
 43
0.00000001
 40
0.0
 40
0.0
 40
0.0
 40
0.0
 40
0.500628436984509
 40
1.0
 40
1.0
 40
1.0
 40
1.0
 10
9.573459447875916
 20
2.525445270399622
 30
0.0
 10
9.465109501520736
 20
2.519882767108269
 30
0.0
 10
9.248681631366548
 20
2.508771725704275
 30
0.0
 10
9.0325571013673
 20
2.501009862024151
 30
0.0
 10
8.924630657015584
 20
2.497133808026293
 30
0.0
  0
SPLINE
  5
AA
330
1F
100
AcDbEntity
  8
0
  6
Continuous
 62
     1
370
    15
100
AcDbSpline
210
0.0
220
0.0
230
1.0
 70
     8
 71
     3
 72
     9
 73
     5
 74
     0
 42
0.000000001
 43
0.00000001
 40
0.0
 40
0.0
 40
0.0
 40
0.0
 40
0.499371563015491
 40
1.0
 40
1.0
 40
1.0
 40
1.0
 10
8.924630657015584
 20
-2.494983950578505
 30
0.0
 10
9.0325571013673
 20
-2.498860004576362
 30
0.0
 10
9.248681631366548
 20
-2.506621868256487
 30
0.0
 10
9.465109501520736
 20
-2.517732909660482
 30
0.0
 10
9.573459447875916
 20
-2.523295412951834
 30
0.0
  0
SPLINE
  5
AB
330
1F
100
AcDbEntity
  8
0
  6
Continuous
 62
     1
370
    15
100
AcDbSpline
210
0.0
220
0.0
230
1.0
 70
     8
 71
     3
 72
    21
 73
    17
 74
     0
 42
0.000000001
 43
0.00000001
 40
0.0
 40
0.0
 40
0.0
 40
0.0
 40
0.1198837804479069
 40
0.2066221101595815
 40
0.2615186759129434
 40
0.3085687523961081
 40
0.3561473948794702
 40
0.4040859227868993
 40
0.4520743874030142
 40
0.499973849530077
 40
0.5644954013592295
 40
0.6312004810018752
 40
0.7003119162020399
 40
0.7728286199649839
 40
0.8694605288350397
 40
1.0
 40
1.0
 40
1.0
 40
1.0
 10
39.32304821590686
 20
-2.640992842630651
 30
0.0
 10
39.51417399120173
 20
-2.622777189695492
 30
0.0
 10
39.84358311435219
 20
-2.591382144983561
 30
0.0
 10
40.25973950983071
 20
-2.559576121143781
 30
0.0
 10
40.55991836034957
 20
-2.539339406227247
 30
0.0
 10
40.79798914453547
 20
-2.52527397717409
 30
0.0
 10
41.02497633505079
 20
-2.513510528022636
 30
0.0
 10
41.25348355221094
 20
-2.503358340051351
 30
0.0
 10
41.48247528486487
 20
-2.494878995434506
 30
0.0
 10
41.73786739538939
 20
-2.487322512909997
 30
0.0
 10
42.02286273266419
 20
-2.481403559823811
 30
0.0
 10
42.34192103526755
 20
-2.478179431277898
 30
0.0
 10
42.6733021251714
 20
-2.478402401796314
 30
0.0
 10
43.05010462053693
 20
-2.482927762970548
 30
0.0
 10
43.52703362362399
 20
-2.494612549271155
 30
0.0
 10
43.89058441996053
 20
-2.51193930238754
 30
0.0
 10
44.09949158374172
 20
-2.521895773085875
 30
0.0
  0
SPLINE
  5
AC
330
1F
100
AcDbEntity
  8
0
  6
Continuous
 62
     1
370
    15
100
AcDbSpline
210
0.0
220
0.0
230
1.0
 70
     8
 71
     3
 72
    15
 73
    11
 74
     0
 42
0.000000001
 43
0.00000001
 40
0.0
 40
0.0
 40
0.0
 40
0.0
 40
0.2276570342972985
 40
0.3937121509110085
 40
0.504515432157699
 40
0.6066445189160701
 40
0.7122213654686292
 40
0.8164031307474376
 40
0.9176903129762596
 40
1.0
 40
1.0
 40
1.0
 40
1.0
 10
26.8229957660008
 20
2.524042601993419
 30
0.0
 10
26.62522032504971
 20
2.514570794736199
 30
0.0
 10
26.2831856741347
 20
2.498190164900777
 30
0.0
 10
25.84615921803571
 20
2.486733588226744
 30
0.0
 10
25.51750391140663
 20
2.48176422149972
 30
0.0
 10
25.24120842067564
 20
2.480203695864061
 30
0.0
 10
24.97066103987288
 20
2.481081973287066
 30
0.0
 10
24.70092336149615
 20
2.484471168244128
 30
0.0
 10
24.45145962591156
 20
2.489706209338651
 30
0.0
 10
24.29221530116468
 20
2.494655934377421
 30
0.0
 10
24.22082328569305
 20
2.496874982667586
 30
0.0
  0
SPLINE
  5
AD
330
1F
100
AcDbEntity
  8
0
  6
Continuous
 62
     1
370
    15
100
AcDbSpline
210
0.0
220
0.0
230
1.0
 70
     8
 71
     3
 72
    13
 73
     9
 74
     0
 42
0.000000001
 43
0.00000001
 40
0.0
 40
0.0
 40
0.0
 40
0.0
 40
0.2661042819969983
 40
0.4630719391252532
 40
0.5933265336147601
 40
0.6991487457448998
 40
0.8063797072898984
 40
1.0
 40
1.0
 40
1.0
 40
1.0
 10
12.09448784493471
 20
-2.387009429854873
 30
0.0
 10
12.30550335366296
 20
-2.355286675386971
 30
0.0
 10
12.67271037520723
 20
-2.30008306379679
 30
0.0
 10
13.14129219104191
 20
-2.242228108232851
 30
0.0
 10
13.48351643999341
 20
-2.205105540917532
 30
0.0
 10
13.75513816094573
 20
-2.17937191554726
 30
0.0
 10
14.07684236384755
 20
-2.150865183475722
 30
0.0
 10
14.31470780929618
 20
-2.139390209067087
 30
0.0
 10
14.4677920212514
 20
-2.132005204442986
 30
0.0
  0
SPLINE
  5
AE
330
1F
100
AcDbEntity
  8
0
  6
Continuous
 62
     1
370
    15
100
AcDbSpline
210
0.0
220
0.0
230
1.0
 70
     8
 71
     3
 72
    13
 73
     9
 74
     0
 42
0.000000001
 43
0.00000001
 40
0.0
 40
0.0
 40
0.0
 40
0.0
 40
0.2697115088784068
 40
0.467145272771029
 40
0.615912700133018
 40
0.7708694883207469
 40
0.9304633781275831
 40
1.0
 40
1.0
 40
1.0
 40
1.0
 10
46.64776238259748
 20
-2.386947130223077
 30
0.0
 10
46.86223345169719
 20
-2.354717543428804
 30
0.0
 10
47.23370127111918
 20
-2.298895308860771
 30
0.0
 10
47.72012098459241
 20
-2.239061522744434
 30
0.0
 10
48.1127529369825
 20
-2.197090383994146
 30
0.0
 10
48.47847481360691
 20
-2.164095258992158
 30
0.0
 10
48.78216545938344
 20
-2.140454695675333
 30
0.0
 10
48.96309494543818
 20
-2.130314082681958
 30
0.0
 10
49.01800350024021
 20
-2.127236605282256
 30
0.0
  0
SPLINE
  5
AF
330
1F
100
AcDbEntity
  8
0
  6
Continuous
 62
     1
370
    15
100
AcDbSpline
210
0.0
220
0.0
230
1.0
 70
     8
 71
     3
 72
    19
 73
    15
 74
     0
 42
0.000000001
 43
0.00000001
 40
0.0
 40
0.0
 40
0.0
 40
0.0
 40
0.1128568453423926
 40
0.1976761757846285
 40
0.2536449950829687
 40
0.2986510141372692
 40
0.3441849532367953
 40
0.5271769073742637
 40
0.5960853737314481
 40
0.6641107763523848
 40
0.7254248135535575
 40
0.7885126471230668
 40
0.8792257384196633
 40
1.0
 40
1.0
 40
1.0
 40
1.0
 10
34.91724659156102
 20
2.172592276845613
 30
0.0
 10
34.70824446520361
 20
2.156181038317992
 30
0.0
 10
34.3421635159812
 20
2.127435676331423
 30
0.0
 10
33.87355344668973
 20
2.105959790999905
 30
0.0
 10
33.53031995989202
 20
2.095716902165836
 30
0.0
 10
33.25960773027524
 20
2.091209434674921
 30
0.0
 10
32.75449456280389
 20
2.088691270675481
 30
0.0
 10
32.20399916832333
 20
2.102039653999853
 30
0.0
 10
31.61331426043832
 20
2.135523550035735
 30
0.0
 10
31.24679332297886
 20
2.162426663327667
 30
0.0
 10
30.89097263437726
 20
2.194030512323335
 30
0.0
 10
30.49355660825572
 20
2.235377240107087
 30
0.0
 10
29.98688523512389
 20
2.296821515458936
 30
0.0
 10
29.59495504096191
 20
2.355574467337299
 30
0.0
 10
29.37113513330769
 20
2.389126565286643
 30
0.0
  0
SPLINE
  5
B0
330
1F
100
AcDbEntity
  8
0
  6
Continuous
 62
     1
370
    15
100
AcDbSpline
210
0.0
220
0.0
230
1.0
 70
     8
 71
     3
 72
    13
 73
     9
 74
     0
 42
0.000000001
 43
0.00000001
 40
0.0
 40
0.0
 40
0.0
 40
0.0
 40
0.2455833354175478
 40
0.4325899280883286
 40
0.5803716001848094
 40
0.7353284960277066
 40
0.8953310698846675
 40
1.0
 40
1.0
 40
1.0
 40
1.0
 10
29.37113513330768
 20
-2.386976707838855
 30
0.0
 10
29.56574673338841
 20
-2.357621915374887
 30
0.0
 10
29.90855101178513
 20
-2.305914060118968
 30
0.0
 10
30.36608263522842
 20
-2.248304656597333
 30
0.0
 10
30.75076555720506
 20
-2.20570506175848
 30
0.0
 10
31.11576259746607
 20
-2.171340974245374
 30
0.0
 10
31.4470540987578
 20
-2.144627343632918
 30
0.0
 10
31.65575696313265
 20
-2.132248555971636
 30
0.0
 10
31.73829212539329
 20
-2.127353150001649
 30
0.0
  0
SPLINE
  5
B1
330
1F
100
AcDbEntity
  8
0
  6
Continuous
 62
     1
370
    15
100
AcDbSpline
210
0.0
220
0.0
230
1.0
 70
     8
 71
     3
 72
    19
 73
    15
 74
     0
 42
0.000000001
 43
0.00000001
 40
0.0
 40
0.0
 40
0.0
 40
0.0
 40
0.1128842827238058
 40
0.1977132136289781
 40
0.253674252369571
 40
0.2986738445634105
 40
0.3442126654874216
 40
0.5272242166352064
 40
0.5961359560667515
 40
0.6641743353644453
 40
0.7254864482271925
 40
0.788568929881371
 40
0.8792635568680134
 40
1.0
 40
1.0
 40
1.0
 40
1.0
 10
52.19385237452254
 20
2.172606644498185
 30
0.0
 10
51.98479195169828
 20
2.156189734477385
 30
0.0
 10
51.61862930228547
 20
2.127436041228416
 30
0.0
 10
51.14995372593109
 20
2.105958207311663
 30
0.0
 10
50.80674087273454
 20
2.095716723545652
 30
0.0
 10
50.53605931736178
 20
2.09120962472812
 30
0.0
 10
50.03090380537881
 20
2.088690719038934
 30
0.0
 10
49.48035466679939
 20
2.102042267913126
 30
0.0
 10
48.88961555582554
 20
2.135532245392255
 30
0.0
 10
48.52305388940277
 20
2.162440913989447
 30
0.0
 10
48.16722299545371
 20
2.194048849384369
 30
0.0
 10
47.76986729801101
 20
2.235392338768715
 30
0.0
 10
47.26332303267415
 20
2.296823163724027
 30
0.0
 10
46.87150672982447
 20
2.35555724385756
 30
0.0
 10
46.64776238259748
 20
2.389096987670865
 30
0.0
  0
SPLINE
  5
B2
330
1F
100
AcDbEntity
  8
0
  6
Continuous
 62
     1
370
    15
100
AcDbSpline
210
0.0
220
0.0
230
1.0
 70
     8
 71
     3
 72
    19
 73
    15
 74
     0
 42
0.000000001
 43
0.00000001
 40
0.0
 40
0.0
 40
0.0
 40
0.0
 40
0.1035297566006
 40
0.183529108816424
 40
0.2468921798375871
 40
0.3125513136758775
 40
0.3804423341030266
 40
0.4486604719184423
 40
0.5506697971561411
 40
0.6488884495709774
 40
0.694968620843588
 40
0.7626999328574297
 40
0.8640481906911343
 40
1.0
 40
1.0
 40
1.0
 40
1.0
 10
17.64075637908774
 20
2.172587861374525
 30
0.0
 10
17.4486406290889
 20
2.157379602927112
 30
0.0
 10
17.108073496077
 20
2.130419642707448
 30
0.0
 10
16.65175520893502
 20
2.108131454520767
 30
0.0
 10
16.26678459966069
 20
2.095645045237289
 30
0.0
 10
15.90325232226046
 20
2.089914089919983
 30
0.0
 10
15.53029933714374
 20
2.090474428667035
 30
0.0
 10
15.08991465861252
 20
2.098807133652354
 30
0.0
 10
14.59362520847726
 20
2.118971721155184
 30
0.0
 10
14.13859266193638
 20
2.149143181881881
 30
0.0
 10
13.74638583747466
 20
2.181835964442195
 30
0.0
 10
13.34917022314419
 20
2.220470533628213
 30
0.0
 10
12.78636557802569
 20
2.28599250080967
 30
0.0
 10
12.34649469491627
 20
2.351582218922863
 30
0.0
 10
12.09448784493471
 20
2.389159287302661
 30
0.0
  0
LINE
  5
B3
330
1F
100
AcDbEntity
  8
외형선
  6
Continuous
370
    15
100
AcDbLine
 10
2.000000000000004
 20
4.763574928723894
 30
0.0
 11
2.000000000000004
 21
-4.761425071276101
 31
0.0
  0
LINE
  5
B4
330
1F
100
AcDbEntity
  8
외형선
  6
Continuous
370
    15
100
AcDbLine
 10
-36.30286934298441
 20
4.763574928723889
 30
0.0
 11
-36.30286934298441
 21
-4.761425071276101
 31
0.0
  0
SPLINE
  5
B5
330
1F
100
AcDbEntity
  8
외형선
  6
Continuous
370
    15
100
AcDbSpline
210
0.0
220
0.0
230
1.0
 70
     8
 71
     3
 72
     8
 73
     4
 74
     0
 42
0.000000001
 43
0.00000001
 40
0.0
 40
0.0
 40
0.0
 40
0.0
 40
1.0
 40
1.0
 40
1.0
 40
1.0
 10
7.924630657015585
 20
2.122285054810947
 30
0.0
 10
7.750631179759195
 20
2.213065352836209
 30
0.0
 10
7.577255883067324
 20
2.303918556669781
 30
0.0
 10
7.40449777707486
 20
2.394742823848289
 30
0.0
  0
LINE
  5
B6
330
1F
100
AcDbEntity
  8
외형선
  6
Continuous
370
    15
100
AcDbLine
 10
7.924630657015585
 20
2.122285054810947
 30
0.0
 11
7.924630657015585
 21
1.387323338304091
 31
0.0
  0
SPLINE
  5
B7
330
1F
100
AcDbEntity
  8
외형선
  6
Continuous
370
    15
100
AcDbSpline
210
0.0
220
0.0
230
1.0
 70
     8
 71
     3
 72
     8
 73
     4
 74
     0
 42
0.000000001
 43
0.00000001
 40
0.0
 40
0.0
 40
0.0
 40
0.0
 40
1.0
 40
1.0
 40
1.0
 40
1.0
 10
7.404565678338746
 20
1.679642356325094
 30
0.0
 10
7.57797514588728
 20
1.582280563411708
 30
0.0
 10
7.751325534787587
 20
1.484832619290619
 30
0.0
 10
7.924630657016549
 20
1.387323338302299
 30
0.0
  0
LINE
  5
B8
330
1F
100
AcDbEntity
  8
외형선
  6
Continuous
370
    15
100
AcDbLine
 10
7.404565678338742
 20
-3.313276062324275
 30
0.0
 11
7.404565678338746
 21
1.67969838469847
 31
0.0
  0
LINE
  5
B9
330
1F
100
AcDbEntity
  8
외형선
  6
Continuous
370
    15
100
AcDbLine
 10
7.404565678338742
 20
2.3947868077669
 30
0.0
 11
7.404565678338742
 21
3.315425919772063
 31
0.0
  0
LINE
  5
BA
330
1F
100
AcDbEntity
  8
외형선
  6
Continuous
370
    15
100
AcDbLine
 10
-37.1128693429844
 20
3.953574928723888
 30
0.0
 11
-37.1128693429844
 21
-3.951425071276105
 31
0.0
  0
SPLINE
  5
BB
330
1F
100
AcDbEntity
  8
외형선
  6
Continuous
370
    15
100
AcDbSpline
210
0.0
220
0.0
230
1.0
 70
    24
 71
     3
 72
     9
 73
     5
 74
     0
 42
0.000000001
 43
0.00000001
 40
0.0
 40
0.0
 40
0.0
 40
0.0
 40
0.8615657368824867
 40
1.0
 40
1.0
 40
1.0
 40
1.0
 10
8.924630657015584
 20
0.8476894328615115
 30
0.0
 10
8.924630657015584
 20
0.8485627810695121
 30
0.0
 10
8.924630657015584
 20
0.8495764567191038
 30
0.0
 10
8.924630657015584
 20
0.8469880926790532
 30
0.0
 10
8.924630657015584
 20
0.8466297744104888
 30
0.0
  0
SPLINE
  5
BC
330
1F
100
AcDbEntity
  8
외형선
  6
Continuous
370
    15
100
AcDbSpline
210
0.0
220
0.0
230
1.0
 70
    24
 71
     3
 72
    11
 73
     7
 74
     0
 42
0.000000001
 43
0.00000001
 40
0.0
 40
0.0
 40
0.0
 40
0.0
 40
0.0721893276990928
 40
0.4775590743501699
 40
0.7371908365619724
 40
1.0
 40
1.0
 40
1.0
 40
1.0
 10
8.924630657015584
 20
0.7767566292486718
 30
0.0
 10
8.924630657015584
 20
0.7733649163246938
 30
0.0
 10
8.924630657015584
 20
0.750927482204404
 30
0.0
 10
8.924630657015587
 20
0.6876207216580815
 30
0.0
 10
8.924630657015577
 20
0.5979429491974597
 30
0.0
 10
8.924630657015602
 20
0.5362095572049607
 30
0.0
 10
8.924630657015616
 20
0.5051551349550948
 30
0.0
  0
SPLINE
  5
BD
330
1F
100
AcDbEntity
  8
외형선
  6
Continuous
370
    15
100
AcDbSpline
210
0.0
220
0.0
230
1.0
 70
     8
 71
     3
 72
    10
 73
     6
 74
     0
 42
0.000000001
 43
0.00000001
 40
0.0
 40
0.0
 40
0.0
 40
0.0
 40
0.5
 40
0.5
 40
1.0
 40
1.0
 40
1.0
 40
1.0
 10
8.924630657015623
 20
0.5051551349550851
 30
0.0
 10
8.67196583668516
 20
0.6048006488181135
 30
0.0
 10
8.420392163645573
 20
0.7027047497378291
 30
0.0
 10
7.911665916839515
 20
0.8941331590625123
 30
0.0
 10
7.656628693567263
 20
0.9873715285599904
 30
0.0
 10
7.404549304136801
 20
1.076830572670979
 30
0.0
  0
SPLINE
  5
BE
330
1F
100
AcDbEntity
  8
외형선
  6
Continuous
370
    15
100
AcDbSpline
210
0.0
220
0.0
230
1.0
 70
     8
 71
     3
 72
    10
 73
     6
 74
     0
 42
0.000000001
 43
0.00000001
 40
0.0
 40
0.0
 40
0.0
 40
0.0
 40
0.5
 40
0.5
 40
1.0
 40
1.0
 40
1.0
 40
1.0
 10
7.924630657015585
 20
1.387323338304091
 30
0.0
 10
8.092073107873706
 20
1.300585696737461
 30
0.0
 10
8.259720946601131
 20
1.211891620764132
 30
0.0
 10
8.593348259051421
 20
1.031704411919993
 30
0.0
 10
8.758348459182791
 20
0.9403964525561045
 30
0.0
 10
8.924630657013662
 20
0.8476894328625819
 30
0.0
  0
SPLINE
  5
BF
330
1F
100
AcDbEntity
  8
외형선
  6
Continuous
370
    15
100
AcDbSpline
210
0.0
220
0.0
230
1.0
 70
     8
 71
     3
 72
    10
 73
     6
 74
     0
 42
0.000000001
 43
0.00000001
 40
0.0
 40
0.0
 40
0.0
 40
0.0
 40
0.5
 40
0.5
 40
1.0
 40
1.0
 40
1.0
 40
1.0
 10
8.924630657015584
 20
1.659886265617751
 30
0.0
 10
8.758348459184383
 20
1.741903746931397
 30
0.0
 10
8.5933482590527
 20
1.821435187268386
 30
0.0
 10
8.259720946601771
 20
1.975839654525745
 30
0.0
 10
8.092073107874029
 20
2.050546876436697
 30
0.0
 10
7.924630657015585
 20
2.12228505481095
 30
0.0
  0
LINE
  5
C0
330
1F
100
AcDbEntity
  8
외형선
  6
Continuous
370
    15
100
AcDbLine
 10
8.924630657015584
 20
1.65988626561775
 30
0.0
 11
8.92463065701558
 21
0.8476894328656728
 31
0.0
  0
SPLINE
  5
C1
330
1F
100
AcDbEntity
  8
외형선
  6
Continuous
370
    15
100
AcDbSpline
210
0.0
220
0.0
230
1.0
 70
     8
 71
     3
 72
    10
 73
     6
 74
     0
 42
0.000000001
 43
0.00000001
 40
0.0
 40
0.0
 40
0.0
 40
0.0
 40
0.5
 40
0.5
 40
1.0
 40
1.0
 40
1.0
 40
1.0
 10
8.924630657015598
 20
-2.472731529826425
 30
0.0
 10
8.671964426746563
 20
-2.446211256617652
 30
0.0
 10
8.42038933240693
 20
-2.411879211187548
 30
0.0
 10
7.911660231584601
 20
-2.327793165851578
 30
0.0
 10
7.656621594454205
 20
-2.278107696760612
 30
0.0
 10
7.404540864107639
 20
-2.221554394960493
 30
0.0
  0
SPLINE
  5
C2
330
1F
100
AcDbEntity
  8
외형선
  6
Continuous
370
    15
100
AcDbSpline
210
0.0
220
0.0
230
1.0
 70
    24
 71
     3
 72
    14
 73
    10
 74
     0
 42
0.000000001
 43
0.00000001
 40
0.0
 40
0.0
 40
0.0
 40
0.0
 40
0.25
 40
0.25
 40
0.5
 40
0.5
 40
0.75
 40
0.75
 40
1.0
 40
1.0
 40
1.0
 40
1.0
 10
8.924630657015584
 20
0.5051551349551003
 30
0.0
 10
8.924630657015584
 20
0.2239277959799848
 30
0.0
 10
8.924630657015584
 20
-0.0668219606768551
 30
0.0
 10
8.924630657015584
 20
-0.6408231179087979
 30
0.0
 10
8.924630657015584
 20
-0.923780893335281
 30
0.0
 10
8.924630657015584
 20
-1.453037209445213
 30
0.0
 10
8.924630657015584
 20
-1.699053740236174
 30
0.0
 10
8.924630657015584
 20
-2.132296819451925
 30
0.0
 10
8.924630657015584
 20
-2.319427445043623
 30
0.0
 10
8.924630657015584
 20
-2.472731529826424
 30
0.0
  0
SPLINE
  5
C3
330
1F
100
AcDbEntity
  8
외형선
  6
Continuous
370
    15
100
AcDbSpline
210
0.0
220
0.0
230
1.0
 70
    24
 71
     3
 72
    13
 73
     9
 74
     0
 42
0.000000001
 43
0.00000001
 40
0.0
 40
0.0
 40
0.0
 40
0.0
 40
0.0034127320100256
 40
0.1660865974907048
 40
0.4015532644420392
 40
0.6438484806866074
 40
0.8558875615519367
 40
1.0
 40
1.0
 40
1.0
 40
1.0
 10
8.924630657015584
 20
2.496667939592614
 30
0.0
 10
8.924630657015584
 20
2.496828577426435
 30
0.0
 10
8.924630657015587
 20
2.504646299758378
 30
0.0
 10
8.924630657015584
 20
2.473151627427667
 30
0.0
 10
8.924630657015584
 20
2.376225850740264
 30
0.0
 10
8.924630657015584
 20
2.167821874485043
 30
0.0
 10
8.924630657015584
 20
1.926552403930583
 30
0.0
 10
8.924630657015584
 20
1.736705526424998
 30
0.0
 10
8.924630657015584
 20
1.659886265617616
 30
0.0
  0
SPLINE
  5
C4
330
1F
100
AcDbEntity
  8
0
  6
Continuous
 62
     1
370
    15
100
AcDbSpline
210
0.0
220
0.0
230
1.0
 70
     8
 71
     3
 72
    24
 73
    20
 74
     0
 42
0.000000001
 43
0.00000001
 40
0.0
 40
0.0
 40
0.0
 40
0.0
 40
0.0425727980761616
 40
0.104173201364216
 40
0.1657556262018621
 40
0.2273270875125326
 40
0.2888946402933802
 40
0.3493639877571296
 40
0.4098482677792146
 40
0.4703581562875722
 40
0.5309005941724688
 40
0.5925213203035561
 40
0.6541182639099515
 40
0.7156983869772291
 40
0.7772687128351622
 40
0.8388363006360556
 40
0.8993071363005241
 40
0.959794446744807
 40
1.0
 40
1.0
 40
1.0
 40
1.0
 10
41.48387495427559
 20
-2.495121080337841
 30
0.0
 10
41.18728557648299
 20
-2.599470168372767
 30
0.0
 10
40.46154833647343
 20
-2.854806417133957
 30
0.0
 10
39.30691558231032
 20
-3.089898342646245
 30
0.0
 10
38.01999730569207
 20
-3.202591062625115
 30
0.0
 10
36.73336371486568
 20
-3.135462532386353
 30
0.0
 10
35.45447784313136
 20
-2.900120030194087
 30
0.0
 10
34.18322620822286
 20
-2.510986688165235
 30
0.0
 10
32.9192536773983
 20
-1.992120617050501
 30
0.0
 10
31.65468644100095
 20
-1.368223778203523
 30
0.0
 10
30.38198964254461
 20
-0.668292596081452
 30
0.0
 10
29.10184110941051
 20
0.0723098592574929
 30
0.0
 10
27.81456431994115
 20
0.8133249338563117
 30
0.0
 10
26.52770735854695
 20
1.510098424785322
 30
0.0
 10
25.24110079984555
 20
2.124070722471024
 30
0.0
 10
23.96221410179135
 20
2.621088830161898
 30
0.0
 10
22.69091925358504
 20
2.968590278566572
 30
0.0
 10
21.56834968706533
 20
3.158258911737159
 30
0.0
 10
20.86689902177416
 20
3.157639410384984
 30
0.0
 10
20.58681748428383
 20
3.157392050307105
 30
0.0
  0
SPLINE
  5
C5
330
1F
100
AcDbEntity
  8
0
  6
Continuous
 62
     1
370
    15
100
AcDbSpline
210
0.0
220
0.0
230
1.0
 70
     8
 71
     3
 72
    16
 73
    12
 74
     0
 42
0.000000001
 43
0.00000001
 40
0.0
 40
0.0
 40
0.0
 40
0.0
 40
0.0277793690414997
 40
0.1529336688523394
 40
0.2780879430929009
 40
0.40324219187812
 40
0.5283964153229719
 40
0.6535506135424753
 40
0.7787047866516856
 40
0.9038589347656997
 40
1.0
 40
1.0
 40
1.0
 40
1.0
 10
39.32778968675504
 20
-2.625213794427589
 30
0.0
 10
39.2215023125984
 20
-2.640595946878141
 30
0.0
 10
38.63635878186611
 20
-2.725279260080632
 30
0.0
 10
37.5723592354079
 20
-2.701751755322392
 30
0.0
 10
36.135791146537
 20
-2.541992382707754
 30
0.0
 10
34.69922339679695
 20
-2.194806765684139
 30
0.0
 10
33.26265598011918
 20
-1.702722214440709
 30
0.0
 10
31.82608889578184
 20
-1.093520498833835
 30
0.0
 10
30.38952214365324
 20
-0.4119961499968982
 30
0.0
 10
29.0639633165294
 20
0.2485219557881079
 30
0.0
 10
28.21726009269942
 20
0.6476491810378645
 30
0.0
 10
27.84941232661059
 20
0.8210488493764859
 30
0.0
  0
SPLINE
  5
C6
330
1F
100
AcDbEntity
  8
0
  6
Continuous
 62
     1
370
    15
100
AcDbSpline
210
0.0
220
0.0
230
1.0
 70
     8
 71
     3
 72
    20
 73
    16
 74
     0
 42
0.000000001
 43
0.00000001
 40
0.0
 40
0.0
 40
0.0
 40
0.0
 40
0.0830290788436084
 40
0.1660230348560054
 40
0.2489912124819865
 40
0.3319430500710319
 40
0.4148880456763727
 40
0.496351602730318
 40
0.577833197444244
 40
0.659347230851173
 40
0.7409067313091037
 40
0.8239293527078385
 40
0.9069183909214062
 40
0.9898832082820522
 40
1.0
 40
1.0
 40
1.0
 40
1.0
 10
53.3746306570156
 20
-3.011812331087392
 30
0.0
 10
52.94526741419543
 20
-2.917699986260202
 30
0.0
 10
52.08672255712324
 20
-2.729515107862895
 30
0.0
 10
50.79927522147716
 20
-2.254216882278293
 30
0.0
 10
49.51229593296659
 20
-1.667781974271789
 30
0.0
 10
48.22562872277479
 20
-0.987235384588828
 30
0.0
 10
46.94674043610494
 20
-0.2580640450135467
 30
0.0
 10
45.67552132847577
 20
0.4806372261941959
 30
0.0
 10
44.41161908176688
 20
1.189554566588649
 30
0.0
 10
43.14714203875825
 20
1.836404670683516
 30
0.0
 10
41.8744882635917
 20
2.388642994374387
 30
0.0
 10
40.59427301402877
 20
2.820795740939511
 30
0.0
 10
39.3069155169799
 20
3.084470903564994
 30
0.0
 10
38.39656525775089
 20
3.197438651572164
 30
0.0
 10
37.91531934154064
 20
3.169797378858444
 30
0.0
 10
37.8630140070325
 20
3.166793122683332
 30
0.0
  0
SPLINE
  5
C7
330
1F
100
AcDbEntity
  8
0
  6
Continuous
 62
     1
370
    15
100
AcDbSpline
210
0.0
220
0.0
230
1.0
 70
     8
 71
     3
 72
    19
 73
    15
 74
     0
 42
0.000000001
 43
0.00000001
 40
0.0
 40
0.0
 40
0.0
 40
0.0
 40
0.0174086847489294
 40
0.1000305873282866
 40
0.1826749995627178
 40
0.2653564881175501
 40
0.3480783383160002
 40
0.4412111239661453
 40
0.5343435210815756
 40
0.6274755388305683
 40
0.7206071863950895
 40
0.8137384729704704
 40
0.9068694077650798
 40
1.0
 40
1.0
 40
1.0
 40
1.0
 10
24.22082328569305
 20
-2.494725125219797
 30
0.0
 10
24.132076350119
 20
-2.529529863249612
 30
0.0
 10
23.62213500664082
 20
-2.72951845728419
 30
0.0
 10
22.6909243844822
 20
-2.963538837317989
 30
0.0
 10
21.42687656380211
 20
-3.166654159586463
 30
0.0
 10
20.16221727537707
 20
-3.191941452539114
 30
0.0
 10
18.84390439107328
 20
-3.046422508295803
 30
0.0
 10
17.47235968171634
 20
-2.70849052078291
 30
0.0
 10
16.04771846697624
 20
-2.176887577228489
 30
0.0
 10
14.62308877669289
 20
-1.500026714964006
 30
0.0
 10
13.19846465114328
 20
-0.7224436940764809
 30
0.0
 10
11.77384749642826
 20
0.1012954552346159
 30
0.0
 10
10.34923663630274
 20
0.9262915736595084
 30
0.0
 10
9.399498734543801
 20
1.41535500145058
 30
0.0
 10
8.92463065701141
 20
1.659886265619812
 30
0.0
  0
SPLINE
  5
C8
330
1F
100
AcDbEntity
  8
0
  6
Continuous
 62
     1
370
    15
100
AcDbSpline
210
0.0
220
0.0
230
1.0
 70
     8
 71
     3
 72
    13
 73
     9
 74
     0
 42
0.000000001
 43
0.00000001
 40
0.0
 40
0.0
 40
0.0
 40
0.0
 40
0.1738869869429802
 40
0.34777393676541
 40
0.5216608496264081
 40
0.6955477256851491
 40
0.8694345651008649
 40
1.0
 40
1.0
 40
1.0
 40
1.0
 10
53.37463065701559
 20
-2.503912010645192
 30
0.0
 10
52.89577336198352
 20
-2.399929617440546
 30
0.0
 10
51.93805887414349
 20
-2.19196485322891
 30
0.0
 10
50.50148735301389
 20
-1.685787607685937
 30
0.0
 10
49.06491617879281
 20
-1.076894003942578
 30
0.0
 10
47.62834535599877
 20
-0.3933215510219038
 30
0.0
 10
46.31107506414221
 20
0.2631527098723788
 30
0.0
 10
45.47266173342523
 20
0.6576169212343718
 30
0.0
 10
45.11310521049681
 20
0.8267842937709305
 30
0.0
  0
SPLINE
  5
C9
330
1F
100
AcDbEntity
  8
0
  6
Continuous
 62
     1
370
    15
100
AcDbSpline
210
0.0
220
0.0
230
1.0
 70
     8
 71
     3
 72
    16
 73
    12
 74
     0
 42
0.000000001
 43
0.00000001
 40
0.0
 40
0.0
 40
0.0
 40
0.0
 40
0.0244260330904113
 40
0.1493629385518296
 40
0.2742998198667826
 40
0.3992366771504774
 40
0.5241735105181616
 40
0.6491103200851168
 40
0.7740471059666658
 40
0.8989838682781681
 40
1.0
 40
1.0
 40
1.0
 40
1.0
 10
22.05098674715588
 20
-2.626621285503227
 30
0.0
 10
21.95736729860682
 20
-2.640379491526804
 30
0.0
 10
21.38489300901873
 20
-2.724509651887951
 30
0.0
 10
20.33356401128151
 20
-2.703387458913319
 30
0.0
 10
18.89699984800182
 20
-2.548908076192311
 30
0.0
 10
17.4604360056162
 20
-2.205869173154477
 30
0.0
 10
16.02387247807929
 20
-1.71735165817767
 30
0.0
 10
14.58730926471026
 20
-1.110706242427096
 30
0.0
 10
13.15074636515209
 20
-0.4304747935974323
 30
0.0
 10
11.80586601962767
 20
0.2392542283717651
 30
0.0
 10
10.9398399926328
 20
0.6482264829143446
 30
0.0
 10
10.55266814607728
 20
0.8310645709688973
 30
0.0
  0
LINE
  5
CA
330
1F
100
AcDbEntity
  8
0
  6
Continuous
 62
     1
370
    15
100
AcDbLine
 10
53.37463065701531
 20
-3.011812331087395
 30
0.0
 11
53.37463065701559
 21
-2.503912010645192
 31
0.0
  0
SPLINE
  5
CB
330
1F
100
AcDbEntity
  8
0
  6
Continuous
 62
     1
370
    15
100
AcDbSpline
210
0.0
220
0.0
230
1.0
 70
     8
 71
     3
 72
    18
 73
    14
 74
     0
 42
0.000000001
 43
0.00000001
 40
0.0
 40
0.0
 40
0.0
 40
0.0
 40
0.0981070189756001
 40
0.1970208767675574
 40
0.2873095483513575
 40
0.3782232181024087
 40
0.4682987611658909
 40
0.5589979671405528
 40
0.6490736513887894
 40
0.7397745930800865
 40
0.8298496459645167
 40
0.9205461781176801
 40
1.0
 40
1.0
 40
1.0
 40
1.0
 10
8.924630657015584
 20
0.8476894328615115
 30
0.0
 10
9.255843373718676
 20
0.6610996671506207
 30
0.0
 10
9.920992723100461
 20
0.2863856087675414
 30
0.0
 10
10.89024362604712
 20
-0.2777254197231956
 30
0.0
 10
11.83494955276209
 20
-0.8172060209040543
 30
0.0
 10
12.75114083816286
 20
-1.315479554524059
 30
0.0
 10
13.66724575664669
 20
-1.780190191522616
 30
0.0
 10
14.58114373602634
 20
-2.193347147180207
 30
0.0
 10
15.49774517331504
 20
-2.546086562738043
 30
0.0
 10
16.41089781214554
 20
-2.829668358269801
 30
0.0
 10
17.32743280632982
 20
-3.032231452620938
 30
0.0
 10
18.20548929945056
 20
-3.1545415304845
 30
0.0
 10
18.779392999012
 20
-3.164659399475704
 30
0.0
 10
19.04738446209794
 20
-3.169384064112536
 30
0.0
  0
SPLINE
  5
CC
330
1F
100
AcDbEntity
  8
0
  6
Continuous
 62
     1
370
    15
100
AcDbSpline
210
0.0
220
0.0
230
1.0
 70
     8
 71
     3
 72
    31
 73
    27
 74
     0
 42
0.000000001
 43
0.00000001
 40
0.0
 40
0.0
 40
0.0
 40
0.0
 40
0.01043038733702
 40
0.0528610596571155
 40
0.0950015445045617
 40
0.1374336176515421
 40
0.1795742232714223
 40
0.2220074855949597
 40
0.2641477377716144
 40
0.3065787949590405
 40
0.348719240899194
 40
0.3911501006738993
 40
0.4332906088173455
 40
0.4757233233864902
 40
0.5178637309226564
 40
0.5602960857445964
 40
0.6024363923584837
 40
0.644867146051011
 40
0.6870076182386275
 40
0.7294388934181553
 40
0.7715794786087036
 40
0.8140127787439032
 40
0.8595612742878532
 40
0.9054779071362233
 40
0.9525361489149079
 40
1.0
 40
1.0
 40
1.0
 40
1.0
 10
31.73834717700952
 20
2.129527407442157
 30
0.0
 10
31.81355031873763
 20
2.163295246188786
 30
0.0
 10
32.1946788073397
 20
2.334430188813783
 30
0.0
 10
32.8805601739994
 20
2.581984225345753
 30
0.0
 10
33.79578803600087
 20
2.860559294828371
 30
0.0
 10
34.70974395208251
 20
3.05409016034813
 30
0.0
 10
35.62620029573006
 20
3.165066823208893
 30
0.0
 10
36.53930724299171
 20
3.188286487657525
 30
0.0
 10
37.4558532567675
 20
3.123510328609156
 30
0.0
 10
38.36967303094439
 20
2.972873005549148
 30
0.0
 10
39.28498820874876
 20
2.739008691939159
 30
0.0
 10
40.1996673830918
 20
2.431536155259066
 30
0.0
 10
41.11518032304932
 20
2.054961094896005
 30
0.0
 10
42.02872926903708
 20
1.622426998918153
 30
0.0
 10
42.94547064257742
 20
1.145901520528552
 30
0.0
 10
43.8586462709388
 20
0.6365090266277146
 30
0.0
 10
44.77472994518068
 20
0.1097531723539179
 30
0.0
 10
45.68902389434483
 20
-0.4182874697196612
 30
0.0
 10
46.60419932048587
 20
-0.9379521711014359
 30
0.0
 10
47.51868717460165
 20
-1.428228684072709
 30
0.0
 10
48.43455305494534
 20
-1.881407908160057
 30
0.0
 10
49.37243315541463
 20
-2.292696567169214
 30
0.0
 10
50.33888655638673
 20
-2.645716523228971
 30
0.0
 10
51.33775047690596
 20
-2.923810529658092
 30
0.0
 10
52.35025874471553
 20
-3.115132165266896
 30
0.0
 10
53.03219791649951
 20
-3.152485032481381
 30
0.0
 10
53.37463065701546
 20
-3.173925071276099
 30
0.0
  0
SPLINE
  5
CD
330
1F
100
AcDbEntity
  8
0
  6
Continuous
 62
     1
370
    15
100
AcDbSpline
210
0.0
220
0.0
230
1.0
 70
     8
 71
     3
 72
    15
 73
    11
 74
     0
 42
0.000000001
 43
0.00000001
 40
0.0
 40
0.0
 40
0.0
 40
0.0
 40
0.0683613592744233
 40
0.2043702082519499
 40
0.3403790277527429
 40
0.4763878179068126
 40
0.6123965788442147
 40
0.7484053106950536
 40
0.8844140135894779
 40
0.9999999999999999
 40
0.9999999999999999
 40
0.9999999999999999
 40
0.9999999999999999
 10
45.47726845334687
 20
-0.2949380205424462
 30
0.0
 10
45.23658373166193
 20
-0.1990283298295177
 30
0.0
 10
44.51704293820938
 20
0.0876991968379469
 30
0.0
 10
43.31864621166546
 20
0.5748116118837183
 30
0.0
 10
41.88207837479883
 20
1.115970870773968
 30
0.0
 10
40.44551088154259
 20
1.582242725773989
 30
0.0
 10
39.00894372795472
 20
1.942020461046028
 30
0.0
 10
37.57237691417075
 20
2.166175491104294
 30
0.0
 10
36.20771404037472
 20
2.253722839234948
 30
0.0
 10
35.32190678621835
 20
2.191421843628231
 30
0.0
 10
34.91495501182235
 20
2.162799927754515
 30
0.0
  0
SPLINE
  5
CE
330
1F
100
AcDbEntity
  8
0
  6
Continuous
 62
     1
370
    15
100
AcDbSpline
210
0.0
220
0.0
230
1.0
 70
     8
 71
     3
 72
     9
 73
     5
 74
     0
 42
0.000000001
 43
0.00000001
 40
0.0
 40
0.0
 40
0.0
 40
0.0
 40
0.2943651304770489
 40
1.0
 40
1.0
 40
1.0
 40
1.0
 10
10.92097929843595
 20
-0.2936808249663944
 30
0.0
 10
10.72509385360555
 20
-0.2157687239257527
 30
0.0
 10
10.05964328032285
 20
0.0489097076343209
 30
0.0
 10
9.394194511897574
 20
0.3164027305978956
 30
0.0
 10
8.92463065701559
 20
0.5051551349550973
 30
0.0
  0
SPLINE
  5
CF
330
1F
100
AcDbEntity
  8
외형선
  6
Continuous
370
    15
100
AcDbSpline
210
0.0
220
0.0
230
1.0
 70
    24
 71
     3
 72
     9
 73
     5
 74
     0
 42
0.000000001
 43
0.00000001
 40
0.0
 40
0.0
 40
0.0
 40
0.0
 40
0.4259475161352154
 40
1.0
 40
1.0
 40
1.0
 40
1.0
 10
8.924630657015584
 20
0.8476894328615114
 30
0.0
 10
8.924630657015584
 20
0.8481121494149713
 30
0.0
 10
8.924630657015584
 20
0.8491045640610179
 30
0.0
 10
8.924630657015584
 20
0.8428111186845788
 30
0.0
 10
8.924630657015584
 20
0.8391983507341667
 30
0.0
  0
SPLINE
  5
D0
330
1F
100
AcDbEntity
  8
외형선
  6
Continuous
370
    15
100
AcDbSpline
210
0.0
220
0.0
230
1.0
 70
    24
 71
     3
 72
    11
 73
     7
 74
     0
 42
0.000000001
 43
0.00000001
 40
0.0
 40
0.0
 40
0.0
 40
0.0
 40
0.0721261338545929
 40
0.4775234905273046
 40
0.7371729364430111
 40
1.0
 40
1.0
 40
1.0
 40
1.0
 10
8.924630657015584
 20
0.7767466292486719
 30
0.0
 10
8.924630657015584
 20
0.7733580061606589
 30
0.0
 10
8.924630657015584
 20
0.7509230434281267
 30
0.0
 10
8.924630657015587
 20
0.687620363553304
 30
0.0
 10
8.924630657015577
 20
0.5979430228075846
 30
0.0
 10
8.924630657015602
 20
0.5362095818409531
 30
0.0
 10
8.924630657015616
 20
0.5051551349550948
 30
0.0
  0
SPLINE
  5
D1
330
1F
100
AcDbEntity
  8
0
  6
Continuous
 62
     1
370
    15
100
AcDbSpline
210
0.0
220
0.0
230
1.0
 70
     8
 71
     3
 72
    32
 73
    28
 74
     0
 42
0.000000001
 43
0.00000001
 40
0.0
 40
0.0
 40
0.0
 40
0.0
 40
0.0056919213455417
 40
0.0473929626930385
 40
0.0893834704676129
 40
0.1310842195217077
 40
0.1730726858759635
 40
0.2147736285148532
 40
0.256762056536979
 40
0.2984630638157529
 40
0.3404533901973351
 40
0.3821542530251051
 40
0.4241439114994147
 40
0.465844725633826
 40
0.5078329335733215
 40
0.5495338973986487
 40
0.591522790432082
 40
0.6332214106491935
 40
0.6752097749831167
 40
0.7169080556381286
 40
0.7588945359622247
 40
0.8005929371985022
 40
0.842578571110262
 40
0.8842770612100992
 40
0.9262640812560292
 40
0.9679626908615664
 40
1.0
 40
1.0
 40
1.0
 40
1.0
 10
14.45889362411956
 20
2.130150326849576
 30
0.0
 10
14.50037664671152
 20
2.148963774124014
 30
0.0
 10
14.84577905527345
 20
2.305611231226224
 30
0.0
 10
15.49778081054199
 20
2.544836417397227
 30
0.0
 10
16.41089245467474
 20
2.832379350745688
 30
0.0
 10
17.32741888502001
 20
3.035510636390343
 30
0.0
 10
18.24139045341063
 20
3.156572808308939
 30
0.0
 10
19.15671820098542
 20
3.19007967792083
 30
0.0
 10
20.0714273196262
 20
3.135780143327301
 30
0.0
 10
20.98706768227004
 20
2.994566945778768
 30
0.0
 10
21.90059808878942
 20
2.770644171019911
 30
0.0
 10
22.81742626456628
 20
2.470920648195098
 30
0.0
 10
23.73069548009758
 20
2.102211311790665
 30
0.0
 10
24.64672481912905
 20
1.675223627471833
 30
0.0
 10
25.5611684927179
 20
1.203949613755146
 30
0.0
 10
26.4763939662933
 20
0.6962185598703858
 30
0.0
 10
27.39083600981944
 20
0.1726298265740812
 30
0.0
 10
28.30683376967372
 20
-0.3577577667005916
 30
0.0
 10
29.22006337885938
 20
-0.878151986773367
 30
0.0
 10
30.13683817886643
 20
-1.372998234608557
 30
0.0
 10
31.0502947066156
 20
-1.830839222161857
 30
0.0
 10
31.96587589497023
 20
-2.238783090868932
 30
0.0
 10
32.88052529777169
 20
-2.582613130770798
 30
0.0
 10
33.79579486240262
 20
-2.85810169122564
 30
0.0
 10
34.70975176870819
 20
-3.050367473998264
 30
0.0
 10
35.55360081251577
 20
-3.160045514118426
 30
0.0
 10
36.09075503966189
 20
-3.164137816430048
 30
0.0
 10
36.32414164856615
 20
-3.165915869195629
 30
0.0
  0
SPLINE
  5
D2
330
1F
100
AcDbEntity
  8
0
  6
Continuous
 62
     1
370
    15
100
AcDbSpline
210
0.0
220
0.0
230
1.0
 70
     8
 71
     3
 72
    12
 73
     8
 74
     0
 42
0.000000001
 43
0.00000001
 40
0.0
 40
0.0
 40
0.0
 40
0.0
 40
0.0762932703019415
 40
0.3025101661586481
 40
0.530555418303755
 40
0.7642704785383262
 40
1.0
 40
1.0
 40
1.0
 40
1.0
 10
49.01792117947887
 20
2.129350558182728
 30
0.0
 10
49.12866427553092
 20
2.17850373107493
 30
0.0
 10
49.56777131937697
 20
2.373400796569664
 30
0.0
 10
50.33890925416047
 20
2.645173991632724
 30
0.0
 10
51.33774423656785
 20
2.926700610270925
 30
0.0
 10
52.35026033657458
 20
3.117093197862121
 30
0.0
 10
53.03219844863499
 20
3.154571768507188
 30
0.0
 10
53.37463065701546
 20
3.176074928723901
 30
0.0
  0
SPLINE
  5
D3
330
1F
100
AcDbEntity
  8
0
  6
Continuous
 62
     1
370
    15
100
AcDbSpline
210
0.0
220
0.0
230
1.0
 70
    24
 71
     3
 72
    10
 73
     6
 74
     0
 42
0.000000001
 43
0.00000001
 40
0.0
 40
0.0
 40
0.0
 40
0.0
 40
0.5
 40
0.5
 40
1.0
 40
1.0
 40
1.0
 40
1.0
 10
53.37463065701559
 20
2.223574928723894
 30
0.0
 10
53.3746306570156
 20
2.358297344087116
 30
0.0
 10
53.3746306570156
 20
2.514857267376993
 30
0.0
 10
53.37463065701559
 20
2.843319564774614
 30
0.0
 10
53.3746306570156
 20
3.014383087393574
 30
0.0
 10
53.37463065701546
 20
3.176074928723901
 30
0.0
  0
LINE
  5
D4
330
1F
100
AcDbEntity
  8
0
  6
Continuous
 62
     1
370
    15
100
AcDbLine
 10
53.37463065701559
 20
2.223574928723894
 30
0.0
 11
52.19131714933285
 21
2.16146688247043
 31
0.0
  0
SPLINE
  5
D5
330
1F
100
AcDbEntity
  8
0
  6
Continuous
 62
     1
370
    15
100
AcDbSpline
210
0.0
220
0.0
230
1.0
 70
     8
 71
     3
 72
    15
 73
    11
 74
     0
 42
0.000000001
 43
0.00000001
 40
0.0
 40
0.0
 40
0.0
 40
0.0
 40
0.0646358896300403
 40
0.2006703306521589
 40
0.336704743755387
 40
0.4727391290703093
 40
0.6087734867275527
 40
0.7448078168577912
 40
0.8808421195917415
 40
1.0
 40
1.0
 40
1.0
 40
1.0
 10
28.19899271226124
 20
-0.2941987820110487
 30
0.0
 10
27.97146796703345
 20
-0.2036353433293508
 30
0.0
 10
27.26508849089813
 20
0.0775303571703686
 30
0.0
 10
26.07985441489507
 20
0.5598962331830575
 30
0.0
 10
24.64329058032782
 20
1.102501876523764
 30
0.0
 10
23.20672707114731
 20
1.571227864522134
 30
0.0
 10
21.77016388344928
 20
1.934128257965284
 30
0.0
 10
20.33360101724491
 20
2.162164188036968
 30
0.0
 10
18.95644504493843
 20
2.25371742761559
 30
0.0
 10
18.05814337583464
 20
2.192722023103825
 30
0.0
 10
17.63869587732738
 20
2.164241201211974
 30
0.0
  0
LINE
  5
D6
330
1F
100
AcDbEntity
  8
0
  6
Continuous
 62
     1
370
    15
100
AcDbLine
 10
53.37463065701546
 20
-3.173925071276099
 30
0.0
 11
53.37463065701525
 21
-3.011812331087373
 31
0.0
  0
SPLINE
  5
D7
330
1F
100
AcDbEntity
  8
0
  6
Continuous
 62
     1
370
    15
100
AcDbSpline
210
0.0
220
0.0
230
1.0
 70
     8
 71
     3
 72
     8
 73
     4
 74
     0
 42
0.000000001
 43
0.00000001
 40
0.0
 40
0.0
 40
0.0
 40
0.0
 40
1.0
 40
1.0
 40
1.0
 40
1.0
 10
51.40955539003676
 20
0.8897344252684286
 30
0.0
 10
51.29689964179092
 20
1.023226236836182
 30
0.0
 10
51.19639108618296
 20
1.151667531814794
 30
0.0
 10
51.1108753035613
 20
1.273875184918928
 30
0.0
  0
LINE
  5
D8
330
1F
100
AcDbEntity
  8
0
  6
Continuous
 62
     1
370
    15
100
AcDbLine
 10
51.15100821889224
 20
1.307550699371202
 30
0.0
 11
53.37463065701559
 21
0.0010749287238996
 31
0.0
  0
LINE
  5
D9
330
1F
100
AcDbEntity
  8
0
  6
Continuous
 62
     1
370
    15
100
AcDbLine
 10
53.37463065701559
 20
0.0010749287238996
 30
0.0
 11
53.37463065701559
 21
-0.847421424920223
 31
0.0
  0
SPLINE
  5
DA
330
1F
100
AcDbEntity
  8
0
  6
Continuous
 62
     1
370
    15
100
AcDbSpline
210
0.0
220
0.0
230
1.0
 70
     8
 71
     3
 72
    10
 73
     6
 74
     0
 42
0.000000001
 43
0.00000001
 40
0.0
 40
0.0
 40
0.0
 40
0.0
 40
0.5
 40
0.5
 40
1.0
 40
1.0
 40
1.0
 40
1.0
 10
53.37463065701559
 20
-0.8474214249202227
 30
0.0
 10
53.03446224274594
 20
-0.5799902288417152
 30
0.0
 10
52.69997927132606
 20
-0.3015901517580482
 30
0.0
 10
52.04266781458888
 20
0.2776949124879438
 30
0.0
 10
51.71677924616191
 20
0.5816325553744969
 30
0.0
 10
51.40955539003677
 20
0.8897344252684231
 30
0.0
  0
SPLINE
  5
DB
330
1F
100
AcDbEntity
  8
0
  6
Continuous
 62
     1
370
    15
100
AcDbSpline
210
0.0
220
0.0
230
1.0
 70
     8
 71
     3
 72
    13
 73
     9
 74
     0
 42
0.000000001
 43
0.00000001
 40
0.0
 40
0.0
 40
0.0
 40
0.0
 40
0.1241836957187544
 40
0.3206053128753941
 40
0.5170268878445131
 40
0.7134484208087101
 40
0.9098699119506504
 40
1.0
 40
1.0
 40
1.0
 40
1.0
 10
51.4095553900363
 20
0.8897344252686239
 30
0.0
 10
51.10687939235373
 20
1.018217574491772
 30
0.0
 10
50.32546012168982
 20
1.349922795676316
 30
0.0
 10
49.06489509669348
 20
1.813583015296803
 30
0.0
 10
47.62835746569667
 20
2.224745111033645
 30
0.0
 10
46.19177975302055
 20
2.474614982167737
 30
0.0
 10
45.01434086560754
 20
2.571312763322055
 30
0.0
 10
44.31575620137475
 20
2.519006161988604
 30
0.0
 10
44.09602788064826
 20
2.502553980510312
 30
0.0
  0
SPLINE
  5
DC
330
1F
100
AcDbEntity
  8
0
  6
Continuous
 62
     1
370
    15
100
AcDbSpline
210
0.0
220
0.0
230
1.0
 70
     8
 71
     3
 72
    22
 73
    18
 74
     0
 42
0.000000001
 43
0.00000001
 40
0.0
 40
0.0
 40
0.0
 40
0.0
 40
0.0215536967898498
 40
0.0940691903614021
 40
0.1665846693717127
 40
0.2391001338885511
 40
0.311615583979712
 40
0.3841310197130104
 40
0.4566464411562857
 40
0.5291618483774
 40
0.6016772414442367
 40
0.674192620424704
 40
0.7467079853867301
 40
0.819223336398267
 40
0.8917386735272897
 40
0.9642539968417924
 40
1.0
 40
1.0
 40
1.0
 40
1.0
 10
29.37996698640056
 20
-2.368884353369116
 30
0.0
 10
29.23763748597907
 20
-2.396180366865641
 30
0.0
 10
28.6164530553111
 20
-2.515311387161015
 30
0.0
 10
27.51641382933393
 20
-2.560427924657264
 30
0.0
 10
26.07984940480234
 20
-2.489518598116486
 30
0.0
 10
24.64328530820382
 20
-2.237834679693004
 30
0.0
 10
23.20672153460712
 20
-1.837393998877809
 30
0.0
 10
21.77015808269412
 20
-1.311362970695724
 30
0.0
 10
20.33359495354656
 20
-0.6965103480887327
 30
0.0
 10
18.89703213503058
 20
-0.0342531776644857
 30
0.0
 10
17.46046966547172
 20
0.6303422159612135
 30
0.0
 10
16.0239073945704
 20
1.252403697561728
 30
0.0
 10
14.58734587606479
 20
1.788966657386425
 30
0.0
 10
13.15078303616489
 20
2.206428884562335
 30
0.0
 10
11.71422660714982
 20
2.466003268033638
 30
0.0
 10
10.52045621746133
 20
2.568310132150063
 30
0.0
 10
9.805577118686376
 20
2.521656837474336
 30
0.0
 10
9.56953649961094
 20
2.506252732673905
 30
0.0
  0
SPLINE
  5
DD
330
1F
100
AcDbEntity
  8
0
  6
Continuous
 62
     1
370
    15
100
AcDbSpline
210
0.0
220
0.0
230
1.0
 70
    24
 71
     3
 72
    10
 73
     6
 74
     0
 42
0.000000001
 43
0.00000001
 40
0.0
 40
0.0
 40
0.0
 40
0.0
 40
0.5
 40
0.5
 40
1.0
 40
1.0
 40
1.0
 40
1.0
 10
53.37463065701559
 20
-2.503912010645191
 30
0.0
 10
53.37463065701559
 20
-2.311885231363186
 30
0.0
 10
53.3746306570156
 20
-2.069252032679143
 30
0.0
 10
53.3746306570156
 20
-1.505153196579512
 30
0.0
 10
53.37463065701559
 20
-1.184176202964011
 30
0.0
 10
53.37463065701559
 20
-0.8474214249203246
 30
0.0
  0
SPLINE
  5
DE
330
1F
100
AcDbEntity
  8
외형선
  6
Continuous
370
    15
100
AcDbSpline
210
0.0
220
0.0
230
1.0
 70
    24
 71
     3
 72
    13
 73
     9
 74
     0
 42
0.000000001
 43
0.00000001
 40
0.0
 40
0.0
 40
0.0
 40
0.0
 40
0.0026537396986371
 40
0.1654514961993298
 40
0.4010974925436285
 40
0.6435772387457055
 40
0.8557778067554721
 40
1.0
 40
1.0
 40
1.0
 40
1.0
 10
8.924630657015584
 20
2.496773439930092
 30
0.0
 10
8.924630657015584
 20
2.496897757673709
 30
0.0
 10
8.924630657015577
 20
2.504648539220233
 30
0.0
 10
8.924630657015587
 20
2.473109893814436
 30
0.0
 10
8.924630657015584
 20
2.376239191539591
 30
0.0
 10
8.924630657015584
 20
2.167818728024522
 30
0.0
 10
8.924630657015584
 20
1.926552875461247
 30
0.0
 10
8.924630657015584
 20
1.736705662260156
 30
0.0
 10
8.924630657015584
 20
1.659886265617616
 30
0.0
  0
SPLINE
  5
DF
330
1F
100
AcDbEntity
  8
0
  6
Continuous
 62
     1
370
    15
100
AcDbSpline
210
0.0
220
0.0
230
1.0
 70
     8
 71
     3
 72
    22
 73
    18
 74
     0
 42
0.000000001
 43
0.00000001
 40
0.0
 40
0.0
 40
0.0
 40
0.0
 40
0.0234636836269802
 40
0.0958794021654769
 40
0.1682951053525152
 40
0.2407107932554879
 40
0.3131264659418108
 40
0.3855421234789254
 40
0.4579577659342966
 40
0.5303733933754131
 40
0.6027890058697876
 40
0.6752046034849566
 40
0.7476201862884806
 40
0.8200357543479424
 40
0.8924513077309494
 40
0.9648668465051328
 40
1.0
 40
1.0
 40
1.0
 40
1.0
 10
46.65724945458143
 20
-2.367934330481689
 30
0.0
 10
46.50209346889375
 20
-2.397358802193202
 30
0.0
 10
45.86808120608672
 20
-2.517595709644973
 30
0.0
 10
44.75521280897374
 20
-2.560865699163789
 30
0.0
 10
43.31864436458019
 20
-2.484987826016257
 30
0.0
 10
41.88207626638229
 20
-2.22914508749837
 30
0.0
 10
40.44550850921966
 20
-1.82500026064688
 30
0.0
 10
39.00894109255544
 20
-1.296141797034223
 30
0.0
 10
37.5723740146144
 20
-0.6794850293207644
 30
0.0
 10
36.13580727394817
 20
-0.0165801807437988
 30
0.0
 10
34.69924086903593
 20
0.6474598022397743
 30
0.0
 10
33.26267479831657
 20
1.267821449831283
 30
0.0
 10
31.82610906045918
 20
1.801573765571897
 30
0.0
 10
30.38954365324918
 20
2.21561071739534
 30
0.0
 10
28.95297857777323
 20
2.470237067536134
 30
0.0
 10
27.762947189685
 20
2.570668238847665
 30
0.0
 10
27.051770840929
 20
2.519223412087023
 30
0.0
 10
26.81944939381871
 20
2.502417824246151
 30
0.0
  0
SPLINE
  5
E0
330
1F
100
AcDbEntity
  8
0
  6
Continuous
 62
     1
370
    15
100
AcDbSpline
210
0.0
220
0.0
230
1.0
 70
     8
 71
     3
 72
    10
 73
     6
 74
     0
 42
0.000000001
 43
0.00000001
 40
0.0
 40
0.0
 40
0.0
 40
0.0
 40
0.1221958963354696
 40
0.5742342774041154
 40
0.9999999999999999
 40
0.9999999999999999
 40
0.9999999999999999
 40
0.9999999999999999
 10
12.10255668853035
 20
-2.369976217241244
 30
0.0
 10
11.97311214042906
 20
-2.394995812556483
 30
0.0
 10
11.36481432706563
 20
-2.512570212905796
 30
0.0
 10
10.30548223992312
 20
-2.566388212845068
 30
0.0
 10
9.375637776197596
 20
-2.503321226303029
 30
0.0
 10
8.92463065701559
 20
-2.472731529826424
 30
0.0
  0
SPLINE
  5
E1
330
1F
100
AcDbEntity
  8
외형선
  6
Continuous
370
    15
100
AcDbSpline
210
0.0
220
0.0
230
1.0
 70
    24
 71
     3
 72
    14
 73
    10
 74
     0
 42
0.000000001
 43
0.00000001
 40
0.0
 40
0.0
 40
0.0
 40
0.0
 40
0.25
 40
0.25
 40
0.5
 40
0.5
 40
0.75
 40
0.75
 40
1.0
 40
1.0
 40
1.0
 40
1.0
 10
8.924630657015584
 20
0.5051551349551003
 30
0.0
 10
8.924630657015584
 20
0.2239277959799848
 30
0.0
 10
8.924630657015584
 20
-0.0668219606768551
 30
0.0
 10
8.924630657015584
 20
-0.6408231179087979
 30
0.0
 10
8.924630657015584
 20
-0.923780893335281
 30
0.0
 10
8.924630657015584
 20
-1.453037209445213
 30
0.0
 10
8.924630657015584
 20
-1.699053740236174
 30
0.0
 10
8.924630657015584
 20
-2.132296819451925
 30
0.0
 10
8.924630657015584
 20
-2.319427445043623
 30
0.0
 10
8.924630657015584
 20
-2.472731529826424
 30
0.0
  0
SPLINE
  5
E2
330
1F
100
AcDbEntity
  8
0
  6
Continuous
 62
     1
370
    15
100
AcDbSpline
210
0.0
220
0.0
230
1.0
 70
    24
 71
     3
 72
     8
 73
     4
 74
     0
 42
0.000000001
 43
0.00000001
 40
0.0
 40
0.0
 40
0.0
 40
0.0
 40
1.0
 40
1.0
 40
1.0
 40
1.0
 10
51.44228018698615
 20
1.551956900368796
 30
0.0
 10
51.33748701688399
 20
1.464024989986167
 30
0.0
 10
51.22666844588159
 20
1.371037167932771
 30
0.0
 10
51.11087530356133
 20
1.273875184918974
 30
0.0
  0
SPLINE
  5
E3
330
1F
100
AcDbEntity
  8
0
  6
Continuous
 62
     1
370
    15
100
AcDbSpline
210
0.0
220
0.0
230
1.0
 70
     8
 71
     3
 72
     8
 73
     4
 74
     0
 42
0.000000001
 43
0.00000001
 40
0.0
 40
0.0
 40
0.0
 40
0.0
 40
1.0
 40
1.0
 40
1.0
 40
1.0
 10
53.37463065701559
 20
2.223574928723899
 30
0.0
 10
52.72152547858716
 20
2.046323845229707
 30
0.0
 10
52.07464525387399
 20
1.828693399304018
 30
0.0
 10
51.44228018699113
 20
1.551956900372602
 30
0.0
  0
LINE
  5
E4
330
1F
100
AcDbEntity
  8
0
  6
Continuous
 62
     1
370
    15
100
AcDbLine
 10
53.37463065701559
 20
0.0010749287238996
 30
0.0
 11
53.37463065701559
 21
2.223574928723897
 31
0.0
  0
LINE
  5
E5
330
1F
100
AcDbEntity
  8
중심선
 48
0.8
100
AcDbLine
 10
-40.1128693429844
 20
0.0010749287238897
 30
0.0
 11
56.37463065701559
 21
0.0010749287239015
 31
0.0
  0
LINE
  5
E6
330
1F
100
AcDbEntity
  8
참조1
100
AcDbLine
 10
14.05551131403118
 20
0.0010749287238892
 30
0.0
 11
14.05551131403118
 21
-39.99892507127611
 31
0.0
  0
LINE
  5
E7
330
1F
100
AcDbEntity
  8
참조1
100
AcDbLine
 10
14.05551131403118
 20
-39.99892507127611
 30
0.0
 11
-20.15080122126847
 21
-39.9989250712761
 31
0.0
  0
CIRCLE
  5
E8
330
1F
100
AcDbEntity
  8
해칭선
100
AcDbCircle
 10
0.0
 20
0.0
 30
0.0
 40
2.999999999999996
  0
INSERT
  5
E9
330
1F
100
AcDbEntity
  8
0
  6
Continuous
 62
     7
100
AcDbBlockReference
 66
     1
  2
블럭10
 10
-5.809392275109614
 20
-52.04609937292004
 30
0.0
  0
ATTRIB
  5
EA
330
E9
100
AcDbEntity
  8
FORMAT
 62
     2
100
AcDbText
 10
-14.99068756385089
 20
-49.97073246008785
 30
0.0
 40
4.233333333333333
  1
E1072016 [ 2 FLUTE ]
 41
0.75
  7
SLDTEXTSTYLE0
 11
-14.99068756385089
 21
-52.08739912675452
 31
0.0
100
AcDbAttribute
  2
AUTOATTR0
 70
     0
 74
     1
  0
SEQEND
  5
EB
330
E9
100
AcDbEntity
  8
0
  6
Continuous
 62
     7
  0
HATCH
  5
EC
330
1F
100
AcDbEntity
  8
중심선
100
AcDbHatch
 10
0.0
 20
0.0
 30
0.0
210
0.0
220
0.0
230
1.0
  2
SOLID
 70
     1
 71
     0
 91
        1
 92
        0
 93
        4
 72
     1
 10
-0.0944829707287704
 20
-35.7989250712761
 11
-3.540758214566052
 21
-35.7989250712761
 72
     1
 10
-3.540758214566052
 20
-35.7989250712761
 11
-5.668988073770075
 21
-38.3352506518487
 72
     1
 10
-5.668988073770075
 20
-38.3352506518487
 11
-2.222679744819644
 21
-38.33521122254621
 72
     1
 10
-2.222679744819644
 20
-38.33521122254621
 11
-0.0944829707287704
 21
-35.7989250712761
 97
        0
 75
     0
 76
     1
 98
        1
 10
-5.924630657015583
 20
0.0
  0
HATCH
  5
ED
330
1F
100
AcDbEntity
  8
중심선
100
AcDbHatch
 10
0.0
 20
0.0
 30
0.0
210
0.0
220
0.0
230
1.0
  2
SOLID
 70
     1
 71
     0
 91
        1
 92
        0
 93
        4
 72
     1
 10
4.918281020307236
 20
-35.79892507127608
 11
1.472005776469927
 21
-35.7989250712761
 72
     1
 10
1.472005776469927
 20
-35.7989250712761
 11
-3.059132231887491
 21
-41.19892507127612
 72
     1
 10
-3.05913223188749
 20
-41.19892507127612
 11
0.3871430119497932
 21
-41.19892507127612
 72
     1
 10
0.3871430119497932
 20
-41.19892507127612
 11
4.918281020307236
 21
-35.79892507127608
 97
        0
 75
     0
 76
     1
 98
        1
 10
-5.924630657015583
 20
0.0
  0
HATCH
  5
EE
330
1F
100
AcDbEntity
  8
중심선
100
AcDbHatch
 10
0.0
 20
0.0
 30
0.0
210
0.0
220
0.0
230
1.0
  2
SOLID
 70
     1
 71
     0
 91
        1
 92
        0
 93
        4
 72
     1
 10
9.931045011343105
 20
-35.7989250712761
 11
6.484769767505989
 21
-35.79892507127608
 72
     1
 10
6.484769767505989
 20
-35.79892507127608
 11
-0.5636671343832882
 21
-44.19892507127612
 72
     1
 10
-0.5636671343832882
 20
-44.19892507127612
 11
2.882608109453995
 21
-44.19892507127612
 72
     1
 10
2.882608109453995
 20
-44.19892507127612
 11
9.931045011343105
 21
-35.7989250712761
 97
        0
 75
     0
 76
     1
 98
        1
 10
-5.924630657015583
 20
0.0
  0
HATCH
  5
EF
330
1F
100
AcDbEntity
  8
중심선
100
AcDbHatch
 10
0.0
 20
0.0
 30
0.0
210
0.0
220
0.0
230
1.0
  2
SOLID
 70
     1
 71
     0
 91
        1
 92
        0
 93
        6
 72
     3
 10
14.73093544235527
 20
-39.99892507132738
 11
3.960054785062283
 21
1.540882976769353E-10
 40
0.3939339440162628
 50
17.09539180608436
 51
320.0019657685077
 73
     0
 72
     1
 10
16.41393509805584
 20
-38.58681907591441
 11
18.71923697175691
 21
-36.65249236586646
 72
     3
 10
14.73093544230243
 20
-39.99892507127625
 11
6.600054785286829
 21
-1.278976924368180E-13
 40
0.636358354079598
 50
39.99873849337429
 51
368.4976242363724
 73
     1
 72
     1
 10
21.15626793420304
 20
-39.03892507120613
 11
13.41100274913835
 21
-39.03892507120613
 72
     1
 10
13.41100274913835
 20
-39.03892507120613
 11
13.41097770469242
 21
-40.95892507120602
 72
     1
 10
13.41097770469242
 20
-40.95892507120602
 11
17.85235747416445
 21
-40.95892507120599
 97
        0
 75
     0
 76
     1
 98
        1
 10
-5.924630657015583
 20
0.0
  0
DIMENSION
  5
F0
330
1F
100
AcDbEntity
  8
치수문자_일반주서
100
AcDbDimension
  2
_D
 10
-49.80286934298442
 20
-4.761425071276159
 30
0.0
 11
-49.80286934298444
 21
0.0010749287239001
 31
0.0
 70
   160
  1
%%c<>
 71
     2
 42
9.525000000000006
 52
-270.0
  3
SLDDIMSTYLE0
100
AcDbAlignedDimension
 13
-36.30286934298442
 23
4.763574928723897
 33
0.0
 14
-36.30286934298442
 24
-4.761425071276109
 34
0.0
 50
90.0000000000002
100
AcDbRotatedDimension
1001
ACAD
1000
DSTYLE
1002
{
1070
   171
1070
     6
1070
   273
1070
     7
1002
}
  0
DIMENSION
  5
105
330
1F
100
AcDbEntity
  8
치수문자_일반주서
100
AcDbDimension
  2
_D_1
 10
8.924630657015584
 20
13.19485453218004
 30
0.0
 11
31.30314013532465
 21
13.19485453218004
 31
0.0
 70
   160
  1
<>
 71
     2
 42
44.44999999999987
  3
SLDDIMSTYLE0
100
AcDbAlignedDimension
 13
53.37463065701546
 23
3.176074928723901
 33
0.0
 14
8.924630657015584
 24
2.4971412612602
 34
0.0
100
AcDbRotatedDimension
1001
ACAD
1000
DSTYLE
1002
{
1070
   171
1070
     6
1070
   273
1070
     7
1002
}
  0
DIMENSION
  5
11A
330
1F
100
AcDbEntity
  8
치수문자_일반주서
100
AcDbDimension
  2
_D_2
 10
-37.1128693429844
 20
33.53949175391929
 30
0.0
 11
8.13088065701545
 21
33.53949175391929
 31
0.0
 70
   160
  1
<>
 71
     2
 42
90.48749999999987
  3
SLDDIMSTYLE0
100
AcDbAlignedDimension
 13
53.37463065701546
 23
3.176074928723901
 33
0.0
 14
-37.1128693429844
 24
3.953574928723888
 34
0.0
 50
0.000000000000009
100
AcDbRotatedDimension
1001
ACAD
1000
DSTYLE
1002
{
1070
   171
1070
     6
1070
   273
1070
     7
1002
}
  0
DIMENSION
  5
12D
330
1F
100
AcDbEntity
  8
치수문자_일반주서
100
AcDbDimension
  2
_D_3
 10
63.26670570596679
 20
3.176074928723935
 30
0.0
 11
63.26670570596673
 21
23.12382492872393
 31
0.0
 70
   160
  1
%%c<>
 71
     2
 42
6.35
 52
-270.0
  3
SLDDIMSTYLE0
100
AcDbAlignedDimension
 13
53.37463065701546
 23
-3.173925071276099
 33
0.0
 14
53.37463065701546
 24
3.176074928723901
 34
0.0
 50
90.0000000000002
100
AcDbRotatedDimension
1001
ACAD
1000
DSTYLE
1002
{
1070
   171
1070
     6
1070
   273
1070
     7
1002
}
  0
LINE
  5
141
330
1F
100
AcDbEntity
  8
참조1
100
AcDbLine
 10
77.82153940838579
 20
7.441074928723896
 30
0.0
 11
77.82153940838579
 21
-7.438925071276109
 31
0.0
  0
LINE
  5
142
330
1F
100
AcDbEntity
  8
참조1
100
AcDbLine
 10
90.52153940838579
 20
5.441074928723896
 30
0.0
 11
77.82153940838579
 21
5.441074928723896
 31
0.0
  0
SOLID
  5
143
330
1F
100
AcDbEntity
  8
참조1
100
AcDbTrace
 10
77.82153940838579
 20
5.441074928723896
 30
0.0
 11
84.17153940838578
 21
4.425074928723896
 31
0.0
 12
84.17153940838578
 22
6.457074928723896
 32
0.0
 13
84.17153940838578
 23
6.457074928723896
 33
0.0
  0
LINE
  5
144
330
1F
100
AcDbEntity
  8
참조1
100
AcDbLine
 10
90.52153940838579
 20
-5.438925071276109
 30
0.0
 11
77.82153940838579
 21
-5.438925071276109
 31
0.0
  0
SOLID
  5
145
330
1F
100
AcDbEntity
  8
참조1
100
AcDbTrace
 10
77.82153940838579
 20
-5.438925071276109
 30
0.0
 11
84.17153940838578
 21
-6.454925071276109
 31
0.0
 12
84.17153940838578
 22
-4.422925071276109
 32
0.0
 13
84.17153940838578
 23
-4.422925071276109
 33
0.0
  0
MTEXT
  5
146
330
1F
100
AcDbEntity
  8
참조1
100
AcDbMText
 10
87.20588954101179
 20
11.01136670591222
 30
0.0
 40
3.5
 41
0.0
 71
     1
 72
     1
  1
A
  7
SLDTEXTSTYLE0
 73
     1
 44
1.0
  0
MTEXT
  5
147
330
1F
100
AcDbEntity
  8
참조1
100
AcDbMText
 10
87.20588954101179
 20
0.1313667059122192
 30
0.0
 40
3.5
 41
0.0
 71
     1
 72
     1
  1
A
  7
SLDTEXTSTYLE0
 73
     1
 44
1.0
  0
INSERT
  5
14E
330
1F
100
AcDbEntity
  8
해칭선
100
AcDbBlockReference
  2
SW_DOWELSYMBOL_0
 10
0.0
 20
0.0
 30
0.0
  0
LINE
  5
202
330
1F
100
AcDbEntity
  8
외형선
  6
Continuous
370
    15
100
AcDbLine
 10
-20.83781934298452
 20
3.493574928723895
 30
0.0
 11
-13.70041934298439
 21
3.493574928723895
 31
0.0
  0
LINE
  5
203
330
1F
100
AcDbEntity
  8
외형선
  6
Continuous
370
    15
100
AcDbLine
 10
-20.83781934298452
 20
3.493574928723895
 30
0.0
 11
-22.1078193429845
 21
4.763574928723877
 31
0.0
  0
LINE
  5
204
330
1F
100
AcDbEntity
  8
외형선
  6
Continuous
370
    15
100
AcDbLine
 10
-13.70041934298439
 20
3.493574928723895
 30
0.0
 11
-12.43041934298429
 21
4.763574928723877
 31
0.0
  0
LINE
  5
205
330
1F
100
AcDbEntity
  8
외형선
  6
Continuous
370
    15
100
AcDbLine
 10
-22.10781934298451
 20
4.763574928723892
 30
0.0
 11
-36.30286934298441
 21
4.763574928723891
 31
0.0
  0
ENDSEC
  0
SECTION
  2
OBJECTS
  0
DICTIONARY
  5
C
330
0
100
AcDbDictionary
281
     1
  3
ACAD_GROUP
350
D
  3
ACAD_IMAGE_VARS
350
172
  3
ACAD_LAYOUT
350
1A
  3
ACAD_MLINESTYLE
350
17
  3
ACAD_PLOTSETTINGS
350
19
  3
ACAD_PLOTSTYLENAME
350
E
  3
ACAD_SCALELIST
350
47
  3
APPDATA
350
170
  3
DWGPROPS
350
206
  0
DICTIONARY
  5
199
330
2
100
AcDbDictionary
280
     1
281
     1
  3
ACAD_LAYERSTATES
360
19A
  0
DICTIONARY
  5
D
102
{ACAD_REACTORS
330
C
102
}
330
C
100
AcDbDictionary
281
     1
  0
RASTERVARIABLES
  5
172
102
{ACAD_REACTORS
330
C
102
}
330
C
100
AcDbRasterVariables
 90
        0
 70
     1
 71
     1
 72
     1
  0
DICTIONARY
  5
1A
102
{ACAD_REACTORS
330
C
102
}
330
C
100
AcDbDictionary
281
     1
  3
Layout1
350
1E
  3
Layout2
350
26
  3
Model
350
22
  0
DICTIONARY
  5
17
102
{ACAD_REACTORS
330
C
102
}
330
C
100
AcDbDictionary
281
     1
  3
Standard
350
18
  0
DICTIONARY
  5
19
102
{ACAD_REACTORS
330
C
102
}
330
C
100
AcDbDictionary
281
     1
  0
ACDBDICTIONARYWDFLT
  5
E
102
{ACAD_REACTORS
330
C
102
}
330
C
100
AcDbDictionary
281
     1
  3
Normal
350
F
100
AcDbDictionaryWithDefault
340
F
  0
DICTIONARY
  5
47
102
{ACAD_REACTORS
330
C
102
}
330
C
100
AcDbDictionary
281
     1
  3
A0
350
48
  3
A1
350
49
  3
A2
350
4A
  3
A3
350
4B
  3
A4
350
4C
  3
A5
350
4D
  3
A6
350
4E
  3
A7
350
4F
  3
A8
350
50
  3
A9
350
51
  3
B0
350
52
  3
B1
350
53
  3
B2
350
54
  3
B3
350
55
  3
B4
350
56
  3
B5
350
57
  3
B6
350
58
  3
B7
350
59
  3
B8
350
5A
  3
B9
350
5B
  3
C0
350
5C
  3
C1
350
5D
  3
C2
350
5E
  3
C3
350
5F
  3
C4
350
60
  3
C5
350
61
  3
C6
350
62
  3
C7
350
63
  3
C8
350
64
  3
C9
350
65
  3
D0
350
66
  3
D1
350
67
  3
D2
350
68
  0
DICTIONARY
  5
170
102
{ACAD_REACTORS
330
C
102
}
330
C
100
AcDbDictionary
281
     1
  0
XRECORD
  5
206
102
{ACAD_REACTORS
330
C
102
}
330
C
100
AcDbXrecord
280
     1
  1
DWGPROPS COOKIE
  2

  3

  4

  6

  7

  8
12016016
  9

300
=
301
=
302
=
303
=
304
=
305
=
306
=
307
=
308
=
309
=
 40
0.0
 41
2458311.092285636
 42
2458318.32118956
  1

 90
        0
  0
DICTIONARY
  5
19A
102
{ACAD_REACTORS
330
199
102
}
330
199
100
AcDbDictionary
281
     1
  0
LAYOUT
  5
1E
102
{ACAD_REACTORS
330
1A
102
}
330
1A
100
AcDbPlotSettings
  1

  2
none_device
  4

  6

 40
0.0
 41
0.0
 42
0.0
 43
0.0
 44
0.0
 45
0.0
 46
0.0
 47
0.0
 48
0.0
 49
0.0
140
0.0
141
0.0
142
1.0
143
1.0
 70
   688
 72
     1
 73
     0
 74
     5
  7

 75
    16
147
1.0
148
0.0
149
0.0
100
AcDbLayout
  1
Layout1
 70
     1
 71
     1
 10
0.0
 20
0.0
 11
420.0
 21
297.0
 12
0.0
 22
0.0
 32
0.0
 14
1.000000000000000E+20
 24
1.000000000000000E+20
 34
1.000000000000000E+20
 15
-1.000000000000000E+20
 25
-1.000000000000000E+20
 35
-1.000000000000000E+20
146
0.0
 13
0.0
 23
0.0
 33
0.0
 16
1.0
 26
0.0
 36
0.0
 17
0.0
 27
1.0
 37
0.0
 76
     0
330
1B
  0
LAYOUT
  5
26
102
{ACAD_REACTORS
330
1A
102
}
330
1A
100
AcDbPlotSettings
  1

  2
none_device
  4

  6

 40
0.0
 41
0.0
 42
0.0
 43
0.0
 44
0.0
 45
0.0
 46
0.0
 47
0.0
 48
0.0
 49
0.0
140
0.0
141
0.0
142
1.0
143
1.0
 70
   688
 72
     1
 73
     0
 74
     5
  7

 75
    16
147
1.0
148
0.0
149
0.0
100
AcDbLayout
  1
Layout2
 70
     1
 71
     2
 10
0.0
 20
0.0
 11
0.0
 21
0.0
 12
0.0
 22
0.0
 32
0.0
 14
0.0
 24
0.0
 34
0.0
 15
0.0
 25
0.0
 35
0.0
146
0.0
 13
0.0
 23
0.0
 33
0.0
 16
1.0
 26
0.0
 36
0.0
 17
0.0
 27
1.0
 37
0.0
 76
     0
330
23
  0
LAYOUT
  5
22
102
{ACAD_REACTORS
330
1A
102
}
330
1A
100
AcDbPlotSettings
  1

  2
none_device
  4
ANSI_A_(11.00_x_8.50_Inches)
  6

 40
6.35
 41
19.05
 42
6.35000508
 43
19.05000254
 44
279.4
 45
215.9
 46
84.73413649237965
 47
94.1350519081754
 48
0.0
 49
0.0
140
0.0
141
0.0
142
0.0645860135976711
143
1.0
 70
  1696
 72
     0
 73
     0
 74
     0
  7

 75
     0
147
0.0235690232323232
148
0.0
149
0.0
100
AcDbLayout
  1
Model
 70
     1
 71
     0
 10
0.0
 20
0.0
 11
420.0
 21
297.0
 12
0.0
 22
0.0
 32
0.0
 14
1.000000000000000E+20
 24
1.000000000000000E+20
 34
1.000000000000000E+20
 15
-1.000000000000000E+20
 25
-1.000000000000000E+20
 35
-1.000000000000000E+20
146
0.0
 13
0.0
 23
0.0
 33
0.0
 16
1.0
 26
0.0
 36
0.0
 17
0.0
 27
1.0
 37
0.0
 76
     0
330
1F
331
29
  0
MLINESTYLE
  5
18
102
{ACAD_REACTORS
330
17
102
}
330
17
100
AcDbMlineStyle
  2
Standard
 70
     0
  3

 62
   256
 51
90.0
 52
90.0
 71
     2
 49
0.5
 62
   256
  6
BYLAYER
 49
-0.5
 62
   256
  6
BYLAYER
  0
ACDBPLACEHOLDER
  5
F
102
{ACAD_REACTORS
330
E
102
}
330
E
  0
SCALE
  5
48
102
{ACAD_REACTORS
330
47
102
}
330
47
100
AcDbScale
 70
     0
300
1:1
140
1.0
141
1.0
290
     1
  0
SCALE
  5
49
102
{ACAD_REACTORS
330
47
102
}
330
47
100
AcDbScale
 70
     0
300
1:2
140
1.0
141
2.0
290
     0
  0
SCALE
  5
4A
102
{ACAD_REACTORS
330
47
102
}
330
47
100
AcDbScale
 70
     0
300
1:4
140
1.0
141
4.0
290
     0
  0
SCALE
  5
4B
102
{ACAD_REACTORS
330
47
102
}
330
47
100
AcDbScale
 70
     0
300
1:5
140
1.0
141
5.0
290
     0
  0
SCALE
  5
4C
102
{ACAD_REACTORS
330
47
102
}
330
47
100
AcDbScale
 70
     0
300
1:8
140
1.0
141
8.0
290
     0
  0
SCALE
  5
4D
102
{ACAD_REACTORS
330
47
102
}
330
47
100
AcDbScale
 70
     0
300
1:10
140
1.0
141
10.0
290
     0
  0
SCALE
  5
4E
102
{ACAD_REACTORS
330
47
102
}
330
47
100
AcDbScale
 70
     0
300
1:16
140
1.0
141
16.0
290
     0
  0
SCALE
  5
4F
102
{ACAD_REACTORS
330
47
102
}
330
47
100
AcDbScale
 70
     0
300
1:20
140
1.0
141
20.0
290
     0
  0
SCALE
  5
50
102
{ACAD_REACTORS
330
47
102
}
330
47
100
AcDbScale
 70
     0
300
1:30
140
1.0
141
30.0
290
     0
  0
SCALE
  5
51
102
{ACAD_REACTORS
330
47
102
}
330
47
100
AcDbScale
 70
     0
300
1:40
140
1.0
141
40.0
290
     0
  0
SCALE
  5
52
102
{ACAD_REACTORS
330
47
102
}
330
47
100
AcDbScale
 70
     0
300
1:50
140
1.0
141
50.0
290
     0
  0
SCALE
  5
53
102
{ACAD_REACTORS
330
47
102
}
330
47
100
AcDbScale
 70
     0
300
1:100
140
1.0
141
100.0
290
     0
  0
SCALE
  5
54
102
{ACAD_REACTORS
330
47
102
}
330
47
100
AcDbScale
 70
     0
300
2:1
140
2.0
141
1.0
290
     0
  0
SCALE
  5
55
102
{ACAD_REACTORS
330
47
102
}
330
47
100
AcDbScale
 70
     0
300
4:1
140
4.0
141
1.0
290
     0
  0
SCALE
  5
56
102
{ACAD_REACTORS
330
47
102
}
330
47
100
AcDbScale
 70
     0
300
8:1
140
8.0
141
1.0
290
     0
  0
SCALE
  5
57
102
{ACAD_REACTORS
330
47
102
}
330
47
100
AcDbScale
 70
     0
300
10:1
140
10.0
141
1.0
290
     0
  0
SCALE
  5
58
102
{ACAD_REACTORS
330
47
102
}
330
47
100
AcDbScale
 70
     0
300
100:1
140
100.0
141
1.0
290
     0
  0
SCALE
  5
59
102
{ACAD_REACTORS
330
47
102
}
330
47
100
AcDbScale
 70
     0
300
1/128" = 1'-0"
140
0.0078125
141
12.0
290
     0
  0
SCALE
  5
5A
102
{ACAD_REACTORS
330
47
102
}
330
47
100
AcDbScale
 70
     0
300
1/64" = 1'-0"
140
0.015625
141
12.0
290
     0
  0
SCALE
  5
5B
102
{ACAD_REACTORS
330
47
102
}
330
47
100
AcDbScale
 70
     0
300
1/32" = 1'-0"
140
0.03125
141
12.0
290
     0
  0
SCALE
  5
5C
102
{ACAD_REACTORS
330
47
102
}
330
47
100
AcDbScale
 70
     0
300
1/16" = 1'-0"
140
0.0625
141
12.0
290
     0
  0
SCALE
  5
5D
102
{ACAD_REACTORS
330
47
102
}
330
47
100
AcDbScale
 70
     0
300
3/32" = 1'-0"
140
0.09375
141
12.0
290
     0
  0
SCALE
  5
5E
102
{ACAD_REACTORS
330
47
102
}
330
47
100
AcDbScale
 70
     0
300
1/8" = 1'-0"
140
0.125
141
12.0
290
     0
  0
SCALE
  5
5F
102
{ACAD_REACTORS
330
47
102
}
330
47
100
AcDbScale
 70
     0
300
3/16" = 1'-0"
140
0.1875
141
12.0
290
     0
  0
SCALE
  5
60
102
{ACAD_REACTORS
330
47
102
}
330
47
100
AcDbScale
 70
     0
300
1/4" = 1'-0"
140
0.25
141
12.0
290
     0
  0
SCALE
  5
61
102
{ACAD_REACTORS
330
47
102
}
330
47
100
AcDbScale
 70
     0
300
3/8" = 1'-0"
140
0.375
141
12.0
290
     0
  0
SCALE
  5
62
102
{ACAD_REACTORS
330
47
102
}
330
47
100
AcDbScale
 70
     0
300
1/2" = 1'-0"
140
0.5
141
12.0
290
     0
  0
SCALE
  5
63
102
{ACAD_REACTORS
330
47
102
}
330
47
100
AcDbScale
 70
     0
300
3/4" = 1'-0"
140
0.75
141
12.0
290
     0
  0
SCALE
  5
64
102
{ACAD_REACTORS
330
47
102
}
330
47
100
AcDbScale
 70
     0
300
1" = 1'-0"
140
1.0
141
12.0
290
     0
  0
SCALE
  5
65
102
{ACAD_REACTORS
330
47
102
}
330
47
100
AcDbScale
 70
     0
300
1-1/2" = 1'-0"
140
1.5
141
12.0
290
     0
  0
SCALE
  5
66
102
{ACAD_REACTORS
330
47
102
}
330
47
100
AcDbScale
 70
     0
300
3" = 1'-0"
140
3.0
141
12.0
290
     0
  0
SCALE
  5
67
102
{ACAD_REACTORS
330
47
102
}
330
47
100
AcDbScale
 70
     0
300
6" = 1'-0"
140
6.0
141
12.0
290
     0
  0
SCALE
  5
68
102
{ACAD_REACTORS
330
47
102
}
330
47
100
AcDbScale
 70
     0
300
1'-0" = 1'-0"
140
12.0
141
12.0
290
     0
  0
ENDSEC
  0
EOF
