  0
SECTION
  2
HEADER
  9
$ACADVER
  1
AC1015
  9
$ACADMAINTVER
 70
     6
  9
$DWGCODEPAGE
  3
ANSI_949
  9
$INSBASE
 10
0.0
 20
0.0
 30
0.0
  9
$EXTMIN
 10
-61.34875000000005
 20
-49.97180738881174
 30
0.0
  9
$EXTMAX
 10
81.41936447236121
 20
42.05843837155771
 30
0.0
  9
$LIMMIN
 10
0.0
 20
0.0
  9
$LIMMAX
 10
420.0
 20
297.0
  9
$ORTHOMODE
 70
     1
  9
$REGENMODE
 70
     1
  9
$FILLMODE
 70
     1
  9
$QTEXTMODE
 70
     0
  9
$MIRRTEXT
 70
     1
  9
$LTSCALE
 40
1.0
  9
$ATTMODE
 70
     1
  9
$TEXTSIZE
 40
3.5
  9
$TRACEWID
 40
1.0
  9
$TEXTSTYLE
  7
Standard
  9
$CLAYER
  8
0
  9
$CELTYPE
  6
ByLayer
  9
$CECOLOR
 62
   256
  9
$CELTSCALE
 40
1.0
  9
$DISPSILH
 70
     0
  9
$DIMSCALE
 40
1.0
  9
$DIMASZ
 40
3.302
  9
$DIMEXO
 40
1.0
  9
$DIMDLI
 40
3.75
  9
$DIMRND
 40
0.0
  9
$DIMDLE
 40
0.0
  9
$DIMEXE
 40
1.0
  9
$DIMTP
 40
0.0
  9
$DIMTM
 40
0.0
  9
$DIMTXT
 40
3.5
  9
$DIMCEN
 40
2.5
  9
$DIMTSZ
 40
0.0
  9
$DIMTOL
 70
     0
  9
$DIMLIM
 70
     0
  9
$DIMTIH
 70
     1
  9
$DIMTOH
 70
     1
  9
$DIMSE1
 70
     0
  9
$DIMSE2
 70
     0
  9
$DIMTAD
 70
     1
  9
$DIMZIN
 70
     0
  9
$DIMBLK
  1

  9
$DIMASO
 70
     1
  9
$DIMSHO
 70
     1
  9
$DIMPOST
  1

  9
$DIMAPOST
  1

  9
$DIMALT
 70
     0
  9
$DIMALTD
 70
     3
  9
$DIMALTF
 40
0.0393700787401575
  9
$DIMLFAC
 40
1.0
  9
$DIMTOFL
 70
     1
  9
$DIMTVP
 40
0.0
  9
$DIMTIX
 70
     0
  9
$DIMSOXD
 70
     0
  9
$DIMSAH
 70
     0
  9
$DIMBLK1
  1

  9
$DIMBLK2
  1

  9
$DIMSTYLE
  2
ISO-25
  9
$DIMCLRD
 70
     0
  9
$DIMCLRE
 70
     0
  9
$DIMCLRT
 70
     0
  9
$DIMTFAC
 40
1.0
  9
$DIMGAP
 40
1.524
  9
$DIMJUST
 70
     0
  9
$DIMSD1
 70
     0
  9
$DIMSD2
 70
     0
  9
$DIMTOLJ
 70
     0
  9
$DIMTZIN
 70
     0
  9
$DIMALTZ
 70
     0
  9
$DIMALTTZ
 70
     0
  9
$DIMUPT
 70
     0
  9
$DIMDEC
 70
     2
  9
$DIMTDEC
 70
     2
  9
$DIMALTU
 70
     2
  9
$DIMALTTD
 70
     3
  9
$DIMTXSTY
  7
Standard
  9
$DIMAUNIT
 70
     0
  9
$DIMADEC
 70
     2
  9
$DIMALTRND
 40
0.0
  9
$DIMAZIN
 70
     0
  9
$DIMDSEP
 70
    44
  9
$DIMATFIT
 70
     3
  9
$DIMFRAC
 70
     0
  9
$DIMLDRBLK
  1

  9
$DIMLUNIT
 70
     2
  9
$DIMLWD
 70
    -2
  9
$DIMLWE
 70
    -2
  9
$DIMTMOVE
 70
     0
  9
$LUNITS
 70
     2
  9
$LUPREC
 70
     2
  9
$SKETCHINC
 40
1.0
  9
$FILLETRAD
 40
10.0
  9
$AUNITS
 70
     0
  9
$AUPREC
 70
     2
  9
$MENU
  1
.
  9
$ELEVATION
 40
0.0
  9
$PELEVATION
 40
0.0
  9
$THICKNESS
 40
0.0
  9
$LIMCHECK
 70
     0
  9
$CHAMFERA
 40
0.0
  9
$CHAMFERB
 40
0.0
  9
$CHAMFERC
 40
0.0
  9
$CHAMFERD
 40
0.0
  9
$SKPOLY
 70
     0
  9
$TDCREATE
 40
2458313.472507014
  9
$TDUCREATE
 40
2458313.097507014
  9
$TDUPDATE
 40
2458319.361339503
  9
$TDUUPDATE
 40
2458318.986339503
  9
$TDINDWG
 40
0.0008253356
  9
$TDUSRTIMER
 40
2458318.986249063
  9
$USRTIMER
 70
     1
  9
$ANGBASE
 50
0.0
  9
$ANGDIR
 70
     0
  9
$PDMODE
 70
     0
  9
$PDSIZE
 40
-1.0
  9
$PLINEWID
 40
0.0
  9
$SPLFRAME
 70
     0
  9
$SPLINETYPE
 70
     6
  9
$SPLINESEGS
 70
     8
  9
$HANDSEED
  5
3C9
  9
$SURFTAB1
 70
     6
  9
$SURFTAB2
 70
     6
  9
$SURFTYPE
 70
     6
  9
$SURFU
 70
     6
  9
$SURFV
 70
     6
  9
$UCSBASE
  2

  9
$UCSNAME
  2

  9
$UCSORG
 10
0.0
 20
0.0
 30
0.0
  9
$UCSXDIR
 10
1.0
 20
0.0
 30
0.0
  9
$UCSYDIR
 10
0.0
 20
1.0
 30
0.0
  9
$UCSORTHOREF
  2

  9
$UCSORTHOVIEW
 70
     0
  9
$UCSORGTOP
 10
0.0
 20
0.0
 30
0.0
  9
$UCSORGBOTTOM
 10
0.0
 20
0.0
 30
0.0
  9
$UCSORGLEFT
 10
0.0
 20
0.0
 30
0.0
  9
$UCSORGRIGHT
 10
0.0
 20
0.0
 30
0.0
  9
$UCSORGFRONT
 10
0.0
 20
0.0
 30
0.0
  9
$UCSORGBACK
 10
0.0
 20
0.0
 30
0.0
  9
$PUCSBASE
  2

  9
$PUCSNAME
  2

  9
$PUCSORG
 10
0.0
 20
0.0
 30
0.0
  9
$PUCSXDIR
 10
1.0
 20
0.0
 30
0.0
  9
$PUCSYDIR
 10
0.0
 20
1.0
 30
0.0
  9
$PUCSORTHOREF
  2

  9
$PUCSORTHOVIEW
 70
     0
  9
$PUCSORGTOP
 10
0.0
 20
0.0
 30
0.0
  9
$PUCSORGBOTTOM
 10
0.0
 20
0.0
 30
0.0
  9
$PUCSORGLEFT
 10
0.0
 20
0.0
 30
0.0
  9
$PUCSORGRIGHT
 10
0.0
 20
0.0
 30
0.0
  9
$PUCSORGFRONT
 10
0.0
 20
0.0
 30
0.0
  9
$PUCSORGBACK
 10
0.0
 20
0.0
 30
0.0
  9
$USERI1
 70
     0
  9
$USERI2
 70
     0
  9
$USERI3
 70
     0
  9
$USERI4
 70
     0
  9
$USERI5
 70
     0
  9
$USERR1
 40
0.0
  9
$USERR2
 40
0.0
  9
$USERR3
 40
0.0
  9
$USERR4
 40
0.0
  9
$USERR5
 40
0.0
  9
$WORLDVIEW
 70
     1
  9
$SHADEDGE
 70
     3
  9
$SHADEDIF
 70
    70
  9
$TILEMODE
 70
     1
  9
$MAXACTVP
 70
    64
  9
$PINSBASE
 10
0.0
 20
0.0
 30
0.0
  9
$PLIMCHECK
 70
     0
  9
$PEXTMIN
 10
1.000000000000000E+20
 20
1.000000000000000E+20
 30
1.000000000000000E+20
  9
$PEXTMAX
 10
-1.000000000000000E+20
 20
-1.000000000000000E+20
 30
-1.000000000000000E+20
  9
$PLIMMIN
 10
0.0
 20
0.0
  9
$PLIMMAX
 10
0.0
 20
0.0
  9
$UNITMODE
 70
     0
  9
$VISRETAIN
 70
     1
  9
$PLINEGEN
 70
     0
  9
$PSLTSCALE
 70
     1
  9
$TREEDEPTH
 70
  3020
  9
$CMLSTYLE
  2
Standard
  9
$CMLJUST
 70
     0
  9
$CMLSCALE
 40
20.0
  9
$PROXYGRAPHICS
 70
     1
  9
$MEASUREMENT
 70
     1
  9
$CELWEIGHT
370
    -1
  9
$ENDCAPS
280
     0
  9
$JOINSTYLE
280
     0
  9
$LWDISPLAY
290
     1
  9
$INSUNITS
 70
     4
  9
$HYPERLINKBASE
  1

  9
$STYLESHEET
  1

  9
$XEDIT
290
     1
  9
$CEPSNTYPE
380
     0
  9
$PSTYLEMODE
290
     1
  9
$FINGERPRINTGUID
  2
{BA114A5B-377D-443D-880E-0B3FCB275F72}
  9
$VERSIONGUID
  2
{FAEB1C32-E019-11D5-929B-00C0DF256EC4}
  9
$EXTNAMES
290
     1
  9
$PSVPSCALE
 40
0.0
  9
$OLESTARTUP
290
     0
  0
ENDSEC
  0
SECTION
  2
CLASSES
  0
CLASS
  1
ACDBDICTIONARYWDFLT
  2
AcDbDictionaryWithDefault
  3
ObjectDBX Classes
 90
        0
280
     0
281
     0
  0
CLASS
  1
VISUALSTYLE
  2
AcDbVisualStyle
  3
ObjectDBX Classes
 90
     4095
280
     0
281
     0
  0
CLASS
  1
MATERIAL
  2
AcDbMaterial
  3
ObjectDBX Classes
 90
     1153
280
     0
281
     0
  0
CLASS
  1
SCALE
  2
AcDbScale
  3
ObjectDBX Classes
 90
     1153
280
     0
281
     0
  0
CLASS
  1
SUN
  2
AcDbSun
  3
SCENEOE
 90
     1153
280
     0
281
     0
  0
CLASS
  1
ACDBPLACEHOLDER
  2
AcDbPlaceHolder
  3
ObjectDBX Classes
 90
        0
280
     0
281
     0
  0
CLASS
  1
LAYOUT
  2
AcDbLayout
  3
ObjectDBX Classes
 90
        0
280
     0
281
     0
  0
CLASS
  1
TABLESTYLE
  2
AcDbTableStyle
  3
ObjectDBX Classes
 90
     4095
280
     0
281
     0
  0
CLASS
  1
MLEADERSTYLE
  2
AcDbMLeaderStyle
  3
ACDB_MLEADERSTYLE_CLASS
 90
     4095
280
     0
281
     0
  0
CLASS
  1
RASTERVARIABLES
  2
AcDbRasterVariables
  3
ISM
 90
        0
280
     0
281
     0
  0
ENDSEC
  0
SECTION
  2
TABLES
  0
TABLE
  2
VPORT
  5
8
330
0
100
AcDbSymbolTable
 70
     1
  0
VPORT
  5
29
330
8
100
AcDbSymbolTableRecord
100
AcDbViewportTableRecord
  2
*Active
 70
     0
 10
0.0
 20
0.0
 11
1.0
 21
1.0
 12
44.85016374218905
 22
12.36131135423995
 13
0.0
 23
0.0
 14
10.0
 24
10.0
 15
10.0
 25
10.0
 16
0.0
 26
0.0
 36
1.0
 17
0.0
 27
0.0
 37
0.0
 40
208.5355453814005
 41
1.813031161473088
 42
50.0
 43
0.0
 44
0.0
 50
0.0
 51
0.0
 71
    16
 72
  2000
 73
     1
 74
     3
 75
     0
 76
     0
 77
     0
 78
     0
281
     0
 65
     1
110
0.0
120
0.0
130
0.0
111
1.0
121
0.0
131
0.0
112
0.0
122
1.0
132
0.0
 79
     0
146
0.0
  0
ENDTAB
  0
TABLE
  2
LTYPE
  5
5
330
0
100
AcDbSymbolTable
 70
     6
  0
LTYPE
  5
14
330
5
100
AcDbSymbolTableRecord
100
AcDbLinetypeTableRecord
  2
ByBlock
 70
     0
  3

 72
    65
 73
     0
 40
0.0
  0
LTYPE
  5
15
330
5
100
AcDbSymbolTableRecord
100
AcDbLinetypeTableRecord
  2
ByLayer
 70
     0
  3

 72
    65
 73
     0
 40
0.0
  0
LTYPE
  5
16
330
5
100
AcDbSymbolTableRecord
100
AcDbLinetypeTableRecord
  2
Continuous
 70
     0
  3
Solid line
 72
    65
 73
     0
 40
0.0
  0
LTYPE
  5
6A
330
5
100
AcDbSymbolTableRecord
100
AcDbLinetypeTableRecord
  2
HIDDEN
 70
     0
  3
Hidden __ __ __ __ __ __ __ __ __ __ __ __ __ __
 72
    65
 73
     2
 40
1.905
 49
1.27
 74
     0
 49
-0.635
 74
     0
  0
LTYPE
  5
6B
330
5
100
AcDbSymbolTableRecord
100
AcDbLinetypeTableRecord
  2
PHANTOM
 70
     0
  3
Phantom ______  __  __  ______  __  __  ______
 72
    65
 73
     6
 40
12.7
 49
6.35
 74
     0
 49
-1.27
 74
     0
 49
1.27
 74
     0
 49
-1.27
 74
     0
 49
1.27
 74
     0
 49
-1.27
 74
     0
  0
LTYPE
  5
6C
330
5
100
AcDbSymbolTableRecord
100
AcDbLinetypeTableRecord
  2
CENTER
 70
     0
  3
Center ____ _ ____ _ ____ _ ____ _ ____ _ ____
 72
    65
 73
     4
 40
10.16
 49
6.35
 74
     0
 49
-1.27
 74
     0
 49
1.27
 74
     0
 49
-1.27
 74
     0
  0
LTYPE
  5
6D
330
5
100
AcDbSymbolTableRecord
100
AcDbLinetypeTableRecord
  2
CENTERX2
 70
     0
  3
Center (2x) ________  __  ________  __  _____
 72
    65
 73
     4
 40
20.32
 49
12.7
 74
     0
 49
-2.54
 74
     0
 49
2.54
 74
     0
 49
-2.54
 74
     0
  0
LTYPE
  5
6E
330
5
100
AcDbSymbolTableRecord
100
AcDbLinetypeTableRecord
  2
DOT2
 70
     0
  3
Dot (.5x) ........................................
 72
    65
 73
     2
 40
0.635
 49
0.0
 74
     0
 49
-0.635
 74
     0
  0
ENDTAB
  0
TABLE
  2
LAYER
  5
2
102
{ACAD_XDICTIONARY
360
1CE
102
}
330
0
100
AcDbSymbolTable
 70
    18
  0
LAYER
  5
10
330
2
100
AcDbSymbolTableRecord
100
AcDbLayerTableRecord
  2
0
 70
     0
 62
     7
  6
Continuous
370
    -3
390
F
  0
LAYER
  5
6F
330
2
100
AcDbSymbolTableRecord
100
AcDbLayerTableRecord
  2
FORMAT
 70
     0
 62
     2
  6
Continuous
370
    -3
390
F
  0
LAYER
  5
70
330
2
100
AcDbSymbolTableRecord
100
AcDbLayerTableRecord
  2
외형선
 70
     0
 62
     4
  6
Continuous
370
    30
390
F
  0
LAYER
  5
71
330
2
100
AcDbSymbolTableRecord
100
AcDbLayerTableRecord
  2
숨은선
 70
     0
 62
     2
  6
HIDDEN
370
    15
390
F
  0
LAYER
  5
72
330
2
100
AcDbSymbolTableRecord
100
AcDbLayerTableRecord
  2
중심선
 70
     0
 62
     1
  6
CENTERX2
370
    -3
390
F
  0
LAYER
  5
73
330
2
100
AcDbSymbolTableRecord
100
AcDbLayerTableRecord
  2
파단선
 70
     0
 62
     4
  6
Continuous
370
    -3
390
F
  0
LAYER
  5
74
330
2
100
AcDbSymbolTableRecord
100
AcDbLayerTableRecord
  2
해칭선
 70
     0
 62
   100
  6
Continuous
370
    -3
390
F
  0
LAYER
  5
75
330
2
100
AcDbSymbolTableRecord
100
AcDbLayerTableRecord
  2
가는실선
 70
     0
 62
     4
  6
Continuous
370
    -3
390
F
  0
LAYER
  5
76
330
2
100
AcDbSymbolTableRecord
100
AcDbLayerTableRecord
  2
치수_보조선
 70
     0
 62
     4
  6
Continuous
370
    -3
390
F
  0
LAYER
  5
77
330
2
100
AcDbSymbolTableRecord
100
AcDbLayerTableRecord
  2
치수문자_일반주서
 70
     0
 62
     7
  6
Continuous
370
    15
390
F
  0
LAYER
  5
78
330
2
100
AcDbSymbolTableRecord
100
AcDbLayerTableRecord
  2
개별주서
 70
     0
 62
   100
  6
Continuous
370
    30
390
F
  0
LAYER
  5
79
330
2
100
AcDbSymbolTableRecord
100
AcDbLayerTableRecord
  2
중간선
 70
     0
 62
     2
  6
Continuous
370
    15
390
F
  0
LAYER
  5
7A
330
2
100
AcDbSymbolTableRecord
100
AcDbLayerTableRecord
  2
윤곽선
 70
     0
 62
     3
  6
Continuous
370
    40
390
F
  0
LAYER
  5
7B
330
2
100
AcDbSymbolTableRecord
100
AcDbLayerTableRecord
  2
중심마크
 70
     0
 62
   100
  6
Continuous
370
    30
390
F
  0
LAYER
  5
7C
330
2
100
AcDbSymbolTableRecord
100
AcDbLayerTableRecord
  2
가상선
 70
     0
 62
     4
  6
PHANTOM
370
    -3
390
F
  0
LAYER
  5
7D
330
2
100
AcDbSymbolTableRecord
100
AcDbLayerTableRecord
  2
특수지정선
 70
     0
 62
     5
  6
CENTERX2
370
    60
390
F
  0
LAYER
  5
7E
330
2
100
AcDbSymbolTableRecord
100
AcDbLayerTableRecord
  2
참조1
 70
     0
 62
    -4
  6
Continuous
370
    -3
390
F
  0
LAYER
  5
149
330
2
100
AcDbSymbolTableRecord
100
AcDbLayerTableRecord
  2
Defpoints
 70
     0
 62
     7
  6
Continuous
290
     0
370
    -3
390
F
  0
ENDTAB
  0
TABLE
  2
STYLE
  5
3
330
0
100
AcDbSymbolTable
 70
     2
  0
STYLE
  5
11
330
3
100
AcDbSymbolTableRecord
100
AcDbTextStyleTableRecord
  2
Standard
 70
     0
 40
0.0
 41
1.0
 50
0.0
 71
     0
 42
3.5
  3
txt
  4

  0
STYLE
  5
94
330
3
100
AcDbSymbolTableRecord
100
AcDbTextStyleTableRecord
  2
SLDTEXTSTYLE0
 70
     0
 40
0.0
 41
0.75
 50
0.0
 71
     0
 42
3.5
  3
TXT
  4

  0
ENDTAB
  0
TABLE
  2
VIEW
  5
6
330
0
100
AcDbSymbolTable
 70
     0
  0
ENDTAB
  0
TABLE
  2
UCS
  5
7
330
0
100
AcDbSymbolTable
 70
     0
  0
ENDTAB
  0
TABLE
  2
APPID
  5
9
330
0
100
AcDbSymbolTable
 70
     1
  0
APPID
  5
12
330
9
100
AcDbSymbolTableRecord
100
AcDbRegAppTableRecord
  2
ACAD
 70
     0
  0
ENDTAB
  0
TABLE
  2
DIMSTYLE
  5
A
330
0
100
AcDbSymbolTable
 70
     4
100
AcDbDimStyleTable
  0
DIMSTYLE
105
27
330
A
100
AcDbSymbolTableRecord
100
AcDbDimStyleTableRecord
  2
ISO-25
 70
     0
 41
2.5
 42
0.625
 43
3.75
 44
1.25
 73
     0
 74
     0
 77
     1
 78
     8
140
2.5
141
2.5
143
0.03937007874016
147
0.625
171
     3
172
     1
178
     0
271
     2
272
     2
274
     3
278
    44
283
     0
284
     8
340
11
  0
DIMSTYLE
105
C6
330
A
100
AcDbSymbolTableRecord
100
AcDbDimStyleTableRecord
  2
SLDDIMSTYLE0
 70
     0
 41
3.302
 44
0.0
 45
0.000000001
 73
     0
 74
     0
 77
     1
 78
    12
 79
     3
140
3.5
143
0.0393700787401575
147
0.875
148
0.000000001
170
     1
173
     1
178
     0
271
     2
272
     2
276
     2
284
    12
340
94
  0
DIMSTYLE
105
EE
330
A
100
AcDbSymbolTableRecord
100
AcDbDimStyleTableRecord
  2
SLDDIMSTYLE1
 70
     0
 41
3.302
 44
0.0
 45
0.000000001
 73
     0
 74
     0
 77
     1
 78
     4
 79
     1
140
3.5
143
0.0393700787401575
147
0.875
148
0.000000001
170
     1
173
     1
178
     0
271
     2
272
     2
276
     2
284
    12
340
94
  0
DIMSTYLE
105
102
102
{ACAD_REACTORS
330
101
330
C5
330
D9
330
ED
102
}
330
A
100
AcDbSymbolTableRecord
100
AcDbDimStyleTableRecord
  2
SLDDIMSTYLE2
 70
     0
 41
3.302
 44
0.0
 45
0.000000001
 73
     0
 74
     0
 77
     1
 78
    12
 79
     3
140
3.5
143
0.0393700787401575
147
0.875
148
0.000000001
170
     1
172
     1
173
     1
178
     0
271
     2
272
     2
276
     2
284
    12
289
     0
340
94
  0
ENDTAB
  0
TABLE
  2
BLOCK_RECORD
  5
1
330
0
100
AcDbSymbolTable
 70
    19
  0
BLOCK_RECORD
  5
1F
330
1
100
AcDbSymbolTableRecord
100
AcDbBlockTableRecord
  2
*Model_Space
340
22
  0
BLOCK_RECORD
  5
1B
330
1
100
AcDbSymbolTableRecord
100
AcDbBlockTableRecord
  2
*Paper_Space
340
1E
  0
BLOCK_RECORD
  5
23
330
1
100
AcDbSymbolTableRecord
100
AcDbBlockTableRecord
  2
*Paper_Space0
340
26
  0
BLOCK_RECORD
  5
7F
330
1
100
AcDbSymbolTableRecord
100
AcDbBlockTableRecord
  2
블럭10
340
0
102
{BLKREFS
331
BE
102
}
  0
BLOCK_RECORD
  5
C7
330
1
100
AcDbSymbolTableRecord
100
AcDbBlockTableRecord
  2
_D
340
0
  0
BLOCK_RECORD
  5
DA
330
1
100
AcDbSymbolTableRecord
100
AcDbBlockTableRecord
  2
_D_1
340
0
  0
BLOCK_RECORD
  5
EF
330
1
100
AcDbSymbolTableRecord
100
AcDbBlockTableRecord
  2
_D_2
340
0
  0
BLOCK_RECORD
  5
103
330
1
100
AcDbSymbolTableRecord
100
AcDbBlockTableRecord
  2
_D_3
340
0
  0
BLOCK_RECORD
  5
11D
330
1
100
AcDbSymbolTableRecord
100
AcDbBlockTableRecord
  2
SW_DOWELSYMBOL_0
340
0
102
{BLKREFS
331
123
102
}
  0
BLOCK_RECORD
  5
1D2
330
1
100
AcDbSymbolTableRecord
100
AcDbBlockTableRecord
  2
*D7
340
0
  0
BLOCK_RECORD
  5
1E1
330
1
100
AcDbSymbolTableRecord
100
AcDbBlockTableRecord
  2
*D8
340
0
  0
BLOCK_RECORD
  5
1F0
330
1
100
AcDbSymbolTableRecord
100
AcDbBlockTableRecord
  2
*D9
340
0
  0
BLOCK_RECORD
  5
229
330
1
100
AcDbSymbolTableRecord
100
AcDbBlockTableRecord
  2
*D10
340
0
  0
BLOCK_RECORD
  5
238
330
1
100
AcDbSymbolTableRecord
100
AcDbBlockTableRecord
  2
*D11
340
0
  0
BLOCK_RECORD
  5
247
330
1
100
AcDbSymbolTableRecord
100
AcDbBlockTableRecord
  2
*D12
340
0
  0
BLOCK_RECORD
  5
2D9
330
1
100
AcDbSymbolTableRecord
100
AcDbBlockTableRecord
  2
*D13
340
0
  0
BLOCK_RECORD
  5
2E8
330
1
100
AcDbSymbolTableRecord
100
AcDbBlockTableRecord
  2
*D14
340
0
  0
BLOCK_RECORD
  5
2F7
330
1
100
AcDbSymbolTableRecord
100
AcDbBlockTableRecord
  2
*D15
340
0
  0
BLOCK_RECORD
  5
328
330
1
100
AcDbSymbolTableRecord
100
AcDbBlockTableRecord
  2
*D16
340
0
  0
BLOCK_RECORD
  5
337
330
1
100
AcDbSymbolTableRecord
100
AcDbBlockTableRecord
  2
*D17
340
0
  0
BLOCK_RECORD
  5
346
330
1
100
AcDbSymbolTableRecord
100
AcDbBlockTableRecord
  2
*D18
340
0
  0
ENDTAB
  0
ENDSEC
  0
SECTION
  2
BLOCKS
  0
BLOCK
  5
20
330
1F
100
AcDbEntity
  8
0
100
AcDbBlockBegin
  2
*Model_Space
 70
     0
 10
0.0
 20
0.0
 30
0.0
  3
*Model_Space
  1
*Model_Space
  0
ENDBLK
  5
21
330
1F
100
AcDbEntity
  8
0
100
AcDbBlockEnd
  0
BLOCK
  5
1C
330
1B
100
AcDbEntity
 67
     1
  8
0
100
AcDbBlockBegin
  2
*Paper_Space
 70
     0
 10
0.0
 20
0.0
 30
0.0
  3
*Paper_Space
  1
*Paper_Space
  0
ENDBLK
  5
1D
330
1B
100
AcDbEntity
 67
     1
  8
0
100
AcDbBlockEnd
  0
BLOCK
  5
24
330
23
100
AcDbEntity
  8
0
100
AcDbBlockBegin
  2
*Paper_Space0
 70
     0
 10
0.0
 20
0.0
 30
0.0
  3
*Paper_Space0
  1
*Paper_Space0
  0
ENDBLK
  5
25
330
23
100
AcDbEntity
  8
0
100
AcDbBlockEnd
  0
BLOCK
  5
80
330
7F
100
AcDbEntity
  8
0
100
AcDbBlockBegin
  2
블럭10
 70
     2
 10
0.0
 20
0.0
 30
0.0
  3
블럭10
  1
블럭10
  0
ELLIPSE
  5
82
330
7F
100
AcDbEntity
  8
중심선
100
AcDbEllipse
 10
20.54032771741204
 20
12.0471743016438
 30
0.0
 11
6.600054785286829
 21
-1.261213355974178E-13
 31
0.0
210
0.0
220
0.0
230
1.0
 40
0.636358354079598
 41
0.9219305317359503
 42
6.513795318482858
  0
ELLIPSE
  5
83
330
7F
100
AcDbEntity
  8
중심선
100
AcDbEllipse
 10
20.54032771746488
 20
12.04717430159265
 30
0.0
 11
3.960054785062283
 21
1.540847449632565E-10
 31
0.0
210
0.0
220
0.0
230
1.0
 40
0.3939339440162632
 41
1.131841032648279
 42
5.62031148352944
  0
LINE
  5
84
330
7F
100
AcDbEntity
  8
중심선
100
AcDbLine
 10
2.268634060543552
 20
16.24717430164393
 30
0.0
 11
5.714909304380834
 21
16.24717430164393
 31
0.0
  0
LINE
  5
85
330
7F
100
AcDbEntity
  8
중심선
100
AcDbLine
 10
5.245725140726316
 20
7.84717430164391
 30
0.0
 11
8.692000384563599
 21
7.84717430164391
 31
0.0
  0
LINE
  5
86
330
7F
100
AcDbEntity
  8
중심선
100
AcDbLine
 10
15.74043728645272
 20
16.24717430164393
 30
0.0
 11
8.692000384563599
 21
7.84717430164391
 31
0.0
  0
LINE
  5
87
330
7F
100
AcDbEntity
  8
중심선
100
AcDbLine
 10
0.1404042013395286
 20
13.71084872107135
 30
0.0
 11
3.58671253028996
 21
13.71088815037384
 31
0.0
  0
LINE
  5
88
330
7F
100
AcDbEntity
  8
중심선
100
AcDbLine
 10
2.750260043222114
 20
10.84717430164391
 30
0.0
 11
6.196535287059397
 21
10.84717430164391
 31
0.0
  0
LINE
  5
89
330
7F
100
AcDbEntity
  8
중심선
100
AcDbLine
 10
12.29416204261559
 20
16.24717430164393
 30
0.0
 11
5.245725140726316
 21
7.84717430164391
 31
0.0
  0
LINE
  5
8A
330
7F
100
AcDbEntity
  8
중심선
100
AcDbLine
 10
10.72767329541681
 20
16.24717430164393
 30
0.0
 11
6.196535287059397
 21
10.84717430164391
 31
0.0
  0
LINE
  5
8B
330
7F
100
AcDbEntity
  8
중심선
100
AcDbLine
 10
7.28139805157953
 20
16.24717430164393
 30
0.0
 11
2.750260043222114
 21
10.84717430164391
 31
0.0
  0
LINE
  5
8C
330
7F
100
AcDbEntity
  8
중심선
100
AcDbLine
 10
5.714909304380834
 20
16.24717430164393
 30
0.0
 11
3.58671253028996
 21
13.71088815037384
 31
0.0
  0
LINE
  5
8D
330
7F
100
AcDbEntity
  8
중심선
100
AcDbLine
 10
2.268634060543552
 20
16.24717430164393
 30
0.0
 11
0.1404042013395286
 21
13.71084872107135
 31
0.0
  0
LINE
  5
8E
330
7F
100
AcDbEntity
  8
중심선
100
AcDbLine
 10
7.28139805157953
 20
16.24717430164393
 30
0.0
 11
10.72767329541681
 21
16.24717430164393
 31
0.0
  0
LINE
  5
8F
330
7F
100
AcDbEntity
  8
중심선
100
AcDbLine
 10
12.29416204261559
 20
16.24717430164393
 30
0.0
 11
15.74043728645272
 21
16.24717430164393
 31
0.0
  0
LINE
  5
90
330
7F
100
AcDbEntity
  8
중심선
100
AcDbLine
 10
19.22036997980202
 20
11.08717430171403
 30
0.0
 11
23.66174974927406
 21
11.08717430171406
 31
0.0
  0
LINE
  5
91
330
7F
100
AcDbEntity
  8
중심선
100
AcDbLine
 10
19.22039502424796
 20
13.00717430171391
 30
0.0
 11
19.22036997980202
 21
11.08717430171403
 31
0.0
  0
LINE
  5
92
330
7F
100
AcDbEntity
  8
중심선
100
AcDbLine
 10
19.22039502424796
 20
13.00717430171391
 30
0.0
 11
26.96566020931264
 21
13.00717430171391
 31
0.0
  0
LINE
  5
93
330
7F
100
AcDbEntity
  8
중심선
100
AcDbLine
 10
22.22332737316547
 20
13.45928029700563
 30
0.0
 11
24.52862924686651
 21
15.39360700705356
 31
0.0
  0
ATTDEF
  5
95
330
7F
100
AcDbEntity
  8
FORMAT
 62
     2
100
AcDbText
 10
4.408487351596664
 20
2.075366912832191
 30
0.0
 40
4.233333333333333
  1
E1053024
 41
0.75
  7
SLDTEXTSTYLE0
 11
4.408487351596664
 21
-0.0412997538344756
 31
0.0
100
AcDbAttributeDefinition
  3

  2
AUTOATTR0
 70
     0
 74
     1
  0
ENDBLK
  5
81
330
7F
100
AcDbEntity
  8
0
100
AcDbBlockEnd
  0
BLOCK
  5
C8
330
C7
100
AcDbEntity
  8
0
100
AcDbBlockBegin
  2
_D
 70
     0
 10
0.0
 20
0.0
 30
0.0
  3
_D
  1
_D
  0
LINE
  5
CA
330
C7
100
AcDbEntity
  8
치수문자_일반주서
 62
     0
370
    -2
100
AcDbLine
 10
44.51250000000002
 20
4.762500000000006
 30
0.0
 11
61.32753935595682
 21
4.76250000000007
 31
0.0
  0
LINE
  5
CB
330
C7
100
AcDbEntity
  8
치수문자_일반주서
 62
     0
370
    -2
100
AcDbLine
 10
44.5125
 20
-4.762499999999993
 30
0.0
 11
61.32753935595685
 21
-4.762499999999928
 31
0.0
  0
LINE
  5
CC
330
C7
100
AcDbEntity
  8
치수문자_일반주서
 62
     0
370
    -2
100
AcDbLine
 10
61.32753935595682
 20
4.76250000000007
 30
0.0
 11
61.3275393559567
 21
37.61650000000007
 31
0.0
  0
LINE
  5
CD
330
C7
100
AcDbEntity
  8
치수문자_일반주서
 62
     0
370
    -2
100
AcDbLine
 10
61.32753935595682
 20
4.76250000000007
 30
0.0
 11
61.32753935595685
 21
-4.762499999999928
 31
0.0
  0
LINE
  5
CE
330
C7
100
AcDbEntity
  8
치수문자_일반주서
 62
     0
370
    -2
100
AcDbLine
 10
61.3275393559568
 20
8.06450000000007
 30
0.0
 11
61.32753935595679
 21
11.36650000000007
 31
0.0
  0
LINE
  5
CF
330
C7
100
AcDbEntity
  8
치수문자_일반주서
 62
     0
370
    -2
100
AcDbLine
 10
61.32753935595687
 20
-8.064499999999928
 30
0.0
 11
61.32753935595688
 21
-11.36649999999993
 31
0.0
  0
SOLID
  5
D0
330
C7
100
AcDbEntity
  8
치수문자_일반주서
 62
     0
100
AcDbTrace
 10
60.77720602262347
 20
8.064500000000068
 30
0.0
 11
61.87787268929014
 21
8.064500000000072
 31
0.0
 12
61.32753935595682
 22
4.76250000000007
 32
0.0
 13
61.32753935595682
 23
4.76250000000007
 33
0.0
  0
SOLID
  5
D1
330
C7
100
AcDbEntity
  8
치수문자_일반주서
 62
     0
100
AcDbTrace
 10
61.8778726892902
 20
-8.064499999999926
 30
0.0
 11
60.77720602262353
 21
-8.06449999999993
 31
0.0
 12
61.32753935595685
 22
-4.762499999999928
 32
0.0
 13
61.32753935595685
 23
-4.762499999999928
 33
0.0
  0
MTEXT
  5
D2
330
C7
100
AcDbEntity
  8
치수문자_일반주서
 62
     0
100
AcDbMText
 10
56.95253935595674
 20
24.49150000000005
 30
0.0
 40
3.5
 41
0.0
 71
     2
 72
     1
  1
\A1;%%c9.53 [3/8]
  7
SLDTEXTSTYLE0
 11
-3.729883127349608E-15
 21
1.0
 31
0.0
 73
     1
 44
1.0
  0
POINT
  5
D3
330
C7
100
AcDbEntity
  8
Defpoints
 62
     0
100
AcDbPoint
 10
44.45000000000002
 20
4.762500000000006
 30
0.0
  0
POINT
  5
253
330
C7
100
AcDbEntity
  8
Defpoints
 62
     0
100
AcDbPoint
 10
44.45
 20
-4.762499999999993
 30
0.0
  0
POINT
  5
254
330
C7
100
AcDbEntity
  8
Defpoints
 62
     0
100
AcDbPoint
 10
61.32753935595683
 20
-4.76249999999993
 30
0.0
  0
ENDBLK
  5
C9
330
C7
100
AcDbEntity
  8
0
100
AcDbBlockEnd
  0
BLOCK
  5
DB
330
DA
100
AcDbEntity
  8
0
100
AcDbBlockBegin
  2
_D_1
 70
     0
 10
0.0
 20
0.0
 30
0.0
  3
_D_1
  1
_D_1
  0
LINE
  5
DD
330
DA
100
AcDbEntity
  8
치수문자_일반주서
 62
     0
370
    -2
100
AcDbLine
 10
44.45000000000002
 20
4.825000000000006
 30
0.0
 11
44.45000000000002
 21
18.91115835679366
 31
0.0
  0
LINE
  5
DE
330
DA
100
AcDbEntity
  8
치수문자_일반주서
 62
     0
370
    -2
100
AcDbLine
 10
25.4
 20
4.459556202909951
 30
0.0
 11
25.4
 21
18.91115835679366
 31
0.0
  0
LINE
  5
DF
330
DA
100
AcDbEntity
  8
치수문자_일반주서
 62
     0
370
    -2
100
AcDbLine
 10
25.4
 20
18.91115835679366
 30
0.0
 11
-6.141500000000001
 21
18.91115835679366
 31
0.0
  0
LINE
  5
E0
330
DA
100
AcDbEntity
  8
치수문자_일반주서
 62
     0
370
    -2
100
AcDbLine
 10
44.45000000000002
 20
18.91115835679366
 30
0.0
 11
25.4
 21
18.91115835679366
 31
0.0
  0
LINE
  5
E1
330
DA
100
AcDbEntity
  8
치수문자_일반주서
 62
     0
370
    -2
100
AcDbLine
 10
47.75200000000002
 20
18.91115835679366
 30
0.0
 11
51.05400000000002
 21
18.91115835679366
 31
0.0
  0
LINE
  5
E2
330
DA
100
AcDbEntity
  8
치수문자_일반주서
 62
     0
370
    -2
100
AcDbLine
 10
22.098
 20
18.91115835679366
 30
0.0
 11
18.796
 21
18.91115835679366
 31
0.0
  0
SOLID
  5
E3
330
DA
100
AcDbEntity
  8
치수문자_일반주서
 62
     0
100
AcDbTrace
 10
47.75200000000002
 20
19.461491690127
 30
0.0
 11
47.75200000000002
 21
18.36082502346033
 31
0.0
 12
44.45000000000002
 22
18.91115835679366
 32
0.0
 13
44.45000000000002
 23
18.91115835679366
 33
0.0
  0
SOLID
  5
E4
330
DA
100
AcDbEntity
  8
치수문자_일반주서
 62
     0
100
AcDbTrace
 10
22.098
 20
18.36082502346033
 30
0.0
 11
22.098
 21
19.461491690127
 31
0.0
 12
25.4
 22
18.91115835679366
 32
0.0
 13
25.4
 23
18.91115835679366
 33
0.0
  0
MTEXT
  5
E5
330
DA
100
AcDbEntity
  8
치수문자_일반주서
 62
     0
100
AcDbMText
 10
6.327249999999999
 20
23.28615835679366
 30
0.0
 40
3.5
 41
0.0
 71
     2
 72
     1
  1
\A1;19.05 [3/4]
  7
SLDTEXTSTYLE0
 73
     1
 44
1.0
  0
POINT
  5
E6
330
DA
100
AcDbEntity
  8
Defpoints
 62
     0
100
AcDbPoint
 10
44.45000000000002
 20
4.762500000000006
 30
0.0
  0
POINT
  5
255
330
DA
100
AcDbEntity
  8
Defpoints
 62
     0
100
AcDbPoint
 10
25.4
 20
4.397056202909951
 30
0.0
  0
POINT
  5
256
330
DA
100
AcDbEntity
  8
Defpoints
 62
     0
100
AcDbPoint
 10
25.4
 20
18.91115835679366
 30
0.0
  0
ENDBLK
  5
DC
330
DA
100
AcDbEntity
  8
0
100
AcDbBlockEnd
  0
BLOCK
  5
F0
330
EF
100
AcDbEntity
  8
0
100
AcDbBlockBegin
  2
_D_2
 70
     0
 10
0.0
 20
0.0
 30
0.0
  3
_D_2
  1
_D_2
  0
LINE
  5
F2
330
EF
100
AcDbEntity
  8
치수문자_일반주서
 62
     0
370
    -2
100
AcDbLine
 10
44.45000000000002
 20
4.825000000000006
 30
0.0
 11
44.45000000000002
 21
37.68343837155771
 31
0.0
  0
LINE
  5
F3
330
EF
100
AcDbEntity
  8
치수문자_일반주서
 62
     0
370
    -2
100
AcDbLine
 10
-44.45000000000005
 20
4.824999999999996
 30
0.0
 11
-44.45000000000005
 21
37.68343837155771
 31
0.0
  0
LINE
  5
F4
330
EF
100
AcDbEntity
  8
치수문자_일반주서
 62
     0
370
    -2
100
AcDbLine
 10
41.14800000000002
 20
37.68343837155771
 30
0.0
 11
-41.14800000000005
 21
37.68343837155771
 31
0.0
  0
SOLID
  5
F5
330
EF
100
AcDbEntity
  8
치수문자_일반주서
 62
     0
100
AcDbTrace
 10
41.14800000000002
 20
37.13310503822438
 30
0.0
 11
41.14800000000002
 21
38.23377170489105
 31
0.0
 12
44.45000000000002
 22
37.68343837155771
 32
0.0
 13
44.45000000000002
 23
37.68343837155771
 33
0.0
  0
SOLID
  5
F6
330
EF
100
AcDbEntity
  8
치수문자_일반주서
 62
     0
100
AcDbTrace
 10
-41.14800000000005
 20
38.23377170489105
 30
0.0
 11
-41.14800000000005
 21
37.13310503822438
 31
0.0
 12
-44.45000000000005
 22
37.68343837155771
 32
0.0
 13
-44.45000000000005
 23
37.68343837155771
 33
0.0
  0
MTEXT
  5
F7
330
EF
100
AcDbEntity
  8
치수문자_일반주서
 62
     0
100
AcDbMText
 10
4.331632486782709
 20
42.05843837155771
 30
0.0
 40
3.5
 41
0.0
 71
     2
 72
     1
  1
\A1;88.9 [3 1/2]
  7
SLDTEXTSTYLE0
 73
     1
 44
1.0
  0
POINT
  5
F8
330
EF
100
AcDbEntity
  8
Defpoints
 62
     0
100
AcDbPoint
 10
44.45000000000002
 20
4.762500000000006
 30
0.0
  0
POINT
  5
F9
330
EF
100
AcDbEntity
  8
Defpoints
 62
     0
100
AcDbPoint
 10
-44.45000000000005
 20
4.762499999999996
 30
0.0
  0
POINT
  5
FA
330
EF
100
AcDbEntity
  8
Defpoints
 62
     0
100
AcDbPoint
 10
-44.45000000000005
 20
37.68343837155771
 30
0.0
  0
ENDBLK
  5
F1
330
EF
100
AcDbEntity
  8
0
100
AcDbBlockEnd
  0
BLOCK
  5
104
330
103
100
AcDbEntity
  8
0
100
AcDbBlockBegin
  2
_D_3
 70
     0
 10
0.0
 20
0.0
 30
0.0
  3
_D_3
  1
_D_3
  0
LINE
  5
106
330
103
100
AcDbEntity
  8
치수문자_일반주서
 62
     0
370
    -2
100
AcDbLine
 10
-24.96245246795075
 20
4.762500000000003
 30
0.0
 11
-56.97375000000002
 21
4.762499999999885
 31
0.0
  0
LINE
  5
107
330
103
100
AcDbEntity
  8
치수문자_일반주서
 62
     0
370
    -2
100
AcDbLine
 10
-24.96245246795075
 20
-4.762499999999996
 30
0.0
 11
-56.97374999999999
 21
-4.762500000000114
 31
0.0
  0
LINE
  5
108
330
103
100
AcDbEntity
  8
치수문자_일반주서
 62
     0
370
    -2
100
AcDbLine
 10
-56.97375000000001
 20
1.460499999999885
 30
0.0
 11
-56.97375
 21
-1.460500000000114
 31
0.0
  0
SOLID
  5
109
330
103
100
AcDbEntity
  8
치수문자_일반주서
 62
     0
100
AcDbTrace
 10
-56.42341666666668
 20
1.460499999999887
 30
0.0
 11
-57.52408333333334
 21
1.460499999999883
 31
0.0
 12
-56.97375000000002
 22
4.762499999999885
 32
0.0
 13
-56.97375000000002
 23
4.762499999999885
 33
0.0
  0
SOLID
  5
10A
330
103
100
AcDbEntity
  8
치수문자_일반주서
 62
     0
100
AcDbTrace
 10
-57.52408333333334
 20
-1.460500000000116
 30
0.0
 11
-56.42341666666667
 21
-1.460500000000112
 31
0.0
 12
-56.97374999999999
 22
-4.762500000000114
 32
0.0
 13
-56.97374999999999
 23
-4.762500000000114
 33
0.0
  0
MTEXT
  5
10B
330
103
100
AcDbEntity
  8
치수문자_일반주서
 62
     0
100
AcDbMText
 10
-61.34875000000001
 20
-0.0000000000000156
 30
0.0
 40
3.5
 41
0.0
 71
     2
 72
     1
  1
\A1;%%c9.53 [3/8]
  7
SLDTEXTSTYLE0
 11
-3.729883127349607E-15
 21
1.0
 31
0.0
 73
     1
 44
1.0
  0
POINT
  5
10C
330
103
100
AcDbEntity
  8
Defpoints
 62
     0
100
AcDbPoint
 10
-24.89995246795075
 20
4.762500000000003
 30
0.0
  0
POINT
  5
10D
330
103
100
AcDbEntity
  8
Defpoints
 62
     0
100
AcDbPoint
 10
-24.89995246795075
 20
-4.762499999999996
 30
0.0
  0
POINT
  5
10E
330
103
100
AcDbEntity
  8
Defpoints
 62
     0
100
AcDbPoint
 10
-56.97374999999999
 20
-4.762500000000116
 30
0.0
  0
ENDBLK
  5
105
330
103
100
AcDbEntity
  8
0
100
AcDbBlockEnd
  0
BLOCK
  5
11E
330
11D
100
AcDbEntity
  8
0
100
AcDbBlockBegin
  2
SW_DOWELSYMBOL_0
 70
     0
 10
0.0
 20
0.0
 30
0.0
  3
SW_DOWELSYMBOL_0
  1
SW_DOWELSYMBOL_0
  0
CIRCLE
  5
120
330
11D
100
AcDbEntity
  8
해칭선
 62
     0
100
AcDbCircle
 10
0.0
 20
0.0
 30
0.0
 40
3.000000000000008
  0
HATCH
  5
121
330
11D
100
AcDbEntity
  8
0
  6
Continuous
 62
     0
370
     0
100
AcDbHatch
 10
0.0
 20
0.0
 30
0.0
210
0.0
220
0.0
230
1.0
  2
SOLID
 70
     1
 71
     0
 91
        1
 92
        0
 93
        3
 72
     2
 10
0.0
 20
0.0
 40
3.000000000000008
 50
0.0
 51
90.0
 73
     1
 72
     1
 10
0.0
 20
3.000000000000008
 11
0.0
 21
0.0
 72
     1
 10
0.0
 20
0.0
 11
3.00000000000001
 21
0.0
 97
        0
 75
     0
 76
     1
 98
        1
 10
0.0
 20
0.0
  0
HATCH
  5
122
330
11D
100
AcDbEntity
  8
0
  6
Continuous
 62
     0
370
     0
100
AcDbHatch
 10
0.0
 20
0.0
 30
0.0
210
0.0
220
0.0
230
1.0
  2
SOLID
 70
     1
 71
     0
 91
        1
 92
        0
 93
        3
 72
     2
 10
0.0
 20
0.0
 40
3.000000000000008
 50
180.0
 51
270.0000000000007
 73
     1
 72
     1
 10
0.0
 20
-3.000000000000008
 11
0.0
 21
0.0
 72
     1
 10
0.0
 20
0.0
 11
-3.00000000000001
 21
0.0
 97
        0
 75
     0
 76
     1
 98
        1
 10
0.0
 20
0.0
  0
ENDBLK
  5
11F
330
11D
100
AcDbEntity
  8
0
100
AcDbBlockEnd
  0
BLOCK
  5
1D3
330
1D2
100
AcDbEntity
  8
0
100
AcDbBlockBegin
  2
*D7
 70
     1
 10
0.0
 20
0.0
 30
0.0
  3
*D7
  1
*D8
  0
LINE
  5
1D5
330
1D2
100
AcDbEntity
  8
치수문자_일반주서
 62
     0
370
    -2
100
AcDbLine
 10
91.96250000000002
 20
15.73212499999994
 30
0.0
 11
106.7263697091247
 21
15.732125
 31
0.0
  0
LINE
  5
1D6
330
1D2
100
AcDbEntity
  8
치수문자_일반주서
 62
     0
370
    -2
100
AcDbLine
 10
91.96250000000002
 20
6.603999999999944
 30
0.0
 11
106.7263697091247
 21
6.603999999999996
 31
0.0
  0
LINE
  5
1D7
330
1D2
100
AcDbEntity
  8
치수문자_일반주서
 62
     0
370
    -2
100
AcDbLine
 10
106.7263697091247
 20
15.732125
 30
0.0
 11
106.7263697091246
 21
52.961125
 31
0.0
  0
LINE
  5
1D8
330
1D2
100
AcDbEntity
  8
치수문자_일반주서
 62
     0
370
    -2
100
AcDbLine
 10
106.7263697091247
 20
15.732125
 30
0.0
 11
106.7263697091247
 21
6.603999999999996
 31
0.0
  0
LINE
  5
1D9
330
1D2
100
AcDbEntity
  8
치수문자_일반주서
 62
     0
370
    -2
100
AcDbLine
 10
106.7263697091247
 20
19.034125
 30
0.0
 11
106.7263697091246
 21
22.336125
 31
0.0
  0
LINE
  5
1DA
330
1D2
100
AcDbEntity
  8
치수문자_일반주서
 62
     0
370
    -2
100
AcDbLine
 10
106.7263697091247
 20
3.301999999999996
 30
0.0
 11
106.7263697091247
 21
-0.0000000000000036
 31
0.0
  0
SOLID
  5
1DB
330
1D2
100
AcDbEntity
  8
치수문자_일반주서
 62
     0
100
AcDbTrace
 10
106.1760363757913
 20
19.034125
 30
0.0
 11
107.276703042458
 21
19.034125
 31
0.0
 12
106.7263697091247
 22
15.732125
 32
0.0
 13
106.7263697091247
 23
15.732125
 33
0.0
  0
SOLID
  5
1DC
330
1D2
100
AcDbEntity
  8
치수문자_일반주서
 62
     0
100
AcDbTrace
 10
107.276703042458
 20
3.301999999999998
 30
0.0
 11
106.1760363757914
 21
3.301999999999994
 31
0.0
 12
106.7263697091247
 22
6.603999999999996
 32
0.0
 13
106.7263697091247
 23
6.603999999999996
 33
0.0
  0
MTEXT
  5
1DD
330
1D2
100
AcDbEntity
  8
치수문자_일반주서
 62
     0
100
AcDbMText
 10
102.3513697091246
 20
37.64862499999998
 30
0.0
 40
3.5
 41
0.0
 71
     2
 72
     1
  1
\A1;%%c9.13 [23/64]
  7
SLDTEXTSTYLE0
 11
-3.113641567178803E-15
 21
1.0
 31
0.0
 73
     1
 44
1.0
  0
POINT
  5
1DE
330
1D2
100
AcDbEntity
  8
Defpoints
 62
     0
100
AcDbPoint
 10
91.90000000000002
 20
15.73212499999994
 30
0.0
  0
POINT
  5
1DF
330
1D2
100
AcDbEntity
  8
Defpoints
 62
     0
100
AcDbPoint
 10
91.90000000000002
 20
6.603999999999944
 30
0.0
  0
POINT
  5
1E0
330
1D2
100
AcDbEntity
  8
Defpoints
 62
     0
100
AcDbPoint
 10
106.7263697091247
 20
6.603999999999999
 30
0.0
  0
ENDBLK
  5
1D4
330
1D2
100
AcDbEntity
  8
0
100
AcDbBlockEnd
  0
BLOCK
  5
1E2
330
1E1
100
AcDbEntity
  8
0
100
AcDbBlockBegin
  2
*D8
 70
     1
 10
0.0
 20
0.0
 30
0.0
  3
*D8
  1
*D9
  0
LINE
  5
1E4
330
1E1
100
AcDbEntity
  8
치수문자_일반주서
 62
     0
370
    -2
100
AcDbLine
 10
91.90000000000002
 20
15.79462499999994
 30
0.0
 11
91.90000000000002
 21
28.13144511770559
 31
0.0
  0
LINE
  5
1E5
330
1E1
100
AcDbEntity
  8
치수문자_일반주서
 62
     0
370
    -2
100
AcDbLine
 10
72.85000000000002
 20
15.59879059505439
 30
0.0
 11
72.85000000000002
 21
28.13144511770559
 31
0.0
  0
LINE
  5
1E6
330
1E1
100
AcDbEntity
  8
치수문자_일반주서
 62
     0
370
    -2
100
AcDbLine
 10
72.85000000000002
 20
28.13144511770559
 30
0.0
 11
41.30850000000002
 21
28.13144511770559
 31
0.0
  0
LINE
  5
1E7
330
1E1
100
AcDbEntity
  8
치수문자_일반주서
 62
     0
370
    -2
100
AcDbLine
 10
91.90000000000002
 20
28.13144511770559
 30
0.0
 11
72.85000000000002
 21
28.13144511770559
 31
0.0
  0
LINE
  5
1E8
330
1E1
100
AcDbEntity
  8
치수문자_일반주서
 62
     0
370
    -2
100
AcDbLine
 10
95.20200000000003
 20
28.13144511770559
 30
0.0
 11
98.50400000000002
 21
28.13144511770559
 31
0.0
  0
LINE
  5
1E9
330
1E1
100
AcDbEntity
  8
치수문자_일반주서
 62
     0
370
    -2
100
AcDbLine
 10
69.54800000000003
 20
28.13144511770559
 30
0.0
 11
66.24600000000004
 21
28.13144511770559
 31
0.0
  0
SOLID
  5
1EA
330
1E1
100
AcDbEntity
  8
치수문자_일반주서
 62
     0
100
AcDbTrace
 10
95.20200000000003
 20
28.68177845103893
 30
0.0
 11
95.20200000000003
 21
27.58111178437226
 31
0.0
 12
91.90000000000002
 22
28.13144511770559
 32
0.0
 13
91.90000000000002
 23
28.13144511770559
 33
0.0
  0
SOLID
  5
1EB
330
1E1
100
AcDbEntity
  8
치수문자_일반주서
 62
     0
100
AcDbTrace
 10
69.54800000000003
 20
27.58111178437226
 30
0.0
 11
69.54800000000003
 21
28.68177845103893
 31
0.0
 12
72.85000000000002
 22
28.13144511770559
 32
0.0
 13
72.85000000000002
 23
28.13144511770559
 33
0.0
  0
MTEXT
  5
1EC
330
1E1
100
AcDbEntity
  8
치수문자_일반주서
 62
     0
100
AcDbMText
 10
53.77725000000002
 20
32.5064451177056
 30
0.0
 40
3.5
 41
0.0
 71
     2
 72
     1
  1
\A1;19.05 [3/4]
  7
SLDTEXTSTYLE0
 73
     1
 44
1.0
  0
POINT
  5
1ED
330
1E1
100
AcDbEntity
  8
Defpoints
 62
     0
100
AcDbPoint
 10
91.90000000000002
 20
15.73212499999994
 30
0.0
  0
POINT
  5
1EE
330
1E1
100
AcDbEntity
  8
Defpoints
 62
     0
100
AcDbPoint
 10
72.85000000000002
 20
15.53629059505439
 30
0.0
  0
POINT
  5
1EF
330
1E1
100
AcDbEntity
  8
Defpoints
 62
     0
100
AcDbPoint
 10
72.85000000000002
 20
28.13144511770559
 30
0.0
  0
ENDBLK
  5
1E3
330
1E1
100
AcDbEntity
  8
0
100
AcDbBlockEnd
  0
BLOCK
  5
1F1
330
1F0
100
AcDbEntity
  8
0
100
AcDbBlockBegin
  2
*D9
 70
     1
 10
0.0
 20
0.0
 30
0.0
  3
*D9
  1
*D10
  0
LINE
  5
1F3
330
1F0
100
AcDbEntity
  8
치수문자_일반주서
 62
     0
370
    -2
100
AcDbLine
 10
91.90000000000002
 20
15.79462499999994
 30
0.0
 11
91.9
 21
43.01867935550109
 31
0.0
  0
LINE
  5
1F4
330
1F0
100
AcDbEntity
  8
치수문자_일반주서
 62
     0
370
    -2
100
AcDbLine
 10
3.000000000000007
 20
15.04056249999994
 30
0.0
 11
2.999999999999993
 21
43.01867935550109
 31
0.0
  0
LINE
  5
1F5
330
1F0
100
AcDbEntity
  8
치수문자_일반주서
 62
     0
370
    -2
100
AcDbLine
 10
88.59800000000001
 20
43.01867935550109
 30
0.0
 11
6.301999999999992
 21
43.01867935550109
 31
0.0
  0
SOLID
  5
1F6
330
1F0
100
AcDbEntity
  8
치수문자_일반주서
 62
     0
100
AcDbTrace
 10
88.59800000000001
 20
42.46834602216776
 30
0.0
 11
88.59800000000001
 21
43.56901268883443
 31
0.0
 12
91.9
 22
43.01867935550109
 32
0.0
 13
91.9
 23
43.01867935550109
 33
0.0
  0
SOLID
  5
1F7
330
1F0
100
AcDbEntity
  8
치수문자_일반주서
 62
     0
100
AcDbTrace
 10
6.301999999999992
 20
43.56901268883443
 30
0.0
 11
6.301999999999992
 21
42.46834602216776
 31
0.0
 12
2.999999999999993
 22
43.01867935550109
 32
0.0
 13
2.999999999999993
 23
43.01867935550109
 33
0.0
  0
MTEXT
  5
1F8
330
1F0
100
AcDbEntity
  8
치수문자_일반주서
 62
     0
100
AcDbMText
 10
48.74451004613161
 20
47.39367935550109
 30
0.0
 40
3.5
 41
0.0
 71
     2
 72
     1
  1
\A1;88.9 [3 1/2]
  7
SLDTEXTSTYLE0
 73
     1
 44
1.0
  0
POINT
  5
1F9
330
1F0
100
AcDbEntity
  8
Defpoints
 62
     0
100
AcDbPoint
 10
91.90000000000002
 20
15.73212499999994
 30
0.0
  0
POINT
  5
1FA
330
1F0
100
AcDbEntity
  8
Defpoints
 62
     0
100
AcDbPoint
 10
3.000000000000007
 20
14.97806249999994
 30
0.0
  0
POINT
  5
1FB
330
1F0
100
AcDbEntity
  8
Defpoints
 62
     0
100
AcDbPoint
 10
3.000000000000007
 20
43.01867935550109
 30
0.0
  0
ENDBLK
  5
1F2
330
1F0
100
AcDbEntity
  8
0
100
AcDbBlockEnd
  0
BLOCK
  5
22A
330
229
100
AcDbEntity
  8
0
100
AcDbBlockBegin
  2
*D10
 70
     1
 10
0.0
 20
0.0
 30
0.0
  3
*D10
  1
*D11
  0
LINE
  5
22C
330
229
100
AcDbEntity
  8
치수문자_일반주서
 62
     0
370
    -2
100
AcDbLine
 10
166.2249211490342
 20
-28.50159749843074
 30
0.0
 11
180.9887908581588
 21
-28.50159749843068
 31
0.0
  0
LINE
  5
22D
330
229
100
AcDbEntity
  8
치수문자_일반주서
 62
     0
370
    -2
100
AcDbLine
 10
166.2249211490342
 20
-37.62972249843074
 30
0.0
 11
180.9887908581589
 21
-37.62972249843068
 31
0.0
  0
LINE
  5
22E
330
229
100
AcDbEntity
  8
치수문자_일반주서
 62
     0
370
    -2
100
AcDbLine
 10
180.9887908581588
 20
-28.50159749843068
 30
0.0
 11
180.9887908581587
 21
8.727402501569316
 31
0.0
  0
LINE
  5
22F
330
229
100
AcDbEntity
  8
치수문자_일반주서
 62
     0
370
    -2
100
AcDbLine
 10
180.9887908581588
 20
-28.50159749843068
 30
0.0
 11
180.9887908581589
 21
-37.62972249843068
 31
0.0
  0
LINE
  5
230
330
229
100
AcDbEntity
  8
치수문자_일반주서
 62
     0
370
    -2
100
AcDbLine
 10
180.9887908581588
 20
-25.19959749843068
 30
0.0
 11
180.9887908581588
 21
-21.89759749843068
 31
0.0
  0
LINE
  5
231
330
229
100
AcDbEntity
  8
치수문자_일반주서
 62
     0
370
    -2
100
AcDbLine
 10
180.9887908581589
 20
-40.93172249843068
 30
0.0
 11
180.9887908581589
 21
-44.23372249843068
 31
0.0
  0
SOLID
  5
232
330
229
100
AcDbEntity
  8
치수문자_일반주서
 62
     0
100
AcDbTrace
 10
180.4384575248255
 20
-25.19959749843068
 30
0.0
 11
181.5391241914922
 21
-25.19959749843068
 31
0.0
 12
180.9887908581588
 22
-28.50159749843068
 32
0.0
 13
180.9887908581588
 23
-28.50159749843068
 33
0.0
  0
SOLID
  5
233
330
229
100
AcDbEntity
  8
치수문자_일반주서
 62
     0
100
AcDbTrace
 10
181.5391241914922
 20
-40.93172249843068
 30
0.0
 11
180.4384575248255
 21
-40.93172249843068
 31
0.0
 12
180.9887908581589
 22
-37.62972249843068
 32
0.0
 13
180.9887908581589
 23
-37.62972249843068
 33
0.0
  0
MTEXT
  5
234
330
229
100
AcDbEntity
  8
치수문자_일반주서
 62
     0
100
AcDbMText
 10
176.6137908581588
 20
-6.585097498430698
 30
0.0
 40
3.5
 41
0.0
 71
     2
 72
     1
  1
\A1;%%c9.13 [23/64]
  7
SLDTEXTSTYLE0
 11
-3.113641567178803E-15
 21
1.0
 31
0.0
 73
     1
 44
1.0
  0
POINT
  5
235
330
229
100
AcDbEntity
  8
Defpoints
 62
     0
100
AcDbPoint
 10
166.1624211490342
 20
-28.50159749843074
 30
0.0
  0
POINT
  5
236
330
229
100
AcDbEntity
  8
Defpoints
 62
     0
100
AcDbPoint
 10
166.1624211490342
 20
-37.62972249843074
 30
0.0
  0
POINT
  5
237
330
229
100
AcDbEntity
  8
Defpoints
 62
     0
100
AcDbPoint
 10
180.9887908581589
 20
-37.62972249843068
 30
0.0
  0
ENDBLK
  5
22B
330
229
100
AcDbEntity
  8
0
100
AcDbBlockEnd
  0
BLOCK
  5
239
330
238
100
AcDbEntity
  8
0
100
AcDbBlockBegin
  2
*D11
 70
     1
 10
0.0
 20
0.0
 30
0.0
  3
*D11
  1
*D12
  0
LINE
  5
23B
330
238
100
AcDbEntity
  8
치수문자_일반주서
 62
     0
370
    -2
100
AcDbLine
 10
166.1624211490342
 20
-28.43909749843074
 30
0.0
 11
166.1624211490342
 21
-16.10227738072509
 31
0.0
  0
LINE
  5
23C
330
238
100
AcDbEntity
  8
치수문자_일반주서
 62
     0
370
    -2
100
AcDbLine
 10
147.1124211490342
 20
-28.63493190337629
 30
0.0
 11
147.1124211490342
 21
-16.10227738072509
 31
0.0
  0
LINE
  5
23D
330
238
100
AcDbEntity
  8
치수문자_일반주서
 62
     0
370
    -2
100
AcDbLine
 10
147.1124211490342
 20
-16.10227738072509
 30
0.0
 11
115.5709211490342
 21
-16.10227738072509
 31
0.0
  0
LINE
  5
23E
330
238
100
AcDbEntity
  8
치수문자_일반주서
 62
     0
370
    -2
100
AcDbLine
 10
166.1624211490342
 20
-16.10227738072509
 30
0.0
 11
147.1124211490342
 21
-16.10227738072509
 31
0.0
  0
LINE
  5
23F
330
238
100
AcDbEntity
  8
치수문자_일반주서
 62
     0
370
    -2
100
AcDbLine
 10
169.4644211490342
 20
-16.10227738072509
 30
0.0
 11
172.7664211490342
 21
-16.10227738072509
 31
0.0
  0
LINE
  5
240
330
238
100
AcDbEntity
  8
치수문자_일반주서
 62
     0
370
    -2
100
AcDbLine
 10
143.8104211490342
 20
-16.10227738072509
 30
0.0
 11
140.5084211490342
 21
-16.10227738072509
 31
0.0
  0
SOLID
  5
241
330
238
100
AcDbEntity
  8
치수문자_일반주서
 62
     0
100
AcDbTrace
 10
169.4644211490342
 20
-15.55194404739176
 30
0.0
 11
169.4644211490342
 21
-16.65261071405842
 31
0.0
 12
166.1624211490342
 22
-16.10227738072509
 32
0.0
 13
166.1624211490342
 23
-16.10227738072509
 33
0.0
  0
SOLID
  5
242
330
238
100
AcDbEntity
  8
치수문자_일반주서
 62
     0
100
AcDbTrace
 10
143.8104211490342
 20
-16.65261071405842
 30
0.0
 11
143.8104211490342
 21
-15.55194404739176
 31
0.0
 12
147.1124211490342
 22
-16.10227738072509
 32
0.0
 13
147.1124211490342
 23
-16.10227738072509
 33
0.0
  0
MTEXT
  5
243
330
238
100
AcDbEntity
  8
치수문자_일반주서
 62
     0
100
AcDbMText
 10
128.0396711490342
 20
-11.72727738072509
 30
0.0
 40
3.5
 41
0.0
 71
     2
 72
     1
  1
\A1;19.05 [3/4]
  7
SLDTEXTSTYLE0
 73
     1
 44
1.0
  0
POINT
  5
244
330
238
100
AcDbEntity
  8
Defpoints
 62
     0
100
AcDbPoint
 10
166.1624211490342
 20
-28.50159749843074
 30
0.0
  0
POINT
  5
245
330
238
100
AcDbEntity
  8
Defpoints
 62
     0
100
AcDbPoint
 10
147.1124211490342
 20
-28.69743190337629
 30
0.0
  0
POINT
  5
246
330
238
100
AcDbEntity
  8
Defpoints
 62
     0
100
AcDbPoint
 10
147.1124211490342
 20
-16.10227738072509
 30
0.0
  0
ENDBLK
  5
23A
330
238
100
AcDbEntity
  8
0
100
AcDbBlockEnd
  0
BLOCK
  5
248
330
247
100
AcDbEntity
  8
0
100
AcDbBlockBegin
  2
*D12
 70
     1
 10
0.0
 20
0.0
 30
0.0
  3
*D12
  1
*D13
  0
LINE
  5
24A
330
247
100
AcDbEntity
  8
치수문자_일반주서
 62
     0
370
    -2
100
AcDbLine
 10
166.1624211490342
 20
-28.43909749843074
 30
0.0
 11
166.1624211490342
 21
-1.215043142929588
 31
0.0
  0
LINE
  5
24B
330
247
100
AcDbEntity
  8
치수문자_일반주서
 62
     0
370
    -2
100
AcDbLine
 10
77.26242114903417
 20
-29.19315999843074
 30
0.0
 11
77.26242114903417
 21
-1.215043142929588
 31
0.0
  0
LINE
  5
24C
330
247
100
AcDbEntity
  8
치수문자_일반주서
 62
     0
370
    -2
100
AcDbLine
 10
162.8604211490342
 20
-1.215043142929588
 30
0.0
 11
80.56442114903416
 21
-1.215043142929588
 31
0.0
  0
SOLID
  5
24D
330
247
100
AcDbEntity
  8
치수문자_일반주서
 62
     0
100
AcDbTrace
 10
162.8604211490342
 20
-1.765376476262921
 30
0.0
 11
162.8604211490342
 21
-0.6647098095962546
 31
0.0
 12
166.1624211490342
 22
-1.215043142929588
 32
0.0
 13
166.1624211490342
 23
-1.215043142929588
 33
0.0
  0
SOLID
  5
24E
330
247
100
AcDbEntity
  8
치수문자_일반주서
 62
     0
100
AcDbTrace
 10
80.56442114903416
 20
-0.6647098095962546
 30
0.0
 11
80.56442114903416
 21
-1.765376476262921
 31
0.0
 12
77.26242114903417
 22
-1.215043142929588
 32
0.0
 13
77.26242114903417
 23
-1.215043142929588
 33
0.0
  0
MTEXT
  5
24F
330
247
100
AcDbEntity
  8
치수문자_일반주서
 62
     0
100
AcDbMText
 10
123.0069311951658
 20
3.159956857070412
 30
0.0
 40
3.5
 41
0.0
 71
     2
 72
     1
  1
\A1;88.9 [3 1/2]
  7
SLDTEXTSTYLE0
 73
     1
 44
1.0
  0
POINT
  5
250
330
247
100
AcDbEntity
  8
Defpoints
 62
     0
100
AcDbPoint
 10
166.1624211490342
 20
-28.50159749843074
 30
0.0
  0
POINT
  5
251
330
247
100
AcDbEntity
  8
Defpoints
 62
     0
100
AcDbPoint
 10
77.26242114903417
 20
-29.25565999843074
 30
0.0
  0
POINT
  5
252
330
247
100
AcDbEntity
  8
Defpoints
 62
     0
100
AcDbPoint
 10
77.26242114903417
 20
-1.215043142929588
 30
0.0
  0
ENDBLK
  5
249
330
247
100
AcDbEntity
  8
0
100
AcDbBlockEnd
  0
BLOCK
  5
2DA
330
2D9
100
AcDbEntity
  8
0
100
AcDbBlockBegin
  2
*D13
 70
     1
 10
0.0
 20
0.0
 30
0.0
  3
*D13
  1
*D15
  0
LINE
  5
2DC
330
2D9
100
AcDbEntity
  8
치수문자_일반주서
 62
     0
370
    -2
100
AcDbLine
 10
91.96250000000002
 20
16.12899999999993
 30
0.0
 11
108.7775393559568
 21
16.129
 31
0.0
  0
LINE
  5
2DD
330
2D9
100
AcDbEntity
  8
치수문자_일반주서
 62
     0
370
    -2
100
AcDbLine
 10
91.9625
 20
6.603999999999934
 30
0.0
 11
108.7775393559568
 21
6.603999999999999
 31
0.0
  0
LINE
  5
2DE
330
2D9
100
AcDbEntity
  8
치수문자_일반주서
 62
     0
370
    -2
100
AcDbLine
 10
108.7775393559568
 20
16.129
 30
0.0
 11
108.7775393559567
 21
48.983
 31
0.0
  0
LINE
  5
2DF
330
2D9
100
AcDbEntity
  8
치수문자_일반주서
 62
     0
370
    -2
100
AcDbLine
 10
108.7775393559568
 20
16.129
 30
0.0
 11
108.7775393559568
 21
6.603999999999999
 31
0.0
  0
LINE
  5
2E0
330
2D9
100
AcDbEntity
  8
치수문자_일반주서
 62
     0
370
    -2
100
AcDbLine
 10
108.7775393559568
 20
19.431
 30
0.0
 11
108.7775393559568
 21
22.733
 31
0.0
  0
LINE
  5
2E1
330
2D9
100
AcDbEntity
  8
치수문자_일반주서
 62
     0
370
    -2
100
AcDbLine
 10
108.7775393559568
 20
3.302
 30
0.0
 11
108.7775393559569
 21
0.0
 31
0.0
  0
SOLID
  5
2E2
330
2D9
100
AcDbEntity
  8
치수문자_일반주서
 62
     0
100
AcDbTrace
 10
108.2272060226235
 20
19.431
 30
0.0
 11
109.3278726892901
 21
19.431
 31
0.0
 12
108.7775393559568
 22
16.129
 32
0.0
 13
108.7775393559568
 23
16.129
 33
0.0
  0
SOLID
  5
2E3
330
2D9
100
AcDbEntity
  8
치수문자_일반주서
 62
     0
100
AcDbTrace
 10
109.3278726892902
 20
3.302000000000001
 30
0.0
 11
108.2272060226235
 21
3.301999999999998
 31
0.0
 12
108.7775393559568
 22
6.603999999999999
 32
0.0
 13
108.7775393559568
 23
6.603999999999999
 33
0.0
  0
MTEXT
  5
2E4
330
2D9
100
AcDbEntity
  8
치수문자_일반주서
 62
     0
100
AcDbMText
 10
104.4025393559567
 20
35.85799999999998
 30
0.0
 40
3.5
 41
0.0
 71
     2
 72
     1
  1
\A1;%%c9.53 [3/8]
  7
SLDTEXTSTYLE0
 11
-2.983906501879686E-15
 21
1.0
 31
0.0
 73
     1
 44
1.0
  0
POINT
  5
2E5
330
2D9
100
AcDbEntity
  8
Defpoints
 62
     0
100
AcDbPoint
 10
91.90000000000002
 20
16.12899999999993
 30
0.0
  0
POINT
  5
2E6
330
2D9
100
AcDbEntity
  8
Defpoints
 62
     0
100
AcDbPoint
 10
91.9
 20
6.603999999999934
 30
0.0
  0
POINT
  5
2E7
330
2D9
100
AcDbEntity
  8
Defpoints
 62
     0
100
AcDbPoint
 10
108.7775393559568
 20
6.603999999999997
 30
0.0
  0
ENDBLK
  5
2DB
330
2D9
100
AcDbEntity
  8
0
100
AcDbBlockEnd
  0
BLOCK
  5
2E9
330
2E8
100
AcDbEntity
  8
0
100
AcDbBlockBegin
  2
*D14
 70
     1
 10
0.0
 20
0.0
 30
0.0
  3
*D14
  1
*D16
  0
LINE
  5
2EB
330
2E8
100
AcDbEntity
  8
치수문자_일반주서
 62
     0
370
    -2
100
AcDbLine
 10
91.90000000000002
 20
16.19149999999993
 30
0.0
 11
91.90000000000002
 21
30.27765835679359
 31
0.0
  0
LINE
  5
2EC
330
2E8
100
AcDbEntity
  8
치수문자_일반주서
 62
     0
370
    -2
100
AcDbLine
 10
72.85
 20
15.82605620290988
 30
0.0
 11
72.85
 21
30.27765835679359
 31
0.0
  0
LINE
  5
2ED
330
2E8
100
AcDbEntity
  8
치수문자_일반주서
 62
     0
370
    -2
100
AcDbLine
 10
72.85
 20
30.27765835679359
 30
0.0
 11
41.3085
 21
30.27765835679359
 31
0.0
  0
LINE
  5
2EE
330
2E8
100
AcDbEntity
  8
치수문자_일반주서
 62
     0
370
    -2
100
AcDbLine
 10
91.90000000000002
 20
30.27765835679359
 30
0.0
 11
72.85
 21
30.27765835679359
 31
0.0
  0
LINE
  5
2EF
330
2E8
100
AcDbEntity
  8
치수문자_일반주서
 62
     0
370
    -2
100
AcDbLine
 10
95.20200000000003
 20
30.27765835679359
 30
0.0
 11
98.50400000000002
 21
30.27765835679359
 31
0.0
  0
LINE
  5
2F0
330
2E8
100
AcDbEntity
  8
치수문자_일반주서
 62
     0
370
    -2
100
AcDbLine
 10
69.548
 20
30.27765835679359
 30
0.0
 11
66.24600000000001
 21
30.27765835679359
 31
0.0
  0
SOLID
  5
2F1
330
2E8
100
AcDbEntity
  8
치수문자_일반주서
 62
     0
100
AcDbTrace
 10
95.20200000000003
 20
30.82799169012693
 30
0.0
 11
95.20200000000003
 21
29.72732502346026
 31
0.0
 12
91.90000000000002
 22
30.27765835679359
 32
0.0
 13
91.90000000000002
 23
30.27765835679359
 33
0.0
  0
SOLID
  5
2F2
330
2E8
100
AcDbEntity
  8
치수문자_일반주서
 62
     0
100
AcDbTrace
 10
69.548
 20
29.72732502346026
 30
0.0
 11
69.548
 21
30.82799169012693
 31
0.0
 12
72.85
 22
30.27765835679359
 32
0.0
 13
72.85
 23
30.27765835679359
 33
0.0
  0
MTEXT
  5
2F3
330
2E8
100
AcDbEntity
  8
치수문자_일반주서
 62
     0
100
AcDbMText
 10
53.77725
 20
34.65265835679359
 30
0.0
 40
3.5
 41
0.0
 71
     2
 72
     1
  1
\A1;19.05 [3/4]
  7
SLDTEXTSTYLE0
 73
     1
 44
1.0
  0
POINT
  5
2F4
330
2E8
100
AcDbEntity
  8
Defpoints
 62
     0
100
AcDbPoint
 10
91.90000000000002
 20
16.12899999999993
 30
0.0
  0
POINT
  5
2F5
330
2E8
100
AcDbEntity
  8
Defpoints
 62
     0
100
AcDbPoint
 10
72.85
 20
15.76355620290988
 30
0.0
  0
POINT
  5
2F6
330
2E8
100
AcDbEntity
  8
Defpoints
 62
     0
100
AcDbPoint
 10
72.85
 20
30.27765835679359
 30
0.0
  0
ENDBLK
  5
2EA
330
2E8
100
AcDbEntity
  8
0
100
AcDbBlockEnd
  0
BLOCK
  5
2F8
330
2F7
100
AcDbEntity
  8
0
100
AcDbBlockBegin
  2
*D15
 70
     1
 10
0.0
 20
0.0
 30
0.0
  3
*D15
  1
*D17
  0
LINE
  5
2FA
330
2F7
100
AcDbEntity
  8
치수문자_일반주서
 62
     0
370
    -2
100
AcDbLine
 10
91.90000000000002
 20
16.19149999999993
 30
0.0
 11
91.9
 21
49.04993837155764
 31
0.0
  0
LINE
  5
2FB
330
2F7
100
AcDbEntity
  8
치수문자_일반주서
 62
     0
370
    -2
100
AcDbLine
 10
3.000000000000007
 20
15.23899999999993
 30
0.0
 11
2.999999999999993
 21
49.04993837155764
 31
0.0
  0
LINE
  5
2FC
330
2F7
100
AcDbEntity
  8
치수문자_일반주서
 62
     0
370
    -2
100
AcDbLine
 10
88.59800000000001
 20
49.04993837155764
 30
0.0
 11
6.301999999999992
 21
49.04993837155764
 31
0.0
  0
SOLID
  5
2FD
330
2F7
100
AcDbEntity
  8
치수문자_일반주서
 62
     0
100
AcDbTrace
 10
88.59800000000001
 20
48.49960503822431
 30
0.0
 11
88.59800000000001
 21
49.60027170489098
 31
0.0
 12
91.9
 22
49.04993837155764
 32
0.0
 13
91.9
 23
49.04993837155764
 33
0.0
  0
SOLID
  5
2FE
330
2F7
100
AcDbEntity
  8
치수문자_일반주서
 62
     0
100
AcDbTrace
 10
6.301999999999992
 20
49.60027170489098
 30
0.0
 11
6.301999999999992
 21
48.49960503822431
 31
0.0
 12
2.999999999999993
 22
49.04993837155764
 32
0.0
 13
2.999999999999993
 23
49.04993837155764
 33
0.0
  0
MTEXT
  5
2FF
330
2F7
100
AcDbEntity
  8
치수문자_일반주서
 62
     0
100
AcDbMText
 10
51.78163248678271
 20
53.42493837155764
 30
0.0
 40
3.5
 41
0.0
 71
     2
 72
     1
  1
\A1;88.9 [3 1/2]
  7
SLDTEXTSTYLE0
 73
     1
 44
1.0
  0
POINT
  5
300
330
2F7
100
AcDbEntity
  8
Defpoints
 62
     0
100
AcDbPoint
 10
91.90000000000002
 20
16.12899999999993
 30
0.0
  0
POINT
  5
301
330
2F7
100
AcDbEntity
  8
Defpoints
 62
     0
100
AcDbPoint
 10
3.000000000000007
 20
15.17649999999993
 30
0.0
  0
POINT
  5
302
330
2F7
100
AcDbEntity
  8
Defpoints
 62
     0
100
AcDbPoint
 10
3.000000000000007
 20
49.04993837155764
 30
0.0
  0
ENDBLK
  5
2F9
330
2F7
100
AcDbEntity
  8
0
100
AcDbBlockEnd
  0
BLOCK
  5
329
330
328
100
AcDbEntity
  8
0
100
AcDbBlockBegin
  2
*D16
 70
     1
 10
0.0
 20
0.0
 30
0.0
  3
*D16
  1
*D18
  0
LINE
  5
32B
330
328
100
AcDbEntity
  8
치수문자_일반주서
 62
     0
370
    -2
100
AcDbLine
 10
173.7069044450711
 20
-37.24067168850335
 30
0.0
 11
190.5219438010278
 21
-37.24067168850328
 31
0.0
  0
LINE
  5
32C
330
328
100
AcDbEntity
  8
치수문자_일반주서
 62
     0
370
    -2
100
AcDbLine
 10
173.706904445071
 20
-46.76567168850335
 30
0.0
 11
190.5219438010279
 21
-46.76567168850328
 31
0.0
  0
LINE
  5
32D
330
328
100
AcDbEntity
  8
치수문자_일반주서
 62
     0
370
    -2
100
AcDbLine
 10
190.5219438010278
 20
-37.24067168850328
 30
0.0
 11
190.5219438010278
 21
-4.386671688503284
 31
0.0
  0
LINE
  5
32E
330
328
100
AcDbEntity
  8
치수문자_일반주서
 62
     0
370
    -2
100
AcDbLine
 10
190.5219438010278
 20
-37.24067168850328
 30
0.0
 11
190.5219438010279
 21
-46.76567168850328
 31
0.0
  0
LINE
  5
32F
330
328
100
AcDbEntity
  8
치수문자_일반주서
 62
     0
370
    -2
100
AcDbLine
 10
190.5219438010278
 20
-33.93867168850328
 30
0.0
 11
190.5219438010278
 21
-30.63667168850328
 31
0.0
  0
LINE
  5
330
330
328
100
AcDbEntity
  8
치수문자_일반주서
 62
     0
370
    -2
100
AcDbLine
 10
190.5219438010279
 20
-50.06767168850328
 30
0.0
 11
190.5219438010279
 21
-53.36967168850328
 31
0.0
  0
SOLID
  5
331
330
328
100
AcDbEntity
  8
치수문자_일반주서
 62
     0
100
AcDbTrace
 10
189.9716104676945
 20
-33.93867168850328
 30
0.0
 11
191.0722771343612
 21
-33.93867168850328
 31
0.0
 12
190.5219438010278
 22
-37.24067168850328
 32
0.0
 13
190.5219438010278
 23
-37.24067168850328
 33
0.0
  0
SOLID
  5
332
330
328
100
AcDbEntity
  8
치수문자_일반주서
 62
     0
100
AcDbTrace
 10
191.0722771343612
 20
-50.06767168850328
 30
0.0
 11
189.9716104676945
 21
-50.06767168850328
 31
0.0
 12
190.5219438010279
 22
-46.76567168850328
 32
0.0
 13
190.5219438010279
 23
-46.76567168850328
 33
0.0
  0
MTEXT
  5
333
330
328
100
AcDbEntity
  8
치수문자_일반주서
 62
     0
100
AcDbMText
 10
186.1469438010278
 20
-17.5116716885033
 30
0.0
 40
3.5
 41
0.0
 71
     2
 72
     1
  1
\A1;%%c9.53 [3/8]
  7
SLDTEXTSTYLE0
 11
-2.983906501879686E-15
 21
1.0
 31
0.0
 73
     1
 44
1.0
  0
POINT
  5
334
330
328
100
AcDbEntity
  8
Defpoints
 62
     0
100
AcDbPoint
 10
173.6444044450711
 20
-37.24067168850335
 30
0.0
  0
POINT
  5
335
330
328
100
AcDbEntity
  8
Defpoints
 62
     0
100
AcDbPoint
 10
173.644404445071
 20
-46.76567168850335
 30
0.0
  0
POINT
  5
336
330
328
100
AcDbEntity
  8
Defpoints
 62
     0
100
AcDbPoint
 10
190.5219438010279
 20
-46.76567168850328
 30
0.0
  0
ENDBLK
  5
32A
330
328
100
AcDbEntity
  8
0
100
AcDbBlockEnd
  0
BLOCK
  5
338
330
337
100
AcDbEntity
  8
0
100
AcDbBlockBegin
  2
*D17
 70
     1
 10
0.0
 20
0.0
 30
0.0
  3
*D17
  1
*D19
  0
LINE
  5
33A
330
337
100
AcDbEntity
  8
치수문자_일반주서
 62
     0
370
    -2
100
AcDbLine
 10
173.6444044450711
 20
-37.17817168850335
 30
0.0
 11
173.6444044450711
 21
-23.09201333170969
 31
0.0
  0
LINE
  5
33B
330
337
100
AcDbEntity
  8
치수문자_일반주서
 62
     0
370
    -2
100
AcDbLine
 10
154.594404445071
 20
-37.54361548559341
 30
0.0
 11
154.594404445071
 21
-23.09201333170969
 31
0.0
  0
LINE
  5
33C
330
337
100
AcDbEntity
  8
치수문자_일반주서
 62
     0
370
    -2
100
AcDbLine
 10
154.594404445071
 20
-23.09201333170969
 30
0.0
 11
123.052904445071
 21
-23.09201333170969
 31
0.0
  0
LINE
  5
33D
330
337
100
AcDbEntity
  8
치수문자_일반주서
 62
     0
370
    -2
100
AcDbLine
 10
173.6444044450711
 20
-23.09201333170969
 30
0.0
 11
154.594404445071
 21
-23.09201333170969
 31
0.0
  0
LINE
  5
33E
330
337
100
AcDbEntity
  8
치수문자_일반주서
 62
     0
370
    -2
100
AcDbLine
 10
176.9464044450711
 20
-23.09201333170969
 30
0.0
 11
180.2484044450711
 21
-23.09201333170969
 31
0.0
  0
LINE
  5
33F
330
337
100
AcDbEntity
  8
치수문자_일반주서
 62
     0
370
    -2
100
AcDbLine
 10
151.292404445071
 20
-23.09201333170969
 30
0.0
 11
147.9904044450711
 21
-23.09201333170969
 31
0.0
  0
SOLID
  5
340
330
337
100
AcDbEntity
  8
치수문자_일반주서
 62
     0
100
AcDbTrace
 10
176.9464044450711
 20
-22.54167999837636
 30
0.0
 11
176.9464044450711
 21
-23.64234666504302
 31
0.0
 12
173.6444044450711
 22
-23.09201333170969
 32
0.0
 13
173.6444044450711
 23
-23.09201333170969
 33
0.0
  0
SOLID
  5
341
330
337
100
AcDbEntity
  8
치수문자_일반주서
 62
     0
100
AcDbTrace
 10
151.292404445071
 20
-23.64234666504302
 30
0.0
 11
151.292404445071
 21
-22.54167999837636
 31
0.0
 12
154.594404445071
 22
-23.09201333170969
 32
0.0
 13
154.594404445071
 23
-23.09201333170969
 33
0.0
  0
MTEXT
  5
342
330
337
100
AcDbEntity
  8
치수문자_일반주서
 62
     0
100
AcDbMText
 10
135.521654445071
 20
-18.71701333170969
 30
0.0
 40
3.5
 41
0.0
 71
     2
 72
     1
  1
\A1;19.05 [3/4]
  7
SLDTEXTSTYLE0
 73
     1
 44
1.0
  0
POINT
  5
343
330
337
100
AcDbEntity
  8
Defpoints
 62
     0
100
AcDbPoint
 10
173.6444044450711
 20
-37.24067168850335
 30
0.0
  0
POINT
  5
344
330
337
100
AcDbEntity
  8
Defpoints
 62
     0
100
AcDbPoint
 10
154.594404445071
 20
-37.60611548559341
 30
0.0
  0
POINT
  5
345
330
337
100
AcDbEntity
  8
Defpoints
 62
     0
100
AcDbPoint
 10
154.594404445071
 20
-23.09201333170969
 30
0.0
  0
ENDBLK
  5
339
330
337
100
AcDbEntity
  8
0
100
AcDbBlockEnd
  0
BLOCK
  5
347
330
346
100
AcDbEntity
  8
0
100
AcDbBlockBegin
  2
*D18
 70
     1
 10
0.0
 20
0.0
 30
0.0
  3
*D18
  1
*D20
  0
LINE
  5
349
330
346
100
AcDbEntity
  8
치수문자_일반주서
 62
     0
370
    -2
100
AcDbLine
 10
173.6444044450711
 20
-37.17817168850335
 30
0.0
 11
173.6444044450711
 21
-4.319733316945637
 31
0.0
  0
LINE
  5
34A
330
346
100
AcDbEntity
  8
치수문자_일반주서
 62
     0
370
    -2
100
AcDbLine
 10
84.74440444507104
 20
-38.13067168850336
 30
0.0
 11
84.74440444507104
 21
-4.319733316945637
 31
0.0
  0
LINE
  5
34B
330
346
100
AcDbEntity
  8
치수문자_일반주서
 62
     0
370
    -2
100
AcDbLine
 10
170.3424044450711
 20
-4.319733316945637
 30
0.0
 11
88.04640444507103
 21
-4.319733316945637
 31
0.0
  0
SOLID
  5
34C
330
346
100
AcDbEntity
  8
치수문자_일반주서
 62
     0
100
AcDbTrace
 10
170.3424044450711
 20
-4.870066650278971
 30
0.0
 11
170.3424044450711
 21
-3.769399983612304
 31
0.0
 12
173.6444044450711
 22
-4.319733316945637
 32
0.0
 13
173.6444044450711
 23
-4.319733316945637
 33
0.0
  0
SOLID
  5
34D
330
346
100
AcDbEntity
  8
치수문자_일반주서
 62
     0
100
AcDbTrace
 10
88.04640444507103
 20
-3.769399983612304
 30
0.0
 11
88.04640444507103
 21
-4.870066650278971
 31
0.0
 12
84.74440444507104
 22
-4.319733316945637
 32
0.0
 13
84.74440444507104
 23
-4.319733316945637
 33
0.0
  0
MTEXT
  5
34E
330
346
100
AcDbEntity
  8
치수문자_일반주서
 62
     0
100
AcDbMText
 10
133.5260369318538
 20
0.0552666830543629
 30
0.0
 40
3.5
 41
0.0
 71
     2
 72
     1
  1
\A1;88.9 [3 1/2]
  7
SLDTEXTSTYLE0
 73
     1
 44
1.0
  0
POINT
  5
34F
330
346
100
AcDbEntity
  8
Defpoints
 62
     0
100
AcDbPoint
 10
173.6444044450711
 20
-37.24067168850335
 30
0.0
  0
POINT
  5
350
330
346
100
AcDbEntity
  8
Defpoints
 62
     0
100
AcDbPoint
 10
84.74440444507104
 20
-38.19317168850336
 30
0.0
  0
POINT
  5
351
330
346
100
AcDbEntity
  8
Defpoints
 62
     0
100
AcDbPoint
 10
84.74440444507104
 20
-4.319733316945637
 30
0.0
  0
ENDBLK
  5
348
330
346
100
AcDbEntity
  8
0
100
AcDbBlockEnd
  0
ENDSEC
  0
SECTION
  2
ENTITIES
  0
LINE
  5
96
330
1F
100
AcDbEntity
  8
0
  6
Continuous
 62
     1
370
    15
100
AcDbLine
 10
35.10396595471336
 20
4.762499999999998
 30
0.0
 11
32.19944729698128
 21
4.762499999999998
 31
0.0
  0
LINE
  5
97
330
1F
100
AcDbEntity
  8
0
  6
Continuous
 62
     1
370
    15
100
AcDbLine
 10
32.19944729698121
 20
-4.762500000000001
 30
0.0
 11
35.10396595471337
 21
-4.762500000000001
 31
0.0
  0
LINE
  5
98
330
1F
100
AcDbEntity
  8
외형선
  6
Continuous
370
    15
100
AcDbLine
 10
-24.89995246795076
 20
-4.762499999999999
 30
0.0
 11
24.89995246795073
 21
-4.762499999999999
 31
0.0
  0
LINE
  5
99
330
1F
100
AcDbEntity
  8
외형선
  6
Continuous
370
    15
100
AcDbLine
 10
24.89995246795073
 20
4.762499999999996
 30
0.0
 11
4.838700000000017
 21
4.762499999999996
 31
0.0
  0
SPLINE
  5
9C
330
1F
100
AcDbEntity
  8
0
  6
Continuous
 62
     1
370
    15
100
AcDbSpline
210
0.0
220
0.0
230
1.0
 70
     8
 71
     3
 72
    16
 73
    12
 74
     0
 42
0.000000001
 43
0.00000001
 40
0.0
 40
0.0
 40
0.0
 40
0.0
 40
0.1206676858871584
 40
0.2413332928617631
 40
0.361997306215968
 40
0.4826602118388768
 40
0.6033224960347058
 40
0.723984645340597
 40
0.8377414380744215
 40
0.9515069039481865
 40
1.0
 40
1.0
 40
1.0
 40
1.0
 10
25.40000000000001
 20
-1.829563608746992
 30
0.0
 10
25.99265445019721
 20
-2.13727582759521
 30
0.0
 10
27.17795314009686
 20
-2.752694963898897
 30
0.0
 10
28.95588043668768
 20
-3.525754435823472
 30
0.0
 10
30.73377872468128
 20
-4.141658428062069
 30
0.0
 10
32.51166244242039
 20
-4.56444969717494
 30
0.0
 10
34.28951594902319
 20
-4.775689645649238
 30
0.0
 10
36.03352110535144
 20
-4.768690150813338
 30
0.0
 10
37.7434023578279
 20
-4.546016329975505
 30
0.0
 10
39.09893785699323
 20
-4.246739726445542
 30
0.0
 10
39.89582635091116
 20
-3.967796231444397
 30
0.0
 10
40.13398691279186
 20
-3.884430315121762
 30
0.0
  0
SPLINE
  5
9D
330
1F
100
AcDbEntity
  8
외형선
  6
Continuous
370
    15
100
AcDbSpline
210
0.0
220
0.0
230
1.0
 70
    24
 71
     3
 72
    22
 73
    18
 74
     0
 42
0.000000001
 43
0.00000001
 40
0.0
 40
0.0
 40
0.0
 40
0.0
 40
0.1250000000000001
 40
0.1250000000000001
 40
0.2500000000000001
 40
0.2500000000000001
 40
0.3750000000000002
 40
0.3750000000000002
 40
0.5000000000000002
 40
0.5000000000000002
 40
0.6250000000000002
 40
0.6250000000000002
 40
0.7500000000000001
 40
0.7500000000000001
 40
0.875
 40
0.875
 40
1.0
 40
1.0
 40
1.0
 40
1.0
 10
25.40000000000003
 20
3.496578361968724
 30
0.0
 10
25.40000000000004
 20
3.382323526058337
 30
0.0
 10
25.40000000000001
 20
3.255776467105519
 30
0.0
 10
25.40000000000003
 20
3.00106471028531
 30
0.0
 10
25.40000000000003
 20
2.84709573593573
 30
0.0
 10
25.40000000000003
 20
2.470308294040553
 30
0.0
 10
25.40000000000003
 20
2.246970343188855
 30
0.0
 10
25.40000000000006
 20
1.725379073943739
 30
0.0
 10
25.40000000000001
 20
1.426423834723856
 30
0.0
 10
25.4
 20
0.7769829756017228
 30
0.0
 10
25.4
 20
0.4265679620237783
 30
0.0
 10
25.4
 20
-0.2589240230999783
 30
0.0
 10
25.40000000000001
 20
-0.5922622575308272
 30
0.0
 10
25.4
 20
-1.158754944219632
 30
0.0
 10
25.39999999999998
 20
-1.39024313166005
 30
0.0
 10
25.40000000000003
 20
-1.710696991226686
 30
0.0
 10
25.40000000000003
 20
-1.800191213196845
 30
0.0
 10
25.40000000000003
 20
-1.829563608747002
 30
0.0
  0
SPLINE
  5
9E
330
1F
100
AcDbEntity
  8
0
  6
Continuous
 62
     1
370
    15
100
AcDbSpline
210
0.0
220
0.0
230
1.0
 70
     8
 71
     3
 72
    38
 73
    34
 74
     0
 42
0.000000001
 43
0.00000001
 40
0.0
 40
0.0
 40
0.0
 40
0.0
 40
0.0625
 40
0.0625
 40
0.125
 40
0.125
 40
0.1875
 40
0.1875
 40
0.25
 40
0.25
 40
0.3125
 40
0.3125
 40
0.375
 40
0.375
 40
0.4375
 40
0.4375
 40
0.5
 40
0.5
 40
0.5625
 40
0.5625
 40
0.625
 40
0.625
 40
0.6875
 40
0.6875
 40
0.75
 40
0.75
 40
0.8125
 40
0.8125
 40
0.875
 40
0.875
 40
0.9375
 40
0.9375
 40
1.0
 40
1.0
 40
1.0
 40
1.0
 10
44.45
 20
-4.762499999999993
 30
0.0
 10
44.05559969094134
 20
-4.725393804008748
 30
0.0
 10
43.6563834071752
 20
-4.689227752394318
 30
0.0
 10
42.86070628052157
 20
-4.584591253547263
 30
0.0
 10
42.46710456536307
 20
-4.516376215520205
 30
0.0
 10
41.67218162640869
 20
-4.348676029114149
 30
0.0
 10
41.27265843352973
 20
-4.249196020902355
 30
0.0
 10
40.48190741762373
 20
-4.022226117344544
 30
0.0
 10
40.08489938615968
 20
-3.894230441788024
 30
0.0
 10
39.28876469800085
 20
-3.611812760813498
 30
0.0
 10
38.89461978981074
 20
-3.458036810239431
 30
0.0
 10
38.1007467273931
 20
-3.126888925329962
 30
0.0
 10
37.70106702579048
 20
-2.949443467437265
 30
0.0
 10
36.90865613540731
 20
-2.576369218606282
 30
0.0
 10
36.51331738399229
 20
-2.380386531050446
 30
0.0
 10
35.71702232974086
 20
-1.972313878670681
 30
0.0
 10
35.32179170936612
 20
-1.76120880513694
 30
0.0
 10
34.5292629092725
 20
-1.327914141629052
 30
0.0
 10
34.12957729680988
 20
-1.105261617077508
 30
0.0
 10
33.33579910647582
 20
-0.6548607466883075
 30
0.0
 10
32.94158859594928
 20
-0.4271150064261039
 30
0.0
 10
32.14543057061215
 20
0.0312395494521099
 30
0.0
 10
31.74857306490442
 20
0.2608677594182211
 30
0.0
 10
30.95768124756996
 20
0.7161911770130169
 30
0.0
 10
30.55814032957085
 20
0.942933552931565
 30
0.0
 10
29.76328910742682
 20
1.387498566183371
 30
0.0
 10
29.3696644000005
 20
1.605034729521962
 30
0.0
 10
28.57394062803304
 20
2.029007637780642
 30
0.0
 10
28.17491707847638
 20
2.234843546542493
 30
0.0
 10
27.38595294100584
 20
2.628110237621123
 30
0.0
 10
26.98670714021911
 20
2.81707856494417
 30
0.0
 10
26.19107848602457
 20
3.173654108828543
 30
0.0
 10
25.79749641719708
 20
3.340921161887208
 30
0.0
 10
25.40000000000003
 20
3.496578361968723
 30
0.0
  0
LINE
  5
9F
330
1F
100
AcDbEntity
  8
0
  6
Continuous
 62
     1
370
    15
100
AcDbLine
 10
44.45000000000001
 20
-4.313307425830492
 30
0.0
 11
44.45000000000001
 21
0.4080574258305459
 31
0.0
  0
SPLINE
  5
A0
330
1F
100
AcDbEntity
  8
0
  6
Continuous
 62
     1
370
    15
100
AcDbSpline
210
0.0
220
0.0
230
1.0
 70
     8
 71
     3
 72
    38
 73
    34
 74
     0
 42
0.000000001
 43
0.00000001
 40
0.0
 40
0.0
 40
0.0
 40
0.0
 40
0.0625
 40
0.0625
 40
0.125
 40
0.125
 40
0.1875
 40
0.1875
 40
0.25
 40
0.25
 40
0.3125
 40
0.3125
 40
0.375
 40
0.375
 40
0.4375
 40
0.4375
 40
0.5
 40
0.5
 40
0.5625
 40
0.5625
 40
0.625
 40
0.625
 40
0.6875
 40
0.6875
 40
0.75
 40
0.75
 40
0.8125
 40
0.8125
 40
0.875
 40
0.875
 40
0.9375
 40
0.9375
 40
1.0
 40
1.0
 40
1.0
 40
1.0
 10
44.45000000000001
 20
-4.313307425830491
 30
0.0
 10
44.05559969094138
 20
-4.216361773873693
 30
0.0
 10
43.65638340717518
 20
-4.104029610645774
 30
0.0
 10
42.86070628052155
 20
-3.851834755209069
 30
0.0
 10
42.46710456536309
 20
-3.712388108279841
 30
0.0
 10
41.67218162640871
 20
-3.407830214167407
 30
0.0
 10
41.27265843352973
 20
-3.242852911264569
 30
0.0
 10
40.48190741762376
 20
-2.892753352516352
 30
0.0
 10
40.08489938615968
 20
-2.706814706453903
 30
0.0
 10
39.28876469800086
 20
-2.317067743837748
 30
0.0
 10
38.8946197898107
 20
-2.114113314771956
 30
0.0
 10
38.10074672739307
 20
-1.69402450660933
 30
0.0
 10
37.70106702579045
 20
-1.476853878527575
 30
0.0
 10
36.90865613540734
 20
-1.035037431225906
 30
0.0
 10
36.51331738399227
 20
-0.8099338033759332
 30
0.0
 10
35.71702232974084
 20
-0.3545982723516803
 30
0.0
 10
35.3217917093661
 20
-0.1254643452357365
 30
0.0
 10
34.52926290927248
 20
0.3324806614405837
 30
0.0
 10
34.12957729680987
 20
0.5617467585305449
 30
0.0
 10
33.33579910647583
 20
1.013727730741283
 30
0.0
 10
32.94158859594923
 20
1.23648137364745
 30
0.0
 10
32.14543057061208
 20
1.673301997540293
 30
0.0
 10
31.74857306490441
 20
1.886412971680248
 30
0.0
 10
30.95768124756994
 20
2.297624469887587
 30
0.0
 10
30.5581403295708
 20
2.49665142220415
 30
0.0
 10
29.76328910742674
 20
2.875274766937793
 30
0.0
 10
29.36966440000045
 20
3.054673992682909
 30
0.0
 10
28.57394062803303
 20
3.392309350949127
 30
0.0
 10
28.17491707847635
 20
3.550019647498047
 30
0.0
 10
27.38595294100583
 20
3.838656581493415
 30
0.0
 10
26.98670714021908
 20
3.970709871036742
 30
0.0
 10
26.19107848602453
 20
4.205955528169365
 30
0.0
 10
25.79749641719703
 20
4.308982243130431
 30
0.0
 10
25.40000000000001
 20
4.397056202909951
 30
0.0
  0
SPLINE
  5
A1
330
1F
100
AcDbEntity
  8
0
  6
Continuous
 62
     1
370
    15
100
AcDbSpline
210
0.0
220
0.0
230
1.0
 70
     8
 71
     3
 72
    17
 73
    13
 74
     0
 42
0.000000001
 43
0.00000001
 40
0.0
 40
0.0
 40
0.0
 40
0.0
 40
0.1029829594749103
 40
0.2059611081194813
 40
0.3089348514500364
 40
0.4119045966209653
 40
0.5148707522754833
 40
0.6178337283952197
 40
0.714907297335978
 40
0.8119706730482521
 40
0.9090295316564205
 40
0.9999999999999999
 40
0.9999999999999999
 40
0.9999999999999999
 40
0.9999999999999999
 10
44.45
 20
0.4080574258305454
 30
0.0
 10
43.85716557286443
 20
0.7471815366260111
 30
0.0
 10
42.67152441274646
 20
1.425413916095398
 30
0.0
 10
40.89312299698831
 20
2.371731147343648
 30
0.0
 10
39.11481263903697
 20
3.209606900069544
 30
0.0
 10
37.33658136191651
 20
3.898521419324353
 30
0.0
 10
35.55843963073605
 20
4.407155984251277
 30
0.0
 10
33.8141934511555
 20
4.705677688941497
 30
0.0
 10
32.10413451996836
 20
4.795677297314914
 30
0.0
 10
30.42805524659919
 20
4.682912557698169
 30
0.0
 10
28.78713155565072
 20
4.397024280331906
 30
0.0
 10
27.70487248268199
 20
4.063903175702813
 30
0.0
 10
27.18126472248235
 20
3.902735854654987
 30
0.0
  0
LINE
  5
A2
330
1F
100
AcDbEntity
  8
0
  6
Continuous
 62
     1
370
    15
100
AcDbLine
 10
44.45000000000002
 20
-4.762499999999993
 30
0.0
 11
44.45000000000001
 21
-4.313307425830492
 31
0.0
  0
LINE
  5
A3
330
1F
100
AcDbEntity
  8
외형선
  6
Continuous
370
    15
100
AcDbLine
 10
25.40000000000003
 20
3.496578361968719
 30
0.0
 11
25.4
 21
4.397056202909951
 31
0.0
  0
SPLINE
  5
A4
330
1F
100
AcDbEntity
  8
0
  6
Continuous
 62
     1
370
    15
100
AcDbSpline
210
0.0
220
0.0
230
1.0
 70
     8
 71
     3
 72
    13
 73
     9
 74
     0
 42
0.000000001
 43
0.00000001
 40
0.0
 40
0.0
 40
0.0
 40
0.0
 40
0.1030813506976181
 40
0.2824168502058581
 40
0.4617660227603064
 40
0.6411393383775777
 40
0.8205472157018084
 40
0.9999999999999999
 40
0.9999999999999999
 40
0.9999999999999999
 40
0.9999999999999999
 10
35.10396595471337
 20
4.735063054828312
 30
0.0
 10
35.42511365686479
 20
4.739537091833632
 30
0.0
 10
36.30497720035391
 20
4.751794822550154
 30
0.0
 10
37.74339814719931
 20
4.545683428611794
 30
0.0
 10
39.41957822959186
 20
4.155719670941109
 30
0.0
 10
41.09600912187865
 20
3.583203556005639
 30
0.0
 10
42.77282581747182
 20
2.871714504817287
 30
0.0
 10
43.89089530163418
 20
2.303331926359172
 30
0.0
 10
44.45000000000002
 20
2.019105074104711
 30
0.0
  0
LINE
  5
A5
330
1F
100
AcDbEntity
  8
0
  6
Continuous
 62
     1
370
    15
100
AcDbLine
 10
44.45000000000001
 20
0.4080574258305457
 30
0.0
 11
44.45000000000001
 21
2.019105074104711
 31
0.0
  0
SPLINE
  5
A6
330
1F
100
AcDbEntity
  8
0
  6
Continuous
 62
     1
370
    15
100
AcDbSpline
210
0.0
220
0.0
230
1.0
 70
     8
 71
     3
 72
    12
 73
     8
 74
     0
 42
0.000000001
 43
0.00000001
 40
0.0
 40
0.0
 40
0.0
 40
0.0
 40
0.0140261167545318
 40
0.2605223569972108
 40
0.5070071258772815
 40
0.7534948625894287
 40
1.0
 40
1.0
 40
1.0
 40
1.0
 10
32.19944729698123
 20
-4.757237865744451
 30
0.0
 10
32.16765660262625
 20
-4.758975590429911
 30
0.0
 10
31.57717337987255
 20
-4.791252245386587
 30
0.0
 10
30.42806032649111
 20
-4.671947967223768
 30
0.0
 10
28.75207868903036
 20
-4.384497548794077
 30
0.0
 10
27.07608065345686
 20
-3.904436412668101
 30
0.0
 10
25.95870669744591
 20
-3.457132565219563
 30
0.0
 10
25.40000000000001
 20
-3.233472747467041
 30
0.0
  0
LINE
  5
A7
330
1F
100
AcDbEntity
  8
외형선
  6
Continuous
370
    15
100
AcDbLine
 10
25.40000000000003
 20
-3.233472747467037
 30
0.0
 11
25.40000000000001
 21
-1.829563608746992
 31
0.0
  0
SPLINE
  5
A8
330
1F
100
AcDbEntity
  8
0
  6
Continuous
 62
     1
370
    15
100
AcDbSpline
210
0.0
220
0.0
230
1.0
 70
     8
 71
     3
 72
    10
 73
     6
 74
     0
 42
0.000000001
 43
0.00000001
 40
0.0
 40
0.0
 40
0.0
 40
0.0
 40
0.4120671805182614
 40
0.8241151113926498
 40
1.0
 40
1.0
 40
1.0
 40
1.0
 10
44.45
 20
4.762500000000006
 30
0.0
 10
43.85716571810228
 20
4.692377265367184
 30
0.0
 10
42.67152484845314
 20
4.587161569417786
 30
0.0
 10
41.23285624824874
 20
4.268821559682613
 30
0.0
 10
40.38702439623064
 20
3.972944381390749
 30
0.0
 10
40.13398691279185
 20
3.884430315121758
 30
0.0
  0
LINE
  5
A9
330
1F
100
AcDbEntity
  8
0
  6
Continuous
 62
     1
370
    15
100
AcDbLine
 10
44.45000000000001
 20
2.014841709615481
 30
0.0
 11
44.45000000000002
 21
4.762500000000006
 31
0.0
  0
SPLINE
  5
AA
330
1F
100
AcDbEntity
  8
0
  6
Continuous
 62
     1
370
    15
100
AcDbSpline
210
0.0
220
0.0
230
1.0
 70
     8
 71
     3
 72
     9
 73
     5
 74
     0
 42
0.000000001
 43
0.00000001
 40
0.0
 40
0.0
 40
0.0
 40
0.0
 40
0.9981458767803765
 40
1.0
 40
1.0
 40
1.0
 40
1.0
 10
25.40000000000004
 20
-4.39705620290994
 30
0.0
 10
25.99265503561007
 20
-4.262759389885187
 30
0.0
 10
26.5864109678809
 20
-4.128213111481534
 30
0.0
 10
27.18016383151112
 20
-3.903153143567312
 30
0.0
 10
27.1812647224823
 20
-3.902735854654994
 30
0.0
  0
SPLINE
  5
AB
330
1F
100
AcDbEntity
  8
외형선
  6
Continuous
370
    15
100
AcDbSpline
210
0.0
220
0.0
230
1.0
 70
    24
 71
     3
 72
    11
 73
     7
 74
     0
 42
0.000000001
 43
0.00000001
 40
0.0
 40
0.0
 40
0.0
 40
0.0
 40
0.0697742772926913
 40
0.4784988925097366
 40
0.8990765492570513
 40
1.0
 40
1.0
 40
1.0
 40
1.0
 10
25.40000000000001
 20
-3.29485781610047
 30
0.0
 10
25.40000000000001
 20
-3.317686189398007
 30
0.0
 10
25.40000000000006
 20
-3.474238887104193
 30
0.0
 10
25.40000000000008
 20
-3.806471113312386
 30
0.0
 10
25.40000000000006
 20
-4.157295749473316
 30
0.0
 10
25.40000000000006
 20
-4.358180082113545
 30
0.0
 10
25.40000000000004
 20
-4.397056202909941
 30
0.0
  0
LINE
  5
AC
330
1F
100
AcDbEntity
  8
외형선
  6
Continuous
370
    15
100
AcDbLine
 10
24.89995246795074
 20
4.499649030412374
 30
0.0
 11
24.89995246795073
 21
4.762499999999996
 31
0.0
  0
SPLINE
  5
AD
330
1F
100
AcDbEntity
  8
외형선
  6
Continuous
370
    15
100
AcDbSpline
210
0.0
220
0.0
230
1.0
 70
     8
 71
     3
 72
     8
 73
     4
 74
     0
 42
0.000000001
 43
0.00000001
 40
0.0
 40
0.0
 40
0.0
 40
0.0
 40
1.0
 40
1.0
 40
1.0
 40
1.0
 10
25.40000000000003
 20
4.397056202909942
 30
0.0
 10
25.23351821611291
 20
4.433943855989914
 30
0.0
 10
25.06668319197316
 20
4.468173979144805
 30
0.0
 10
24.89995246795073
 20
4.499648619589582
 30
0.0
  0
SPLINE
  5
AE
330
1F
100
AcDbEntity
  8
외형선
  6
Continuous
370
    15
100
AcDbSpline
210
0.0
220
0.0
230
1.0
 70
     8
 71
     3
 72
     8
 73
     4
 74
     0
 42
0.000000001
 43
0.00000001
 40
0.0
 40
0.0
 40
0.0
 40
0.0
 40
1.0
 40
1.0
 40
1.0
 40
1.0
 10
25.40000000000001
 20
3.496578361968724
 30
0.0
 10
25.23351821611291
 20
3.561771624658178
 30
0.0
 10
25.06668319197317
 20
3.624876939882825
 30
0.0
 10
24.89995246795074
 20
3.685717924885467
 30
0.0
  0
LINE
  5
AF
330
1F
100
AcDbEntity
  8
외형선
  6
Continuous
370
    15
100
AcDbLine
 10
24.89995246795074
 20
-1.560309217145466
 30
0.0
 11
24.89995246795073
 21
3.685715774983521
 31
0.0
  0
SPLINE
  5
B0
330
1F
100
AcDbEntity
  8
외형선
  6
Continuous
370
    15
100
AcDbSpline
210
0.0
220
0.0
230
1.0
 70
     8
 71
     3
 72
     8
 73
     4
 74
     0
 42
0.000000001
 43
0.00000001
 40
0.0
 40
0.0
 40
0.0
 40
0.0
 40
1.0
 40
1.0
 40
1.0
 40
1.0
 10
25.40000000000003
 20
-1.829563608747005
 30
0.0
 10
25.23351821611291
 20
-1.740910181770959
 30
0.0
 10
25.06668319197316
 20
-1.651077484034841
 30
0.0
 10
24.89995246795073
 20
-1.560310401883453
 30
0.0
  0
SPLINE
  5
B1
330
1F
100
AcDbEntity
  8
외형선
  6
Continuous
370
    15
100
AcDbSpline
210
0.0
220
0.0
230
1.0
 70
     8
 71
     3
 72
     8
 73
     4
 74
     0
 42
0.000000001
 43
0.00000001
 40
0.0
 40
0.0
 40
0.0
 40
0.0
 40
1.0
 40
1.0
 40
1.0
 40
1.0
 10
25.40000000000001
 20
-3.233472747467034
 30
0.0
 10
25.23351821611291
 20
-3.162974750585922
 30
0.0
 10
25.06668319197317
 20
-3.090453484021242
 30
0.0
 10
24.89995246795074
 20
-3.01610504262996
 30
0.0
  0
LINE
  5
B2
330
1F
100
AcDbEntity
  8
외형선
  6
Continuous
370
    15
100
AcDbLine
 10
24.89995246795073
 20
-4.762499999999999
 30
0.0
 11
24.89995246795073
 21
-3.016107669835002
 31
0.0
  0
SPLINE
  5
B3
330
1F
100
AcDbEntity
  8
외형선
  6
Continuous
370
    15
100
AcDbSpline
210
0.0
220
0.0
230
1.0
 70
     8
 71
     3
 72
     8
 73
     4
 74
     0
 42
0.000000001
 43
0.00000001
 40
0.0
 40
0.0
 40
0.0
 40
0.0
 40
1.0
 40
1.0
 40
1.0
 40
1.0
 10
25.40000000000003
 20
-4.397056202909932
 30
0.0
 10
25.23351821611291
 20
-4.433943855989905
 30
0.0
 10
25.06668319197316
 20
-4.468173979144798
 30
0.0
 10
24.89995246795073
 20
-4.499648619589575
 30
0.0
  0
SPLINE
  5
B8
330
1F
100
AcDbEntity
  8
외형선
  6
Continuous
370
    15
100
AcDbSpline
210
0.0
220
0.0
230
1.0
 70
    24
 71
     3
 72
    22
 73
    18
 74
     0
 42
0.000000001
 43
0.00000001
 40
0.0
 40
0.0
 40
0.0
 40
0.0
 40
0.125
 40
0.125
 40
0.25
 40
0.25
 40
0.375
 40
0.375
 40
0.5
 40
0.5
 40
0.625
 40
0.625
 40
0.75
 40
0.75
 40
0.875
 40
0.875
 40
1.0
 40
1.0
 40
1.0
 40
1.0
 10
25.4
 20
-1.829563608746991
 30
0.0
 10
25.4
 20
-1.800191213196825
 30
0.0
 10
25.40000000000001
 20
-1.710696991226657
 30
0.0
 10
25.40000000000001
 20
-1.390243131660003
 30
0.0
 10
25.4
 20
-1.158754944219576
 30
0.0
 10
25.40000000000001
 20
-0.5922622575307632
 30
0.0
 10
25.4
 20
-0.258924023099917
 30
0.0
 10
25.40000000000001
 20
0.4265679620238344
 30
0.0
 10
25.4
 20
0.7769829756017725
 30
0.0
 10
25.40000000000001
 20
1.426423834723894
 30
0.0
 10
25.40000000000004
 20
1.72537907394377
 30
0.0
 10
25.40000000000004
 20
2.246970343188877
 30
0.0
 10
25.40000000000003
 20
2.470308294040571
 30
0.0
 10
25.40000000000001
 20
2.847095735935739
 30
0.0
 10
25.40000000000004
 20
3.001064710285317
 30
0.0
 10
25.40000000000003
 20
3.255776467105522
 30
0.0
 10
25.40000000000001
 20
3.382323526058343
 30
0.0
 10
25.4
 20
3.496578361968727
 30
0.0
  0
SPLINE
  5
B9
330
1F
100
AcDbEntity
  8
외형선
  6
Continuous
370
    15
100
AcDbSpline
210
0.0
220
0.0
230
1.0
 70
    24
 71
     3
 72
    11
 73
     7
 74
     0
 42
0.000000001
 43
0.00000001
 40
0.0
 40
0.0
 40
0.0
 40
0.0
 40
0.272033304612398
 40
0.5474588439654644
 40
0.9564487649073442
 40
1.0
 40
1.0
 40
1.0
 40
1.0
 10
25.40000000000003
 20
-4.397056202909932
 30
0.0
 10
25.40000000000003
 20
-4.29238790051166
 30
0.0
 10
25.40000000000001
 20
-4.08174608989795
 30
0.0
 10
25.40000000000006
 20
-3.725505970379116
 30
0.0
 10
25.40000000000001
 20
-3.45631881651668
 30
0.0
 10
25.40000000000008
 20
-3.309023122203825
 30
0.0
 10
25.40000000000008
 20
-3.29484781610047
 30
0.0
  0
LINE
  5
BA
330
1F
100
AcDbEntity
  8
중심선
 48
0.8
100
AcDbLine
 10
-47.45
 20
-0.0000000000000058
 30
0.0
 11
47.45000000000001
 21
0.0000000000000058
 31
0.0
  0
LINE
  5
BB
330
1F
100
AcDbEntity
  8
참조1
100
AcDbLine
 10
4.955880657015618
 20
0.0010749287238892
 30
0.0
 11
4.955880657015622
 21
-39.99892507127611
 31
0.0
  0
LINE
  5
BC
330
1F
100
AcDbEntity
  8
참조1
100
AcDbLine
 10
4.955880657015622
 20
-39.99892507127611
 30
0.0
 11
-29.25297615729306
 21
-39.9989250712761
 31
0.0
  0
CIRCLE
  5
BD
330
1F
100
AcDbEntity
  8
해칭선
100
AcDbCircle
 10
0.0
 20
0.0
 30
0.0
 40
3.000000000000008
  0
INSERT
  5
BE
330
1F
100
AcDbEntity
  8
0
  6
Continuous
 62
     7
100
AcDbBlockReference
 66
     1
  2
블럭10
 10
-13.9402729321252
 20
-52.04717430164393
 30
0.0
  0
ATTRIB
  5
BF
330
BE
100
AcDbEntity
  8
FORMAT
 62
     2
100
AcDbText
 10
-23.12156822086648
 20
-49.97180738881174
 30
0.0
 40
4.233333333333333
  1
E1053024 [ 4 FLUTE ]
 41
0.75
  7
SLDTEXTSTYLE0
 11
-23.12156822086648
 21
-52.08847405547841
 31
0.0
100
AcDbAttribute
  2
AUTOATTR0
 70
     0
 74
     1
  0
SEQEND
  5
C0
330
BE
100
AcDbEntity
  8
0
  6
Continuous
 62
     7
  0
HATCH
  5
C1
330
1F
100
AcDbEntity
  8
중심선
100
AcDbHatch
 10
0.0
 20
0.0
 30
0.0
210
0.0
220
0.0
230
1.0
  2
SOLID
 70
     1
 71
     0
 91
        1
 92
        0
 93
        4
 72
     1
 10
-8.22536362774435
 20
-35.8
 11
-11.67163887158163
 21
-35.8
 72
     1
 10
-11.67163887158163
 20
-35.8
 11
-13.79986873078565
 21
-38.3363255805726
 72
     1
 10
-13.79986873078565
 20
-38.3363255805726
 11
-10.35356040183522
 21
-38.33628615127011
 72
     1
 10
-10.35356040183522
 20
-38.33628615127011
 11
-8.22536362774435
 21
-35.8
 97
        0
 75
     0
 76
     1
 98
        1
 10
-4.955880657015612
 20
-0.0010749287238951
  0
HATCH
  5
C2
330
1F
100
AcDbEntity
  8
중심선
100
AcDbHatch
 10
0.0
 20
0.0
 30
0.0
210
0.0
220
0.0
230
1.0
  2
SOLID
 70
     1
 71
     0
 91
        1
 92
        0
 93
        4
 72
     1
 10
-3.212599636708343
 20
-35.79999999999998
 11
-6.658874880545653
 21
-35.8
 72
     1
 10
-6.658874880545653
 20
-35.8
 11
-11.19001288890307
 21
-41.20000000000002
 72
     1
 10
-11.19001288890307
 20
-41.20000000000002
 11
-7.743737645065787
 21
-41.20000000000002
 72
     1
 10
-7.743737645065787
 20
-41.20000000000002
 11
-3.212599636708343
 21
-35.79999999999998
 97
        0
 75
     0
 76
     1
 98
        1
 10
-4.955880657015612
 20
-0.0010749287238951
  0
HATCH
  5
C3
330
1F
100
AcDbEntity
  8
중심선
100
AcDbHatch
 10
0.0
 20
0.0
 30
0.0
210
0.0
220
0.0
230
1.0
  2
SOLID
 70
     1
 71
     0
 91
        1
 92
        0
 93
        4
 72
     1
 10
1.800164354327524
 20
-35.79999999999998
 11
-1.646110889509591
 21
-35.79999999999998
 72
     1
 10
-1.646110889509591
 20
-35.79999999999998
 11
-8.694547791398868
 21
-44.20000000000002
 72
     1
 10
-8.694547791398868
 20
-44.20000000000002
 11
-5.248272547561585
 21
-44.20000000000002
 72
     1
 10
-5.248272547561585
 20
-44.20000000000002
 11
1.800164354327524
 21
-35.79999999999998
 97
        0
 75
     0
 76
     1
 98
        1
 10
-4.955880657015612
 20
-0.0010749287238951
  0
HATCH
  5
C4
330
1F
100
AcDbEntity
  8
중심선
100
AcDbHatch
 10
0.0
 20
0.0
 30
0.0
210
0.0
220
0.0
230
1.0
  2
SOLID
 70
     1
 71
     0
 91
        1
 92
        0
 93
        6
 72
     3
 10
6.600054785339696
 20
-40.00000000005127
 11
3.960054785062283
 21
1.540882976769353E-10
 40
0.3939339440162628
 50
17.09539180608436
 51
320.0019657685087
 73
     0
 72
     1
 10
8.283054441040292
 20
-38.58789400463833
 11
10.58835631474133
 21
-36.65356729459038
 72
     3
 10
6.600054785286849
 20
-40.00000000000015
 11
6.600054785286831
 21
-1.278976924368180E-13
 40
0.6363583540795978
 50
39.99873849337411
 51
368.4976242363724
 73
     1
 72
     1
 10
13.02538727718746
 20
-39.03999999993002
 11
5.280122092122772
 21
-39.03999999993002
 72
     1
 10
5.280122092122772
 20
-39.03999999993002
 11
5.280097047676838
 21
-40.95999999992991
 72
     1
 10
5.280097047676838
 20
-40.95999999992991
 11
9.721476817148876
 21
-40.95999999992988
 97
        0
 75
     0
 76
     1
 98
        1
 10
-4.955880657015612
 20
-0.0010749287238951
  0
DIMENSION
  5
C5
330
1F
100
AcDbEntity
  8
치수문자_일반주서
100
AcDbDimension
  2
_D
 10
61.32753935595685
 20
-4.762499999999928
 30
0.0
 11
61.32753935595674
 21
24.49150000000007
 31
0.0
 70
   160
  1
%%c<>
 71
     2
 42
9.524999999999999
 52
-270.0
  3
SLDDIMSTYLE2
100
AcDbAlignedDimension
 13
44.45000000000002
 23
4.762500000000006
 33
0.0
 14
44.45
 24
-4.762499999999993
 34
0.0
 50
90.0000000000002
100
AcDbRotatedDimension
1001
ACAD
1000
DSTYLE
1002
{
1070
   171
1070
     6
1070
   273
1070
     5
1002
}
  0
DIMENSION
  5
D9
330
1F
100
AcDbEntity
  8
치수문자_일반주서
100
AcDbDimension
  2
_D_1
 10
25.4
 20
18.91115835679366
 30
0.0
 11
6.327249999999999
 21
18.91115835679366
 31
0.0
 70
   160
  1
<>
 71
     2
 42
19.05000000000002
  3
SLDDIMSTYLE2
100
AcDbAlignedDimension
 13
44.45000000000002
 23
4.762500000000006
 33
0.0
 14
25.4
 24
4.397056202909951
 34
0.0
100
AcDbRotatedDimension
1001
ACAD
1000
DSTYLE
1002
{
1070
   171
1070
     6
1070
   273
1070
     5
1002
}
  0
DIMENSION
  5
ED
330
1F
100
AcDbEntity
  8
치수문자_일반주서
100
AcDbDimension
  2
_D_2
 10
-44.45000000000005
 20
37.68343837155771
 30
0.0
 11
4.331632486782709
 21
37.68343837155771
 31
0.0
 70
   160
  1
<>
 71
     2
 42
88.90000000000006
  3
SLDDIMSTYLE2
100
AcDbAlignedDimension
 13
44.45000000000002
 23
4.762500000000006
 33
0.0
 14
-44.45000000000005
 24
4.762499999999996
 34
0.0
100
AcDbRotatedDimension
1001
ACAD
1000
DSTYLE
1002
{
1070
   171
1070
     6
1070
   273
1070
     5
1002
}
  0
DIMENSION
  5
101
330
1F
100
AcDbEntity
  8
치수문자_일반주서
100
AcDbDimension
  2
_D_3
 10
-56.97374999999999
 20
-4.762500000000114
 30
0.0
 11
-56.97375000000001
 21
0.0000000000000007
 31
0.0
 70
   160
  1
%%c<>
 71
     2
 42
9.524999999999999
 52
-270.0
  3
SLDDIMSTYLE2
100
AcDbAlignedDimension
 13
-24.89995246795075
 23
4.762500000000003
 33
0.0
 14
-24.89995246795075
 24
-4.762499999999996
 34
0.0
 50
90.0000000000002
100
AcDbRotatedDimension
1001
ACAD
1000
DSTYLE
1002
{
1070
   171
1070
     6
1070
   273
1070
     5
1002
}
  0
LINE
  5
116
330
1F
100
AcDbEntity
  8
참조1
100
AcDbLine
 10
68.7193644723612
 20
7.441074928723896
 30
0.0
 11
68.7193644723612
 21
-7.438925071276109
 31
0.0
  0
LINE
  5
117
330
1F
100
AcDbEntity
  8
참조1
100
AcDbLine
 10
81.41936447236121
 20
5.441074928723896
 30
0.0
 11
68.7193644723612
 21
5.441074928723896
 31
0.0
  0
SOLID
  5
118
330
1F
100
AcDbEntity
  8
참조1
100
AcDbTrace
 10
68.7193644723612
 20
5.441074928723896
 30
0.0
 11
75.0693644723612
 21
4.425074928723896
 31
0.0
 12
75.0693644723612
 22
6.457074928723896
 32
0.0
 13
75.0693644723612
 23
6.457074928723896
 33
0.0
  0
LINE
  5
119
330
1F
100
AcDbEntity
  8
참조1
100
AcDbLine
 10
81.41936447236121
 20
-5.438925071276109
 30
0.0
 11
68.7193644723612
 21
-5.438925071276109
 31
0.0
  0
SOLID
  5
11A
330
1F
100
AcDbEntity
  8
참조1
100
AcDbTrace
 10
68.7193644723612
 20
-5.438925071276109
 30
0.0
 11
75.0693644723612
 21
-6.454925071276109
 31
0.0
 12
75.0693644723612
 22
-4.422925071276109
 32
0.0
 13
75.0693644723612
 23
-4.422925071276109
 33
0.0
  0
MTEXT
  5
11B
330
1F
100
AcDbEntity
  8
참조1
100
AcDbMText
 10
78.1037146049872
 20
11.01136670591223
 30
0.0
 40
3.5
 41
0.0
 71
     1
 72
     1
  1
A
  7
SLDTEXTSTYLE0
 73
     1
 44
1.0
  0
MTEXT
  5
11C
330
1F
100
AcDbEntity
  8
참조1
100
AcDbMText
 10
78.1037146049872
 20
0.1313667059122219
 30
0.0
 40
3.5
 41
0.0
 71
     1
 72
     1
  1
A
  7
SLDTEXTSTYLE0
 73
     1
 44
1.0
  0
INSERT
  5
123
330
1F
100
AcDbEntity
  8
해칭선
100
AcDbBlockReference
  2
SW_DOWELSYMBOL_0
 10
0.0
 20
0.0
 30
0.0
  0
LINE
  5
304
330
1F
100
AcDbEntity
  8
0
  6
Continuous
 62
     1
370
    15
100
AcDbLine
 10
-35.10396595471337
 20
-4.762499999999996
 30
0.0
 11
-32.1994472969813
 21
-4.762499999999996
 31
0.0
  0
LINE
  5
305
330
1F
100
AcDbEntity
  8
0
  6
Continuous
 62
     1
370
    15
100
AcDbLine
 10
-32.19944729698122
 20
4.762500000000003
 30
0.0
 11
-35.10396595471337
 21
4.762500000000003
 31
0.0
  0
SPLINE
  5
308
330
1F
100
AcDbEntity
  8
0
  6
Continuous
 62
     1
370
    15
100
AcDbSpline
210
0.0
220
0.0
230
1.0
 70
     8
 71
     3
 72
    16
 73
    12
 74
     0
 42
0.000000001
 43
0.00000001
 40
0.0
 40
0.0
 40
0.0
 40
0.0
 40
0.1206676858871584
 40
0.2413332928617631
 40
0.361997306215968
 40
0.4826602118388768
 40
0.6033224960347058
 40
0.723984645340597
 40
0.8377414380744215
 40
0.9515069039481865
 40
1.0
 40
1.0
 40
1.0
 40
1.0
 10
-25.40000000000003
 20
1.829563608746994
 30
0.0
 10
-25.99265445019722
 20
2.137275827595211
 30
0.0
 10
-27.17795314009686
 20
2.752694963898897
 30
0.0
 10
-28.95588043668769
 20
3.525754435823472
 30
0.0
 10
-30.73377872468129
 20
4.141658428062073
 30
0.0
 10
-32.5116624424204
 20
4.564449697174943
 30
0.0
 10
-34.28951594902321
 20
4.775689645649244
 30
0.0
 10
-36.03352110535144
 20
4.768690150813342
 30
0.0
 10
-37.7434023578279
 20
4.546016329975508
 30
0.0
 10
-39.09893785699325
 20
4.246739726445547
 30
0.0
 10
-39.89582635091119
 20
3.967796231444403
 30
0.0
 10
-40.13398691279187
 20
3.884430315121769
 30
0.0
  0
SPLINE
  5
309
330
1F
100
AcDbEntity
  8
외형선
  6
Continuous
370
    15
100
AcDbSpline
210
0.0
220
0.0
230
1.0
 70
    24
 71
     3
 72
    22
 73
    18
 74
     0
 42
0.000000001
 43
0.00000001
 40
0.0
 40
0.0
 40
0.0
 40
0.0
 40
0.1250000000000001
 40
0.1250000000000001
 40
0.2500000000000001
 40
0.2500000000000001
 40
0.3750000000000002
 40
0.3750000000000002
 40
0.5000000000000002
 40
0.5000000000000002
 40
0.6250000000000002
 40
0.6250000000000002
 40
0.7500000000000001
 40
0.7500000000000001
 40
0.875
 40
0.875
 40
1.0
 40
1.0
 40
1.0
 40
1.0
 10
-25.40000000000003
 20
-3.496578361968723
 30
0.0
 10
-25.40000000000006
 20
-3.382323526058336
 30
0.0
 10
-25.40000000000003
 20
-3.255776467105512
 30
0.0
 10
-25.40000000000003
 20
-3.001064710285306
 30
0.0
 10
-25.40000000000003
 20
-2.847095735935724
 30
0.0
 10
-25.40000000000003
 20
-2.470308294040549
 30
0.0
 10
-25.40000000000003
 20
-2.246970343188849
 30
0.0
 10
-25.40000000000006
 20
-1.725379073943735
 30
0.0
 10
-25.40000000000003
 20
-1.426423834723856
 30
0.0
 10
-25.40000000000001
 20
-0.7769829756017187
 30
0.0
 10
-25.40000000000001
 20
-0.4265679620237747
 30
0.0
 10
-25.40000000000001
 20
0.2589240230999864
 30
0.0
 10
-25.40000000000003
 20
0.5922622575308268
 30
0.0
 10
-25.40000000000001
 20
1.158754944219638
 30
0.0
 10
-25.40000000000001
 20
1.39024313166005
 30
0.0
 10
-25.40000000000003
 20
1.71069699122669
 30
0.0
 10
-25.40000000000003
 20
1.800191213196847
 30
0.0
 10
-25.40000000000003
 20
1.829563608747002
 30
0.0
  0
SPLINE
  5
30A
330
1F
100
AcDbEntity
  8
0
  6
Continuous
 62
     1
370
    15
100
AcDbSpline
210
0.0
220
0.0
230
1.0
 70
     8
 71
     3
 72
    38
 73
    34
 74
     0
 42
0.000000001
 43
0.00000001
 40
0.0
 40
0.0
 40
0.0
 40
0.0
 40
0.0625
 40
0.0625
 40
0.125
 40
0.125
 40
0.1875
 40
0.1875
 40
0.25
 40
0.25
 40
0.3125
 40
0.3125
 40
0.375
 40
0.375
 40
0.4375
 40
0.4375
 40
0.5
 40
0.5
 40
0.5625
 40
0.5625
 40
0.625
 40
0.625
 40
0.6875
 40
0.6875
 40
0.75
 40
0.75
 40
0.8125
 40
0.8125
 40
0.875
 40
0.875
 40
0.9375
 40
0.9375
 40
1.0
 40
1.0
 40
1.0
 40
1.0
 10
-44.45000000000002
 20
4.762499999999996
 30
0.0
 10
-44.05559969094136
 20
4.725393804008753
 30
0.0
 10
-43.65638340717521
 20
4.689227752394324
 30
0.0
 10
-42.86070628052158
 20
4.584591253547266
 30
0.0
 10
-42.46710456536309
 20
4.516376215520211
 30
0.0
 10
-41.6721816264087
 20
4.348676029114152
 30
0.0
 10
-41.27265843352976
 20
4.24919602090236
 30
0.0
 10
-40.48190741762375
 20
4.022226117344545
 30
0.0
 10
-40.08489938615969
 20
3.894230441788025
 30
0.0
 10
-39.28876469800088
 20
3.6118127608135
 30
0.0
 10
-38.89461978981075
 20
3.458036810239435
 30
0.0
 10
-38.10074672739313
 20
3.126888925329965
 30
0.0
 10
-37.70106702579051
 20
2.94944346743727
 30
0.0
 10
-36.90865613540734
 20
2.576369218606281
 30
0.0
 10
-36.5133173839923
 20
2.380386531050448
 30
0.0
 10
-35.71702232974087
 20
1.972313878670683
 30
0.0
 10
-35.32179170936612
 20
1.761208805136945
 30
0.0
 10
-34.52926290927252
 20
1.327914141629059
 30
0.0
 10
-34.12957729680988
 20
1.10526161707751
 30
0.0
 10
-33.33579910647583
 20
0.6548607466883071
 30
0.0
 10
-32.9415885959493
 20
0.4271150064261066
 30
0.0
 10
-32.14543057061218
 20
-0.0312395494521026
 30
0.0
 10
-31.74857306490443
 20
-0.2608677594182182
 30
0.0
 10
-30.95768124756998
 20
-0.7161911770130088
 30
0.0
 10
-30.55814032957085
 20
-0.9429335529315636
 30
0.0
 10
-29.76328910742683
 20
-1.387498566183368
 30
0.0
 10
-29.36966440000052
 20
-1.605034729521961
 30
0.0
 10
-28.57394062803306
 20
-2.029007637780637
 30
0.0
 10
-28.1749170784764
 20
-2.234843546542486
 30
0.0
 10
-27.38595294100585
 20
-2.628110237621122
 30
0.0
 10
-26.98670714021912
 20
-2.817078564944168
 30
0.0
 10
-26.19107848602459
 20
-3.173654108828536
 30
0.0
 10
-25.7974964171971
 20
-3.340921161887202
 30
0.0
 10
-25.40000000000003
 20
-3.496578361968723
 30
0.0
  0
LINE
  5
30B
330
1F
100
AcDbEntity
  8
0
  6
Continuous
 62
     1
370
    15
100
AcDbLine
 10
-44.45000000000002
 20
4.313307425830494
 30
0.0
 11
-44.45000000000002
 21
-0.4080574258305417
 31
0.0
  0
SPLINE
  5
30C
330
1F
100
AcDbEntity
  8
0
  6
Continuous
 62
     1
370
    15
100
AcDbSpline
210
0.0
220
0.0
230
1.0
 70
     8
 71
     3
 72
    38
 73
    34
 74
     0
 42
0.000000001
 43
0.00000001
 40
0.0
 40
0.0
 40
0.0
 40
0.0
 40
0.0625
 40
0.0625
 40
0.125
 40
0.125
 40
0.1875
 40
0.1875
 40
0.25
 40
0.25
 40
0.3125
 40
0.3125
 40
0.375
 40
0.375
 40
0.4375
 40
0.4375
 40
0.5
 40
0.5
 40
0.5625
 40
0.5625
 40
0.625
 40
0.625
 40
0.6875
 40
0.6875
 40
0.75
 40
0.75
 40
0.8125
 40
0.8125
 40
0.875
 40
0.875
 40
0.9375
 40
0.9375
 40
1.0
 40
1.0
 40
1.0
 40
1.0
 10
-44.45000000000002
 20
4.313307425830494
 30
0.0
 10
-44.05559969094139
 20
4.216361773873693
 30
0.0
 10
-43.65638340717521
 20
4.104029610645775
 30
0.0
 10
-42.86070628052158
 20
3.851834755209076
 30
0.0
 10
-42.46710456536312
 20
3.712388108279846
 30
0.0
 10
-41.67218162640873
 20
3.407830214167411
 30
0.0
 10
-41.27265843352976
 20
3.242852911264571
 30
0.0
 10
-40.48190741762377
 20
2.892753352516358
 30
0.0
 10
-40.08489938615969
 20
2.706814706453905
 30
0.0
 10
-39.28876469800088
 20
2.317067743837754
 30
0.0
 10
-38.89461978981072
 20
2.114113314771963
 30
0.0
 10
-38.10074672739307
 20
1.694024506609331
 30
0.0
 10
-37.70106702579045
 20
1.476853878527578
 30
0.0
 10
-36.90865613540734
 20
1.035037431225909
 30
0.0
 10
-36.51331738399227
 20
0.8099338033759339
 30
0.0
 10
-35.71702232974084
 20
0.3545982723516873
 30
0.0
 10
-35.32179170936612
 20
0.1254643452357414
 30
0.0
 10
-34.52926290927249
 20
-0.3324806614405772
 30
0.0
 10
-34.12957729680988
 20
-0.561746758530539
 30
0.0
 10
-33.33579910647586
 20
-1.01372773074128
 30
0.0
 10
-32.94158859594924
 20
-1.236481373647443
 30
0.0
 10
-32.14543057061209
 20
-1.673301997540285
 30
0.0
 10
-31.74857306490443
 20
-1.886412971680244
 30
0.0
 10
-30.95768124756995
 20
-2.297624469887587
 30
0.0
 10
-30.55814032957082
 20
-2.496651422204145
 30
0.0
 10
-29.76328910742674
 20
-2.875274766937785
 30
0.0
 10
-29.36966440000046
 20
-3.054673992682901
 30
0.0
 10
-28.57394062803303
 20
-3.392309350949127
 30
0.0
 10
-28.17491707847637
 20
-3.55001964749804
 30
0.0
 10
-27.38595294100583
 20
-3.83865658149341
 30
0.0
 10
-26.9867071402191
 20
-3.970709871036739
 30
0.0
 10
-26.19107848602454
 20
-4.205955528169362
 30
0.0
 10
-25.79749641719707
 20
-4.308982243130423
 30
0.0
 10
-25.40000000000003
 20
-4.397056202909944
 30
0.0
  0
SPLINE
  5
30D
330
1F
100
AcDbEntity
  8
0
  6
Continuous
 62
     1
370
    15
100
AcDbSpline
210
0.0
220
0.0
230
1.0
 70
     8
 71
     3
 72
    17
 73
    13
 74
     0
 42
0.000000001
 43
0.00000001
 40
0.0
 40
0.0
 40
0.0
 40
0.0
 40
0.1029829594749103
 40
0.2059611081194813
 40
0.3089348514500364
 40
0.4119045966209653
 40
0.5148707522754833
 40
0.6178337283952197
 40
0.714907297335978
 40
0.8119706730482521
 40
0.9090295316564205
 40
0.9999999999999999
 40
0.9999999999999999
 40
0.9999999999999999
 40
0.9999999999999999
 10
-44.45000000000002
 20
-0.4080574258305417
 30
0.0
 10
-43.85716557286446
 20
-0.7471815366260087
 30
0.0
 10
-42.67152441274646
 20
-1.425413916095394
 30
0.0
 10
-40.89312299698832
 20
-2.371731147343645
 30
0.0
 10
-39.11481263903698
 20
-3.209606900069538
 30
0.0
 10
-37.33658136191653
 20
-3.898521419324346
 30
0.0
 10
-35.55843963073607
 20
-4.407155984251276
 30
0.0
 10
-33.81419345115552
 20
-4.705677688941492
 30
0.0
 10
-32.10413451996837
 20
-4.79567729731491
 30
0.0
 10
-30.4280552465992
 20
-4.682912557698167
 30
0.0
 10
-28.78713155565072
 20
-4.397024280331898
 30
0.0
 10
-27.70487248268199
 20
-4.063903175702812
 30
0.0
 10
-27.18126472248235
 20
-3.902735854654985
 30
0.0
  0
LINE
  5
30E
330
1F
100
AcDbEntity
  8
0
  6
Continuous
 62
     1
370
    15
100
AcDbLine
 10
-44.45000000000005
 20
4.762499999999996
 30
0.0
 11
-44.45000000000002
 21
4.313307425830494
 31
0.0
  0
LINE
  5
30F
330
1F
100
AcDbEntity
  8
외형선
  6
Continuous
370
    15
100
AcDbLine
 10
-25.40000000000003
 20
-3.496578361968716
 30
0.0
 11
-25.40000000000001
 21
-4.397056202909944
 31
0.0
  0
SPLINE
  5
310
330
1F
100
AcDbEntity
  8
0
  6
Continuous
 62
     1
370
    15
100
AcDbSpline
210
0.0
220
0.0
230
1.0
 70
     8
 71
     3
 72
    13
 73
     9
 74
     0
 42
0.000000001
 43
0.00000001
 40
0.0
 40
0.0
 40
0.0
 40
0.0
 40
0.1030813506976181
 40
0.2824168502058581
 40
0.4617660227603064
 40
0.6411393383775777
 40
0.8205472157018084
 40
0.9999999999999999
 40
0.9999999999999999
 40
0.9999999999999999
 40
0.9999999999999999
 10
-35.10396595471337
 20
-4.735063054828309
 30
0.0
 10
-35.4251136568648
 20
-4.739537091833633
 30
0.0
 10
-36.30497720035393
 20
-4.751794822550146
 30
0.0
 10
-37.74339814719934
 20
-4.545683428611788
 30
0.0
 10
-39.41957822959188
 20
-4.155719670941103
 30
0.0
 10
-41.09600912187867
 20
-3.583203556005635
 30
0.0
 10
-42.77282581747184
 20
-2.871714504817284
 30
0.0
 10
-43.8908953016342
 20
-2.303331926359171
 30
0.0
 10
-44.45000000000005
 20
-2.019105074104708
 30
0.0
  0
LINE
  5
311
330
1F
100
AcDbEntity
  8
0
  6
Continuous
 62
     1
370
    15
100
AcDbLine
 10
-44.45000000000002
 20
-0.4080574258305417
 30
0.0
 11
-44.45000000000002
 21
-2.019105074104708
 31
0.0
  0
SPLINE
  5
312
330
1F
100
AcDbEntity
  8
0
  6
Continuous
 62
     1
370
    15
100
AcDbSpline
210
0.0
220
0.0
230
1.0
 70
     8
 71
     3
 72
    12
 73
     8
 74
     0
 42
0.000000001
 43
0.00000001
 40
0.0
 40
0.0
 40
0.0
 40
0.0
 40
0.0140261167545318
 40
0.2605223569972108
 40
0.5070071258772815
 40
0.7534948625894287
 40
1.0
 40
1.0
 40
1.0
 40
1.0
 10
-32.19944729698125
 20
4.757237865744457
 30
0.0
 10
-32.16765660262627
 20
4.758975590429912
 30
0.0
 10
-31.57717337987256
 20
4.791252245386588
 30
0.0
 10
-30.42806032649113
 20
4.671947967223772
 30
0.0
 10
-28.75207868903038
 20
4.38449754879408
 30
0.0
 10
-27.07608065345687
 20
3.904436412668105
 30
0.0
 10
-25.95870669744593
 20
3.457132565219567
 30
0.0
 10
-25.40000000000003
 20
3.23347274746704
 30
0.0
  0
LINE
  5
313
330
1F
100
AcDbEntity
  8
외형선
  6
Continuous
370
    15
100
AcDbLine
 10
-25.40000000000003
 20
3.23347274746704
 30
0.0
 11
-25.40000000000003
 21
1.829563608746994
 31
0.0
  0
SPLINE
  5
314
330
1F
100
AcDbEntity
  8
0
  6
Continuous
 62
     1
370
    15
100
AcDbSpline
210
0.0
220
0.0
230
1.0
 70
     8
 71
     3
 72
    10
 73
     6
 74
     0
 42
0.000000001
 43
0.00000001
 40
0.0
 40
0.0
 40
0.0
 40
0.0
 40
0.4120671805182614
 40
0.8241151113926498
 40
1.0
 40
1.0
 40
1.0
 40
1.0
 10
-44.45000000000002
 20
-4.762500000000003
 30
0.0
 10
-43.85716571810229
 20
-4.692377265367178
 30
0.0
 10
-42.67152484845315
 20
-4.587161569417781
 30
0.0
 10
-41.23285624824877
 20
-4.268821559682614
 30
0.0
 10
-40.38702439623066
 20
-3.972944381390747
 30
0.0
 10
-40.13398691279187
 20
-3.884430315121755
 30
0.0
  0
LINE
  5
315
330
1F
100
AcDbEntity
  8
0
  6
Continuous
 62
     1
370
    15
100
AcDbLine
 10
-44.45000000000002
 20
-2.014841709615474
 30
0.0
 11
-44.45000000000005
 21
-4.762500000000003
 31
0.0
  0
SPLINE
  5
316
330
1F
100
AcDbEntity
  8
0
  6
Continuous
 62
     1
370
    15
100
AcDbSpline
210
0.0
220
0.0
230
1.0
 70
     8
 71
     3
 72
     9
 73
     5
 74
     0
 42
0.000000001
 43
0.00000001
 40
0.0
 40
0.0
 40
0.0
 40
0.0
 40
0.9981458767803765
 40
1.0
 40
1.0
 40
1.0
 40
1.0
 10
-25.40000000000006
 20
4.397056202909944
 30
0.0
 10
-25.99265503561008
 20
4.26275938988519
 30
0.0
 10
-26.58641096788091
 20
4.128213111481536
 30
0.0
 10
-27.18016383151115
 20
3.903153143567316
 30
0.0
 10
-27.1812647224823
 20
3.902735854654999
 30
0.0
  0
SPLINE
  5
317
330
1F
100
AcDbEntity
  8
외형선
  6
Continuous
370
    15
100
AcDbSpline
210
0.0
220
0.0
230
1.0
 70
    24
 71
     3
 72
    11
 73
     7
 74
     0
 42
0.000000001
 43
0.00000001
 40
0.0
 40
0.0
 40
0.0
 40
0.0
 40
0.0697742772926913
 40
0.4784988925097366
 40
0.8990765492570513
 40
1.0
 40
1.0
 40
1.0
 40
1.0
 10
-25.40000000000003
 20
3.294857816100475
 30
0.0
 10
-25.40000000000003
 20
3.31768618939801
 30
0.0
 10
-25.40000000000006
 20
3.4742388871042
 30
0.0
 10
-25.40000000000009
 20
3.806471113312391
 30
0.0
 10
-25.40000000000006
 20
4.15729574947332
 30
0.0
 10
-25.40000000000006
 20
4.358180082113549
 30
0.0
 10
-25.40000000000006
 20
4.397056202909944
 30
0.0
  0
LINE
  5
318
330
1F
100
AcDbEntity
  8
외형선
  6
Continuous
370
    15
100
AcDbLine
 10
-24.89995246795075
 20
-4.499649030412371
 30
0.0
 11
-24.89995246795075
 21
-4.762499999999996
 31
0.0
  0
SPLINE
  5
319
330
1F
100
AcDbEntity
  8
외형선
  6
Continuous
370
    15
100
AcDbSpline
210
0.0
220
0.0
230
1.0
 70
     8
 71
     3
 72
     8
 73
     4
 74
     0
 42
0.000000001
 43
0.00000001
 40
0.0
 40
0.0
 40
0.0
 40
0.0
 40
1.0
 40
1.0
 40
1.0
 40
1.0
 10
-25.40000000000003
 20
-4.397056202909937
 30
0.0
 10
-25.23351821611294
 20
-4.433943855989909
 30
0.0
 10
-25.06668319197317
 20
-4.468173979144801
 30
0.0
 10
-24.89995246795075
 20
-4.499648619589578
 30
0.0
  0
SPLINE
  5
31A
330
1F
100
AcDbEntity
  8
외형선
  6
Continuous
370
    15
100
AcDbSpline
210
0.0
220
0.0
230
1.0
 70
     8
 71
     3
 72
     8
 73
     4
 74
     0
 42
0.000000001
 43
0.00000001
 40
0.0
 40
0.0
 40
0.0
 40
0.0
 40
1.0
 40
1.0
 40
1.0
 40
1.0
 10
-25.40000000000003
 20
-3.496578361968723
 30
0.0
 10
-25.23351821611294
 20
-3.561771624658171
 30
0.0
 10
-25.0666831919732
 20
-3.624876939882817
 30
0.0
 10
-24.89995246795075
 20
-3.685717924885459
 30
0.0
  0
LINE
  5
31B
330
1F
100
AcDbEntity
  8
외형선
  6
Continuous
370
    15
100
AcDbLine
 10
-24.89995246795075
 20
1.560309217145466
 30
0.0
 11
-24.89995246795075
 21
-3.685715774983514
 31
0.0
  0
SPLINE
  5
31C
330
1F
100
AcDbEntity
  8
외형선
  6
Continuous
370
    15
100
AcDbSpline
210
0.0
220
0.0
230
1.0
 70
     8
 71
     3
 72
     8
 73
     4
 74
     0
 42
0.000000001
 43
0.00000001
 40
0.0
 40
0.0
 40
0.0
 40
0.0
 40
1.0
 40
1.0
 40
1.0
 40
1.0
 10
-25.40000000000003
 20
1.829563608747009
 30
0.0
 10
-25.23351821611294
 20
1.740910181770964
 30
0.0
 10
-25.06668319197317
 20
1.651077484034843
 30
0.0
 10
-24.89995246795075
 20
1.560310401883456
 30
0.0
  0
SPLINE
  5
31D
330
1F
100
AcDbEntity
  8
외형선
  6
Continuous
370
    15
100
AcDbSpline
210
0.0
220
0.0
230
1.0
 70
     8
 71
     3
 72
     8
 73
     4
 74
     0
 42
0.000000001
 43
0.00000001
 40
0.0
 40
0.0
 40
0.0
 40
0.0
 40
1.0
 40
1.0
 40
1.0
 40
1.0
 10
-25.40000000000003
 20
3.23347274746704
 30
0.0
 10
-25.23351821611294
 20
3.162974750585924
 30
0.0
 10
-25.0666831919732
 20
3.090453484021246
 30
0.0
 10
-24.89995246795075
 20
3.016105042629967
 30
0.0
  0
LINE
  5
31E
330
1F
100
AcDbEntity
  8
외형선
  6
Continuous
370
    15
100
AcDbLine
 10
-24.89995246795075
 20
4.762500000000003
 30
0.0
 11
-24.89995246795075
 21
3.016107669835002
 31
0.0
  0
SPLINE
  5
31F
330
1F
100
AcDbEntity
  8
외형선
  6
Continuous
370
    15
100
AcDbSpline
210
0.0
220
0.0
230
1.0
 70
     8
 71
     3
 72
     8
 73
     4
 74
     0
 42
0.000000001
 43
0.00000001
 40
0.0
 40
0.0
 40
0.0
 40
0.0
 40
1.0
 40
1.0
 40
1.0
 40
1.0
 10
-25.40000000000003
 20
4.397056202909937
 30
0.0
 10
-25.23351821611294
 20
4.433943855989909
 30
0.0
 10
-25.06668319197317
 20
4.468173979144801
 30
0.0
 10
-24.89995246795075
 20
4.499648619589578
 30
0.0
  0
SPLINE
  5
320
330
1F
100
AcDbEntity
  8
외형선
  6
Continuous
370
    15
100
AcDbSpline
210
0.0
220
0.0
230
1.0
 70
    24
 71
     3
 72
    22
 73
    18
 74
     0
 42
0.000000001
 43
0.00000001
 40
0.0
 40
0.0
 40
0.0
 40
0.0
 40
0.125
 40
0.125
 40
0.25
 40
0.25
 40
0.375
 40
0.375
 40
0.5
 40
0.5
 40
0.625
 40
0.625
 40
0.75
 40
0.75
 40
0.875
 40
0.875
 40
1.0
 40
1.0
 40
1.0
 40
1.0
 10
-25.40000000000001
 20
1.829563608746994
 30
0.0
 10
-25.40000000000001
 20
1.800191213196833
 30
0.0
 10
-25.40000000000003
 20
1.710696991226662
 30
0.0
 10
-25.40000000000003
 20
1.390243131660007
 30
0.0
 10
-25.40000000000001
 20
1.158754944219581
 30
0.0
 10
-25.40000000000003
 20
0.59226225753077
 30
0.0
 10
-25.40000000000001
 20
0.2589240230999225
 30
0.0
 10
-25.40000000000003
 20
-0.4265679620238315
 30
0.0
 10
-25.40000000000001
 20
-0.7769829756017684
 30
0.0
 10
-25.40000000000003
 20
-1.426423834723892
 30
0.0
 10
-25.40000000000006
 20
-1.725379073943763
 30
0.0
 10
-25.40000000000006
 20
-2.24697034318887
 30
0.0
 10
-25.40000000000003
 20
-2.470308294040571
 30
0.0
 10
-25.40000000000003
 20
-2.847095735935731
 30
0.0
 10
-25.40000000000006
 20
-3.001064710285313
 30
0.0
 10
-25.40000000000003
 20
-3.25577646710552
 30
0.0
 10
-25.40000000000003
 20
-3.382323526058336
 30
0.0
 10
-25.40000000000001
 20
-3.496578361968723
 30
0.0
  0
SPLINE
  5
321
330
1F
100
AcDbEntity
  8
외형선
  6
Continuous
370
    15
100
AcDbSpline
210
0.0
220
0.0
230
1.0
 70
    24
 71
     3
 72
    11
 73
     7
 74
     0
 42
0.000000001
 43
0.00000001
 40
0.0
 40
0.0
 40
0.0
 40
0.0
 40
0.272033304612398
 40
0.5474588439654644
 40
0.9564487649073442
 40
1.0
 40
1.0
 40
1.0
 40
1.0
 10
-25.40000000000003
 20
4.397056202909937
 30
0.0
 10
-25.40000000000003
 20
4.292387900511663
 30
0.0
 10
-25.40000000000003
 20
4.081746089897955
 30
0.0
 10
-25.40000000000006
 20
3.725505970379118
 30
0.0
 10
-25.40000000000003
 20
3.456318816516685
 30
0.0
 10
-25.40000000000009
 20
3.309023122203833
 30
0.0
 10
-25.40000000000009
 20
3.294847816100472
 30
0.0
  0
LINE
  5
39F
330
1F
100
AcDbEntity
  8
외형선
  6
Continuous
370
    15
100
AcDbLine
 10
-3.568700000000035
 20
3.492500000000014
 30
0.0
 11
3.568700000000035
 21
3.492500000000014
 31
0.0
  0
LINE
  5
3A0
330
1F
100
AcDbEntity
  8
외형선
  6
Continuous
370
    15
100
AcDbLine
 10
-3.568700000000035
 20
3.492500000000014
 30
0.0
 11
-4.838700000000017
 21
4.762499999999996
 31
0.0
  0
LINE
  5
3A1
330
1F
100
AcDbEntity
  8
외형선
  6
Continuous
370
    15
100
AcDbLine
 10
3.568700000000035
 20
3.492500000000014
 30
0.0
 11
4.838700000000017
 21
4.762499999999996
 31
0.0
  0
LINE
  5
3A4
330
1F
100
AcDbEntity
  8
외형선
  6
Continuous
370
    15
100
AcDbLine
 10
-4.838700000000017
 20
4.762499999999996
 30
0.0
 11
-24.89995246795075
 21
4.762499999999996
 31
0.0
  0
ENDSEC
  0
SECTION
  2
OBJECTS
  0
DICTIONARY
  5
C
330
0
100
AcDbDictionary
281
     1
  3
ACAD_GROUP
350
D
  3
ACAD_IMAGE_VARS
350
147
  3
ACAD_LAYOUT
350
1A
  3
ACAD_MLINESTYLE
350
17
  3
ACAD_PLOTSETTINGS
350
19
  3
ACAD_PLOTSTYLENAME
350
E
  3
ACAD_SCALELIST
350
47
  3
APPDATA
350
145
  3
DWGPROPS
350
3C8
  0
DICTIONARY
  5
1CE
330
2
100
AcDbDictionary
280
     1
281
     1
  3
ACAD_LAYERSTATES
360
1CF
  0
DICTIONARY
  5
D
102
{ACAD_REACTORS
330
C
102
}
330
C
100
AcDbDictionary
281
     1
  0
RASTERVARIABLES
  5
147
102
{ACAD_REACTORS
330
C
102
}
330
C
100
AcDbRasterVariables
 90
        0
 70
     1
 71
     1
 72
     1
  0
DICTIONARY
  5
1A
102
{ACAD_REACTORS
330
C
102
}
330
C
100
AcDbDictionary
281
     1
  3
Layout1
350
1E
  3
Layout2
350
26
  3
Model
350
22
  0
DICTIONARY
  5
17
102
{ACAD_REACTORS
330
C
102
}
330
C
100
AcDbDictionary
281
     1
  3
Standard
350
18
  0
DICTIONARY
  5
19
102
{ACAD_REACTORS
330
C
102
}
330
C
100
AcDbDictionary
281
     1
  0
ACDBDICTIONARYWDFLT
  5
E
102
{ACAD_REACTORS
330
C
102
}
330
C
100
AcDbDictionary
281
     1
  3
Normal
350
F
100
AcDbDictionaryWithDefault
340
F
  0
DICTIONARY
  5
47
102
{ACAD_REACTORS
330
C
102
}
330
C
100
AcDbDictionary
281
     1
  3
A0
350
48
  3
A1
350
49
  3
A2
350
4A
  3
A3
350
4B
  3
A4
350
4C
  3
A5
350
4D
  3
A6
350
4E
  3
A7
350
4F
  3
A8
350
50
  3
A9
350
51
  3
B0
350
52
  3
B1
350
53
  3
B2
350
54
  3
B3
350
55
  3
B4
350
56
  3
B5
350
57
  3
B6
350
58
  3
B7
350
59
  3
B8
350
5A
  3
B9
350
5B
  3
C0
350
5C
  3
C1
350
5D
  3
C2
350
5E
  3
C3
350
5F
  3
C4
350
60
  3
C5
350
61
  3
C6
350
62
  3
C7
350
63
  3
C8
350
64
  3
C9
350
65
  3
D0
350
66
  3
D1
350
67
  3
D2
350
68
  0
DICTIONARY
  5
145
102
{ACAD_REACTORS
330
C
102
}
330
C
100
AcDbDictionary
281
     1
  0
XRECORD
  5
3C8
102
{ACAD_REACTORS
330
C
102
}
330
C
100
AcDbXrecord
280
     1
  1
DWGPROPS COOKIE
  2

  3

  4

  6

  7

  8
12017012
  9

300
=
301
=
302
=
303
=
304
=
305
=
306
=
307
=
308
=
309
=
 40
0.0
 41
2458313.097507014
 42
2458318.986339503
  1

 90
        0
  0
DICTIONARY
  5
1CF
102
{ACAD_REACTORS
330
1CE
102
}
330
1CE
100
AcDbDictionary
281
     1
  0
LAYOUT
  5
1E
102
{ACAD_REACTORS
330
1A
102
}
330
1A
100
AcDbPlotSettings
  1

  2
none_device
  4

  6

 40
0.0
 41
0.0
 42
0.0
 43
0.0
 44
0.0
 45
0.0
 46
0.0
 47
0.0
 48
0.0
 49
0.0
140
0.0
141
0.0
142
1.0
143
1.0
 70
   688
 72
     1
 73
     0
 74
     5
  7

 75
    16
147
1.0
148
0.0
149
0.0
100
AcDbLayout
  1
Layout1
 70
     1
 71
     1
 10
0.0
 20
0.0
 11
420.0
 21
297.0
 12
0.0
 22
0.0
 32
0.0
 14
1.000000000000000E+20
 24
1.000000000000000E+20
 34
1.000000000000000E+20
 15
-1.000000000000000E+20
 25
-1.000000000000000E+20
 35
-1.000000000000000E+20
146
0.0
 13
0.0
 23
0.0
 33
0.0
 16
1.0
 26
0.0
 36
0.0
 17
0.0
 27
1.0
 37
0.0
 76
     0
330
1B
  0
LAYOUT
  5
26
102
{ACAD_REACTORS
330
1A
102
}
330
1A
100
AcDbPlotSettings
  1

  2
none_device
  4

  6

 40
0.0
 41
0.0
 42
0.0
 43
0.0
 44
0.0
 45
0.0
 46
0.0
 47
0.0
 48
0.0
 49
0.0
140
0.0
141
0.0
142
1.0
143
1.0
 70
   688
 72
     1
 73
     0
 74
     5
  7

 75
    16
147
1.0
148
0.0
149
0.0
100
AcDbLayout
  1
Layout2
 70
     1
 71
     2
 10
0.0
 20
0.0
 11
0.0
 21
0.0
 12
0.0
 22
0.0
 32
0.0
 14
0.0
 24
0.0
 34
0.0
 15
0.0
 25
0.0
 35
0.0
146
0.0
 13
0.0
 23
0.0
 33
0.0
 16
1.0
 26
0.0
 36
0.0
 17
0.0
 27
1.0
 37
0.0
 76
     0
330
23
  0
LAYOUT
  5
22
102
{ACAD_REACTORS
330
1A
102
}
330
1A
100
AcDbPlotSettings
  1

  2
none_device
  4
ANSI_A_(11.00_x_8.50_Inches)
  6

 40
6.35
 41
19.05
 42
6.35000508
 43
19.05000254
 44
279.4
 45
215.9
 46
76.40317549079084
 47
80.85989750737367
 48
0.0
 49
0.0
140
0.0
141
0.0
142
0.0509944409367187
143
1.0
 70
  1696
 72
     0
 73
     0
 74
     0
  7

 75
     0
147
0.0235690232323232
148
0.0
149
0.0
100
AcDbLayout
  1
Model
 70
     1
 71
     0
 10
0.0
 20
0.0
 11
420.0
 21
297.0
 12
0.0
 22
0.0
 32
0.0
 14
-61.34875000000005
 24
-49.97180738881174
 34
0.0
 15
81.41936447236121
 25
42.05843837155771
 35
0.0
146
0.0
 13
0.0
 23
0.0
 33
0.0
 16
1.0
 26
0.0
 36
0.0
 17
0.0
 27
1.0
 37
0.0
 76
     0
330
1F
331
29
  0
MLINESTYLE
  5
18
102
{ACAD_REACTORS
330
17
102
}
330
17
100
AcDbMlineStyle
  2
Standard
 70
     0
  3

 62
   256
 51
90.0
 52
90.0
 71
     2
 49
0.5
 62
   256
  6
BYLAYER
 49
-0.5
 62
   256
  6
BYLAYER
  0
ACDBPLACEHOLDER
  5
F
102
{ACAD_REACTORS
330
E
102
}
330
E
  0
SCALE
  5
48
102
{ACAD_REACTORS
330
47
102
}
330
47
100
AcDbScale
 70
     0
300
1:1
140
1.0
141
1.0
290
     1
  0
SCALE
  5
49
102
{ACAD_REACTORS
330
47
102
}
330
47
100
AcDbScale
 70
     0
300
1:2
140
1.0
141
2.0
290
     0
  0
SCALE
  5
4A
102
{ACAD_REACTORS
330
47
102
}
330
47
100
AcDbScale
 70
     0
300
1:4
140
1.0
141
4.0
290
     0
  0
SCALE
  5
4B
102
{ACAD_REACTORS
330
47
102
}
330
47
100
AcDbScale
 70
     0
300
1:5
140
1.0
141
5.0
290
     0
  0
SCALE
  5
4C
102
{ACAD_REACTORS
330
47
102
}
330
47
100
AcDbScale
 70
     0
300
1:8
140
1.0
141
8.0
290
     0
  0
SCALE
  5
4D
102
{ACAD_REACTORS
330
47
102
}
330
47
100
AcDbScale
 70
     0
300
1:10
140
1.0
141
10.0
290
     0
  0
SCALE
  5
4E
102
{ACAD_REACTORS
330
47
102
}
330
47
100
AcDbScale
 70
     0
300
1:16
140
1.0
141
16.0
290
     0
  0
SCALE
  5
4F
102
{ACAD_REACTORS
330
47
102
}
330
47
100
AcDbScale
 70
     0
300
1:20
140
1.0
141
20.0
290
     0
  0
SCALE
  5
50
102
{ACAD_REACTORS
330
47
102
}
330
47
100
AcDbScale
 70
     0
300
1:30
140
1.0
141
30.0
290
     0
  0
SCALE
  5
51
102
{ACAD_REACTORS
330
47
102
}
330
47
100
AcDbScale
 70
     0
300
1:40
140
1.0
141
40.0
290
     0
  0
SCALE
  5
52
102
{ACAD_REACTORS
330
47
102
}
330
47
100
AcDbScale
 70
     0
300
1:50
140
1.0
141
50.0
290
     0
  0
SCALE
  5
53
102
{ACAD_REACTORS
330
47
102
}
330
47
100
AcDbScale
 70
     0
300
1:100
140
1.0
141
100.0
290
     0
  0
SCALE
  5
54
102
{ACAD_REACTORS
330
47
102
}
330
47
100
AcDbScale
 70
     0
300
2:1
140
2.0
141
1.0
290
     0
  0
SCALE
  5
55
102
{ACAD_REACTORS
330
47
102
}
330
47
100
AcDbScale
 70
     0
300
4:1
140
4.0
141
1.0
290
     0
  0
SCALE
  5
56
102
{ACAD_REACTORS
330
47
102
}
330
47
100
AcDbScale
 70
     0
300
8:1
140
8.0
141
1.0
290
     0
  0
SCALE
  5
57
102
{ACAD_REACTORS
330
47
102
}
330
47
100
AcDbScale
 70
     0
300
10:1
140
10.0
141
1.0
290
     0
  0
SCALE
  5
58
102
{ACAD_REACTORS
330
47
102
}
330
47
100
AcDbScale
 70
     0
300
100:1
140
100.0
141
1.0
290
     0
  0
SCALE
  5
59
102
{ACAD_REACTORS
330
47
102
}
330
47
100
AcDbScale
 70
     0
300
1/128" = 1'-0"
140
0.0078125
141
12.0
290
     0
  0
SCALE
  5
5A
102
{ACAD_REACTORS
330
47
102
}
330
47
100
AcDbScale
 70
     0
300
1/64" = 1'-0"
140
0.015625
141
12.0
290
     0
  0
SCALE
  5
5B
102
{ACAD_REACTORS
330
47
102
}
330
47
100
AcDbScale
 70
     0
300
1/32" = 1'-0"
140
0.03125
141
12.0
290
     0
  0
SCALE
  5
5C
102
{ACAD_REACTORS
330
47
102
}
330
47
100
AcDbScale
 70
     0
300
1/16" = 1'-0"
140
0.0625
141
12.0
290
     0
  0
SCALE
  5
5D
102
{ACAD_REACTORS
330
47
102
}
330
47
100
AcDbScale
 70
     0
300
3/32" = 1'-0"
140
0.09375
141
12.0
290
     0
  0
SCALE
  5
5E
102
{ACAD_REACTORS
330
47
102
}
330
47
100
AcDbScale
 70
     0
300
1/8" = 1'-0"
140
0.125
141
12.0
290
     0
  0
SCALE
  5
5F
102
{ACAD_REACTORS
330
47
102
}
330
47
100
AcDbScale
 70
     0
300
3/16" = 1'-0"
140
0.1875
141
12.0
290
     0
  0
SCALE
  5
60
102
{ACAD_REACTORS
330
47
102
}
330
47
100
AcDbScale
 70
     0
300
1/4" = 1'-0"
140
0.25
141
12.0
290
     0
  0
SCALE
  5
61
102
{ACAD_REACTORS
330
47
102
}
330
47
100
AcDbScale
 70
     0
300
3/8" = 1'-0"
140
0.375
141
12.0
290
     0
  0
SCALE
  5
62
102
{ACAD_REACTORS
330
47
102
}
330
47
100
AcDbScale
 70
     0
300
1/2" = 1'-0"
140
0.5
141
12.0
290
     0
  0
SCALE
  5
63
102
{ACAD_REACTORS
330
47
102
}
330
47
100
AcDbScale
 70
     0
300
3/4" = 1'-0"
140
0.75
141
12.0
290
     0
  0
SCALE
  5
64
102
{ACAD_REACTORS
330
47
102
}
330
47
100
AcDbScale
 70
     0
300
1" = 1'-0"
140
1.0
141
12.0
290
     0
  0
SCALE
  5
65
102
{ACAD_REACTORS
330
47
102
}
330
47
100
AcDbScale
 70
     0
300
1-1/2" = 1'-0"
140
1.5
141
12.0
290
     0
  0
SCALE
  5
66
102
{ACAD_REACTORS
330
47
102
}
330
47
100
AcDbScale
 70
     0
300
3" = 1'-0"
140
3.0
141
12.0
290
     0
  0
SCALE
  5
67
102
{ACAD_REACTORS
330
47
102
}
330
47
100
AcDbScale
 70
     0
300
6" = 1'-0"
140
6.0
141
12.0
290
     0
  0
SCALE
  5
68
102
{ACAD_REACTORS
330
47
102
}
330
47
100
AcDbScale
 70
     0
300
1'-0" = 1'-0"
140
12.0
141
12.0
290
     0
  0
ENDSEC
  0
EOF
