  0
SECTION
  2
HEADER
  9
$ACADVER
  1
AC1015
  9
$ACADMAINTVER
 70
     6
  9
$DWGCODEPAGE
  3
ANSI_949
  9
$INSBASE
 10
0.0
 20
0.0
 30
0.0
  9
$EXTMIN
 10
1.000000000000000E+20
 20
1.000000000000000E+20
 30
1.000000000000000E+20
  9
$EXTMAX
 10
-1.000000000000000E+20
 20
-1.000000000000000E+20
 30
-1.000000000000000E+20
  9
$LIMMIN
 10
0.0
 20
0.0
  9
$LIMMAX
 10
420.0
 20
297.0
  9
$ORTHOMODE
 70
     1
  9
$REGENMODE
 70
     1
  9
$FILLMODE
 70
     1
  9
$QTEXTMODE
 70
     0
  9
$MIRRTEXT
 70
     1
  9
$LTSCALE
 40
1.0
  9
$ATTMODE
 70
     1
  9
$TEXTSIZE
 40
3.5
  9
$TRACEWID
 40
1.0
  9
$TEXTSTYLE
  7
Standard
  9
$CLAYER
  8
0
  9
$CELTYPE
  6
ByLayer
  9
$CECOLOR
 62
   256
  9
$CELTSCALE
 40
1.0
  9
$DISPSILH
 70
     0
  9
$DIMSCALE
 40
1.0
  9
$DIMASZ
 40
3.302
  9
$DIMEXO
 40
1.0
  9
$DIMDLI
 40
3.75
  9
$DIMRND
 40
0.0
  9
$DIMDLE
 40
0.0
  9
$DIMEXE
 40
1.0
  9
$DIMTP
 40
0.0
  9
$DIMTM
 40
0.0
  9
$DIMTXT
 40
3.5
  9
$DIMCEN
 40
2.5
  9
$DIMTSZ
 40
0.0
  9
$DIMTOL
 70
     0
  9
$DIMLIM
 70
     0
  9
$DIMTIH
 70
     1
  9
$DIMTOH
 70
     1
  9
$DIMSE1
 70
     0
  9
$DIMSE2
 70
     0
  9
$DIMTAD
 70
     1
  9
$DIMZIN
 70
     0
  9
$DIMBLK
  1

  9
$DIMASO
 70
     1
  9
$DIMSHO
 70
     1
  9
$DIMPOST
  1

  9
$DIMAPOST
  1

  9
$DIMALT
 70
     0
  9
$DIMALTD
 70
     3
  9
$DIMALTF
 40
0.0393700787401575
  9
$DIMLFAC
 40
1.0
  9
$DIMTOFL
 70
     1
  9
$DIMTVP
 40
0.0
  9
$DIMTIX
 70
     0
  9
$DIMSOXD
 70
     0
  9
$DIMSAH
 70
     0
  9
$DIMBLK1
  1

  9
$DIMBLK2
  1

  9
$DIMSTYLE
  2
ISO-25
  9
$DIMCLRD
 70
     0
  9
$DIMCLRE
 70
     0
  9
$DIMCLRT
 70
     0
  9
$DIMTFAC
 40
1.0
  9
$DIMGAP
 40
1.524
  9
$DIMJUST
 70
     0
  9
$DIMSD1
 70
     0
  9
$DIMSD2
 70
     0
  9
$DIMTOLJ
 70
     0
  9
$DIMTZIN
 70
     0
  9
$DIMALTZ
 70
     0
  9
$DIMALTTZ
 70
     0
  9
$DIMUPT
 70
     0
  9
$DIMDEC
 70
     2
  9
$DIMTDEC
 70
     2
  9
$DIMALTU
 70
     2
  9
$DIMALTTD
 70
     3
  9
$DIMTXSTY
  7
Standard
  9
$DIMAUNIT
 70
     0
  9
$DIMADEC
 70
     2
  9
$DIMALTRND
 40
0.0
  9
$DIMAZIN
 70
     0
  9
$DIMDSEP
 70
    44
  9
$DIMATFIT
 70
     3
  9
$DIMFRAC
 70
     0
  9
$DIMLDRBLK
  1

  9
$DIMLUNIT
 70
     2
  9
$DIMLWD
 70
    -2
  9
$DIMLWE
 70
    -2
  9
$DIMTMOVE
 70
     0
  9
$LUNITS
 70
     2
  9
$LUPREC
 70
     2
  9
$SKETCHINC
 40
1.0
  9
$FILLETRAD
 40
10.0
  9
$AUNITS
 70
     0
  9
$AUPREC
 70
     2
  9
$MENU
  1
.
  9
$ELEVATION
 40
0.0
  9
$PELEVATION
 40
0.0
  9
$THICKNESS
 40
0.0
  9
$LIMCHECK
 70
     0
  9
$CHAMFERA
 40
0.0
  9
$CHAMFERB
 40
0.0
  9
$CHAMFERC
 40
0.0
  9
$CHAMFERD
 40
0.0
  9
$SKPOLY
 70
     0
  9
$TDCREATE
 40
2458313.47229522
  9
$TDUCREATE
 40
2458313.09729522
  9
$TDUPDATE
 40
2458319.356481724
  9
$TDUUPDATE
 40
2458318.981481724
  9
$TDINDWG
 40
0.0034566435
  9
$TDUSRTIMER
 40
2458318.981035463
  9
$USRTIMER
 70
     1
  9
$ANGBASE
 50
0.0
  9
$ANGDIR
 70
     0
  9
$PDMODE
 70
     0
  9
$PDSIZE
 40
-1.0
  9
$PLINEWID
 40
0.0
  9
$SPLFRAME
 70
     0
  9
$SPLINETYPE
 70
     6
  9
$SPLINESEGS
 70
     8
  9
$HANDSEED
  5
3B2
  9
$SURFTAB1
 70
     6
  9
$SURFTAB2
 70
     6
  9
$SURFTYPE
 70
     6
  9
$SURFU
 70
     6
  9
$SURFV
 70
     6
  9
$UCSBASE
  2

  9
$UCSNAME
  2

  9
$UCSORG
 10
0.0
 20
0.0
 30
0.0
  9
$UCSXDIR
 10
1.0
 20
0.0
 30
0.0
  9
$UCSYDIR
 10
0.0
 20
1.0
 30
0.0
  9
$UCSORTHOREF
  2

  9
$UCSORTHOVIEW
 70
     0
  9
$UCSORGTOP
 10
0.0
 20
0.0
 30
0.0
  9
$UCSORGBOTTOM
 10
0.0
 20
0.0
 30
0.0
  9
$UCSORGLEFT
 10
0.0
 20
0.0
 30
0.0
  9
$UCSORGRIGHT
 10
0.0
 20
0.0
 30
0.0
  9
$UCSORGFRONT
 10
0.0
 20
0.0
 30
0.0
  9
$UCSORGBACK
 10
0.0
 20
0.0
 30
0.0
  9
$PUCSBASE
  2

  9
$PUCSNAME
  2

  9
$PUCSORG
 10
0.0
 20
0.0
 30
0.0
  9
$PUCSXDIR
 10
1.0
 20
0.0
 30
0.0
  9
$PUCSYDIR
 10
0.0
 20
1.0
 30
0.0
  9
$PUCSORTHOREF
  2

  9
$PUCSORTHOVIEW
 70
     0
  9
$PUCSORGTOP
 10
0.0
 20
0.0
 30
0.0
  9
$PUCSORGBOTTOM
 10
0.0
 20
0.0
 30
0.0
  9
$PUCSORGLEFT
 10
0.0
 20
0.0
 30
0.0
  9
$PUCSORGRIGHT
 10
0.0
 20
0.0
 30
0.0
  9
$PUCSORGFRONT
 10
0.0
 20
0.0
 30
0.0
  9
$PUCSORGBACK
 10
0.0
 20
0.0
 30
0.0
  9
$USERI1
 70
     0
  9
$USERI2
 70
     0
  9
$USERI3
 70
     0
  9
$USERI4
 70
     0
  9
$USERI5
 70
     0
  9
$USERR1
 40
0.0
  9
$USERR2
 40
0.0
  9
$USERR3
 40
0.0
  9
$USERR4
 40
0.0
  9
$USERR5
 40
0.0
  9
$WORLDVIEW
 70
     1
  9
$SHADEDGE
 70
     3
  9
$SHADEDIF
 70
    70
  9
$TILEMODE
 70
     1
  9
$MAXACTVP
 70
    64
  9
$PINSBASE
 10
0.0
 20
0.0
 30
0.0
  9
$PLIMCHECK
 70
     0
  9
$PEXTMIN
 10
1.000000000000000E+20
 20
1.000000000000000E+20
 30
1.000000000000000E+20
  9
$PEXTMAX
 10
-1.000000000000000E+20
 20
-1.000000000000000E+20
 30
-1.000000000000000E+20
  9
$PLIMMIN
 10
0.0
 20
0.0
  9
$PLIMMAX
 10
0.0
 20
0.0
  9
$UNITMODE
 70
     0
  9
$VISRETAIN
 70
     1
  9
$PLINEGEN
 70
     0
  9
$PSLTSCALE
 70
     1
  9
$TREEDEPTH
 70
  3020
  9
$CMLSTYLE
  2
Standard
  9
$CMLJUST
 70
     0
  9
$CMLSCALE
 40
20.0
  9
$PROXYGRAPHICS
 70
     1
  9
$MEASUREMENT
 70
     1
  9
$CELWEIGHT
370
    -1
  9
$ENDCAPS
280
     0
  9
$JOINSTYLE
280
     0
  9
$LWDISPLAY
290
     1
  9
$INSUNITS
 70
     4
  9
$HYPERLINKBASE
  1

  9
$STYLESHEET
  1

  9
$XEDIT
290
     1
  9
$CEPSNTYPE
380
     0
  9
$PSTYLEMODE
290
     1
  9
$FINGERPRINTGUID
  2
{07DFC84E-F7A5-4584-B5A0-774C79638625}
  9
$VERSIONGUID
  2
{FAEB1C32-E019-11D5-929B-00C0DF256EC4}
  9
$EXTNAMES
290
     1
  9
$PSVPSCALE
 40
0.0
  9
$OLESTARTUP
290
     0
  0
ENDSEC
  0
SECTION
  2
CLASSES
  0
CLASS
  1
ACDBDICTIONARYWDFLT
  2
AcDbDictionaryWithDefault
  3
ObjectDBX Classes
 90
        0
280
     0
281
     0
  0
CLASS
  1
VISUALSTYLE
  2
AcDbVisualStyle
  3
ObjectDBX Classes
 90
     4095
280
     0
281
     0
  0
CLASS
  1
MATERIAL
  2
AcDbMaterial
  3
ObjectDBX Classes
 90
     1153
280
     0
281
     0
  0
CLASS
  1
SCALE
  2
AcDbScale
  3
ObjectDBX Classes
 90
     1153
280
     0
281
     0
  0
CLASS
  1
SUN
  2
AcDbSun
  3
SCENEOE
 90
     1153
280
     0
281
     0
  0
CLASS
  1
ACDBPLACEHOLDER
  2
AcDbPlaceHolder
  3
ObjectDBX Classes
 90
        0
280
     0
281
     0
  0
CLASS
  1
LAYOUT
  2
AcDbLayout
  3
ObjectDBX Classes
 90
        0
280
     0
281
     0
  0
CLASS
  1
TABLESTYLE
  2
AcDbTableStyle
  3
ObjectDBX Classes
 90
     4095
280
     0
281
     0
  0
CLASS
  1
MLEADERSTYLE
  2
AcDbMLeaderStyle
  3
ACDB_MLEADERSTYLE_CLASS
 90
     4095
280
     0
281
     0
  0
CLASS
  1
RASTERVARIABLES
  2
AcDbRasterVariables
  3
ISM
 90
        0
280
     0
281
     0
  0
ENDSEC
  0
SECTION
  2
TABLES
  0
TABLE
  2
VPORT
  5
8
330
0
100
AcDbSymbolTable
 70
     1
  0
VPORT
  5
29
330
8
100
AcDbSymbolTableRecord
100
AcDbViewportTableRecord
  2
*Active
 70
     0
 10
0.0
 20
0.0
 11
1.0
 21
1.0
 12
-6.025847293035818
 22
-10.53786278651912
 13
0.0
 23
0.0
 14
10.0
 24
10.0
 15
10.0
 25
10.0
 16
0.0
 26
0.0
 36
1.0
 17
0.0
 27
0.0
 37
0.0
 40
133.4627490440964
 41
1.632093933463796
 42
50.0
 43
0.0
 44
0.0
 50
0.0
 51
0.0
 71
    16
 72
  2000
 73
     1
 74
     3
 75
     0
 76
     0
 77
     0
 78
     0
281
     0
 65
     1
110
0.0
120
0.0
130
0.0
111
1.0
121
0.0
131
0.0
112
0.0
122
1.0
132
0.0
 79
     0
146
0.0
  0
ENDTAB
  0
TABLE
  2
LTYPE
  5
5
330
0
100
AcDbSymbolTable
 70
     6
  0
LTYPE
  5
14
330
5
100
AcDbSymbolTableRecord
100
AcDbLinetypeTableRecord
  2
ByBlock
 70
     0
  3

 72
    65
 73
     0
 40
0.0
  0
LTYPE
  5
15
330
5
100
AcDbSymbolTableRecord
100
AcDbLinetypeTableRecord
  2
ByLayer
 70
     0
  3

 72
    65
 73
     0
 40
0.0
  0
LTYPE
  5
16
330
5
100
AcDbSymbolTableRecord
100
AcDbLinetypeTableRecord
  2
Continuous
 70
     0
  3
Solid line
 72
    65
 73
     0
 40
0.0
  0
LTYPE
  5
6A
330
5
100
AcDbSymbolTableRecord
100
AcDbLinetypeTableRecord
  2
HIDDEN
 70
     0
  3
Hidden __ __ __ __ __ __ __ __ __ __ __ __ __ __
 72
    65
 73
     2
 40
1.905
 49
1.27
 74
     0
 49
-0.635
 74
     0
  0
LTYPE
  5
6B
330
5
100
AcDbSymbolTableRecord
100
AcDbLinetypeTableRecord
  2
PHANTOM
 70
     0
  3
Phantom ______  __  __  ______  __  __  ______
 72
    65
 73
     6
 40
12.7
 49
6.35
 74
     0
 49
-1.27
 74
     0
 49
1.27
 74
     0
 49
-1.27
 74
     0
 49
1.27
 74
     0
 49
-1.27
 74
     0
  0
LTYPE
  5
6C
330
5
100
AcDbSymbolTableRecord
100
AcDbLinetypeTableRecord
  2
CENTER
 70
     0
  3
Center ____ _ ____ _ ____ _ ____ _ ____ _ ____
 72
    65
 73
     4
 40
10.16
 49
6.35
 74
     0
 49
-1.27
 74
     0
 49
1.27
 74
     0
 49
-1.27
 74
     0
  0
LTYPE
  5
6D
330
5
100
AcDbSymbolTableRecord
100
AcDbLinetypeTableRecord
  2
CENTERX2
 70
     0
  3
Center (2x) ________  __  ________  __  _____
 72
    65
 73
     4
 40
20.32
 49
12.7
 74
     0
 49
-2.54
 74
     0
 49
2.54
 74
     0
 49
-2.54
 74
     0
  0
LTYPE
  5
6E
330
5
100
AcDbSymbolTableRecord
100
AcDbLinetypeTableRecord
  2
DOT2
 70
     0
  3
Dot (.5x) ........................................
 72
    65
 73
     2
 40
0.635
 49
0.0
 74
     0
 49
-0.635
 74
     0
  0
ENDTAB
  0
TABLE
  2
LAYER
  5
2
102
{ACAD_XDICTIONARY
360
1CF
102
}
330
0
100
AcDbSymbolTable
 70
    18
  0
LAYER
  5
10
330
2
100
AcDbSymbolTableRecord
100
AcDbLayerTableRecord
  2
0
 70
     0
 62
     7
  6
Continuous
370
    -3
390
F
  0
LAYER
  5
6F
330
2
100
AcDbSymbolTableRecord
100
AcDbLayerTableRecord
  2
FORMAT
 70
     0
 62
     2
  6
Continuous
370
    -3
390
F
  0
LAYER
  5
70
330
2
100
AcDbSymbolTableRecord
100
AcDbLayerTableRecord
  2
외형선
 70
     0
 62
     4
  6
Continuous
370
    30
390
F
  0
LAYER
  5
71
330
2
100
AcDbSymbolTableRecord
100
AcDbLayerTableRecord
  2
숨은선
 70
     0
 62
     2
  6
HIDDEN
370
    15
390
F
  0
LAYER
  5
72
330
2
100
AcDbSymbolTableRecord
100
AcDbLayerTableRecord
  2
중심선
 70
     0
 62
     1
  6
CENTERX2
370
    -3
390
F
  0
LAYER
  5
73
330
2
100
AcDbSymbolTableRecord
100
AcDbLayerTableRecord
  2
파단선
 70
     0
 62
     4
  6
Continuous
370
    -3
390
F
  0
LAYER
  5
74
330
2
100
AcDbSymbolTableRecord
100
AcDbLayerTableRecord
  2
해칭선
 70
     0
 62
   100
  6
Continuous
370
    -3
390
F
  0
LAYER
  5
75
330
2
100
AcDbSymbolTableRecord
100
AcDbLayerTableRecord
  2
가는실선
 70
     0
 62
     4
  6
Continuous
370
    -3
390
F
  0
LAYER
  5
76
330
2
100
AcDbSymbolTableRecord
100
AcDbLayerTableRecord
  2
치수_보조선
 70
     0
 62
     4
  6
Continuous
370
    -3
390
F
  0
LAYER
  5
77
330
2
100
AcDbSymbolTableRecord
100
AcDbLayerTableRecord
  2
치수문자_일반주서
 70
     0
 62
     7
  6
Continuous
370
    15
390
F
  0
LAYER
  5
78
330
2
100
AcDbSymbolTableRecord
100
AcDbLayerTableRecord
  2
개별주서
 70
     0
 62
   100
  6
Continuous
370
    30
390
F
  0
LAYER
  5
79
330
2
100
AcDbSymbolTableRecord
100
AcDbLayerTableRecord
  2
중간선
 70
     0
 62
     2
  6
Continuous
370
    15
390
F
  0
LAYER
  5
7A
330
2
100
AcDbSymbolTableRecord
100
AcDbLayerTableRecord
  2
윤곽선
 70
     0
 62
     3
  6
Continuous
370
    40
390
F
  0
LAYER
  5
7B
330
2
100
AcDbSymbolTableRecord
100
AcDbLayerTableRecord
  2
중심마크
 70
     0
 62
   100
  6
Continuous
370
    30
390
F
  0
LAYER
  5
7C
330
2
100
AcDbSymbolTableRecord
100
AcDbLayerTableRecord
  2
가상선
 70
     0
 62
     4
  6
PHANTOM
370
    -3
390
F
  0
LAYER
  5
7D
330
2
100
AcDbSymbolTableRecord
100
AcDbLayerTableRecord
  2
특수지정선
 70
     0
 62
     5
  6
CENTERX2
370
    60
390
F
  0
LAYER
  5
7E
330
2
100
AcDbSymbolTableRecord
100
AcDbLayerTableRecord
  2
참조1
 70
     0
 62
    -4
  6
Continuous
370
    -3
390
F
  0
LAYER
  5
151
330
2
100
AcDbSymbolTableRecord
100
AcDbLayerTableRecord
  2
Defpoints
 70
     0
 62
     7
  6
Continuous
290
     0
370
    -3
390
F
  0
ENDTAB
  0
TABLE
  2
STYLE
  5
3
330
0
100
AcDbSymbolTable
 70
     2
  0
STYLE
  5
11
330
3
100
AcDbSymbolTableRecord
100
AcDbTextStyleTableRecord
  2
Standard
 70
     0
 40
0.0
 41
1.0
 50
0.0
 71
     0
 42
3.5
  3
txt
  4

  0
STYLE
  5
94
330
3
100
AcDbSymbolTableRecord
100
AcDbTextStyleTableRecord
  2
SLDTEXTSTYLE0
 70
     0
 40
0.0
 41
0.75
 50
0.0
 71
     0
 42
3.5
  3
TXT
  4

  0
ENDTAB
  0
TABLE
  2
VIEW
  5
6
330
0
100
AcDbSymbolTable
 70
     0
  0
ENDTAB
  0
TABLE
  2
UCS
  5
7
330
0
100
AcDbSymbolTable
 70
     0
  0
ENDTAB
  0
TABLE
  2
APPID
  5
9
330
0
100
AcDbSymbolTable
 70
     1
  0
APPID
  5
12
330
9
100
AcDbSymbolTableRecord
100
AcDbRegAppTableRecord
  2
ACAD
 70
     0
  0
ENDTAB
  0
TABLE
  2
DIMSTYLE
  5
A
330
0
100
AcDbSymbolTable
 70
     4
100
AcDbDimStyleTable
  0
DIMSTYLE
105
27
330
A
100
AcDbSymbolTableRecord
100
AcDbDimStyleTableRecord
  2
ISO-25
 70
     0
 41
2.5
 42
0.625
 43
3.75
 44
1.25
 73
     0
 74
     0
 77
     1
 78
     8
140
2.5
141
2.5
143
0.03937007874016
147
0.625
171
     3
172
     1
178
     0
271
     2
272
     2
274
     3
278
    44
283
     0
284
     8
340
11
  0
DIMSTYLE
105
CE
330
A
100
AcDbSymbolTableRecord
100
AcDbDimStyleTableRecord
  2
SLDDIMSTYLE0
 70
     0
 41
3.302
 44
0.0
 45
0.000000001
 73
     0
 74
     0
 77
     1
 78
    12
 79
     3
140
3.5
143
0.0393700787401575
147
0.875
148
0.000000001
170
     1
173
     1
178
     0
271
     2
272
     2
276
     2
284
    12
340
94
  0
DIMSTYLE
105
F6
330
A
100
AcDbSymbolTableRecord
100
AcDbDimStyleTableRecord
  2
SLDDIMSTYLE1
 70
     0
 41
3.302
 44
0.0
 45
0.000000001
 73
     0
 74
     0
 77
     1
 78
     4
 79
     1
140
3.5
143
0.0393700787401575
147
0.875
148
0.000000001
170
     1
173
     1
178
     0
271
     2
272
     2
276
     2
284
    12
340
94
  0
DIMSTYLE
105
10A
102
{ACAD_REACTORS
330
109
330
CD
330
E1
330
F5
102
}
330
A
100
AcDbSymbolTableRecord
100
AcDbDimStyleTableRecord
  2
SLDDIMSTYLE2
 70
     0
 41
3.302
 44
0.0
 45
0.000000001
 73
     0
 74
     0
 77
     1
 78
    12
 79
     3
140
3.5
143
0.0393700787401575
147
0.875
148
0.000000001
170
     1
172
     1
173
     1
178
     0
271
     2
272
     2
276
     2
284
    12
289
     0
340
94
  0
ENDTAB
  0
TABLE
  2
BLOCK_RECORD
  5
1
330
0
100
AcDbSymbolTable
 70
    20
  0
BLOCK_RECORD
  5
1F
330
1
100
AcDbSymbolTableRecord
100
AcDbBlockTableRecord
  2
*Model_Space
340
22
  0
BLOCK_RECORD
  5
1B
330
1
100
AcDbSymbolTableRecord
100
AcDbBlockTableRecord
  2
*Paper_Space
340
1E
  0
BLOCK_RECORD
  5
23
330
1
100
AcDbSymbolTableRecord
100
AcDbBlockTableRecord
  2
*Paper_Space0
340
26
  0
BLOCK_RECORD
  5
7F
330
1
100
AcDbSymbolTableRecord
100
AcDbBlockTableRecord
  2
블럭10
340
0
102
{BLKREFS
331
C6
102
}
  0
BLOCK_RECORD
  5
CF
330
1
100
AcDbSymbolTableRecord
100
AcDbBlockTableRecord
  2
_D
340
0
  0
BLOCK_RECORD
  5
E2
330
1
100
AcDbSymbolTableRecord
100
AcDbBlockTableRecord
  2
_D_1
340
0
  0
BLOCK_RECORD
  5
F7
330
1
100
AcDbSymbolTableRecord
100
AcDbBlockTableRecord
  2
_D_2
340
0
  0
BLOCK_RECORD
  5
10B
330
1
100
AcDbSymbolTableRecord
100
AcDbBlockTableRecord
  2
_D_3
340
0
  0
BLOCK_RECORD
  5
125
330
1
100
AcDbSymbolTableRecord
100
AcDbBlockTableRecord
  2
SW_DOWELSYMBOL_0
340
0
102
{BLKREFS
331
12B
331
334
102
}
  0
BLOCK_RECORD
  5
1D3
330
1
100
AcDbSymbolTableRecord
100
AcDbBlockTableRecord
  2
*D7
340
0
  0
BLOCK_RECORD
  5
1E2
330
1
100
AcDbSymbolTableRecord
100
AcDbBlockTableRecord
  2
*D8
340
0
  0
BLOCK_RECORD
  5
1F1
330
1
100
AcDbSymbolTableRecord
100
AcDbBlockTableRecord
  2
*D9
340
0
  0
BLOCK_RECORD
  5
223
330
1
100
AcDbSymbolTableRecord
100
AcDbBlockTableRecord
  2
*D10
340
0
  0
BLOCK_RECORD
  5
232
330
1
100
AcDbSymbolTableRecord
100
AcDbBlockTableRecord
  2
*D11
340
0
  0
BLOCK_RECORD
  5
241
330
1
100
AcDbSymbolTableRecord
100
AcDbBlockTableRecord
  2
*D12
340
0
  0
BLOCK_RECORD
  5
2DE
330
1
100
AcDbSymbolTableRecord
100
AcDbBlockTableRecord
  2
*D13
340
0
  0
BLOCK_RECORD
  5
2ED
330
1
100
AcDbSymbolTableRecord
100
AcDbBlockTableRecord
  2
*D14
340
0
  0
BLOCK_RECORD
  5
2FC
330
1
100
AcDbSymbolTableRecord
100
AcDbBlockTableRecord
  2
*D15
340
0
  0
BLOCK_RECORD
  5
335
330
1
100
AcDbSymbolTableRecord
100
AcDbBlockTableRecord
  2
*D16
340
0
  0
BLOCK_RECORD
  5
344
330
1
100
AcDbSymbolTableRecord
100
AcDbBlockTableRecord
  2
*D17
340
0
  0
BLOCK_RECORD
  5
353
330
1
100
AcDbSymbolTableRecord
100
AcDbBlockTableRecord
  2
*D18
340
0
  0
ENDTAB
  0
ENDSEC
  0
SECTION
  2
BLOCKS
  0
BLOCK
  5
20
330
1F
100
AcDbEntity
  8
0
100
AcDbBlockBegin
  2
*Model_Space
 70
     0
 10
0.0
 20
0.0
 30
0.0
  3
*Model_Space
  1
*Model_Space
  0
ENDBLK
  5
21
330
1F
100
AcDbEntity
  8
0
100
AcDbBlockEnd
  0
BLOCK
  5
1C
330
1B
100
AcDbEntity
 67
     1
  8
0
100
AcDbBlockBegin
  2
*Paper_Space
 70
     0
 10
0.0
 20
0.0
 30
0.0
  3
*Paper_Space
  1
*Paper_Space
  0
ENDBLK
  5
1D
330
1B
100
AcDbEntity
 67
     1
  8
0
100
AcDbBlockEnd
  0
BLOCK
  5
24
330
23
100
AcDbEntity
  8
0
100
AcDbBlockBegin
  2
*Paper_Space0
 70
     0
 10
0.0
 20
0.0
 30
0.0
  3
*Paper_Space0
  1
*Paper_Space0
  0
ENDBLK
  5
25
330
23
100
AcDbEntity
  8
0
100
AcDbBlockEnd
  0
BLOCK
  5
80
330
7F
100
AcDbEntity
  8
0
100
AcDbBlockBegin
  2
블럭10
 70
     2
 10
0.0
 20
0.0
 30
0.0
  3
블럭10
  1
블럭10
  0
ELLIPSE
  5
82
330
7F
100
AcDbEntity
  8
중심선
100
AcDbEllipse
 10
20.54032771741204
 20
12.0471743016438
 30
0.0
 11
6.600054785286829
 21
-1.261213355974178E-13
 31
0.0
210
0.0
220
0.0
230
1.0
 40
0.636358354079598
 41
0.9219305317359503
 42
6.513795318482858
  0
ELLIPSE
  5
83
330
7F
100
AcDbEntity
  8
중심선
100
AcDbEllipse
 10
20.54032771746488
 20
12.04717430159265
 30
0.0
 11
3.960054785062283
 21
1.540847449632565E-10
 31
0.0
210
0.0
220
0.0
230
1.0
 40
0.3939339440162632
 41
1.131841032648279
 42
5.62031148352944
  0
LINE
  5
84
330
7F
100
AcDbEntity
  8
중심선
100
AcDbLine
 10
2.268634060543552
 20
16.24717430164393
 30
0.0
 11
5.714909304380834
 21
16.24717430164393
 31
0.0
  0
LINE
  5
85
330
7F
100
AcDbEntity
  8
중심선
100
AcDbLine
 10
5.245725140726316
 20
7.84717430164391
 30
0.0
 11
8.692000384563599
 21
7.84717430164391
 31
0.0
  0
LINE
  5
86
330
7F
100
AcDbEntity
  8
중심선
100
AcDbLine
 10
15.74043728645272
 20
16.24717430164393
 30
0.0
 11
8.692000384563599
 21
7.84717430164391
 31
0.0
  0
LINE
  5
87
330
7F
100
AcDbEntity
  8
중심선
100
AcDbLine
 10
0.1404042013395286
 20
13.71084872107135
 30
0.0
 11
3.58671253028996
 21
13.71088815037384
 31
0.0
  0
LINE
  5
88
330
7F
100
AcDbEntity
  8
중심선
100
AcDbLine
 10
2.750260043222114
 20
10.84717430164391
 30
0.0
 11
6.196535287059397
 21
10.84717430164391
 31
0.0
  0
LINE
  5
89
330
7F
100
AcDbEntity
  8
중심선
100
AcDbLine
 10
12.29416204261559
 20
16.24717430164393
 30
0.0
 11
5.245725140726316
 21
7.84717430164391
 31
0.0
  0
LINE
  5
8A
330
7F
100
AcDbEntity
  8
중심선
100
AcDbLine
 10
10.72767329541681
 20
16.24717430164393
 30
0.0
 11
6.196535287059397
 21
10.84717430164391
 31
0.0
  0
LINE
  5
8B
330
7F
100
AcDbEntity
  8
중심선
100
AcDbLine
 10
7.28139805157953
 20
16.24717430164393
 30
0.0
 11
2.750260043222114
 21
10.84717430164391
 31
0.0
  0
LINE
  5
8C
330
7F
100
AcDbEntity
  8
중심선
100
AcDbLine
 10
5.714909304380834
 20
16.24717430164393
 30
0.0
 11
3.58671253028996
 21
13.71088815037384
 31
0.0
  0
LINE
  5
8D
330
7F
100
AcDbEntity
  8
중심선
100
AcDbLine
 10
2.268634060543552
 20
16.24717430164393
 30
0.0
 11
0.1404042013395286
 21
13.71084872107135
 31
0.0
  0
LINE
  5
8E
330
7F
100
AcDbEntity
  8
중심선
100
AcDbLine
 10
7.28139805157953
 20
16.24717430164393
 30
0.0
 11
10.72767329541681
 21
16.24717430164393
 31
0.0
  0
LINE
  5
8F
330
7F
100
AcDbEntity
  8
중심선
100
AcDbLine
 10
12.29416204261559
 20
16.24717430164393
 30
0.0
 11
15.74043728645272
 21
16.24717430164393
 31
0.0
  0
LINE
  5
90
330
7F
100
AcDbEntity
  8
중심선
100
AcDbLine
 10
19.22036997980202
 20
11.08717430171403
 30
0.0
 11
23.66174974927406
 21
11.08717430171406
 31
0.0
  0
LINE
  5
91
330
7F
100
AcDbEntity
  8
중심선
100
AcDbLine
 10
19.22039502424796
 20
13.00717430171391
 30
0.0
 11
19.22036997980202
 21
11.08717430171403
 31
0.0
  0
LINE
  5
92
330
7F
100
AcDbEntity
  8
중심선
100
AcDbLine
 10
19.22039502424796
 20
13.00717430171391
 30
0.0
 11
26.96566020931264
 21
13.00717430171391
 31
0.0
  0
LINE
  5
93
330
7F
100
AcDbEntity
  8
중심선
100
AcDbLine
 10
22.22332737316547
 20
13.45928029700563
 30
0.0
 11
24.52862924686651
 21
15.39360700705356
 31
0.0
  0
ATTDEF
  5
95
330
7F
100
AcDbEntity
  8
FORMAT
 62
     2
100
AcDbText
 10
4.408487351596664
 20
2.075366912832191
 30
0.0
 40
4.233333333333333
  1
E1053023
 41
0.75
  7
SLDTEXTSTYLE0
 11
4.408487351596664
 21
-0.0412997538344756
 31
0.0
100
AcDbAttributeDefinition
  3

  2
AUTOATTR0
 70
     0
 74
     1
  0
ENDBLK
  5
81
330
7F
100
AcDbEntity
  8
0
100
AcDbBlockEnd
  0
BLOCK
  5
D0
330
CF
100
AcDbEntity
  8
0
100
AcDbBlockBegin
  2
_D
 70
     0
 10
0.0
 20
0.0
 30
0.0
  3
_D
  1
_D
  0
LINE
  5
D2
330
CF
100
AcDbEntity
  8
치수문자_일반주서
 62
     0
370
    -2
100
AcDbLine
 10
44.51250000000002
 20
4.564062500000006
 30
0.0
 11
59.27636970912467
 21
4.564062500000059
 31
0.0
  0
LINE
  5
D3
330
CF
100
AcDbEntity
  8
치수문자_일반주서
 62
     0
370
    -2
100
AcDbLine
 10
44.51250000000002
 20
-4.564062499999993
 30
0.0
 11
59.27636970912469
 21
-4.564062499999938
 31
0.0
  0
LINE
  5
D4
330
CF
100
AcDbEntity
  8
치수문자_일반주서
 62
     0
370
    -2
100
AcDbLine
 10
59.27636970912467
 20
4.564062500000059
 30
0.0
 11
59.27636970912454
 21
41.79306250000006
 31
0.0
  0
LINE
  5
D5
330
CF
100
AcDbEntity
  8
치수문자_일반주서
 62
     0
370
    -2
100
AcDbLine
 10
59.27636970912467
 20
4.564062500000059
 30
0.0
 11
59.27636970912469
 21
-4.564062499999938
 31
0.0
  0
LINE
  5
D6
330
CF
100
AcDbEntity
  8
치수문자_일반주서
 62
     0
370
    -2
100
AcDbLine
 10
59.27636970912466
 20
7.866062500000059
 30
0.0
 11
59.27636970912465
 21
11.16806250000006
 31
0.0
  0
LINE
  5
D7
330
CF
100
AcDbEntity
  8
치수문자_일반주서
 62
     0
370
    -2
100
AcDbLine
 10
59.2763697091247
 20
-7.866062499999938
 30
0.0
 11
59.27636970912471
 21
-11.16806249999994
 31
0.0
  0
SOLID
  5
D8
330
CF
100
AcDbEntity
  8
치수문자_일반주서
 62
     0
100
AcDbTrace
 10
58.72603637579132
 20
7.866062500000057
 30
0.0
 11
59.82670304245799
 21
7.86606250000006
 31
0.0
 12
59.27636970912467
 22
4.564062500000059
 32
0.0
 13
59.27636970912467
 23
4.564062500000059
 33
0.0
  0
SOLID
  5
D9
330
CF
100
AcDbEntity
  8
치수문자_일반주서
 62
     0
100
AcDbTrace
 10
59.82670304245804
 20
-7.866062499999936
 30
0.0
 11
58.72603637579137
 21
-7.86606249999994
 31
0.0
 12
59.27636970912469
 22
-4.564062499999938
 32
0.0
 13
59.27636970912469
 23
-4.564062499999938
 33
0.0
  0
MTEXT
  5
DA
330
CF
100
AcDbEntity
  8
치수문자_일반주서
 62
     0
100
AcDbMText
 10
54.90136970912459
 20
26.48056250000004
 30
0.0
 40
3.5
 41
0.0
 71
     2
 72
     1
  1
\A1;%%c9.13 [23/64]
  7
SLDTEXTSTYLE0
 11
-3.113641567178803E-15
 21
1.0
 31
0.0
 73
     1
 44
1.0
  0
POINT
  5
DB
330
CF
100
AcDbEntity
  8
Defpoints
 62
     0
100
AcDbPoint
 10
44.45000000000002
 20
4.564062500000006
 30
0.0
  0
POINT
  5
24D
330
CF
100
AcDbEntity
  8
Defpoints
 62
     0
100
AcDbPoint
 10
44.45000000000002
 20
-4.564062499999993
 30
0.0
  0
POINT
  5
24E
330
CF
100
AcDbEntity
  8
Defpoints
 62
     0
100
AcDbPoint
 10
59.27636970912469
 20
-4.564062499999938
 30
0.0
  0
ENDBLK
  5
D1
330
CF
100
AcDbEntity
  8
0
100
AcDbBlockEnd
  0
BLOCK
  5
E3
330
E2
100
AcDbEntity
  8
0
100
AcDbBlockBegin
  2
_D_1
 70
     0
 10
0.0
 20
0.0
 30
0.0
  3
_D_1
  1
_D_1
  0
LINE
  5
E5
330
E2
100
AcDbEntity
  8
치수문자_일반주서
 62
     0
370
    -2
100
AcDbLine
 10
44.45000000000002
 20
4.626562500000006
 30
0.0
 11
44.45000000000002
 21
16.96338261770565
 31
0.0
  0
LINE
  5
E6
330
E2
100
AcDbEntity
  8
치수문자_일반주서
 62
     0
370
    -2
100
AcDbLine
 10
25.40000000000001
 20
4.430728095054447
 30
0.0
 11
25.40000000000001
 21
16.96338261770565
 31
0.0
  0
LINE
  5
E7
330
E2
100
AcDbEntity
  8
치수문자_일반주서
 62
     0
370
    -2
100
AcDbLine
 10
25.40000000000001
 20
16.96338261770565
 30
0.0
 11
-6.141499999999986
 21
16.96338261770565
 31
0.0
  0
LINE
  5
E8
330
E2
100
AcDbEntity
  8
치수문자_일반주서
 62
     0
370
    -2
100
AcDbLine
 10
44.45000000000002
 20
16.96338261770565
 30
0.0
 11
25.40000000000001
 21
16.96338261770565
 31
0.0
  0
LINE
  5
E9
330
E2
100
AcDbEntity
  8
치수문자_일반주서
 62
     0
370
    -2
100
AcDbLine
 10
47.75200000000002
 20
16.96338261770565
 30
0.0
 11
51.05400000000002
 21
16.96338261770565
 31
0.0
  0
LINE
  5
EA
330
E2
100
AcDbEntity
  8
치수문자_일반주서
 62
     0
370
    -2
100
AcDbLine
 10
22.09800000000001
 20
16.96338261770565
 30
0.0
 11
18.79600000000001
 21
16.96338261770565
 31
0.0
  0
SOLID
  5
EB
330
E2
100
AcDbEntity
  8
치수문자_일반주서
 62
     0
100
AcDbTrace
 10
47.75200000000002
 20
17.51371595103899
 30
0.0
 11
47.75200000000002
 21
16.41304928437232
 31
0.0
 12
44.45000000000002
 22
16.96338261770565
 32
0.0
 13
44.45000000000002
 23
16.96338261770565
 33
0.0
  0
SOLID
  5
EC
330
E2
100
AcDbEntity
  8
치수문자_일반주서
 62
     0
100
AcDbTrace
 10
22.09800000000001
 20
16.41304928437232
 30
0.0
 11
22.09800000000001
 21
17.51371595103899
 31
0.0
 12
25.40000000000001
 22
16.96338261770565
 32
0.0
 13
25.40000000000001
 23
16.96338261770565
 33
0.0
  0
MTEXT
  5
ED
330
E2
100
AcDbEntity
  8
치수문자_일반주서
 62
     0
100
AcDbMText
 10
6.327250000000014
 20
21.33838261770565
 30
0.0
 40
3.5
 41
0.0
 71
     2
 72
     1
  1
\A1;19.05 [3/4]
  7
SLDTEXTSTYLE0
 73
     1
 44
1.0
  0
POINT
  5
EE
330
E2
100
AcDbEntity
  8
Defpoints
 62
     0
100
AcDbPoint
 10
44.45000000000002
 20
4.564062500000006
 30
0.0
  0
POINT
  5
24F
330
E2
100
AcDbEntity
  8
Defpoints
 62
     0
100
AcDbPoint
 10
25.40000000000001
 20
4.368228095054447
 30
0.0
  0
POINT
  5
250
330
E2
100
AcDbEntity
  8
Defpoints
 62
     0
100
AcDbPoint
 10
25.40000000000001
 20
16.96338261770565
 30
0.0
  0
ENDBLK
  5
E4
330
E2
100
AcDbEntity
  8
0
100
AcDbBlockEnd
  0
BLOCK
  5
F8
330
F7
100
AcDbEntity
  8
0
100
AcDbBlockBegin
  2
_D_2
 70
     0
 10
0.0
 20
0.0
 30
0.0
  3
_D_2
  1
_D_2
  0
LINE
  5
FA
330
F7
100
AcDbEntity
  8
치수문자_일반주서
 62
     0
370
    -2
100
AcDbLine
 10
44.45000000000002
 20
4.626562500000006
 30
0.0
 11
44.45000000000002
 21
31.85061685550115
 31
0.0
  0
LINE
  5
FB
330
F7
100
AcDbEntity
  8
치수문자_일반주서
 62
     0
370
    -2
100
AcDbLine
 10
-44.45000000000006
 20
4.626562499999991
 30
0.0
 11
-44.45000000000006
 21
31.85061685550115
 31
0.0
  0
LINE
  5
FC
330
F7
100
AcDbEntity
  8
치수문자_일반주서
 62
     0
370
    -2
100
AcDbLine
 10
41.14800000000002
 20
31.85061685550115
 30
0.0
 11
-41.14800000000006
 21
31.85061685550115
 31
0.0
  0
SOLID
  5
FD
330
F7
100
AcDbEntity
  8
치수문자_일반주서
 62
     0
100
AcDbTrace
 10
41.14800000000002
 20
31.30028352216782
 30
0.0
 11
41.14800000000002
 21
32.40095018883449
 31
0.0
 12
44.45000000000002
 22
31.85061685550115
 32
0.0
 13
44.45000000000002
 23
31.85061685550115
 33
0.0
  0
SOLID
  5
FE
330
F7
100
AcDbEntity
  8
치수문자_일반주서
 62
     0
100
AcDbTrace
 10
-41.14800000000006
 20
32.40095018883449
 30
0.0
 11
-41.14800000000006
 21
31.30028352216782
 31
0.0
 12
-44.45000000000006
 22
31.85061685550115
 32
0.0
 13
-44.45000000000006
 23
31.85061685550115
 33
0.0
  0
MTEXT
  5
FF
330
F7
100
AcDbEntity
  8
치수문자_일반주서
 62
     0
100
AcDbMText
 10
1.294510046131606
 20
36.22561685550115
 30
0.0
 40
3.5
 41
0.0
 71
     2
 72
     1
  1
\A1;88.9 [3 1/2]
  7
SLDTEXTSTYLE0
 73
     1
 44
1.0
  0
POINT
  5
100
330
F7
100
AcDbEntity
  8
Defpoints
 62
     0
100
AcDbPoint
 10
44.45000000000002
 20
4.564062500000006
 30
0.0
  0
POINT
  5
101
330
F7
100
AcDbEntity
  8
Defpoints
 62
     0
100
AcDbPoint
 10
-44.45000000000006
 20
4.564062499999991
 30
0.0
  0
POINT
  5
102
330
F7
100
AcDbEntity
  8
Defpoints
 62
     0
100
AcDbPoint
 10
-44.45000000000006
 20
31.85061685550115
 30
0.0
  0
ENDBLK
  5
F9
330
F7
100
AcDbEntity
  8
0
100
AcDbBlockEnd
  0
BLOCK
  5
10C
330
10B
100
AcDbEntity
  8
0
100
AcDbBlockBegin
  2
_D_3
 70
     0
 10
0.0
 20
0.0
 30
0.0
  3
_D_3
  1
_D_3
  0
LINE
  5
10E
330
10B
100
AcDbEntity
  8
치수문자_일반주서
 62
     0
370
    -2
100
AcDbLine
 10
-23.72192116787305
 20
4.76250000000001
 30
0.0
 11
-56.97375000000002
 21
4.762499999999886
 31
0.0
  0
LINE
  5
10F
330
10B
100
AcDbEntity
  8
치수문자_일반주서
 62
     0
370
    -2
100
AcDbLine
 10
-23.72192116787305
 20
-4.76250000000001
 30
0.0
 11
-56.97374999999999
 21
-4.762500000000134
 31
0.0
  0
LINE
  5
110
330
10B
100
AcDbEntity
  8
치수문자_일반주서
 62
     0
370
    -2
100
AcDbLine
 10
-56.97375000000001
 20
1.460499999999886
 30
0.0
 11
-56.97375
 21
-1.460500000000135
 31
0.0
  0
SOLID
  5
111
330
10B
100
AcDbEntity
  8
치수문자_일반주서
 62
     0
100
AcDbTrace
 10
-56.42341666666668
 20
1.460499999999888
 30
0.0
 11
-57.52408333333334
 21
1.460499999999884
 31
0.0
 12
-56.97375000000002
 22
4.762499999999886
 32
0.0
 13
-56.97375000000002
 23
4.762499999999886
 33
0.0
  0
SOLID
  5
112
330
10B
100
AcDbEntity
  8
치수문자_일반주서
 62
     0
100
AcDbTrace
 10
-57.52408333333334
 20
-1.460500000000137
 30
0.0
 11
-56.42341666666667
 21
-1.460500000000133
 31
0.0
 12
-56.97374999999999
 22
-4.762500000000134
 32
0.0
 13
-56.97374999999999
 23
-4.762500000000134
 33
0.0
  0
MTEXT
  5
113
330
10B
100
AcDbEntity
  8
치수문자_일반주서
 62
     0
100
AcDbMText
 10
-61.34875000000001
 20
-0.0000000000000156
 30
0.0
 40
3.5
 41
0.0
 71
     2
 72
     1
  1
\A1;%%c9.53 [3/8]
  7
SLDTEXTSTYLE0
 11
-3.729883127349599E-15
 21
1.0
 31
0.0
 73
     1
 44
1.0
  0
POINT
  5
114
330
10B
100
AcDbEntity
  8
Defpoints
 62
     0
100
AcDbPoint
 10
-23.65942116787305
 20
4.76250000000001
 30
0.0
  0
POINT
  5
115
330
10B
100
AcDbEntity
  8
Defpoints
 62
     0
100
AcDbPoint
 10
-23.65942116787305
 20
-4.76250000000001
 30
0.0
  0
POINT
  5
116
330
10B
100
AcDbEntity
  8
Defpoints
 62
     0
100
AcDbPoint
 10
-56.97374999999999
 20
-4.762500000000134
 30
0.0
  0
ENDBLK
  5
10D
330
10B
100
AcDbEntity
  8
0
100
AcDbBlockEnd
  0
BLOCK
  5
126
330
125
100
AcDbEntity
  8
0
100
AcDbBlockBegin
  2
SW_DOWELSYMBOL_0
 70
     0
 10
0.0
 20
0.0
 30
0.0
  3
SW_DOWELSYMBOL_0
  1
SW_DOWELSYMBOL_0
  0
CIRCLE
  5
128
330
125
100
AcDbEntity
  8
해칭선
 62
     0
100
AcDbCircle
 10
0.0
 20
0.0
 30
0.0
 40
3.000000000000008
  0
HATCH
  5
129
330
125
100
AcDbEntity
  8
0
  6
Continuous
 62
     0
370
     0
100
AcDbHatch
 10
0.0
 20
0.0
 30
0.0
210
0.0
220
0.0
230
1.0
  2
SOLID
 70
     1
 71
     0
 91
        1
 92
        0
 93
        3
 72
     2
 10
0.0
 20
0.0
 40
3.000000000000008
 50
0.0
 51
90.0
 73
     1
 72
     1
 10
0.0
 20
3.000000000000008
 11
0.0
 21
0.0
 72
     1
 10
0.0
 20
0.0
 11
3.00000000000001
 21
0.0
 97
        0
 75
     0
 76
     1
 98
        1
 10
0.0
 20
0.0
  0
HATCH
  5
12A
330
125
100
AcDbEntity
  8
0
  6
Continuous
 62
     0
370
     0
100
AcDbHatch
 10
0.0
 20
0.0
 30
0.0
210
0.0
220
0.0
230
1.0
  2
SOLID
 70
     1
 71
     0
 91
        1
 92
        0
 93
        3
 72
     2
 10
0.0
 20
0.0
 40
3.000000000000008
 50
180.0
 51
270.0000000000007
 73
     1
 72
     1
 10
0.0
 20
-3.000000000000008
 11
0.0
 21
0.0
 72
     1
 10
0.0
 20
0.0
 11
-3.00000000000001
 21
0.0
 97
        0
 75
     0
 76
     1
 98
        1
 10
0.0
 20
0.0
  0
ENDBLK
  5
127
330
125
100
AcDbEntity
  8
0
100
AcDbBlockEnd
  0
BLOCK
  5
1D4
330
1D3
100
AcDbEntity
  8
0
100
AcDbBlockBegin
  2
*D7
 70
     1
 10
0.0
 20
0.0
 30
0.0
  3
*D7
  1
*D8
  0
LINE
  5
1D6
330
1D3
100
AcDbEntity
  8
치수문자_일반주서
 62
     0
370
    -2
100
AcDbLine
 10
130.0625
 20
22.47899999999995
 30
0.0
 11
142.8962514825415
 21
22.479
 31
0.0
  0
LINE
  5
1D7
330
1D3
100
AcDbEntity
  8
치수문자_일반주서
 62
     0
370
    -2
100
AcDbLine
 10
130.0625
 20
6.603999999999949
 30
0.0
 11
142.8962514825415
 21
6.603999999999999
 31
0.0
  0
LINE
  5
1D8
330
1D3
100
AcDbEntity
  8
치수문자_일반주서
 62
     0
370
    -2
100
AcDbLine
 10
142.8962514825415
 20
22.479
 30
0.0
 11
142.8962514825413
 21
57.08300000000003
 31
0.0
  0
LINE
  5
1D9
330
1D3
100
AcDbEntity
  8
치수문자_일반주서
 62
     0
370
    -2
100
AcDbLine
 10
142.8962514825415
 20
22.479
 30
0.0
 11
142.8962514825415
 21
6.603999999999999
 31
0.0
  0
LINE
  5
1DA
330
1D3
100
AcDbEntity
  8
치수문자_일반주서
 62
     0
370
    -2
100
AcDbLine
 10
142.8962514825415
 20
25.781
 30
0.0
 11
142.8962514825415
 21
29.083
 31
0.0
  0
LINE
  5
1DB
330
1D3
100
AcDbEntity
  8
치수문자_일반주서
 62
     0
370
    -2
100
AcDbLine
 10
142.8962514825415
 20
3.302
 30
0.0
 11
142.8962514825415
 21
0.0
 31
0.0
  0
SOLID
  5
1DC
330
1D3
100
AcDbEntity
  8
치수문자_일반주서
 62
     0
100
AcDbTrace
 10
142.3459181492081
 20
25.781
 30
0.0
 11
143.4465848158748
 21
25.781
 31
0.0
 12
142.8962514825415
 22
22.479
 32
0.0
 13
142.8962514825415
 23
22.479
 33
0.0
  0
SOLID
  5
1DD
330
1D3
100
AcDbEntity
  8
치수문자_일반주서
 62
     0
100
AcDbTrace
 10
143.4465848158748
 20
3.302000000000001
 30
0.0
 11
142.3459181492082
 21
3.301999999999998
 31
0.0
 12
142.8962514825415
 22
6.603999999999999
 32
0.0
 13
142.8962514825415
 23
6.603999999999999
 33
0.0
  0
MTEXT
  5
1DE
330
1D3
100
AcDbEntity
  8
치수문자_일반주서
 62
     0
100
AcDbMText
 10
138.5212514825414
 20
43.08300000000002
 30
0.0
 40
3.5
 41
0.0
 71
     2
 72
     1
  1
\A1;%%c15.88 [5/8]
  7
SLDTEXTSTYLE0
 11
-3.580687802255622E-15
 21
1.0
 31
0.0
 73
     1
 44
1.0
  0
POINT
  5
1DF
330
1D3
100
AcDbEntity
  8
Defpoints
 62
     0
100
AcDbPoint
 10
130.0
 20
22.47899999999995
 30
0.0
  0
POINT
  5
1E0
330
1D3
100
AcDbEntity
  8
Defpoints
 62
     0
100
AcDbPoint
 10
130.0
 20
6.603999999999949
 30
0.0
  0
POINT
  5
1E1
330
1D3
100
AcDbEntity
  8
Defpoints
 62
     0
100
AcDbPoint
 10
142.8962514825415
 20
6.603999999999997
 30
0.0
  0
ENDBLK
  5
1D5
330
1D3
100
AcDbEntity
  8
0
100
AcDbBlockEnd
  0
BLOCK
  5
1E3
330
1E2
100
AcDbEntity
  8
0
100
AcDbBlockBegin
  2
*D8
 70
     1
 10
0.0
 20
0.0
 30
0.0
  3
*D8
  1
*D9
  0
LINE
  5
1E5
330
1E2
100
AcDbEntity
  8
치수문자_일반주서
 62
     0
370
    -2
100
AcDbLine
 10
130.0
 20
22.54149999999995
 30
0.0
 11
130.0
 21
37.62929445861226
 31
0.0
  0
LINE
  5
1E6
330
1E2
100
AcDbEntity
  8
치수문자_일반주서
 62
     0
370
    -2
100
AcDbLine
 10
95.07499999999999
 20
22.43567931419957
 30
0.0
 11
95.07499999999999
 21
37.62929445861226
 31
0.0
  0
LINE
  5
1E7
330
1E2
100
AcDbEntity
  8
치수문자_일반주서
 62
     0
370
    -2
100
AcDbLine
 10
95.07499999999999
 20
37.62929445861226
 30
0.0
 11
46.53722462421234
 21
37.62929445861226
 31
0.0
  0
LINE
  5
1E8
330
1E2
100
AcDbEntity
  8
치수문자_일반주서
 62
     0
370
    -2
100
AcDbLine
 10
130.0
 20
37.62929445861226
 30
0.0
 11
95.07499999999999
 21
37.62929445861226
 31
0.0
  0
LINE
  5
1E9
330
1E2
100
AcDbEntity
  8
치수문자_일반주서
 62
     0
370
    -2
100
AcDbLine
 10
133.302
 20
37.62929445861226
 30
0.0
 11
136.604
 21
37.62929445861226
 31
0.0
  0
LINE
  5
1EA
330
1E2
100
AcDbEntity
  8
치수문자_일반주서
 62
     0
370
    -2
100
AcDbLine
 10
91.773
 20
37.62929445861226
 30
0.0
 11
88.471
 21
37.62929445861226
 31
0.0
  0
SOLID
  5
1EB
330
1E2
100
AcDbEntity
  8
치수문자_일반주서
 62
     0
100
AcDbTrace
 10
133.302
 20
38.1796277919456
 30
0.0
 11
133.302
 21
37.07896112527893
 31
0.0
 12
130.0
 22
37.62929445861226
 32
0.0
 13
130.0
 23
37.62929445861226
 33
0.0
  0
SOLID
  5
1EC
330
1E2
100
AcDbEntity
  8
치수문자_일반주서
 62
     0
100
AcDbTrace
 10
91.773
 20
37.07896112527893
 30
0.0
 11
91.773
 21
38.1796277919456
 31
0.0
 12
95.07499999999999
 22
37.62929445861226
 32
0.0
 13
95.07499999999999
 23
37.62929445861226
 33
0.0
  0
MTEXT
  5
1ED
330
1E2
100
AcDbEntity
  8
치수문자_일반주서
 62
     0
100
AcDbMText
 10
61.84972462421234
 20
42.00429445861226
 30
0.0
 40
3.5
 41
0.0
 71
     2
 72
     1
  1
\A1;34.93 [1 3/8]
  7
SLDTEXTSTYLE0
 73
     1
 44
1.0
  0
POINT
  5
1EE
330
1E2
100
AcDbEntity
  8
Defpoints
 62
     0
100
AcDbPoint
 10
130.0
 20
22.47899999999995
 30
0.0
  0
POINT
  5
1EF
330
1E2
100
AcDbEntity
  8
Defpoints
 62
     0
100
AcDbPoint
 10
95.07499999999999
 20
22.37317931419957
 30
0.0
  0
POINT
  5
1F0
330
1E2
100
AcDbEntity
  8
Defpoints
 62
     0
100
AcDbPoint
 10
95.07499999999999
 20
37.62929445861226
 30
0.0
  0
ENDBLK
  5
1E4
330
1E2
100
AcDbEntity
  8
0
100
AcDbBlockEnd
  0
BLOCK
  5
1F2
330
1F1
100
AcDbEntity
  8
0
100
AcDbBlockBegin
  2
*D9
 70
     1
 10
0.0
 20
0.0
 30
0.0
  3
*D9
  1
*D10
  0
LINE
  5
1F4
330
1F1
100
AcDbEntity
  8
치수문자_일반주서
 62
     0
370
    -2
100
AcDbLine
 10
130.0
 20
22.54149999999995
 30
0.0
 11
130.0
 21
51.70545781729388
 31
0.0
  0
LINE
  5
1F5
330
1F1
100
AcDbEntity
  8
치수문자_일반주서
 62
     0
370
    -2
100
AcDbLine
 10
3.000000000000007
 20
20.95399999999994
 30
0.0
 11
3.000000000000007
 21
51.70545781729388
 31
0.0
  0
LINE
  5
1F6
330
1F1
100
AcDbEntity
  8
치수문자_일반주서
 62
     0
370
    -2
100
AcDbLine
 10
126.698
 20
51.70545781729388
 30
0.0
 11
6.302000000000007
 21
51.70545781729388
 31
0.0
  0
SOLID
  5
1F7
330
1F1
100
AcDbEntity
  8
치수문자_일반주서
 62
     0
100
AcDbTrace
 10
126.698
 20
51.15512448396054
 30
0.0
 11
126.698
 21
52.25579115062721
 31
0.0
 12
130.0
 22
51.70545781729388
 32
0.0
 13
130.0
 23
51.70545781729388
 33
0.0
  0
SOLID
  5
1F8
330
1F1
100
AcDbEntity
  8
치수문자_일반주서
 62
     0
100
AcDbTrace
 10
6.302000000000007
 20
52.25579115062721
 30
0.0
 11
6.302000000000007
 21
51.15512448396054
 31
0.0
 12
3.000000000000007
 22
51.70545781729388
 32
0.0
 13
3.000000000000007
 23
51.70545781729388
 33
0.0
  0
MTEXT
  5
1F9
330
1F1
100
AcDbEntity
  8
치수문자_일반주서
 62
     0
100
AcDbMText
 10
62.25190072017467
 20
56.08045781729388
 30
0.0
 40
3.5
 41
0.0
 71
     2
 72
     1
  1
\A1;127 [5]
  7
SLDTEXTSTYLE0
 73
     1
 44
1.0
  0
POINT
  5
1FA
330
1F1
100
AcDbEntity
  8
Defpoints
 62
     0
100
AcDbPoint
 10
130.0
 20
22.47899999999995
 30
0.0
  0
POINT
  5
1FB
330
1F1
100
AcDbEntity
  8
Defpoints
 62
     0
100
AcDbPoint
 10
3.000000000000007
 20
20.89149999999994
 30
0.0
  0
POINT
  5
1FC
330
1F1
100
AcDbEntity
  8
Defpoints
 62
     0
100
AcDbPoint
 10
3.000000000000007
 20
51.70545781729388
 30
0.0
  0
ENDBLK
  5
1F3
330
1F1
100
AcDbEntity
  8
0
100
AcDbBlockEnd
  0
BLOCK
  5
224
330
223
100
AcDbEntity
  8
0
100
AcDbBlockBegin
  2
*D10
 70
     1
 10
0.0
 20
0.0
 30
0.0
  3
*D10
  1
*D11
  0
LINE
  5
226
330
223
100
AcDbEntity
  8
치수문자_일반주서
 62
     0
370
    -2
100
AcDbLine
 10
220.4445963791034
 20
-35.7817919654263
 30
0.0
 11
233.2783478616449
 21
-35.78179196542625
 31
0.0
  0
LINE
  5
227
330
223
100
AcDbEntity
  8
치수문자_일반주서
 62
     0
370
    -2
100
AcDbLine
 10
220.4445963791034
 20
-51.6567919654263
 30
0.0
 11
233.2783478616449
 21
-51.65679196542625
 31
0.0
  0
LINE
  5
228
330
223
100
AcDbEntity
  8
치수문자_일반주서
 62
     0
370
    -2
100
AcDbLine
 10
233.2783478616449
 20
-35.78179196542625
 30
0.0
 11
233.2783478616447
 21
-1.177791965426216
 31
0.0
  0
LINE
  5
229
330
223
100
AcDbEntity
  8
치수문자_일반주서
 62
     0
370
    -2
100
AcDbLine
 10
233.2783478616449
 20
-35.78179196542625
 30
0.0
 11
233.2783478616449
 21
-51.65679196542625
 31
0.0
  0
LINE
  5
22A
330
223
100
AcDbEntity
  8
치수문자_일반주서
 62
     0
370
    -2
100
AcDbLine
 10
233.2783478616449
 20
-32.47979196542625
 30
0.0
 11
233.2783478616449
 21
-29.17779196542625
 31
0.0
  0
LINE
  5
22B
330
223
100
AcDbEntity
  8
치수문자_일반주서
 62
     0
370
    -2
100
AcDbLine
 10
233.2783478616449
 20
-54.95879196542625
 30
0.0
 11
233.2783478616449
 21
-58.26079196542625
 31
0.0
  0
SOLID
  5
22C
330
223
100
AcDbEntity
  8
치수문자_일반주서
 62
     0
100
AcDbTrace
 10
232.7280145283115
 20
-32.47979196542625
 30
0.0
 11
233.8286811949782
 21
-32.47979196542625
 31
0.0
 12
233.2783478616449
 22
-35.78179196542625
 32
0.0
 13
233.2783478616449
 23
-35.78179196542625
 33
0.0
  0
SOLID
  5
22D
330
223
100
AcDbEntity
  8
치수문자_일반주서
 62
     0
100
AcDbTrace
 10
233.8286811949783
 20
-54.95879196542625
 30
0.0
 11
232.7280145283116
 21
-54.95879196542625
 31
0.0
 12
233.2783478616449
 22
-51.65679196542625
 32
0.0
 13
233.2783478616449
 23
-51.65679196542625
 33
0.0
  0
MTEXT
  5
22E
330
223
100
AcDbEntity
  8
치수문자_일반주서
 62
     0
100
AcDbMText
 10
228.9033478616448
 20
-15.17779196542623
 30
0.0
 40
3.5
 41
0.0
 71
     2
 72
     1
  1
\A1;%%c15.88 [5/8]
  7
SLDTEXTSTYLE0
 11
-3.580687802255623E-15
 21
1.0
 31
0.0
 73
     1
 44
1.0
  0
POINT
  5
22F
330
223
100
AcDbEntity
  8
Defpoints
 62
     0
100
AcDbPoint
 10
220.3820963791034
 20
-35.7817919654263
 30
0.0
  0
POINT
  5
230
330
223
100
AcDbEntity
  8
Defpoints
 62
     0
100
AcDbPoint
 10
220.3820963791034
 20
-51.6567919654263
 30
0.0
  0
POINT
  5
231
330
223
100
AcDbEntity
  8
Defpoints
 62
     0
100
AcDbPoint
 10
233.2783478616449
 20
-51.65679196542625
 30
0.0
  0
ENDBLK
  5
225
330
223
100
AcDbEntity
  8
0
100
AcDbBlockEnd
  0
BLOCK
  5
233
330
232
100
AcDbEntity
  8
0
100
AcDbBlockBegin
  2
*D11
 70
     1
 10
0.0
 20
0.0
 30
0.0
  3
*D11
  1
*D12
  0
LINE
  5
235
330
232
100
AcDbEntity
  8
치수문자_일반주서
 62
     0
370
    -2
100
AcDbLine
 10
220.3820963791034
 20
-35.7192919654263
 30
0.0
 11
220.3820963791034
 21
-20.63149750681399
 31
0.0
  0
LINE
  5
236
330
232
100
AcDbEntity
  8
치수문자_일반주서
 62
     0
370
    -2
100
AcDbLine
 10
185.4570963791034
 20
-35.82511265122668
 30
0.0
 11
185.4570963791034
 21
-20.63149750681399
 31
0.0
  0
LINE
  5
237
330
232
100
AcDbEntity
  8
치수문자_일반주서
 62
     0
370
    -2
100
AcDbLine
 10
185.4570963791034
 20
-20.63149750681399
 30
0.0
 11
136.9193210033158
 21
-20.63149750681399
 31
0.0
  0
LINE
  5
238
330
232
100
AcDbEntity
  8
치수문자_일반주서
 62
     0
370
    -2
100
AcDbLine
 10
220.3820963791034
 20
-20.63149750681399
 30
0.0
 11
185.4570963791034
 21
-20.63149750681399
 31
0.0
  0
LINE
  5
239
330
232
100
AcDbEntity
  8
치수문자_일반주서
 62
     0
370
    -2
100
AcDbLine
 10
223.6840963791034
 20
-20.63149750681399
 30
0.0
 11
226.9860963791034
 21
-20.63149750681399
 31
0.0
  0
LINE
  5
23A
330
232
100
AcDbEntity
  8
치수문자_일반주서
 62
     0
370
    -2
100
AcDbLine
 10
182.1550963791034
 20
-20.63149750681399
 30
0.0
 11
178.8530963791034
 21
-20.63149750681399
 31
0.0
  0
SOLID
  5
23B
330
232
100
AcDbEntity
  8
치수문자_일반주서
 62
     0
100
AcDbTrace
 10
223.6840963791034
 20
-20.08116417348065
 30
0.0
 11
223.6840963791034
 21
-21.18183084014732
 31
0.0
 12
220.3820963791034
 22
-20.63149750681399
 32
0.0
 13
220.3820963791034
 23
-20.63149750681399
 33
0.0
  0
SOLID
  5
23C
330
232
100
AcDbEntity
  8
치수문자_일반주서
 62
     0
100
AcDbTrace
 10
182.1550963791034
 20
-21.18183084014732
 30
0.0
 11
182.1550963791034
 21
-20.08116417348065
 31
0.0
 12
185.4570963791034
 22
-20.63149750681399
 32
0.0
 13
185.4570963791034
 23
-20.63149750681399
 33
0.0
  0
MTEXT
  5
23D
330
232
100
AcDbEntity
  8
치수문자_일반주서
 62
     0
100
AcDbMText
 10
152.2318210033158
 20
-16.25649750681399
 30
0.0
 40
3.5
 41
0.0
 71
     2
 72
     1
  1
\A1;34.93 [1 3/8]
  7
SLDTEXTSTYLE0
 73
     1
 44
1.0
  0
POINT
  5
23E
330
232
100
AcDbEntity
  8
Defpoints
 62
     0
100
AcDbPoint
 10
220.3820963791034
 20
-35.7817919654263
 30
0.0
  0
POINT
  5
23F
330
232
100
AcDbEntity
  8
Defpoints
 62
     0
100
AcDbPoint
 10
185.4570963791034
 20
-35.88761265122668
 30
0.0
  0
POINT
  5
240
330
232
100
AcDbEntity
  8
Defpoints
 62
     0
100
AcDbPoint
 10
185.4570963791034
 20
-20.63149750681399
 30
0.0
  0
ENDBLK
  5
234
330
232
100
AcDbEntity
  8
0
100
AcDbBlockEnd
  0
BLOCK
  5
242
330
241
100
AcDbEntity
  8
0
100
AcDbBlockBegin
  2
*D12
 70
     1
 10
0.0
 20
0.0
 30
0.0
  3
*D12
  1
*D13
  0
LINE
  5
244
330
241
100
AcDbEntity
  8
치수문자_일반주서
 62
     0
370
    -2
100
AcDbLine
 10
220.3820963791034
 20
-35.7192919654263
 30
0.0
 11
220.3820963791034
 21
-6.555334148132374
 31
0.0
  0
LINE
  5
245
330
241
100
AcDbEntity
  8
치수문자_일반주서
 62
     0
370
    -2
100
AcDbLine
 10
93.38209637910342
 20
-37.30679196542631
 30
0.0
 11
93.38209637910342
 21
-6.555334148132374
 31
0.0
  0
LINE
  5
246
330
241
100
AcDbEntity
  8
치수문자_일반주서
 62
     0
370
    -2
100
AcDbLine
 10
217.0800963791034
 20
-6.555334148132374
 30
0.0
 11
96.68409637910341
 21
-6.555334148132374
 31
0.0
  0
SOLID
  5
247
330
241
100
AcDbEntity
  8
치수문자_일반주서
 62
     0
100
AcDbTrace
 10
217.0800963791034
 20
-7.105667481465708
 30
0.0
 11
217.0800963791034
 21
-6.005000814799041
 31
0.0
 12
220.3820963791034
 22
-6.555334148132374
 32
0.0
 13
220.3820963791034
 23
-6.555334148132374
 33
0.0
  0
SOLID
  5
248
330
241
100
AcDbEntity
  8
치수문자_일반주서
 62
     0
100
AcDbTrace
 10
96.68409637910341
 20
-6.005000814799041
 30
0.0
 11
96.68409637910341
 21
-7.105667481465708
 31
0.0
 12
93.38209637910342
 22
-6.555334148132374
 32
0.0
 13
93.38209637910342
 23
-6.555334148132374
 33
0.0
  0
MTEXT
  5
249
330
241
100
AcDbEntity
  8
치수문자_일반주서
 62
     0
100
AcDbMText
 10
152.6339970992781
 20
-2.180334148132374
 30
0.0
 40
3.5
 41
0.0
 71
     2
 72
     1
  1
\A1;127 [5]
  7
SLDTEXTSTYLE0
 73
     1
 44
1.0
  0
POINT
  5
24A
330
241
100
AcDbEntity
  8
Defpoints
 62
     0
100
AcDbPoint
 10
220.3820963791034
 20
-35.7817919654263
 30
0.0
  0
POINT
  5
24B
330
241
100
AcDbEntity
  8
Defpoints
 62
     0
100
AcDbPoint
 10
93.38209637910342
 20
-37.36929196542631
 30
0.0
  0
POINT
  5
24C
330
241
100
AcDbEntity
  8
Defpoints
 62
     0
100
AcDbPoint
 10
93.38209637910342
 20
-6.555334148132374
 30
0.0
  0
ENDBLK
  5
243
330
241
100
AcDbEntity
  8
0
100
AcDbBlockEnd
  0
BLOCK
  5
2DF
330
2DE
100
AcDbEntity
  8
0
100
AcDbBlockBegin
  2
*D13
 70
     1
 10
0.0
 20
0.0
 30
0.0
  3
*D13
  1
*D15
  0
LINE
  5
2E1
330
2DE
100
AcDbEntity
  8
치수문자_일반주서
 62
     0
370
    -2
100
AcDbLine
 10
91.96250000000002
 20
15.73212499999994
 30
0.0
 11
106.7263697091247
 21
15.732125
 31
0.0
  0
LINE
  5
2E2
330
2DE
100
AcDbEntity
  8
치수문자_일반주서
 62
     0
370
    -2
100
AcDbLine
 10
91.96250000000002
 20
6.603999999999944
 30
0.0
 11
106.7263697091247
 21
6.603999999999996
 31
0.0
  0
LINE
  5
2E3
330
2DE
100
AcDbEntity
  8
치수문자_일반주서
 62
     0
370
    -2
100
AcDbLine
 10
106.7263697091247
 20
15.732125
 30
0.0
 11
106.7263697091246
 21
52.961125
 31
0.0
  0
LINE
  5
2E4
330
2DE
100
AcDbEntity
  8
치수문자_일반주서
 62
     0
370
    -2
100
AcDbLine
 10
106.7263697091247
 20
15.732125
 30
0.0
 11
106.7263697091247
 21
6.603999999999996
 31
0.0
  0
LINE
  5
2E5
330
2DE
100
AcDbEntity
  8
치수문자_일반주서
 62
     0
370
    -2
100
AcDbLine
 10
106.7263697091247
 20
19.034125
 30
0.0
 11
106.7263697091246
 21
22.336125
 31
0.0
  0
LINE
  5
2E6
330
2DE
100
AcDbEntity
  8
치수문자_일반주서
 62
     0
370
    -2
100
AcDbLine
 10
106.7263697091247
 20
3.301999999999996
 30
0.0
 11
106.7263697091247
 21
-0.0000000000000036
 31
0.0
  0
SOLID
  5
2E7
330
2DE
100
AcDbEntity
  8
치수문자_일반주서
 62
     0
100
AcDbTrace
 10
106.1760363757913
 20
19.034125
 30
0.0
 11
107.276703042458
 21
19.034125
 31
0.0
 12
106.7263697091247
 22
15.732125
 32
0.0
 13
106.7263697091247
 23
15.732125
 33
0.0
  0
SOLID
  5
2E8
330
2DE
100
AcDbEntity
  8
치수문자_일반주서
 62
     0
100
AcDbTrace
 10
107.276703042458
 20
3.301999999999998
 30
0.0
 11
106.1760363757914
 21
3.301999999999994
 31
0.0
 12
106.7263697091247
 22
6.603999999999996
 32
0.0
 13
106.7263697091247
 23
6.603999999999996
 33
0.0
  0
MTEXT
  5
2E9
330
2DE
100
AcDbEntity
  8
치수문자_일반주서
 62
     0
100
AcDbMText
 10
102.3513697091246
 20
37.64862499999998
 30
0.0
 40
3.5
 41
0.0
 71
     2
 72
     1
  1
\A1;%%c9.13 [23/64]
  7
SLDTEXTSTYLE0
 11
-3.113641567178803E-15
 21
1.0
 31
0.0
 73
     1
 44
1.0
  0
POINT
  5
2EA
330
2DE
100
AcDbEntity
  8
Defpoints
 62
     0
100
AcDbPoint
 10
91.90000000000002
 20
15.73212499999994
 30
0.0
  0
POINT
  5
2EB
330
2DE
100
AcDbEntity
  8
Defpoints
 62
     0
100
AcDbPoint
 10
91.90000000000002
 20
6.603999999999944
 30
0.0
  0
POINT
  5
2EC
330
2DE
100
AcDbEntity
  8
Defpoints
 62
     0
100
AcDbPoint
 10
106.7263697091247
 20
6.603999999999999
 30
0.0
  0
ENDBLK
  5
2E0
330
2DE
100
AcDbEntity
  8
0
100
AcDbBlockEnd
  0
BLOCK
  5
2EE
330
2ED
100
AcDbEntity
  8
0
100
AcDbBlockBegin
  2
*D14
 70
     1
 10
0.0
 20
0.0
 30
0.0
  3
*D14
  1
*D16
  0
LINE
  5
2F0
330
2ED
100
AcDbEntity
  8
치수문자_일반주서
 62
     0
370
    -2
100
AcDbLine
 10
91.90000000000002
 20
15.79462499999994
 30
0.0
 11
91.90000000000002
 21
28.13144511770559
 31
0.0
  0
LINE
  5
2F1
330
2ED
100
AcDbEntity
  8
치수문자_일반주서
 62
     0
370
    -2
100
AcDbLine
 10
72.85000000000002
 20
15.59879059505439
 30
0.0
 11
72.85000000000002
 21
28.13144511770559
 31
0.0
  0
LINE
  5
2F2
330
2ED
100
AcDbEntity
  8
치수문자_일반주서
 62
     0
370
    -2
100
AcDbLine
 10
72.85000000000002
 20
28.13144511770559
 30
0.0
 11
41.30850000000002
 21
28.13144511770559
 31
0.0
  0
LINE
  5
2F3
330
2ED
100
AcDbEntity
  8
치수문자_일반주서
 62
     0
370
    -2
100
AcDbLine
 10
91.90000000000002
 20
28.13144511770559
 30
0.0
 11
72.85000000000002
 21
28.13144511770559
 31
0.0
  0
LINE
  5
2F4
330
2ED
100
AcDbEntity
  8
치수문자_일반주서
 62
     0
370
    -2
100
AcDbLine
 10
95.20200000000003
 20
28.13144511770559
 30
0.0
 11
98.50400000000002
 21
28.13144511770559
 31
0.0
  0
LINE
  5
2F5
330
2ED
100
AcDbEntity
  8
치수문자_일반주서
 62
     0
370
    -2
100
AcDbLine
 10
69.54800000000003
 20
28.13144511770559
 30
0.0
 11
66.24600000000004
 21
28.13144511770559
 31
0.0
  0
SOLID
  5
2F6
330
2ED
100
AcDbEntity
  8
치수문자_일반주서
 62
     0
100
AcDbTrace
 10
95.20200000000003
 20
28.68177845103893
 30
0.0
 11
95.20200000000003
 21
27.58111178437226
 31
0.0
 12
91.90000000000002
 22
28.13144511770559
 32
0.0
 13
91.90000000000002
 23
28.13144511770559
 33
0.0
  0
SOLID
  5
2F7
330
2ED
100
AcDbEntity
  8
치수문자_일반주서
 62
     0
100
AcDbTrace
 10
69.54800000000003
 20
27.58111178437226
 30
0.0
 11
69.54800000000003
 21
28.68177845103893
 31
0.0
 12
72.85000000000002
 22
28.13144511770559
 32
0.0
 13
72.85000000000002
 23
28.13144511770559
 33
0.0
  0
MTEXT
  5
2F8
330
2ED
100
AcDbEntity
  8
치수문자_일반주서
 62
     0
100
AcDbMText
 10
53.77725000000002
 20
32.5064451177056
 30
0.0
 40
3.5
 41
0.0
 71
     2
 72
     1
  1
\A1;19.05 [3/4]
  7
SLDTEXTSTYLE0
 73
     1
 44
1.0
  0
POINT
  5
2F9
330
2ED
100
AcDbEntity
  8
Defpoints
 62
     0
100
AcDbPoint
 10
91.90000000000002
 20
15.73212499999994
 30
0.0
  0
POINT
  5
2FA
330
2ED
100
AcDbEntity
  8
Defpoints
 62
     0
100
AcDbPoint
 10
72.85000000000002
 20
15.53629059505439
 30
0.0
  0
POINT
  5
2FB
330
2ED
100
AcDbEntity
  8
Defpoints
 62
     0
100
AcDbPoint
 10
72.85000000000002
 20
28.13144511770559
 30
0.0
  0
ENDBLK
  5
2EF
330
2ED
100
AcDbEntity
  8
0
100
AcDbBlockEnd
  0
BLOCK
  5
2FD
330
2FC
100
AcDbEntity
  8
0
100
AcDbBlockBegin
  2
*D15
 70
     1
 10
0.0
 20
0.0
 30
0.0
  3
*D15
  1
*D17
  0
LINE
  5
2FF
330
2FC
100
AcDbEntity
  8
치수문자_일반주서
 62
     0
370
    -2
100
AcDbLine
 10
91.90000000000002
 20
15.79462499999994
 30
0.0
 11
91.9
 21
43.01867935550109
 31
0.0
  0
LINE
  5
300
330
2FC
100
AcDbEntity
  8
치수문자_일반주서
 62
     0
370
    -2
100
AcDbLine
 10
3.000000000000007
 20
15.04056249999994
 30
0.0
 11
2.999999999999993
 21
43.01867935550109
 31
0.0
  0
LINE
  5
301
330
2FC
100
AcDbEntity
  8
치수문자_일반주서
 62
     0
370
    -2
100
AcDbLine
 10
88.59800000000001
 20
43.01867935550109
 30
0.0
 11
6.301999999999992
 21
43.01867935550109
 31
0.0
  0
SOLID
  5
302
330
2FC
100
AcDbEntity
  8
치수문자_일반주서
 62
     0
100
AcDbTrace
 10
88.59800000000001
 20
42.46834602216776
 30
0.0
 11
88.59800000000001
 21
43.56901268883443
 31
0.0
 12
91.9
 22
43.01867935550109
 32
0.0
 13
91.9
 23
43.01867935550109
 33
0.0
  0
SOLID
  5
303
330
2FC
100
AcDbEntity
  8
치수문자_일반주서
 62
     0
100
AcDbTrace
 10
6.301999999999992
 20
43.56901268883443
 30
0.0
 11
6.301999999999992
 21
42.46834602216776
 31
0.0
 12
2.999999999999993
 22
43.01867935550109
 32
0.0
 13
2.999999999999993
 23
43.01867935550109
 33
0.0
  0
MTEXT
  5
304
330
2FC
100
AcDbEntity
  8
치수문자_일반주서
 62
     0
100
AcDbMText
 10
48.74451004613161
 20
47.39367935550109
 30
0.0
 40
3.5
 41
0.0
 71
     2
 72
     1
  1
\A1;88.9 [3 1/2]
  7
SLDTEXTSTYLE0
 73
     1
 44
1.0
  0
POINT
  5
305
330
2FC
100
AcDbEntity
  8
Defpoints
 62
     0
100
AcDbPoint
 10
91.90000000000002
 20
15.73212499999994
 30
0.0
  0
POINT
  5
306
330
2FC
100
AcDbEntity
  8
Defpoints
 62
     0
100
AcDbPoint
 10
3.000000000000007
 20
14.97806249999994
 30
0.0
  0
POINT
  5
307
330
2FC
100
AcDbEntity
  8
Defpoints
 62
     0
100
AcDbPoint
 10
3.000000000000007
 20
43.01867935550109
 30
0.0
  0
ENDBLK
  5
2FE
330
2FC
100
AcDbEntity
  8
0
100
AcDbBlockEnd
  0
BLOCK
  5
336
330
335
100
AcDbEntity
  8
0
100
AcDbBlockBegin
  2
*D16
 70
     1
 10
0.0
 20
0.0
 30
0.0
  3
*D16
  1
*D18
  0
LINE
  5
338
330
335
100
AcDbEntity
  8
치수문자_일반주서
 62
     0
370
    -2
100
AcDbLine
 10
242.2893847254937
 20
-51.32310694873183
 30
0.0
 11
257.0532544346184
 21
-51.32310694873178
 31
0.0
  0
LINE
  5
339
330
335
100
AcDbEntity
  8
치수문자_일반주서
 62
     0
370
    -2
100
AcDbLine
 10
242.2893847254937
 20
-60.45123194873183
 30
0.0
 11
257.0532544346185
 21
-60.45123194873177
 31
0.0
  0
LINE
  5
33A
330
335
100
AcDbEntity
  8
치수문자_일반주서
 62
     0
370
    -2
100
AcDbLine
 10
257.0532544346184
 20
-51.32310694873178
 30
0.0
 11
257.0532544346182
 21
-14.09410694873178
 31
0.0
  0
LINE
  5
33B
330
335
100
AcDbEntity
  8
치수문자_일반주서
 62
     0
370
    -2
100
AcDbLine
 10
257.0532544346184
 20
-51.32310694873178
 30
0.0
 11
257.0532544346185
 21
-60.45123194873177
 31
0.0
  0
LINE
  5
33C
330
335
100
AcDbEntity
  8
치수문자_일반주서
 62
     0
370
    -2
100
AcDbLine
 10
257.0532544346184
 20
-48.02110694873178
 30
0.0
 11
257.0532544346184
 21
-44.71910694873178
 31
0.0
  0
LINE
  5
33D
330
335
100
AcDbEntity
  8
치수문자_일반주서
 62
     0
370
    -2
100
AcDbLine
 10
257.0532544346185
 20
-63.75323194873177
 30
0.0
 11
257.0532544346185
 21
-67.05523194873177
 31
0.0
  0
SOLID
  5
33E
330
335
100
AcDbEntity
  8
치수문자_일반주서
 62
     0
100
AcDbTrace
 10
256.502921101285
 20
-48.02110694873178
 30
0.0
 11
257.6035877679518
 21
-48.02110694873178
 31
0.0
 12
257.0532544346184
 22
-51.32310694873178
 32
0.0
 13
257.0532544346184
 23
-51.32310694873178
 33
0.0
  0
SOLID
  5
33F
330
335
100
AcDbEntity
  8
치수문자_일반주서
 62
     0
100
AcDbTrace
 10
257.6035877679518
 20
-63.75323194873177
 30
0.0
 11
256.5029211012851
 21
-63.75323194873177
 31
0.0
 12
257.0532544346185
 22
-60.45123194873177
 32
0.0
 13
257.0532544346185
 23
-60.45123194873177
 33
0.0
  0
MTEXT
  5
340
330
335
100
AcDbEntity
  8
치수문자_일반주서
 62
     0
100
AcDbMText
 10
252.6782544346183
 20
-29.40660694873181
 30
0.0
 40
3.5
 41
0.0
 71
     2
 72
     1
  1
\A1;%%c9.13 [23/64]
  7
SLDTEXTSTYLE0
 11
-6.227283134357607E-15
 21
1.0
 31
0.0
 73
     1
 44
1.0
  0
POINT
  5
341
330
335
100
AcDbEntity
  8
Defpoints
 62
     0
100
AcDbPoint
 10
242.2268847254937
 20
-51.32310694873183
 30
0.0
  0
POINT
  5
342
330
335
100
AcDbEntity
  8
Defpoints
 62
     0
100
AcDbPoint
 10
242.2268847254937
 20
-60.45123194873183
 30
0.0
  0
POINT
  5
343
330
335
100
AcDbEntity
  8
Defpoints
 62
     0
100
AcDbPoint
 10
257.0532544346184
 20
-60.45123194873177
 30
0.0
  0
ENDBLK
  5
337
330
335
100
AcDbEntity
  8
0
100
AcDbBlockEnd
  0
BLOCK
  5
345
330
344
100
AcDbEntity
  8
0
100
AcDbBlockBegin
  2
*D17
 70
     1
 10
0.0
 20
0.0
 30
0.0
  3
*D17
  1
*D19
  0
LINE
  5
347
330
344
100
AcDbEntity
  8
치수문자_일반주서
 62
     0
370
    -2
100
AcDbLine
 10
242.2268847254937
 20
-51.26060694873183
 30
0.0
 11
242.2268847254937
 21
-38.92378683102618
 31
0.0
  0
LINE
  5
348
330
344
100
AcDbEntity
  8
치수문자_일반주서
 62
     0
370
    -2
100
AcDbLine
 10
223.1768847254937
 20
-51.45644135367739
 30
0.0
 11
223.1768847254937
 21
-38.92378683102618
 31
0.0
  0
LINE
  5
349
330
344
100
AcDbEntity
  8
치수문자_일반주서
 62
     0
370
    -2
100
AcDbLine
 10
223.1768847254937
 20
-38.92378683102618
 30
0.0
 11
191.6353847254937
 21
-38.92378683102618
 31
0.0
  0
LINE
  5
34A
330
344
100
AcDbEntity
  8
치수문자_일반주서
 62
     0
370
    -2
100
AcDbLine
 10
242.2268847254937
 20
-38.92378683102618
 30
0.0
 11
223.1768847254937
 21
-38.92378683102618
 31
0.0
  0
LINE
  5
34B
330
344
100
AcDbEntity
  8
치수문자_일반주서
 62
     0
370
    -2
100
AcDbLine
 10
245.5288847254937
 20
-38.92378683102618
 30
0.0
 11
248.8308847254937
 21
-38.92378683102618
 31
0.0
  0
LINE
  5
34C
330
344
100
AcDbEntity
  8
치수문자_일반주서
 62
     0
370
    -2
100
AcDbLine
 10
219.8748847254937
 20
-38.92378683102618
 30
0.0
 11
216.5728847254937
 21
-38.92378683102618
 31
0.0
  0
SOLID
  5
34D
330
344
100
AcDbEntity
  8
치수문자_일반주서
 62
     0
100
AcDbTrace
 10
245.5288847254937
 20
-38.37345349769284
 30
0.0
 11
245.5288847254937
 21
-39.47412016435951
 31
0.0
 12
242.2268847254937
 22
-38.92378683102618
 32
0.0
 13
242.2268847254937
 23
-38.92378683102618
 33
0.0
  0
SOLID
  5
34E
330
344
100
AcDbEntity
  8
치수문자_일반주서
 62
     0
100
AcDbTrace
 10
219.8748847254937
 20
-39.47412016435951
 30
0.0
 11
219.8748847254937
 21
-38.37345349769284
 31
0.0
 12
223.1768847254937
 22
-38.92378683102618
 32
0.0
 13
223.1768847254937
 23
-38.92378683102618
 33
0.0
  0
MTEXT
  5
34F
330
344
100
AcDbEntity
  8
치수문자_일반주서
 62
     0
100
AcDbMText
 10
204.1041347254937
 20
-34.54878683102618
 30
0.0
 40
3.5
 41
0.0
 71
     2
 72
     1
  1
\A1;19.05 [3/4]
  7
SLDTEXTSTYLE0
 73
     1
 44
1.0
  0
POINT
  5
350
330
344
100
AcDbEntity
  8
Defpoints
 62
     0
100
AcDbPoint
 10
242.2268847254937
 20
-51.32310694873183
 30
0.0
  0
POINT
  5
351
330
344
100
AcDbEntity
  8
Defpoints
 62
     0
100
AcDbPoint
 10
223.1768847254937
 20
-51.51894135367739
 30
0.0
  0
POINT
  5
352
330
344
100
AcDbEntity
  8
Defpoints
 62
     0
100
AcDbPoint
 10
223.1768847254937
 20
-38.92378683102618
 30
0.0
  0
ENDBLK
  5
346
330
344
100
AcDbEntity
  8
0
100
AcDbBlockEnd
  0
BLOCK
  5
354
330
353
100
AcDbEntity
  8
0
100
AcDbBlockBegin
  2
*D18
 70
     1
 10
0.0
 20
0.0
 30
0.0
  3
*D18
  1
*D20
  0
LINE
  5
356
330
353
100
AcDbEntity
  8
치수문자_일반주서
 62
     0
370
    -2
100
AcDbLine
 10
242.2268847254937
 20
-51.26060694873183
 30
0.0
 11
242.2268847254937
 21
-24.03655259323068
 31
0.0
  0
LINE
  5
357
330
353
100
AcDbEntity
  8
치수문자_일반주서
 62
     0
370
    -2
100
AcDbLine
 10
153.3268847254937
 20
-52.01466944873184
 30
0.0
 11
153.3268847254937
 21
-24.03655259323068
 31
0.0
  0
LINE
  5
358
330
353
100
AcDbEntity
  8
치수문자_일반주서
 62
     0
370
    -2
100
AcDbLine
 10
238.9248847254937
 20
-24.03655259323068
 30
0.0
 11
156.6288847254937
 21
-24.03655259323068
 31
0.0
  0
SOLID
  5
359
330
353
100
AcDbEntity
  8
치수문자_일반주서
 62
     0
100
AcDbTrace
 10
238.9248847254937
 20
-24.58688592656402
 30
0.0
 11
238.9248847254937
 21
-23.48621925989735
 31
0.0
 12
242.2268847254937
 22
-24.03655259323068
 32
0.0
 13
242.2268847254937
 23
-24.03655259323068
 33
0.0
  0
SOLID
  5
35A
330
353
100
AcDbEntity
  8
치수문자_일반주서
 62
     0
100
AcDbTrace
 10
156.6288847254937
 20
-23.48621925989735
 30
0.0
 11
156.6288847254937
 21
-24.58688592656402
 31
0.0
 12
153.3268847254937
 22
-24.03655259323068
 32
0.0
 13
153.3268847254937
 23
-24.03655259323068
 33
0.0
  0
MTEXT
  5
35B
330
353
100
AcDbEntity
  8
치수문자_일반주서
 62
     0
100
AcDbMText
 10
199.0713947716253
 20
-19.66155259323068
 30
0.0
 40
3.5
 41
0.0
 71
     2
 72
     1
  1
\A1;88.9 [3 1/2]
  7
SLDTEXTSTYLE0
 73
     1
 44
1.0
  0
POINT
  5
35C
330
353
100
AcDbEntity
  8
Defpoints
 62
     0
100
AcDbPoint
 10
242.2268847254937
 20
-51.32310694873183
 30
0.0
  0
POINT
  5
35D
330
353
100
AcDbEntity
  8
Defpoints
 62
     0
100
AcDbPoint
 10
153.3268847254937
 20
-52.07716944873184
 30
0.0
  0
POINT
  5
35E
330
353
100
AcDbEntity
  8
Defpoints
 62
     0
100
AcDbPoint
 10
153.3268847254937
 20
-24.03655259323068
 30
0.0
  0
ENDBLK
  5
355
330
353
100
AcDbEntity
  8
0
100
AcDbBlockEnd
  0
ENDSEC
  0
SECTION
  2
ENTITIES
  0
LINE
  5
96
330
1F
100
AcDbEntity
  8
0
  6
Continuous
 62
     1
370
    15
100
AcDbLine
 10
35.49470207678012
 20
4.5640625
 30
0.0
 11
32.7102908627904
 21
4.5640625
 31
0.0
  0
LINE
  5
97
330
1F
100
AcDbEntity
  8
0
  6
Continuous
 62
     1
370
    15
100
AcDbLine
 10
32.71029086279034
 20
-4.564062500000004
 30
0.0
 11
35.49470207678014
 21
-4.564062500000004
 31
0.0
  0
LINE
  5
98
330
1F
100
AcDbEntity
  8
외형선
  6
Continuous
370
    15
100
AcDbLine
 10
23.65942116787303
 20
-4.762500000000012
 30
0.0
 11
24.40000000000001
 21
-4.564062500000002
 31
0.0
  0
LINE
  5
99
330
1F
100
AcDbEntity
  8
외형선
  6
Continuous
370
    15
100
AcDbLine
 10
24.40000000000001
 20
4.564062499999999
 30
0.0
 11
23.65942116787303
 21
4.762500000000008
 31
0.0
  0
LINE
  5
9A
330
1F
100
AcDbEntity
  8
외형선
  6
Continuous
370
    15
100
AcDbLine
 10
-23.65942116787306
 20
-4.762500000000006
 30
0.0
 11
23.65942116787303
 21
-4.762500000000006
 31
0.0
  0
LINE
  5
9B
330
1F
100
AcDbEntity
  8
외형선
  6
Continuous
370
    15
100
AcDbLine
 10
23.65942116787303
 20
4.762500000000003
 30
0.0
 11
4.838700000000017
 21
4.762500000000003
 31
0.0
  0
LINE
  5
9E
330
1F
100
AcDbEntity
  8
외형선
  6
Continuous
370
    15
100
AcDbLine
 10
24.40000000000001
 20
-4.564062500000002
 30
0.0
 11
24.90017941891636
 21
-4.564062500000002
 31
0.0
  0
LINE
  5
9F
330
1F
100
AcDbEntity
  8
외형선
  6
Continuous
370
    15
100
AcDbLine
 10
24.90017941891636
 20
4.564062499999999
 30
0.0
 11
24.40000000000001
 21
4.564062499999999
 31
0.0
  0
LINE
  5
A0
330
1F
100
AcDbEntity
  8
0
  6
Continuous
 62
     1
370
    15
100
AcDbLine
 10
44.45000000000001
 20
-4.133586283087554
 30
0.0
 11
44.45000000000001
 21
0.3910550330876067
 31
0.0
  0
SPLINE
  5
A1
330
1F
100
AcDbEntity
  8
0
  6
Continuous
 62
     1
370
    15
100
AcDbSpline
210
0.0
220
0.0
230
1.0
 70
     8
 71
     3
 72
    42
 73
    38
 74
     0
 42
0.000000001
 43
0.00000001
 40
0.0
 40
0.0
 40
0.0
 40
0.0
 40
0.0624999999999995
 40
0.0624999999999995
 40
0.124999999999999
 40
0.124999999999999
 40
0.1874999999999986
 40
0.1874999999999986
 40
0.2187499999999983
 40
0.2187499999999983
 40
0.2499999999999981
 40
0.2499999999999981
 40
0.3124999999999976
 40
0.3124999999999976
 40
0.3749999999999971
 40
0.3749999999999971
 40
0.4374999999999966
 40
0.4374999999999966
 40
0.4999999999999961
 40
0.4999999999999961
 40
0.5624999999999957
 40
0.5624999999999957
 40
0.6249999999999951
 40
0.6249999999999951
 40
0.6874999999999947
 40
0.6874999999999947
 40
0.7187499999999952
 40
0.7187499999999952
 40
0.7499999999999957
 40
0.7499999999999957
 40
0.8124999999999968
 40
0.8124999999999968
 40
0.8749999999999979
 40
0.8749999999999979
 40
0.9374999999999989
 40
0.9374999999999989
 40
1.0
 40
1.0
 40
1.0
 40
1.0
 10
44.45000000000001
 20
-4.133586283087554
 30
0.0
 10
44.05602614847513
 20
-4.036680097406722
 30
0.0
 10
43.65664283582047
 20
-3.923692365290711
 30
0.0
 10
42.86053467404511
 20
-3.669067329904076
 30
0.0
 10
42.46730759447183
 20
-3.527932483466225
 30
0.0
 10
41.67291343532926
 20
-3.21919187271727
 30
0.0
 10
41.27296106079411
 20
-3.051635387587663
 30
0.0
 10
40.67905511165921
 20
-2.78483283313924
 30
0.0
 10
40.48248612794843
 20
-2.693404107912651
 30
0.0
 10
40.08593848473101
 20
-2.505111220325219
 30
0.0
 10
39.88679928783376
 20
-2.40836909145116
 30
0.0
 10
39.28932126173889
 20
-2.111558402335329
 30
0.0
 10
38.89383937574105
 20
-1.90540487455406
 30
0.0
 10
38.10233552146268
 20
-1.480226957796155
 30
0.0
 10
37.70241587500402
 20
-1.260472158260975
 30
0.0
 10
36.90777823704732
 20
-0.8140311226909929
 30
0.0
 10
36.51466047265197
 20
-0.5876837820058427
 30
0.0
 10
35.71868132155096
 20
-0.1304106334205985
 30
0.0
 10
35.3192070682157
 20
0.0998701956874597
 30
0.0
 10
34.53077670913579
 20
0.5559305093075598
 30
0.0
 10
34.13196415104692
 20
0.7836037110135226
 30
0.0
 10
33.33574098145242
 20
1.231032843212483
 30
0.0
 10
32.94237793764712
 20
1.450051166187631
 30
0.0
 10
32.14824115973925
 20
1.876865184197247
 30
0.0
 10
31.74826316960463
 20
2.084461239809666
 30
0.0
 10
31.15408947849162
 20
2.381893030962603
 30
0.0
 10
30.95755951472472
 20
2.478634257348814
 30
0.0
 10
30.56117243554596
 20
2.667800466527005
 30
0.0
 10
30.36207543175116
 20
2.760093596226412
 30
0.0
 10
29.76460793109489
 20
3.028889069338998
 30
0.0
 10
29.36874547386734
 20
3.196907987075158
 30
0.0
 10
28.57762609781575
 20
3.5075557931227
 30
0.0
 10
28.17774628996003
 20
3.650724389328742
 30
0.0
 10
27.38287908986081
 20
3.907776927239602
 30
0.0
 10
26.98984398519644
 20
4.021575670218662
 30
0.0
 10
26.19400784005601
 20
4.21887478433009
 30
0.0
 10
25.79444973004189
 20
4.301964307644869
 30
0.0
 10
25.40000000000001
 20
4.368228095054439
 30
0.0
  0
SPLINE
  5
A2
330
1F
100
AcDbEntity
  8
0
  6
Continuous
 62
     1
370
    15
100
AcDbSpline
210
0.0
220
0.0
230
1.0
 70
     8
 71
     3
 72
    17
 73
    13
 74
     0
 42
0.000000001
 43
0.00000001
 40
0.0
 40
0.0
 40
0.0
 40
0.0
 40
0.1074125698908168
 40
0.2148077615206343
 40
0.3221883343526896
 40
0.4295570673125577
 40
0.5369167551261325
 40
0.6442702046127787
 40
0.7454718811060478
 40
0.8466784319486328
 40
0.947905400589825
 40
1.0
 40
1.0
 40
1.0
 40
1.0
 10
44.45
 20
0.391055033087607
 30
0.0
 10
43.8570822075113
 20
0.7300925000988839
 30
0.0
 10
42.67134255060042
 20
1.408112581308623
 30
0.0
 10
40.89293652880558
 20
2.348971298917983
 30
0.0
 10
39.11481768378856
 20
3.172862430826654
 30
0.0
 10
37.33692918823915
 20
3.836466207858548
 30
0.0
 10
35.55924272068828
 20
4.307093096741609
 30
0.0
 10
33.81553171679528
 20
4.555236896786457
 30
0.0
 10
32.10608934917126
 20
4.58636664744921
 30
0.0
 10
30.4303647854
 20
4.402928594998832
 30
0.0
 10
29.02563794703536
 20
4.110583461507566
 30
0.0
 10
28.17937738393448
 20
3.819598613445819
 30
0.0
 10
27.89184050577916
 20
3.720729685304354
 30
0.0
  0
SPLINE
  5
A3
330
1F
100
AcDbEntity
  8
0
  6
Continuous
 62
     1
370
    15
100
AcDbSpline
210
0.0
220
0.0
230
1.0
 70
     8
 71
     3
 72
    16
 73
    12
 74
     0
 42
0.000000001
 43
0.00000001
 40
0.0
 40
0.0
 40
0.0
 40
0.0
 40
0.1192978398504798
 40
0.2385788658545187
 40
0.3578424007772913
 40
0.4770915225581249
 40
0.596329328353149
 40
0.7155589304374019
 40
0.8279551054519483
 40
0.940352695966818
 40
1.0
 40
1.0
 40
1.0
 40
1.0
 10
25.40000000000001
 20
-1.322592081287134
 30
0.0
 10
25.99294706230152
 20
-1.643655787643322
 30
0.0
 10
27.17875761690136
 20
-2.285737949612991
 30
0.0
 10
28.95728308526366
 20
-3.115885655476017
 30
0.0
 10
30.73551302832507
 20
-3.793752139980531
 30
0.0
 10
32.51349104713092
 20
-4.279370916899247
 30
0.0
 10
34.29124472550476
 20
-4.54911208111639
 30
0.0
 10
36.03499757544428
 20
-4.591231871715276
 30
0.0
 10
37.74445517639639
 20
-4.408023050842923
 30
0.0
 10
39.15789367859602
 20
-4.116140884739524
 30
0.0
 10
40.01285117448561
 20
-3.823330579487179
 30
0.0
 10
40.30926165401039
 20
-3.721814371480453
 30
0.0
  0
SPLINE
  5
A4
330
1F
100
AcDbEntity
  8
외형선
  6
Continuous
370
    15
100
AcDbSpline
210
0.0
220
0.0
230
1.0
 70
    24
 71
     3
 72
    24
 73
    20
 74
     0
 42
0.000000001
 43
0.00000001
 40
0.0
 40
0.0
 40
0.0
 40
0.0
 40
0.1250000000000002
 40
0.1250000000000002
 40
0.1875000000000003
 40
0.1875000000000003
 40
0.2500000000000004
 40
0.2500000000000004
 40
0.3750000000000003
 40
0.3750000000000003
 40
0.5000000000000003
 40
0.5000000000000003
 40
0.6250000000000002
 40
0.6250000000000002
 40
0.7500000000000001
 40
0.7500000000000001
 40
0.875
 40
0.875
 40
1.0
 40
1.0
 40
1.0
 40
1.0
 10
25.40000000000001
 20
3.644321886645964
 30
0.0
 10
25.40000000000006
 20
3.524559406041663
 30
0.0
 10
25.40000000000004
 20
3.397202950462714
 30
0.0
 10
25.40000000000004
 20
3.208044179000733
 30
0.0
 10
25.40000000000004
 20
3.142328125492184
 30
0.0
 10
25.40000000000006
 20
2.99609383735266
 30
0.0
 10
25.40000000000004
 20
2.916803405535694
 30
0.0
 10
25.40000000000004
 20
2.658541926487004
 30
0.0
 10
25.40000000000004
 20
2.458749148934857
 30
0.0
 10
25.40000000000003
 20
2.000609409237228
 30
0.0
 10
25.4
 20
1.74180207476219
 30
0.0
 10
25.40000000000001
 20
1.181180698979603
 30
0.0
 10
25.40000000000003
 20
0.8792659698329071
 30
0.0
 10
25.40000000000003
 20
0.2783448454415565
 30
0.0
 10
25.40000000000004
 20
-0.0197338543153437
 30
0.0
 10
25.40000000000004
 20
-0.547086613066379
 30
0.0
 10
25.40000000000006
 20
-0.7749763738763807
 30
0.0
 10
25.40000000000004
 20
-1.11484777416459
 30
0.0
 10
25.40000000000003
 20
-1.226620105413966
 30
0.0
 10
25.40000000000003
 20
-1.281045601733097
 30
0.0
  0
SPLINE
  5
A5
330
1F
100
AcDbEntity
  8
0
  6
Continuous
 62
     1
370
    15
100
AcDbSpline
210
0.0
220
0.0
230
1.0
 70
     8
 71
     3
 72
    42
 73
    38
 74
     0
 42
0.000000001
 43
0.00000001
 40
0.0
 40
0.0
 40
0.0
 40
0.0
 40
0.0625000000000013
 40
0.0625000000000013
 40
0.1250000000000026
 40
0.1250000000000026
 40
0.1875000000000038
 40
0.1875000000000038
 40
0.2187500000000036
 40
0.2187500000000036
 40
0.2500000000000034
 40
0.2500000000000034
 40
0.3125000000000032
 40
0.3125000000000032
 40
0.3750000000000029
 40
0.3750000000000029
 40
0.4375000000000026
 40
0.4375000000000026
 40
0.5000000000000023
 40
0.5000000000000023
 40
0.562500000000002
 40
0.562500000000002
 40
0.6250000000000018
 40
0.6250000000000018
 40
0.6875000000000014
 40
0.6875000000000014
 40
0.7187500000000013
 40
0.7187500000000013
 40
0.7500000000000012
 40
0.7500000000000012
 40
0.8125000000000009
 40
0.8125000000000009
 40
0.8750000000000007
 40
0.8750000000000007
 40
0.9375000000000003
 40
0.9375000000000003
 40
1.0
 40
1.0
 40
1.0
 40
1.0
 10
44.45000000000002
 20
-4.564062499999993
 30
0.0
 10
44.05602614847511
 20
-4.527694015814209
 30
0.0
 10
43.65664283582048
 20
-4.490815016460614
 30
0.0
 10
42.86053467404513
 20
-4.383367186519096
 30
0.0
 10
42.46730759447182
 20
-4.31310341231925
 30
0.0
 10
41.67291343532923
 20
-4.140122007960723
 30
0.0
 10
41.2729610607941
 20
-4.037355161416671
 30
0.0
 10
40.67905511165921
 20
-3.861473698025192
 30
0.0
 10
40.48248612794845
 20
-3.7992962917733
 30
0.0
 10
40.08593848473102
 20
-3.667531711475091
 30
0.0
 10
39.88679928783382
 20
-3.598021927839223
 30
0.0
 10
39.28932126173892
 20
-3.379450712103331
 30
0.0
 10
38.89383937574107
 20
-3.22072395521327
 30
0.0
 10
38.10233552146273
 20
-2.880170476545983
 30
0.0
 10
37.70241587500402
 20
-2.697723363990778
 30
0.0
 10
36.90777823704731
 20
-2.314583367026303
 30
0.0
 10
36.51466047265198
 20
-2.114235396174074
 30
0.0
 10
35.71868132155093
 20
-1.697446008475331
 30
0.0
 10
35.3192070682157
 20
-1.481539733716004
 30
0.0
 10
34.53077670913591
 20
-1.042120079113692
 30
0.0
 10
34.13196415104692
 20
-0.8167869001092366
 30
0.0
 10
33.33574098145242
 20
-0.3618857824732616
 30
0.0
 10
32.94237793764706
 20
-0.1331146295414707
 30
0.0
 10
32.14824115973922
 20
0.3251246579011163
 30
0.0
 10
31.74826316960466
 20
0.5544328025272393
 30
0.0
 10
31.15408947849171
 20
0.8928596337065031
 30
0.0
 10
30.95755951472475
 20
1.004644856095784
 30
0.0
 10
30.56117243554602
 20
1.226735491250049
 30
0.0
 10
30.36207543175116
 20
1.336894243931274
 30
0.0
 10
29.76460793109489
 20
1.663288663912126
 30
0.0
 10
29.36874547386736
 20
1.874951715946069
 30
0.0
 10
28.57762609781578
 20
2.282477231317531
 30
0.0
 10
28.17774628996006
 20
2.479091383501656
 30
0.0
 10
27.38287908986078
 20
2.851281428219207
 30
0.0
 10
26.98984398519646
 20
3.026638820958536
 30
0.0
 10
26.19400784005601
 20
3.354607944616348
 30
0.0
 10
25.7944497300419
 20
3.506660588125894
 30
0.0
 10
25.40000000000006
 20
3.644321886645811
 30
0.0
  0
LINE
  5
A6
330
1F
100
AcDbEntity
  8
0
  6
Continuous
 62
     1
370
    15
100
AcDbLine
 10
44.45000000000003
 20
-4.564062499999993
 30
0.0
 11
44.45000000000001
 21
-4.133586283087554
 31
0.0
  0
LINE
  5
A7
330
1F
100
AcDbEntity
  8
외형선
  6
Continuous
370
    15
100
AcDbLine
 10
25.40000000000001
 20
3.64432188664596
 30
0.0
 11
25.40000000000001
 21
4.368228095054447
 31
0.0
  0
SPLINE
  5
A8
330
1F
100
AcDbEntity
  8
0
  6
Continuous
 62
     1
370
    15
100
AcDbSpline
210
0.0
220
0.0
230
1.0
 70
     8
 71
     3
 72
    13
 73
     9
 74
     0
 42
0.000000001
 43
0.00000001
 40
0.0
 40
0.0
 40
0.0
 40
0.0
 40
0.0641164487169487
 40
0.2512310834779657
 40
0.4383480747322177
 40
0.6254961801884134
 40
0.8127040283099014
 40
1.0
 40
1.0
 40
1.0
 40
1.0
 10
35.49470207678012
 20
4.538858888051251
 30
0.0
 10
35.68610603984621
 20
4.54595964693392
 30
0.0
 10
36.43609494262149
 20
4.573782949429732
 30
0.0
 10
37.74444635095153
 20
4.403706527809552
 30
0.0
 10
39.42012208308582
 20
4.045343355231451
 30
0.0
 10
41.09610782083926
 20
3.4890110810961
 30
0.0
 10
42.77272752573796
 20
2.786493864648404
 30
0.0
 10
43.89082147660423
 20
2.218859608432298
 30
0.0
 10
44.45000000000001
 20
1.934975696017014
 30
0.0
  0
LINE
  5
A9
330
1F
100
AcDbEntity
  8
0
  6
Continuous
 62
     1
370
    15
100
AcDbLine
 10
44.45000000000001
 20
0.3910550330876066
 30
0.0
 11
44.45000000000001
 21
1.934975696017014
 31
0.0
  0
SPLINE
  5
AA
330
1F
100
AcDbEntity
  8
0
  6
Continuous
 62
     1
370
    15
100
AcDbSpline
210
0.0
220
0.0
230
1.0
 70
     8
 71
     3
 72
    12
 73
     8
 74
     0
 42
0.000000001
 43
0.00000001
 40
0.0
 40
0.0
 40
0.0
 40
0.0
 40
0.0826567257165275
 40
0.311890147648758
 40
0.5411698160127075
 40
0.7705307447896518
 40
1.0
 40
1.0
 40
1.0
 40
1.0
 10
32.71029086279035
 20
-4.540436690588997
 30
0.0
 10
32.50889430032468
 20
-4.546712613405324
 30
0.0
 10
31.74896093665873
 20
-4.570393668719916
 30
0.0
 10
30.43037324798258
 20
-4.400194657560209
 30
0.0
 10
28.75426098235764
 20
-4.034909397498019
 30
0.0
 10
27.07746655435447
 20
-3.484119766800482
 30
0.0
 10
25.95924351953086
 20
-2.993179039470387
 30
0.0
 10
25.40000000000004
 20
-2.747650722057025
 30
0.0
  0
LINE
  5
AB
330
1F
100
AcDbEntity
  8
외형선
  6
Continuous
370
    15
100
AcDbLine
 10
25.40000000000001
 20
-2.747650722057188
 30
0.0
 11
25.4
 21
-1.322592081287124
 31
0.0
  0
SPLINE
  5
AC
330
1F
100
AcDbEntity
  8
0
  6
Continuous
 62
     1
370
    15
100
AcDbSpline
210
0.0
220
0.0
230
1.0
 70
     8
 71
     3
 72
    10
 73
     6
 74
     0
 42
0.000000001
 43
0.00000001
 40
0.0
 40
0.0
 40
0.0
 40
0.0
 40
0.4295613953454154
 40
0.8590532920273956
 40
1.0
 40
1.0
 40
1.0
 40
1.0
 10
44.45
 20
4.564062500000006
 30
0.0
 10
43.85708275673193
 20
4.493312027668392
 30
0.0
 10
42.67134419817343
 20
4.385387658449475
 30
0.0
 10
41.29110936712173
 20
4.074059406330408
 30
0.0
 10
40.50379505305176
 20
3.791604648536415
 30
0.0
 10
40.30926165401039
 20
3.721814371480449
 30
0.0
  0
LINE
  5
AD
330
1F
100
AcDbEntity
  8
0
  6
Continuous
 62
     1
370
    15
100
AcDbLine
 10
44.45000000000001
 20
1.930029563637889
 30
0.0
 11
44.45000000000002
 21
4.564062500000006
 31
0.0
  0
SPLINE
  5
AE
330
1F
100
AcDbEntity
  8
0
  6
Continuous
 62
     1
370
    15
100
AcDbSpline
210
0.0
220
0.0
230
1.0
 70
     8
 71
     3
 72
     9
 73
     5
 74
     0
 42
0.000000001
 43
0.00000001
 40
0.0
 40
0.0
 40
0.0
 40
0.0
 40
0.7138565245298434
 40
1.0
 40
1.0
 40
1.0
 40
1.0
 10
25.40000000000001
 20
-4.368228095054435
 30
0.0
 10
25.99294958606672
 20
-4.256970962716474
 30
0.0
 10
26.8235781027105
 20
-4.101117330347932
 30
0.0
 10
27.65417159670467
 20
-3.805359001437909
 30
0.0
 10
27.89184050577907
 20
-3.720729685304349
 30
0.0
  0
SPLINE
  5
AF
330
1F
100
AcDbEntity
  8
외형선
  6
Continuous
370
    15
100
AcDbSpline
210
0.0
220
0.0
230
1.0
 70
    24
 71
     3
 72
    12
 73
     8
 74
     0
 42
0.000000001
 43
0.00000001
 40
0.0
 40
0.0
 40
0.0
 40
0.0
 40
0.137205006434042
 40
0.4115294734476535
 40
0.6938093685887208
 40
0.8462457077725564
 40
1.0
 40
1.0
 40
1.0
 40
1.0
 10
25.40000000000003
 20
-2.809027535070273
 30
0.0
 10
25.40000000000004
 20
-2.870740161980448
 30
0.0
 10
25.40000000000006
 20
-3.055839565547942
 30
0.0
 10
25.39999999999994
 20
-3.411849180424774
 30
0.0
 10
25.40000000000007
 20
-3.790765219145207
 30
0.0
 10
25.39999999999997
 20
-4.113931196857327
 30
0.0
 10
25.39999999999998
 20
-4.283219569927975
 30
0.0
 10
25.4
 20
-4.368228095054437
 30
0.0
  0
LINE
  5
B0
330
1F
100
AcDbEntity
  8
외형선
  6
Continuous
370
    15
100
AcDbLine
 10
24.40000000000001
 20
-0.0000000000000019
 30
0.0
 11
24.40000000000001
 21
4.564062499999999
 31
0.0
  0
LINE
  5
B1
330
1F
100
AcDbEntity
  8
외형선
  6
Continuous
370
    15
100
AcDbLine
 10
24.40000000000001
 20
-4.564062500000002
 30
0.0
 11
24.40000000000001
 21
-0.0000000000000019
 31
0.0
  0
LINE
  5
B2
330
1F
100
AcDbEntity
  8
외형선
  6
Continuous
370
    15
100
AcDbLine
 10
23.65942116787303
 20
-0.0000000000000019
 30
0.0
 11
23.65942116787303
 21
4.762500000000008
 31
0.0
  0
LINE
  5
B3
330
1F
100
AcDbEntity
  8
외형선
  6
Continuous
370
    15
100
AcDbLine
 10
23.65942116787303
 20
-4.762500000000012
 30
0.0
 11
23.65942116787303
 21
-0.0000000000000019
 31
0.0
  0
LINE
  5
B8
330
1F
100
AcDbEntity
  8
외형선
  6
Continuous
370
    15
100
AcDbLine
 10
24.90017941891637
 20
4.443208217452681
 30
0.0
 11
24.90017941891636
 21
4.564062499999999
 31
0.0
  0
SPLINE
  5
B9
330
1F
100
AcDbEntity
  8
외형선
  6
Continuous
370
    15
100
AcDbSpline
210
0.0
220
0.0
230
1.0
 70
     8
 71
     3
 72
     8
 73
     4
 74
     0
 42
0.000000001
 43
0.00000001
 40
0.0
 40
0.0
 40
0.0
 40
0.0
 40
1.0
 40
1.0
 40
1.0
 40
1.0
 10
25.40000000000001
 20
4.368228095054439
 30
0.0
 10
25.23384711601456
 20
4.396140192701787
 30
0.0
 10
25.06744278760383
 20
4.421149496374341
 30
0.0
 10
24.90017941891636
 20
4.44321645698776
 30
0.0
  0
SPLINE
  5
BA
330
1F
100
AcDbEntity
  8
외형선
  6
Continuous
370
    15
100
AcDbSpline
210
0.0
220
0.0
230
1.0
 70
     8
 71
     3
 72
     8
 73
     4
 74
     0
 42
0.000000001
 43
0.00000001
 40
0.0
 40
0.0
 40
0.0
 40
0.0
 40
1.0
 40
1.0
 40
1.0
 40
1.0
 10
25.40000000000001
 20
3.644321886645828
 30
0.0
 10
25.23384711601457
 20
3.702308545072082
 30
0.0
 10
25.06744278760385
 20
3.757891021876847
 30
0.0
 10
24.90017941891637
 20
3.81100842379845
 30
0.0
  0
LINE
  5
BB
330
1F
100
AcDbEntity
  8
외형선
  6
Continuous
370
    15
100
AcDbLine
 10
24.90017941891637
 20
-1.043344257791888
 30
0.0
 11
24.90017941891636
 21
3.811027333830967
 31
0.0
  0
SPLINE
  5
BC
330
1F
100
AcDbEntity
  8
외형선
  6
Continuous
370
    15
100
AcDbSpline
210
0.0
220
0.0
230
1.0
 70
     8
 71
     3
 72
     8
 73
     4
 74
     0
 42
0.000000001
 43
0.00000001
 40
0.0
 40
0.0
 40
0.0
 40
0.0
 40
1.0
 40
1.0
 40
1.0
 40
1.0
 10
25.40000000000001
 20
-1.322592081287134
 30
0.0
 10
25.23384711601456
 20
-1.230404617850641
 30
0.0
 10
25.06744278760383
 20
-1.137287334456936
 30
0.0
 10
24.90017941891636
 20
-1.04330916810861
 30
0.0
  0
SPLINE
  5
BD
330
1F
100
AcDbEntity
  8
외형선
  6
Continuous
370
    15
100
AcDbSpline
210
0.0
220
0.0
230
1.0
 70
     8
 71
     3
 72
     8
 73
     4
 74
     0
 42
0.000000001
 43
0.00000001
 40
0.0
 40
0.0
 40
0.0
 40
0.0
 40
1.0
 40
1.0
 40
1.0
 40
1.0
 10
25.40000000000001
 20
-2.747650722057003
 30
0.0
 10
25.23384711601457
 20
-2.670740637838566
 30
0.0
 10
25.06744278760385
 20
-2.591956870417496
 30
0.0
 10
24.90017941891637
 20
-2.511350492791364
 30
0.0
  0
LINE
  5
BE
330
1F
100
AcDbEntity
  8
외형선
  6
Continuous
370
    15
100
AcDbLine
 10
24.90017941891636
 20
-4.564062500000002
 30
0.0
 11
24.90017941891636
 21
-2.511321796325476
 31
0.0
  0
SPLINE
  5
BF
330
1F
100
AcDbEntity
  8
외형선
  6
Continuous
370
    15
100
AcDbSpline
210
0.0
220
0.0
230
1.0
 70
     8
 71
     3
 72
     8
 73
     4
 74
     0
 42
0.000000001
 43
0.00000001
 40
0.0
 40
0.0
 40
0.0
 40
0.0
 40
1.0
 40
1.0
 40
1.0
 40
1.0
 10
25.40000000000001
 20
-4.368228095054435
 30
0.0
 10
25.23384711601456
 20
-4.396140192701784
 30
0.0
 10
25.06744278760383
 20
-4.421149496374338
 30
0.0
 10
24.90017941891636
 20
-4.443216456987757
 30
0.0
  0
SPLINE
  5
C0
330
1F
100
AcDbEntity
  8
외형선
  6
Continuous
370
    15
100
AcDbSpline
210
0.0
220
0.0
230
1.0
 70
    24
 71
     3
 72
    21
 73
    17
 74
     0
 42
0.000000001
 43
0.00000001
 40
0.0
 40
0.0
 40
0.0
 40
0.0
 40
0.0408390708200289
 40
0.1116138866509965
 40
0.1844411769356895
 40
0.2552159927666576
 40
0.328043283051351
 40
0.3988180988823176
 40
0.4716453891670087
 40
0.5424202049979776
 40
0.6152474952826712
 40
0.6860223111136362
 40
0.7588496013983257
 40
0.8296244172292958
 40
0.9024517075139906
 40
1.0
 40
1.0
 40
1.0
 40
1.0
 10
25.4
 20
-1.258723352669787
 30
0.0
 10
25.4
 20
-1.250706452048523
 30
0.0
 10
25.39999999999997
 20
-1.228796124039903
 30
0.0
 10
25.40000000000015
 20
-1.074032025395368
 30
0.0
 10
25.39999999999996
 20
-0.8506755513077524
 30
0.0
 10
25.40000000000009
 20
-0.5532779933020281
 30
0.0
 10
25.40000000000003
 20
-0.2048593624660762
 30
0.0
 10
25.4
 20
0.1934718098966351
 30
0.0
 10
25.40000000000006
 20
0.6226099547145125
 30
0.0
 10
25.40000000000004
 20
1.07830138006301
 30
0.0
 10
25.40000000000006
 20
1.539431802061606
 30
0.0
 10
25.4
 20
2.001136693585094
 30
0.0
 10
25.40000000000001
 20
2.442498346188185
 30
0.0
 10
25.40000000000007
 20
2.85723309894406
 30
0.0
 10
25.40000000000001
 20
3.279482032186631
 30
0.0
 10
25.40000000000003
 20
3.51148749553664
 30
0.0
 10
25.40000000000003
 20
3.644321886645824
 30
0.0
  0
SPLINE
  5
C1
330
1F
100
AcDbEntity
  8
외형선
  6
Continuous
370
    15
100
AcDbSpline
210
0.0
220
0.0
230
1.0
 70
    24
 71
     3
 72
    11
 73
     7
 74
     0
 42
0.000000001
 43
0.00000001
 40
0.0
 40
0.0
 40
0.0
 40
0.0
 40
0.228389745587795
 40
0.4612686668457694
 40
0.7364692264894697
 40
1.0
 40
1.0
 40
1.0
 40
1.0
 10
25.4
 20
-4.368228095054438
 30
0.0
 10
25.40000000000003
 20
-4.242232692676433
 30
0.0
 10
25.40000000000006
 20
-3.987765351622989
 30
0.0
 10
25.39999999999997
 20
-3.589265107060797
 30
0.0
 10
25.40000000000007
 20
-3.185550776222676
 30
0.0
 10
25.40000000000004
 20
-2.932702918524118
 30
0.0
 10
25.40000000000003
 20
-2.809017535070273
 30
0.0
  0
LINE
  5
C2
330
1F
100
AcDbEntity
  8
중심선
 48
0.8
100
AcDbLine
 10
-47.45
 20
-0.0000000000000058
 30
0.0
 11
47.45000000000001
 21
0.0000000000000058
 31
0.0
  0
LINE
  5
C3
330
1F
100
AcDbEntity
  8
참조1
100
AcDbLine
 10
4.955880657015618
 20
0.0010749287238892
 30
0.0
 11
4.955880657015622
 21
-39.99892507127611
 31
0.0
  0
LINE
  5
C4
330
1F
100
AcDbEntity
  8
참조1
100
AcDbLine
 10
4.955880657015622
 20
-39.99892507127611
 30
0.0
 11
-29.25297615729306
 21
-39.9989250712761
 31
0.0
  0
CIRCLE
  5
C5
330
1F
100
AcDbEntity
  8
해칭선
100
AcDbCircle
 10
0.0
 20
0.0
 30
0.0
 40
3.000000000000008
  0
INSERT
  5
C6
330
1F
100
AcDbEntity
  8
0
  6
Continuous
 62
     7
100
AcDbBlockReference
 66
     1
  2
블럭10
 10
-13.9402729321252
 20
-52.04717430164393
 30
0.0
  0
ATTRIB
  5
C7
330
C6
100
AcDbEntity
  8
FORMAT
 62
     2
100
AcDbText
 10
-23.12156822086648
 20
-49.97180738881174
 30
0.0
 40
4.233333333333333
  1
E1053023 [ 4 FLUTE ]
 41
0.75
  7
SLDTEXTSTYLE0
 11
-23.12156822086648
 21
-52.08847405547841
 31
0.0
100
AcDbAttribute
  2
AUTOATTR0
 70
     0
 74
     1
  0
SEQEND
  5
C8
330
C6
100
AcDbEntity
  8
0
  6
Continuous
 62
     7
  0
HATCH
  5
C9
330
1F
100
AcDbEntity
  8
중심선
100
AcDbHatch
 10
0.0
 20
0.0
 30
0.0
210
0.0
220
0.0
230
1.0
  2
SOLID
 70
     1
 71
     0
 91
        1
 92
        0
 93
        4
 72
     1
 10
-8.22536362774435
 20
-35.8
 11
-11.67163887158163
 21
-35.8
 72
     1
 10
-11.67163887158163
 20
-35.8
 11
-13.79986873078565
 21
-38.3363255805726
 72
     1
 10
-13.79986873078565
 20
-38.3363255805726
 11
-10.35356040183522
 21
-38.33628615127011
 72
     1
 10
-10.35356040183522
 20
-38.33628615127011
 11
-8.22536362774435
 21
-35.8
 97
        0
 75
     0
 76
     1
 98
        1
 10
-4.955880657015612
 20
-0.0010749287238951
  0
HATCH
  5
CA
330
1F
100
AcDbEntity
  8
중심선
100
AcDbHatch
 10
0.0
 20
0.0
 30
0.0
210
0.0
220
0.0
230
1.0
  2
SOLID
 70
     1
 71
     0
 91
        1
 92
        0
 93
        4
 72
     1
 10
-3.212599636708343
 20
-35.79999999999998
 11
-6.658874880545653
 21
-35.8
 72
     1
 10
-6.658874880545653
 20
-35.8
 11
-11.19001288890307
 21
-41.20000000000002
 72
     1
 10
-11.19001288890307
 20
-41.20000000000002
 11
-7.743737645065787
 21
-41.20000000000002
 72
     1
 10
-7.743737645065787
 20
-41.20000000000002
 11
-3.212599636708343
 21
-35.79999999999998
 97
        0
 75
     0
 76
     1
 98
        1
 10
-4.955880657015612
 20
-0.0010749287238951
  0
HATCH
  5
CB
330
1F
100
AcDbEntity
  8
중심선
100
AcDbHatch
 10
0.0
 20
0.0
 30
0.0
210
0.0
220
0.0
230
1.0
  2
SOLID
 70
     1
 71
     0
 91
        1
 92
        0
 93
        4
 72
     1
 10
1.800164354327524
 20
-35.79999999999998
 11
-1.646110889509591
 21
-35.79999999999998
 72
     1
 10
-1.646110889509591
 20
-35.79999999999998
 11
-8.694547791398868
 21
-44.20000000000002
 72
     1
 10
-8.694547791398868
 20
-44.20000000000002
 11
-5.248272547561585
 21
-44.20000000000002
 72
     1
 10
-5.248272547561585
 20
-44.20000000000002
 11
1.800164354327524
 21
-35.79999999999998
 97
        0
 75
     0
 76
     1
 98
        1
 10
-4.955880657015612
 20
-0.0010749287238951
  0
HATCH
  5
CC
330
1F
100
AcDbEntity
  8
중심선
100
AcDbHatch
 10
0.0
 20
0.0
 30
0.0
210
0.0
220
0.0
230
1.0
  2
SOLID
 70
     1
 71
     0
 91
        1
 92
        0
 93
        6
 72
     3
 10
6.600054785339696
 20
-40.00000000005127
 11
3.960054785062283
 21
1.540882976769353E-10
 40
0.3939339440162628
 50
17.09539180608436
 51
320.0019657685087
 73
     0
 72
     1
 10
8.283054441040292
 20
-38.58789400463833
 11
10.58835631474133
 21
-36.65356729459038
 72
     3
 10
6.600054785286849
 20
-40.00000000000015
 11
6.600054785286831
 21
-1.278976924368180E-13
 40
0.6363583540795978
 50
39.99873849337411
 51
368.4976242363724
 73
     1
 72
     1
 10
13.02538727718746
 20
-39.03999999993002
 11
5.280122092122772
 21
-39.03999999993002
 72
     1
 10
5.280122092122772
 20
-39.03999999993002
 11
5.280097047676838
 21
-40.95999999992991
 72
     1
 10
5.280097047676838
 20
-40.95999999992991
 11
9.721476817148876
 21
-40.95999999992988
 97
        0
 75
     0
 76
     1
 98
        1
 10
-4.955880657015612
 20
-0.0010749287238951
  0
DIMENSION
  5
CD
330
1F
100
AcDbEntity
  8
치수문자_일반주서
100
AcDbDimension
  2
_D
 10
59.27636970912469
 20
-4.564062499999938
 30
0.0
 11
59.27636970912459
 21
26.48056250000006
 31
0.0
 70
   160
  1
%%c<>
 71
     2
 42
9.128124999999999
 52
-270.0
  3
SLDDIMSTYLE2
100
AcDbAlignedDimension
 13
44.45000000000002
 23
4.564062500000006
 33
0.0
 14
44.45000000000002
 24
-4.564062499999993
 34
0.0
 50
90.0000000000002
100
AcDbRotatedDimension
1001
ACAD
1000
DSTYLE
1002
{
1070
   171
1070
     6
1070
   273
1070
     5
1002
}
  0
DIMENSION
  5
E1
330
1F
100
AcDbEntity
  8
치수문자_일반주서
100
AcDbDimension
  2
_D_1
 10
25.40000000000001
 20
16.96338261770565
 30
0.0
 11
6.327250000000014
 21
16.96338261770565
 31
0.0
 70
   160
  1
<>
 71
     2
 42
19.05
  3
SLDDIMSTYLE2
100
AcDbAlignedDimension
 13
44.45000000000002
 23
4.564062500000006
 33
0.0
 14
25.40000000000001
 24
4.368228095054447
 34
0.0
100
AcDbRotatedDimension
1001
ACAD
1000
DSTYLE
1002
{
1070
   171
1070
     6
1070
   273
1070
     5
1002
}
  0
DIMENSION
  5
F5
330
1F
100
AcDbEntity
  8
치수문자_일반주서
100
AcDbDimension
  2
_D_2
 10
-44.45000000000006
 20
31.85061685550115
 30
0.0
 11
1.294510046131606
 21
31.85061685550115
 31
0.0
 70
   160
  1
<>
 71
     2
 42
88.90000000000008
  3
SLDDIMSTYLE2
100
AcDbAlignedDimension
 13
44.45000000000002
 23
4.564062500000006
 33
0.0
 14
-44.45000000000006
 24
4.564062499999991
 34
0.0
100
AcDbRotatedDimension
1001
ACAD
1000
DSTYLE
1002
{
1070
   171
1070
     6
1070
   273
1070
     5
1002
}
  0
DIMENSION
  5
109
330
1F
100
AcDbEntity
  8
치수문자_일반주서
100
AcDbDimension
  2
_D_3
 10
-56.97374999999999
 20
-4.762500000000134
 30
0.0
 11
-56.97375000000001
 21
0.0000000000000007
 31
0.0
 70
   160
  1
%%c<>
 71
     2
 42
9.52500000000002
 52
-270.0
  3
SLDDIMSTYLE2
100
AcDbAlignedDimension
 13
-23.65942116787305
 23
4.76250000000001
 33
0.0
 14
-23.65942116787305
 24
-4.76250000000001
 34
0.0
 50
90.0000000000002
100
AcDbRotatedDimension
1001
ACAD
1000
DSTYLE
1002
{
1070
   171
1070
     6
1070
   273
1070
     5
1002
}
  0
LINE
  5
11E
330
1F
100
AcDbEntity
  8
참조1
100
AcDbLine
 10
68.7193644723612
 20
7.441074928723896
 30
0.0
 11
68.7193644723612
 21
-7.438925071276109
 31
0.0
  0
LINE
  5
11F
330
1F
100
AcDbEntity
  8
참조1
100
AcDbLine
 10
81.41936447236121
 20
5.441074928723896
 30
0.0
 11
68.7193644723612
 21
5.441074928723896
 31
0.0
  0
SOLID
  5
120
330
1F
100
AcDbEntity
  8
참조1
100
AcDbTrace
 10
68.7193644723612
 20
5.441074928723896
 30
0.0
 11
75.0693644723612
 21
4.425074928723896
 31
0.0
 12
75.0693644723612
 22
6.457074928723896
 32
0.0
 13
75.0693644723612
 23
6.457074928723896
 33
0.0
  0
LINE
  5
121
330
1F
100
AcDbEntity
  8
참조1
100
AcDbLine
 10
81.41936447236121
 20
-5.438925071276109
 30
0.0
 11
68.7193644723612
 21
-5.438925071276109
 31
0.0
  0
SOLID
  5
122
330
1F
100
AcDbEntity
  8
참조1
100
AcDbTrace
 10
68.7193644723612
 20
-5.438925071276109
 30
0.0
 11
75.0693644723612
 21
-6.454925071276109
 31
0.0
 12
75.0693644723612
 22
-4.422925071276109
 32
0.0
 13
75.0693644723612
 23
-4.422925071276109
 33
0.0
  0
MTEXT
  5
123
330
1F
100
AcDbEntity
  8
참조1
100
AcDbMText
 10
78.1037146049872
 20
11.01136670591223
 30
0.0
 40
3.5
 41
0.0
 71
     1
 72
     1
  1
A
  7
SLDTEXTSTYLE0
 73
     1
 44
1.0
  0
MTEXT
  5
124
330
1F
100
AcDbEntity
  8
참조1
100
AcDbMText
 10
78.1037146049872
 20
0.1313667059122219
 30
0.0
 40
3.5
 41
0.0
 71
     1
 72
     1
  1
A
  7
SLDTEXTSTYLE0
 73
     1
 44
1.0
  0
INSERT
  5
12B
330
1F
100
AcDbEntity
  8
해칭선
100
AcDbBlockReference
  2
SW_DOWELSYMBOL_0
 10
0.0
 20
0.0
 30
0.0
  0
LINE
  5
309
330
1F
100
AcDbEntity
  8
0
  6
Continuous
 62
     1
370
    15
100
AcDbLine
 10
-35.49470207678014
 20
-4.564062500000006
 30
0.0
 11
-32.71029086279044
 21
-4.564062500000006
 31
0.0
  0
LINE
  5
30A
330
1F
100
AcDbEntity
  8
0
  6
Continuous
 62
     1
370
    15
100
AcDbLine
 10
-32.71029086279036
 20
4.564062499999999
 30
0.0
 11
-35.49470207678017
 21
4.564062499999999
 31
0.0
  0
LINE
  5
30B
330
1F
100
AcDbEntity
  8
외형선
  6
Continuous
370
    15
100
AcDbLine
 10
-23.65942116787305
 20
4.76250000000001
 30
0.0
 11
-24.40000000000005
 21
4.564062499999999
 31
0.0
  0
LINE
  5
30C
330
1F
100
AcDbEntity
  8
외형선
  6
Continuous
370
    15
100
AcDbLine
 10
-24.40000000000005
 20
-4.564062500000006
 30
0.0
 11
-23.65942116787305
 21
-4.76250000000001
 31
0.0
  0
LINE
  5
30F
330
1F
100
AcDbEntity
  8
외형선
  6
Continuous
370
    15
100
AcDbLine
 10
-24.40000000000005
 20
4.564062499999999
 30
0.0
 11
-24.90017941891638
 21
4.564062499999999
 31
0.0
  0
LINE
  5
310
330
1F
100
AcDbEntity
  8
외형선
  6
Continuous
370
    15
100
AcDbLine
 10
-24.90017941891638
 20
-4.564062500000006
 30
0.0
 11
-24.40000000000005
 21
-4.564062500000006
 31
0.0
  0
LINE
  5
311
330
1F
100
AcDbEntity
  8
0
  6
Continuous
 62
     1
370
    15
100
AcDbLine
 10
-44.45000000000003
 20
4.133586283087553
 30
0.0
 11
-44.45000000000003
 21
-0.3910550330876105
 31
0.0
  0
SPLINE
  5
312
330
1F
100
AcDbEntity
  8
0
  6
Continuous
 62
     1
370
    15
100
AcDbSpline
210
0.0
220
0.0
230
1.0
 70
     8
 71
     3
 72
    42
 73
    38
 74
     0
 42
0.000000001
 43
0.00000001
 40
0.0
 40
0.0
 40
0.0
 40
0.0
 40
0.0624999999999995
 40
0.0624999999999995
 40
0.124999999999999
 40
0.124999999999999
 40
0.1874999999999986
 40
0.1874999999999986
 40
0.2187499999999983
 40
0.2187499999999983
 40
0.2499999999999981
 40
0.2499999999999981
 40
0.3124999999999976
 40
0.3124999999999976
 40
0.3749999999999971
 40
0.3749999999999971
 40
0.4374999999999966
 40
0.4374999999999966
 40
0.4999999999999961
 40
0.4999999999999961
 40
0.5624999999999957
 40
0.5624999999999957
 40
0.6249999999999951
 40
0.6249999999999951
 40
0.6874999999999947
 40
0.6874999999999947
 40
0.7187499999999952
 40
0.7187499999999952
 40
0.7499999999999957
 40
0.7499999999999957
 40
0.8124999999999968
 40
0.8124999999999968
 40
0.8749999999999979
 40
0.8749999999999979
 40
0.9374999999999989
 40
0.9374999999999989
 40
1.0
 40
1.0
 40
1.0
 40
1.0
 10
-44.45000000000003
 20
4.133586283087553
 30
0.0
 10
-44.05602614847517
 20
4.036680097406716
 30
0.0
 10
-43.65664283582051
 20
3.923692365290705
 30
0.0
 10
-42.86053467404516
 20
3.669067329904074
 30
0.0
 10
-42.46730759447185
 20
3.527932483466223
 30
0.0
 10
-41.67291343532928
 20
3.219191872717268
 30
0.0
 10
-41.27296106079415
 20
3.051635387587659
 30
0.0
 10
-40.67905511165925
 20
2.784832833139234
 30
0.0
 10
-40.48248612794846
 20
2.693404107912649
 30
0.0
 10
-40.08593848473105
 20
2.505111220325219
 30
0.0
 10
-39.8867992878338
 20
2.408369091451156
 30
0.0
 10
-39.28932126173892
 20
2.111558402335326
 30
0.0
 10
-38.89383937574108
 20
1.905404874554058
 30
0.0
 10
-38.10233552146271
 20
1.480226957796148
 30
0.0
 10
-37.70241587500404
 20
1.260472158260967
 30
0.0
 10
-36.90777823704734
 20
0.8140311226909916
 30
0.0
 10
-36.51466047265201
 20
0.5876837820058399
 30
0.0
 10
-35.71868132155099
 20
0.1304106334205955
 30
0.0
 10
-35.31920706821573
 20
-0.0998701956874654
 30
0.0
 10
-34.53077670913582
 20
-0.5559305093075649
 30
0.0
 10
-34.13196415104694
 20
-0.7836037110135264
 30
0.0
 10
-33.33574098145245
 20
-1.231032843212489
 30
0.0
 10
-32.94237793764715
 20
-1.450051166187635
 30
0.0
 10
-32.14824115973927
 20
-1.87686518419725
 30
0.0
 10
-31.74826316960464
 20
-2.08446123980967
 30
0.0
 10
-31.15408947849166
 20
-2.381893030962608
 30
0.0
 10
-30.95755951472474
 20
-2.478634257348816
 30
0.0
 10
-30.561172435546
 20
-2.667800466527012
 30
0.0
 10
-30.36207543175119
 20
-2.760093596226412
 30
0.0
 10
-29.76460793109491
 20
-3.028889069339002
 30
0.0
 10
-29.36874547386738
 20
-3.196907987075164
 30
0.0
 10
-28.57762609781578
 20
-3.507555793122705
 30
0.0
 10
-28.17774628996007
 20
-3.650724389328744
 30
0.0
 10
-27.38287908986082
 20
-3.90777692723961
 30
0.0
 10
-26.98984398519646
 20
-4.021575670218667
 30
0.0
 10
-26.19400784005605
 20
-4.218874784330097
 30
0.0
 10
-25.7944497300419
 20
-4.301964307644873
 30
0.0
 10
-25.40000000000005
 20
-4.368228095054441
 30
0.0
  0
SPLINE
  5
313
330
1F
100
AcDbEntity
  8
0
  6
Continuous
 62
     1
370
    15
100
AcDbSpline
210
0.0
220
0.0
230
1.0
 70
     8
 71
     3
 72
    17
 73
    13
 74
     0
 42
0.000000001
 43
0.00000001
 40
0.0
 40
0.0
 40
0.0
 40
0.0
 40
0.1074125698908168
 40
0.2148077615206343
 40
0.3221883343526896
 40
0.4295570673125577
 40
0.5369167551261325
 40
0.6442702046127787
 40
0.7454718811060478
 40
0.8466784319486328
 40
0.947905400589825
 40
1.0
 40
1.0
 40
1.0
 40
1.0
 10
-44.45000000000003
 20
-0.3910550330876105
 30
0.0
 10
-43.85708220751134
 20
-0.730092500098891
 30
0.0
 10
-42.67134255060044
 20
-1.408112581308629
 30
0.0
 10
-40.89293652880561
 20
-2.348971298917988
 30
0.0
 10
-39.11481768378859
 20
-3.172862430826655
 30
0.0
 10
-37.33692918823918
 20
-3.83646620785855
 30
0.0
 10
-35.55924272068832
 20
-4.30709309674161
 30
0.0
 10
-33.81553171679532
 20
-4.555236896786461
 30
0.0
 10
-32.10608934917128
 20
-4.586366647449211
 30
0.0
 10
-30.43036478540002
 20
-4.402928594998833
 30
0.0
 10
-29.02563794703538
 20
-4.110583461507574
 30
0.0
 10
-28.17937738393449
 20
-3.81959861344582
 30
0.0
 10
-27.8918405057792
 20
-3.720729685304356
 30
0.0
  0
SPLINE
  5
314
330
1F
100
AcDbEntity
  8
0
  6
Continuous
 62
     1
370
    15
100
AcDbSpline
210
0.0
220
0.0
230
1.0
 70
     8
 71
     3
 72
    16
 73
    12
 74
     0
 42
0.000000001
 43
0.00000001
 40
0.0
 40
0.0
 40
0.0
 40
0.0
 40
0.1192978398504798
 40
0.2385788658545187
 40
0.3578424007772913
 40
0.4770915225581249
 40
0.596329328353149
 40
0.7155589304374019
 40
0.8279551054519483
 40
0.940352695966818
 40
1.0
 40
1.0
 40
1.0
 40
1.0
 10
-25.40000000000005
 20
1.322592081287127
 30
0.0
 10
-25.99294706230155
 20
1.643655787643318
 30
0.0
 10
-27.17875761690139
 20
2.285737949612987
 30
0.0
 10
-28.95728308526368
 20
3.115885655476013
 30
0.0
 10
-30.73551302832512
 20
3.793752139980526
 30
0.0
 10
-32.51349104713096
 20
4.279370916899246
 30
0.0
 10
-34.2912447255048
 20
4.549112081116384
 30
0.0
 10
-36.03499757544431
 20
4.591231871715273
 30
0.0
 10
-37.74445517639641
 20
4.408023050842921
 30
0.0
 10
-39.15789367859604
 20
4.116140884739522
 30
0.0
 10
-40.01285117448565
 20
3.823330579487177
 30
0.0
 10
-40.30926165401043
 20
3.721814371480448
 30
0.0
  0
SPLINE
  5
315
330
1F
100
AcDbEntity
  8
외형선
  6
Continuous
370
    15
100
AcDbSpline
210
0.0
220
0.0
230
1.0
 70
    24
 71
     3
 72
    24
 73
    20
 74
     0
 42
0.000000001
 43
0.00000001
 40
0.0
 40
0.0
 40
0.0
 40
0.0
 40
0.1250000000000002
 40
0.1250000000000002
 40
0.1875000000000003
 40
0.1875000000000003
 40
0.2500000000000004
 40
0.2500000000000004
 40
0.3750000000000003
 40
0.3750000000000003
 40
0.5000000000000003
 40
0.5000000000000003
 40
0.6250000000000002
 40
0.6250000000000002
 40
0.7500000000000001
 40
0.7500000000000001
 40
0.875
 40
0.875
 40
1.0
 40
1.0
 40
1.0
 40
1.0
 10
-25.40000000000005
 20
-3.644321886645969
 30
0.0
 10
-25.40000000000008
 20
-3.524559406041668
 30
0.0
 10
-25.40000000000008
 20
-3.39720295046272
 30
0.0
 10
-25.40000000000008
 20
-3.208044179000737
 30
0.0
 10
-25.40000000000008
 20
-3.142328125492185
 30
0.0
 10
-25.40000000000008
 20
-2.99609383735266
 30
0.0
 10
-25.40000000000008
 20
-2.916803405535696
 30
0.0
 10
-25.40000000000008
 20
-2.658541926487004
 30
0.0
 10
-25.40000000000008
 20
-2.458749148934857
 30
0.0
 10
-25.40000000000005
 20
-2.000609409237228
 30
0.0
 10
-25.40000000000002
 20
-1.741802074762191
 30
0.0
 10
-25.40000000000005
 20
-1.181180698979603
 30
0.0
 10
-25.40000000000005
 20
-0.8792659698329145
 30
0.0
 10
-25.40000000000005
 20
-0.278344845441559
 30
0.0
 10
-25.40000000000008
 20
0.0197338543153408
 30
0.0
 10
-25.40000000000008
 20
0.5470866130663766
 30
0.0
 10
-25.40000000000008
 20
0.7749763738763776
 30
0.0
 10
-25.40000000000008
 20
1.114847774164588
 30
0.0
 10
-25.40000000000005
 20
1.226620105413964
 30
0.0
 10
-25.40000000000005
 20
1.281045601733091
 30
0.0
  0
SPLINE
  5
316
330
1F
100
AcDbEntity
  8
0
  6
Continuous
 62
     1
370
    15
100
AcDbSpline
210
0.0
220
0.0
230
1.0
 70
     8
 71
     3
 72
    42
 73
    38
 74
     0
 42
0.000000001
 43
0.00000001
 40
0.0
 40
0.0
 40
0.0
 40
0.0
 40
0.0625000000000013
 40
0.0625000000000013
 40
0.1250000000000026
 40
0.1250000000000026
 40
0.1875000000000038
 40
0.1875000000000038
 40
0.2187500000000036
 40
0.2187500000000036
 40
0.2500000000000034
 40
0.2500000000000034
 40
0.3125000000000032
 40
0.3125000000000032
 40
0.3750000000000029
 40
0.3750000000000029
 40
0.4375000000000026
 40
0.4375000000000026
 40
0.5000000000000023
 40
0.5000000000000023
 40
0.562500000000002
 40
0.562500000000002
 40
0.6250000000000018
 40
0.6250000000000018
 40
0.6875000000000014
 40
0.6875000000000014
 40
0.7187500000000013
 40
0.7187500000000013
 40
0.7500000000000012
 40
0.7500000000000012
 40
0.8125000000000009
 40
0.8125000000000009
 40
0.8750000000000007
 40
0.8750000000000007
 40
0.9375000000000003
 40
0.9375000000000003
 40
1.0
 40
1.0
 40
1.0
 40
1.0
 10
-44.45000000000006
 20
4.564062499999991
 30
0.0
 10
-44.05602614847514
 20
4.527694015814205
 30
0.0
 10
-43.65664283582051
 20
4.490815016460608
 30
0.0
 10
-42.86053467404516
 20
4.383367186519095
 30
0.0
 10
-42.46730759447185
 20
4.313103412319244
 30
0.0
 10
-41.67291343532925
 20
4.14012200796072
 30
0.0
 10
-41.27296106079412
 20
4.03735516141667
 30
0.0
 10
-40.67905511165925
 20
3.861473698025186
 30
0.0
 10
-40.48248612794846
 20
3.799296291773295
 30
0.0
 10
-40.08593848473105
 20
3.667531711475085
 30
0.0
 10
-39.88679928783385
 20
3.59802192783922
 30
0.0
 10
-39.28932126173895
 20
3.379450712103328
 30
0.0
 10
-38.89383937574111
 20
3.220723955213266
 30
0.0
 10
-38.10233552146276
 20
2.880170476545977
 30
0.0
 10
-37.70241587500404
 20
2.697723363990775
 30
0.0
 10
-36.90777823704734
 20
2.314583367026302
 30
0.0
 10
-36.51466047265201
 20
2.114235396174067
 30
0.0
 10
-35.71868132155096
 20
1.697446008475325
 30
0.0
 10
-35.31920706821573
 20
1.481539733715998
 30
0.0
 10
-34.53077670913594
 20
1.042120079113687
 30
0.0
 10
-34.13196415104694
 20
0.8167869001092357
 30
0.0
 10
-33.33574098145245
 20
0.3618857824732588
 30
0.0
 10
-32.94237793764709
 20
0.133114629541467
 30
0.0
 10
-32.14824115973924
 20
-0.3251246579011208
 30
0.0
 10
-31.7482631696047
 20
-0.5544328025272448
 30
0.0
 10
-31.15408947849174
 20
-0.8928596337065072
 30
0.0
 10
-30.95755951472479
 20
-1.004644856095787
 30
0.0
 10
-30.56117243554606
 20
-1.226735491250054
 30
0.0
 10
-30.36207543175119
 20
-1.336894243931276
 30
0.0
 10
-29.76460793109491
 20
-1.663288663912127
 30
0.0
 10
-29.36874547386738
 20
-1.874951715946075
 30
0.0
 10
-28.57762609781581
 20
-2.282477231317536
 30
0.0
 10
-28.17774628996007
 20
-2.479091383501661
 30
0.0
 10
-27.38287908986082
 20
-2.85128142821921
 30
0.0
 10
-26.98984398519649
 20
-3.026638820958539
 30
0.0
 10
-26.19400784005605
 20
-3.354607944616347
 30
0.0
 10
-25.79444973004193
 20
-3.506660588125897
 30
0.0
 10
-25.40000000000008
 20
-3.644321886645812
 30
0.0
  0
LINE
  5
317
330
1F
100
AcDbEntity
  8
0
  6
Continuous
 62
     1
370
    15
100
AcDbLine
 10
-44.45000000000006
 20
4.564062499999991
 30
0.0
 11
-44.45000000000003
 21
4.133586283087553
 31
0.0
  0
LINE
  5
318
330
1F
100
AcDbEntity
  8
외형선
  6
Continuous
370
    15
100
AcDbLine
 10
-25.40000000000005
 20
-3.644321886645962
 30
0.0
 11
-25.40000000000005
 21
-4.368228095054448
 31
0.0
  0
SPLINE
  5
319
330
1F
100
AcDbEntity
  8
0
  6
Continuous
 62
     1
370
    15
100
AcDbSpline
210
0.0
220
0.0
230
1.0
 70
     8
 71
     3
 72
    13
 73
     9
 74
     0
 42
0.000000001
 43
0.00000001
 40
0.0
 40
0.0
 40
0.0
 40
0.0
 40
0.0641164487169487
 40
0.2512310834779657
 40
0.4383480747322177
 40
0.6254961801884134
 40
0.8127040283099014
 40
1.0
 40
1.0
 40
1.0
 40
1.0
 10
-35.49470207678014
 20
-4.538858888051251
 30
0.0
 10
-35.68610603984622
 20
-4.545959646933923
 30
0.0
 10
-36.43609494262152
 20
-4.573782949429734
 30
0.0
 10
-37.74444635095155
 20
-4.403706527809554
 30
0.0
 10
-39.42012208308584
 20
-4.045343355231452
 30
0.0
 10
-41.09610782083929
 20
-3.489011081096102
 30
0.0
 10
-42.77272752573798
 20
-2.786493864648406
 30
0.0
 10
-43.89082147660424
 20
-2.218859608432304
 30
0.0
 10
-44.45000000000003
 20
-1.93497569601702
 30
0.0
  0
LINE
  5
31A
330
1F
100
AcDbEntity
  8
0
  6
Continuous
 62
     1
370
    15
100
AcDbLine
 10
-44.45000000000003
 20
-0.3910550330876105
 30
0.0
 11
-44.45000000000003
 21
-1.93497569601702
 31
0.0
  0
SPLINE
  5
31B
330
1F
100
AcDbEntity
  8
0
  6
Continuous
 62
     1
370
    15
100
AcDbSpline
210
0.0
220
0.0
230
1.0
 70
     8
 71
     3
 72
    12
 73
     8
 74
     0
 42
0.000000001
 43
0.00000001
 40
0.0
 40
0.0
 40
0.0
 40
0.0
 40
0.0826567257165275
 40
0.311890147648758
 40
0.5411698160127075
 40
0.7705307447896518
 40
1.0
 40
1.0
 40
1.0
 40
1.0
 10
-32.71029086279039
 20
4.54043669058899
 30
0.0
 10
-32.50889430032471
 20
4.546712613405319
 30
0.0
 10
-31.74896093665878
 20
4.570393668719916
 30
0.0
 10
-30.43037324798262
 20
4.400194657560206
 30
0.0
 10
-28.75426098235768
 20
4.034909397498012
 30
0.0
 10
-27.0774665543545
 20
3.484119766800475
 30
0.0
 10
-25.95924351953089
 20
2.993179039470384
 30
0.0
 10
-25.40000000000008
 20
2.747650722057024
 30
0.0
  0
LINE
  5
31C
330
1F
100
AcDbEntity
  8
외형선
  6
Continuous
370
    15
100
AcDbLine
 10
-25.40000000000005
 20
2.747650722057188
 30
0.0
 11
-25.40000000000002
 21
1.322592081287119
 31
0.0
  0
SPLINE
  5
31D
330
1F
100
AcDbEntity
  8
0
  6
Continuous
 62
     1
370
    15
100
AcDbSpline
210
0.0
220
0.0
230
1.0
 70
     8
 71
     3
 72
    10
 73
     6
 74
     0
 42
0.000000001
 43
0.00000001
 40
0.0
 40
0.0
 40
0.0
 40
0.0
 40
0.4295613953454154
 40
0.8590532920273956
 40
1.0
 40
1.0
 40
1.0
 40
1.0
 10
-44.45000000000003
 20
-4.564062500000006
 30
0.0
 10
-43.85708275673194
 20
-4.493312027668395
 30
0.0
 10
-42.67134419817346
 20
-4.385387658449474
 30
0.0
 10
-41.29110936712176
 20
-4.074059406330413
 30
0.0
 10
-40.50379505305177
 20
-3.791604648536421
 30
0.0
 10
-40.30926165401043
 20
-3.721814371480448
 30
0.0
  0
LINE
  5
31E
330
1F
100
AcDbEntity
  8
0
  6
Continuous
 62
     1
370
    15
100
AcDbLine
 10
-44.45000000000003
 20
-1.930029563637895
 30
0.0
 11
-44.45000000000006
 21
-4.564062500000006
 31
0.0
  0
SPLINE
  5
31F
330
1F
100
AcDbEntity
  8
0
  6
Continuous
 62
     1
370
    15
100
AcDbSpline
210
0.0
220
0.0
230
1.0
 70
     8
 71
     3
 72
     9
 73
     5
 74
     0
 42
0.000000001
 43
0.00000001
 40
0.0
 40
0.0
 40
0.0
 40
0.0
 40
0.7138565245298434
 40
1.0
 40
1.0
 40
1.0
 40
1.0
 10
-25.40000000000005
 20
4.368228095054434
 30
0.0
 10
-25.99294958606676
 20
4.256970962716473
 30
0.0
 10
-26.82357810271053
 20
4.101117330347932
 30
0.0
 10
-27.6541715967047
 20
3.805359001437907
 30
0.0
 10
-27.89184050577909
 20
3.720729685304349
 30
0.0
  0
SPLINE
  5
320
330
1F
100
AcDbEntity
  8
외형선
  6
Continuous
370
    15
100
AcDbSpline
210
0.0
220
0.0
230
1.0
 70
    24
 71
     3
 72
    12
 73
     8
 74
     0
 42
0.000000001
 43
0.00000001
 40
0.0
 40
0.0
 40
0.0
 40
0.0
 40
0.137205006434042
 40
0.4115294734476535
 40
0.6938093685887208
 40
0.8462457077725564
 40
1.0
 40
1.0
 40
1.0
 40
1.0
 10
-25.40000000000005
 20
2.809027535070271
 30
0.0
 10
-25.40000000000008
 20
2.870740161980443
 30
0.0
 10
-25.40000000000008
 20
3.055839565547942
 30
0.0
 10
-25.39999999999996
 20
3.411849180424767
 30
0.0
 10
-25.40000000000011
 20
3.7907652191452
 30
0.0
 10
-25.39999999999999
 20
4.113931196857322
 30
0.0
 10
-25.40000000000002
 20
4.283219569927972
 30
0.0
 10
-25.40000000000002
 20
4.368228095054434
 30
0.0
  0
LINE
  5
321
330
1F
100
AcDbEntity
  8
외형선
  6
Continuous
370
    15
100
AcDbLine
 10
-24.40000000000005
 20
0.0000000000000001
 30
0.0
 11
-24.40000000000005
 21
-4.564062500000006
 31
0.0
  0
LINE
  5
322
330
1F
100
AcDbEntity
  8
외형선
  6
Continuous
370
    15
100
AcDbLine
 10
-24.40000000000005
 20
4.564062499999999
 30
0.0
 11
-24.40000000000005
 21
0.0000000000000001
 31
0.0
  0
LINE
  5
323
330
1F
100
AcDbEntity
  8
외형선
  6
Continuous
370
    15
100
AcDbLine
 10
-23.65942116787305
 20
0.0000000000000001
 30
0.0
 11
-23.65942116787305
 21
-4.76250000000001
 31
0.0
  0
LINE
  5
324
330
1F
100
AcDbEntity
  8
외형선
  6
Continuous
370
    15
100
AcDbLine
 10
-23.65942116787305
 20
4.76250000000001
 30
0.0
 11
-23.65942116787305
 21
0.0000000000000001
 31
0.0
  0
LINE
  5
325
330
1F
100
AcDbEntity
  8
외형선
  6
Continuous
370
    15
100
AcDbLine
 10
-24.90017941891641
 20
-4.443208217452685
 30
0.0
 11
-24.90017941891638
 21
-4.564062500000006
 31
0.0
  0
SPLINE
  5
326
330
1F
100
AcDbEntity
  8
외형선
  6
Continuous
370
    15
100
AcDbSpline
210
0.0
220
0.0
230
1.0
 70
     8
 71
     3
 72
     8
 73
     4
 74
     0
 42
0.000000001
 43
0.00000001
 40
0.0
 40
0.0
 40
0.0
 40
0.0
 40
1.0
 40
1.0
 40
1.0
 40
1.0
 10
-25.40000000000005
 20
-4.368228095054441
 30
0.0
 10
-25.23384711601459
 20
-4.396140192701793
 30
0.0
 10
-25.06744278760387
 20
-4.421149496374341
 30
0.0
 10
-24.90017941891638
 20
-4.443216456987763
 30
0.0
  0
SPLINE
  5
327
330
1F
100
AcDbEntity
  8
외형선
  6
Continuous
370
    15
100
AcDbSpline
210
0.0
220
0.0
230
1.0
 70
     8
 71
     3
 72
     8
 73
     4
 74
     0
 42
0.000000001
 43
0.00000001
 40
0.0
 40
0.0
 40
0.0
 40
0.0
 40
1.0
 40
1.0
 40
1.0
 40
1.0
 10
-25.40000000000005
 20
-3.644321886645827
 30
0.0
 10
-25.23384711601462
 20
-3.702308545072086
 30
0.0
 10
-25.06744278760387
 20
-3.757891021876851
 30
0.0
 10
-24.90017941891641
 20
-3.811008423798455
 30
0.0
  0
LINE
  5
328
330
1F
100
AcDbEntity
  8
외형선
  6
Continuous
370
    15
100
AcDbLine
 10
-24.90017941891641
 20
1.043344257791887
 30
0.0
 11
-24.90017941891638
 21
-3.811027333830971
 31
0.0
  0
SPLINE
  5
329
330
1F
100
AcDbEntity
  8
외형선
  6
Continuous
370
    15
100
AcDbSpline
210
0.0
220
0.0
230
1.0
 70
     8
 71
     3
 72
     8
 73
     4
 74
     0
 42
0.000000001
 43
0.00000001
 40
0.0
 40
0.0
 40
0.0
 40
0.0
 40
1.0
 40
1.0
 40
1.0
 40
1.0
 10
-25.40000000000005
 20
1.322592081287127
 30
0.0
 10
-25.23384711601459
 20
1.230404617850638
 30
0.0
 10
-25.06744278760387
 20
1.137287334456929
 30
0.0
 10
-24.90017941891638
 20
1.043309168108607
 30
0.0
  0
SPLINE
  5
32A
330
1F
100
AcDbEntity
  8
외형선
  6
Continuous
370
    15
100
AcDbSpline
210
0.0
220
0.0
230
1.0
 70
     8
 71
     3
 72
     8
 73
     4
 74
     0
 42
0.000000001
 43
0.00000001
 40
0.0
 40
0.0
 40
0.0
 40
0.0
 40
1.0
 40
1.0
 40
1.0
 40
1.0
 10
-25.40000000000005
 20
2.747650722057003
 30
0.0
 10
-25.23384711601462
 20
2.670740637838563
 30
0.0
 10
-25.06744278760387
 20
2.591956870417491
 30
0.0
 10
-24.90017941891641
 20
2.511350492791358
 30
0.0
  0
LINE
  5
32B
330
1F
100
AcDbEntity
  8
외형선
  6
Continuous
370
    15
100
AcDbLine
 10
-24.90017941891638
 20
4.564062499999999
 30
0.0
 11
-24.90017941891638
 21
2.511321796325475
 31
0.0
  0
SPLINE
  5
32C
330
1F
100
AcDbEntity
  8
외형선
  6
Continuous
370
    15
100
AcDbSpline
210
0.0
220
0.0
230
1.0
 70
     8
 71
     3
 72
     8
 73
     4
 74
     0
 42
0.000000001
 43
0.00000001
 40
0.0
 40
0.0
 40
0.0
 40
0.0
 40
1.0
 40
1.0
 40
1.0
 40
1.0
 10
-25.40000000000005
 20
4.368228095054434
 30
0.0
 10
-25.23384711601459
 20
4.396140192701779
 30
0.0
 10
-25.06744278760387
 20
4.421149496374333
 30
0.0
 10
-24.90017941891638
 20
4.443216456987756
 30
0.0
  0
SPLINE
  5
32D
330
1F
100
AcDbEntity
  8
외형선
  6
Continuous
370
    15
100
AcDbSpline
210
0.0
220
0.0
230
1.0
 70
    24
 71
     3
 72
    21
 73
    17
 74
     0
 42
0.000000001
 43
0.00000001
 40
0.0
 40
0.0
 40
0.0
 40
0.0
 40
0.0408390708200289
 40
0.1116138866509965
 40
0.1844411769356895
 40
0.2552159927666576
 40
0.328043283051351
 40
0.3988180988823176
 40
0.4716453891670087
 40
0.5424202049979776
 40
0.6152474952826712
 40
0.6860223111136362
 40
0.7588496013983257
 40
0.8296244172292958
 40
0.9024517075139906
 40
1.0
 40
1.0
 40
1.0
 40
1.0
 10
-25.40000000000002
 20
1.258723352669783
 30
0.0
 10
-25.40000000000002
 20
1.250706452048519
 30
0.0
 10
-25.39999999999999
 20
1.228796124039903
 30
0.0
 10
-25.40000000000016
 20
1.074032025395368
 30
0.0
 10
-25.39999999999999
 20
0.8506755513077452
 30
0.0
 10
-25.40000000000011
 20
0.5532779933020252
 30
0.0
 10
-25.40000000000005
 20
0.204859362466074
 30
0.0
 10
-25.40000000000002
 20
-0.1934718098966356
 30
0.0
 10
-25.40000000000008
 20
-0.6226099547145195
 30
0.0
 10
-25.40000000000008
 20
-1.07830138006301
 30
0.0
 10
-25.40000000000008
 20
-1.539431802061614
 30
0.0
 10
-25.40000000000002
 20
-2.001136693585096
 30
0.0
 10
-25.40000000000005
 20
-2.442498346188188
 30
0.0
 10
-25.40000000000011
 20
-2.857233098944064
 30
0.0
 10
-25.40000000000005
 20
-3.279482032186635
 30
0.0
 10
-25.40000000000005
 20
-3.511487495536642
 30
0.0
 10
-25.40000000000005
 20
-3.644321886645827
 30
0.0
  0
SPLINE
  5
32E
330
1F
100
AcDbEntity
  8
외형선
  6
Continuous
370
    15
100
AcDbSpline
210
0.0
220
0.0
230
1.0
 70
    24
 71
     3
 72
    11
 73
     7
 74
     0
 42
0.000000001
 43
0.00000001
 40
0.0
 40
0.0
 40
0.0
 40
0.0
 40
0.228389745587795
 40
0.4612686668457694
 40
0.7364692264894697
 40
1.0
 40
1.0
 40
1.0
 40
1.0
 10
-25.40000000000002
 20
4.368228095054434
 30
0.0
 10
-25.40000000000005
 20
4.242232692676431
 30
0.0
 10
-25.40000000000008
 20
3.987765351622983
 30
0.0
 10
-25.39999999999999
 20
3.589265107060797
 30
0.0
 10
-25.40000000000011
 20
3.185550776222669
 30
0.0
 10
-25.40000000000008
 20
2.932702918524114
 30
0.0
 10
-25.40000000000005
 20
2.809017535070268
 30
0.0
  0
CIRCLE
  5
330
330
1F
100
AcDbEntity
  8
해칭선
100
AcDbCircle
 10
197.7768847254937
 20
-55.88716944873184
 30
0.0
 40
3.000000000000008
  0
INSERT
  5
334
330
1F
100
AcDbEntity
  8
해칭선
100
AcDbBlockReference
  2
SW_DOWELSYMBOL_0
 10
197.7768847254937
 20
-55.88716944873184
 30
0.0
  0
LINE
  5
3AC
330
1F
100
AcDbEntity
  8
외형선
  6
Continuous
370
    15
100
AcDbLine
 10
-3.568700000000035
 20
3.492500000000021
 30
0.0
 11
3.568700000000035
 21
3.492500000000021
 31
0.0
  0
LINE
  5
3AD
330
1F
100
AcDbEntity
  8
외형선
  6
Continuous
370
    15
100
AcDbLine
 10
-3.568700000000035
 20
3.492500000000021
 30
0.0
 11
-4.838700000000017
 21
4.762500000000003
 31
0.0
  0
LINE
  5
3AE
330
1F
100
AcDbEntity
  8
외형선
  6
Continuous
370
    15
100
AcDbLine
 10
3.568700000000035
 20
3.492500000000021
 30
0.0
 11
4.838700000000017
 21
4.762500000000003
 31
0.0
  0
LINE
  5
3B0
330
1F
100
AcDbEntity
  8
외형선
  6
Continuous
370
    15
100
AcDbLine
 10
-4.838700000000018
 20
4.762500000000003
 30
0.0
 11
-23.65942116787307
 21
4.762500000000003
 31
0.0
  0
ENDSEC
  0
SECTION
  2
OBJECTS
  0
DICTIONARY
  5
C
330
0
100
AcDbDictionary
281
     1
  3
ACAD_GROUP
350
D
  3
ACAD_IMAGE_VARS
350
14F
  3
ACAD_LAYOUT
350
1A
  3
ACAD_MLINESTYLE
350
17
  3
ACAD_PLOTSETTINGS
350
19
  3
ACAD_PLOTSTYLENAME
350
E
  3
ACAD_SCALELIST
350
47
  3
APPDATA
350
14D
  3
DWGPROPS
350
3B1
  0
DICTIONARY
  5
1CF
330
2
100
AcDbDictionary
280
     1
281
     1
  3
ACAD_LAYERSTATES
360
1D0
  0
DICTIONARY
  5
D
102
{ACAD_REACTORS
330
C
102
}
330
C
100
AcDbDictionary
281
     1
  0
RASTERVARIABLES
  5
14F
102
{ACAD_REACTORS
330
C
102
}
330
C
100
AcDbRasterVariables
 90
        0
 70
     1
 71
     1
 72
     1
  0
DICTIONARY
  5
1A
102
{ACAD_REACTORS
330
C
102
}
330
C
100
AcDbDictionary
281
     1
  3
Layout1
350
1E
  3
Layout2
350
26
  3
Model
350
22
  0
DICTIONARY
  5
17
102
{ACAD_REACTORS
330
C
102
}
330
C
100
AcDbDictionary
281
     1
  3
Standard
350
18
  0
DICTIONARY
  5
19
102
{ACAD_REACTORS
330
C
102
}
330
C
100
AcDbDictionary
281
     1
  0
ACDBDICTIONARYWDFLT
  5
E
102
{ACAD_REACTORS
330
C
102
}
330
C
100
AcDbDictionary
281
     1
  3
Normal
350
F
100
AcDbDictionaryWithDefault
340
F
  0
DICTIONARY
  5
47
102
{ACAD_REACTORS
330
C
102
}
330
C
100
AcDbDictionary
281
     1
  3
A0
350
48
  3
A1
350
49
  3
A2
350
4A
  3
A3
350
4B
  3
A4
350
4C
  3
A5
350
4D
  3
A6
350
4E
  3
A7
350
4F
  3
A8
350
50
  3
A9
350
51
  3
B0
350
52
  3
B1
350
53
  3
B2
350
54
  3
B3
350
55
  3
B4
350
56
  3
B5
350
57
  3
B6
350
58
  3
B7
350
59
  3
B8
350
5A
  3
B9
350
5B
  3
C0
350
5C
  3
C1
350
5D
  3
C2
350
5E
  3
C3
350
5F
  3
C4
350
60
  3
C5
350
61
  3
C6
350
62
  3
C7
350
63
  3
C8
350
64
  3
C9
350
65
  3
D0
350
66
  3
D1
350
67
  3
D2
350
68
  0
DICTIONARY
  5
14D
102
{ACAD_REACTORS
330
C
102
}
330
C
100
AcDbDictionary
281
     1
  0
XRECORD
  5
3B1
102
{ACAD_REACTORS
330
C
102
}
330
C
100
AcDbXrecord
280
     1
  1
DWGPROPS COOKIE
  2

  3

  4

  6

  7

  8
12017012
  9

300
=
301
=
302
=
303
=
304
=
305
=
306
=
307
=
308
=
309
=
 40
0.0
 41
2458313.09729522
 42
2458318.981481724
  1

 90
        0
  0
DICTIONARY
  5
1D0
102
{ACAD_REACTORS
330
1CF
102
}
330
1CF
100
AcDbDictionary
281
     1
  0
LAYOUT
  5
1E
102
{ACAD_REACTORS
330
1A
102
}
330
1A
100
AcDbPlotSettings
  1

  2
none_device
  4

  6

 40
0.0
 41
0.0
 42
0.0
 43
0.0
 44
0.0
 45
0.0
 46
0.0
 47
0.0
 48
0.0
 49
0.0
140
0.0
141
0.0
142
1.0
143
1.0
 70
   688
 72
     1
 73
     0
 74
     5
  7

 75
    16
147
1.0
148
0.0
149
0.0
100
AcDbLayout
  1
Layout1
 70
     1
 71
     1
 10
0.0
 20
0.0
 11
420.0
 21
297.0
 12
0.0
 22
0.0
 32
0.0
 14
1.000000000000000E+20
 24
1.000000000000000E+20
 34
1.000000000000000E+20
 15
-1.000000000000000E+20
 25
-1.000000000000000E+20
 35
-1.000000000000000E+20
146
0.0
 13
0.0
 23
0.0
 33
0.0
 16
1.0
 26
0.0
 36
0.0
 17
0.0
 27
1.0
 37
0.0
 76
     0
330
1B
  0
LAYOUT
  5
26
102
{ACAD_REACTORS
330
1A
102
}
330
1A
100
AcDbPlotSettings
  1

  2
none_device
  4

  6

 40
0.0
 41
0.0
 42
0.0
 43
0.0
 44
0.0
 45
0.0
 46
0.0
 47
0.0
 48
0.0
 49
0.0
140
0.0
141
0.0
142
1.0
143
1.0
 70
   688
 72
     1
 73
     0
 74
     5
  7

 75
    16
147
1.0
148
0.0
149
0.0
100
AcDbLayout
  1
Layout2
 70
     1
 71
     2
 10
0.0
 20
0.0
 11
0.0
 21
0.0
 12
0.0
 22
0.0
 32
0.0
 14
0.0
 24
0.0
 34
0.0
 15
0.0
 25
0.0
 35
0.0
146
0.0
 13
0.0
 23
0.0
 33
0.0
 16
1.0
 26
0.0
 36
0.0
 17
0.0
 27
1.0
 37
0.0
 76
     0
330
23
  0
LAYOUT
  5
22
102
{ACAD_REACTORS
330
1A
102
}
330
1A
100
AcDbPlotSettings
  1

  2
none_device
  4
ANSI_A_(11.00_x_8.50_Inches)
  6

 40
6.35
 41
19.05
 42
6.35000508
 43
19.05000254
 44
279.4
 45
215.9
 46
76.40317549079083
 47
80.9879388680939
 48
0.0
 49
0.0
140
0.0
141
0.0
142
0.0509944409367187
143
1.0
 70
  1696
 72
     0
 73
     0
 74
     0
  7

 75
     0
147
0.0235690232323232
148
0.0
149
0.0
100
AcDbLayout
  1
Model
 70
     1
 71
     0
 10
0.0
 20
0.0
 11
420.0
 21
297.0
 12
0.0
 22
0.0
 32
0.0
 14
1.000000000000000E+20
 24
1.000000000000000E+20
 34
1.000000000000000E+20
 15
-1.000000000000000E+20
 25
-1.000000000000000E+20
 35
-1.000000000000000E+20
146
0.0
 13
0.0
 23
0.0
 33
0.0
 16
1.0
 26
0.0
 36
0.0
 17
0.0
 27
1.0
 37
0.0
 76
     0
330
1F
331
29
  0
MLINESTYLE
  5
18
102
{ACAD_REACTORS
330
17
102
}
330
17
100
AcDbMlineStyle
  2
Standard
 70
     0
  3

 62
   256
 51
90.0
 52
90.0
 71
     2
 49
0.5
 62
   256
  6
BYLAYER
 49
-0.5
 62
   256
  6
BYLAYER
  0
ACDBPLACEHOLDER
  5
F
102
{ACAD_REACTORS
330
E
102
}
330
E
  0
SCALE
  5
48
102
{ACAD_REACTORS
330
47
102
}
330
47
100
AcDbScale
 70
     0
300
1:1
140
1.0
141
1.0
290
     1
  0
SCALE
  5
49
102
{ACAD_REACTORS
330
47
102
}
330
47
100
AcDbScale
 70
     0
300
1:2
140
1.0
141
2.0
290
     0
  0
SCALE
  5
4A
102
{ACAD_REACTORS
330
47
102
}
330
47
100
AcDbScale
 70
     0
300
1:4
140
1.0
141
4.0
290
     0
  0
SCALE
  5
4B
102
{ACAD_REACTORS
330
47
102
}
330
47
100
AcDbScale
 70
     0
300
1:5
140
1.0
141
5.0
290
     0
  0
SCALE
  5
4C
102
{ACAD_REACTORS
330
47
102
}
330
47
100
AcDbScale
 70
     0
300
1:8
140
1.0
141
8.0
290
     0
  0
SCALE
  5
4D
102
{ACAD_REACTORS
330
47
102
}
330
47
100
AcDbScale
 70
     0
300
1:10
140
1.0
141
10.0
290
     0
  0
SCALE
  5
4E
102
{ACAD_REACTORS
330
47
102
}
330
47
100
AcDbScale
 70
     0
300
1:16
140
1.0
141
16.0
290
     0
  0
SCALE
  5
4F
102
{ACAD_REACTORS
330
47
102
}
330
47
100
AcDbScale
 70
     0
300
1:20
140
1.0
141
20.0
290
     0
  0
SCALE
  5
50
102
{ACAD_REACTORS
330
47
102
}
330
47
100
AcDbScale
 70
     0
300
1:30
140
1.0
141
30.0
290
     0
  0
SCALE
  5
51
102
{ACAD_REACTORS
330
47
102
}
330
47
100
AcDbScale
 70
     0
300
1:40
140
1.0
141
40.0
290
     0
  0
SCALE
  5
52
102
{ACAD_REACTORS
330
47
102
}
330
47
100
AcDbScale
 70
     0
300
1:50
140
1.0
141
50.0
290
     0
  0
SCALE
  5
53
102
{ACAD_REACTORS
330
47
102
}
330
47
100
AcDbScale
 70
     0
300
1:100
140
1.0
141
100.0
290
     0
  0
SCALE
  5
54
102
{ACAD_REACTORS
330
47
102
}
330
47
100
AcDbScale
 70
     0
300
2:1
140
2.0
141
1.0
290
     0
  0
SCALE
  5
55
102
{ACAD_REACTORS
330
47
102
}
330
47
100
AcDbScale
 70
     0
300
4:1
140
4.0
141
1.0
290
     0
  0
SCALE
  5
56
102
{ACAD_REACTORS
330
47
102
}
330
47
100
AcDbScale
 70
     0
300
8:1
140
8.0
141
1.0
290
     0
  0
SCALE
  5
57
102
{ACAD_REACTORS
330
47
102
}
330
47
100
AcDbScale
 70
     0
300
10:1
140
10.0
141
1.0
290
     0
  0
SCALE
  5
58
102
{ACAD_REACTORS
330
47
102
}
330
47
100
AcDbScale
 70
     0
300
100:1
140
100.0
141
1.0
290
     0
  0
SCALE
  5
59
102
{ACAD_REACTORS
330
47
102
}
330
47
100
AcDbScale
 70
     0
300
1/128" = 1'-0"
140
0.0078125
141
12.0
290
     0
  0
SCALE
  5
5A
102
{ACAD_REACTORS
330
47
102
}
330
47
100
AcDbScale
 70
     0
300
1/64" = 1'-0"
140
0.015625
141
12.0
290
     0
  0
SCALE
  5
5B
102
{ACAD_REACTORS
330
47
102
}
330
47
100
AcDbScale
 70
     0
300
1/32" = 1'-0"
140
0.03125
141
12.0
290
     0
  0
SCALE
  5
5C
102
{ACAD_REACTORS
330
47
102
}
330
47
100
AcDbScale
 70
     0
300
1/16" = 1'-0"
140
0.0625
141
12.0
290
     0
  0
SCALE
  5
5D
102
{ACAD_REACTORS
330
47
102
}
330
47
100
AcDbScale
 70
     0
300
3/32" = 1'-0"
140
0.09375
141
12.0
290
     0
  0
SCALE
  5
5E
102
{ACAD_REACTORS
330
47
102
}
330
47
100
AcDbScale
 70
     0
300
1/8" = 1'-0"
140
0.125
141
12.0
290
     0
  0
SCALE
  5
5F
102
{ACAD_REACTORS
330
47
102
}
330
47
100
AcDbScale
 70
     0
300
3/16" = 1'-0"
140
0.1875
141
12.0
290
     0
  0
SCALE
  5
60
102
{ACAD_REACTORS
330
47
102
}
330
47
100
AcDbScale
 70
     0
300
1/4" = 1'-0"
140
0.25
141
12.0
290
     0
  0
SCALE
  5
61
102
{ACAD_REACTORS
330
47
102
}
330
47
100
AcDbScale
 70
     0
300
3/8" = 1'-0"
140
0.375
141
12.0
290
     0
  0
SCALE
  5
62
102
{ACAD_REACTORS
330
47
102
}
330
47
100
AcDbScale
 70
     0
300
1/2" = 1'-0"
140
0.5
141
12.0
290
     0
  0
SCALE
  5
63
102
{ACAD_REACTORS
330
47
102
}
330
47
100
AcDbScale
 70
     0
300
3/4" = 1'-0"
140
0.75
141
12.0
290
     0
  0
SCALE
  5
64
102
{ACAD_REACTORS
330
47
102
}
330
47
100
AcDbScale
 70
     0
300
1" = 1'-0"
140
1.0
141
12.0
290
     0
  0
SCALE
  5
65
102
{ACAD_REACTORS
330
47
102
}
330
47
100
AcDbScale
 70
     0
300
1-1/2" = 1'-0"
140
1.5
141
12.0
290
     0
  0
SCALE
  5
66
102
{ACAD_REACTORS
330
47
102
}
330
47
100
AcDbScale
 70
     0
300
3" = 1'-0"
140
3.0
141
12.0
290
     0
  0
SCALE
  5
67
102
{ACAD_REACTORS
330
47
102
}
330
47
100
AcDbScale
 70
     0
300
6" = 1'-0"
140
6.0
141
12.0
290
     0
  0
SCALE
  5
68
102
{ACAD_REACTORS
330
47
102
}
330
47
100
AcDbScale
 70
     0
300
1'-0" = 1'-0"
140
12.0
141
12.0
290
     0
  0
ENDSEC
  0
EOF
