  0
SECTION
  2
HEADER
  9
$ACADVER
  1
AC1015
  9
$ACADMAINTVER
 70
     6
  9
$DWGCODEPAGE
  3
ANSI_949
  9
$INSBASE
 10
0.0
 20
0.0
 30
0.0
  9
$EXTMIN
 10
1.000000000000000E+20
 20
1.000000000000000E+20
 30
1.000000000000000E+20
  9
$EXTMAX
 10
-1.000000000000000E+20
 20
-1.000000000000000E+20
 30
-1.000000000000000E+20
  9
$LIMMIN
 10
0.0
 20
0.0
  9
$LIMMAX
 10
420.0
 20
297.0
  9
$ORTHOMODE
 70
     0
  9
$REGENMODE
 70
     1
  9
$FILLMODE
 70
     1
  9
$QTEXTMODE
 70
     0
  9
$MIRRTEXT
 70
     1
  9
$LTSCALE
 40
1.0
  9
$ATTMODE
 70
     1
  9
$TEXTSIZE
 40
3.5
  9
$TRACEWID
 40
1.0
  9
$TEXTSTYLE
  7
Standard
  9
$CLAYER
  8
0
  9
$CELTYPE
  6
ByLayer
  9
$CECOLOR
 62
   256
  9
$CELTSCALE
 40
1.0
  9
$DISPSILH
 70
     0
  9
$DIMSCALE
 40
1.0
  9
$DIMASZ
 40
3.302
  9
$DIMEXO
 40
1.0
  9
$DIMDLI
 40
3.75
  9
$DIMRND
 40
0.0
  9
$DIMDLE
 40
0.0
  9
$DIMEXE
 40
1.0
  9
$DIMTP
 40
0.0
  9
$DIMTM
 40
0.0
  9
$DIMTXT
 40
3.5
  9
$DIMCEN
 40
2.5
  9
$DIMTSZ
 40
0.0
  9
$DIMTOL
 70
     0
  9
$DIMLIM
 70
     0
  9
$DIMTIH
 70
     1
  9
$DIMTOH
 70
     1
  9
$DIMSE1
 70
     0
  9
$DIMSE2
 70
     0
  9
$DIMTAD
 70
     1
  9
$DIMZIN
 70
     0
  9
$DIMBLK
  1

  9
$DIMASO
 70
     1
  9
$DIMSHO
 70
     1
  9
$DIMPOST
  1

  9
$DIMAPOST
  1

  9
$DIMALT
 70
     0
  9
$DIMALTD
 70
     3
  9
$DIMALTF
 40
0.0393700787401575
  9
$DIMLFAC
 40
1.0
  9
$DIMTOFL
 70
     1
  9
$DIMTVP
 40
0.0
  9
$DIMTIX
 70
     0
  9
$DIMSOXD
 70
     0
  9
$DIMSAH
 70
     0
  9
$DIMBLK1
  1

  9
$DIMBLK2
  1

  9
$DIMSTYLE
  2
ISO-25
  9
$DIMCLRD
 70
     0
  9
$DIMCLRE
 70
     0
  9
$DIMCLRT
 70
     0
  9
$DIMTFAC
 40
1.0
  9
$DIMGAP
 40
1.524
  9
$DIMJUST
 70
     0
  9
$DIMSD1
 70
     0
  9
$DIMSD2
 70
     0
  9
$DIMTOLJ
 70
     0
  9
$DIMTZIN
 70
     0
  9
$DIMALTZ
 70
     0
  9
$DIMALTTZ
 70
     0
  9
$DIMUPT
 70
     0
  9
$DIMDEC
 70
     2
  9
$DIMTDEC
 70
     2
  9
$DIMALTU
 70
     2
  9
$DIMALTTD
 70
     3
  9
$DIMTXSTY
  7
Standard
  9
$DIMAUNIT
 70
     0
  9
$DIMADEC
 70
     2
  9
$DIMALTRND
 40
0.0
  9
$DIMAZIN
 70
     0
  9
$DIMDSEP
 70
    44
  9
$DIMATFIT
 70
     3
  9
$DIMFRAC
 70
     0
  9
$DIMLDRBLK
  1

  9
$DIMLUNIT
 70
     2
  9
$DIMLWD
 70
    -2
  9
$DIMLWE
 70
    -2
  9
$DIMTMOVE
 70
     0
  9
$LUNITS
 70
     2
  9
$LUPREC
 70
     2
  9
$SKETCHINC
 40
1.0
  9
$FILLETRAD
 40
10.0
  9
$AUNITS
 70
     0
  9
$AUPREC
 70
     2
  9
$MENU
  1
.
  9
$ELEVATION
 40
0.0
  9
$PELEVATION
 40
0.0
  9
$THICKNESS
 40
0.0
  9
$LIMCHECK
 70
     0
  9
$CHAMFERA
 40
0.0
  9
$CHAMFERB
 40
0.0
  9
$CHAMFERC
 40
0.0
  9
$CHAMFERD
 40
0.0
  9
$SKPOLY
 70
     0
  9
$TDCREATE
 40
2458313.471871632
  9
$TDUCREATE
 40
2458313.096871632
  9
$TDUPDATE
 40
2458319.355448947
  9
$TDUUPDATE
 40
2458318.980448947
  9
$TDINDWG
 40
0.0063540741
  9
$TDUSRTIMER
 40
2458318.979683079
  9
$USRTIMER
 70
     1
  9
$ANGBASE
 50
0.0
  9
$ANGDIR
 70
     0
  9
$PDMODE
 70
     0
  9
$PDSIZE
 40
-1.0
  9
$PLINEWID
 40
0.0
  9
$SPLFRAME
 70
     0
  9
$SPLINETYPE
 70
     6
  9
$SPLINESEGS
 70
     8
  9
$HANDSEED
  5
380
  9
$SURFTAB1
 70
     6
  9
$SURFTAB2
 70
     6
  9
$SURFTYPE
 70
     6
  9
$SURFU
 70
     6
  9
$SURFV
 70
     6
  9
$UCSBASE
  2

  9
$UCSNAME
  2

  9
$UCSORG
 10
0.0
 20
0.0
 30
0.0
  9
$UCSXDIR
 10
1.0
 20
0.0
 30
0.0
  9
$UCSYDIR
 10
0.0
 20
1.0
 30
0.0
  9
$UCSORTHOREF
  2

  9
$UCSORTHOVIEW
 70
     0
  9
$UCSORGTOP
 10
0.0
 20
0.0
 30
0.0
  9
$UCSORGBOTTOM
 10
0.0
 20
0.0
 30
0.0
  9
$UCSORGLEFT
 10
0.0
 20
0.0
 30
0.0
  9
$UCSORGRIGHT
 10
0.0
 20
0.0
 30
0.0
  9
$UCSORGFRONT
 10
0.0
 20
0.0
 30
0.0
  9
$UCSORGBACK
 10
0.0
 20
0.0
 30
0.0
  9
$PUCSBASE
  2

  9
$PUCSNAME
  2

  9
$PUCSORG
 10
0.0
 20
0.0
 30
0.0
  9
$PUCSXDIR
 10
1.0
 20
0.0
 30
0.0
  9
$PUCSYDIR
 10
0.0
 20
1.0
 30
0.0
  9
$PUCSORTHOREF
  2

  9
$PUCSORTHOVIEW
 70
     0
  9
$PUCSORGTOP
 10
0.0
 20
0.0
 30
0.0
  9
$PUCSORGBOTTOM
 10
0.0
 20
0.0
 30
0.0
  9
$PUCSORGLEFT
 10
0.0
 20
0.0
 30
0.0
  9
$PUCSORGRIGHT
 10
0.0
 20
0.0
 30
0.0
  9
$PUCSORGFRONT
 10
0.0
 20
0.0
 30
0.0
  9
$PUCSORGBACK
 10
0.0
 20
0.0
 30
0.0
  9
$USERI1
 70
     0
  9
$USERI2
 70
     0
  9
$USERI3
 70
     0
  9
$USERI4
 70
     0
  9
$USERI5
 70
     0
  9
$USERR1
 40
0.0
  9
$USERR2
 40
0.0
  9
$USERR3
 40
0.0
  9
$USERR4
 40
0.0
  9
$USERR5
 40
0.0
  9
$WORLDVIEW
 70
     1
  9
$SHADEDGE
 70
     3
  9
$SHADEDIF
 70
    70
  9
$TILEMODE
 70
     1
  9
$MAXACTVP
 70
    64
  9
$PINSBASE
 10
0.0
 20
0.0
 30
0.0
  9
$PLIMCHECK
 70
     0
  9
$PEXTMIN
 10
1.000000000000000E+20
 20
1.000000000000000E+20
 30
1.000000000000000E+20
  9
$PEXTMAX
 10
-1.000000000000000E+20
 20
-1.000000000000000E+20
 30
-1.000000000000000E+20
  9
$PLIMMIN
 10
0.0
 20
0.0
  9
$PLIMMAX
 10
0.0
 20
0.0
  9
$UNITMODE
 70
     0
  9
$VISRETAIN
 70
     1
  9
$PLINEGEN
 70
     0
  9
$PSLTSCALE
 70
     1
  9
$TREEDEPTH
 70
  3020
  9
$CMLSTYLE
  2
Standard
  9
$CMLJUST
 70
     0
  9
$CMLSCALE
 40
20.0
  9
$PROXYGRAPHICS
 70
     1
  9
$MEASUREMENT
 70
     1
  9
$CELWEIGHT
370
    -1
  9
$ENDCAPS
280
     0
  9
$JOINSTYLE
280
     0
  9
$LWDISPLAY
290
     1
  9
$INSUNITS
 70
     4
  9
$HYPERLINKBASE
  1

  9
$STYLESHEET
  1

  9
$XEDIT
290
     1
  9
$CEPSNTYPE
380
     0
  9
$PSTYLEMODE
290
     1
  9
$FINGERPRINTGUID
  2
{1367F020-CD6D-4F71-A1E2-836B9202CCDC}
  9
$VERSIONGUID
  2
{FAEB1C32-E019-11D5-929B-00C0DF256EC4}
  9
$EXTNAMES
290
     1
  9
$PSVPSCALE
 40
0.0
  9
$OLESTARTUP
290
     0
  0
ENDSEC
  0
SECTION
  2
CLASSES
  0
CLASS
  1
ACDBDICTIONARYWDFLT
  2
AcDbDictionaryWithDefault
  3
ObjectDBX Classes
 90
        0
280
     0
281
     0
  0
CLASS
  1
VISUALSTYLE
  2
AcDbVisualStyle
  3
ObjectDBX Classes
 90
     4095
280
     0
281
     0
  0
CLASS
  1
MATERIAL
  2
AcDbMaterial
  3
ObjectDBX Classes
 90
     1153
280
     0
281
     0
  0
CLASS
  1
SCALE
  2
AcDbScale
  3
ObjectDBX Classes
 90
     1153
280
     0
281
     0
  0
CLASS
  1
SUN
  2
AcDbSun
  3
SCENEOE
 90
     1153
280
     0
281
     0
  0
CLASS
  1
ACDBPLACEHOLDER
  2
AcDbPlaceHolder
  3
ObjectDBX Classes
 90
        0
280
     0
281
     0
  0
CLASS
  1
LAYOUT
  2
AcDbLayout
  3
ObjectDBX Classes
 90
        0
280
     0
281
     0
  0
CLASS
  1
TABLESTYLE
  2
AcDbTableStyle
  3
ObjectDBX Classes
 90
     4095
280
     0
281
     0
  0
CLASS
  1
MLEADERSTYLE
  2
AcDbMLeaderStyle
  3
ACDB_MLEADERSTYLE_CLASS
 90
     4095
280
     0
281
     0
  0
CLASS
  1
RASTERVARIABLES
  2
AcDbRasterVariables
  3
ISM
 90
        0
280
     0
281
     0
  0
ENDSEC
  0
SECTION
  2
TABLES
  0
TABLE
  2
VPORT
  5
8
330
0
100
AcDbSymbolTable
 70
     1
  0
VPORT
  5
29
330
8
100
AcDbSymbolTableRecord
100
AcDbViewportTableRecord
  2
*Active
 70
     0
 10
0.0
 20
0.0
 11
1.0
 21
1.0
 12
5.577280322820378
 22
-1.094173974684107
 13
0.0
 23
0.0
 14
10.0
 24
10.0
 15
10.0
 25
10.0
 16
0.0
 26
0.0
 36
1.0
 17
0.0
 27
0.0
 37
0.0
 40
133.4627490440965
 41
1.632093933463796
 42
50.0
 43
0.0
 44
0.0
 50
0.0
 51
0.0
 71
    16
 72
  2000
 73
     1
 74
     3
 75
     0
 76
     0
 77
     0
 78
     0
281
     0
 65
     1
110
0.0
120
0.0
130
0.0
111
1.0
121
0.0
131
0.0
112
0.0
122
1.0
132
0.0
 79
     0
146
0.0
  0
ENDTAB
  0
TABLE
  2
LTYPE
  5
5
330
0
100
AcDbSymbolTable
 70
     6
  0
LTYPE
  5
14
330
5
100
AcDbSymbolTableRecord
100
AcDbLinetypeTableRecord
  2
ByBlock
 70
     0
  3

 72
    65
 73
     0
 40
0.0
  0
LTYPE
  5
15
330
5
100
AcDbSymbolTableRecord
100
AcDbLinetypeTableRecord
  2
ByLayer
 70
     0
  3

 72
    65
 73
     0
 40
0.0
  0
LTYPE
  5
16
330
5
100
AcDbSymbolTableRecord
100
AcDbLinetypeTableRecord
  2
Continuous
 70
     0
  3
Solid line
 72
    65
 73
     0
 40
0.0
  0
LTYPE
  5
6A
330
5
100
AcDbSymbolTableRecord
100
AcDbLinetypeTableRecord
  2
HIDDEN
 70
     0
  3
Hidden __ __ __ __ __ __ __ __ __ __ __ __ __ __
 72
    65
 73
     2
 40
1.905
 49
1.27
 74
     0
 49
-0.635
 74
     0
  0
LTYPE
  5
6B
330
5
100
AcDbSymbolTableRecord
100
AcDbLinetypeTableRecord
  2
PHANTOM
 70
     0
  3
Phantom ______  __  __  ______  __  __  ______
 72
    65
 73
     6
 40
12.7
 49
6.35
 74
     0
 49
-1.27
 74
     0
 49
1.27
 74
     0
 49
-1.27
 74
     0
 49
1.27
 74
     0
 49
-1.27
 74
     0
  0
LTYPE
  5
6C
330
5
100
AcDbSymbolTableRecord
100
AcDbLinetypeTableRecord
  2
CENTER
 70
     0
  3
Center ____ _ ____ _ ____ _ ____ _ ____ _ ____
 72
    65
 73
     4
 40
10.16
 49
6.35
 74
     0
 49
-1.27
 74
     0
 49
1.27
 74
     0
 49
-1.27
 74
     0
  0
LTYPE
  5
6D
330
5
100
AcDbSymbolTableRecord
100
AcDbLinetypeTableRecord
  2
CENTERX2
 70
     0
  3
Center (2x) ________  __  ________  __  _____
 72
    65
 73
     4
 40
20.32
 49
12.7
 74
     0
 49
-2.54
 74
     0
 49
2.54
 74
     0
 49
-2.54
 74
     0
  0
LTYPE
  5
6E
330
5
100
AcDbSymbolTableRecord
100
AcDbLinetypeTableRecord
  2
DOT2
 70
     0
  3
Dot (.5x) ........................................
 72
    65
 73
     2
 40
0.635
 49
0.0
 74
     0
 49
-0.635
 74
     0
  0
ENDTAB
  0
TABLE
  2
LAYER
  5
2
102
{ACAD_XDICTIONARY
360
198
102
}
330
0
100
AcDbSymbolTable
 70
    18
  0
LAYER
  5
10
330
2
100
AcDbSymbolTableRecord
100
AcDbLayerTableRecord
  2
0
 70
     0
 62
     7
  6
Continuous
370
    -3
390
F
  0
LAYER
  5
6F
330
2
100
AcDbSymbolTableRecord
100
AcDbLayerTableRecord
  2
FORMAT
 70
     0
 62
     2
  6
Continuous
370
    -3
390
F
  0
LAYER
  5
70
330
2
100
AcDbSymbolTableRecord
100
AcDbLayerTableRecord
  2
외형선
 70
     0
 62
     4
  6
Continuous
370
    30
390
F
  0
LAYER
  5
71
330
2
100
AcDbSymbolTableRecord
100
AcDbLayerTableRecord
  2
숨은선
 70
     0
 62
     2
  6
HIDDEN
370
    15
390
F
  0
LAYER
  5
72
330
2
100
AcDbSymbolTableRecord
100
AcDbLayerTableRecord
  2
중심선
 70
     0
 62
     1
  6
CENTERX2
370
    -3
390
F
  0
LAYER
  5
73
330
2
100
AcDbSymbolTableRecord
100
AcDbLayerTableRecord
  2
파단선
 70
     0
 62
     4
  6
Continuous
370
    -3
390
F
  0
LAYER
  5
74
330
2
100
AcDbSymbolTableRecord
100
AcDbLayerTableRecord
  2
해칭선
 70
     0
 62
   100
  6
Continuous
370
    -3
390
F
  0
LAYER
  5
75
330
2
100
AcDbSymbolTableRecord
100
AcDbLayerTableRecord
  2
가는실선
 70
     0
 62
     4
  6
Continuous
370
    -3
390
F
  0
LAYER
  5
76
330
2
100
AcDbSymbolTableRecord
100
AcDbLayerTableRecord
  2
치수_보조선
 70
     0
 62
     4
  6
Continuous
370
    -3
390
F
  0
LAYER
  5
77
330
2
100
AcDbSymbolTableRecord
100
AcDbLayerTableRecord
  2
치수문자_일반주서
 70
     0
 62
     7
  6
Continuous
370
    15
390
F
  0
LAYER
  5
78
330
2
100
AcDbSymbolTableRecord
100
AcDbLayerTableRecord
  2
개별주서
 70
     0
 62
   100
  6
Continuous
370
    30
390
F
  0
LAYER
  5
79
330
2
100
AcDbSymbolTableRecord
100
AcDbLayerTableRecord
  2
중간선
 70
     0
 62
     2
  6
Continuous
370
    15
390
F
  0
LAYER
  5
7A
330
2
100
AcDbSymbolTableRecord
100
AcDbLayerTableRecord
  2
윤곽선
 70
     0
 62
     3
  6
Continuous
370
    40
390
F
  0
LAYER
  5
7B
330
2
100
AcDbSymbolTableRecord
100
AcDbLayerTableRecord
  2
중심마크
 70
     0
 62
   100
  6
Continuous
370
    30
390
F
  0
LAYER
  5
7C
330
2
100
AcDbSymbolTableRecord
100
AcDbLayerTableRecord
  2
가상선
 70
     0
 62
     4
  6
PHANTOM
370
    -3
390
F
  0
LAYER
  5
7D
330
2
100
AcDbSymbolTableRecord
100
AcDbLayerTableRecord
  2
특수지정선
 70
     0
 62
     5
  6
CENTERX2
370
    60
390
F
  0
LAYER
  5
7E
330
2
100
AcDbSymbolTableRecord
100
AcDbLayerTableRecord
  2
참조1
 70
     0
 62
    -4
  6
Continuous
370
    -3
390
F
  0
LAYER
  5
1C7
330
2
100
AcDbSymbolTableRecord
100
AcDbLayerTableRecord
  2
Defpoints
 70
     0
 62
     7
  6
Continuous
290
     0
370
    -3
390
F
  0
ENDTAB
  0
TABLE
  2
STYLE
  5
3
330
0
100
AcDbSymbolTable
 70
     2
  0
STYLE
  5
11
330
3
100
AcDbSymbolTableRecord
100
AcDbTextStyleTableRecord
  2
Standard
 70
     0
 40
0.0
 41
1.0
 50
0.0
 71
     0
 42
3.5
  3
txt
  4

  0
STYLE
  5
94
330
3
100
AcDbSymbolTableRecord
100
AcDbTextStyleTableRecord
  2
SLDTEXTSTYLE0
 70
     0
 40
0.0
 41
0.75
 50
0.0
 71
     0
 42
3.5
  3
TXT
  4

  0
ENDTAB
  0
TABLE
  2
VIEW
  5
6
330
0
100
AcDbSymbolTable
 70
     0
  0
ENDTAB
  0
TABLE
  2
UCS
  5
7
330
0
100
AcDbSymbolTable
 70
     0
  0
ENDTAB
  0
TABLE
  2
APPID
  5
9
330
0
100
AcDbSymbolTable
 70
     1
  0
APPID
  5
12
330
9
100
AcDbSymbolTableRecord
100
AcDbRegAppTableRecord
  2
ACAD
 70
     0
  0
ENDTAB
  0
TABLE
  2
DIMSTYLE
  5
A
330
0
100
AcDbSymbolTable
 70
     4
100
AcDbDimStyleTable
  0
DIMSTYLE
105
27
330
A
100
AcDbSymbolTableRecord
100
AcDbDimStyleTableRecord
  2
ISO-25
 70
     0
 41
2.5
 42
0.625
 43
3.75
 44
1.25
 73
     0
 74
     0
 77
     1
 78
     8
140
2.5
141
2.5
143
0.03937007874016
147
0.625
171
     3
172
     1
178
     0
271
     2
272
     2
274
     3
278
    44
283
     0
284
     8
340
11
  0
DIMSTYLE
105
CE
330
A
100
AcDbSymbolTableRecord
100
AcDbDimStyleTableRecord
  2
SLDDIMSTYLE0
 70
     0
 41
3.302
 44
0.0
 45
0.000000001
 73
     0
 74
     0
 77
     1
 78
    12
 79
     3
140
3.5
143
0.0393700787401575
147
0.875
148
0.000000001
170
     1
173
     1
178
     0
271
     2
272
     2
276
     2
284
    12
340
94
  0
DIMSTYLE
105
F6
330
A
100
AcDbSymbolTableRecord
100
AcDbDimStyleTableRecord
  2
SLDDIMSTYLE1
 70
     0
 41
3.302
 44
0.0
 45
0.000000001
 73
     0
 74
     0
 77
     1
 78
     4
 79
     1
140
3.5
143
0.0393700787401575
147
0.875
148
0.000000001
170
     1
173
     1
178
     0
271
     2
272
     2
276
     2
284
    12
340
94
  0
DIMSTYLE
105
10A
102
{ACAD_REACTORS
330
109
330
CD
330
E1
330
F5
102
}
330
A
100
AcDbSymbolTableRecord
100
AcDbDimStyleTableRecord
  2
SLDDIMSTYLE2
 70
     0
 41
3.302
 44
0.0
 45
0.000000001
 73
     0
 74
     0
 77
     1
 78
    12
 79
     3
140
3.5
143
0.0393700787401575
147
0.875
148
0.000000001
170
     1
172
     1
173
     1
178
     0
271
     2
272
     2
276
     2
284
    12
289
     0
340
94
  0
ENDTAB
  0
TABLE
  2
BLOCK_RECORD
  5
1
330
0
100
AcDbSymbolTable
 70
    16
  0
BLOCK_RECORD
  5
1F
330
1
100
AcDbSymbolTableRecord
100
AcDbBlockTableRecord
  2
*Model_Space
340
22
  0
BLOCK_RECORD
  5
1B
330
1
100
AcDbSymbolTableRecord
100
AcDbBlockTableRecord
  2
*Paper_Space
340
1E
  0
BLOCK_RECORD
  5
23
330
1
100
AcDbSymbolTableRecord
100
AcDbBlockTableRecord
  2
*Paper_Space0
340
26
  0
BLOCK_RECORD
  5
7F
330
1
100
AcDbSymbolTableRecord
100
AcDbBlockTableRecord
  2
블럭10
340
0
102
{BLKREFS
331
C6
102
}
  0
BLOCK_RECORD
  5
CF
330
1
100
AcDbSymbolTableRecord
100
AcDbBlockTableRecord
  2
_D
340
0
  0
BLOCK_RECORD
  5
E2
330
1
100
AcDbSymbolTableRecord
100
AcDbBlockTableRecord
  2
_D_1
340
0
  0
BLOCK_RECORD
  5
F7
330
1
100
AcDbSymbolTableRecord
100
AcDbBlockTableRecord
  2
_D_2
340
0
  0
BLOCK_RECORD
  5
10B
330
1
100
AcDbSymbolTableRecord
100
AcDbBlockTableRecord
  2
_D_3
340
0
  0
BLOCK_RECORD
  5
125
330
1
100
AcDbSymbolTableRecord
100
AcDbBlockTableRecord
  2
SW_DOWELSYMBOL_0
340
0
102
{BLKREFS
331
12B
102
}
  0
BLOCK_RECORD
  5
256
330
1
100
AcDbSymbolTableRecord
100
AcDbBlockTableRecord
  2
*D7
340
0
  0
BLOCK_RECORD
  5
265
330
1
100
AcDbSymbolTableRecord
100
AcDbBlockTableRecord
  2
*D8
340
0
  0
BLOCK_RECORD
  5
274
330
1
100
AcDbSymbolTableRecord
100
AcDbBlockTableRecord
  2
*D9
340
0
  0
BLOCK_RECORD
  5
2AD
330
1
100
AcDbSymbolTableRecord
100
AcDbBlockTableRecord
  2
*D10
340
0
  0
BLOCK_RECORD
  5
2BC
330
1
100
AcDbSymbolTableRecord
100
AcDbBlockTableRecord
  2
*D11
340
0
  0
BLOCK_RECORD
  5
2CB
330
1
100
AcDbSymbolTableRecord
100
AcDbBlockTableRecord
  2
*D12
340
0
  0
ENDTAB
  0
ENDSEC
  0
SECTION
  2
BLOCKS
  0
BLOCK
  5
20
330
1F
100
AcDbEntity
  8
0
100
AcDbBlockBegin
  2
*Model_Space
 70
     0
 10
0.0
 20
0.0
 30
0.0
  3
*Model_Space
  1
*Model_Space
  0
ENDBLK
  5
21
330
1F
100
AcDbEntity
  8
0
100
AcDbBlockEnd
  0
BLOCK
  5
1C
330
1B
100
AcDbEntity
 67
     1
  8
0
100
AcDbBlockBegin
  2
*Paper_Space
 70
     0
 10
0.0
 20
0.0
 30
0.0
  3
*Paper_Space
  1
*Paper_Space
  0
ENDBLK
  5
1D
330
1B
100
AcDbEntity
 67
     1
  8
0
100
AcDbBlockEnd
  0
BLOCK
  5
24
330
23
100
AcDbEntity
  8
0
100
AcDbBlockBegin
  2
*Paper_Space0
 70
     0
 10
0.0
 20
0.0
 30
0.0
  3
*Paper_Space0
  1
*Paper_Space0
  0
ENDBLK
  5
25
330
23
100
AcDbEntity
  8
0
100
AcDbBlockEnd
  0
BLOCK
  5
80
330
7F
100
AcDbEntity
  8
0
100
AcDbBlockBegin
  2
블럭10
 70
     2
 10
0.0
 20
0.0
 30
0.0
  3
블럭10
  1
블럭10
  0
ELLIPSE
  5
82
330
7F
100
AcDbEntity
  8
중심선
100
AcDbEllipse
 10
20.54032771741204
 20
12.0471743016438
 30
0.0
 11
6.600054785286829
 21
-1.261213355974178E-13
 31
0.0
210
0.0
220
0.0
230
1.0
 40
0.636358354079598
 41
0.9219305317359503
 42
6.513795318482858
  0
ELLIPSE
  5
83
330
7F
100
AcDbEntity
  8
중심선
100
AcDbEllipse
 10
20.54032771746488
 20
12.04717430159265
 30
0.0
 11
3.960054785062283
 21
1.540847449632565E-10
 31
0.0
210
0.0
220
0.0
230
1.0
 40
0.3939339440162632
 41
1.131841032648279
 42
5.62031148352944
  0
LINE
  5
84
330
7F
100
AcDbEntity
  8
중심선
100
AcDbLine
 10
2.268634060543552
 20
16.24717430164393
 30
0.0
 11
5.714909304380834
 21
16.24717430164393
 31
0.0
  0
LINE
  5
85
330
7F
100
AcDbEntity
  8
중심선
100
AcDbLine
 10
5.245725140726316
 20
7.84717430164391
 30
0.0
 11
8.692000384563599
 21
7.84717430164391
 31
0.0
  0
LINE
  5
86
330
7F
100
AcDbEntity
  8
중심선
100
AcDbLine
 10
15.74043728645272
 20
16.24717430164393
 30
0.0
 11
8.692000384563599
 21
7.84717430164391
 31
0.0
  0
LINE
  5
87
330
7F
100
AcDbEntity
  8
중심선
100
AcDbLine
 10
0.1404042013395286
 20
13.71084872107135
 30
0.0
 11
3.58671253028996
 21
13.71088815037384
 31
0.0
  0
LINE
  5
88
330
7F
100
AcDbEntity
  8
중심선
100
AcDbLine
 10
2.750260043222114
 20
10.84717430164391
 30
0.0
 11
6.196535287059397
 21
10.84717430164391
 31
0.0
  0
LINE
  5
89
330
7F
100
AcDbEntity
  8
중심선
100
AcDbLine
 10
12.29416204261559
 20
16.24717430164393
 30
0.0
 11
5.245725140726316
 21
7.84717430164391
 31
0.0
  0
LINE
  5
8A
330
7F
100
AcDbEntity
  8
중심선
100
AcDbLine
 10
10.72767329541681
 20
16.24717430164393
 30
0.0
 11
6.196535287059397
 21
10.84717430164391
 31
0.0
  0
LINE
  5
8B
330
7F
100
AcDbEntity
  8
중심선
100
AcDbLine
 10
7.28139805157953
 20
16.24717430164393
 30
0.0
 11
2.750260043222114
 21
10.84717430164391
 31
0.0
  0
LINE
  5
8C
330
7F
100
AcDbEntity
  8
중심선
100
AcDbLine
 10
5.714909304380834
 20
16.24717430164393
 30
0.0
 11
3.58671253028996
 21
13.71088815037384
 31
0.0
  0
LINE
  5
8D
330
7F
100
AcDbEntity
  8
중심선
100
AcDbLine
 10
2.268634060543552
 20
16.24717430164393
 30
0.0
 11
0.1404042013395286
 21
13.71084872107135
 31
0.0
  0
LINE
  5
8E
330
7F
100
AcDbEntity
  8
중심선
100
AcDbLine
 10
7.28139805157953
 20
16.24717430164393
 30
0.0
 11
10.72767329541681
 21
16.24717430164393
 31
0.0
  0
LINE
  5
8F
330
7F
100
AcDbEntity
  8
중심선
100
AcDbLine
 10
12.29416204261559
 20
16.24717430164393
 30
0.0
 11
15.74043728645272
 21
16.24717430164393
 31
0.0
  0
LINE
  5
90
330
7F
100
AcDbEntity
  8
중심선
100
AcDbLine
 10
19.22036997980202
 20
11.08717430171403
 30
0.0
 11
23.66174974927406
 21
11.08717430171406
 31
0.0
  0
LINE
  5
91
330
7F
100
AcDbEntity
  8
중심선
100
AcDbLine
 10
19.22039502424796
 20
13.00717430171391
 30
0.0
 11
19.22036997980202
 21
11.08717430171403
 31
0.0
  0
LINE
  5
92
330
7F
100
AcDbEntity
  8
중심선
100
AcDbLine
 10
19.22039502424796
 20
13.00717430171391
 30
0.0
 11
26.96566020931264
 21
13.00717430171391
 31
0.0
  0
LINE
  5
93
330
7F
100
AcDbEntity
  8
중심선
100
AcDbLine
 10
22.22332737316547
 20
13.45928029700563
 30
0.0
 11
24.52862924686651
 21
15.39360700705356
 31
0.0
  0
ATTDEF
  5
95
330
7F
100
AcDbEntity
  8
FORMAT
 62
     2
100
AcDbText
 10
4.408487351596664
 20
2.075366912832191
 30
0.0
 40
4.233333333333333
  1
E1053021
 41
0.75
  7
SLDTEXTSTYLE0
 11
4.408487351596664
 21
-0.0412997538344756
 31
0.0
100
AcDbAttributeDefinition
  3

  2
AUTOATTR0
 70
     0
 74
     1
  0
ENDBLK
  5
81
330
7F
100
AcDbEntity
  8
0
100
AcDbBlockEnd
  0
BLOCK
  5
D0
330
CF
100
AcDbEntity
  8
0
100
AcDbBlockBegin
  2
_D
 70
     0
 10
0.0
 20
0.0
 30
0.0
  3
_D
  1
_D
  0
LINE
  5
D2
330
CF
100
AcDbEntity
  8
치수문자_일반주서
 62
     0
370
    -2
100
AcDbLine
 10
44.51250000000003
 20
4.167187500000004
 30
0.0
 11
56.12420829145044
 21
4.167187500000047
 31
0.0
  0
LINE
  5
D3
330
CF
100
AcDbEntity
  8
치수문자_일반주서
 62
     0
370
    -2
100
AcDbLine
 10
44.51250000000002
 20
-4.167187499999992
 30
0.0
 11
56.12420829145047
 21
-4.167187499999951
 31
0.0
  0
LINE
  5
D4
330
CF
100
AcDbEntity
  8
치수문자_일반주서
 62
     0
370
    -2
100
AcDbLine
 10
56.12420829145044
 20
4.167187500000047
 30
0.0
 11
56.12420829145032
 21
41.39618750000005
 31
0.0
  0
LINE
  5
D5
330
CF
100
AcDbEntity
  8
치수문자_일반주서
 62
     0
370
    -2
100
AcDbLine
 10
56.12420829145044
 20
4.167187500000047
 30
0.0
 11
56.12420829145047
 21
-4.167187499999951
 31
0.0
  0
LINE
  5
D6
330
CF
100
AcDbEntity
  8
치수문자_일반주서
 62
     0
370
    -2
100
AcDbLine
 10
56.12420829145043
 20
7.469187500000046
 30
0.0
 11
56.12420829145042
 21
10.77118750000005
 31
0.0
  0
LINE
  5
D7
330
CF
100
AcDbEntity
  8
치수문자_일반주서
 62
     0
370
    -2
100
AcDbLine
 10
56.12420829145049
 20
-7.469187499999951
 30
0.0
 11
56.1242082914505
 21
-10.77118749999995
 31
0.0
  0
SOLID
  5
D8
330
CF
100
AcDbEntity
  8
치수문자_일반주서
 62
     0
100
AcDbTrace
 10
55.57387495811709
 20
7.469187500000045
 30
0.0
 11
56.67454162478376
 21
7.469187500000048
 31
0.0
 12
56.12420829145044
 22
4.167187500000047
 32
0.0
 13
56.12420829145044
 23
4.167187500000047
 33
0.0
  0
SOLID
  5
D9
330
CF
100
AcDbEntity
  8
치수문자_일반주서
 62
     0
100
AcDbTrace
 10
56.67454162478382
 20
-7.469187499999949
 30
0.0
 11
55.57387495811715
 21
-7.469187499999952
 31
0.0
 12
56.12420829145047
 22
-4.167187499999951
 32
0.0
 13
56.12420829145047
 23
-4.167187499999951
 33
0.0
  0
MTEXT
  5
DA
330
CF
100
AcDbEntity
  8
치수문자_일반주서
 62
     0
100
AcDbMText
 10
51.74920829145037
 20
26.08368750000003
 30
0.0
 40
3.5
 41
0.0
 71
     2
 72
     1
  1
\A1;%%c8.33 [21/64]
  7
SLDTEXTSTYLE0
 11
-3.410178859291071E-15
 21
1.0
 31
0.0
 73
     1
 44
1.0
  0
POINT
  5
DB
330
CF
100
AcDbEntity
  8
Defpoints
 62
     0
100
AcDbPoint
 10
44.45000000000003
 20
4.167187500000004
 30
0.0
  0
POINT
  5
DC
330
CF
100
AcDbEntity
  8
Defpoints
 62
     0
100
AcDbPoint
 10
44.45000000000002
 20
-4.167187499999992
 30
0.0
  0
POINT
  5
1C8
330
CF
100
AcDbEntity
  8
Defpoints
 62
     0
100
AcDbPoint
 10
56.12420829145047
 20
-4.167187499999948
 30
0.0
  0
ENDBLK
  5
D1
330
CF
100
AcDbEntity
  8
0
100
AcDbBlockEnd
  0
BLOCK
  5
E3
330
E2
100
AcDbEntity
  8
0
100
AcDbBlockBegin
  2
_D_1
 70
     0
 10
0.0
 20
0.0
 30
0.0
  3
_D_1
  1
_D_1
  0
LINE
  5
E5
330
E2
100
AcDbEntity
  8
치수문자_일반주서
 62
     0
370
    -2
100
AcDbLine
 10
44.45000000000003
 20
4.229687500000004
 30
0.0
 11
44.45000000000003
 21
23.34484534439382
 31
0.0
  0
LINE
  5
E6
330
E2
100
AcDbEntity
  8
치수문자_일반주서
 62
     0
370
    -2
100
AcDbLine
 10
25.4
 20
4.221012332140617
 30
0.0
 11
25.4
 21
23.34484534439382
 31
0.0
  0
LINE
  5
E7
330
E2
100
AcDbEntity
  8
치수문자_일반주서
 62
     0
370
    -2
100
AcDbLine
 10
25.4
 20
23.34484534439382
 30
0.0
 11
-7.430659745618598
 21
23.34484534439382
 31
0.0
  0
LINE
  5
E8
330
E2
100
AcDbEntity
  8
치수문자_일반주서
 62
     0
370
    -2
100
AcDbLine
 10
44.45000000000003
 20
23.34484534439382
 30
0.0
 11
25.4
 21
23.34484534439382
 31
0.0
  0
LINE
  5
E9
330
E2
100
AcDbEntity
  8
치수문자_일반주서
 62
     0
370
    -2
100
AcDbLine
 10
47.75200000000003
 20
23.34484534439382
 30
0.0
 11
51.05400000000003
 21
23.34484534439382
 31
0.0
  0
LINE
  5
EA
330
E2
100
AcDbEntity
  8
치수문자_일반주서
 62
     0
370
    -2
100
AcDbLine
 10
22.098
 20
23.34484534439382
 30
0.0
 11
18.796
 21
23.34484534439382
 31
0.0
  0
SOLID
  5
EB
330
E2
100
AcDbEntity
  8
치수문자_일반주서
 62
     0
100
AcDbTrace
 10
47.75200000000003
 20
23.89517867772716
 30
0.0
 11
47.75200000000003
 21
22.79451201106049
 31
0.0
 12
44.45000000000003
 22
23.34484534439382
 32
0.0
 13
44.45000000000003
 23
23.34484534439382
 33
0.0
  0
SOLID
  5
EC
330
E2
100
AcDbEntity
  8
치수문자_일반주서
 62
     0
100
AcDbTrace
 10
22.098
 20
22.79451201106049
 30
0.0
 11
22.098
 21
23.89517867772716
 31
0.0
 12
25.4
 22
23.34484534439382
 32
0.0
 13
25.4
 23
23.34484534439382
 33
0.0
  0
MTEXT
  5
ED
330
E2
100
AcDbEntity
  8
치수문자_일반주서
 62
     0
100
AcDbMText
 10
5.038090254381402
 20
27.71984534439382
 30
0.0
 40
3.5
 41
0.0
 71
     2
 72
     1
  1
\A1;19.05 [3/4]
  7
SLDTEXTSTYLE0
 73
     1
 44
1.0
  0
POINT
  5
EE
330
E2
100
AcDbEntity
  8
Defpoints
 62
     0
100
AcDbPoint
 10
44.45000000000003
 20
4.167187500000004
 30
0.0
  0
POINT
  5
1C9
330
E2
100
AcDbEntity
  8
Defpoints
 62
     0
100
AcDbPoint
 10
25.4
 20
4.158512332140617
 30
0.0
  0
POINT
  5
1CA
330
E2
100
AcDbEntity
  8
Defpoints
 62
     0
100
AcDbPoint
 10
25.4
 20
23.34484534439382
 30
0.0
  0
ENDBLK
  5
E4
330
E2
100
AcDbEntity
  8
0
100
AcDbBlockEnd
  0
BLOCK
  5
F8
330
F7
100
AcDbEntity
  8
0
100
AcDbBlockBegin
  2
_D_2
 70
     0
 10
0.0
 20
0.0
 30
0.0
  3
_D_2
  1
_D_2
  0
LINE
  5
FA
330
F7
100
AcDbEntity
  8
치수문자_일반주서
 62
     0
370
    -2
100
AcDbLine
 10
44.45000000000003
 20
4.229687500000004
 30
0.0
 11
44.45000000000004
 21
36.50829456518143
 31
0.0
  0
LINE
  5
FB
330
F7
100
AcDbEntity
  8
치수문자_일반주서
 62
     0
370
    -2
100
AcDbLine
 10
-44.45
 20
3.8725
 30
0.0
 11
-44.44999999999999
 21
36.50829456518143
 31
0.0
  0
LINE
  5
FC
330
F7
100
AcDbEntity
  8
치수문자_일반주서
 62
     0
370
    -2
100
AcDbLine
 10
41.14800000000004
 20
36.50829456518143
 30
0.0
 11
-41.14799999999999
 21
36.50829456518143
 31
0.0
  0
SOLID
  5
FD
330
F7
100
AcDbEntity
  8
치수문자_일반주서
 62
     0
100
AcDbTrace
 10
41.14800000000004
 20
35.9579612318481
 30
0.0
 11
41.14800000000004
 21
37.05862789851476
 31
0.0
 12
44.45000000000004
 22
36.50829456518143
 32
0.0
 13
44.45000000000004
 23
36.50829456518143
 33
0.0
  0
SOLID
  5
FE
330
F7
100
AcDbEntity
  8
치수문자_일반주서
 62
     0
100
AcDbTrace
 10
-41.14799999999999
 20
37.05862789851476
 30
0.0
 11
-41.14799999999999
 21
35.9579612318481
 31
0.0
 12
-44.44999999999999
 22
36.50829456518143
 32
0.0
 13
-44.44999999999999
 23
36.50829456518143
 33
0.0
  0
MTEXT
  5
FF
330
F7
100
AcDbEntity
  8
치수문자_일반주서
 62
     0
100
AcDbMText
 10
-0.6033879830989832
 20
40.88329456518143
 30
0.0
 40
3.5
 41
0.0
 71
     2
 72
     1
  1
\A1;88.9 [3 1/2]
  7
SLDTEXTSTYLE0
 73
     1
 44
1.0
  0
POINT
  5
100
330
F7
100
AcDbEntity
  8
Defpoints
 62
     0
100
AcDbPoint
 10
44.45000000000003
 20
4.167187500000004
 30
0.0
  0
POINT
  5
101
330
F7
100
AcDbEntity
  8
Defpoints
 62
     0
100
AcDbPoint
 10
-44.45
 20
3.81
 30
0.0
  0
POINT
  5
102
330
F7
100
AcDbEntity
  8
Defpoints
 62
     0
100
AcDbPoint
 10
-44.45
 20
36.50829456518143
 30
0.0
  0
ENDBLK
  5
F9
330
F7
100
AcDbEntity
  8
0
100
AcDbBlockEnd
  0
BLOCK
  5
10C
330
10B
100
AcDbEntity
  8
0
100
AcDbBlockBegin
  2
_D_3
 70
     0
 10
0.0
 20
0.0
 30
0.0
  3
_D_3
  1
_D_3
  0
LINE
  5
10E
330
10B
100
AcDbEntity
  8
치수문자_일반주서
 62
     0
370
    -2
100
AcDbLine
 10
-22.24076350361914
 20
4.762500000000002
 30
0.0
 11
-56.97375000000002
 21
4.762499999999871
 31
0.0
  0
LINE
  5
10F
330
10B
100
AcDbEntity
  8
치수문자_일반주서
 62
     0
370
    -2
100
AcDbLine
 10
-22.24076350361915
 20
-4.762500000000003
 30
0.0
 11
-56.97374999999999
 21
-4.762500000000133
 31
0.0
  0
LINE
  5
110
330
10B
100
AcDbEntity
  8
치수문자_일반주서
 62
     0
370
    -2
100
AcDbLine
 10
-56.97375000000001
 20
1.460499999999872
 30
0.0
 11
-56.97375
 21
-1.460500000000134
 31
0.0
  0
SOLID
  5
111
330
10B
100
AcDbEntity
  8
치수문자_일반주서
 62
     0
100
AcDbTrace
 10
-56.42341666666668
 20
1.460499999999874
 30
0.0
 11
-57.52408333333334
 21
1.46049999999987
 31
0.0
 12
-56.97375000000002
 22
4.762499999999871
 32
0.0
 13
-56.97375000000002
 23
4.762499999999871
 33
0.0
  0
SOLID
  5
112
330
10B
100
AcDbEntity
  8
치수문자_일반주서
 62
     0
100
AcDbTrace
 10
-57.52408333333334
 20
-1.460500000000136
 30
0.0
 11
-56.42341666666667
 21
-1.460500000000132
 31
0.0
 12
-56.97374999999999
 22
-4.762500000000133
 32
0.0
 13
-56.97374999999999
 23
-4.762500000000133
 33
0.0
  0
MTEXT
  5
113
330
10B
100
AcDbEntity
  8
치수문자_일반주서
 62
     0
100
AcDbMText
 10
-61.34875000000001
 20
-0.0000000000000156
 30
0.0
 40
3.5
 41
0.0
 71
     2
 72
     1
  1
\A1;%%c9.53 [3/8]
  7
SLDTEXTSTYLE0
 11
-3.729883127349606E-15
 21
1.0
 31
0.0
 73
     1
 44
1.0
  0
POINT
  5
114
330
10B
100
AcDbEntity
  8
Defpoints
 62
     0
100
AcDbPoint
 10
-22.17826350361914
 20
4.762500000000002
 30
0.0
  0
POINT
  5
115
330
10B
100
AcDbEntity
  8
Defpoints
 62
     0
100
AcDbPoint
 10
-22.17826350361915
 20
-4.762500000000003
 30
0.0
  0
POINT
  5
116
330
10B
100
AcDbEntity
  8
Defpoints
 62
     0
100
AcDbPoint
 10
-56.97374999999999
 20
-4.762500000000133
 30
0.0
  0
ENDBLK
  5
10D
330
10B
100
AcDbEntity
  8
0
100
AcDbBlockEnd
  0
BLOCK
  5
126
330
125
100
AcDbEntity
  8
0
100
AcDbBlockBegin
  2
SW_DOWELSYMBOL_0
 70
     0
 10
0.0
 20
0.0
 30
0.0
  3
SW_DOWELSYMBOL_0
  1
SW_DOWELSYMBOL_0
  0
CIRCLE
  5
128
330
125
100
AcDbEntity
  8
해칭선
 62
     0
100
AcDbCircle
 10
0.0
 20
0.0
 30
0.0
 40
3.000000000000008
  0
HATCH
  5
129
330
125
100
AcDbEntity
  8
0
  6
Continuous
 62
     0
370
     0
100
AcDbHatch
 10
0.0
 20
0.0
 30
0.0
210
0.0
220
0.0
230
1.0
  2
SOLID
 70
     1
 71
     0
 91
        1
 92
        0
 93
        3
 72
     2
 10
0.0
 20
0.0
 40
3.000000000000008
 50
0.0
 51
90.0
 73
     1
 72
     1
 10
0.0
 20
3.000000000000008
 11
0.0
 21
0.0
 72
     1
 10
0.0
 20
0.0
 11
3.00000000000001
 21
0.0
 97
        0
 75
     0
 76
     1
 98
        1
 10
0.0
 20
0.0
  0
HATCH
  5
12A
330
125
100
AcDbEntity
  8
0
  6
Continuous
 62
     0
370
     0
100
AcDbHatch
 10
0.0
 20
0.0
 30
0.0
210
0.0
220
0.0
230
1.0
  2
SOLID
 70
     1
 71
     0
 91
        1
 92
        0
 93
        3
 72
     2
 10
0.0
 20
0.0
 40
3.000000000000008
 50
180.0
 51
270.0000000000007
 73
     1
 72
     1
 10
0.0
 20
-3.000000000000008
 11
0.0
 21
0.0
 72
     1
 10
0.0
 20
0.0
 11
-3.00000000000001
 21
0.0
 97
        0
 75
     0
 76
     1
 98
        1
 10
0.0
 20
0.0
  0
ENDBLK
  5
127
330
125
100
AcDbEntity
  8
0
100
AcDbBlockEnd
  0
BLOCK
  5
257
330
256
100
AcDbEntity
  8
0
100
AcDbBlockBegin
  2
*D7
 70
     1
 10
0.0
 20
0.0
 30
0.0
  3
*D7
  1
*D10
  0
LINE
  5
259
330
256
100
AcDbEntity
  8
치수문자_일반주서
 62
     0
370
    -2
100
AcDbLine
 10
91.96250000000003
 20
14.93837499999995
 30
0.0
 11
103.5742082914504
 21
14.93837499999999
 31
0.0
  0
LINE
  5
25A
330
256
100
AcDbEntity
  8
치수문자_일반주서
 62
     0
370
    -2
100
AcDbLine
 10
91.96250000000002
 20
6.603999999999955
 30
0.0
 11
103.5742082914505
 21
6.603999999999999
 31
0.0
  0
LINE
  5
25B
330
256
100
AcDbEntity
  8
치수문자_일반주서
 62
     0
370
    -2
100
AcDbLine
 10
103.5742082914504
 20
14.93837499999999
 30
0.0
 11
103.5742082914503
 21
52.16737499999999
 31
0.0
  0
LINE
  5
25C
330
256
100
AcDbEntity
  8
치수문자_일반주서
 62
     0
370
    -2
100
AcDbLine
 10
103.5742082914504
 20
14.93837499999999
 30
0.0
 11
103.5742082914505
 21
6.603999999999999
 31
0.0
  0
LINE
  5
25D
330
256
100
AcDbEntity
  8
치수문자_일반주서
 62
     0
370
    -2
100
AcDbLine
 10
103.5742082914504
 20
18.24037499999999
 30
0.0
 11
103.5742082914504
 21
21.54237499999999
 31
0.0
  0
LINE
  5
25E
330
256
100
AcDbEntity
  8
치수문자_일반주서
 62
     0
370
    -2
100
AcDbLine
 10
103.5742082914505
 20
3.302
 30
0.0
 11
103.5742082914505
 21
0.0
 31
0.0
  0
SOLID
  5
25F
330
256
100
AcDbEntity
  8
치수문자_일반주서
 62
     0
100
AcDbTrace
 10
103.0238749581171
 20
18.24037499999999
 30
0.0
 11
104.1245416247837
 21
18.240375
 31
0.0
 12
103.5742082914504
 22
14.93837499999999
 32
0.0
 13
103.5742082914504
 23
14.93837499999999
 33
0.0
  0
SOLID
  5
260
330
256
100
AcDbEntity
  8
치수문자_일반주서
 62
     0
100
AcDbTrace
 10
104.1245416247838
 20
3.302000000000001
 30
0.0
 11
103.0238749581171
 21
3.301999999999998
 31
0.0
 12
103.5742082914505
 22
6.603999999999999
 32
0.0
 13
103.5742082914505
 23
6.603999999999999
 33
0.0
  0
MTEXT
  5
261
330
256
100
AcDbEntity
  8
치수문자_일반주서
 62
     0
100
AcDbMText
 10
99.19920829145036
 20
36.85487499999998
 30
0.0
 40
3.5
 41
0.0
 71
     2
 72
     1
  1
\A1;%%c8.33 [21/64]
  7
SLDTEXTSTYLE0
 11
-3.410178859291072E-15
 21
1.0
 31
0.0
 73
     1
 44
1.0
  0
POINT
  5
262
330
256
100
AcDbEntity
  8
Defpoints
 62
     0
100
AcDbPoint
 10
91.90000000000003
 20
14.93837499999995
 30
0.0
  0
POINT
  5
263
330
256
100
AcDbEntity
  8
Defpoints
 62
     0
100
AcDbPoint
 10
91.90000000000002
 20
6.603999999999955
 30
0.0
  0
POINT
  5
264
330
256
100
AcDbEntity
  8
Defpoints
 62
     0
100
AcDbPoint
 10
103.5742082914505
 20
6.603999999999998
 30
0.0
  0
ENDBLK
  5
258
330
256
100
AcDbEntity
  8
0
100
AcDbBlockEnd
  0
BLOCK
  5
266
330
265
100
AcDbEntity
  8
0
100
AcDbBlockBegin
  2
*D8
 70
     1
 10
0.0
 20
0.0
 30
0.0
  3
*D8
  1
*D11
  0
LINE
  5
268
330
265
100
AcDbEntity
  8
치수문자_일반주서
 62
     0
370
    -2
100
AcDbLine
 10
91.90000000000003
 20
15.00087499999995
 30
0.0
 11
91.90000000000003
 21
34.11603284439377
 31
0.0
  0
LINE
  5
269
330
265
100
AcDbEntity
  8
치수문자_일반주서
 62
     0
370
    -2
100
AcDbLine
 10
72.85
 20
14.99219983214056
 30
0.0
 11
72.85
 21
34.11603284439377
 31
0.0
  0
LINE
  5
26A
330
265
100
AcDbEntity
  8
치수문자_일반주서
 62
     0
370
    -2
100
AcDbLine
 10
72.85
 20
34.11603284439377
 30
0.0
 11
40.0193402543814
 21
34.11603284439377
 31
0.0
  0
LINE
  5
26B
330
265
100
AcDbEntity
  8
치수문자_일반주서
 62
     0
370
    -2
100
AcDbLine
 10
91.90000000000003
 20
34.11603284439377
 30
0.0
 11
72.85
 21
34.11603284439377
 31
0.0
  0
LINE
  5
26C
330
265
100
AcDbEntity
  8
치수문자_일반주서
 62
     0
370
    -2
100
AcDbLine
 10
95.20200000000003
 20
34.11603284439377
 30
0.0
 11
98.50400000000002
 21
34.11603284439377
 31
0.0
  0
LINE
  5
26D
330
265
100
AcDbEntity
  8
치수문자_일반주서
 62
     0
370
    -2
100
AcDbLine
 10
69.548
 20
34.11603284439377
 30
0.0
 11
66.24600000000001
 21
34.11603284439377
 31
0.0
  0
SOLID
  5
26E
330
265
100
AcDbEntity
  8
치수문자_일반주서
 62
     0
100
AcDbTrace
 10
95.20200000000003
 20
34.66636617772711
 30
0.0
 11
95.20200000000003
 21
33.56569951106044
 31
0.0
 12
91.90000000000003
 22
34.11603284439377
 32
0.0
 13
91.90000000000003
 23
34.11603284439377
 33
0.0
  0
SOLID
  5
26F
330
265
100
AcDbEntity
  8
치수문자_일반주서
 62
     0
100
AcDbTrace
 10
69.548
 20
33.56569951106044
 30
0.0
 11
69.548
 21
34.66636617772711
 31
0.0
 12
72.85
 22
34.11603284439377
 32
0.0
 13
72.85
 23
34.11603284439377
 33
0.0
  0
MTEXT
  5
270
330
265
100
AcDbEntity
  8
치수문자_일반주서
 62
     0
100
AcDbMText
 10
52.4880902543814
 20
38.49103284439377
 30
0.0
 40
3.5
 41
0.0
 71
     2
 72
     1
  1
\A1;19.05 [3/4]
  7
SLDTEXTSTYLE0
 73
     1
 44
1.0
  0
POINT
  5
271
330
265
100
AcDbEntity
  8
Defpoints
 62
     0
100
AcDbPoint
 10
91.90000000000003
 20
14.93837499999995
 30
0.0
  0
POINT
  5
272
330
265
100
AcDbEntity
  8
Defpoints
 62
     0
100
AcDbPoint
 10
72.85
 20
14.92969983214056
 30
0.0
  0
POINT
  5
273
330
265
100
AcDbEntity
  8
Defpoints
 62
     0
100
AcDbPoint
 10
72.85
 20
34.11603284439377
 30
0.0
  0
ENDBLK
  5
267
330
265
100
AcDbEntity
  8
0
100
AcDbBlockEnd
  0
BLOCK
  5
275
330
274
100
AcDbEntity
  8
0
100
AcDbBlockBegin
  2
*D9
 70
     1
 10
0.0
 20
0.0
 30
0.0
  3
*D9
  1
*D12
  0
LINE
  5
277
330
274
100
AcDbEntity
  8
치수문자_일반주서
 62
     0
370
    -2
100
AcDbLine
 10
91.90000000000003
 20
15.00087499999995
 30
0.0
 11
91.90000000000003
 21
47.27948206518138
 31
0.0
  0
LINE
  5
278
330
274
100
AcDbEntity
  8
치수문자_일반주서
 62
     0
370
    -2
100
AcDbLine
 10
3.000000000000007
 20
14.64368749999995
 30
0.0
 11
3.000000000000007
 21
47.27948206518138
 31
0.0
  0
LINE
  5
279
330
274
100
AcDbEntity
  8
치수문자_일반주서
 62
     0
370
    -2
100
AcDbLine
 10
88.59800000000004
 20
47.27948206518138
 30
0.0
 11
6.302000000000007
 21
47.27948206518138
 31
0.0
  0
SOLID
  5
27A
330
274
100
AcDbEntity
  8
치수문자_일반주서
 62
     0
100
AcDbTrace
 10
88.59800000000004
 20
46.72914873184804
 30
0.0
 11
88.59800000000004
 21
47.82981539851471
 31
0.0
 12
91.90000000000003
 22
47.27948206518138
 32
0.0
 13
91.90000000000003
 23
47.27948206518138
 33
0.0
  0
SOLID
  5
27B
330
274
100
AcDbEntity
  8
치수문자_일반주서
 62
     0
100
AcDbTrace
 10
6.302000000000007
 20
47.82981539851471
 30
0.0
 11
6.302000000000007
 21
46.72914873184804
 31
0.0
 12
3.000000000000007
 22
47.27948206518138
 32
0.0
 13
3.000000000000007
 23
47.27948206518138
 33
0.0
  0
MTEXT
  5
27C
330
274
100
AcDbEntity
  8
치수문자_일반주서
 62
     0
100
AcDbMText
 10
46.84661201690102
 20
51.65448206518138
 30
0.0
 40
3.5
 41
0.0
 71
     2
 72
     1
  1
\A1;88.9 [3 1/2]
  7
SLDTEXTSTYLE0
 73
     1
 44
1.0
  0
POINT
  5
27D
330
274
100
AcDbEntity
  8
Defpoints
 62
     0
100
AcDbPoint
 10
91.90000000000003
 20
14.93837499999995
 30
0.0
  0
POINT
  5
27E
330
274
100
AcDbEntity
  8
Defpoints
 62
     0
100
AcDbPoint
 10
3.000000000000007
 20
14.58118749999995
 30
0.0
  0
POINT
  5
27F
330
274
100
AcDbEntity
  8
Defpoints
 62
     0
100
AcDbPoint
 10
3.000000000000007
 20
47.27948206518138
 30
0.0
  0
ENDBLK
  5
276
330
274
100
AcDbEntity
  8
0
100
AcDbBlockEnd
  0
BLOCK
  5
2AE
330
2AD
100
AcDbEntity
  8
0
100
AcDbBlockBegin
  2
*D10
 70
     1
 10
0.0
 20
0.0
 30
0.0
  3
*D10
  1
*D13
  0
LINE
  5
2B0
330
2AD
100
AcDbEntity
  8
치수문자_일반주서
 62
     0
370
    -2
100
AcDbLine
 10
174.6261304962809
 20
-38.75638905044816
 30
0.0
 11
186.2378387877313
 21
-38.75638905044812
 31
0.0
  0
LINE
  5
2B1
330
2AD
100
AcDbEntity
  8
치수문자_일반주서
 62
     0
370
    -2
100
AcDbLine
 10
174.6261304962809
 20
-47.09076405044816
 30
0.0
 11
186.2378387877313
 21
-47.09076405044812
 31
0.0
  0
LINE
  5
2B2
330
2AD
100
AcDbEntity
  8
치수문자_일반주서
 62
     0
370
    -2
100
AcDbLine
 10
186.2378387877313
 20
-38.75638905044812
 30
0.0
 11
186.2378387877312
 21
-1.527389050448122
 31
0.0
  0
LINE
  5
2B3
330
2AD
100
AcDbEntity
  8
치수문자_일반주서
 62
     0
370
    -2
100
AcDbLine
 10
186.2378387877313
 20
-38.75638905044812
 30
0.0
 11
186.2378387877313
 21
-47.09076405044812
 31
0.0
  0
LINE
  5
2B4
330
2AD
100
AcDbEntity
  8
치수문자_일반주서
 62
     0
370
    -2
100
AcDbLine
 10
186.2378387877313
 20
-35.45438905044812
 30
0.0
 11
186.2378387877313
 21
-32.15238905044812
 31
0.0
  0
LINE
  5
2B5
330
2AD
100
AcDbEntity
  8
치수문자_일반주서
 62
     0
370
    -2
100
AcDbLine
 10
186.2378387877313
 20
-50.39276405044811
 30
0.0
 11
186.2378387877313
 21
-53.69476405044811
 31
0.0
  0
SOLID
  5
2B6
330
2AD
100
AcDbEntity
  8
치수문자_일반주서
 62
     0
100
AcDbTrace
 10
185.687505454398
 20
-35.45438905044812
 30
0.0
 11
186.7881721210646
 21
-35.45438905044812
 31
0.0
 12
186.2378387877313
 22
-38.75638905044812
 32
0.0
 13
186.2378387877313
 23
-38.75638905044812
 33
0.0
  0
SOLID
  5
2B7
330
2AD
100
AcDbEntity
  8
치수문자_일반주서
 62
     0
100
AcDbTrace
 10
186.7881721210647
 20
-50.39276405044811
 30
0.0
 11
185.687505454398
 21
-50.39276405044811
 31
0.0
 12
186.2378387877313
 22
-47.09076405044812
 32
0.0
 13
186.2378387877313
 23
-47.09076405044812
 33
0.0
  0
MTEXT
  5
2B8
330
2AD
100
AcDbEntity
  8
치수문자_일반주서
 62
     0
100
AcDbMText
 10
181.8628387877312
 20
-16.83988905044814
 30
0.0
 40
3.5
 41
0.0
 71
     2
 72
     1
  1
\A1;%%c8.33 [21/64]
  7
SLDTEXTSTYLE0
 11
-3.410178859291072E-15
 21
1.0
 31
0.0
 73
     1
 44
1.0
  0
POINT
  5
2B9
330
2AD
100
AcDbEntity
  8
Defpoints
 62
     0
100
AcDbPoint
 10
174.5636304962809
 20
-38.75638905044816
 30
0.0
  0
POINT
  5
2BA
330
2AD
100
AcDbEntity
  8
Defpoints
 62
     0
100
AcDbPoint
 10
174.5636304962809
 20
-47.09076405044816
 30
0.0
  0
POINT
  5
2BB
330
2AD
100
AcDbEntity
  8
Defpoints
 62
     0
100
AcDbPoint
 10
186.2378387877313
 20
-47.09076405044812
 30
0.0
  0
ENDBLK
  5
2AF
330
2AD
100
AcDbEntity
  8
0
100
AcDbBlockEnd
  0
BLOCK
  5
2BD
330
2BC
100
AcDbEntity
  8
0
100
AcDbBlockBegin
  2
*D11
 70
     1
 10
0.0
 20
0.0
 30
0.0
  3
*D11
  1
*D14
  0
LINE
  5
2BF
330
2BC
100
AcDbEntity
  8
치수문자_일반주서
 62
     0
370
    -2
100
AcDbLine
 10
174.5636304962809
 20
-38.69388905044816
 30
0.0
 11
174.5636304962809
 21
-19.57873120605434
 31
0.0
  0
LINE
  5
2C0
330
2BC
100
AcDbEntity
  8
치수문자_일반주서
 62
     0
370
    -2
100
AcDbLine
 10
155.5136304962809
 20
-38.70256421830755
 30
0.0
 11
155.5136304962809
 21
-19.57873120605434
 31
0.0
  0
LINE
  5
2C1
330
2BC
100
AcDbEntity
  8
치수문자_일반주서
 62
     0
370
    -2
100
AcDbLine
 10
155.5136304962809
 20
-19.57873120605434
 30
0.0
 11
122.6829707506623
 21
-19.57873120605434
 31
0.0
  0
LINE
  5
2C2
330
2BC
100
AcDbEntity
  8
치수문자_일반주서
 62
     0
370
    -2
100
AcDbLine
 10
174.5636304962809
 20
-19.57873120605434
 30
0.0
 11
155.5136304962809
 21
-19.57873120605434
 31
0.0
  0
LINE
  5
2C3
330
2BC
100
AcDbEntity
  8
치수문자_일반주서
 62
     0
370
    -2
100
AcDbLine
 10
177.8656304962809
 20
-19.57873120605434
 30
0.0
 11
181.1676304962809
 21
-19.57873120605434
 31
0.0
  0
LINE
  5
2C4
330
2BC
100
AcDbEntity
  8
치수문자_일반주서
 62
     0
370
    -2
100
AcDbLine
 10
152.2116304962809
 20
-19.57873120605434
 30
0.0
 11
148.9096304962809
 21
-19.57873120605434
 31
0.0
  0
SOLID
  5
2C5
330
2BC
100
AcDbEntity
  8
치수문자_일반주서
 62
     0
100
AcDbTrace
 10
177.8656304962809
 20
-19.02839787272101
 30
0.0
 11
177.8656304962809
 21
-20.12906453938768
 31
0.0
 12
174.5636304962809
 22
-19.57873120605434
 32
0.0
 13
174.5636304962809
 23
-19.57873120605434
 33
0.0
  0
SOLID
  5
2C6
330
2BC
100
AcDbEntity
  8
치수문자_일반주서
 62
     0
100
AcDbTrace
 10
152.2116304962809
 20
-20.12906453938768
 30
0.0
 11
152.2116304962809
 21
-19.02839787272101
 31
0.0
 12
155.5136304962809
 22
-19.57873120605434
 32
0.0
 13
155.5136304962809
 23
-19.57873120605434
 33
0.0
  0
MTEXT
  5
2C7
330
2BC
100
AcDbEntity
  8
치수문자_일반주서
 62
     0
100
AcDbMText
 10
135.1517207506623
 20
-15.20373120605434
 30
0.0
 40
3.5
 41
0.0
 71
     2
 72
     1
  1
\A1;19.05 [3/4]
  7
SLDTEXTSTYLE0
 73
     1
 44
1.0
  0
POINT
  5
2C8
330
2BC
100
AcDbEntity
  8
Defpoints
 62
     0
100
AcDbPoint
 10
174.5636304962809
 20
-38.75638905044816
 30
0.0
  0
POINT
  5
2C9
330
2BC
100
AcDbEntity
  8
Defpoints
 62
     0
100
AcDbPoint
 10
155.5136304962809
 20
-38.76506421830755
 30
0.0
  0
POINT
  5
2CA
330
2BC
100
AcDbEntity
  8
Defpoints
 62
     0
100
AcDbPoint
 10
155.5136304962809
 20
-19.57873120605434
 30
0.0
  0
ENDBLK
  5
2BE
330
2BC
100
AcDbEntity
  8
0
100
AcDbBlockEnd
  0
BLOCK
  5
2CC
330
2CB
100
AcDbEntity
  8
0
100
AcDbBlockBegin
  2
*D12
 70
     1
 10
0.0
 20
0.0
 30
0.0
  3
*D12
  1
*D15
  0
LINE
  5
2CE
330
2CB
100
AcDbEntity
  8
치수문자_일반주서
 62
     0
370
    -2
100
AcDbLine
 10
174.5636304962809
 20
-38.69388905044816
 30
0.0
 11
174.5636304962809
 21
-6.415281985266738
 31
0.0
  0
LINE
  5
2CF
330
2CB
100
AcDbEntity
  8
치수문자_일반주서
 62
     0
370
    -2
100
AcDbLine
 10
85.66363049628086
 20
-39.05107655044817
 30
0.0
 11
85.66363049628086
 21
-6.415281985266738
 31
0.0
  0
LINE
  5
2D0
330
2CB
100
AcDbEntity
  8
치수문자_일반주서
 62
     0
370
    -2
100
AcDbLine
 10
171.2616304962809
 20
-6.415281985266738
 30
0.0
 11
88.96563049628085
 21
-6.415281985266738
 31
0.0
  0
SOLID
  5
2D1
330
2CB
100
AcDbEntity
  8
치수문자_일반주서
 62
     0
100
AcDbTrace
 10
171.2616304962809
 20
-6.965615318600071
 30
0.0
 11
171.2616304962809
 21
-5.864948651933404
 31
0.0
 12
174.5636304962809
 22
-6.415281985266738
 32
0.0
 13
174.5636304962809
 23
-6.415281985266738
 33
0.0
  0
SOLID
  5
2D2
330
2CB
100
AcDbEntity
  8
치수문자_일반주서
 62
     0
100
AcDbTrace
 10
88.96563049628085
 20
-5.864948651933404
 30
0.0
 11
88.96563049628085
 21
-6.965615318600071
 31
0.0
 12
85.66363049628086
 22
-6.415281985266738
 32
0.0
 13
85.66363049628086
 23
-6.415281985266738
 33
0.0
  0
MTEXT
  5
2D3
330
2CB
100
AcDbEntity
  8
치수문자_일반주서
 62
     0
100
AcDbMText
 10
129.5102425131819
 20
-2.040281985266738
 30
0.0
 40
3.5
 41
0.0
 71
     2
 72
     1
  1
\A1;88.9 [3 1/2]
  7
SLDTEXTSTYLE0
 73
     1
 44
1.0
  0
POINT
  5
2D4
330
2CB
100
AcDbEntity
  8
Defpoints
 62
     0
100
AcDbPoint
 10
174.5636304962809
 20
-38.75638905044816
 30
0.0
  0
POINT
  5
2D5
330
2CB
100
AcDbEntity
  8
Defpoints
 62
     0
100
AcDbPoint
 10
85.66363049628086
 20
-39.11357655044817
 30
0.0
  0
POINT
  5
2D6
330
2CB
100
AcDbEntity
  8
Defpoints
 62
     0
100
AcDbPoint
 10
85.66363049628086
 20
-6.415281985266738
 30
0.0
  0
ENDBLK
  5
2CD
330
2CB
100
AcDbEntity
  8
0
100
AcDbBlockEnd
  0
ENDSEC
  0
SECTION
  2
ENTITIES
  0
LINE
  5
96
330
1F
100
AcDbEntity
  8
0
  6
Continuous
 62
     1
370
    15
100
AcDbLine
 10
38.40983208721742
 20
-1.216793952730216
 30
0.0
 11
38.47182801760699
 21
-1.250129843346123
 31
0.0
  0
LINE
  5
97
330
1F
100
AcDbEntity
  8
0
  6
Continuous
 62
     1
370
    15
100
AcDbLine
 10
33.73239852593706
 20
-4.167187500000002
 30
0.0
 11
36.27095047277005
 21
-4.167187500000002
 31
0.0
  0
LINE
  5
98
330
1F
100
AcDbEntity
  8
0
  6
Continuous
 62
     1
370
    15
100
AcDbLine
 10
36.27095047277003
 20
4.167187499999999
 30
0.0
 11
33.73239852593711
 21
4.167187499999999
 31
0.0
  0
LINE
  5
99
330
1F
100
AcDbEntity
  8
외형선
  6
Continuous
370
    15
100
AcDbLine
 10
22.17826350361914
 20
-4.76250000000001
 30
0.0
 11
24.40000000000001
 21
-4.167187500000001
 31
0.0
  0
LINE
  5
9A
330
1F
100
AcDbEntity
  8
외형선
  6
Continuous
370
    15
100
AcDbLine
 10
24.40000000000001
 20
4.167187499999997
 30
0.0
 11
22.17826350361914
 21
4.762500000000006
 31
0.0
  0
LINE
  5
9B
330
1F
100
AcDbEntity
  8
외형선
  6
Continuous
370
    15
100
AcDbLine
 10
-22.17826350361915
 20
-4.762500000000006
 30
0.0
 11
22.17826350361914
 21
-4.762500000000006
 31
0.0
  0
LINE
  5
9C
330
1F
100
AcDbEntity
  8
외형선
  6
Continuous
370
    15
100
AcDbLine
 10
22.17826350361914
 20
4.762500000000002
 30
0.0
 11
4.838700000000017
 21
4.762500000000002
 31
0.0
  0
LINE
  5
9F
330
1F
100
AcDbEntity
  8
외형선
  6
Continuous
370
    15
100
AcDbLine
 10
24.40000000000001
 20
-4.167187500000001
 30
0.0
 11
24.93546244854242
 21
-4.167187500000001
 31
0.0
  0
LINE
  5
A0
330
1F
100
AcDbEntity
  8
외형선
  6
Continuous
370
    15
100
AcDbLine
 10
24.93546244854248
 20
4.167187499999997
 30
0.0
 11
24.40000000000001
 21
4.167187499999997
 31
0.0
  0
LINE
  5
A1
330
1F
100
AcDbEntity
  8
0
  6
Continuous
 62
     1
370
    15
100
AcDbLine
 10
44.45000000000001
 20
-3.774143997601679
 30
0.0
 11
44.45000000000001
 21
0.3570502476017265
 31
0.0
  0
SPLINE
  5
A2
330
1F
100
AcDbEntity
  8
0
  6
Continuous
 62
     1
370
    15
100
AcDbSpline
210
0.0
220
0.0
230
1.0
 70
     8
 71
     3
 72
    48
 73
    44
 74
     0
 42
0.000000001
 43
0.00000001
 40
0.0
 40
0.0
 40
0.0
 40
0.0
 40
0.062499999999998
 40
0.062499999999998
 40
0.1249999999999959
 40
0.1249999999999959
 40
0.1874999999999939
 40
0.1874999999999939
 40
0.2499999999999918
 40
0.2499999999999918
 40
0.3124999999999898
 40
0.3124999999999898
 40
0.3749999999999878
 40
0.3749999999999878
 40
0.4374999999999857
 40
0.4374999999999857
 40
0.4687499999999855
 40
0.4687499999999855
 40
0.4999999999999853
 40
0.4999999999999853
 40
0.5312499999999851
 40
0.5312499999999851
 40
0.5624999999999849
 40
0.5624999999999849
 40
0.624999999999986
 40
0.624999999999986
 40
0.6562499999999867
 40
0.6562499999999867
 40
0.6874999999999873
 40
0.6874999999999873
 40
0.718749999999988
 40
0.718749999999988
 40
0.7499999999999886
 40
0.7499999999999886
 40
0.8124999999999915
 40
0.8124999999999915
 40
0.8437499999999929
 40
0.8437499999999929
 40
0.8749999999999943
 40
0.8749999999999943
 40
0.9374999999999971
 40
0.9374999999999971
 40
1.0
 40
1.0
 40
1.0
 40
1.0
 10
44.45000000000001
 20
-3.774143997601679
 30
0.0
 10
44.05603477872621
 20
-3.677239934713293
 30
0.0
 10
43.65614274968792
 20
-3.56270468039382
 30
0.0
 10
42.86068597862109
 20
-3.302704337171204
 30
0.0
 10
42.46763815596973
 20
-3.157672828949171
 30
0.0
 10
41.67165234348595
 20
-2.839129073385721
 30
0.0
 10
41.27354512899193
 20
-2.666167890328702
 30
0.0
 10
40.48404306432351
 20
-2.298752841408382
 30
0.0
 10
40.08392239768493
 20
-2.10292372867929
 30
0.0
 10
39.28915311204904
 20
-1.694830895959443
 30
0.0
 10
38.8958357471574
 20
-1.482883946898512
 30
0.0
 10
38.09947968922422
 20
-1.045747700605625
 30
0.0
 10
37.702891099846
 20
-0.8217192823373864
 30
0.0
 10
36.91197191533318
 20
-0.3686973991097278
 30
0.0
 10
36.51170341797407
 20
-0.1385643285665412
 30
0.0
 10
35.91626055813045
 20
0.2050743498907587
 30
0.0
 10
35.71958890737446
 20
0.3191700204187065
 30
0.0
 10
35.32380415235509
 20
0.5468508673719337
 30
0.0
 10
35.12478151925372
 20
0.6604169150451601
 30
0.0
 10
34.72649788878721
 20
0.8858348032212122
 30
0.0
 10
34.5272391974003
 20
0.9976853336680805
 30
0.0
 10
34.13051819587153
 20
1.218537220848044
 30
0.0
 10
33.93397369826955
 20
1.327374244923349
 30
0.0
 10
33.33983804779477
 20
1.649839789755676
 30
0.0
 10
32.93950262681258
 20
1.859034851220077
 30
0.0
 10
32.34481194070498
 20
2.157778754717047
 30
0.0
 10
32.14831769661996
 20
2.254745462137176
 30
0.0
 10
31.75194111901556
 20
2.443912135726768
 30
0.0
 10
31.55276271050466
 20
2.535986995669014
 30
0.0
 10
31.15445307009607
 20
2.714153675331425
 30
0.0
 10
30.95532414522858
 20
2.80024446643565
 30
0.0
 10
30.55914382786989
 20
2.965596951315641
 30
0.0
 10
30.36262292936815
 20
3.044801087845047
 30
0.0
 10
29.76765822007867
 20
3.272526480576542
 30
0.0
 10
29.36733682795499
 20
3.410564311391595
 30
0.0
 10
28.77351588630722
 20
3.592796090696753
 30
0.0
 10
28.57689142985561
 20
3.649419855977421
 30
0.0
 10
28.18000135459359
 20
3.754619526887535
 30
0.0
 10
27.98070699003885
 20
3.80308996778856
 30
0.0
 10
27.38332292783984
 20
3.935327367911096
 30
0.0
 10
26.98968390943213
 20
4.005696658799112
 30
0.0
 10
26.1954492216789
 20
4.110003001528157
 30
0.0
 10
25.79522280138095
 20
4.143755785419672
 30
0.0
 10
25.40000000000001
 20
4.158512332140615
 30
0.0
  0
SPLINE
  5
A3
330
1F
100
AcDbEntity
  8
0
  6
Continuous
 62
     1
370
    15
100
AcDbSpline
210
0.0
220
0.0
230
1.0
 70
     8
 71
     3
 72
    17
 73
    13
 74
     0
 42
0.000000001
 43
0.00000001
 40
0.0
 40
0.0
 40
0.0
 40
0.0
 40
0.100900002011709
 40
0.2017498118919896
 40
0.3025662746080617
 40
0.4033663820074544
 40
0.5041671981483266
 40
0.604985783957305
 40
0.7058391219165353
 40
0.8167676942047731
 40
0.9277016597067755
 40
1.0
 40
1.0
 40
1.0
 40
1.0
 10
44.45
 20
0.3570502476017278
 30
0.0
 10
43.94165915179116
 20
0.647761183369445
 30
0.0
 10
42.92523032663372
 20
1.229038442405327
 30
0.0
 10
41.40108696118257
 20
2.042286561816023
 30
0.0
 10
39.87753330529459
 20
2.765844198143792
 30
0.0
 10
38.35427958053943
 20
3.366204320138868
 30
0.0
 10
36.83101288999658
 20
3.817297522550878
 30
0.0
 10
35.30742114692119
 20
4.098410596813905
 30
0.0
 10
33.73271908514099
 20
4.202608222764601
 30
0.0
 10
32.10683416758164
 20
4.094032710216059
 30
0.0
 10
30.62485615581033
 20
3.82516005989793
 30
0.0
 10
29.70171326014111
 20
3.518324694382577
 30
0.0
 10
29.33746690674451
 20
3.397256045632304
 30
0.0
  0
SPLINE
  5
A4
330
1F
100
AcDbEntity
  8
0
  6
Continuous
 62
     1
370
    15
100
AcDbSpline
210
0.0
220
0.0
230
1.0
 70
     8
 71
     3
 72
    17
 73
    13
 74
     0
 42
0.000000001
 43
0.00000001
 40
0.0
 40
0.0
 40
0.0
 40
0.0
 40
0.0998613493246362
 40
0.1996885198689904
 40
0.2994722589858417
 40
0.3992292991417619
 40
0.498976490529235
 40
0.5987307268448138
 40
0.698508870661901
 40
0.8082712944326582
 40
0.9180380724354418
 40
1.0
 40
1.0
 40
1.0
 40
1.0
 10
25.40000000000001
 20
-0.2687505229589042
 30
0.0
 10
25.9084189853069
 20
-0.5603332059026458
 30
0.0
 10
26.92508294324301
 20
-1.143398774015297
 30
0.0
 10
28.44965214370379
 20
-1.964028688575039
 30
0.0
 10
29.9735403204872
 20
-2.698235775397682
 30
0.0
 10
31.49694517560763
 20
-3.312271719818893
 30
0.0
 10
33.02016529327867
 20
-3.779372516429402
 30
0.0
 10
34.54352663745103
 20
-4.078253245685456
 30
0.0
 10
36.11789598058991
 20
-4.201467074333101
 30
0.0
 10
37.74355612809158
 20
-4.113789184908074
 30
0.0
 10
39.27843702437534
 20
-3.849965586805593
 30
0.0
 10
40.25454574846037
 20
-3.533842914418096
 30
0.0
 10
40.67182156692401
 20
-3.398703924671784
 30
0.0
  0
SPLINE
  5
A5
330
1F
100
AcDbEntity
  8
외형선
  6
Continuous
370
    15
100
AcDbSpline
210
0.0
220
0.0
230
1.0
 70
    24
 71
     3
 72
    21
 73
    17
 74
     0
 42
0.000000001
 43
0.00000001
 40
0.0
 40
0.0
 40
0.0
 40
0.0
 40
0.055701131595684
 40
0.1296816843603676
 40
0.2058076781670254
 40
0.2797882309317065
 40
0.3559142247383627
 40
0.4298947775030463
 40
0.5060207713097046
 40
0.5800013240743908
 40
0.6561273178810425
 40
0.7301078706457249
 40
0.8062338644523814
 40
0.8802144172170618
 40
0.9563404110237215
 40
1.0
 40
1.0
 40
1.0
 40
1.0
 10
25.40000000000004
 20
3.810831265957224
 30
0.0
 10
25.40000000000001
 20
3.729986637367523
 30
0.0
 10
25.39999999999996
 20
3.541766626271498
 30
0.0
 10
25.40000000000008
 20
3.202611525318853
 30
0.0
 10
25.39999999999996
 20
2.806642469048354
 30
0.0
 10
25.4
 20
2.387816226911054
 30
0.0
 10
25.40000000000009
 20
1.966536939085526
 30
0.0
 10
25.40000000000003
 20
1.546876515942342
 30
0.0
 10
25.40000000000001
 20
1.148333671585848
 30
0.0
 10
25.40000000000012
 20
0.7750170971391285
 30
0.0
 10
25.40000000000003
 20
0.4441412826530561
 30
0.0
 10
25.39999999999989
 20
0.1594009539020228
 30
0.0
 10
25.40000000000009
 20
-0.0670840734545889
 30
0.0
 10
25.40000000000007
 20
-0.2289970006219928
 30
0.0
 10
25.40000000000006
 20
-0.3195118601587171
 30
0.0
 10
25.40000000000003
 20
-0.3269637554157032
 30
0.0
 10
25.40000000000004
 20
-0.3296798308937001
 30
0.0
  0
SPLINE
  5
A6
330
1F
100
AcDbEntity
  8
0
  6
Continuous
 62
     1
370
    15
100
AcDbSpline
210
0.0
220
0.0
230
1.0
 70
     8
 71
     3
 72
    48
 73
    44
 74
     0
 42
0.000000001
 43
0.00000001
 40
0.0
 40
0.0
 40
0.0
 40
0.0
 40
0.0625000000000002
 40
0.0625000000000002
 40
0.1250000000000004
 40
0.1250000000000004
 40
0.1875000000000006
 40
0.1875000000000006
 40
0.2500000000000007
 40
0.2500000000000007
 40
0.3125000000000009
 40
0.3125000000000009
 40
0.3750000000000011
 40
0.3750000000000011
 40
0.4375000000000013
 40
0.4375000000000013
 40
0.4687500000000013
 40
0.4687500000000013
 40
0.5000000000000014
 40
0.5000000000000014
 40
0.5312500000000016
 40
0.5312500000000016
 40
0.5625000000000017
 40
0.5625000000000017
 40
0.6250000000000018
 40
0.6250000000000018
 40
0.6562500000000011
 40
0.6562500000000011
 40
0.6875000000000004
 40
0.6875000000000004
 40
0.7187499999999998
 40
0.7187499999999998
 40
0.749999999999999
 40
0.749999999999999
 40
0.8124999999999992
 40
0.8124999999999992
 40
0.8437499999999993
 40
0.8437499999999993
 40
0.8749999999999994
 40
0.8749999999999994
 40
0.9374999999999997
 40
0.9374999999999997
 40
1.0
 40
1.0
 40
1.0
 40
1.0
 10
44.45000000000002
 20
-4.167187499999992
 30
0.0
 10
44.05603477872621
 20
-4.132278916313859
 30
0.0
 10
43.65614274968791
 20
-4.093732907171279
 30
0.0
 10
42.86068597862111
 20
-3.979928364684984
 30
0.0
 10
42.46763815596969
 20
-3.90497325209878
 30
0.0
 10
41.6716523434859
 20
-3.719761267448268
 30
0.0
 10
41.27354512899188
 20
-3.609756252534742
 30
0.0
 10
40.48404306432341
 20
-3.358832371095848
 30
0.0
 10
40.0839223976849
 20
-3.216953280210706
 30
0.0
 10
39.28915311204899
 20
-2.905917085681813
 30
0.0
 10
38.8958357471574
 20
-2.737071014746156
 30
0.0
 10
38.0994796892242
 20
-2.374733288105837
 30
0.0
 10
37.702891099846
 20
-2.182171580361504
 30
0.0
 10
36.91197191533315
 20
-1.779472514080466
 30
0.0
 10
36.51170341797402
 20
-1.568290605684574
 30
0.0
 10
35.91626055813054
 20
-1.243150550785086
 30
0.0
 10
35.71958890737449
 20
-1.133571828657631
 30
0.0
 10
35.32380415235509
 20
-0.9116514944432913
 30
0.0
 10
35.12478151925371
 20
-0.7993211160794379
 30
0.0
 10
34.72649788878721
 20
-0.5730520324140924
 30
0.0
 10
34.5272391974003
 20
-0.4591146332327911
 30
0.0
 10
34.13051819587152
 20
-0.2308007266416545
 30
0.0
 10
33.93397369826957
 20
-0.1166023044297193
 30
0.0
 10
33.33983804779474
 20
0.22686598379012
 30
0.0
 10
32.93950262681252
 20
0.4566647084521083
 30
0.0
 10
32.34481194070498
 20
0.7955988803279322
 30
0.0
 10
32.14831769661996
 20
0.907476610468697
 30
0.0
 10
31.75194111901556
 20
1.129564164539168
 30
0.0
 10
31.55276271050466
 20
1.239636925712767
 30
0.0
 10
31.15445307009606
 20
1.456705222621271
 30
0.0
 10
30.95532414522858
 20
1.563699502792137
 30
0.0
 10
30.55914382786987
 20
1.773536149935332
 30
0.0
 10
30.36262292936815
 20
1.876294402629103
 30
0.0
 10
29.7676582200787
 20
2.178783869465422
 30
0.0
 10
29.36733682795498
 20
2.37203594664222
 30
0.0
 10
28.77351588630722
 20
2.643452754475404
 30
0.0
 10
28.57689142985561
 20
2.730844039828223
 30
0.0
 10
28.18000135459359
 20
2.89977839246789
 30
0.0
 10
27.98070699003891
 20
2.981168605866858
 30
0.0
 10
27.38332292783984
 20
3.214828705793432
 30
0.0
 10
26.98968390943213
 20
3.356125361025351
 30
0.0
 10
26.19544922167893
 20
3.607928677167828
 30
0.0
 10
25.79522280138102
 20
3.718249571248117
 30
0.0
 10
25.40000000000004
 20
3.810831265957221
 30
0.0
  0
LINE
  5
A7
330
1F
100
AcDbEntity
  8
0
  6
Continuous
 62
     1
370
    15
100
AcDbLine
 10
44.45000000000003
 20
-4.167187499999992
 30
0.0
 11
44.45000000000001
 21
-3.774143997601679
 31
0.0
  0
LINE
  5
A8
330
1F
100
AcDbEntity
  8
외형선
  6
Continuous
370
    15
100
AcDbLine
 10
25.40000000000003
 20
3.810831265957224
 30
0.0
 11
25.4
 21
4.158512332140617
 31
0.0
  0
SPLINE
  5
A9
330
1F
100
AcDbEntity
  8
0
  6
Continuous
 62
     1
370
    15
100
AcDbSpline
210
0.0
220
0.0
230
1.0
 70
     8
 71
     3
 72
    12
 73
     8
 74
     0
 42
0.000000001
 43
0.00000001
 40
0.0
 40
0.0
 40
0.0
 40
0.0
 40
0.1950876823312252
 40
0.3963107040320476
 40
0.597544384107679
 40
0.798777502408923
 40
1.0
 40
1.0
 40
1.0
 40
1.0
 10
33.73239852593706
 20
-4.163883425389719
 30
0.0
 10
33.19055650922268
 20
-4.144796460703615
 30
0.0
 10
32.08983201164195
 20
-4.106022262752245
 30
0.0
 10
30.43017667883465
 20
-3.769906181682377
 30
0.0
 10
28.75343082298529
 20
-3.24344615047046
 30
0.0
 10
27.07668667536673
 20
-2.544684977361986
 30
0.0
 10
25.95888572561986
 20
-1.972306467359289
 30
0.0
 10
25.40000000000006
 20
-1.686124764825866
 30
0.0
  0
LINE
  5
AA
330
1F
100
AcDbEntity
  8
외형선
  6
Continuous
370
    15
100
AcDbLine
 10
25.40000000000003
 20
-1.686124764825853
 30
0.0
 11
25.4
 21
-0.268750522958897
 31
0.0
  0
SPLINE
  5
AB
330
1F
100
AcDbEntity
  8
0
  6
Continuous
 62
     1
370
    15
100
AcDbSpline
210
0.0
220
0.0
230
1.0
 70
     8
 71
     3
 72
    12
 73
     8
 74
     0
 42
0.000000001
 43
0.00000001
 40
0.0
 40
0.0
 40
0.0
 40
0.0
 40
0.1800449706860661
 40
0.3850192667678149
 40
0.5900026016605742
 40
0.7949958794401257
 40
1.0
 40
1.0
 40
1.0
 40
1.0
 10
36.27095047277005
 20
4.155220142123944
 30
0.0
 10
36.76180644457305
 20
4.143316578228267
 30
0.0
 10
37.81148312052822
 20
4.117861263227951
 30
0.0
 10
39.4200209071728
 20
3.80784409840636
 30
0.0
 10
41.09658981736549
 20
3.299676697792487
 30
0.0
 10
42.77325520324224
 20
2.615428381194968
 30
0.0
 10
43.89107521380132
 20
2.04962574135994
 30
0.0
 10
44.45000000000001
 20
1.766716939841622
 30
0.0
  0
LINE
  5
AC
330
1F
100
AcDbEntity
  8
0
  6
Continuous
 62
     1
370
    15
100
AcDbLine
 10
44.45000000000001
 20
0.3570502476017275
 30
0.0
 11
44.45000000000001
 21
1.766716939841622
 31
0.0
  0
SPLINE
  5
AD
330
1F
100
AcDbEntity
  8
0
  6
Continuous
 62
     1
370
    15
100
AcDbSpline
210
0.0
220
0.0
230
1.0
 70
     8
 71
     3
 72
    10
 73
     6
 74
     0
 42
0.000000001
 43
0.00000001
 40
0.0
 40
0.0
 40
0.0
 40
0.0
 40
0.3873412865356413
 40
0.7745500007315773
 40
1.0
 40
1.0
 40
1.0
 40
1.0
 10
25.40000000000003
 20
-4.158512332140617
 30
0.0
 10
25.90841802443922
 20
-4.120379650301676
 30
0.0
 10
26.92508006096887
 20
-4.044127338005162
 30
0.0
 10
28.2375769595433
 20
-3.76840369731818
 30
0.0
 10
29.04159814410708
 20
-3.497094212841213
 30
0.0
 10
29.33746690674445
 20
-3.397256045632307
 30
0.0
  0
SPLINE
  5
AE
330
1F
100
AcDbEntity
  8
외형선
  6
Continuous
370
    15
100
AcDbSpline
210
0.0
220
0.0
230
1.0
 70
    24
 71
     3
 72
    14
 73
    10
 74
     0
 42
0.000000001
 43
0.00000001
 40
0.0
 40
0.0
 40
0.0
 40
0.0
 40
0.1539989592159012
 40
0.3163833714818574
 40
0.4741913419145886
 40
0.6365757541805509
 40
0.794383724613287
 40
0.9567681368792447
 40
1.0
 40
1.0
 40
1.0
 40
1.0
 10
25.40000000000001
 20
-1.747501577838937
 30
0.0
 10
25.40000000000001
 20
-1.844794527539759
 30
0.0
 10
25.40000000000001
 20
-2.044678160549288
 30
0.0
 10
25.40000000000004
 20
-2.400632716796687
 30
0.0
 10
25.40000000000009
 20
-2.791936727745997
 30
0.0
 10
25.40000000000001
 20
-3.202613274130435
 30
0.0
 10
25.40000000000008
 20
-3.626820027524231
 30
0.0
 10
25.39999999999998
 20
-3.945781671201356
 30
0.0
 10
25.40000000000001
 20
-4.12155508234774
 30
0.0
 10
25.40000000000001
 20
-4.158512332140621
 30
0.0
  0
SPLINE
  5
AF
330
1F
100
AcDbEntity
  8
0
  6
Continuous
 62
     1
370
    15
100
AcDbSpline
210
0.0
220
0.0
230
1.0
 70
     8
 71
     3
 72
    10
 73
     6
 74
     0
 42
0.000000001
 43
0.00000001
 40
0.0
 40
0.0
 40
0.0
 40
0.0
 40
0.4036015050218912
 40
0.8070022407734071
 40
1.0
 40
1.0
 40
1.0
 40
1.0
 10
44.45000000000002
 20
4.167187500000004
 30
0.0
 10
43.94165988805213
 20
4.107312185453924
 30
0.0
 10
42.92523253505036
 20
4.018232619166472
 30
0.0
 10
41.66588138131321
 20
3.742216888422201
 30
0.0
 10
40.91485707120015
 20
3.482688655934421
 30
0.0
 10
40.67182156692401
 20
3.398703924671779
 30
0.0
  0
LINE
  5
B0
330
1F
100
AcDbEntity
  8
0
  6
Continuous
 62
     1
370
    15
100
AcDbLine
 10
44.45000000000001
 20
1.746705882019742
 30
0.0
 11
44.45000000000003
 21
4.167187500000004
 31
0.0
  0
LINE
  5
B1
330
1F
100
AcDbEntity
  8
외형선
  6
Continuous
370
    15
100
AcDbLine
 10
24.40000000000001
 20
-0.0000000000000019
 30
0.0
 11
24.40000000000001
 21
4.167187499999997
 31
0.0
  0
LINE
  5
B2
330
1F
100
AcDbEntity
  8
외형선
  6
Continuous
370
    15
100
AcDbLine
 10
24.40000000000001
 20
-4.167187500000001
 30
0.0
 11
24.40000000000001
 21
-0.0000000000000019
 31
0.0
  0
LINE
  5
B3
330
1F
100
AcDbEntity
  8
외형선
  6
Continuous
370
    15
100
AcDbLine
 10
22.17826350361914
 20
-0.0000000000000019
 30
0.0
 11
22.17826350361914
 21
4.762500000000006
 31
0.0
  0
LINE
  5
B4
330
1F
100
AcDbEntity
  8
외형선
  6
Continuous
370
    15
100
AcDbLine
 10
22.17826350361914
 20
-4.76250000000001
 30
0.0
 11
22.17826350361914
 21
-0.0000000000000019
 31
0.0
  0
SPLINE
  5
B9
330
1F
100
AcDbEntity
  8
외형선
  6
Continuous
370
    15
100
AcDbSpline
210
0.0
220
0.0
230
1.0
 70
     8
 71
     3
 72
     9
 73
     5
 74
     0
 42
0.000000001
 43
0.00000001
 40
0.0
 40
0.0
 40
0.0
 40
0.0
 40
0.5273268323859762
 40
1.0
 40
1.0
 40
1.0
 40
1.0
 10
24.93546244854248
 20
4.166840459441507
 30
0.0
 10
25.01715150808493
 20
4.166586293796176
 30
0.0
 10
25.17206313883363
 20
4.166104304961698
 30
0.0
 10
25.32684076782763
 20
4.160949072294981
 30
0.0
 10
25.40000000000001
 20
4.158512332140615
 30
0.0
  0
SPLINE
  5
BA
330
1F
100
AcDbEntity
  8
외형선
  6
Continuous
370
    15
100
AcDbSpline
210
0.0
220
0.0
230
1.0
 70
     8
 71
     3
 72
     8
 73
     4
 74
     0
 42
0.000000001
 43
0.00000001
 40
0.0
 40
0.0
 40
0.0
 40
0.0
 40
1.0
 40
1.0
 40
1.0
 40
1.0
 10
25.39999999999998
 20
3.81083126595723
 30
0.0
 10
25.23340946026969
 20
3.849855417491108
 30
0.0
 10
25.06743381657341
 20
3.88577634206974
 30
0.0
 10
24.90016532790584
 20
3.918631607836255
 30
0.0
  0
LINE
  5
BB
330
1F
100
AcDbEntity
  8
외형선
  6
Continuous
370
    15
100
AcDbLine
 10
24.90016532790585
 20
0.0203897672404261
 30
0.0
 11
24.90016532790584
 21
3.918636395828197
 31
0.0
  0
SPLINE
  5
BC
330
1F
100
AcDbEntity
  8
외형선
  6
Continuous
370
    15
100
AcDbSpline
210
0.0
220
0.0
230
1.0
 70
     8
 71
     3
 72
     8
 73
     4
 74
     0
 42
0.000000001
 43
0.00000001
 40
0.0
 40
0.0
 40
0.0
 40
0.0
 40
1.0
 40
1.0
 40
1.0
 40
1.0
 10
25.40000000000001
 20
-0.2687505229589042
 30
0.0
 10
25.23340946026972
 20
-0.1725047297706891
 30
0.0
 10
25.06743381657338
 20
-0.0761613831415383
 30
0.0
 10
24.90016532790582
 20
0.0204145188119619
 30
0.0
  0
SPLINE
  5
BD
330
1F
100
AcDbEntity
  8
외형선
  6
Continuous
370
    15
100
AcDbSpline
210
0.0
220
0.0
230
1.0
 70
     8
 71
     3
 72
     8
 73
     4
 74
     0
 42
0.000000001
 43
0.00000001
 40
0.0
 40
0.0
 40
0.0
 40
0.0
 40
1.0
 40
1.0
 40
1.0
 40
1.0
 10
25.39999999999998
 20
-1.686124764825842
 30
0.0
 10
25.23340946026969
 20
-1.59792580120519
 30
0.0
 10
25.06743381657341
 20
-1.508483015564547
 30
0.0
 10
24.90016532790584
 20
-1.417666386080606
 30
0.0
  0
LINE
  5
BE
330
1F
100
AcDbEntity
  8
외형선
  6
Continuous
370
    15
100
AcDbLine
 10
24.90016532790585
 20
-4.167137616823823
 30
0.0
 11
24.90016532790584
 21
-1.417653151319741
 31
0.0
  0
SPLINE
  5
BF
330
1F
100
AcDbEntity
  8
외형선
  6
Continuous
370
    15
100
AcDbSpline
210
0.0
220
0.0
230
1.0
 70
     8
 71
     3
 72
     8
 73
     4
 74
     0
 42
0.000000001
 43
0.00000001
 40
0.0
 40
0.0
 40
0.0
 40
0.0
 40
1.0
 40
1.0
 40
1.0
 40
1.0
 10
25.40000000000001
 20
-4.158512332140619
 30
0.0
 10
25.23340946026972
 20
-4.164732370747216
 30
0.0
 10
25.06743381657338
 20
-4.167610614315314
 30
0.0
 10
24.90016532790582
 20
-4.167137495641096
 30
0.0
  0
SPLINE
  5
C0
330
1F
100
AcDbEntity
  8
외형선
  6
Continuous
370
    15
100
AcDbSpline
210
0.0
220
0.0
230
1.0
 70
    24
 71
     3
 72
    21
 73
    17
 74
     0
 42
0.000000001
 43
0.00000001
 40
0.0
 40
0.0
 40
0.0
 40
0.0
 40
0.0254713649268112
 40
0.0995907821712896
 40
0.1758596675370633
 40
0.2499790847815579
 40
0.3262479701473493
 40
0.4003673873918357
 40
0.4766362727576184
 40
0.5507556900021046
 40
0.6270245753678871
 40
0.701143992612368
 40
0.7774128779781445
 40
0.851532295222638
 40
0.9278011805884282
 40
0.9999999999999999
 40
0.9999999999999999
 40
0.9999999999999999
 40
0.9999999999999999
 10
25.40000000000006
 20
-0.329082075662947
 30
0.0
 10
25.40000000000006
 20
-0.3291381790655519
 30
0.0
 10
25.40000000000004
 20
-0.3293575384035358
 30
0.0
 10
25.39999999999993
 20
-0.2555883993886455
 30
0.0
 10
25.40000000000011
 20
-0.1121848387534741
 30
0.0
 10
25.39999999999993
 20
0.1025315566600405
 30
0.0
 10
25.40000000000009
 20
0.3720770714655208
 30
0.0
 10
25.39999999999998
 20
0.6954293519015406
 30
0.0
 10
25.40000000000004
 20
1.057148131138778
 30
0.0
 10
25.40000000000001
 20
1.453625555595348
 30
0.0
 10
25.39999999999997
 20
1.866491347832544
 30
0.0
 10
25.40000000000001
 20
2.291418590926676
 30
0.0
 10
25.40000000000001
 20
2.709029944644187
 30
0.0
 10
25.4
 20
3.113897920421531
 30
0.0
 10
25.4
 20
3.488232416243147
 30
0.0
 10
25.40000000000003
 20
3.705281698896743
 30
0.0
 10
25.40000000000003
 20
3.810831265957253
 30
0.0
  0
SPLINE
  5
C1
330
1F
100
AcDbEntity
  8
외형선
  6
Continuous
370
    15
100
AcDbSpline
210
0.0
220
0.0
230
1.0
 70
    24
 71
     3
 72
    14
 73
    10
 74
     0
 42
0.000000001
 43
0.00000001
 40
0.0
 40
0.0
 40
0.0
 40
0.0
 40
0.1614082516787144
 40
0.3277460290016307
 40
0.4852375349361305
 40
0.6472963052119619
 40
0.8047878111464964
 40
0.9668465814223652
 40
1.0
 40
1.0
 40
1.0
 40
1.0
 10
25.4
 20
-4.158512332140619
 30
0.0
 10
25.40000000000001
 20
-4.018900582425699
 30
0.0
 10
25.40000000000008
 20
-3.735413238407411
 30
0.0
 10
25.40000000000003
 20
-3.305716107688976
 30
0.0
 10
25.39999999999994
 20
-2.884903173415083
 30
0.0
 10
25.40000000000011
 20
-2.48920855558567
 30
0.0
 10
25.39999999999994
 20
-2.125120524930612
 30
0.0
 10
25.40000000000004
 20
-1.876009809089416
 30
0.0
 10
25.40000000000006
 20
-1.766149460536047
 30
0.0
 10
25.40000000000004
 20
-1.747491577838937
 30
0.0
  0
LINE
  5
C2
330
1F
100
AcDbEntity
  8
중심선
 48
0.8
100
AcDbLine
 10
-47.45
 20
-0.0000000000000058
 30
0.0
 11
47.45000000000001
 21
0.0000000000000058
 31
0.0
  0
LINE
  5
C3
330
1F
100
AcDbEntity
  8
참조1
100
AcDbLine
 10
4.955880657015618
 20
0.0010749287238892
 30
0.0
 11
4.955880657015622
 21
-39.99892507127611
 31
0.0
  0
LINE
  5
C4
330
1F
100
AcDbEntity
  8
참조1
100
AcDbLine
 10
4.955880657015622
 20
-39.99892507127611
 30
0.0
 11
-29.25297615729306
 21
-39.9989250712761
 31
0.0
  0
CIRCLE
  5
C5
330
1F
100
AcDbEntity
  8
해칭선
100
AcDbCircle
 10
0.0
 20
0.0
 30
0.0
 40
3.000000000000008
  0
INSERT
  5
C6
330
1F
100
AcDbEntity
  8
0
  6
Continuous
 62
     7
100
AcDbBlockReference
 66
     1
  2
블럭10
 10
-15.25270142786559
 20
-52.56845846898304
 30
0.0
  0
ATTRIB
  5
C7
330
C6
100
AcDbEntity
  8
FORMAT
 62
     2
100
AcDbText
 10
-24.43399671660687
 20
-50.49309155615085
 30
0.0
 40
4.233333333333333
  1
E1053021 [ 4 FLUTE ]
 41
0.75
  7
SLDTEXTSTYLE0
 11
-24.43399671660687
 21
-52.60975822281752
 31
0.0
100
AcDbAttribute
  2
AUTOATTR0
 70
     0
 74
     1
  0
SEQEND
  5
C8
330
C6
100
AcDbEntity
  8
0
  6
Continuous
 62
     7
  0
HATCH
  5
C9
330
1F
100
AcDbEntity
  8
중심선
100
AcDbHatch
 10
0.0
 20
0.0
 30
0.0
210
0.0
220
0.0
230
1.0
  2
SOLID
 70
     1
 71
     0
 91
        1
 92
        0
 93
        4
 72
     1
 10
-9.53779212348474
 20
-36.3212841673391
 11
-12.98406736732202
 21
-36.3212841673391
 72
     1
 10
-12.98406736732202
 20
-36.3212841673391
 11
-15.11229722652605
 21
-38.8576097479117
 72
     1
 10
-15.11229722652605
 20
-38.8576097479117
 11
-11.66598889757562
 21
-38.85757031860921
 72
     1
 10
-11.66598889757562
 20
-38.85757031860921
 11
-9.537792123484742
 21
-36.3212841673391
 97
        0
 75
     0
 76
     1
 98
        1
 10
-6.268309152756004
 20
-0.5223590960629991
  0
HATCH
  5
CA
330
1F
100
AcDbEntity
  8
중심선
100
AcDbHatch
 10
0.0
 20
0.0
 30
0.0
210
0.0
220
0.0
230
1.0
  2
SOLID
 70
     1
 71
     0
 91
        1
 92
        0
 93
        4
 72
     1
 10
-4.525028132448734
 20
-36.32128416733908
 11
-7.971303376286045
 21
-36.3212841673391
 72
     1
 10
-7.971303376286045
 20
-36.3212841673391
 11
-12.50244138464346
 21
-41.72128416733912
 72
     1
 10
-12.50244138464346
 20
-41.72128416733912
 11
-9.05616614080618
 21
-41.72128416733912
 72
     1
 10
-9.056166140806178
 20
-41.72128416733912
 11
-4.525028132448734
 21
-36.32128416733908
 97
        0
 75
     0
 76
     1
 98
        1
 10
-6.268309152756004
 20
-0.5223590960629991
  0
HATCH
  5
CB
330
1F
100
AcDbEntity
  8
중심선
100
AcDbHatch
 10
0.0
 20
0.0
 30
0.0
210
0.0
220
0.0
230
1.0
  2
SOLID
 70
     1
 71
     0
 91
        1
 92
        0
 93
        4
 72
     1
 10
0.4877358585871336
 20
-36.32128416733908
 11
-2.958539385249983
 21
-36.32128416733908
 72
     1
 10
-2.958539385249983
 20
-36.32128416733908
 11
-10.00697628713926
 21
-44.72128416733912
 72
     1
 10
-10.00697628713926
 20
-44.72128416733912
 11
-6.560701043301977
 21
-44.72128416733912
 72
     1
 10
-6.560701043301977
 20
-44.72128416733912
 11
0.4877358585871336
 21
-36.32128416733908
 97
        0
 75
     0
 76
     1
 98
        1
 10
-6.268309152756004
 20
-0.5223590960629991
  0
HATCH
  5
CC
330
1F
100
AcDbEntity
  8
중심선
100
AcDbHatch
 10
0.0
 20
0.0
 30
0.0
210
0.0
220
0.0
230
1.0
  2
SOLID
 70
     1
 71
     0
 91
        1
 92
        0
 93
        6
 72
     3
 10
5.287626289599306
 20
-40.52128416739038
 11
3.960054785062283
 21
1.540882976769353E-10
 40
0.3939339440162628
 50
17.09539180608439
 51
320.0019657685086
 73
     0
 72
     1
 10
6.970625945299897
 20
-39.10917817197743
 11
9.275927819000936
 21
-37.17485146192949
 72
     3
 10
5.287626289546456
 20
-40.52128416733925
 11
6.600054785286833
 21
-1.278976924368180E-13
 40
0.6363583540795976
 50
39.99873849337411
 51
368.4976242363724
 73
     1
 72
     1
 10
11.71295878144707
 20
-39.56128416726913
 11
3.967693596382377
 21
-39.56128416726913
 72
     1
 10
3.967693596382377
 20
-39.56128416726913
 11
3.967668551936447
 21
-41.48128416726902
 72
     1
 10
3.967668551936447
 20
-41.48128416726902
 11
8.409048321408486
 21
-41.48128416726899
 97
        0
 75
     0
 76
     1
 98
        1
 10
-6.268309152756004
 20
-0.5223590960629991
  0
DIMENSION
  5
CD
330
1F
100
AcDbEntity
  8
치수문자_일반주서
100
AcDbDimension
  2
_D
 10
56.12420829145047
 20
-4.167187499999951
 30
0.0
 11
56.12420829145037
 21
26.08368750000005
 31
0.0
 70
   160
  1
%%c<>
 71
     2
 42
8.334374999999996
 52
-270.0
  3
SLDDIMSTYLE2
100
AcDbAlignedDimension
 13
44.45000000000003
 23
4.167187500000004
 33
0.0
 14
44.45000000000002
 24
-4.167187499999992
 34
0.0
 50
90.0000000000002
100
AcDbRotatedDimension
1001
ACAD
1000
DSTYLE
1002
{
1070
   171
1070
     6
1070
   273
1070
     7
1002
}
  0
DIMENSION
  5
E1
330
1F
100
AcDbEntity
  8
치수문자_일반주서
100
AcDbDimension
  2
_D_1
 10
25.4
 20
23.34484534439382
 30
0.0
 11
5.038090254381402
 21
23.34484534439382
 31
0.0
 70
   160
  1
<>
 71
     2
 42
19.05000000000003
  3
SLDDIMSTYLE2
100
AcDbAlignedDimension
 13
44.45000000000003
 23
4.167187500000004
 33
0.0
 14
25.4
 24
4.158512332140617
 34
0.0
100
AcDbRotatedDimension
1001
ACAD
1000
DSTYLE
1002
{
1070
   171
1070
     6
1070
   273
1070
     7
1002
}
  0
DIMENSION
  5
F5
330
1F
100
AcDbEntity
  8
치수문자_일반주서
100
AcDbDimension
  2
_D_2
 10
-44.44999999999999
 20
36.50829456518143
 30
0.0
 11
-0.6033879830989832
 21
36.50829456518143
 31
0.0
 70
   160
  1
<>
 71
     2
 42
88.90000000000003
  3
SLDDIMSTYLE2
100
AcDbAlignedDimension
 13
44.45000000000003
 23
4.167187500000004
 33
0.0
 14
-44.45
 24
3.81
 34
0.0
100
AcDbRotatedDimension
1001
ACAD
1000
DSTYLE
1002
{
1070
   171
1070
     6
1070
   273
1070
     7
1002
}
  0
DIMENSION
  5
109
330
1F
100
AcDbEntity
  8
치수문자_일반주서
100
AcDbDimension
  2
_D_3
 10
-56.97374999999999
 20
-4.762500000000133
 30
0.0
 11
-56.97375000000001
 21
0.0000000000000007
 31
0.0
 70
   160
  1
%%c<>
 71
     2
 42
9.525000000000006
 52
-270.0
  3
SLDDIMSTYLE2
100
AcDbAlignedDimension
 13
-22.17826350361914
 23
4.762500000000002
 33
0.0
 14
-22.17826350361915
 24
-4.762500000000003
 34
0.0
 50
90.0000000000002
100
AcDbRotatedDimension
1001
ACAD
1000
DSTYLE
1002
{
1070
   171
1070
     6
1070
   273
1070
     7
1002
}
  0
LINE
  5
11E
330
1F
100
AcDbEntity
  8
참조1
100
AcDbLine
 10
68.7193644723612
 20
7.441074928723896
 30
0.0
 11
68.7193644723612
 21
-7.438925071276109
 31
0.0
  0
LINE
  5
11F
330
1F
100
AcDbEntity
  8
참조1
100
AcDbLine
 10
81.41936447236121
 20
5.441074928723896
 30
0.0
 11
68.7193644723612
 21
5.441074928723896
 31
0.0
  0
SOLID
  5
120
330
1F
100
AcDbEntity
  8
참조1
100
AcDbTrace
 10
68.7193644723612
 20
5.441074928723896
 30
0.0
 11
75.0693644723612
 21
4.425074928723896
 31
0.0
 12
75.0693644723612
 22
6.457074928723896
 32
0.0
 13
75.0693644723612
 23
6.457074928723896
 33
0.0
  0
LINE
  5
121
330
1F
100
AcDbEntity
  8
참조1
100
AcDbLine
 10
81.41936447236121
 20
-5.438925071276109
 30
0.0
 11
68.7193644723612
 21
-5.438925071276109
 31
0.0
  0
SOLID
  5
122
330
1F
100
AcDbEntity
  8
참조1
100
AcDbTrace
 10
68.7193644723612
 20
-5.438925071276109
 30
0.0
 11
75.0693644723612
 21
-6.454925071276109
 31
0.0
 12
75.0693644723612
 22
-4.422925071276109
 32
0.0
 13
75.0693644723612
 23
-4.422925071276109
 33
0.0
  0
MTEXT
  5
123
330
1F
100
AcDbEntity
  8
참조1
100
AcDbMText
 10
78.1037146049872
 20
11.01136670591223
 30
0.0
 40
3.5
 41
0.0
 71
     1
 72
     1
  1
A
  7
SLDTEXTSTYLE0
 73
     1
 44
1.0
  0
MTEXT
  5
124
330
1F
100
AcDbEntity
  8
참조1
100
AcDbMText
 10
78.1037146049872
 20
0.1313667059122219
 30
0.0
 40
3.5
 41
0.0
 71
     1
 72
     1
  1
A
  7
SLDTEXTSTYLE0
 73
     1
 44
1.0
  0
INSERT
  5
12B
330
1F
100
AcDbEntity
  8
해칭선
100
AcDbBlockReference
  2
SW_DOWELSYMBOL_0
 10
0.0
 20
0.0
 30
0.0
  0
LINE
  5
281
330
1F
100
AcDbEntity
  8
0
  6
Continuous
 62
     1
370
    15
100
AcDbLine
 10
-38.40983208721744
 20
1.216793952730221
 30
0.0
 11
-38.47182801760701
 21
1.25012984334613
 31
0.0
  0
LINE
  5
282
330
1F
100
AcDbEntity
  8
0
  6
Continuous
 62
     1
370
    15
100
AcDbLine
 10
-33.73239852593707
 20
4.167187500000011
 30
0.0
 11
-36.27095047277007
 21
4.167187500000011
 31
0.0
  0
LINE
  5
283
330
1F
100
AcDbEntity
  8
0
  6
Continuous
 62
     1
370
    15
100
AcDbLine
 10
-36.27095047277004
 20
-4.16718749999999
 30
0.0
 11
-33.73239852593713
 21
-4.16718749999999
 31
0.0
  0
LINE
  5
284
330
1F
100
AcDbEntity
  8
외형선
  6
Continuous
370
    15
100
AcDbLine
 10
-22.17826350361915
 20
4.762500000000017
 30
0.0
 11
-24.40000000000003
 21
4.167187500000011
 31
0.0
  0
LINE
  5
285
330
1F
100
AcDbEntity
  8
외형선
  6
Continuous
370
    15
100
AcDbLine
 10
-24.40000000000003
 20
-4.16718749999999
 30
0.0
 11
-22.17826350361915
 21
-4.762500000000003
 31
0.0
  0
LINE
  5
288
330
1F
100
AcDbEntity
  8
외형선
  6
Continuous
370
    15
100
AcDbLine
 10
-24.40000000000003
 20
4.167187500000011
 30
0.0
 11
-24.93546244854244
 21
4.167187500000011
 31
0.0
  0
LINE
  5
289
330
1F
100
AcDbEntity
  8
외형선
  6
Continuous
370
    15
100
AcDbLine
 10
-24.93546244854249
 20
-4.16718749999999
 30
0.0
 11
-24.40000000000003
 21
-4.16718749999999
 31
0.0
  0
LINE
  5
28A
330
1F
100
AcDbEntity
  8
0
  6
Continuous
 62
     1
370
    15
100
AcDbLine
 10
-44.45000000000002
 20
3.774143997601684
 30
0.0
 11
-44.45000000000002
 21
-0.3570502476017196
 31
0.0
  0
SPLINE
  5
28B
330
1F
100
AcDbEntity
  8
0
  6
Continuous
 62
     1
370
    15
100
AcDbSpline
210
0.0
220
0.0
230
1.0
 70
     8
 71
     3
 72
    48
 73
    44
 74
     0
 42
0.000000001
 43
0.00000001
 40
0.0
 40
0.0
 40
0.0
 40
0.0
 40
0.062499999999998
 40
0.062499999999998
 40
0.1249999999999959
 40
0.1249999999999959
 40
0.1874999999999939
 40
0.1874999999999939
 40
0.2499999999999918
 40
0.2499999999999918
 40
0.3124999999999898
 40
0.3124999999999898
 40
0.3749999999999878
 40
0.3749999999999878
 40
0.4374999999999857
 40
0.4374999999999857
 40
0.4687499999999855
 40
0.4687499999999855
 40
0.4999999999999853
 40
0.4999999999999853
 40
0.5312499999999851
 40
0.5312499999999851
 40
0.5624999999999849
 40
0.5624999999999849
 40
0.624999999999986
 40
0.624999999999986
 40
0.6562499999999867
 40
0.6562499999999867
 40
0.6874999999999873
 40
0.6874999999999873
 40
0.718749999999988
 40
0.718749999999988
 40
0.7499999999999886
 40
0.7499999999999886
 40
0.8124999999999915
 40
0.8124999999999915
 40
0.8437499999999929
 40
0.8437499999999929
 40
0.8749999999999943
 40
0.8749999999999943
 40
0.9374999999999971
 40
0.9374999999999971
 40
1.0
 40
1.0
 40
1.0
 40
1.0
 10
-44.45000000000002
 20
3.774143997601684
 30
0.0
 10
-44.05603477872623
 20
3.677239934713299
 30
0.0
 10
-43.65614274968794
 20
3.562704680393828
 30
0.0
 10
-42.86068597862112
 20
3.302704337171207
 30
0.0
 10
-42.46763815596975
 20
3.157672828949174
 30
0.0
 10
-41.67165234348596
 20
2.839129073385728
 30
0.0
 10
-41.27354512899194
 20
2.666167890328708
 30
0.0
 10
-40.48404306432352
 20
2.298752841408387
 30
0.0
 10
-40.08392239768494
 20
2.102923728679301
 30
0.0
 10
-39.28915311204906
 20
1.694830895959448
 30
0.0
 10
-38.89583574715741
 20
1.482883946898518
 30
0.0
 10
-38.09947968922424
 20
1.045747700605631
 30
0.0
 10
-37.702891099846
 20
0.8217192823373979
 30
0.0
 10
-36.9119719153332
 20
0.3686973991097348
 30
0.0
 10
-36.51170341797408
 20
0.1385643285665453
 30
0.0
 10
-35.91626055813046
 20
-0.2050743498907507
 30
0.0
 10
-35.71958890737449
 20
-0.3191700204186957
 30
0.0
 10
-35.32380415235511
 20
-0.5468508673719298
 30
0.0
 10
-35.12478151925373
 20
-0.6604169150451539
 30
0.0
 10
-34.72649788878724
 20
-0.8858348032212006
 30
0.0
 10
-34.52723919740032
 20
-0.9976853336680732
 30
0.0
 10
-34.13051819587156
 20
-1.218537220848035
 30
0.0
 10
-33.93397369826957
 20
-1.327374244923341
 30
0.0
 10
-33.33983804779479
 20
-1.649839789755667
 30
0.0
 10
-32.93950262681258
 20
-1.859034851220073
 30
0.0
 10
-32.344811940705
 20
-2.157778754717043
 30
0.0
 10
-32.14831769661998
 20
-2.254745462137166
 30
0.0
 10
-31.75194111901558
 20
-2.443912135726762
 30
0.0
 10
-31.55276271050468
 20
-2.535986995669006
 30
0.0
 10
-31.15445307009608
 20
-2.714153675331417
 30
0.0
 10
-30.95532414522859
 20
-2.800244466435643
 30
0.0
 10
-30.55914382786989
 20
-2.965596951315632
 30
0.0
 10
-30.36262292936817
 20
-3.044801087845045
 30
0.0
 10
-29.76765822007869
 20
-3.272526480576531
 30
0.0
 10
-29.367336827955
 20
-3.410564311391589
 30
0.0
 10
-28.77351588630722
 20
-3.592796090696744
 30
0.0
 10
-28.57689142985561
 20
-3.649419855977413
 30
0.0
 10
-28.1800013545936
 20
-3.754619526887524
 30
0.0
 10
-27.98070699003887
 20
-3.803089967788551
 30
0.0
 10
-27.38332292783986
 20
-3.935327367911086
 30
0.0
 10
-26.98968390943213
 20
-4.005696658799103
 30
0.0
 10
-26.19544922167893
 20
-4.110003001528149
 30
0.0
 10
-25.79522280138096
 20
-4.143755785419664
 30
0.0
 10
-25.40000000000003
 20
-4.15851233214061
 30
0.0
  0
SPLINE
  5
28C
330
1F
100
AcDbEntity
  8
0
  6
Continuous
 62
     1
370
    15
100
AcDbSpline
210
0.0
220
0.0
230
1.0
 70
     8
 71
     3
 72
    17
 73
    13
 74
     0
 42
0.000000001
 43
0.00000001
 40
0.0
 40
0.0
 40
0.0
 40
0.0
 40
0.100900002011709
 40
0.2017498118919896
 40
0.3025662746080617
 40
0.4033663820074544
 40
0.5041671981483266
 40
0.604985783957305
 40
0.7058391219165353
 40
0.8167676942047731
 40
0.9277016597067755
 40
1.0
 40
1.0
 40
1.0
 40
1.0
 10
-44.45000000000002
 20
-0.3570502476017196
 30
0.0
 10
-43.94165915179119
 20
-0.6477611833694396
 30
0.0
 10
-42.92523032663374
 20
-1.229038442405319
 30
0.0
 10
-41.40108696118259
 20
-2.042286561816013
 30
0.0
 10
-39.87753330529461
 20
-2.765844198143782
 30
0.0
 10
-38.35427958053944
 20
-3.366204320138863
 30
0.0
 10
-36.8310128899966
 20
-3.817297522550874
 30
0.0
 10
-35.3074211469212
 20
-4.098410596813899
 30
0.0
 10
-33.73271908514101
 20
-4.202608222764596
 30
0.0
 10
-32.10683416758167
 20
-4.094032710216055
 30
0.0
 10
-30.62485615581033
 20
-3.825160059897925
 30
0.0
 10
-29.70171326014113
 20
-3.518324694382571
 30
0.0
 10
-29.33746690674451
 20
-3.397256045632297
 30
0.0
  0
SPLINE
  5
28D
330
1F
100
AcDbEntity
  8
0
  6
Continuous
 62
     1
370
    15
100
AcDbSpline
210
0.0
220
0.0
230
1.0
 70
     8
 71
     3
 72
    17
 73
    13
 74
     0
 42
0.000000001
 43
0.00000001
 40
0.0
 40
0.0
 40
0.0
 40
0.0
 40
0.0998613493246362
 40
0.1996885198689904
 40
0.2994722589858417
 40
0.3992292991417619
 40
0.498976490529235
 40
0.5987307268448138
 40
0.698508870661901
 40
0.8082712944326582
 40
0.9180380724354418
 40
1.0
 40
1.0
 40
1.0
 40
1.0
 10
-25.40000000000003
 20
0.2687505229589108
 30
0.0
 10
-25.90841898530692
 20
0.5603332059026515
 30
0.0
 10
-26.92508294324301
 20
1.143398774015303
 30
0.0
 10
-28.44965214370382
 20
1.964028688575048
 30
0.0
 10
-29.97354032048722
 20
2.698235775397691
 30
0.0
 10
-31.49694517560764
 20
3.312271719818902
 30
0.0
 10
-33.02016529327869
 20
3.779372516429412
 30
0.0
 10
-34.54352663745104
 20
4.07825324568546
 30
0.0
 10
-36.11789598058994
 20
4.20146707433311
 30
0.0
 10
-37.7435561280916
 20
4.113789184908079
 30
0.0
 10
-39.27843702437536
 20
3.849965586805602
 30
0.0
 10
-40.25454574846037
 20
3.533842914418102
 30
0.0
 10
-40.67182156692402
 20
3.398703924671793
 30
0.0
  0
SPLINE
  5
28E
330
1F
100
AcDbEntity
  8
외형선
  6
Continuous
370
    15
100
AcDbSpline
210
0.0
220
0.0
230
1.0
 70
    24
 71
     3
 72
    21
 73
    17
 74
     0
 42
0.000000001
 43
0.00000001
 40
0.0
 40
0.0
 40
0.0
 40
0.0
 40
0.055701131595684
 40
0.1296816843603676
 40
0.2058076781670254
 40
0.2797882309317065
 40
0.3559142247383627
 40
0.4298947775030463
 40
0.5060207713097046
 40
0.5800013240743908
 40
0.6561273178810425
 40
0.7301078706457249
 40
0.8062338644523814
 40
0.8802144172170618
 40
0.9563404110237215
 40
1.0
 40
1.0
 40
1.0
 40
1.0
 10
-25.40000000000006
 20
-3.810831265957219
 30
0.0
 10
-25.40000000000003
 20
-3.729986637367517
 30
0.0
 10
-25.39999999999998
 20
-3.541766626271489
 30
0.0
 10
-25.40000000000009
 20
-3.202611525318844
 30
0.0
 10
-25.39999999999998
 20
-2.806642469048349
 30
0.0
 10
-25.40000000000001
 20
-2.387816226911049
 30
0.0
 10
-25.40000000000009
 20
-1.966536939085515
 30
0.0
 10
-25.40000000000003
 20
-1.546876515942337
 30
0.0
 10
-25.40000000000003
 20
-1.148333671585839
 30
0.0
 10
-25.40000000000015
 20
-0.7750170971391198
 30
0.0
 10
-25.40000000000003
 20
-0.4441412826530494
 30
0.0
 10
-25.39999999999992
 20
-0.1594009539020148
 30
0.0
 10
-25.40000000000009
 20
0.0670840734545949
 30
0.0
 10
-25.40000000000009
 20
0.2289970006220018
 30
0.0
 10
-25.40000000000006
 20
0.3195118601587269
 30
0.0
 10
-25.40000000000003
 20
0.3269637554157115
 30
0.0
 10
-25.40000000000006
 20
0.32967983089371
 30
0.0
  0
SPLINE
  5
28F
330
1F
100
AcDbEntity
  8
0
  6
Continuous
 62
     1
370
    15
100
AcDbSpline
210
0.0
220
0.0
230
1.0
 70
     8
 71
     3
 72
    48
 73
    44
 74
     0
 42
0.000000001
 43
0.00000001
 40
0.0
 40
0.0
 40
0.0
 40
0.0
 40
0.0625000000000002
 40
0.0625000000000002
 40
0.1250000000000004
 40
0.1250000000000004
 40
0.1875000000000006
 40
0.1875000000000006
 40
0.2500000000000007
 40
0.2500000000000007
 40
0.3125000000000009
 40
0.3125000000000009
 40
0.3750000000000011
 40
0.3750000000000011
 40
0.4375000000000013
 40
0.4375000000000013
 40
0.4687500000000013
 40
0.4687500000000013
 40
0.5000000000000014
 40
0.5000000000000014
 40
0.5312500000000016
 40
0.5312500000000016
 40
0.5625000000000017
 40
0.5625000000000017
 40
0.6250000000000018
 40
0.6250000000000018
 40
0.6562500000000011
 40
0.6562500000000011
 40
0.6875000000000004
 40
0.6875000000000004
 40
0.7187499999999998
 40
0.7187499999999998
 40
0.749999999999999
 40
0.749999999999999
 40
0.8124999999999992
 40
0.8124999999999992
 40
0.8437499999999993
 40
0.8437499999999993
 40
0.8749999999999994
 40
0.8749999999999994
 40
0.9374999999999997
 40
0.9374999999999997
 40
1.0
 40
1.0
 40
1.0
 40
1.0
 10
-44.45000000000005
 20
4.167187499999997
 30
0.0
 10
-44.05603477872623
 20
4.132278916313865
 30
0.0
 10
-43.65614274968792
 20
4.093732907171287
 30
0.0
 10
-42.86068597862112
 20
3.979928364684994
 30
0.0
 10
-42.46763815596969
 20
3.904973252098785
 30
0.0
 10
-41.6716523434859
 20
3.719761267448277
 30
0.0
 10
-41.27354512899188
 20
3.609756252534751
 30
0.0
 10
-40.48404306432343
 20
3.358832371095858
 30
0.0
 10
-40.08392239768492
 20
3.216953280210717
 30
0.0
 10
-39.28915311204901
 20
2.905917085681821
 30
0.0
 10
-38.89583574715741
 20
2.737071014746164
 30
0.0
 10
-38.09947968922421
 20
2.374733288105844
 30
0.0
 10
-37.702891099846
 20
2.182171580361512
 30
0.0
 10
-36.91197191533317
 20
1.779472514080474
 30
0.0
 10
-36.51170341797405
 20
1.568290605684581
 30
0.0
 10
-35.91626055813055
 20
1.243150550785096
 30
0.0
 10
-35.71958890737449
 20
1.133571828657637
 30
0.0
 10
-35.32380415235511
 20
0.911651494443298
 30
0.0
 10
-35.12478151925373
 20
0.7993211160794474
 30
0.0
 10
-34.72649788878724
 20
0.573052032414097
 30
0.0
 10
-34.52723919740032
 20
0.459114633232801
 30
0.0
 10
-34.13051819587153
 20
0.230800726641661
 30
0.0
 10
-33.9339736982696
 20
0.1166023044297263
 30
0.0
 10
-33.33983804779476
 20
-0.2268659837901125
 30
0.0
 10
-32.93950262681253
 20
-0.4566647084521022
 30
0.0
 10
-32.344811940705
 20
-0.7955988803279225
 30
0.0
 10
-32.14831769661998
 20
-0.9074766104686914
 30
0.0
 10
-31.75194111901558
 20
-1.129564164539161
 30
0.0
 10
-31.55276271050468
 20
-1.239636925712759
 30
0.0
 10
-31.15445307009608
 20
-1.456705222621267
 30
0.0
 10
-30.95532414522859
 20
-1.563699502792133
 30
0.0
 10
-30.55914382786989
 20
-1.773536149935325
 30
0.0
 10
-30.36262292936817
 20
-1.8762944026291
 30
0.0
 10
-29.76765822007872
 20
-2.178783869465413
 30
0.0
 10
-29.367336827955
 20
-2.372035946642214
 30
0.0
 10
-28.77351588630722
 20
-2.643452754475398
 30
0.0
 10
-28.57689142985561
 20
-2.730844039828213
 30
0.0
 10
-28.1800013545936
 20
-2.89977839246788
 30
0.0
 10
-27.98070699003893
 20
-2.981168605866856
 30
0.0
 10
-27.38332292783986
 20
-3.214828705793423
 30
0.0
 10
-26.98968390943213
 20
-3.356125361025342
 30
0.0
 10
-26.19544922167893
 20
-3.60792867716782
 30
0.0
 10
-25.79522280138104
 20
-3.718249571248109
 30
0.0
 10
-25.40000000000006
 20
-3.810831265957212
 30
0.0
  0
LINE
  5
290
330
1F
100
AcDbEntity
  8
0
  6
Continuous
 62
     1
370
    15
100
AcDbLine
 10
-44.45000000000005
 20
4.167187499999997
 30
0.0
 11
-44.45000000000002
 21
3.774143997601684
 31
0.0
  0
LINE
  5
291
330
1F
100
AcDbEntity
  8
외형선
  6
Continuous
370
    15
100
AcDbLine
 10
-25.40000000000003
 20
-3.810831265957219
 30
0.0
 11
-25.40000000000001
 21
-4.15851233214061
 31
0.0
  0
SPLINE
  5
292
330
1F
100
AcDbEntity
  8
0
  6
Continuous
 62
     1
370
    15
100
AcDbSpline
210
0.0
220
0.0
230
1.0
 70
     8
 71
     3
 72
    12
 73
     8
 74
     0
 42
0.000000001
 43
0.00000001
 40
0.0
 40
0.0
 40
0.0
 40
0.0
 40
0.1950876823312252
 40
0.3963107040320476
 40
0.597544384107679
 40
0.798777502408923
 40
1.0
 40
1.0
 40
1.0
 40
1.0
 10
-33.73239852593707
 20
4.163883425389727
 30
0.0
 10
-33.19055650922269
 20
4.144796460703624
 30
0.0
 10
-32.08983201164196
 20
4.106022262752255
 30
0.0
 10
-30.43017667883467
 20
3.769906181682387
 30
0.0
 10
-28.75343082298531
 20
3.243446150470469
 30
0.0
 10
-27.07668667536674
 20
2.544684977361996
 30
0.0
 10
-25.95888572561989
 20
1.972306467359296
 30
0.0
 10
-25.40000000000006
 20
1.686124764825877
 30
0.0
  0
LINE
  5
293
330
1F
100
AcDbEntity
  8
외형선
  6
Continuous
370
    15
100
AcDbLine
 10
-25.40000000000003
 20
1.686124764825863
 30
0.0
 11
-25.40000000000001
 21
0.2687505229589037
 31
0.0
  0
SPLINE
  5
294
330
1F
100
AcDbEntity
  8
0
  6
Continuous
 62
     1
370
    15
100
AcDbSpline
210
0.0
220
0.0
230
1.0
 70
     8
 71
     3
 72
    12
 73
     8
 74
     0
 42
0.000000001
 43
0.00000001
 40
0.0
 40
0.0
 40
0.0
 40
0.0
 40
0.1800449706860661
 40
0.3850192667678149
 40
0.5900026016605742
 40
0.7949958794401257
 40
1.0
 40
1.0
 40
1.0
 40
1.0
 10
-36.27095047277007
 20
-4.155220142123937
 30
0.0
 10
-36.76180644457307
 20
-4.143316578228259
 30
0.0
 10
-37.81148312052824
 20
-4.117861263227944
 30
0.0
 10
-39.42002090717281
 20
-3.807844098406349
 30
0.0
 10
-41.0965898173655
 20
-3.299676697792478
 30
0.0
 10
-42.77325520324226
 20
-2.61542838119496
 30
0.0
 10
-43.89107521380134
 20
-2.049625741359932
 30
0.0
 10
-44.45000000000002
 20
-1.766716939841615
 30
0.0
  0
LINE
  5
295
330
1F
100
AcDbEntity
  8
0
  6
Continuous
 62
     1
370
    15
100
AcDbLine
 10
-44.45000000000002
 20
-0.3570502476017196
 30
0.0
 11
-44.45000000000002
 21
-1.766716939841615
 31
0.0
  0
SPLINE
  5
296
330
1F
100
AcDbEntity
  8
0
  6
Continuous
 62
     1
370
    15
100
AcDbSpline
210
0.0
220
0.0
230
1.0
 70
     8
 71
     3
 72
    10
 73
     6
 74
     0
 42
0.000000001
 43
0.00000001
 40
0.0
 40
0.0
 40
0.0
 40
0.0
 40
0.3873412865356413
 40
0.7745500007315773
 40
1.0
 40
1.0
 40
1.0
 40
1.0
 10
-25.40000000000003
 20
4.158512332140624
 30
0.0
 10
-25.90841802443924
 20
4.120379650301686
 30
0.0
 10
-26.92508006096887
 20
4.044127338005168
 30
0.0
 10
-28.2375769595433
 20
3.768403697318185
 30
0.0
 10
-29.0415981441071
 20
3.497094212841219
 30
0.0
 10
-29.33746690674445
 20
3.397256045632318
 30
0.0
  0
SPLINE
  5
297
330
1F
100
AcDbEntity
  8
외형선
  6
Continuous
370
    15
100
AcDbSpline
210
0.0
220
0.0
230
1.0
 70
    24
 71
     3
 72
    14
 73
    10
 74
     0
 42
0.000000001
 43
0.00000001
 40
0.0
 40
0.0
 40
0.0
 40
0.0
 40
0.1539989592159012
 40
0.3163833714818574
 40
0.4741913419145886
 40
0.6365757541805509
 40
0.794383724613287
 40
0.9567681368792447
 40
1.0
 40
1.0
 40
1.0
 40
1.0
 10
-25.40000000000003
 20
1.747501577838946
 30
0.0
 10
-25.40000000000003
 20
1.844794527539761
 30
0.0
 10
-25.40000000000003
 20
2.044678160549296
 30
0.0
 10
-25.40000000000006
 20
2.400632716796693
 30
0.0
 10
-25.40000000000009
 20
2.791936727746005
 30
0.0
 10
-25.40000000000003
 20
3.202613274130442
 30
0.0
 10
-25.40000000000009
 20
3.626820027524239
 30
0.0
 10
-25.40000000000001
 20
3.94578167120136
 30
0.0
 10
-25.40000000000003
 20
4.121555082347747
 30
0.0
 10
-25.40000000000003
 20
4.158512332140631
 30
0.0
  0
SPLINE
  5
298
330
1F
100
AcDbEntity
  8
0
  6
Continuous
 62
     1
370
    15
100
AcDbSpline
210
0.0
220
0.0
230
1.0
 70
     8
 71
     3
 72
    10
 73
     6
 74
     0
 42
0.000000001
 43
0.00000001
 40
0.0
 40
0.0
 40
0.0
 40
0.0
 40
0.4036015050218912
 40
0.8070022407734071
 40
1.0
 40
1.0
 40
1.0
 40
1.0
 10
-44.45000000000005
 20
-4.167187499999997
 30
0.0
 10
-43.94165988805213
 20
-4.107312185453921
 30
0.0
 10
-42.92523253505038
 20
-4.018232619166469
 30
0.0
 10
-41.66588138131323
 20
-3.742216888422192
 30
0.0
 10
-40.91485707120017
 20
-3.48268865593441
 30
0.0
 10
-40.67182156692402
 20
-3.398703924671771
 30
0.0
  0
LINE
  5
299
330
1F
100
AcDbEntity
  8
0
  6
Continuous
 62
     1
370
    15
100
AcDbLine
 10
-44.45000000000002
 20
-1.746705882019732
 30
0.0
 11
-44.45000000000005
 21
-4.167187499999997
 31
0.0
  0
LINE
  5
29A
330
1F
100
AcDbEntity
  8
외형선
  6
Continuous
370
    15
100
AcDbLine
 10
-24.40000000000003
 20
0.0000000000000072
 30
0.0
 11
-24.40000000000003
 21
-4.16718749999999
 31
0.0
  0
LINE
  5
29B
330
1F
100
AcDbEntity
  8
외형선
  6
Continuous
370
    15
100
AcDbLine
 10
-24.40000000000003
 20
4.167187500000011
 30
0.0
 11
-24.40000000000003
 21
0.0000000000000072
 31
0.0
  0
LINE
  5
29C
330
1F
100
AcDbEntity
  8
외형선
  6
Continuous
370
    15
100
AcDbLine
 10
-22.17826350361915
 20
0.0000000000000072
 30
0.0
 11
-22.17826350361915
 21
-4.762500000000003
 31
0.0
  0
LINE
  5
29D
330
1F
100
AcDbEntity
  8
외형선
  6
Continuous
370
    15
100
AcDbLine
 10
-22.17826350361915
 20
4.762500000000017
 30
0.0
 11
-22.17826350361915
 21
0.0000000000000072
 31
0.0
  0
SPLINE
  5
29E
330
1F
100
AcDbEntity
  8
외형선
  6
Continuous
370
    15
100
AcDbSpline
210
0.0
220
0.0
230
1.0
 70
     8
 71
     3
 72
     9
 73
     5
 74
     0
 42
0.000000001
 43
0.00000001
 40
0.0
 40
0.0
 40
0.0
 40
0.0
 40
0.5273268323859762
 40
1.0
 40
1.0
 40
1.0
 40
1.0
 10
-24.93546244854249
 20
-4.166840459441502
 30
0.0
 10
-25.01715150808494
 20
-4.166586293796172
 30
0.0
 10
-25.17206313883364
 20
-4.166104304961692
 30
0.0
 10
-25.32684076782766
 20
-4.160949072294976
 30
0.0
 10
-25.40000000000003
 20
-4.15851233214061
 30
0.0
  0
SPLINE
  5
29F
330
1F
100
AcDbEntity
  8
외형선
  6
Continuous
370
    15
100
AcDbSpline
210
0.0
220
0.0
230
1.0
 70
     8
 71
     3
 72
     8
 73
     4
 74
     0
 42
0.000000001
 43
0.00000001
 40
0.0
 40
0.0
 40
0.0
 40
0.0
 40
1.0
 40
1.0
 40
1.0
 40
1.0
 10
-25.40000000000001
 20
-3.810831265957219
 30
0.0
 10
-25.23340946026968
 20
-3.849855417491099
 30
0.0
 10
-25.06743381657344
 20
-3.885776342069732
 30
0.0
 10
-24.90016532790585
 20
-3.918631607836247
 30
0.0
  0
LINE
  5
2A0
330
1F
100
AcDbEntity
  8
외형선
  6
Continuous
370
    15
100
AcDbLine
 10
-24.90016532790588
 20
-0.0203897672404167
 30
0.0
 11
-24.90016532790585
 21
-3.918636395828187
 31
0.0
  0
SPLINE
  5
2A1
330
1F
100
AcDbEntity
  8
외형선
  6
Continuous
370
    15
100
AcDbSpline
210
0.0
220
0.0
230
1.0
 70
     8
 71
     3
 72
     8
 73
     4
 74
     0
 42
0.000000001
 43
0.00000001
 40
0.0
 40
0.0
 40
0.0
 40
0.0
 40
1.0
 40
1.0
 40
1.0
 40
1.0
 10
-25.40000000000003
 20
0.2687505229589108
 30
0.0
 10
-25.23340946026974
 20
0.1725047297706937
 30
0.0
 10
-25.06743381657338
 20
0.0761613831415461
 30
0.0
 10
-24.90016532790582
 20
-0.0204145188119539
 30
0.0
  0
SPLINE
  5
2A2
330
1F
100
AcDbEntity
  8
외형선
  6
Continuous
370
    15
100
AcDbSpline
210
0.0
220
0.0
230
1.0
 70
     8
 71
     3
 72
     8
 73
     4
 74
     0
 42
0.000000001
 43
0.00000001
 40
0.0
 40
0.0
 40
0.0
 40
0.0
 40
1.0
 40
1.0
 40
1.0
 40
1.0
 10
-25.40000000000001
 20
1.686124764825848
 30
0.0
 10
-25.23340946026968
 20
1.5979258012052
 30
0.0
 10
-25.06743381657344
 20
1.508483015564551
 30
0.0
 10
-24.90016532790585
 20
1.417666386080612
 30
0.0
  0
LINE
  5
2A3
330
1F
100
AcDbEntity
  8
외형선
  6
Continuous
370
    15
100
AcDbLine
 10
-24.90016532790588
 20
4.16713761682383
 30
0.0
 11
-24.90016532790585
 21
1.417653151319747
 31
0.0
  0
SPLINE
  5
2A4
330
1F
100
AcDbEntity
  8
외형선
  6
Continuous
370
    15
100
AcDbSpline
210
0.0
220
0.0
230
1.0
 70
     8
 71
     3
 72
     8
 73
     4
 74
     0
 42
0.000000001
 43
0.00000001
 40
0.0
 40
0.0
 40
0.0
 40
0.0
 40
1.0
 40
1.0
 40
1.0
 40
1.0
 10
-25.40000000000003
 20
4.158512332140624
 30
0.0
 10
-25.23340946026974
 20
4.164732370747224
 30
0.0
 10
-25.06743381657338
 20
4.167610614315322
 30
0.0
 10
-24.90016532790582
 20
4.1671374956411
 30
0.0
  0
SPLINE
  5
2A5
330
1F
100
AcDbEntity
  8
외형선
  6
Continuous
370
    15
100
AcDbSpline
210
0.0
220
0.0
230
1.0
 70
    24
 71
     3
 72
    21
 73
    17
 74
     0
 42
0.000000001
 43
0.00000001
 40
0.0
 40
0.0
 40
0.0
 40
0.0
 40
0.0254713649268112
 40
0.0995907821712896
 40
0.1758596675370633
 40
0.2499790847815579
 40
0.3262479701473493
 40
0.4003673873918357
 40
0.4766362727576184
 40
0.5507556900021046
 40
0.6270245753678871
 40
0.701143992612368
 40
0.7774128779781445
 40
0.851532295222638
 40
0.9278011805884282
 40
0.9999999999999999
 40
0.9999999999999999
 40
0.9999999999999999
 40
0.9999999999999999
 10
-25.40000000000006
 20
0.329082075662953
 30
0.0
 10
-25.40000000000006
 20
0.3291381790655593
 30
0.0
 10
-25.40000000000006
 20
0.3293575384035422
 30
0.0
 10
-25.39999999999995
 20
0.2555883993886569
 30
0.0
 10
-25.40000000000012
 20
0.1121848387534784
 30
0.0
 10
-25.39999999999995
 20
-0.1025315566600326
 30
0.0
 10
-25.40000000000009
 20
-0.3720770714655116
 30
0.0
 10
-25.40000000000001
 20
-0.6954293519015308
 30
0.0
 10
-25.40000000000006
 20
-1.057148131138774
 30
0.0
 10
-25.40000000000003
 20
-1.453625555595337
 30
0.0
 10
-25.39999999999998
 20
-1.866491347832536
 30
0.0
 10
-25.40000000000003
 20
-2.291418590926668
 30
0.0
 10
-25.40000000000003
 20
-2.709029944644179
 30
0.0
 10
-25.40000000000001
 20
-3.113897920421522
 30
0.0
 10
-25.40000000000001
 20
-3.488232416243136
 30
0.0
 10
-25.40000000000003
 20
-3.705281698896741
 30
0.0
 10
-25.40000000000003
 20
-3.810831265957248
 30
0.0
  0
SPLINE
  5
2A6
330
1F
100
AcDbEntity
  8
외형선
  6
Continuous
370
    15
100
AcDbSpline
210
0.0
220
0.0
230
1.0
 70
    24
 71
     3
 72
    14
 73
    10
 74
     0
 42
0.000000001
 43
0.00000001
 40
0.0
 40
0.0
 40
0.0
 40
0.0
 40
0.1614082516787144
 40
0.3277460290016307
 40
0.4852375349361305
 40
0.6472963052119619
 40
0.8047878111464964
 40
0.9668465814223652
 40
1.0
 40
1.0
 40
1.0
 40
1.0
 10
-25.40000000000001
 20
4.158512332140624
 30
0.0
 10
-25.40000000000003
 20
4.018900582425708
 30
0.0
 10
-25.40000000000009
 20
3.735413238407418
 30
0.0
 10
-25.40000000000003
 20
3.30571610768898
 30
0.0
 10
-25.39999999999995
 20
2.88490317341509
 30
0.0
 10
-25.40000000000012
 20
2.489208555585677
 30
0.0
 10
-25.39999999999995
 20
2.125120524930622
 30
0.0
 10
-25.40000000000006
 20
1.876009809089425
 30
0.0
 10
-25.40000000000006
 20
1.766149460536056
 30
0.0
 10
-25.40000000000006
 20
1.747491577838943
 30
0.0
  0
LINE
  5
37A
330
1F
100
AcDbEntity
  8
외형선
  6
Continuous
370
    15
100
AcDbLine
 10
-3.568700000000035
 20
3.49250000000002
 30
0.0
 11
3.568700000000035
 21
3.49250000000002
 31
0.0
  0
LINE
  5
37B
330
1F
100
AcDbEntity
  8
외형선
  6
Continuous
370
    15
100
AcDbLine
 10
-3.568700000000035
 20
3.49250000000002
 30
0.0
 11
-4.838700000000017
 21
4.762500000000002
 31
0.0
  0
LINE
  5
37C
330
1F
100
AcDbEntity
  8
외형선
  6
Continuous
370
    15
100
AcDbLine
 10
3.568700000000035
 20
3.49250000000002
 30
0.0
 11
4.838700000000017
 21
4.762500000000002
 31
0.0
  0
LINE
  5
37E
330
1F
100
AcDbEntity
  8
외형선
  6
Continuous
370
    15
100
AcDbLine
 10
-4.838700000000017
 20
4.762500000000002
 30
0.0
 11
-22.17826350361914
 21
4.762500000000002
 31
0.0
  0
ENDSEC
  0
SECTION
  2
OBJECTS
  0
DICTIONARY
  5
C
330
0
100
AcDbDictionary
281
     1
  3
ACAD_GROUP
350
D
  3
ACAD_IMAGE_VARS
350
14F
  3
ACAD_LAYOUT
350
1A
  3
ACAD_MLINESTYLE
350
17
  3
ACAD_PLOTSETTINGS
350
19
  3
ACAD_PLOTSTYLENAME
350
E
  3
ACAD_SCALELIST
350
47
  3
APPDATA
350
14D
  3
DWGPROPS
350
37F
  0
DICTIONARY
  5
198
330
2
100
AcDbDictionary
280
     1
281
     1
  3
ACAD_LAYERSTATES
360
199
  0
DICTIONARY
  5
D
102
{ACAD_REACTORS
330
C
102
}
330
C
100
AcDbDictionary
281
     1
  0
RASTERVARIABLES
  5
14F
102
{ACAD_REACTORS
330
C
102
}
330
C
100
AcDbRasterVariables
 90
        0
 70
     1
 71
     1
 72
     1
  0
DICTIONARY
  5
1A
102
{ACAD_REACTORS
330
C
102
}
330
C
100
AcDbDictionary
281
     1
  3
Layout1
350
1E
  3
Layout2
350
26
  3
Model
350
22
  0
DICTIONARY
  5
17
102
{ACAD_REACTORS
330
C
102
}
330
C
100
AcDbDictionary
281
     1
  3
Standard
350
18
  0
DICTIONARY
  5
19
102
{ACAD_REACTORS
330
C
102
}
330
C
100
AcDbDictionary
281
     1
  0
ACDBDICTIONARYWDFLT
  5
E
102
{ACAD_REACTORS
330
C
102
}
330
C
100
AcDbDictionary
281
     1
  3
Normal
350
F
100
AcDbDictionaryWithDefault
340
F
  0
DICTIONARY
  5
47
102
{ACAD_REACTORS
330
C
102
}
330
C
100
AcDbDictionary
281
     1
  3
A0
350
48
  3
A1
350
49
  3
A2
350
4A
  3
A3
350
4B
  3
A4
350
4C
  3
A5
350
4D
  3
A6
350
4E
  3
A7
350
4F
  3
A8
350
50
  3
A9
350
51
  3
B0
350
52
  3
B1
350
53
  3
B2
350
54
  3
B3
350
55
  3
B4
350
56
  3
B5
350
57
  3
B6
350
58
  3
B7
350
59
  3
B8
350
5A
  3
B9
350
5B
  3
C0
350
5C
  3
C1
350
5D
  3
C2
350
5E
  3
C3
350
5F
  3
C4
350
60
  3
C5
350
61
  3
C6
350
62
  3
C7
350
63
  3
C8
350
64
  3
C9
350
65
  3
D0
350
66
  3
D1
350
67
  3
D2
350
68
  0
DICTIONARY
  5
14D
102
{ACAD_REACTORS
330
C
102
}
330
C
100
AcDbDictionary
281
     1
  0
XRECORD
  5
37F
102
{ACAD_REACTORS
330
C
102
}
330
C
100
AcDbXrecord
280
     1
  1
DWGPROPS COOKIE
  2

  3

  4

  6

  7

  8
12017012
  9

300
=
301
=
302
=
303
=
304
=
305
=
306
=
307
=
308
=
309
=
 40
0.0
 41
2458313.096871632
 42
2458318.980448947
  1

 90
        0
  0
DICTIONARY
  5
199
102
{ACAD_REACTORS
330
198
102
}
330
198
100
AcDbDictionary
281
     1
  0
LAYOUT
  5
1E
102
{ACAD_REACTORS
330
1A
102
}
330
1A
100
AcDbPlotSettings
  1

  2
none_device
  4

  6

 40
0.0
 41
0.0
 42
0.0
 43
0.0
 44
0.0
 45
0.0
 46
0.0
 47
0.0
 48
0.0
 49
0.0
140
0.0
141
0.0
142
1.0
143
1.0
 70
   688
 72
     1
 73
     0
 74
     5
  7

 75
    16
147
1.0
148
0.0
149
0.0
100
AcDbLayout
  1
Layout1
 70
     1
 71
     1
 10
0.0
 20
0.0
 11
420.0
 21
297.0
 12
0.0
 22
0.0
 32
0.0
 14
1.000000000000000E+20
 24
1.000000000000000E+20
 34
1.000000000000000E+20
 15
-1.000000000000000E+20
 25
-1.000000000000000E+20
 35
-1.000000000000000E+20
146
0.0
 13
0.0
 23
0.0
 33
0.0
 16
1.0
 26
0.0
 36
0.0
 17
0.0
 27
1.0
 37
0.0
 76
     0
330
1B
  0
LAYOUT
  5
26
102
{ACAD_REACTORS
330
1A
102
}
330
1A
100
AcDbPlotSettings
  1

  2
none_device
  4

  6

 40
0.0
 41
0.0
 42
0.0
 43
0.0
 44
0.0
 45
0.0
 46
0.0
 47
0.0
 48
0.0
 49
0.0
140
0.0
141
0.0
142
1.0
143
1.0
 70
   688
 72
     1
 73
     0
 74
     5
  7

 75
    16
147
1.0
148
0.0
149
0.0
100
AcDbLayout
  1
Layout2
 70
     1
 71
     2
 10
0.0
 20
0.0
 11
0.0
 21
0.0
 12
0.0
 22
0.0
 32
0.0
 14
0.0
 24
0.0
 34
0.0
 15
0.0
 25
0.0
 35
0.0
146
0.0
 13
0.0
 23
0.0
 33
0.0
 16
1.0
 26
0.0
 36
0.0
 17
0.0
 27
1.0
 37
0.0
 76
     0
330
23
  0
LAYOUT
  5
22
102
{ACAD_REACTORS
330
1A
102
}
330
1A
100
AcDbPlotSettings
  1

  2
none_device
  4
ANSI_A_(11.00_x_8.50_Inches)
  6

 40
6.35
 41
19.05
 42
6.35000508
 43
19.05000254
 44
279.4
 45
215.9
 46
76.40317549079083
 47
81.24402158953433
 48
0.0
 49
0.0
140
0.0
141
0.0
142
0.0509944409367187
143
1.0
 70
  1696
 72
     0
 73
     0
 74
     0
  7

 75
     0
147
0.0235690232323232
148
0.0
149
0.0
100
AcDbLayout
  1
Model
 70
     1
 71
     0
 10
0.0
 20
0.0
 11
420.0
 21
297.0
 12
0.0
 22
0.0
 32
0.0
 14
1.000000000000000E+20
 24
1.000000000000000E+20
 34
1.000000000000000E+20
 15
-1.000000000000000E+20
 25
-1.000000000000000E+20
 35
-1.000000000000000E+20
146
0.0
 13
0.0
 23
0.0
 33
0.0
 16
1.0
 26
0.0
 36
0.0
 17
0.0
 27
1.0
 37
0.0
 76
     0
330
1F
331
29
  0
MLINESTYLE
  5
18
102
{ACAD_REACTORS
330
17
102
}
330
17
100
AcDbMlineStyle
  2
Standard
 70
     0
  3

 62
   256
 51
90.0
 52
90.0
 71
     2
 49
0.5
 62
   256
  6
BYLAYER
 49
-0.5
 62
   256
  6
BYLAYER
  0
ACDBPLACEHOLDER
  5
F
102
{ACAD_REACTORS
330
E
102
}
330
E
  0
SCALE
  5
48
102
{ACAD_REACTORS
330
47
102
}
330
47
100
AcDbScale
 70
     0
300
1:1
140
1.0
141
1.0
290
     1
  0
SCALE
  5
49
102
{ACAD_REACTORS
330
47
102
}
330
47
100
AcDbScale
 70
     0
300
1:2
140
1.0
141
2.0
290
     0
  0
SCALE
  5
4A
102
{ACAD_REACTORS
330
47
102
}
330
47
100
AcDbScale
 70
     0
300
1:4
140
1.0
141
4.0
290
     0
  0
SCALE
  5
4B
102
{ACAD_REACTORS
330
47
102
}
330
47
100
AcDbScale
 70
     0
300
1:5
140
1.0
141
5.0
290
     0
  0
SCALE
  5
4C
102
{ACAD_REACTORS
330
47
102
}
330
47
100
AcDbScale
 70
     0
300
1:8
140
1.0
141
8.0
290
     0
  0
SCALE
  5
4D
102
{ACAD_REACTORS
330
47
102
}
330
47
100
AcDbScale
 70
     0
300
1:10
140
1.0
141
10.0
290
     0
  0
SCALE
  5
4E
102
{ACAD_REACTORS
330
47
102
}
330
47
100
AcDbScale
 70
     0
300
1:16
140
1.0
141
16.0
290
     0
  0
SCALE
  5
4F
102
{ACAD_REACTORS
330
47
102
}
330
47
100
AcDbScale
 70
     0
300
1:20
140
1.0
141
20.0
290
     0
  0
SCALE
  5
50
102
{ACAD_REACTORS
330
47
102
}
330
47
100
AcDbScale
 70
     0
300
1:30
140
1.0
141
30.0
290
     0
  0
SCALE
  5
51
102
{ACAD_REACTORS
330
47
102
}
330
47
100
AcDbScale
 70
     0
300
1:40
140
1.0
141
40.0
290
     0
  0
SCALE
  5
52
102
{ACAD_REACTORS
330
47
102
}
330
47
100
AcDbScale
 70
     0
300
1:50
140
1.0
141
50.0
290
     0
  0
SCALE
  5
53
102
{ACAD_REACTORS
330
47
102
}
330
47
100
AcDbScale
 70
     0
300
1:100
140
1.0
141
100.0
290
     0
  0
SCALE
  5
54
102
{ACAD_REACTORS
330
47
102
}
330
47
100
AcDbScale
 70
     0
300
2:1
140
2.0
141
1.0
290
     0
  0
SCALE
  5
55
102
{ACAD_REACTORS
330
47
102
}
330
47
100
AcDbScale
 70
     0
300
4:1
140
4.0
141
1.0
290
     0
  0
SCALE
  5
56
102
{ACAD_REACTORS
330
47
102
}
330
47
100
AcDbScale
 70
     0
300
8:1
140
8.0
141
1.0
290
     0
  0
SCALE
  5
57
102
{ACAD_REACTORS
330
47
102
}
330
47
100
AcDbScale
 70
     0
300
10:1
140
10.0
141
1.0
290
     0
  0
SCALE
  5
58
102
{ACAD_REACTORS
330
47
102
}
330
47
100
AcDbScale
 70
     0
300
100:1
140
100.0
141
1.0
290
     0
  0
SCALE
  5
59
102
{ACAD_REACTORS
330
47
102
}
330
47
100
AcDbScale
 70
     0
300
1/128" = 1'-0"
140
0.0078125
141
12.0
290
     0
  0
SCALE
  5
5A
102
{ACAD_REACTORS
330
47
102
}
330
47
100
AcDbScale
 70
     0
300
1/64" = 1'-0"
140
0.015625
141
12.0
290
     0
  0
SCALE
  5
5B
102
{ACAD_REACTORS
330
47
102
}
330
47
100
AcDbScale
 70
     0
300
1/32" = 1'-0"
140
0.03125
141
12.0
290
     0
  0
SCALE
  5
5C
102
{ACAD_REACTORS
330
47
102
}
330
47
100
AcDbScale
 70
     0
300
1/16" = 1'-0"
140
0.0625
141
12.0
290
     0
  0
SCALE
  5
5D
102
{ACAD_REACTORS
330
47
102
}
330
47
100
AcDbScale
 70
     0
300
3/32" = 1'-0"
140
0.09375
141
12.0
290
     0
  0
SCALE
  5
5E
102
{ACAD_REACTORS
330
47
102
}
330
47
100
AcDbScale
 70
     0
300
1/8" = 1'-0"
140
0.125
141
12.0
290
     0
  0
SCALE
  5
5F
102
{ACAD_REACTORS
330
47
102
}
330
47
100
AcDbScale
 70
     0
300
3/16" = 1'-0"
140
0.1875
141
12.0
290
     0
  0
SCALE
  5
60
102
{ACAD_REACTORS
330
47
102
}
330
47
100
AcDbScale
 70
     0
300
1/4" = 1'-0"
140
0.25
141
12.0
290
     0
  0
SCALE
  5
61
102
{ACAD_REACTORS
330
47
102
}
330
47
100
AcDbScale
 70
     0
300
3/8" = 1'-0"
140
0.375
141
12.0
290
     0
  0
SCALE
  5
62
102
{ACAD_REACTORS
330
47
102
}
330
47
100
AcDbScale
 70
     0
300
1/2" = 1'-0"
140
0.5
141
12.0
290
     0
  0
SCALE
  5
63
102
{ACAD_REACTORS
330
47
102
}
330
47
100
AcDbScale
 70
     0
300
3/4" = 1'-0"
140
0.75
141
12.0
290
     0
  0
SCALE
  5
64
102
{ACAD_REACTORS
330
47
102
}
330
47
100
AcDbScale
 70
     0
300
1" = 1'-0"
140
1.0
141
12.0
290
     0
  0
SCALE
  5
65
102
{ACAD_REACTORS
330
47
102
}
330
47
100
AcDbScale
 70
     0
300
1-1/2" = 1'-0"
140
1.5
141
12.0
290
     0
  0
SCALE
  5
66
102
{ACAD_REACTORS
330
47
102
}
330
47
100
AcDbScale
 70
     0
300
3" = 1'-0"
140
3.0
141
12.0
290
     0
  0
SCALE
  5
67
102
{ACAD_REACTORS
330
47
102
}
330
47
100
AcDbScale
 70
     0
300
6" = 1'-0"
140
6.0
141
12.0
290
     0
  0
SCALE
  5
68
102
{ACAD_REACTORS
330
47
102
}
330
47
100
AcDbScale
 70
     0
300
1'-0" = 1'-0"
140
12.0
141
12.0
290
     0
  0
ENDSEC
  0
EOF
